999
DXF file: 145704_1.dxf
999
Pro/ENGINEER 2016260 by Parametric Technology Corporation
  0
SECTION
  2
HEADER
  9
$ACADVER
  1
AC1027
  9
$DWGCODEPAGE
  3
ANSI_1252
  9
$EXTMAX
 10
17.0
 20
11.0
 30
0.0
  9
$EXTMIN
 10
0.0
 20
0.0
 30
0.0
  9
$LIMMIN
 10
0.0
 20
0.0
  9
$LIMMAX
 10
17.0
 20
11.0
  9
$VIEWCTR
 10
8.5
 20
5.5
  9
$VIEWSIZE
 40
11.0
  9
$CLAYER
  8
0
  9
$LTSCALE
 40
0.935
  9
$CELTYPE
  6
BYLAYER
  9
$DIMSCALE
 40
1.0
  9
$DIMASZ
 40
0.1875
  9
$DIMEXO
 40
0.0625
  9
$DIMDLI
 40
0.646
  9
$DIMEXE
 40
0.125
  9
$DIMCEN
 40
0.153
  9
$DIMLFAC
 40
1.0
  9
$DIMBLK
  1
_FILLED
  9
$DIMALT
 70
1
  9
$DIMALTD
 70
2
  9
$DIMALTTD
 70
2
  9
$DIMALTF
 40
1.0
  9
$DIMTXT
 40
0.1
  9
$DIMTOL
 70
1
  9
$DIMLIM
 70
0
  9
$DIMTFAC
 40
1.0
  9
$DIMTP
 40
0.005
  9
$DIMTM
 40
0.005
  9
$DIMGAP
 40
0.09
  9
$DIMDSEP
 70
46
  9
$AUNITS
 70
0
  9
$PDMODE
 70
3
  9
$PDSIZE
 40
0.3125
  9
$HANDSEED
  5
59A
  9
$TILEMODE
 70
1
  9
$MEASUREMENT
 70
0
  9
$INSUNITS
 70
1
  0
ENDSEC
  0
SECTION
  2
CLASSES
  0
CLASS
  1
ACDBDICTIONARYWDFLT
  2
AcDbDictionaryWithDefault
  3
AutoCAD 2000
 90
0
 91
1
280
0
281
0
  0
CLASS
  1
ACDBPLACEHOLDER
  2
AcDbPlaceHolder
  3
AutoCAD 2000
 90
0
 91
1
280
0
281
0
  0
CLASS
  1
LAYOUT
  2
AcDbLayout
  3
AutoCAD 2000
 90
0
 91
0
280
0
281
0
  0
CLASS
  1
TABLESTYLE
  2
AcDbTableStyle
  3
ObjectDBX Classes
 90
2047
 91
1
280
0
281
0
  0
CLASS
  1
ACAD_TABLE
  2
AcDbTable
  3
ObjectDBX Classes
 90
1025
 91
1
280
0
281
1
  0
ENDSEC
  0
SECTION
  2
TABLES
  0
TABLE
  2
VPORT
  5
8
100
AcDbSymbolTable
 70
2
  0
VPORT
  5
1F4
100
AcDbSymbolTableRecord
100
AcDbViewportTableRecord
  2
*ACTIVE
 70
0
 10
0.0
 20
0.0
 11
1.0
 21
1.0
 12
8.5
 22
5.5
 13
0.0
 23
0.0
 14
1.0
 24
1.0
 15
0.0
 25
0.0
 16
0.0
 26
0.0
 36
1.0
 17
0.0
 27
0.0
 37
0.0
 40
11.0
 41
1.5454545455
 42
50.0
 43
0.0
 44
0.0
 50
0.0
 51
0.0
 71
0
 72
100
 73
1
 74
1
 75
0
 76
0
 77
0
 78
0
  0
ENDTAB
  0
TABLE
  2
LTYPE
  5
5
100
AcDbSymbolTable
 70
6
  0
LTYPE
  5
14
100
AcDbSymbolTableRecord
100
AcDbLinetypeTableRecord
  2
BYBLOCK
 70
0
  3

 72
65
 73
0
 40
0.0
  0
LTYPE
  5
15
100
AcDbSymbolTableRecord
100
AcDbLinetypeTableRecord
  2
BYLAYER
 70
0
  3

 72
65
 73
0
 40
0.0
  0
LTYPE
  5
16
100
AcDbSymbolTableRecord
100
AcDbLinetypeTableRecord
  2
CONTINUOUS
 70
64
  3
Solid line
 72
65
 73
0
 40
0.0
  0
LTYPE
  5
1F5
100
AcDbSymbolTableRecord
100
AcDbLinetypeTableRecord
  2
CENTER
 70
64
  3
____ _ ____ _ ____ _ ____ _ ____ _ ____ _ ____
 72
65
 73
4
 40
0.6
 49
0.375
 74
0
 49
-0.075
 74
0
 49
0.075
 74
0
 49
-0.075
 74
0
  0
LTYPE
  5
1F6
100
AcDbSymbolTableRecord
100
AcDbLinetypeTableRecord
  2
HIDDEN
 70
64
  3
- - - - - - - - - - - - - - - - - - - -
 72
65
 73
2
 40
0.2
 49
0.1
 74
0
 49
-0.1
 74
0
  0
LTYPE
  5
1F7
100
AcDbSymbolTableRecord
100
AcDbLinetypeTableRecord
  2
PHANTOM
 70
64
  3
_____ _ _ _____ _ _ _____ _ _ _____
 72
65
 73
6
 40
0.8
 49
0.45
 74
0
 49
-0.05
 74
0
 49
0.1
 74
0
 49
-0.05
 74
0
 49
0.1
 74
0
 49
-0.05
 74
0
  0
LTYPE
  5
1F8
100
AcDbSymbolTableRecord
100
AcDbLinetypeTableRecord
  2
DOT
 70
64
  3
. . . . . . . . . . . . . . . . . . . .
 72
65
 73
2
 40
0.2
 49
0.1
 74
0
 49
-0.1
 74
0
  0
LTYPE
  5
1F9
100
AcDbSymbolTableRecord
100
AcDbLinetypeTableRecord
  2
DASHED
 70
64
  3
- - - - - - - - - - - - - - - - - - - -
 72
65
 73
2
 40
0.2
 49
0.1
 74
0
 49
-0.1
 74
0
  0
ENDTAB
  0
TABLE
  2
LAYER
  5
2
100
AcDbSymbolTable
 70
36
  0
LAYER
  5
10
100
AcDbSymbolTableRecord
100
AcDbLayerTableRecord
  2
0
 70
0
 62
7
  6
CONTINUOUS
370
-3
390
F
  0
LAYER
  5
1FA
100
AcDbSymbolTableRecord
100
AcDbLayerTableRecord
  2
DEFAULT_1
 70
0
 62
7
  6
CENTER
370
-3
390
F
  0
LAYER
  5
1FB
100
AcDbSymbolTableRecord
100
AcDbLayerTableRecord
  2
DEFAULT_2
 70
0
 62
7
  6
HIDDEN
370
-3
390
F
  0
LAYER
  5
1FC
100
AcDbSymbolTableRecord
100
AcDbLayerTableRecord
  2
DEFAULT_3
 70
0
 62
7
  6
PHANTOM
370
-3
390
F
  0
LAYER
  5
1FD
100
AcDbSymbolTableRecord
100
AcDbLayerTableRecord
  2
AXIS
 70
0
 62
7
  6
CONTINUOUS
370
-3
390
F
  0
LAYER
  5
1FE
100
AcDbSymbolTableRecord
100
AcDbLayerTableRecord
  2
COSMETIC_THREADS
 70
0
 62
7
  6
CONTINUOUS
370
-3
390
F
  0
LAYER
  5
1FF
100
AcDbSymbolTableRecord
100
AcDbLayerTableRecord
  2
DATUM_CURVES
 70
0
 62
7
  6
CONTINUOUS
370
-3
390
F
  0
LAYER
  5
200
100
AcDbSymbolTableRecord
100
AcDbLayerTableRecord
  2
DATUM_PLANES
 70
0
 62
7
  6
CONTINUOUS
370
-3
390
F
  0
LAYER
  5
201
100
AcDbSymbolTableRecord
100
AcDbLayerTableRecord
  2
NOTES
 70
0
 62
7
  6
CONTINUOUS
370
-3
390
F
  0
LAYER
  5
202
100
AcDbSymbolTableRecord
100
AcDbLayerTableRecord
  2
QUILTS
 70
0
 62
7
  6
CONTINUOUS
370
-3
390
F
  0
LAYER
  5
203
100
AcDbSymbolTableRecord
100
AcDbLayerTableRecord
  2
SCHEME_DIMS
 70
0
 62
7
  6
CONTINUOUS
370
-3
390
F
  0
LAYER
  5
204
100
AcDbSymbolTableRecord
100
AcDbLayerTableRecord
  2
SYMBOLS
 70
0
 62
7
  6
CONTINUOUS
370
-3
390
F
  0
ENDTAB
  0
TABLE
  2
STYLE
  5
3
100
AcDbSymbolTable
 70
1
  0
STYLE
  5
11
100
AcDbSymbolTableRecord
100
AcDbTextStyleTableRecord
  2
STANDARD
 70
0
 40
0.0
 41
1.0
 50
0.0
 71
0
 42
0.2
  3
txt
  4

  0
STYLE
  5
205
100
AcDbSymbolTableRecord
100
AcDbTextStyleTableRecord
  2
TEXTSTYLE_1
 70
0
 40
0.0
 41
0.8
 50
0.0
 71
0
 42
0.2
  3
gdt
  4

  0
STYLE
  5
206
100
AcDbSymbolTableRecord
100
AcDbTextStyleTableRecord
  2
TEXTSTYLE_2
 70
0
 40
0.0
 41
0.8
 50
0.0
 71
0
 42
0.2
  3
txt
  4

  0
STYLE
  5
207
100
AcDbSymbolTableRecord
100
AcDbTextStyleTableRecord
  2
TEXTSTYLE_3
 70
0
 40
0.0
 41
0.85
 50
0.0
 71
0
 42
0.2
  3
txt
  4

  0
STYLE
  5
208
100
AcDbSymbolTableRecord
100
AcDbTextStyleTableRecord
  2
TEXTSTYLE_4
 70
0
 40
0.0
 41
0.9
 50
0.0
 71
0
 42
0.2
  3
txt
  4

  0
STYLE
  5
209
100
AcDbSymbolTableRecord
100
AcDbTextStyleTableRecord
  2
TEXTSTYLE_5
 70
0
 40
0.0
 41
0.75
 50
0.0
 71
0
 42
0.2
  3
txt
  4

  0
STYLE
  5
20A
100
AcDbSymbolTableRecord
100
AcDbTextStyleTableRecord
  2
TEXTSTYLE_6
 70
0
 40
0.0
 41
1.0
 50
0.0
 71
0
 42
0.2
  3
gdt
  4

  0
ENDTAB
  0
TABLE
  2
VIEW
  5
6
100
AcDbSymbolTable
 70
0
  0
ENDTAB
  0
TABLE
  2
UCS
  5
7
100
AcDbSymbolTable
 70
0
  0
ENDTAB
  0
TABLE
  2
APPID
  5
9
100
AcDbSymbolTable
 70
1
  0
APPID
  5
20B
100
AcDbSymbolTableRecord
100
AcDbRegAppTableRecord
  2
ACAD
 70
0
  0
ENDTAB
  0
TABLE
  2
BLOCK_RECORD
  5
1
100
AcDbSymbolTable
 70
0
  0
BLOCK_RECORD
  5
20C
100
AcDbSymbolTableRecord
100
AcDbBlockTableRecord
  2
*Model_Space
  0
BLOCK_RECORD
  5
20D
100
AcDbSymbolTableRecord
100
AcDbBlockTableRecord
  2
*Paper_Space
  0
BLOCK_RECORD
  5
20E
100
AcDbSymbolTableRecord
100
AcDbBlockTableRecord
  2
_FILLED
  0
BLOCK_RECORD
  5
20F
100
AcDbSymbolTableRecord
100
AcDbBlockTableRecord
  2
*D0
  0
BLOCK_RECORD
  5
210
100
AcDbSymbolTableRecord
100
AcDbBlockTableRecord
  2
*D1
  0
BLOCK_RECORD
  5
211
100
AcDbSymbolTableRecord
100
AcDbBlockTableRecord
  2
*D2
  0
BLOCK_RECORD
  5
212
100
AcDbSymbolTableRecord
100
AcDbBlockTableRecord
  2
*D3
  0
BLOCK_RECORD
  5
213
100
AcDbSymbolTableRecord
100
AcDbBlockTableRecord
  2
*D4
  0
BLOCK_RECORD
  5
214
100
AcDbSymbolTableRecord
100
AcDbBlockTableRecord
  2
*T1
  0
ENDTAB
  0
TABLE
  2
DIMSTYLE
  5
A
100
AcDbSymbolTable
 70
1
100
AcDbDimStyleTable
 71
0
  0
DIMSTYLE
105
215
100
AcDbSymbolTableRecord
100
AcDbDimStyleTableRecord
  2
STANDARD
 70
0
  3

  4

 40
1.0
 41
0.1875
 42
0.0625
 43
0.38
 44
0.125
 45
0.0
 46
0.0
 47
0.005
 48
0.005
140
0.1
141
0.09
142
0.0
143
1.0
144
1.0
145
0.0
146
1.0
147
0.09
 71
1.0
 72
0.0
 73
1
 74
1
 75
0
 76
0
 77
0
 78
4
170
1
171
2
172
0
173
0
174
0
175
0
176
0
177
0
178
0
270
2
271
3
272
3
273
2
274
2
275
0
280
0
281
0
282
0
283
1
284
4
285
0
286
0
287
3
288
0
340
11
278
46
341
20E
342
20E
343
20E
344
20E
  0
DIMSTYLE
105
216
100
AcDbSymbolTableRecord
100
AcDbDimStyleTableRecord
  2
DIMSTYLE_1
 70
0
  3

  4

 40
1.0
 41
0.1875
 42
0.0625
 43
0.38
 44
0.125
 45
0.0
 46
0.0
 47
0.01
 48
0.01
140
0.1
141
0.09
142
0.0
143
1.0
144
1.0
145
0.0
146
1.0
147
0.1
 71
0.0
 72
0.0
 73
1
 74
1
 75
0
 76
0
 77
0
 78
4
170
1
171
3
172
0
173
0
174
0
175
0
176
0
177
0
178
0
270
2
271
2
272
3
273
2
274
-14
275
0
280
0
281
0
282
0
283
1
284
4
285
0
286
0
287
3
288
0
340
11
278
46
341
20E
342
20E
343
20E
344
20E
  0
DIMSTYLE
105
217
100
AcDbSymbolTableRecord
100
AcDbDimStyleTableRecord
  2
DIMSTYLE_2
 70
0
  3
<>
  4

 40
1.0
 41
0.1875
 42
0.0625
 43
0.38
 44
0.125
 45
0.0
 46
0.0
 47
0.01
 48
0.01
140
0.1
141
0.09
142
0.0
143
1.0
144
1.0
145
0.0
146
1.0
147
0.09
 71
0.0
 72
0.0
 73
1
 74
1
 75
0
 76
0
 77
0
 78
4
170
1
171
3
172
0
173
0
174
0
175
0
176
0
177
0
178
0
270
2
271
2
272
3
273
2
274
-14
275
0
280
0
281
0
282
0
283
1
284
4
285
0
286
0
287
3
288
1
340
11
278
46
289
2
341
20E
342
20E
343
20E
344
20E
  0
ENDTAB
  0
ENDSEC
  0
SECTION
  2
BLOCKS
  0
BLOCK
  5
20
100
AcDbEntity
  8
0
100
AcDbBlockBegin
  2
*Model_Space
 70
0
 10
0.0
 20
0.0
 30
0.0
  3
*Model_Space
  1

  0
ENDBLK
  5
21
100
AcDbEntity
  8
0
100
AcDbBlockEnd
  0
BLOCK
  5
1C
100
AcDbEntity
  8
0
100
AcDbBlockBegin
  2
*Paper_Space
 70
0
 10
0.0
 20
0.0
 30
0.0
  3
*Paper_Space
  1

  0
ENDBLK
  5
1D
100
AcDbEntity
  8
0
100
AcDbBlockEnd
  0
BLOCK
  5
218
100
AcDbEntity
  8
0
100
AcDbBlockBegin
  2
_FILLED
 70
64
 10
0.0
 20
0.0
  3
_FILLED
  1

  0
SOLID
  5
219
100
AcDbEntity
  8
0
  6
BYBLOCK
 62
0
100
AcDbTrace
 10
0.0
 20
0.0
 11
-1.0
 21
0.1666666667
 12
-1.0
 22
-0.1666666667
 13
-1.0
 23
-0.1666666667
  0
ENDBLK
  5
21A
100
AcDbEntity
  8
0
  6
BYBLOCK
 62
0
100
AcDbBlockEnd
  0
BLOCK
  5
21B
100
AcDbEntity
  8
SCHEME_DIMS
100
AcDbBlockBegin
 62
7
  6
CONTINUOUS
  2
*D0
 70
65
 10
0.0
 20
0.0
  3
*D0
  1

  0
MTEXT
  5
21C
100
AcDbEntity
  8
SCHEME_DIMS
100
AcDbMText
 62
7
  6
CONTINUOUS
  7
STANDARD
 71
2
 72
1
 10
2.7029502036
 20
5.3946026531
 30
0.0
 11
1.0
 21
0.0
 31
0.0
 44
0.9
  1
1.23\P[1.233]
 40
0.1
 41
0.7
  0
LINE
  5
21D
100
AcDbEntity
  8
SCHEME_DIMS
100
AcDbLine
 62
7
  6
CONTINUOUS
 10
3.2890019511
 20
5.8858526531
 11
2.7279502036
 21
5.8858526531
  0
LINE
  5
21E
100
AcDbEntity
  8
SCHEME_DIMS
100
AcDbLine
 62
7
  6
CONTINUOUS
 10
4.2438409052
 20
4.6533526531
 11
2.7279502036
 21
4.6533526531
  0
LINE
  5
21F
100
AcDbEntity
  8
SCHEME_DIMS
100
AcDbLine
 62
7
  6
CONTINUOUS
 10
2.8529502036
 20
5.8858526531
 11
2.8529502036
 21
5.4946026531
  0
LINE
  5
220
100
AcDbEntity
  8
SCHEME_DIMS
100
AcDbLine
 62
7
  6
CONTINUOUS
 10
2.8529502036
 20
4.6533526531
 11
2.8529502036
 21
5.0446026531
  0
INSERT
  5
221
100
AcDbEntity
  8
SCHEME_DIMS
100
AcDbBlockReference
 62
7
  6
CONTINUOUS
  2
_FILLED
 10
2.8529502036
 20
5.8858526531
 41
0.1875
 42
0.1875
 43
0.1875
 50
90.0
  0
INSERT
  5
222
100
AcDbEntity
  8
SCHEME_DIMS
100
AcDbBlockReference
 62
7
  6
CONTINUOUS
  2
_FILLED
 10
2.8529502036
 20
4.6533526531
 41
0.1875
 42
0.1875
 43
0.1875
 50
270.0
  0
ENDBLK
  5
223
100
AcDbEntity
  8
0
  6
BYBLOCK
 62
0
100
AcDbBlockEnd
  0
BLOCK
  5
224
100
AcDbEntity
  8
SCHEME_DIMS
100
AcDbBlockBegin
 62
7
  6
CONTINUOUS
  2
*D1
 70
65
 10
0.0
 20
0.0
  3
*D1
  1

  0
MTEXT
  5
225
100
AcDbEntity
  8
SCHEME_DIMS
100
AcDbMText
 62
7
  6
CONTINUOUS
  7
STANDARD
 71
2
 72
1
 10
4.4629501894
 20
7.5928526531
 30
0.0
 11
1.0
 21
0.0
 31
0.0
 44
0.9
  1
2.52\P[2.520]
 40
0.1
 41
0.7
  0
LINE
  5
226
100
AcDbEntity
  8
SCHEME_DIMS
100
AcDbLine
 62
7
  6
CONTINUOUS
 10
5.8729501894
 20
6.6633526531
 11
5.8729501894
 21
7.6678526531
  0
LINE
  5
227
100
AcDbEntity
  8
SCHEME_DIMS
100
AcDbLine
 62
7
  6
CONTINUOUS
 10
3.3529501894
 20
6.6633526531
 11
3.3529501894
 21
7.6678526531
  0
LINE
  5
228
100
AcDbEntity
  8
SCHEME_DIMS
100
AcDbLine
 62
7
  6
CONTINUOUS
 10
5.8729501894
 20
7.5428526531
 11
5.0629501894
 21
7.5428526531
  0
LINE
  5
229
100
AcDbEntity
  8
SCHEME_DIMS
100
AcDbLine
 62
7
  6
CONTINUOUS
 10
3.3529501894
 20
7.5428526531
 11
4.1629501894
 21
7.5428526531
  0
INSERT
  5
22A
100
AcDbEntity
  8
SCHEME_DIMS
100
AcDbBlockReference
 62
7
  6
CONTINUOUS
  2
_FILLED
 10
5.8729501894
 20
7.5428526531
 41
0.1875
 42
0.1875
 43
0.1875
  0
INSERT
  5
22B
100
AcDbEntity
  8
SCHEME_DIMS
100
AcDbBlockReference
 62
7
  6
CONTINUOUS
  2
_FILLED
 10
3.3529501894
 20
7.5428526531
 41
0.1875
 42
0.1875
 43
0.1875
 50
180.0
  0
ENDBLK
  5
22C
100
AcDbEntity
  8
0
  6
BYBLOCK
 62
0
100
AcDbBlockEnd
  0
BLOCK
  5
22D
100
AcDbEntity
  8
SCHEME_DIMS
100
AcDbBlockBegin
 62
7
  6
CONTINUOUS
  2
*D2
 70
65
 10
0.0
 20
0.0
  3
*D2
  1

  0
MTEXT
  5
22E
100
AcDbEntity
  8
SCHEME_DIMS
100
AcDbMText
 62
7
  6
CONTINUOUS
  7
STANDARD
 71
2
 72
1
 10
9.8160541764
 20
5.9721026531
 30
0.0
 11
1.0
 21
0.0
 31
0.0
 44
0.9
  1
2.39\P[2.388]
 40
0.1
 41
0.7
  0
LINE
  5
22F
100
AcDbEntity
  8
SCHEME_DIMS
100
AcDbLine
 62
7
  6
CONTINUOUS
 10
9.5132056925
 20
7.0408526531
 11
10.0910541764
 21
7.0408526531
  0
LINE
  5
230
100
AcDbEntity
  8
SCHEME_DIMS
100
AcDbLine
 62
7
  6
CONTINUOUS
 10
9.348595787
 20
4.6533526531
 11
10.0910541764
 21
4.6533526531
  0
LINE
  5
231
100
AcDbEntity
  8
SCHEME_DIMS
100
AcDbLine
 62
7
  6
CONTINUOUS
 10
9.9660541764
 20
7.0408526531
 11
9.9660541764
 21
6.0721026531
  0
LINE
  5
232
100
AcDbEntity
  8
SCHEME_DIMS
100
AcDbLine
 62
7
  6
CONTINUOUS
 10
9.9660541764
 20
4.6533526531
 11
9.9660541764
 21
5.6221026531
  0
INSERT
  5
233
100
AcDbEntity
  8
SCHEME_DIMS
100
AcDbBlockReference
 62
7
  6
CONTINUOUS
  2
_FILLED
 10
9.9660541764
 20
7.0408526531
 41
0.1875
 42
0.1875
 43
0.1875
 50
90.0
  0
INSERT
  5
234
100
AcDbEntity
  8
SCHEME_DIMS
100
AcDbBlockReference
 62
7
  6
CONTINUOUS
  2
_FILLED
 10
9.9660541764
 20
4.6533526531
 41
0.1875
 42
0.1875
 43
0.1875
 50
270.0
  0
ENDBLK
  5
235
100
AcDbEntity
  8
0
  6
BYBLOCK
 62
0
100
AcDbBlockEnd
  0
BLOCK
  5
236
100
AcDbEntity
  8
SCHEME_DIMS
100
AcDbBlockBegin
 62
7
  6
CONTINUOUS
  2
*D3
 70
65
 10
0.0
 20
0.0
  3
*D3
  1

  0
MTEXT
  5
237
100
AcDbEntity
  8
SCHEME_DIMS
100
AcDbMText
 62
7
  6
CONTINUOUS
  7
STANDARD
 71
2
 72
1
 10
2.7029502036
 20
3.3780648225
 30
0.0
 11
1.0
 21
0.0
 31
0.0
 44
0.9
  1
.63\P[.630]
 40
0.1
 41
0.6
  0
LINE
  5
238
100
AcDbEntity
  8
SCHEME_DIMS
100
AcDbLine
 62
7
  6
CONTINUOUS
 10
3.5104789194
 20
3.5680648225
 11
2.7279502036
 21
3.5680648225
  0
LINE
  5
239
100
AcDbEntity
  8
SCHEME_DIMS
100
AcDbLine
 62
7
  6
CONTINUOUS
 10
3.5166620184
 20
2.9380648225
 11
2.7279502036
 21
2.9380648225
  0
LINE
  5
23A
100
AcDbEntity
  8
SCHEME_DIMS
100
AcDbLine
 62
7
  6
CONTINUOUS
 10
2.8529502036
 20
3.5680648225
 11
2.8529502036
 21
3.9680648225
  0
LINE
  5
23B
100
AcDbEntity
  8
SCHEME_DIMS
100
AcDbLine
 62
7
  6
CONTINUOUS
 10
2.8529502036
 20
2.9380648225
 11
2.8529502036
 21
2.5380648225
  0
INSERT
  5
23C
100
AcDbEntity
  8
SCHEME_DIMS
100
AcDbBlockReference
 62
7
  6
CONTINUOUS
  2
_FILLED
 10
2.8529502036
 20
3.5680648225
 41
0.1875
 42
0.1875
 43
0.1875
 50
270.0
  0
INSERT
  5
23D
100
AcDbEntity
  8
SCHEME_DIMS
100
AcDbBlockReference
 62
7
  6
CONTINUOUS
  2
_FILLED
 10
2.8529502036
 20
2.9380648225
 41
0.1875
 42
0.1875
 43
0.1875
 50
90.0
  0
ENDBLK
  5
23E
100
AcDbEntity
  8
0
  6
BYBLOCK
 62
0
100
AcDbBlockEnd
  0
BLOCK
  5
23F
100
AcDbEntity
  8
SCHEME_DIMS
100
AcDbBlockBegin
 62
7
  6
CONTINUOUS
  2
*D4
 70
65
 10
0.0
 20
0.0
  3
*D4
  1

  0
MTEXT
  5
240
100
AcDbEntity
  8
SCHEME_DIMS
100
AcDbMText
 62
7
  6
CONTINUOUS
  7
TEXTSTYLE_6
 71
3
 72
1
 10
2.3960528214
 20
6.7110205193
 30
0.0
 11
1.0
 21
0.0
 31
0.0
 44
0.9
  1
{\Fgdt;n}\Ftxt;1.00\P[1.000]
 40
0.1
 41
0.7
  0
LINE
  5
241
100
AcDbEntity
  8
SCHEME_DIMS
100
AcDbLine
 62
7
  6
CONTINUOUS
 10
4.1584177566
 20
6.1216799619
 11
2.9816744048
 21
6.6610205193
  0
LINE
  5
242
100
AcDbEntity
  8
SCHEME_DIMS
100
AcDbLine
 62
7
  6
CONTINUOUS
 10
2.9816744048
 20
6.6610205193
 11
2.7960528214
 21
6.6610205193
  0
INSERT
  5
243
100
AcDbEntity
  8
SCHEME_DIMS
100
AcDbBlockReference
 62
7
  6
CONTINUOUS
  2
_FILLED
 10
4.1584177566
 20
6.1216799619
 41
0.1875
 42
0.1875
 43
0.1875
 50
335.3764410703
  0
ENDBLK
  5
244
100
AcDbEntity
  8
0
  6
BYBLOCK
 62
0
100
AcDbBlockEnd
  0
BLOCK
  5
245
100
AcDbEntity
  8
0
100
AcDbBlockBegin
  2
*T1
 70
1
 10
0.0
 20
0.0
  3
*T1
  1

  0
LINE
  5
246
100
AcDbEntity
  8
0
100
AcDbLine
 62
7
  6
CONTINUOUS
 10
4.35
 20
0.0
 11
0.0
 21
0.0
  0
LINE
  5
247
100
AcDbEntity
  8
0
100
AcDbLine
 62
7
  6
CONTINUOUS
 10
4.35
 20
0.0
 11
4.35
 21
1.92
  0
LINE
  5
248
100
AcDbEntity
  8
0
100
AcDbLine
 62
7
  6
CONTINUOUS
 10
4.35
 20
1.92
 11
0.0
 21
1.92
  0
LINE
  5
249
100
AcDbEntity
  8
0
100
AcDbLine
 62
7
  6
CONTINUOUS
 10
0.0
 20
0.0
 11
0.0
 21
1.92
  0
MTEXT
  5
24A
100
AcDbEntity
  8
NOTES
100
AcDbMText
 62
7
  6
CONTINUOUS
  7
STANDARD
 71
2
 72
1
 10
4.125
 20
0.48
 30
0.0
 11
1.0
 21
0.0
 31
0.0
 44
0.9
  1
A
 40
0.1
 41
0.2
  0
MTEXT
  5
24B
100
AcDbEntity
  8
NOTES
100
AcDbMText
 62
7
  6
CONTINUOUS
  7
STANDARD
 71
2
 72
1
 10
2.175
 20
0.93
 30
0.0
 11
1.0
 21
0.0
 31
0.0
 44
0.9
  1
SMBM25B
 40
0.1
 41
1.4
  0
ENDBLK
  5
24C
100
AcDbEntity
  8
0
  6
BYBLOCK
 62
0
100
AcDbBlockEnd
  0
ENDSEC
  0
SECTION
  2
ENTITIES
  0
MTEXT
  5
24D
100
AcDbEntity
  8
0
100
AcDbMText
 62
7
  6
CONTINUOUS
  7
TEXTSTYLE_2
 71
2
 72
1
 10
11.0287658475
 20
1.794867839
 30
0.0
 11
1.0
 21
0.0
 31
0.0
 44
0.9
  1
THIRD ANGLE PROJECTION
 40
0.1
 41
1.76
  0
MTEXT
  5
24E
100
AcDbEntity
  8
0
100
AcDbMText
 62
7
  6
CONTINUOUS
  7
STANDARD
 71
1
 72
1
 10
12.88
 20
1.457
 30
0.0
 11
1.0
 21
0.0
 31
0.0
 44
0.9
  1
DRAWING NO.
 40
0.08
 41
0.88
  0
MTEXT
  5
24F
100
AcDbEntity
  8
0
100
AcDbMText
 62
7
  6
CONTINUOUS
  7
TEXTSTYLE_2
 71
1
 72
1
 10
12.08
 20
2.217
 30
0.0
 11
1.0
 21
0.0
 31
0.0
 44
0.9
  1
TITLE
 40
0.1
 41
0.4
  0
MTEXT
  5
250
100
AcDbEntity
  8
0
100
AcDbMText
 62
7
  6
CONTINUOUS
  7
STANDARD
 71
1
 72
1
 10
12.08
 20
1.457
 30
0.0
 11
1.0
 21
0.0
 31
0.0
 44
0.9
  1
SIZE
 40
0.08
 41
0.32
  0
MTEXT
  5
251
100
AcDbEntity
  8
0
100
AcDbMText
 62
7
  6
CONTINUOUS
  7
STANDARD
 71
1
 72
1
 10
12.08
 20
1.087
 30
0.0
 11
1.0
 21
0.0
 31
0.0
 44
0.9
  1
SCALE
 40
0.08
 41
0.4
  0
MTEXT
  5
252
100
AcDbEntity
  8
0
100
AcDbMText
 62
7
  6
CONTINUOUS
  7
TEXTSTYLE_2
 71
2
 72
1
 10
12.5
 20
1.337
 30
0.0
 11
1.0
 21
0.0
 31
0.0
 44
0.9
  1
B
 40
0.1
 41
0.08
  0
MTEXT
  5
253
100
AcDbEntity
  8
0
100
AcDbMText
 62
7
  6
CONTINUOUS
  7
TEXTSTYLE_3
 71
2
 72
1
 10
11.0340287086
 20
2.7679425959
 30
0.0
 11
1.0
 21
0.0
 31
0.0
 44
0.9
  1
This drawing is the property\Pof BANNER ENGINEERING CORP.\PAny use or reproduction,\Pin any form, without prior\Pwritten permission of\PBanner is prohibited.
 40
0.08
 41
1.904
  0
MTEXT
  5
254
100
AcDbEntity
  8
0
100
AcDbMText
 62
7
  6
CONTINUOUS
  7
STANDARD
 71
1
 72
1
 10
14.255
 20
1.087
 30
0.0
 11
1.0
 21
0.0
 31
0.0
 44
0.9
  1
SHEET
 40
0.08
 41
0.4
  0
MTEXT
  5
255
100
AcDbEntity
  8
0
100
AcDbMText
 62
7
  6
CONTINUOUS
  7
STANDARD
 71
1
 72
1
 10
15.63
 20
1.457
 30
0.0
 11
1.0
 21
0.0
 31
0.0
 44
0.9
  1
REV.
 40
0.08
 41
0.32
  0
MTEXT
  5
256
100
AcDbEntity
  8
0
100
AcDbMText
 62
7
  6
CONTINUOUS
  7
STANDARD
 71
3
 72
1
 10
16.38
 20
0.835443
 30
0.0
 11
1.0
 21
0.0
 31
0.0
 44
0.9
  1
CREO
 40
0.07
 41
0.28
  0
MTEXT
  5
257
100
AcDbEntity
  8
0
100
AcDbMText
 62
7
  6
CONTINUOUS
  7
TEXTSTYLE_4
 71
2
 72
1
 10
15.1043392653
 20
2.7174764286
 30
0.0
 11
1.0
 21
0.0
 31
0.0
 44
0.9
  1
BANNER ENGINEERING CORP.
 40
0.12
 41
2.592
  0
MTEXT
  5
258
100
AcDbEntity
  8
0
100
AcDbMText
 62
7
  6
CONTINUOUS
  7
TEXTSTYLE_2
 71
2
 72
1
 10
15.0923490612
 20
2.4764783673
 30
0.0
 11
1.0
 21
0.0
 31
0.0
 44
0.9
  1
www.bannerengineering.com
 40
0.1
 41
2.0
  0
MTEXT
  5
259
100
AcDbEntity
  8
0
100
AcDbMText
 62
7
  6
CONTINUOUS
  7
TEXTSTYLE_2
 71
2
 72
1
 10
9.485
 20
10.312
 30
0.0
 11
1.0
 21
0.0
 31
0.0
 44
0.9
  1
4
 40
0.1
 41
0.08
  0
MTEXT
  5
25A
100
AcDbEntity
  8
0
100
AcDbMText
 62
7
  6
CONTINUOUS
  7
TEXTSTYLE_2
 71
2
 72
1
 10
11.455
 20
10.312
 30
0.0
 11
1.0
 21
0.0
 31
0.0
 44
0.9
  1
3
 40
0.1
 41
0.08
  0
MTEXT
  5
25B
100
AcDbEntity
  8
0
100
AcDbMText
 62
7
  6
CONTINUOUS
  7
TEXTSTYLE_2
 71
2
 72
1
 10
13.425
 20
10.312
 30
0.0
 11
1.0
 21
0.0
 31
0.0
 44
0.9
  1
2
 40
0.1
 41
0.08
  0
MTEXT
  5
25C
100
AcDbEntity
  8
0
100
AcDbMText
 62
7
  6
CONTINUOUS
  7
TEXTSTYLE_2
 71
2
 72
1
 10
15.395
 20
10.312
 30
0.0
 11
1.0
 21
0.0
 31
0.0
 44
0.9
  1
1
 40
0.1
 41
0.08
  0
MTEXT
  5
25D
100
AcDbEntity
  8
0
100
AcDbMText
 62
7
  6
CONTINUOUS
  7
TEXTSTYLE_2
 71
2
 72
1
 10
3.575
 20
10.312
 30
0.0
 11
1.0
 21
0.0
 31
0.0
 44
0.9
  1
7
 40
0.1
 41
0.08
  0
MTEXT
  5
25E
100
AcDbEntity
  8
0
100
AcDbMText
 62
7
  6
CONTINUOUS
  7
TEXTSTYLE_2
 71
2
 72
1
 10
5.545
 20
10.312
 30
0.0
 11
1.0
 21
0.0
 31
0.0
 44
0.9
  1
6
 40
0.1
 41
0.08
  0
MTEXT
  5
25F
100
AcDbEntity
  8
0
100
AcDbMText
 62
7
  6
CONTINUOUS
  7
TEXTSTYLE_2
 71
2
 72
1
 10
7.515
 20
10.312
 30
0.0
 11
1.0
 21
0.0
 31
0.0
 44
0.9
  1
5
 40
0.1
 41
0.08
  0
MTEXT
  5
260
100
AcDbEntity
  8
0
100
AcDbMText
 62
7
  6
CONTINUOUS
  7
TEXTSTYLE_2
 71
2
 72
1
 10
1.605
 20
10.312
 30
0.0
 11
1.0
 21
0.0
 31
0.0
 44
0.9
  1
8
 40
0.1
 41
0.08
  0
MTEXT
  5
261
100
AcDbEntity
  8
0
100
AcDbMText
 62
7
  6
CONTINUOUS
  7
TEXTSTYLE_2
 71
2
 72
1
 10
1.605
 20
0.787
 30
0.0
 11
1.0
 21
0.0
 31
0.0
 44
0.9
  1
8
 40
0.1
 41
0.08
  0
MTEXT
  5
262
100
AcDbEntity
  8
0
100
AcDbMText
 62
7
  6
CONTINUOUS
  7
TEXTSTYLE_2
 71
2
 72
1
 10
3.575
 20
0.787
 30
0.0
 11
1.0
 21
0.0
 31
0.0
 44
0.9
  1
7
 40
0.1
 41
0.08
  0
MTEXT
  5
263
100
AcDbEntity
  8
0
100
AcDbMText
 62
7
  6
CONTINUOUS
  7
TEXTSTYLE_2
 71
2
 72
1
 10
5.545
 20
0.787
 30
0.0
 11
1.0
 21
0.0
 31
0.0
 44
0.9
  1
6
 40
0.1
 41
0.08
  0
MTEXT
  5
264
100
AcDbEntity
  8
0
100
AcDbMText
 62
7
  6
CONTINUOUS
  7
TEXTSTYLE_2
 71
2
 72
1
 10
7.515
 20
0.787
 30
0.0
 11
1.0
 21
0.0
 31
0.0
 44
0.9
  1
5
 40
0.1
 41
0.08
  0
MTEXT
  5
265
100
AcDbEntity
  8
0
100
AcDbMText
 62
7
  6
CONTINUOUS
  7
TEXTSTYLE_2
 71
2
 72
1
 10
9.485
 20
0.787
 30
0.0
 11
1.0
 21
0.0
 31
0.0
 44
0.9
  1
4
 40
0.1
 41
0.08
  0
MTEXT
  5
266
100
AcDbEntity
  8
0
100
AcDbMText
 62
7
  6
CONTINUOUS
  7
TEXTSTYLE_2
 71
2
 72
1
 10
11.455
 20
0.787
 30
0.0
 11
1.0
 21
0.0
 31
0.0
 44
0.9
  1
3
 40
0.1
 41
0.08
  0
MTEXT
  5
267
100
AcDbEntity
  8
0
100
AcDbMText
 62
7
  6
CONTINUOUS
  7
TEXTSTYLE_2
 71
2
 72
1
 10
13.425
 20
0.787
 30
0.0
 11
1.0
 21
0.0
 31
0.0
 44
0.9
  1
2
 40
0.1
 41
0.08
  0
MTEXT
  5
268
100
AcDbEntity
  8
0
100
AcDbMText
 62
7
  6
CONTINUOUS
  7
TEXTSTYLE_2
 71
2
 72
1
 10
15.395
 20
0.787
 30
0.0
 11
1.0
 21
0.0
 31
0.0
 44
0.9
  1
1
 40
0.1
 41
0.08
  0
MTEXT
  5
269
100
AcDbEntity
  8
0
100
AcDbMText
 62
7
  6
CONTINUOUS
  7
TEXTSTYLE_2
 71
3
 72
1
 10
0.52
 20
4.3995
 30
0.0
 11
1.0
 21
0.0
 31
0.0
 44
0.9
  1
B
 40
0.1
 41
0.08
  0
MTEXT
  5
26A
100
AcDbEntity
  8
0
100
AcDbMText
 62
7
  6
CONTINUOUS
  7
TEXTSTYLE_2
 71
3
 72
1
 10
0.52
 20
2.0995
 30
0.0
 11
1.0
 21
0.0
 31
0.0
 44
0.9
  1
A
 40
0.1
 41
0.08
  0
MTEXT
  5
26B
100
AcDbEntity
  8
0
100
AcDbMText
 62
7
  6
CONTINUOUS
  7
TEXTSTYLE_2
 71
3
 72
1
 10
0.52
 20
8.9995
 30
0.0
 11
1.0
 21
0.0
 31
0.0
 44
0.9
  1
D
 40
0.1
 41
0.08
  0
MTEXT
  5
26C
100
AcDbEntity
  8
0
100
AcDbMText
 62
7
  6
CONTINUOUS
  7
TEXTSTYLE_2
 71
3
 72
1
 10
0.52
 20
6.6995
 30
0.0
 11
1.0
 21
0.0
 31
0.0
 44
0.9
  1
C
 40
0.1
 41
0.08
  0
MTEXT
  5
26D
100
AcDbEntity
  8
0
100
AcDbMText
 62
7
  6
CONTINUOUS
  7
TEXTSTYLE_2
 71
1
 72
1
 10
16.48
 20
8.9995
 30
0.0
 11
1.0
 21
0.0
 31
0.0
 44
0.9
  1
D
 40
0.1
 41
0.08
  0
MTEXT
  5
26E
100
AcDbEntity
  8
0
100
AcDbMText
 62
7
  6
CONTINUOUS
  7
TEXTSTYLE_2
 71
1
 72
1
 10
16.48
 20
6.6995
 30
0.0
 11
1.0
 21
0.0
 31
0.0
 44
0.9
  1
C
 40
0.1
 41
0.08
  0
MTEXT
  5
26F
100
AcDbEntity
  8
0
100
AcDbMText
 62
7
  6
CONTINUOUS
  7
TEXTSTYLE_2
 71
1
 72
1
 10
16.48
 20
4.3995
 30
0.0
 11
1.0
 21
0.0
 31
0.0
 44
0.9
  1
B
 40
0.1
 41
0.08
  0
MTEXT
  5
270
100
AcDbEntity
  8
0
100
AcDbMText
 62
7
  6
CONTINUOUS
  7
TEXTSTYLE_2
 71
1
 72
1
 10
16.48
 20
2.0995
 30
0.0
 11
1.0
 21
0.0
 31
0.0
 44
0.9
  1
A
 40
0.1
 41
0.08
  0
MTEXT
  5
271
100
AcDbEntity
  8
0
100
AcDbMText
 62
7
  6
CONTINUOUS
  7
STANDARD
 71
1
 72
1
 10
14.819264911
 20
1.0627941725
 30
0.0
 11
1.0
 21
0.0
 31
0.0
 44
0.9
  1
1 OF 1
 40
0.1
 41
0.6
  0
MTEXT
  5
272
100
AcDbEntity
  8
0
100
AcDbMText
 62
7
  6
CONTINUOUS
  7
STANDARD
 71
1
 72
1
 10
13.8911999818
 20
1.3747321586
 30
0.0
 11
1.0
 21
0.0
 31
0.0
 44
0.9
  1
145704
 40
0.12
 41
0.72
  0
MTEXT
  5
273
100
AcDbEntity
  8
0
100
AcDbMText
 62
7
  6
CONTINUOUS
  7
STANDARD
 71
1
 72
1
 10
12.644264911
 20
1.0627941725
 30
0.0
 11
1.0
 21
0.0
 31
0.0
 44
0.9
  1
1:1
 40
0.1
 41
0.3
  0
MTEXT
  5
274
100
AcDbEntity
  8
0
100
AcDbMText
 62
7
  6
CONTINUOUS
  7
STANDARD
 71
1
 72
1
 10
0.8489354566
 20
1.4938330621
 30
0.0
 11
1.0
 21
0.0
 31
0.0
 44
0.9
  1
NOTES:\P1. ALL DIMENSIONS ARE MILLIMETERS [INCHES] UNLESS OTHERWISE NOTED.\P2. REFER TO "www.bannerengineering.com" FOR ADDITIONAL DATA AND SPECIFICATIONS.
 40
0.1
 41
7.9
  0
MTEXT
  5
275
100
AcDbEntity
  8
0
100
AcDbMText
 62
7
  6
CONTINUOUS
  7
TEXTSTYLE_5
 71
2
 72
1
 10
11.0519651892
 20
2.0334024775
 30
0.0
 11
1.0
 21
0.0
 31
0.0
 44
0.9
  1
C  2015 Banner Engineering Corp.
 40
0.08
 41
1.92
  0
DIMENSION
  5
276
100
AcDbEntity
  8
SCHEME_DIMS
100
AcDbDimension
 62
7
  6
CONTINUOUS
  2
*D0
 10
2.8529502036
 20
4.6533526531
 11
2.8529502036
 21
5.2696026531
 70
160
 71
2
 42
1.2325
  1
<>\P[]
  3
DIMSTYLE_1
100
AcDbAlignedDimension
 13
3.3515019511
 23
5.8858526531
 14
4.3063409052
 24
4.6533526531
 50
270.0
100
AcDbRotatedDimension
  0
DIMENSION
  5
277
100
AcDbEntity
  8
SCHEME_DIMS
100
AcDbDimension
 62
7
  6
CONTINUOUS
  2
*D1
 10
3.3529501894
 20
7.5428526531
 11
4.6129501894
 21
7.4678526531
 70
160
 71
2
 42
2.52
  1
<>\P[]
  3
DIMSTYLE_1
100
AcDbAlignedDimension
 13
5.8729501894
 23
6.6008526531
 14
3.3529501894
 24
6.6008526531
 50
180.0
100
AcDbRotatedDimension
  0
DIMENSION
  5
278
100
AcDbEntity
  8
SCHEME_DIMS
100
AcDbDimension
 62
7
  6
CONTINUOUS
  2
*D2
 10
9.9660541764
 20
4.6533526531
 11
9.9660541764
 21
5.8471026531
 70
160
 71
2
 42
2.3875
  1
<>\P[]
  3
DIMSTYLE_1
100
AcDbAlignedDimension
 13
9.4507056925
 23
7.0408526531
 14
9.286095787
 24
4.6533526531
 50
270.0
100
AcDbRotatedDimension
  0
DIMENSION
  5
279
100
AcDbEntity
  8
SCHEME_DIMS
100
AcDbDimension
 62
7
  6
CONTINUOUS
  2
*D3
 10
2.8529502036
 20
2.9380648225
 11
2.8529502036
 21
3.2530648225
 70
160
 71
2
 42
0.63
  1
<>\P[]
  3
DIMSTYLE_1
100
AcDbAlignedDimension
 13
3.5729789194
 23
3.5680648225
 14
3.5791620184
 24
2.9380648225
 50
270.0
100
AcDbRotatedDimension
  0
DIMENSION
  5
27A
100
AcDbEntity
  8
SCHEME_DIMS
100
AcDbDimension
 62
7
  6
CONTINUOUS
  2
*D4
 10
4.1584177566
 20
6.1216799619
 11
2.2793861548
 21
6.5860205193
 70
163
 71
3
 42
1.0
  1
%%c<>\P[]
  3
DIMSTYLE_2
100
AcDbDiametricDimension
 15
5.0674826221
 25
5.7050253443
  0
ACAD_TABLE
  5
27B
100
AcDbEntity
  8
0
 62
7
  6
CONTINUOUS
100
AcDbBlockReference
  2
*T1
 10
12.03
 20
0.887
 30
0.0
100
AcDbTable
342
       599
343
214
 11
1.0
 21
0.0
 31
0.0
 90
6
 91
3
 92
5
 93
4
 94
0
 95
0
 96
0
 70
1
141
0.33
141
0.45
141
1.14
142
0.65
142
1.15
142
1.025
142
1.075
142
0.45
171
1
172
0
173
0
174
0
175
1
176
1
 91
33
178
0
145
0.0
301
CELL_VALUE
 90
4
  1
 
304
ACVALUE_END
170
1
140
0.1
171
1
172
0
173
0
174
0
175
1
176
1
 91
33
178
0
145
0.0
301
CELL_VALUE
 90
4
  1
 
304
ACVALUE_END
170
1
140
0.1
171
1
172
0
173
0
174
0
175
1
176
1
 91
33
178
0
145
0.0
301
CELL_VALUE
 90
4
  1
 
304
ACVALUE_END
170
1
140
0.1
171
1
172
0
173
0
174
0
175
1
176
1
 91
33
178
0
145
0.0
301
CELL_VALUE
 90
4
  1
 
304
ACVALUE_END
170
1
140
0.1
171
1
172
0
173
0
174
0
175
1
176
1
 91
33
178
0
145
0.0
301
CELL_VALUE
 90
4
  1
 
304
ACVALUE_END
170
1
140
0.1
171
1
172
0
173
0
174
0
175
1
176
1
 91
33
178
0
145
0.0
301
CELL_VALUE
 90
4
  1
 
304
ACVALUE_END
170
1
140
0.1
171
1
172
0
173
0
174
0
175
1
176
1
 91
33
178
0
145
0.0
301
CELL_VALUE
 90
4
  1
 
304
ACVALUE_END
170
1
140
0.1
171
1
172
0
173
0
174
0
175
1
176
1
 91
33
178
0
145
0.0
301
CELL_VALUE
 90
4
  1
 
304
ACVALUE_END
170
1
140
0.1
171
1
172
0
173
0
174
0
175
1
176
1
 91
33
178
0
145
0.0
301
CELL_VALUE
 90
4
  1
 
304
ACVALUE_END
170
1
140
0.1
171
1
172
0
173
0
174
0
175
1
176
1
 91
41
178
0
145
0.0
301
CELL_VALUE
 90
4
  1
A
304
ACVALUE_END
170
8
140
0.1
 64
7
171
1
172
0
173
0
174
0
175
5
176
1
 91
33
178
0
145
0.0
301
CELL_VALUE
 90
4
  1
SMBM25B
304
ACVALUE_END
170
8
140
0.1
171
1
172
0
173
1
174
0
175
1
176
1
 91
1
178
0
145
0.0
170
1
171
1
172
0
173
1
174
0
175
1
176
1
 91
1
178
0
145
0.0
170
1
171
1
172
0
173
1
174
0
175
1
176
1
 91
1
178
0
145
0.0
170
1
171
1
172
0
173
1
174
0
175
1
176
1
 91
1
178
0
145
0.0
170
8
  0
LEADER
  5
27C
100
AcDbEntity
  8
NOTES
100
AcDbLeader
 62
7
  6
CONTINUOUS
  3
STANDARD
 71
1
 72
0
 73
0
 75
0
 40
0.1
 41
0.7
 76
3
 10
5.0662181364
 20
5.4797447824
 30
0.0
 10
5.7487659845
 20
4.9379703511
 30
0.0
 10
5.9987659845
 20
4.9379703511
 30
0.0
340
27D
1001
ACAD
1000
DSTYLE
1002
{
1070
77
1070
0
1002
}
  0
MTEXT
  5
27D
102
{ACAD_REACTORS
330
27C
102
}
100
AcDbEntity
  8
NOTES
100
AcDbMText
 62
7
  6
CONTINUOUS
  7
STANDARD
 71
1
 72
1
 10
5.9987659845
 20
4.9879703511
 30
0.0
 11
1.0
 21
0.0
 31
0.0
 44
0.9
  1
GROMMET
 40
0.1
 41
0.7
  0
MTEXT
  5
27E
100
AcDbEntity
  8
NOTES
100
AcDbMText
 62
7
  6
CONTINUOUS
  7
STANDARD
 71
2
 72
1
 10
13.6746439873
 20
6.3250928162
 30
0.0
 11
1.0
 21
0.0
 31
0.0
 44
0.9
  1
ISOMETRIC VIEW\P\H0.1;SCALE  1:1
 40
0.12
 41
1.68
  0
LEADER
  5
27F
100
AcDbEntity
  8
NOTES
100
AcDbLeader
 62
7
  6
CONTINUOUS
  3
STANDARD
 71
1
 72
0
 73
0
 75
0
 40
0.1
 41
0.7
 76
3
 10
4.7254345661
 20
8.8994427761
 30
0.0
 10
5.3218452768
 20
9.468479674
 30
0.0
 10
5.5718452768
 20
9.468479674
 30
0.0
340
280
1001
ACAD
1000
DSTYLE
1002
{
1070
77
1070
0
1002
}
  0
MTEXT
  5
280
102
{ACAD_REACTORS
330
27F
102
}
100
AcDbEntity
  8
NOTES
100
AcDbMText
 62
7
  6
CONTINUOUS
  7
STANDARD
 71
1
 72
1
 10
5.5718452768
 20
9.518479674
 30
0.0
 11
1.0
 21
0.0
 31
0.0
 44
0.9
  1
M10x1.5 ISO - H
 40
0.1
 41
1.5
  0
LINE
  5
281
100
AcDbEntity
  8
0
100
AcDbLine
 62
7
  6
CONTINUOUS
 10
0.47
 20
5.586103
 11
0.47
 21
5.412897
  0
LINE
  5
282
100
AcDbEntity
  8
0
100
AcDbLine
 62
7
  6
CONTINUOUS
 10
0.62
 20
10.112
 11
0.62
 21
0.887
  0
LINE
  5
283
100
AcDbEntity
  8
0
100
AcDbLine
 62
7
  6
CONTINUOUS
 10
2.59
 20
0.887
 11
2.59
 21
0.637
  0
LINE
  5
284
100
AcDbEntity
  8
0
100
AcDbLine
 62
7
  6
CONTINUOUS
 10
2.59
 20
10.112
 11
2.59
 21
10.362
  0
LINE
  5
285
100
AcDbEntity
  8
0
100
AcDbLine
 62
7
  6
CONTINUOUS
 10
8.413397
 20
0.737
 11
8.586603
 21
0.737
  0
LINE
  5
286
100
AcDbEntity
  8
0
100
AcDbLine
 62
7
  6
CONTINUOUS
 10
11.1389508475
 20
1.425992839
 11
11.7453418475
 21
1.495385839
  0
LINE
  5
287
100
AcDbEntity
  8
0
100
AcDbLine
 62
7
  6
CONTINUOUS
 10
0.62
 20
0.887
 11
16.38
 21
0.887
  0
LINE
  5
288
100
AcDbEntity
  8
0
100
AcDbLine
 62
7
  6
CONTINUOUS
 10
12.03
 20
1.137
 11
16.38
 21
1.137
  0
LINE
  5
289
100
AcDbEntity
  8
0
100
AcDbLine
 62
7
  6
CONTINUOUS
 10
10.2121898475
 20
1.243294839
 11
10.4342808475
 21
1.243294839
  0
LINE
  5
28A
100
AcDbEntity
  8
0
100
AcDbLine
 62
7
  6
CONTINUOUS
 10
10.4842808475
 20
1.243294839
 11
10.5842808475
 21
1.243294839
  0
LINE
  5
28B
100
AcDbEntity
  8
0
100
AcDbLine
 62
7
  6
CONTINUOUS
 10
10.6342808475
 20
1.243294839
 11
10.8563718475
 21
1.243294839
  0
LINE
  5
28C
100
AcDbEntity
  8
0
100
AcDbLine
 62
7
  6
CONTINUOUS
 10
11.0389508475
 20
1.243294839
 11
11.3171028475
 21
1.243294839
  0
LINE
  5
28D
100
AcDbEntity
  8
0
100
AcDbLine
 62
7
  6
CONTINUOUS
 10
11.3671028475
 20
1.243294839
 11
11.5171888475
 21
1.243294839
  0
LINE
  5
28E
100
AcDbEntity
  8
0
100
AcDbLine
 62
7
  6
CONTINUOUS
 10
11.5671888475
 20
1.243294839
 11
11.8453418475
 21
1.243294839
  0
LINE
  5
28F
100
AcDbEntity
  8
0
100
AcDbLine
 62
7
  6
CONTINUOUS
 10
11.7453418475
 20
0.991203839
 11
11.1389508475
 21
1.060596839
  0
LINE
  5
290
100
AcDbEntity
  8
0
100
AcDbLine
 62
7
  6
CONTINUOUS
 10
4.56
 20
0.887
 11
4.56
 21
0.637
  0
LINE
  5
291
100
AcDbEntity
  8
0
100
AcDbLine
 62
7
  6
CONTINUOUS
 10
4.56
 20
10.112
 11
4.56
 21
10.362
  0
LINE
  5
292
100
AcDbEntity
  8
0
100
AcDbLine
 62
7
  6
CONTINUOUS
 10
0.47
 20
5.412897
 11
0.62
 21
5.4995
  0
LINE
  5
293
100
AcDbEntity
  8
0
100
AcDbLine
 62
7
  6
CONTINUOUS
 10
12.03
 20
1.507
 11
16.38
 21
1.507
  0
LINE
  5
294
100
AcDbEntity
  8
0
100
AcDbLine
 62
7
  6
CONTINUOUS
 10
10.03
 20
1.907
 11
12.03
 21
1.907
  0
LINE
  5
295
100
AcDbEntity
  8
0
100
AcDbLine
 62
7
  6
CONTINUOUS
 10
0.62
 20
5.4995
 11
0.47
 21
5.586103
  0
LINE
  5
296
100
AcDbEntity
  8
0
100
AcDbLine
 62
7
  6
CONTINUOUS
 10
12.03
 20
2.267
 11
16.38
 21
2.267
  0
LINE
  5
297
100
AcDbEntity
  8
0
100
AcDbLine
 62
7
  6
CONTINUOUS
 10
13.6042588488
 20
2.4912273132
 11
13.5568948225
 21
2.4912273132
  0
LINE
  5
298
100
AcDbEntity
  8
0
100
AcDbLine
 62
7
  6
CONTINUOUS
 10
13.5130037982
 20
2.4912273132
 11
13.3994327352
 21
2.4912273132
  0
LINE
  5
299
100
AcDbEntity
  8
0
100
AcDbLine
 62
7
  6
CONTINUOUS
 10
13.3705287192
 20
2.4912273132
 11
13.1673166065
 21
2.4912273132
  0
LINE
  5
29A
100
AcDbEntity
  8
0
100
AcDbLine
 62
7
  6
CONTINUOUS
 10
13.1168435785
 20
2.4912273132
 11
13.0426375373
 21
2.4912273132
  0
LINE
  5
29B
100
AcDbEntity
  8
0
100
AcDbLine
 62
7
  6
CONTINUOUS
 10
12.9962575116
 20
2.4912273132
 11
12.9205934696
 21
2.4912273132
  0
LINE
  5
29C
100
AcDbEntity
  8
0
100
AcDbLine
 62
7
  6
CONTINUOUS
 10
12.8685904408
 20
2.4912273132
 11
12.7943853997
 21
2.4912273132
  0
LINE
  5
29D
100
AcDbEntity
  8
0
100
AcDbLine
 62
7
  6
CONTINUOUS
 10
12.7480043739
 20
2.4912273132
 11
12.672340332
 21
2.4912273132
  0
LINE
  5
29E
100
AcDbEntity
  8
0
100
AcDbLine
 62
7
  6
CONTINUOUS
 10
12.2055050731
 20
2.4912273132
 11
12.3819511709
 21
2.4912273132
  0
LINE
  5
29F
100
AcDbEntity
  8
0
100
AcDbLine
 62
7
  6
CONTINUOUS
 10
12.4394882028
 20
2.4912273132
 11
12.5168642458
 21
2.4912273132
  0
LINE
  5
2A0
100
AcDbEntity
  8
0
100
AcDbLine
 62
7
  6
CONTINUOUS
 10
12.537150257
 20
2.4912273132
 11
12.6424313154
 21
2.4912273132
  0
LINE
  5
2A1
100
AcDbEntity
  8
0
100
AcDbLine
 62
7
  6
CONTINUOUS
 10
13.4883447845
 20
2.5159553269
 11
13.5130037982
 21
2.5159553269
  0
LINE
  5
2A2
100
AcDbEntity
  8
0
100
AcDbLine
 62
7
  6
CONTINUOUS
 10
12.6424313154
 20
2.515977327
 11
12.6224153043
 21
2.515977327
  0
LINE
  5
2A3
100
AcDbEntity
  8
0
100
AcDbLine
 62
7
  6
CONTINUOUS
 10
12.551601265
 20
2.515977327
 11
12.537150257
 21
2.515977327
  0
LINE
  5
2A4
100
AcDbEntity
  8
0
100
AcDbLine
 62
7
  6
CONTINUOUS
 10
12.5168642458
 20
2.515977327
 11
12.5055812395
 21
2.515977327
  0
LINE
  5
2A5
100
AcDbEntity
  8
0
100
AcDbLine
 62
7
  6
CONTINUOUS
 10
12.4623492155
 20
2.515977327
 11
12.4394882028
 21
2.515977327
  0
LINE
  5
2A6
100
AcDbEntity
  8
0
100
AcDbLine
 62
7
  6
CONTINUOUS
 10
12.3362731456
 20
2.515977327
 11
12.2949101227
 21
2.515977327
  0
LINE
  5
2A7
100
AcDbEntity
  8
0
100
AcDbLine
 62
7
  6
CONTINUOUS
 10
12.2294470864
 20
2.515977327
 11
12.2055050731
 21
2.515977327
  0
LINE
  5
2A8
100
AcDbEntity
  8
0
100
AcDbLine
 62
7
  6
CONTINUOUS
 10
12.672340332
 20
2.515977327
 11
12.6909873423
 21
2.515977327
  0
LINE
  5
2A9
100
AcDbEntity
  8
0
100
AcDbLine
 62
7
  6
CONTINUOUS
 10
12.7276873627
 20
2.515977327
 11
12.7480043739
 21
2.515977327
  0
LINE
  5
2AA
100
AcDbEntity
  8
0
100
AcDbLine
 62
7
  6
CONTINUOUS
 10
12.9205934696
 20
2.515977327
 11
12.93923948
 21
2.515977327
  0
LINE
  5
2AB
100
AcDbEntity
  8
0
100
AcDbLine
 62
7
  6
CONTINUOUS
 10
12.9759405003
 20
2.515977327
 11
12.9962575116
 21
2.515977327
  0
LINE
  5
2AC
100
AcDbEntity
  8
0
100
AcDbLine
 62
7
  6
CONTINUOUS
 10
13.1673166065
 20
2.515977327
 11
13.1912396197
 21
2.515977327
  0
LINE
  5
2AD
100
AcDbEntity
  8
0
100
AcDbLine
 62
7
  6
CONTINUOUS
 10
13.2582556569
 20
2.515977327
 11
13.3232596929
 21
2.515977327
  0
LINE
  5
2AE
100
AcDbEntity
  8
0
100
AcDbLine
 62
7
  6
CONTINUOUS
 10
13.3994327352
 20
2.515977327
 11
13.4221787478
 21
2.515977327
  0
LINE
  5
2AF
100
AcDbEntity
  8
0
100
AcDbLine
 62
7
  6
CONTINUOUS
 10
13.6052818493
 20
2.5163643272
 11
13.60639085
 21
2.5163643272
  0
LINE
  5
2B0
100
AcDbEntity
  8
0
100
AcDbLine
 62
7
  6
CONTINUOUS
 10
13.3282096957
 20
2.5291773343
 11
13.3705287192
 21
2.5291773343
  0
LINE
  5
2B1
100
AcDbEntity
  8
0
100
AcDbLine
 62
7
  6
CONTINUOUS
 10
12.5110972426
 20
2.5296213345
 11
12.5459752619
 21
2.5296213345
  0
LINE
  5
2B2
100
AcDbEntity
  8
0
100
AcDbLine
 62
7
  6
CONTINUOUS
 10
13.6171458559
 20
2.5301143348
 11
13.6292558626
 21
2.5301143348
  0
LINE
  5
2B3
100
AcDbEntity
  8
0
100
AcDbLine
 62
7
  6
CONTINUOUS
 10
13.5159517998
 20
2.5306043351
 11
13.4883447845
 21
2.5306043351
  0
LINE
  5
2B4
100
AcDbEntity
  8
0
100
AcDbLine
 62
7
  6
CONTINUOUS
 10
13.2934226764
 20
2.5324773361
 11
13.2582556569
 21
2.5324773361
  0
LINE
  5
2B5
100
AcDbEntity
  8
0
100
AcDbLine
 62
7
  6
CONTINUOUS
 10
12.2949101227
 20
2.5333023366
 11
12.3362731456
 21
2.5333023366
  0
LINE
  5
2B6
100
AcDbEntity
  8
0
100
AcDbLine
 62
7
  6
CONTINUOUS
 10
13.5222818033
 20
2.5496073456
 11
13.4883447845
 21
2.5496073456
  0
LINE
  5
2B7
100
AcDbEntity
  8
0
100
AcDbLine
 62
7
  6
CONTINUOUS
 10
12.2949101227
 20
2.5499573458
 11
12.3362731456
 21
2.5499573458
  0
LINE
  5
2B8
100
AcDbEntity
  8
0
100
AcDbLine
 62
7
  6
CONTINUOUS
 10
12.5196132473
 20
2.5505713461
 11
12.5401702587
 21
2.5505713461
  0
LINE
  5
2B9
100
AcDbEntity
  8
0
100
AcDbLine
 62
7
  6
CONTINUOUS
 10
13.2582556569
 20
2.5507823463
 11
13.2934226764
 21
2.5507823463
  0
LINE
  5
2BA
100
AcDbEntity
  8
0
100
AcDbLine
 62
7
  6
CONTINUOUS
 10
13.3691097184
 20
2.5540823481
 11
13.3272456952
 21
2.5540823481
  0
LINE
  5
2BB
100
AcDbEntity
  8
0
100
AcDbLine
 62
7
  6
CONTINUOUS
 10
12.5329112547
 20
2.5667383551
 11
12.5267302512
 21
2.5667383551
  0
LINE
  5
2BC
100
AcDbEntity
  8
0
100
AcDbLine
 62
7
  6
CONTINUOUS
 10
13.4221787478
 20
2.5672823554
 11
13.3994327352
 21
2.5672823554
  0
LINE
  5
2BD
100
AcDbEntity
  8
0
100
AcDbLine
 62
7
  6
CONTINUOUS
 10
13.3222956924
 20
2.5672823554
 11
13.2582556569
 21
2.5672823554
  0
LINE
  5
2BE
100
AcDbEntity
  8
0
100
AcDbLine
 62
7
  6
CONTINUOUS
 10
13.1912396197
 20
2.5672823554
 11
13.1673166065
 21
2.5672823554
  0
LINE
  5
2BF
100
AcDbEntity
  8
0
100
AcDbLine
 62
7
  6
CONTINUOUS
 10
13.1397265912
 20
2.5672823554
 11
13.1217935812
 21
2.5672823554
  0
LINE
  5
2C0
100
AcDbEntity
  8
0
100
AcDbLine
 62
7
  6
CONTINUOUS
 10
13.0845015605
 20
2.5672823554
 11
13.0657255501
 21
2.5672823554
  0
LINE
  5
2C1
100
AcDbEntity
  8
0
100
AcDbLine
 62
7
  6
CONTINUOUS
 10
12.93923948
 20
2.5672823554
 11
12.9205934696
 21
2.5672823554
  0
LINE
  5
2C2
100
AcDbEntity
  8
0
100
AcDbLine
 62
7
  6
CONTINUOUS
 10
12.8914734535
 20
2.5672823554
 11
12.8735404436
 21
2.5672823554
  0
LINE
  5
2C3
100
AcDbEntity
  8
0
100
AcDbLine
 62
7
  6
CONTINUOUS
 10
12.8362484229
 20
2.5672823554
 11
12.8174724125
 21
2.5672823554
  0
LINE
  5
2C4
100
AcDbEntity
  8
0
100
AcDbLine
 62
7
  6
CONTINUOUS
 10
12.6909873423
 20
2.5672823554
 11
12.672340332
 21
2.5672823554
  0
LINE
  5
2C5
100
AcDbEntity
  8
0
100
AcDbLine
 62
7
  6
CONTINUOUS
 10
12.3362731456
 20
2.5672823554
 11
12.2949101227
 21
2.5672823554
  0
LINE
  5
2C6
100
AcDbEntity
  8
0
100
AcDbLine
 62
7
  6
CONTINUOUS
 10
12.2055050731
 20
2.5672823554
 11
12.2294470864
 21
2.5672823554
  0
LINE
  5
2C7
100
AcDbEntity
  8
0
100
AcDbLine
 62
7
  6
CONTINUOUS
 10
13.4883447845
 20
2.5672823554
 11
13.5251458049
 21
2.5672823554
  0
LINE
  5
2C8
100
AcDbEntity
  8
0
100
AcDbLine
 62
7
  6
CONTINUOUS
 10
12.5705042755
 20
2.5920323691
 11
12.5133292438
 21
2.5920323691
  0
LINE
  5
2C9
100
AcDbEntity
  8
0
100
AcDbLine
 62
7
  6
CONTINUOUS
 10
12.3715681652
 20
2.5920323691
 11
12.2055050731
 21
2.5920323691
  0
LINE
  5
2CA
100
AcDbEntity
  8
0
100
AcDbLine
 62
7
  6
CONTINUOUS
 10
12.672340332
 20
2.5920323691
 11
12.7727983877
 21
2.5920323691
  0
LINE
  5
2CB
100
AcDbEntity
  8
0
100
AcDbLine
 62
7
  6
CONTINUOUS
 10
12.8174724125
 20
2.5920323691
 11
12.8914734535
 21
2.5920323691
  0
LINE
  5
2CC
100
AcDbEntity
  8
0
100
AcDbLine
 62
7
  6
CONTINUOUS
 10
12.9205934696
 20
2.5920323691
 11
13.0210515254
 21
2.5920323691
  0
LINE
  5
2CD
100
AcDbEntity
  8
0
100
AcDbLine
 62
7
  6
CONTINUOUS
 10
13.0657255501
 20
2.5920323691
 11
13.1397265912
 21
2.5920323691
  0
LINE
  5
2CE
100
AcDbEntity
  8
0
100
AcDbLine
 62
7
  6
CONTINUOUS
 10
13.1673166065
 20
2.5920323691
 11
13.3691097184
 21
2.5920323691
  0
LINE
  5
2CF
100
AcDbEntity
  8
0
100
AcDbLine
 62
7
  6
CONTINUOUS
 10
13.3994327352
 20
2.5920323691
 11
13.5490138181
 21
2.5920323691
  0
LINE
  5
2D0
100
AcDbEntity
  8
0
100
AcDbLine
 62
7
  6
CONTINUOUS
 10
12.4008351814
 20
2.5375433389
 11
12.3907841758
 21
2.5410923409
  0
LINE
  5
2D1
100
AcDbEntity
  8
0
100
AcDbLine
 62
7
  6
CONTINUOUS
 10
12.7926763987
 20
2.4919113136
 11
12.7293963636
 21
2.5522893471
  0
LINE
  5
2D2
100
AcDbEntity
  8
0
100
AcDbLine
 62
7
  6
CONTINUOUS
 10
12.7745063886
 20
2.5913483688
 11
12.8345394219
 21
2.534068337
  0
LINE
  5
2D3
100
AcDbEntity
  8
0
100
AcDbLine
 62
7
  6
CONTINUOUS
 10
13.0409295364
 20
2.4919113136
 11
12.9776495013
 21
2.5522893471
  0
LINE
  5
2D4
100
AcDbEntity
  8
0
100
AcDbLine
 62
7
  6
CONTINUOUS
 10
13.0227595263
 20
2.5913483688
 11
13.0827925596
 21
2.534068337
  0
LINE
  5
2D5
100
AcDbEntity
  8
0
100
AcDbLine
 62
7
  6
CONTINUOUS
 10
12.548053263
 20
2.5284903339
 11
12.5536792662
 21
2.5197973291
  0
LINE
  5
2D6
100
AcDbEntity
  8
0
100
AcDbLine
 62
7
  6
CONTINUOUS
 10
12.5422482598
 20
2.5543913483
 11
12.5349892558
 21
2.5656073545
  0
LINE
  5
2D7
100
AcDbEntity
  8
0
100
AcDbLine
 62
7
  6
CONTINUOUS
 10
12.6203383031
 20
2.5171073276
 11
12.5725822767
 21
2.5909023685
  0
LINE
  5
2D8
100
AcDbEntity
  8
0
100
AcDbLine
 62
7
  6
CONTINUOUS
 10
12.2030300717
 20
2.5895573678
 11
12.2030300717
 21
2.5697573568
  0
LINE
  5
2D9
100
AcDbEntity
  8
0
100
AcDbLine
 62
7
  6
CONTINUOUS
 10
12.2030300717
 20
2.5135023256
 11
12.2030300717
 21
2.4937023146
  0
LINE
  5
2DA
100
AcDbEntity
  8
0
100
AcDbLine
 62
7
  6
CONTINUOUS
 10
12.2319220877
 20
2.564807354
 11
12.2319220877
 21
2.5184523283
  0
LINE
  5
2DB
100
AcDbEntity
  8
0
100
AcDbLine
 62
7
  6
CONTINUOUS
 10
12.2924351213
 20
2.564807354
 11
12.2924351213
 21
2.5524323472
  0
LINE
  5
2DC
100
AcDbEntity
  8
0
100
AcDbLine
 62
7
  6
CONTINUOUS
 10
12.2924351213
 20
2.5184523283
 11
12.2924351213
 21
2.5308273352
  0
LINE
  5
2DD
100
AcDbEntity
  8
0
100
AcDbLine
 62
7
  6
CONTINUOUS
 10
12.4370132015
 20
2.5135023256
 11
12.4370132015
 21
2.4937023146
  0
LINE
  5
2DE
100
AcDbEntity
  8
0
100
AcDbLine
 62
7
  6
CONTINUOUS
 10
12.5193392471
 20
2.4937023146
 11
12.5193392471
 21
2.5135023256
  0
LINE
  5
2DF
100
AcDbEntity
  8
0
100
AcDbLine
 62
7
  6
CONTINUOUS
 10
12.5346752556
 20
2.5135023256
 11
12.5346752556
 21
2.4937023146
  0
LINE
  5
2E0
100
AcDbEntity
  8
0
100
AcDbLine
 62
7
  6
CONTINUOUS
 10
12.6449063168
 20
2.4937023146
 11
12.6449063168
 21
2.5135023256
  0
LINE
  5
2E1
100
AcDbEntity
  8
0
100
AcDbLine
 62
7
  6
CONTINUOUS
 10
12.6698653306
 20
2.4937023146
 11
12.6698653306
 21
2.5135023256
  0
LINE
  5
2E2
100
AcDbEntity
  8
0
100
AcDbLine
 62
7
  6
CONTINUOUS
 10
12.6698653306
 20
2.5697573568
 11
12.6698653306
 21
2.5895573678
  0
LINE
  5
2E3
100
AcDbEntity
  8
0
100
AcDbLine
 62
7
  6
CONTINUOUS
 10
12.6934623437
 20
2.5184523283
 11
12.6934623437
 21
2.564807354
  0
LINE
  5
2E4
100
AcDbEntity
  8
0
100
AcDbLine
 62
7
  6
CONTINUOUS
 10
12.7252123613
 20
2.5504983461
 11
12.7252123613
 21
2.5184523283
  0
LINE
  5
2E5
100
AcDbEntity
  8
0
100
AcDbLine
 62
7
  6
CONTINUOUS
 10
13.5375908118
 20
2.5092733232
 11
13.5357868108
 21
2.5153423266
  0
LINE
  5
2E6
100
AcDbEntity
  8
0
100
AcDbLine
 62
7
  6
CONTINUOUS
 10
12.7504793753
 20
2.5135023256
 11
12.7504793753
 21
2.4937023146
  0
LINE
  5
2E7
100
AcDbEntity
  8
0
100
AcDbLine
 62
7
  6
CONTINUOUS
 10
12.8149974111
 20
2.5697573568
 11
12.8149974111
 21
2.5895573678
  0
LINE
  5
2E8
100
AcDbEntity
  8
0
100
AcDbLine
 62
7
  6
CONTINUOUS
 10
12.8387234242
 20
2.535859338
 11
12.8387234242
 21
2.564807354
  0
LINE
  5
2E9
100
AcDbEntity
  8
0
100
AcDbLine
 62
7
  6
CONTINUOUS
 10
12.8710654422
 20
2.564807354
 11
12.8710654422
 21
2.4937023146
  0
LINE
  5
2EA
100
AcDbEntity
  8
0
100
AcDbLine
 62
7
  6
CONTINUOUS
 10
12.8939484549
 20
2.5895573678
 11
12.8939484549
 21
2.5697573568
  0
LINE
  5
2EB
100
AcDbEntity
  8
0
100
AcDbLine
 62
7
  6
CONTINUOUS
 10
12.9181184683
 20
2.4937023146
 11
12.9181184683
 21
2.5135023256
  0
LINE
  5
2EC
100
AcDbEntity
  8
0
100
AcDbLine
 62
7
  6
CONTINUOUS
 10
12.9181184683
 20
2.5697573568
 11
12.9181184683
 21
2.5895573678
  0
LINE
  5
2ED
100
AcDbEntity
  8
0
100
AcDbLine
 62
7
  6
CONTINUOUS
 10
12.9417144814
 20
2.5184523283
 11
12.9417144814
 21
2.564807354
  0
LINE
  5
2EE
100
AcDbEntity
  8
0
100
AcDbLine
 62
7
  6
CONTINUOUS
 10
12.973465499
 20
2.5504983461
 11
12.973465499
 21
2.5184523283
  0
LINE
  5
2EF
100
AcDbEntity
  8
0
100
AcDbLine
 62
7
  6
CONTINUOUS
 10
12.998732513
 20
2.5135023256
 11
12.998732513
 21
2.4937023146
  0
LINE
  5
2F0
100
AcDbEntity
  8
0
100
AcDbLine
 62
7
  6
CONTINUOUS
 10
13.0632505488
 20
2.5697573568
 11
13.0632505488
 21
2.5895573678
  0
LINE
  5
2F1
100
AcDbEntity
  8
0
100
AcDbLine
 62
7
  6
CONTINUOUS
 10
13.0869765619
 20
2.535859338
 11
13.0869765619
 21
2.564807354
  0
LINE
  5
2F2
100
AcDbEntity
  8
0
100
AcDbLine
 62
7
  6
CONTINUOUS
 10
13.1193185799
 20
2.564807354
 11
13.1193185799
 21
2.4937023146
  0
LINE
  5
2F3
100
AcDbEntity
  8
0
100
AcDbLine
 62
7
  6
CONTINUOUS
 10
13.1422015925
 20
2.5895573678
 11
13.1422015925
 21
2.5697573568
  0
LINE
  5
2F4
100
AcDbEntity
  8
0
100
AcDbLine
 62
7
  6
CONTINUOUS
 10
13.1648416051
 20
2.4937023146
 11
13.1648416051
 21
2.5135023256
  0
LINE
  5
2F5
100
AcDbEntity
  8
0
100
AcDbLine
 62
7
  6
CONTINUOUS
 10
13.1648416051
 20
2.5697573568
 11
13.1648416051
 21
2.5895573678
  0
LINE
  5
2F6
100
AcDbEntity
  8
0
100
AcDbLine
 62
7
  6
CONTINUOUS
 10
13.1937146211
 20
2.5184523283
 11
13.1937146211
 21
2.564807354
  0
LINE
  5
2F7
100
AcDbEntity
  8
0
100
AcDbLine
 62
7
  6
CONTINUOUS
 10
13.2557806555
 20
2.564807354
 11
13.2557806555
 21
2.5532573476
  0
LINE
  5
2F8
100
AcDbEntity
  8
0
100
AcDbLine
 62
7
  6
CONTINUOUS
 10
13.2557806555
 20
2.5300023347
 11
13.2557806555
 21
2.5184523283
  0
LINE
  5
2F9
100
AcDbEntity
  8
0
100
AcDbLine
 62
7
  6
CONTINUOUS
 10
13.2958976778
 20
2.5483073449
 11
13.2958976778
 21
2.5349523375
  0
LINE
  5
2FA
100
AcDbEntity
  8
0
100
AcDbLine
 62
7
  6
CONTINUOUS
 10
12.3907841758
 20
2.5410923409
 11
12.3990241804
 21
2.5458683435
  0
LINE
  5
2FB
100
AcDbEntity
  8
0
100
AcDbLine
 62
7
  6
CONTINUOUS
 10
13.3247706938
 20
2.5565573495
 11
13.3247706938
 21
2.564807354
  0
LINE
  5
2FC
100
AcDbEntity
  8
0
100
AcDbLine
 62
7
  6
CONTINUOUS
 10
13.3257346943
 20
2.5184523283
 11
13.3257346943
 21
2.5267023329
  0
LINE
  5
2FD
100
AcDbEntity
  8
0
100
AcDbLine
 62
7
  6
CONTINUOUS
 10
13.3715847197
 20
2.5895573678
 11
13.3715847197
 21
2.5565573495
  0
LINE
  5
2FE
100
AcDbEntity
  8
0
100
AcDbLine
 62
7
  6
CONTINUOUS
 10
13.3730037205
 20
2.5267023329
 11
13.3730037205
 21
2.4937023146
  0
LINE
  5
2FF
100
AcDbEntity
  8
0
100
AcDbLine
 62
7
  6
CONTINUOUS
 10
13.3969577338
 20
2.4937023146
 11
13.3969577338
 21
2.5135023256
  0
LINE
  5
300
100
AcDbEntity
  8
0
100
AcDbLine
 62
7
  6
CONTINUOUS
 10
13.3969577338
 20
2.5697573568
 11
13.3969577338
 21
2.5895573678
  0
LINE
  5
301
100
AcDbEntity
  8
0
100
AcDbLine
 62
7
  6
CONTINUOUS
 10
13.4246537492
 20
2.5184523283
 11
13.4246537492
 21
2.564807354
  0
LINE
  5
302
100
AcDbEntity
  8
0
100
AcDbLine
 62
7
  6
CONTINUOUS
 10
13.4858697831
 20
2.5281293337
 11
13.4858697831
 21
2.5184303283
  0
LINE
  5
303
100
AcDbEntity
  8
0
100
AcDbLine
 62
7
  6
CONTINUOUS
 10
13.4858697831
 20
2.552082347
 11
13.4858697831
 21
2.564807354
  0
LINE
  5
304
100
AcDbEntity
  8
0
100
AcDbLine
 62
7
  6
CONTINUOUS
 10
13.5154787995
 20
2.5134803256
 11
13.5154787995
 21
2.4937023146
  0
LINE
  5
305
100
AcDbEntity
  8
0
100
AcDbLine
 62
7
  6
CONTINUOUS
 10
13.6146708546
 20
2.525013332
 11
13.6146708546
 21
2.5276393334
  0
LINE
  5
306
100
AcDbEntity
  8
0
100
AcDbLine
 62
7
  6
CONTINUOUS
 10
13.631730864
 20
2.5276393334
 11
13.631730864
 21
2.516087327
  0
LINE
  5
307
100
AcDbEntity
  8
0
100
AcDbLine
 62
7
  6
CONTINUOUS
 10
13.7286871589
 20
2.5350697372
 11
13.7286871589
 21
2.5456869438
  0
LINE
  5
308
100
AcDbEntity
  8
0
100
AcDbLine
 62
7
  6
CONTINUOUS
 10
12.5112392426
 20
2.5908833685
 11
12.4644392167
 21
2.5171263276
  0
LINE
  5
309
100
AcDbEntity
  8
0
100
AcDbLine
 62
7
  6
CONTINUOUS
 10
12.5246402501
 20
2.5655893545
 11
12.5175232461
 21
2.5543723483
  0
LINE
  5
30A
100
AcDbEntity
  8
0
100
AcDbLine
 62
7
  6
CONTINUOUS
 10
12.5034912383
 20
2.5197783291
 11
12.5090072414
 21
2.5284723339
  0
ARC
  5
30B
100
AcDbEntity
  8
0
100
AcDbCircle
 62
7
  6
CONTINUOUS
 10
12.7943847649
 20
2.4937027294
 40
0.0024754162
100
AcDbArc
 50
226.3593695813
 51
270.0146919953
  0
ARC
  5
30C
100
AcDbEntity
  8
0
100
AcDbCircle
 62
7
  6
CONTINUOUS
 10
12.2055050712
 20
2.4937023128
 40
0.0024749995
100
AcDbArc
 50
179.9999571957
 51
270.0000428043
  0
ARC
  5
30D
100
AcDbEntity
  8
0
100
AcDbCircle
 62
7
  6
CONTINUOUS
 10
12.8685904427
 20
2.4937023128
 40
0.0024749995
100
AcDbArc
 50
269.9999571957
 51
0.0000428043
  0
ARC
  5
30E
100
AcDbEntity
  8
0
100
AcDbCircle
 62
7
  6
CONTINUOUS
 10
12.7480043758
 20
2.4937023128
 40
0.0024749995
100
AcDbArc
 50
269.9999571957
 51
0.0000428043
  0
ARC
  5
30F
100
AcDbEntity
  8
0
100
AcDbCircle
 62
7
  6
CONTINUOUS
 10
12.6723403301
 20
2.4937023128
 40
0.0024749995
100
AcDbArc
 50
179.9999571957
 51
270.0000428043
  0
ARC
  5
310
100
AcDbEntity
  8
0
100
AcDbCircle
 62
7
  6
CONTINUOUS
 10
12.5371502552
 20
2.4937023128
 40
0.0024749995
100
AcDbArc
 50
179.9999571957
 51
270.0000428043
  0
ARC
  5
311
100
AcDbEntity
  8
0
100
AcDbCircle
 62
7
  6
CONTINUOUS
 10
12.6424313172
 20
2.4937023128
 40
0.0024749995
100
AcDbArc
 50
269.9999571957
 51
0.0000428043
  0
ARC
  5
312
100
AcDbEntity
  8
0
100
AcDbCircle
 62
7
  6
CONTINUOUS
 10
12.439488201
 20
2.4937023128
 40
0.0024749995
100
AcDbArc
 50
179.9999571957
 51
270.0000428043
  0
ARC
  5
313
100
AcDbEntity
  8
0
100
AcDbCircle
 62
7
  6
CONTINUOUS
 10
12.5168642476
 20
2.4937023128
 40
0.0024749995
100
AcDbArc
 50
269.9999571957
 51
0.0000428043
  0
ARC
  5
314
100
AcDbEntity
  8
0
100
AcDbCircle
 62
7
  6
CONTINUOUS
 10
12.371573659
 20
2.5302846524
 40
0.061747717
100
AcDbArc
 50
59.5385584989
 51
90.0050977555
  0
ARC
  5
315
100
AcDbEntity
  8
0
100
AcDbCircle
 62
7
  6
CONTINUOUS
 10
12.3792298263
 20
2.539634765
 40
0.048483885
100
AcDbArc
 50
273.21763719
 51
303.0749121182
  0
ARC
  5
316
100
AcDbEntity
  8
0
100
AcDbCircle
 62
7
  6
CONTINUOUS
 10
12.3931760319
 20
2.5166878286
 40
0.0222174455
100
AcDbArc
 50
4.0793399388
 51
69.834329283
  0
ARC
  5
317
100
AcDbEntity
  8
0
100
AcDbCircle
 62
7
  6
CONTINUOUS
 10
12.3940692204
 20
2.5168671561
 40
0.0213072145
100
AcDbArc
 50
303.0488228549
 51
355.7263138674
  0
ARC
  5
318
100
AcDbEntity
  8
0
100
AcDbCircle
 62
7
  6
CONTINUOUS
 10
12.400005721
 20
2.5168763464
 40
0.0153945295
100
AcDbArc
 50
354.0454548824
 51
5.1878013979
  0
ARC
  5
319
100
AcDbEntity
  8
0
100
AcDbCircle
 62
7
  6
CONTINUOUS
 10
12.3362731456
 20
2.5246398318
 40
0.0086625048
100
AcDbArc
 50
270.0
 51
90.0
  0
ARC
  5
31A
100
AcDbEntity
  8
0
100
AcDbCircle
 62
7
  6
CONTINUOUS
 10
12.5459747223
 20
2.5271458744
 40
0.0024754602
100
AcDbArc
 50
32.8959418573
 51
89.9875097202
  0
ARC
  5
31B
100
AcDbEntity
  8
0
100
AcDbCircle
 62
7
  6
CONTINUOUS
 10
12.4623492858
 20
2.5184525273
 40
0.0024752003
100
AcDbArc
 50
269.9983726451
 51
327.602165307
  0
ARC
  5
31C
100
AcDbEntity
  8
0
100
AcDbCircle
 62
7
  6
CONTINUOUS
 10
12.5110971723
 20
2.5271461342
 40
0.0024752003
100
AcDbArc
 50
89.998372645
 51
147.602165307
  0
ARC
  5
31D
100
AcDbEntity
  8
0
100
AcDbCircle
 62
7
  6
CONTINUOUS
 10
12.5055811302
 20
2.518452367
 40
0.0024750401
100
AcDbArc
 50
147.6063258011
 51
270.0025305754
  0
ARC
  5
31E
100
AcDbEntity
  8
0
100
AcDbCircle
 62
7
  6
CONTINUOUS
 10
12.2294470882
 20
2.5184523265
 40
0.0024749995
100
AcDbArc
 50
269.9999571957
 51
0.0000428043
  0
ARC
  5
31F
100
AcDbEntity
  8
0
100
AcDbCircle
 62
7
  6
CONTINUOUS
 10
12.2055050712
 20
2.5135023274
 40
0.0024749995
100
AcDbArc
 50
89.9999571957
 51
180.0000428043
  0
ARC
  5
320
100
AcDbEntity
  8
0
100
AcDbCircle
 62
7
  6
CONTINUOUS
 10
12.2949101208
 20
2.530827337
 40
0.0024749995
100
AcDbArc
 50
89.9999571957
 51
180.0000428043
  0
ARC
  5
321
100
AcDbEntity
  8
0
100
AcDbCircle
 62
7
  6
CONTINUOUS
 10
12.2949101208
 20
2.5184523265
 40
0.0024749995
100
AcDbArc
 50
179.9999571957
 51
270.0000428043
  0
ARC
  5
322
100
AcDbEntity
  8
0
100
AcDbCircle
 62
7
  6
CONTINUOUS
 10
12.5371502552
 20
2.5135023274
 40
0.0024749995
100
AcDbArc
 50
89.9999571957
 51
180.0000428043
  0
ARC
  5
323
100
AcDbEntity
  8
0
100
AcDbCircle
 62
7
  6
CONTINUOUS
 10
12.439488201
 20
2.5135023274
 40
0.0024749995
100
AcDbArc
 50
89.9999571957
 51
180.0000428043
  0
ARC
  5
324
100
AcDbEntity
  8
0
100
AcDbCircle
 62
7
  6
CONTINUOUS
 10
12.5168642476
 20
2.5135023274
 40
0.0024749995
100
AcDbArc
 50
359.9999571957
 51
90.0000428043
  0
ARC
  5
325
100
AcDbEntity
  8
0
100
AcDbCircle
 62
7
  6
CONTINUOUS
 10
12.3771587979
 20
2.5826952352
 40
0.0428289026
100
AcDbArc
 50
300.6990502959
 51
319.0591802498
  0
ARC
  5
326
100
AcDbEntity
  8
0
100
AcDbCircle
 62
7
  6
CONTINUOUS
 10
12.3922357827
 20
2.5632132173
 40
0.0229166529
100
AcDbArc
 50
20.6563876465
 51
62.3316896973
  0
ARC
  5
327
100
AcDbEntity
  8
0
100
AcDbCircle
 62
7
  6
CONTINUOUS
 10
12.3971873948
 20
2.5665668817
 40
0.0171568255
100
AcDbArc
 50
315.9145124245
 51
16.0049121282
  0
ARC
  5
328
100
AcDbEntity
  8
0
100
AcDbCircle
 62
7
  6
CONTINUOUS
 10
12.3362731456
 20
2.5586198506
 40
0.0086625048
100
AcDbArc
 50
270.0
 51
90.0
  0
ARC
  5
329
100
AcDbEntity
  8
0
100
AcDbCircle
 62
7
  6
CONTINUOUS
 10
12.532910715
 20
2.564262895
 40
0.0024754602
100
AcDbArc
 50
32.8959418573
 51
89.9875097202
  0
ARC
  5
32A
100
AcDbEntity
  8
0
100
AcDbCircle
 62
7
  6
CONTINUOUS
 10
12.5401702375
 20
2.5530465533
 40
0.0024752071
100
AcDbArc
 50
270.0004896793
 51
32.9089806818
  0
ARC
  5
32B
100
AcDbEntity
  8
0
100
AcDbCircle
 62
7
  6
CONTINUOUS
 10
12.5267301809
 20
2.5642631548
 40
0.0024752003
100
AcDbArc
 50
89.998372645
 51
147.602165307
  0
ARC
  5
32C
100
AcDbEntity
  8
0
100
AcDbCircle
 62
7
  6
CONTINUOUS
 10
12.5133291735
 20
2.5895571688
 40
0.0024752003
100
AcDbArc
 50
89.9983726451
 51
147.602165307
  0
ARC
  5
32D
100
AcDbEntity
  8
0
100
AcDbCircle
 62
7
  6
CONTINUOUS
 10
12.519613138
 20
2.5530463862
 40
0.0024750401
100
AcDbArc
 50
147.6063258012
 51
270.0025305754
  0
ARC
  5
32E
100
AcDbEntity
  8
0
100
AcDbCircle
 62
7
  6
CONTINUOUS
 10
12.2055050712
 20
2.5895573696
 40
0.0024749995
100
AcDbArc
 50
89.9999571957
 51
180.0000428043
  0
ARC
  5
32F
100
AcDbEntity
  8
0
100
AcDbCircle
 62
7
  6
CONTINUOUS
 10
12.2055050712
 20
2.5697573549
 40
0.0024749995
100
AcDbArc
 50
179.9999571957
 51
270.0000428043
  0
ARC
  5
330
100
AcDbEntity
  8
0
100
AcDbCircle
 62
7
  6
CONTINUOUS
 10
12.2294470882
 20
2.5648073559
 40
0.0024749995
100
AcDbArc
 50
359.9999571957
 51
90.0000428043
  0
ARC
  5
331
100
AcDbEntity
  8
0
100
AcDbCircle
 62
7
  6
CONTINUOUS
 10
12.2949101208
 20
2.5648073559
 40
0.0024749995
100
AcDbArc
 50
89.9999571957
 51
180.0000428043
  0
ARC
  5
332
100
AcDbEntity
  8
0
100
AcDbCircle
 62
7
  6
CONTINUOUS
 10
12.2949101208
 20
2.5524323453
 40
0.0024749995
100
AcDbArc
 50
179.9999571957
 51
270.0000428043
  0
ARC
  5
333
100
AcDbEntity
  8
0
100
AcDbCircle
 62
7
  6
CONTINUOUS
 10
12.8362481229
 20
2.5358592748
 40
0.0024753014
100
AcDbArc
 50
226.3461263059
 51
0.0014637321
  0
ARC
  5
334
100
AcDbEntity
  8
0
100
AcDbCircle
 62
7
  6
CONTINUOUS
 10
12.7276876627
 20
2.5504984093
 40
0.0024753014
100
AcDbArc
 50
46.3461263059
 51
180.0014637321
  0
ARC
  5
335
100
AcDbEntity
  8
0
100
AcDbCircle
 62
7
  6
CONTINUOUS
 10
12.5516012439
 20
2.5184525341
 40
0.0024752071
100
AcDbArc
 50
270.0004896794
 51
32.9089806818
  0
ARC
  5
336
100
AcDbEntity
  8
0
100
AcDbCircle
 62
7
  6
CONTINUOUS
 10
12.7276873608
 20
2.5184523265
 40
0.0024749995
100
AcDbArc
 50
179.9999571957
 51
270.0000428043
  0
ARC
  5
337
100
AcDbEntity
  8
0
100
AcDbCircle
 62
7
  6
CONTINUOUS
 10
12.7480043758
 20
2.5135023274
 40
0.0024749995
100
AcDbArc
 50
359.9999571957
 51
90.0000428043
  0
ARC
  5
338
100
AcDbEntity
  8
0
100
AcDbCircle
 62
7
  6
CONTINUOUS
 10
12.6723403301
 20
2.5135023274
 40
0.0024749995
100
AcDbArc
 50
89.9999571957
 51
180.0000428043
  0
ARC
  5
339
100
AcDbEntity
  8
0
100
AcDbCircle
 62
7
  6
CONTINUOUS
 10
12.6909873442
 20
2.5184523265
 40
0.0024749995
100
AcDbArc
 50
269.9999571957
 51
0.0000428043
  0
ARC
  5
33A
100
AcDbEntity
  8
0
100
AcDbCircle
 62
7
  6
CONTINUOUS
 10
12.6424313172
 20
2.5135023274
 40
0.0024749995
100
AcDbArc
 50
359.9999571957
 51
90.0000428043
  0
ARC
  5
33B
100
AcDbEntity
  8
0
100
AcDbCircle
 62
7
  6
CONTINUOUS
 10
12.6224154248
 20
2.518451368
 40
0.002474041
100
AcDbArc
 50
212.9056413127
 51
269.9972091756
  0
ARC
  5
33C
100
AcDbEntity
  8
0
100
AcDbCircle
 62
7
  6
CONTINUOUS
 10
12.8362484247
 20
2.5648073559
 40
0.0024749995
100
AcDbArc
 50
359.9999571957
 51
90.0000428043
  0
ARC
  5
33D
100
AcDbEntity
  8
0
100
AcDbCircle
 62
7
  6
CONTINUOUS
 10
12.8174724106
 20
2.5697573549
 40
0.0024749995
100
AcDbArc
 50
179.9999571957
 51
270.0000428043
  0
ARC
  5
33E
100
AcDbEntity
  8
0
100
AcDbCircle
 62
7
  6
CONTINUOUS
 10
12.8174724106
 20
2.5895573696
 40
0.0024749995
100
AcDbArc
 50
89.9999571957
 51
180.0000428043
  0
ARC
  5
33F
100
AcDbEntity
  8
0
100
AcDbCircle
 62
7
  6
CONTINUOUS
 10
12.8914734553
 20
2.5895573696
 40
0.0024749995
100
AcDbArc
 50
359.9999571957
 51
90.0000428043
  0
ARC
  5
340
100
AcDbEntity
  8
0
100
AcDbCircle
 62
7
  6
CONTINUOUS
 10
12.8914734553
 20
2.5697573549
 40
0.0024749995
100
AcDbArc
 50
269.9999571957
 51
0.0000428043
  0
ARC
  5
341
100
AcDbEntity
  8
0
100
AcDbCircle
 62
7
  6
CONTINUOUS
 10
12.8735404417
 20
2.5648073559
 40
0.0024749995
100
AcDbArc
 50
89.9999571957
 51
180.0000428043
  0
ARC
  5
342
100
AcDbEntity
  8
0
100
AcDbCircle
 62
7
  6
CONTINUOUS
 10
12.6909873442
 20
2.5648073559
 40
0.0024749995
100
AcDbArc
 50
359.9999571957
 51
90.0000428043
  0
ARC
  5
343
100
AcDbEntity
  8
0
100
AcDbCircle
 62
7
  6
CONTINUOUS
 10
12.6723403301
 20
2.5697573549
 40
0.0024749995
100
AcDbArc
 50
179.9999571957
 51
270.0000428043
  0
ARC
  5
344
100
AcDbEntity
  8
0
100
AcDbCircle
 62
7
  6
CONTINUOUS
 10
12.6723403301
 20
2.5895573696
 40
0.0024749995
100
AcDbArc
 50
89.9999571957
 51
180.0000428043
  0
ARC
  5
345
100
AcDbEntity
  8
0
100
AcDbCircle
 62
7
  6
CONTINUOUS
 10
12.570504655
 20
2.589557409
 40
0.0024749602
100
AcDbArc
 50
32.9172174468
 51
90.0087853097
  0
ARC
  5
346
100
AcDbEntity
  8
0
100
AcDbCircle
 62
7
  6
CONTINUOUS
 10
12.7727985224
 20
2.5895582013
 40
0.0024741678
100
AcDbArc
 50
46.3477981899
 51
90.0031206038
  0
ARC
  5
347
100
AcDbEntity
  8
0
100
AcDbCircle
 62
7
  6
CONTINUOUS
 10
13.5463505148
 20
2.4094934586
 40
0.1825583387
100
AcDbArc
 50
79.8618509324
 51
89.1640948679
  0
ARC
  5
348
100
AcDbEntity
  8
0
100
AcDbCircle
 62
7
  6
CONTINUOUS
 10
13.5282557878
 20
2.4386010294
 40
0.117346916
100
AcDbArc
 50
58.614769177
 51
62.3737227606
  0
ARC
  5
349
100
AcDbEntity
  8
0
100
AcDbCircle
 62
7
  6
CONTINUOUS
 10
13.5571178432
 20
2.509473798
 40
0.0459185159
100
AcDbArc
 50
15.6740290068
 51
20.9917271228
  0
ARC
  5
34A
100
AcDbEntity
  8
0
100
AcDbCircle
 62
7
  6
CONTINUOUS
 10
13.4974076135
 20
2.5055452462
 40
0.0396099176
100
AcDbArc
 50
14.3201081283
 51
22.4984722084
  0
ARC
  5
34B
100
AcDbEntity
  8
0
100
AcDbCircle
 62
7
  6
CONTINUOUS
 10
13.5161192671
 20
2.5062372524
 40
0.0243676582
100
AcDbArc
 50
63.3666028271
 51
90.3937697637
  0
ARC
  5
34C
100
AcDbEntity
  8
0
100
AcDbCircle
 62
7
  6
CONTINUOUS
 10
13.6036139387
 20
2.5111006186
 40
0.0198837666
100
AcDbArc
 50
271.8586572978
 51
289.4131338543
  0
ARC
  5
34D
100
AcDbEntity
  8
0
100
AcDbCircle
 62
7
  6
CONTINUOUS
 10
13.5577001432
 20
2.5085494649
 40
0.0173408616
100
AcDbArc
 50
232.4713476722
 51
267.338189944
  0
ARC
  5
34E
100
AcDbEntity
  8
0
100
AcDbCircle
 62
7
  6
CONTINUOUS
 10
13.5130038
 20
2.4937023128
 40
0.0024749995
100
AcDbArc
 50
269.9999571957
 51
0.0000428043
  0
ARC
  5
34F
100
AcDbEntity
  8
0
100
AcDbCircle
 62
7
  6
CONTINUOUS
 10
13.3994327333
 20
2.4937023128
 40
0.0024749995
100
AcDbArc
 50
179.9999571957
 51
270.0000428043
  0
ARC
  5
350
100
AcDbEntity
  8
0
100
AcDbCircle
 62
7
  6
CONTINUOUS
 10
13.1168435803
 20
2.4937023128
 40
0.0024749995
100
AcDbArc
 50
269.9999571957
 51
0.0000428043
  0
ARC
  5
351
100
AcDbEntity
  8
0
100
AcDbCircle
 62
7
  6
CONTINUOUS
 10
12.9962575135
 20
2.4937023128
 40
0.0024749995
100
AcDbArc
 50
269.9999571957
 51
0.0000428043
  0
ARC
  5
352
100
AcDbEntity
  8
0
100
AcDbCircle
 62
7
  6
CONTINUOUS
 10
12.9205934678
 20
2.4937023128
 40
0.0024749995
100
AcDbArc
 50
179.9999571957
 51
270.0000428043
  0
ARC
  5
353
100
AcDbEntity
  8
0
100
AcDbCircle
 62
7
  6
CONTINUOUS
 10
13.370528721
 20
2.4937023128
 40
0.0024749995
100
AcDbArc
 50
269.9999571957
 51
0.0000428043
  0
ARC
  5
354
100
AcDbEntity
  8
0
100
AcDbCircle
 62
7
  6
CONTINUOUS
 10
13.1673166046
 20
2.4937023128
 40
0.0024749995
100
AcDbArc
 50
179.9999571957
 51
270.0000428043
  0
ARC
  5
355
100
AcDbEntity
  8
0
100
AcDbCircle
 62
7
  6
CONTINUOUS
 10
13.0426374026
 20
2.493701481
 40
0.0024741678
100
AcDbArc
 50
226.3477981898
 51
270.0031206038
  0
ARC
  5
356
100
AcDbEntity
  8
0
100
AcDbCircle
 62
7
  6
CONTINUOUS
 10
13.0845012605
 20
2.5358592748
 40
0.0024753014
100
AcDbArc
 50
226.3461263059
 51
0.0014637321
  0
ARC
  5
357
100
AcDbEntity
  8
0
100
AcDbCircle
 62
7
  6
CONTINUOUS
 10
12.9759408003
 20
2.5504984093
 40
0.0024753014
100
AcDbArc
 50
46.3461263059
 51
180.0014637321
  0
ARC
  5
358
100
AcDbEntity
  8
0
100
AcDbCircle
 62
7
  6
CONTINUOUS
 10
12.9759404985
 20
2.5184523265
 40
0.0024749995
100
AcDbArc
 50
179.9999571957
 51
270.0000428043
  0
ARC
  5
359
100
AcDbEntity
  8
0
100
AcDbCircle
 62
7
  6
CONTINUOUS
 10
12.9962575135
 20
2.5135023274
 40
0.0024749995
100
AcDbArc
 50
359.9999571957
 51
90.0000428043
  0
ARC
  5
35A
100
AcDbEntity
  8
0
100
AcDbCircle
 62
7
  6
CONTINUOUS
 10
12.9205934678
 20
2.5135023274
 40
0.0024749995
100
AcDbArc
 50
89.9999571957
 51
180.0000428042
  0
ARC
  5
35B
100
AcDbEntity
  8
0
100
AcDbCircle
 62
7
  6
CONTINUOUS
 10
12.9392394818
 20
2.5184523265
 40
0.0024749995
100
AcDbArc
 50
269.9999571957
 51
0.0000428043
  0
ARC
  5
35C
100
AcDbEntity
  8
0
100
AcDbCircle
 62
7
  6
CONTINUOUS
 10
13.2582556551
 20
2.5300023366
 40
0.0024749995
100
AcDbArc
 50
89.9999571957
 51
180.0000428043
  0
ARC
  5
35D
100
AcDbEntity
  8
0
100
AcDbCircle
 62
7
  6
CONTINUOUS
 10
13.2582556551
 20
2.5184523265
 40
0.0024749995
100
AcDbArc
 50
179.9999571957
 51
270.0000428043
  0
ARC
  5
35E
100
AcDbEntity
  8
0
100
AcDbCircle
 62
7
  6
CONTINUOUS
 10
13.1673166046
 20
2.5135023274
 40
0.0024749995
100
AcDbArc
 50
89.9999571957
 51
180.0000428043
  0
ARC
  5
35F
100
AcDbEntity
  8
0
100
AcDbCircle
 62
7
  6
CONTINUOUS
 10
13.1912396216
 20
2.5184523265
 40
0.0024749995
100
AcDbArc
 50
269.9999571957
 51
0.0000428042
  0
ARC
  5
360
100
AcDbEntity
  8
0
100
AcDbCircle
 62
7
  6
CONTINUOUS
 10
13.2582556551
 20
2.5532573458
 40
0.0024749995
100
AcDbArc
 50
179.9999571957
 51
270.0000428043
  0
ARC
  5
361
100
AcDbEntity
  8
0
100
AcDbCircle
 62
7
  6
CONTINUOUS
 10
13.0845015624
 20
2.5648073559
 40
0.0024749995
100
AcDbArc
 50
359.9999571957
 51
90.0000428043
  0
ARC
  5
362
100
AcDbEntity
  8
0
100
AcDbCircle
 62
7
  6
CONTINUOUS
 10
13.0657255483
 20
2.5697573549
 40
0.0024749995
100
AcDbArc
 50
179.9999571957
 51
270.0000428043
  0
ARC
  5
363
100
AcDbEntity
  8
0
100
AcDbCircle
 62
7
  6
CONTINUOUS
 10
13.0657255483
 20
2.5895573696
 40
0.0024749995
100
AcDbArc
 50
89.9999571957
 51
180.0000428043
  0
ARC
  5
364
100
AcDbEntity
  8
0
100
AcDbCircle
 62
7
  6
CONTINUOUS
 10
13.139726593
 20
2.5895573696
 40
0.0024749995
100
AcDbArc
 50
359.9999571957
 51
90.0000428043
  0
ARC
  5
365
100
AcDbEntity
  8
0
100
AcDbCircle
 62
7
  6
CONTINUOUS
 10
13.139726593
 20
2.5697573549
 40
0.0024749995
100
AcDbArc
 50
269.9999571957
 51
0.0000428042
  0
ARC
  5
366
100
AcDbEntity
  8
0
100
AcDbCircle
 62
7
  6
CONTINUOUS
 10
13.1217935794
 20
2.5648073559
 40
0.0024749995
100
AcDbArc
 50
89.9999571957
 51
180.0000428042
  0
ARC
  5
367
100
AcDbEntity
  8
0
100
AcDbCircle
 62
7
  6
CONTINUOUS
 10
12.9392394818
 20
2.5648073559
 40
0.0024749995
100
AcDbArc
 50
359.9999571957
 51
90.0000428043
  0
ARC
  5
368
100
AcDbEntity
  8
0
100
AcDbCircle
 62
7
  6
CONTINUOUS
 10
12.9205934678
 20
2.5697573549
 40
0.0024749995
100
AcDbArc
 50
179.9999571957
 51
270.0000428043
  0
ARC
  5
369
100
AcDbEntity
  8
0
100
AcDbCircle
 62
7
  6
CONTINUOUS
 10
12.9205934678
 20
2.5895573696
 40
0.0024749995
100
AcDbArc
 50
89.9999571957
 51
180.0000428042
  0
ARC
  5
36A
100
AcDbEntity
  8
0
100
AcDbCircle
 62
7
  6
CONTINUOUS
 10
13.1912396216
 20
2.5648073559
 40
0.0024749995
100
AcDbArc
 50
359.9999571957
 51
90.0000428043
  0
ARC
  5
36B
100
AcDbEntity
  8
0
100
AcDbCircle
 62
7
  6
CONTINUOUS
 10
13.1673166046
 20
2.5697573549
 40
0.0024749995
100
AcDbArc
 50
179.9999571957
 51
270.0000428043
  0
ARC
  5
36C
100
AcDbEntity
  8
0
100
AcDbCircle
 62
7
  6
CONTINUOUS
 10
13.1673166046
 20
2.5895573696
 40
0.0024749995
100
AcDbArc
 50
89.9999571957
 51
180.0000428043
  0
ARC
  5
36D
100
AcDbEntity
  8
0
100
AcDbCircle
 62
7
  6
CONTINUOUS
 10
13.2582556551
 20
2.5648073559
 40
0.0024749995
100
AcDbArc
 50
89.9999571957
 51
180.0000428043
  0
ARC
  5
36E
100
AcDbEntity
  8
0
100
AcDbCircle
 62
7
  6
CONTINUOUS
 10
13.0210516601
 20
2.5895582013
 40
0.0024741678
100
AcDbArc
 50
46.3477981899
 51
90.0031206038
  0
ARC
  5
36F
100
AcDbEntity
  8
0
100
AcDbCircle
 62
7
  6
CONTINUOUS
 10
13.5806801742
 20
2.5212486481
 40
0.044722495
100
AcDbArc
 50
195.531588407
 51
204.7624440448
  0
ARC
  5
370
100
AcDbEntity
  8
0
100
AcDbCircle
 62
7
  6
CONTINUOUS
 10
13.5726548052
 20
2.5503169747
 40
0.039319019
100
AcDbArc
 50
59.1202086415
 51
81.4730239328
  0
ARC
  5
371
100
AcDbEntity
  8
0
100
AcDbCircle
 62
7
  6
CONTINUOUS
 10
13.5978759713
 20
2.5286873679
 40
0.0383802683
100
AcDbArc
 50
288.7656836787
 51
309.6104317088
  0
ARC
  5
372
100
AcDbEntity
  8
0
100
AcDbCircle
 62
7
  6
CONTINUOUS
 10
13.5783142014
 20
2.5566516438
 40
0.0310192946
100
AcDbArc
 50
34.7540871
 51
62.0879016178
  0
ARC
  5
373
100
AcDbEntity
  8
0
100
AcDbCircle
 62
7
  6
CONTINUOUS
 10
13.5236009174
 20
2.5388278764
 40
0.0284963867
100
AcDbArc
 50
70.3834917948
 51
86.8922743861
  0
ARC
  5
374
100
AcDbEntity
  8
0
100
AcDbCircle
 62
7
  6
CONTINUOUS
 10
13.6048681567
 20
2.5210861501
 40
0.0280715479
100
AcDbArc
 50
308.5071794988
 51
332.24006569
  0
ARC
  5
375
100
AcDbEntity
  8
0
100
AcDbCircle
 62
7
  6
CONTINUOUS
 10
13.5750183849
 20
2.5166552064
 40
0.0266349791
100
AcDbArc
 50
20.3630922153
 51
37.9727053099
  0
ARC
  5
376
100
AcDbEntity
  8
0
100
AcDbCircle
 62
7
  6
CONTINUOUS
 10
13.5761387404
 20
2.5167282896
 40
0.0257145923
100
AcDbArc
 50
39.3804255939
 51
59.0361096173
  0
ARC
  5
377
100
AcDbEntity
  8
0
100
AcDbCircle
 62
7
  6
CONTINUOUS
 10
13.5607987082
 20
2.5143997688
 40
0.0238935861
100
AcDbArc
 50
209.8247607259
 51
235.1255079367
  0
ARC
  5
378
100
AcDbEntity
  8
0
100
AcDbCircle
 62
7
  6
CONTINUOUS
 10
13.6141751675
 20
2.5161916447
 40
0.0175560065
100
AcDbArc
 50
332.2279060967
 51
359.6595469939
  0
ARC
  5
379
100
AcDbEntity
  8
0
100
AcDbCircle
 62
7
  6
CONTINUOUS
 10
13.5201739219
 20
2.5145168728
 40
0.0151491919
100
AcDbArc
 50
24.098260853
 51
63.0369451818
  0
ARC
  5
37A
100
AcDbEntity
  8
0
100
AcDbCircle
 62
7
  6
CONTINUOUS
 10
13.6156881783
 20
2.525116781
 40
0.0147197649
100
AcDbArc
 50
192.7054516565
 51
206.0594861022
  0
ARC
  5
37B
100
AcDbEntity
  8
0
100
AcDbCircle
 62
7
  6
CONTINUOUS
 10
13.5284605274
 20
2.5518696094
 40
0.0145814632
100
AcDbArc
 50
54.6746025112
 51
71.1660573124
  0
ARC
  5
37C
100
AcDbEntity
  8
0
100
AcDbCircle
 62
7
  6
CONTINUOUS
 10
13.6063292954
 20
2.5296129864
 40
0.0132488022
100
AcDbArc
 50
270.266200055
 51
281.2404888597
  0
ARC
  5
37D
100
AcDbEntity
  8
0
100
AcDbCircle
 62
7
  6
CONTINUOUS
 10
13.6027235414
 20
2.524769508
 40
0.0119498009
100
AcDbArc
 50
340.7883861657
 51
1.1691452593
  0
ARC
  5
37E
100
AcDbEntity
  8
0
100
AcDbCircle
 62
7
  6
CONTINUOUS
 10
13.5295131508
 20
2.5629115009
 40
0.0110815393
100
AcDbArc
 50
306.758405961
 51
320.4502234234
  0
ARC
  5
37F
100
AcDbEntity
  8
0
100
AcDbCircle
 62
7
  6
CONTINUOUS
 10
13.6075235364
 20
2.5238762928
 40
0.0073895522
100
AcDbArc
 50
280.8288201977
 51
305.0837508495
  0
ARC
  5
380
100
AcDbEntity
  8
0
100
AcDbCircle
 62
7
  6
CONTINUOUS
 10
13.607924718
 20
2.5230254464
 40
0.0064647042
100
AcDbArc
 50
306.5086174083
 51
340.2162360092
  0
ARC
  5
381
100
AcDbEntity
  8
0
100
AcDbCircle
 62
7
  6
CONTINUOUS
 10
13.5335900184
 20
2.5587235346
 40
0.0060275915
100
AcDbArc
 50
20.9055592135
 51
56.7851676243
  0
ARC
  5
382
100
AcDbEntity
  8
0
100
AcDbCircle
 62
7
  6
CONTINUOUS
 10
13.533683767
 20
2.559677593
 40
0.0058087709
100
AcDbArc
 50
318.8515287446
 51
353.6422345323
  0
ARC
  5
383
100
AcDbEntity
  8
0
100
AcDbCircle
 62
7
  6
CONTINUOUS
 10
13.6071938412
 20
2.5209082945
 40
0.0052403997
100
AcDbArc
 50
205.5232099488
 51
227.5054868079
  0
ARC
  5
384
100
AcDbEntity
  8
0
100
AcDbCircle
 62
7
  6
CONTINUOUS
 10
13.5348905773
 20
2.5593838168
 40
0.0045795888
100
AcDbArc
 50
355.6235353944
 51
18.9942678268
  0
ARC
  5
385
100
AcDbEntity
  8
0
100
AcDbCircle
 62
7
  6
CONTINUOUS
 10
13.6054655419
 20
2.5190929218
 40
0.0027347709
100
AcDbArc
 50
228.5117626737
 51
266.1485845754
  0
ARC
  5
386
100
AcDbEntity
  8
0
100
AcDbCircle
 62
7
  6
CONTINUOUS
 10
13.4883447827
 20
2.5281293355
 40
0.0024749995
100
AcDbArc
 50
89.9999571957
 51
180.0000428043
  0
ARC
  5
387
100
AcDbEntity
  8
0
100
AcDbCircle
 62
7
  6
CONTINUOUS
 10
13.4883447827
 20
2.5184303265
 40
0.0024749995
100
AcDbArc
 50
179.9999571957
 51
270.0000428043
  0
ARC
  5
388
100
AcDbEntity
  8
0
100
AcDbCircle
 62
7
  6
CONTINUOUS
 10
13.5130038
 20
2.5134803274
 40
0.0024749995
100
AcDbArc
 50
359.9999571957
 51
90.0000428043
  0
ARC
  5
389
100
AcDbEntity
  8
0
100
AcDbCircle
 62
7
  6
CONTINUOUS
 10
13.3994327333
 20
2.5135023274
 40
0.0024749995
100
AcDbArc
 50
89.9999571957
 51
180.0000428043
  0
ARC
  5
38A
100
AcDbEntity
  8
0
100
AcDbCircle
 62
7
  6
CONTINUOUS
 10
13.4221787497
 20
2.5184523265
 40
0.0024749995
100
AcDbArc
 50
269.9999571957
 51
0.0000428042
  0
ARC
  5
38B
100
AcDbEntity
  8
0
100
AcDbCircle
 62
7
  6
CONTINUOUS
 10
13.6171458541
 20
2.5276393353
 40
0.0024749995
100
AcDbArc
 50
89.9999571957
 51
180.0000428043
  0
ARC
  5
38C
100
AcDbEntity
  8
0
100
AcDbCircle
 62
7
  6
CONTINUOUS
 10
13.6292558645
 20
2.5276393353
 40
0.0024749995
100
AcDbArc
 50
359.9999571957
 51
90.0000428043
  0
ARC
  5
38D
100
AcDbEntity
  8
0
100
AcDbCircle
 62
7
  6
CONTINUOUS
 10
13.4883447827
 20
2.5520823451
 40
0.0024749995
100
AcDbArc
 50
179.9999571957
 51
270.0000428043
  0
ARC
  5
38E
100
AcDbEntity
  8
0
100
AcDbCircle
 62
7
  6
CONTINUOUS
 10
13.3232596948
 20
2.5184523265
 40
0.0024749995
100
AcDbArc
 50
269.9999571957
 51
0.0000428043
  0
ARC
  5
38F
100
AcDbEntity
  8
0
100
AcDbCircle
 62
7
  6
CONTINUOUS
 10
13.3282096938
 20
2.5267023348
 40
0.0024749995
100
AcDbArc
 50
89.9999571957
 51
180.0000428043
  0
ARC
  5
390
100
AcDbEntity
  8
0
100
AcDbCircle
 62
7
  6
CONTINUOUS
 10
13.370528721
 20
2.5267023348
 40
0.0024749995
100
AcDbArc
 50
359.9999571957
 51
90.0000428043
  0
ARC
  5
391
100
AcDbEntity
  8
0
100
AcDbCircle
 62
7
  6
CONTINUOUS
 10
13.3691097202
 20
2.5565573476
 40
0.0024749995
100
AcDbArc
 50
269.9999571957
 51
0.0000428042
  0
ARC
  5
392
100
AcDbEntity
  8
0
100
AcDbCircle
 62
7
  6
CONTINUOUS
 10
13.3272456933
 20
2.5565573476
 40
0.0024749995
100
AcDbArc
 50
179.9999571957
 51
270.0000428043
  0
ARC
  5
393
100
AcDbEntity
  8
0
100
AcDbCircle
 62
7
  6
CONTINUOUS
 10
13.2934226783
 20
2.5483073467
 40
0.0024749995
100
AcDbArc
 50
359.9999571957
 51
90.0000428043
  0
ARC
  5
394
100
AcDbEntity
  8
0
100
AcDbCircle
 62
7
  6
CONTINUOUS
 10
13.2934226783
 20
2.5349523356
 40
0.0024749995
100
AcDbArc
 50
269.9999571957
 51
0.0000428042
  0
ARC
  5
395
100
AcDbEntity
  8
0
100
AcDbCircle
 62
7
  6
CONTINUOUS
 10
13.5519569538
 20
2.6152551345
 40
0.0789082104
100
AcDbArc
 50
292.906155071
 51
305.2574666259
  0
ARC
  5
396
100
AcDbEntity
  8
0
100
AcDbCircle
 62
7
  6
CONTINUOUS
 10
13.5822888914
 20
2.5720482849
 40
0.0261183659
100
AcDbArc
 50
305.6373831893
 51
329.9727629745
  0
ARC
  5
397
100
AcDbEntity
  8
0
100
AcDbCircle
 62
7
  6
CONTINUOUS
 10
13.5219564542
 20
2.5750459767
 40
0.0254407115
100
AcDbArc
 50
270.7327484175
 51
290.441894219
  0
ARC
  5
398
100
AcDbEntity
  8
0
100
AcDbCircle
 62
7
  6
CONTINUOUS
 10
13.5238839599
 20
2.5706523294
 40
0.0206523367
100
AcDbArc
 50
289.6883413472
 51
306.4184925496
  0
ARC
  5
399
100
AcDbEntity
  8
0
100
AcDbCircle
 62
7
  6
CONTINUOUS
 10
13.5900029525
 20
2.565201245
 40
0.0165459396
100
AcDbArc
 50
1.548452892
 51
33.5033152417
  0
ARC
  5
39A
100
AcDbEntity
  8
0
100
AcDbCircle
 62
7
  6
CONTINUOUS
 10
13.5932995477
 20
2.5653696972
 40
0.0132462337
100
AcDbArc
 50
331.1510006998
 51
1.205404301
  0
ARC
  5
39B
100
AcDbEntity
  8
0
100
AcDbCircle
 62
7
  6
CONTINUOUS
 10
13.4221787497
 20
2.5648073559
 40
0.0024749995
100
AcDbArc
 50
359.9999571957
 51
90.0000428043
  0
ARC
  5
39C
100
AcDbEntity
  8
0
100
AcDbCircle
 62
7
  6
CONTINUOUS
 10
13.3994327333
 20
2.5697573549
 40
0.0024749995
100
AcDbArc
 50
179.9999571957
 51
270.0000428043
  0
ARC
  5
39D
100
AcDbEntity
  8
0
100
AcDbCircle
 62
7
  6
CONTINUOUS
 10
13.3994327333
 20
2.5895573696
 40
0.0024749995
100
AcDbArc
 50
89.9999571957
 51
180.0000428043
  0
ARC
  5
39E
100
AcDbEntity
  8
0
100
AcDbCircle
 62
7
  6
CONTINUOUS
 10
13.4883447827
 20
2.5648073559
 40
0.0024749995
100
AcDbArc
 50
89.9999571957
 51
180.0000428043
  0
ARC
  5
39F
100
AcDbEntity
  8
0
100
AcDbCircle
 62
7
  6
CONTINUOUS
 10
13.3691097202
 20
2.5895573696
 40
0.0024749995
100
AcDbArc
 50
359.9999571957
 51
90.0000428043
  0
ARC
  5
3A0
100
AcDbEntity
  8
0
100
AcDbCircle
 62
7
  6
CONTINUOUS
 10
13.3222956943
 20
2.5648073559
 40
0.0024749995
100
AcDbArc
 50
359.9999571957
 51
90.0000428043
  0
ELLIPSE
  5
3A1
100
AcDbEntity
  8
0
100
AcDbEllipse
 62
7
  6
CONTINUOUS
 10
12.9046654608
 20
2.5403783405
 30
0.0
 11
-0.8250004575
 21
0.0
 31
0.0
 40
0.218572
 41
0.0
 42
6.2831853072
  0
HATCH
  5
3A2
100
AcDbEntity
  8
0
100
AcDbHatch
 62
7
  6
CONTINUOUS
 10
0.0
 20
0.0
 30
0.0
210
0.0
220
0.0
230
1.0
  2
XSEC0001
 70
1
 71
1
 91
11
 92
1
 93
57
 72
2
 10
13.5577001432
 20
2.5085494649
 40
0.0173408616
 50
232.4713476722
 51
267.338189944
 73
1
 72
2
 10
13.5607987082
 20
2.5143997688
 40
0.0238935861
 50
209.8247607259
 51
235.1255079367
 73
1
 72
2
 10
13.5806801742
 20
2.5212486481
 40
0.044722495
 50
195.531588407
 51
204.7624440448
 73
1
 72
1
 10
13.5375908118
 20
2.5092733232
 11
13.5357868108
 21
2.5153423266
 72
2
 10
13.4974076135
 20
2.5055452462
 40
0.0396099176
 50
14.3201081283
 51
22.4984722084
 73
1
 72
2
 10
13.5201739219
 20
2.5145168728
 40
0.0151491919
 50
24.098260853
 51
63.0369451818
 73
1
 72
2
 10
13.5161192671
 20
2.5062372524
 40
0.0243676582
 50
63.3666028271
 51
90.3937697637
 73
1
 72
1
 10
13.5159517998
 20
2.5306043351
 11
13.4883447845
 21
2.5306043351
 72
2
 10
13.4883447827
 20
2.5281293355
 40
0.0024749995
 50
89.9999571958
 51
180.0000428043
 73
1
 72
1
 10
13.4858697831
 20
2.5281293337
 11
13.4858697831
 21
2.5184303283
 72
2
 10
13.4883447827
 20
2.5184303265
 40
0.0024749995
 50
179.9999571957
 51
270.0000428042
 73
1
 72
1
 10
13.4883447845
 20
2.5159553269
 11
13.5130037982
 21
2.5159553269
 72
2
 10
13.5130038
 20
2.5134803274
 40
0.0024749995
 50
359.9999571957
 51
90.0000428042
 73
1
 72
1
 10
13.5154787995
 20
2.5134803256
 11
13.5154787995
 21
2.4937023146
 72
2
 10
13.5130038
 20
2.4937023128
 40
0.0024749995
 50
269.9999571958
 51
0.0000428043
 73
1
 72
1
 10
13.5130037982
 20
2.4912273132
 11
13.3994327352
 21
2.4912273132
 72
2
 10
13.3994327333
 20
2.4937023128
 40
0.0024749995
 50
179.9999571957
 51
270.0000428043
 73
1
 72
1
 10
13.3969577338
 20
2.4937023146
 11
13.3969577338
 21
2.5135023256
 72
2
 10
13.3994327333
 20
2.5135023274
 40
0.0024749995
 50
89.9999571957
 51
180.0000428043
 73
1
 72
1
 10
13.3994327352
 20
2.515977327
 11
13.4221787478
 21
2.515977327
 72
2
 10
13.4221787497
 20
2.5184523265
 40
0.0024749995
 50
269.9999571956
 51
0.0000428042
 73
1
 72
1
 10
13.4246537492
 20
2.5184523283
 11
13.4246537492
 21
2.564807354
 72
2
 10
13.4221787497
 20
2.5648073559
 40
0.0024749995
 50
359.9999571957
 51
90.0000428043
 73
1
 72
1
 10
13.4221787478
 20
2.5672823554
 11
13.3994327352
 21
2.5672823554
 72
2
 10
13.3994327333
 20
2.5697573549
 40
0.0024749995
 50
179.9999571957
 51
270.0000428043
 73
1
 72
1
 10
13.3969577338
 20
2.5697573568
 11
13.3969577338
 21
2.5895573678
 72
2
 10
13.3994327333
 20
2.5895573696
 40
0.0024749995
 50
89.9999571957
 51
180.0000428043
 73
1
 72
1
 10
13.3994327352
 20
2.5920323691
 11
13.5490138181
 21
2.5920323691
 72
2
 10
13.5463505148
 20
2.4094934586
 40
0.1825583387
 50
79.8618509324
 51
89.1640948679
 73
1
 72
2
 10
13.5726548052
 20
2.5503169747
 40
0.039319019
 50
59.1202086415
 51
81.4730239328
 73
1
 72
2
 10
13.5783142014
 20
2.5566516438
 40
0.0310192946
 50
34.7540871
 51
62.0879016178
 73
1
 72
2
 10
13.5900029525
 20
2.565201245
 40
0.0165459396
 50
1.548452892
 51
33.5033152417
 73
1
 72
2
 10
13.5932995477
 20
2.5653696972
 40
0.0132462337
 50
331.1510006998
 51
1.205404301
 73
1
 72
2
 10
13.5822888914
 20
2.5720482849
 40
0.0261183659
 50
305.6373831893
 51
329.9727629745
 73
1
 72
2
 10
13.5519569538
 20
2.6152551345
 40
0.0789082104
 50
292.906155071
 51
305.2574666259
 73
1
 72
2
 10
13.5282557878
 20
2.4386010294
 40
0.117346916
 50
58.614769177
 51
62.3737227606
 73
1
 72
2
 10
13.5761387404
 20
2.5167282896
 40
0.0257145923
 50
39.3804255939
 51
59.0361096173
 73
1
 72
2
 10
13.5750183849
 20
2.5166552064
 40
0.0266349791
 50
20.3630922153
 51
37.9727053099
 73
1
 72
2
 10
13.5571178432
 20
2.509473798
 40
0.0459185159
 50
15.6740290068
 51
20.9917271228
 73
1
 72
2
 10
13.6156881783
 20
2.525116781
 40
0.0147197649
 50
192.7054516565
 51
206.0594861022
 73
1
 72
2
 10
13.6071938412
 20
2.5209082945
 40
0.0052403997
 50
205.5232099488
 51
227.5054868079
 73
1
 72
2
 10
13.6054655419
 20
2.5190929218
 40
0.0027347709
 50
228.5117626737
 51
266.1485845754
 73
1
 72
1
 10
13.6052818493
 20
2.5163643272
 11
13.60639085
 21
2.5163643272
 72
2
 10
13.6063292954
 20
2.5296129864
 40
0.0132488022
 50
270.266200055
 51
281.2404888597
 73
1
 72
2
 10
13.6075235364
 20
2.5238762928
 40
0.0073895522
 50
280.8288201977
 51
305.0837508495
 73
1
 72
2
 10
13.607924718
 20
2.5230254464
 40
0.0064647042
 50
306.5086174083
 51
340.2162360092
 73
1
 72
2
 10
13.6027235414
 20
2.524769508
 40
0.0119498009
 50
340.7883861657
 51
1.1691452593
 73
1
 72
1
 10
13.6146708546
 20
2.525013332
 11
13.6146708546
 21
2.5276393334
 72
2
 10
13.6171458541
 20
2.5276393353
 40
0.0024749995
 50
89.9999571958
 51
180.0000428043
 73
1
 72
1
 10
13.6171458559
 20
2.5301143348
 11
13.6292558626
 21
2.5301143348
 72
2
 10
13.6292558645
 20
2.5276393353
 40
0.0024749995
 50
359.9999571957
 51
90.0000428042
 73
1
 72
1
 10
13.631730864
 20
2.5276393334
 11
13.631730864
 21
2.516087327
 72
2
 10
13.6141751675
 20
2.5161916447
 40
0.0175560065
 50
332.2279060967
 51
359.6595469939
 73
1
 72
2
 10
13.6048681567
 20
2.5210861501
 40
0.0280715479
 50
308.5071794988
 51
332.2400656899
 73
1
 72
2
 10
13.5978759713
 20
2.5286873679
 40
0.0383802683
 50
288.7656836787
 51
309.6104317088
 73
1
 72
2
 10
13.6036139387
 20
2.5111006186
 40
0.0198837666
 50
271.8586572978
 51
289.4131338543
 73
1
 72
1
 10
13.6042588488
 20
2.4912273132
 11
13.5568948225
 21
2.4912273132
 97
267
330
297
330
298
330
299
330
29A
330
29B
330
29C
330
29D
330
29E
330
29F
330
2A0
330
2A1
330
2A2
330
2A3
330
2A4
330
2A5
330
2A6
330
2A7
330
2A8
330
2A9
330
2AA
330
2AB
330
2AC
330
2AD
330
2AE
330
2AF
330
2B0
330
2B1
330
2B2
330
2B3
330
2B4
330
2B5
330
2B6
330
2B7
330
2B8
330
2B9
330
2BA
330
2BB
330
2BC
330
2BD
330
2BE
330
2BF
330
2C0
330
2C1
330
2C2
330
2C3
330
2C4
330
2C5
330
2C6
330
2C7
330
2C8
330
2C9
330
2CA
330
2CB
330
2CC
330
2CD
330
2CE
330
2CF
330
2D0
330
2D1
330
2D2
330
2D3
330
2D4
330
2D5
330
2D6
330
2D7
330
2D8
330
2D9
330
2DA
330
2DB
330
2DC
330
2DD
330
2DE
330
2DF
330
2E0
330
2E1
330
2E2
330
2E3
330
2E4
330
2E5
330
2E6
330
2E7
330
2E8
330
2E9
330
2EA
330
2EB
330
2EC
330
2ED
330
2EE
330
2EF
330
2F0
330
2F1
330
2F2
330
2F3
330
2F4
330
2F5
330
2F6
330
2F7
330
2F8
330
2F9
330
2FA
330
2FB
330
2FC
330
2FD
330
2FE
330
2FF
330
300
330
301
330
302
330
303
330
304
330
305
330
306
330
307
330
308
330
309
330
30A
330
30B
330
30C
330
30D
330
30E
330
30F
330
310
330
311
330
312
330
313
330
314
330
315
330
316
330
317
330
318
330
319
330
31A
330
31B
330
31C
330
31D
330
31E
330
31F
330
320
330
321
330
322
330
323
330
324
330
325
330
326
330
327
330
328
330
329
330
32A
330
32B
330
32C
330
32D
330
32E
330
32F
330
330
330
331
330
332
330
333
330
334
330
335
330
336
330
337
330
338
330
339
330
33A
330
33B
330
33C
330
33D
330
33E
330
33F
330
340
330
341
330
342
330
343
330
344
330
345
330
346
330
347
330
348
330
349
330
34A
330
34B
330
34C
330
34D
330
34E
330
34F
330
350
330
351
330
352
330
353
330
354
330
355
330
356
330
357
330
358
330
359
330
35A
330
35B
330
35C
330
35D
330
35E
330
35F
330
360
330
361
330
362
330
363
330
364
330
365
330
366
330
367
330
368
330
369
330
36A
330
36B
330
36C
330
36D
330
36E
330
36F
330
370
330
371
330
372
330
373
330
374
330
375
330
376
330
377
330
378
330
379
330
37A
330
37B
330
37C
330
37D
330
37E
330
37F
330
380
330
381
330
382
330
383
330
384
330
385
330
386
330
387
330
388
330
389
330
38A
330
38B
330
38C
330
38D
330
38E
330
38F
330
390
330
391
330
392
330
393
330
394
330
395
330
396
330
397
330
398
330
399
330
39A
330
39B
330
39C
330
39D
330
39E
330
39F
330
3A0
330
3A1
 92
1
 93
40
 72
2
 10
13.1673166046
 20
2.4937023128
 40
0.0024749995
 50
179.9999571957
 51
270.0000428042
 73
1
 72
1
 10
13.1648416051
 20
2.4937023146
 11
13.1648416051
 21
2.5135023256
 72
2
 10
13.1673166046
 20
2.5135023274
 40
0.0024749995
 50
89.9999571958
 51
180.0000428043
 73
1
 72
1
 10
13.1673166065
 20
2.515977327
 11
13.1912396197
 21
2.515977327
 72
2
 10
13.1912396216
 20
2.5184523265
 40
0.0024749995
 50
269.9999571956
 51
0.0000428042
 73
1
 72
1
 10
13.1937146211
 20
2.5184523283
 11
13.1937146211
 21
2.564807354
 72
2
 10
13.1912396216
 20
2.5648073559
 40
0.0024749995
 50
359.9999571957
 51
90.0000428043
 73
1
 72
1
 10
13.1912396197
 20
2.5672823554
 11
13.1673166065
 21
2.5672823554
 72
2
 10
13.1673166046
 20
2.5697573549
 40
0.0024749995
 50
179.9999571957
 51
270.0000428043
 73
1
 72
1
 10
13.1648416051
 20
2.5697573568
 11
13.1648416051
 21
2.5895573678
 72
2
 10
13.1673166046
 20
2.5895573696
 40
0.0024749995
 50
89.9999571958
 51
180.0000428043
 73
1
 72
1
 10
13.1673166065
 20
2.5920323691
 11
13.3691097184
 21
2.5920323691
 72
2
 10
13.3691097202
 20
2.5895573696
 40
0.0024749995
 50
359.9999571957
 51
90.0000428042
 73
1
 72
1
 10
13.3715847197
 20
2.5895573678
 11
13.3715847197
 21
2.5565573495
 72
2
 10
13.3691097202
 20
2.5565573476
 40
0.0024749995
 50
269.9999571956
 51
0.0000428042
 73
1
 72
1
 10
13.3691097184
 20
2.5540823481
 11
13.3272456952
 21
2.5540823481
 72
2
 10
13.3272456933
 20
2.5565573476
 40
0.0024749995
 50
179.9999571957
 51
270.0000428043
 73
1
 72
1
 10
13.3247706938
 20
2.5565573495
 11
13.3247706938
 21
2.564807354
 72
2
 10
13.3222956943
 20
2.5648073559
 40
0.0024749995
 50
359.9999571957
 51
90.0000428043
 73
1
 72
1
 10
13.3222956924
 20
2.5672823554
 11
13.2582556569
 21
2.5672823554
 72
2
 10
13.2582556551
 20
2.5648073559
 40
0.0024749995
 50
89.9999571957
 51
180.0000428043
 73
1
 72
1
 10
13.2557806555
 20
2.564807354
 11
13.2557806555
 21
2.5532573476
 72
2
 10
13.2582556551
 20
2.5532573458
 40
0.0024749995
 50
179.9999571957
 51
270.0000428042
 73
1
 72
1
 10
13.2582556569
 20
2.5507823463
 11
13.2934226764
 21
2.5507823463
 72
2
 10
13.2934226783
 20
2.5483073467
 40
0.0024749995
 50
359.9999571957
 51
90.0000428042
 73
1
 72
1
 10
13.2958976778
 20
2.5483073449
 11
13.2958976778
 21
2.5349523375
 72
2
 10
13.2934226783
 20
2.5349523356
 40
0.0024749995
 50
269.9999571956
 51
0.0000428042
 73
1
 72
1
 10
13.2934226764
 20
2.5324773361
 11
13.2582556569
 21
2.5324773361
 72
2
 10
13.2582556551
 20
2.5300023366
 40
0.0024749995
 50
89.9999571957
 51
180.0000428043
 73
1
 72
1
 10
13.2557806555
 20
2.5300023347
 11
13.2557806555
 21
2.5184523283
 72
2
 10
13.2582556551
 20
2.5184523265
 40
0.0024749995
 50
179.9999571957
 51
270.0000428043
 73
1
 72
1
 10
13.2582556569
 20
2.515977327
 11
13.3232596929
 21
2.515977327
 72
2
 10
13.3232596948
 20
2.5184523265
 40
0.0024749995
 50
269.9999571958
 51
0.0000428043
 73
1
 72
1
 10
13.3257346943
 20
2.5184523283
 11
13.3257346943
 21
2.5267023329
 72
2
 10
13.3282096938
 20
2.5267023348
 40
0.0024749995
 50
89.9999571957
 51
180.0000428043
 73
1
 72
1
 10
13.3282096957
 20
2.5291773343
 11
13.3705287192
 21
2.5291773343
 72
2
 10
13.370528721
 20
2.5267023348
 40
0.0024749995
 50
359.9999571957
 51
90.0000428043
 73
1
 72
1
 10
13.3730037205
 20
2.5267023329
 11
13.3730037205
 21
2.4937023146
 72
2
 10
13.370528721
 20
2.4937023128
 40
0.0024749995
 50
269.9999571957
 51
0.0000428043
 73
1
 72
1
 10
13.3705287192
 20
2.4912273132
 11
13.1673166065
 21
2.4912273132
 97
267
330
297
330
298
330
299
330
29A
330
29B
330
29C
330
29D
330
29E
330
29F
330
2A0
330
2A1
330
2A2
330
2A3
330
2A4
330
2A5
330
2A6
330
2A7
330
2A8
330
2A9
330
2AA
330
2AB
330
2AC
330
2AD
330
2AE
330
2AF
330
2B0
330
2B1
330
2B2
330
2B3
330
2B4
330
2B5
330
2B6
330
2B7
330
2B8
330
2B9
330
2BA
330
2BB
330
2BC
330
2BD
330
2BE
330
2BF
330
2C0
330
2C1
330
2C2
330
2C3
330
2C4
330
2C5
330
2C6
330
2C7
330
2C8
330
2C9
330
2CA
330
2CB
330
2CC
330
2CD
330
2CE
330
2CF
330
2D0
330
2D1
330
2D2
330
2D3
330
2D4
330
2D5
330
2D6
330
2D7
330
2D8
330
2D9
330
2DA
330
2DB
330
2DC
330
2DD
330
2DE
330
2DF
330
2E0
330
2E1
330
2E2
330
2E3
330
2E4
330
2E5
330
2E6
330
2E7
330
2E8
330
2E9
330
2EA
330
2EB
330
2EC
330
2ED
330
2EE
330
2EF
330
2F0
330
2F1
330
2F2
330
2F3
330
2F4
330
2F5
330
2F6
330
2F7
330
2F8
330
2F9
330
2FA
330
2FB
330
2FC
330
2FD
330
2FE
330
2FF
330
300
330
301
330
302
330
303
330
304
330
305
330
306
330
307
330
308
330
309
330
30A
330
30B
330
30C
330
30D
330
30E
330
30F
330
310
330
311
330
312
330
313
330
314
330
315
330
316
330
317
330
318
330
319
330
31A
330
31B
330
31C
330
31D
330
31E
330
31F
330
320
330
321
330
322
330
323
330
324
330
325
330
326
330
327
330
328
330
329
330
32A
330
32B
330
32C
330
32D
330
32E
330
32F
330
330
330
331
330
332
330
333
330
334
330
335
330
336
330
337
330
338
330
339
330
33A
330
33B
330
33C
330
33D
330
33E
330
33F
330
340
330
341
330
342
330
343
330
344
330
345
330
346
330
347
330
348
330
349
330
34A
330
34B
330
34C
330
34D
330
34E
330
34F
330
350
330
351
330
352
330
353
330
354
330
355
330
356
330
357
330
358
330
359
330
35A
330
35B
330
35C
330
35D
330
35E
330
35F
330
360
330
361
330
362
330
363
330
364
330
365
330
366
330
367
330
368
330
369
330
36A
330
36B
330
36C
330
36D
330
36E
330
36F
330
370
330
371
330
372
330
373
330
374
330
375
330
376
330
377
330
378
330
379
330
37A
330
37B
330
37C
330
37D
330
37E
330
37F
330
380
330
381
330
382
330
383
330
384
330
385
330
386
330
387
330
388
330
389
330
38A
330
38B
330
38C
330
38D
330
38E
330
38F
330
390
330
391
330
392
330
393
330
394
330
395
330
396
330
397
330
398
330
399
330
39A
330
39B
330
39C
330
39D
330
39E
330
39F
330
3A0
330
3A1
 92
1
 93
40
 72
2
 10
13.0426374026
 20
2.493701481
 40
0.0024741678
 50
226.3477981898
 51
270.0031206038
 73
1
 72
1
 10
13.0409295364
 20
2.4919113136
 11
12.9776495013
 21
2.5522893471
 72
2
 10
12.9759408003
 20
2.5504984093
 40
0.0024753014
 50
46.3461263059
 51
180.0014637321
 73
1
 72
1
 10
12.973465499
 20
2.5504983461
 11
12.973465499
 21
2.5184523283
 72
2
 10
12.9759404985
 20
2.5184523265
 40
0.0024749995
 50
179.9999571957
 51
270.0000428043
 73
1
 72
1
 10
12.9759405003
 20
2.515977327
 11
12.9962575116
 21
2.515977327
 72
2
 10
12.9962575135
 20
2.5135023274
 40
0.0024749995
 50
359.9999571957
 51
90.0000428043
 73
1
 72
1
 10
12.998732513
 20
2.5135023256
 11
12.998732513
 21
2.4937023146
 72
2
 10
12.9962575135
 20
2.4937023128
 40
0.0024749995
 50
269.9999571957
 51
0.0000428043
 73
1
 72
1
 10
12.9962575116
 20
2.4912273132
 11
12.9205934696
 21
2.4912273132
 72
2
 10
12.9205934678
 20
2.4937023128
 40
0.0024749995
 50
179.9999571957
 51
270.0000428043
 73
1
 72
1
 10
12.9181184683
 20
2.4937023146
 11
12.9181184683
 21
2.5135023256
 72
2
 10
12.9205934678
 20
2.5135023274
 40
0.0024749995
 50
89.9999571956
 51
180.0000428042
 73
1
 72
1
 10
12.9205934696
 20
2.515977327
 11
12.93923948
 21
2.515977327
 72
2
 10
12.9392394818
 20
2.5184523265
 40
0.0024749995
 50
269.9999571957
 51
0.0000428043
 73
1
 72
1
 10
12.9417144814
 20
2.5184523283
 11
12.9417144814
 21
2.564807354
 72
2
 10
12.9392394818
 20
2.5648073559
 40
0.0024749995
 50
359.9999571957
 51
90.0000428043
 73
1
 72
1
 10
12.93923948
 20
2.5672823554
 11
12.9205934696
 21
2.5672823554
 72
2
 10
12.9205934678
 20
2.5697573549
 40
0.0024749995
 50
179.9999571957
 51
270.0000428043
 73
1
 72
1
 10
12.9181184683
 20
2.5697573568
 11
12.9181184683
 21
2.5895573678
 72
2
 10
12.9205934678
 20
2.5895573696
 40
0.0024749995
 50
89.9999571956
 51
180.0000428042
 73
1
 72
1
 10
12.9205934696
 20
2.5920323691
 11
13.0210515254
 21
2.5920323691
 72
2
 10
13.0210516601
 20
2.5895582013
 40
0.0024741678
 50
46.3477981898
 51
90.0031206038
 73
1
 72
1
 10
13.0227595263
 20
2.5913483688
 11
13.0827925596
 21
2.534068337
 72
2
 10
13.0845012605
 20
2.5358592748
 40
0.0024753014
 50
226.3461263059
 51
0.0014637321
 73
1
 72
1
 10
13.0869765619
 20
2.535859338
 11
13.0869765619
 21
2.564807354
 72
2
 10
13.0845015624
 20
2.5648073559
 40
0.0024749995
 50
359.9999571957
 51
90.0000428043
 73
1
 72
1
 10
13.0845015605
 20
2.5672823554
 11
13.0657255501
 21
2.5672823554
 72
2
 10
13.0657255483
 20
2.5697573549
 40
0.0024749995
 50
179.9999571957
 51
270.0000428043
 73
1
 72
1
 10
13.0632505488
 20
2.5697573568
 11
13.0632505488
 21
2.5895573678
 72
2
 10
13.0657255483
 20
2.5895573696
 40
0.0024749995
 50
89.9999571957
 51
180.0000428043
 73
1
 72
1
 10
13.0657255501
 20
2.5920323691
 11
13.1397265912
 21
2.5920323691
 72
2
 10
13.139726593
 20
2.5895573696
 40
0.0024749995
 50
359.9999571957
 51
90.0000428043
 73
1
 72
1
 10
13.1422015925
 20
2.5895573678
 11
13.1422015925
 21
2.5697573568
 72
2
 10
13.139726593
 20
2.5697573549
 40
0.0024749995
 50
269.9999571956
 51
0.0000428042
 73
1
 72
1
 10
13.1397265912
 20
2.5672823554
 11
13.1217935812
 21
2.5672823554
 72
2
 10
13.1217935794
 20
2.5648073559
 40
0.0024749995
 50
89.9999571957
 51
180.0000428042
 73
1
 72
1
 10
13.1193185799
 20
2.564807354
 11
13.1193185799
 21
2.4937023146
 72
2
 10
13.1168435803
 20
2.4937023128
 40
0.0024749995
 50
269.9999571957
 51
0.0000428043
 73
1
 72
1
 10
13.1168435785
 20
2.4912273132
 11
13.0426375373
 21
2.4912273132
 97
267
330
297
330
298
330
299
330
29A
330
29B
330
29C
330
29D
330
29E
330
29F
330
2A0
330
2A1
330
2A2
330
2A3
330
2A4
330
2A5
330
2A6
330
2A7
330
2A8
330
2A9
330
2AA
330
2AB
330
2AC
330
2AD
330
2AE
330
2AF
330
2B0
330
2B1
330
2B2
330
2B3
330
2B4
330
2B5
330
2B6
330
2B7
330
2B8
330
2B9
330
2BA
330
2BB
330
2BC
330
2BD
330
2BE
330
2BF
330
2C0
330
2C1
330
2C2
330
2C3
330
2C4
330
2C5
330
2C6
330
2C7
330
2C8
330
2C9
330
2CA
330
2CB
330
2CC
330
2CD
330
2CE
330
2CF
330
2D0
330
2D1
330
2D2
330
2D3
330
2D4
330
2D5
330
2D6
330
2D7
330
2D8
330
2D9
330
2DA
330
2DB
330
2DC
330
2DD
330
2DE
330
2DF
330
2E0
330
2E1
330
2E2
330
2E3
330
2E4
330
2E5
330
2E6
330
2E7
330
2E8
330
2E9
330
2EA
330
2EB
330
2EC
330
2ED
330
2EE
330
2EF
330
2F0
330
2F1
330
2F2
330
2F3
330
2F4
330
2F5
330
2F6
330
2F7
330
2F8
330
2F9
330
2FA
330
2FB
330
2FC
330
2FD
330
2FE
330
2FF
330
300
330
301
330
302
330
303
330
304
330
305
330
306
330
307
330
308
330
309
330
30A
330
30B
330
30C
330
30D
330
30E
330
30F
330
310
330
311
330
312
330
313
330
314
330
315
330
316
330
317
330
318
330
319
330
31A
330
31B
330
31C
330
31D
330
31E
330
31F
330
320
330
321
330
322
330
323
330
324
330
325
330
326
330
327
330
328
330
329
330
32A
330
32B
330
32C
330
32D
330
32E
330
32F
330
330
330
331
330
332
330
333
330
334
330
335
330
336
330
337
330
338
330
339
330
33A
330
33B
330
33C
330
33D
330
33E
330
33F
330
340
330
341
330
342
330
343
330
344
330
345
330
346
330
347
330
348
330
349
330
34A
330
34B
330
34C
330
34D
330
34E
330
34F
330
350
330
351
330
352
330
353
330
354
330
355
330
356
330
357
330
358
330
359
330
35A
330
35B
330
35C
330
35D
330
35E
330
35F
330
360
330
361
330
362
330
363
330
364
330
365
330
366
330
367
330
368
330
369
330
36A
330
36B
330
36C
330
36D
330
36E
330
36F
330
370
330
371
330
372
330
373
330
374
330
375
330
376
330
377
330
378
330
379
330
37A
330
37B
330
37C
330
37D
330
37E
330
37F
330
380
330
381
330
382
330
383
330
384
330
385
330
386
330
387
330
388
330
389
330
38A
330
38B
330
38C
330
38D
330
38E
330
38F
330
390
330
391
330
392
330
393
330
394
330
395
330
396
330
397
330
398
330
399
330
39A
330
39B
330
39C
330
39D
330
39E
330
39F
330
3A0
330
3A1
 92
1
 93
40
 72
2
 10
12.7943847649
 20
2.4937027294
 40
0.0024754162
 50
226.3593695813
 51
270.0146919953
 73
1
 72
1
 10
12.7926763987
 20
2.4919113136
 11
12.7293963636
 21
2.5522893471
 72
2
 10
12.7276876627
 20
2.5504984093
 40
0.0024753014
 50
46.3461263059
 51
180.0014637321
 73
1
 72
1
 10
12.7252123613
 20
2.5504983461
 11
12.7252123613
 21
2.5184523283
 72
2
 10
12.7276873608
 20
2.5184523265
 40
0.0024749995
 50
179.9999571957
 51
270.0000428043
 73
1
 72
1
 10
12.7276873627
 20
2.515977327
 11
12.7480043739
 21
2.515977327
 72
2
 10
12.7480043758
 20
2.5135023274
 40
0.0024749995
 50
359.9999571957
 51
90.0000428043
 73
1
 72
1
 10
12.7504793753
 20
2.5135023256
 11
12.7504793753
 21
2.4937023146
 72
2
 10
12.7480043758
 20
2.4937023128
 40
0.0024749995
 50
269.9999571958
 51
0.0000428043
 73
1
 72
1
 10
12.7480043739
 20
2.4912273132
 11
12.672340332
 21
2.4912273132
 72
2
 10
12.6723403301
 20
2.4937023128
 40
0.0024749995
 50
179.9999571957
 51
270.0000428042
 73
1
 72
1
 10
12.6698653306
 20
2.4937023146
 11
12.6698653306
 21
2.5135023256
 72
2
 10
12.6723403301
 20
2.5135023274
 40
0.0024749995
 50
89.9999571957
 51
180.0000428043
 73
1
 72
1
 10
12.672340332
 20
2.515977327
 11
12.6909873423
 21
2.515977327
 72
2
 10
12.6909873442
 20
2.5184523265
 40
0.0024749995
 50
269.9999571957
 51
0.0000428043
 73
1
 72
1
 10
12.6934623437
 20
2.5184523283
 11
12.6934623437
 21
2.564807354
 72
2
 10
12.6909873442
 20
2.5648073559
 40
0.0024749995
 50
359.9999571957
 51
90.0000428043
 73
1
 72
1
 10
12.6909873423
 20
2.5672823554
 11
12.672340332
 21
2.5672823554
 72
2
 10
12.6723403301
 20
2.5697573549
 40
0.0024749995
 50
179.9999571957
 51
270.0000428043
 73
1
 72
1
 10
12.6698653306
 20
2.5697573568
 11
12.6698653306
 21
2.5895573678
 72
2
 10
12.6723403301
 20
2.5895573696
 40
0.0024749995
 50
89.9999571957
 51
180.0000428043
 73
1
 72
1
 10
12.672340332
 20
2.5920323691
 11
12.7727983877
 21
2.5920323691
 72
2
 10
12.7727985224
 20
2.5895582013
 40
0.0024741678
 50
46.3477981899
 51
90.0031206038
 73
1
 72
1
 10
12.7745063886
 20
2.5913483688
 11
12.8345394219
 21
2.534068337
 72
2
 10
12.8362481229
 20
2.5358592748
 40
0.0024753014
 50
226.3461263059
 51
0.0014637321
 73
1
 72
1
 10
12.8387234242
 20
2.535859338
 11
12.8387234242
 21
2.564807354
 72
2
 10
12.8362484247
 20
2.5648073559
 40
0.0024749995
 50
359.9999571957
 51
90.0000428043
 73
1
 72
1
 10
12.8362484229
 20
2.5672823554
 11
12.8174724125
 21
2.5672823554
 72
2
 10
12.8174724106
 20
2.5697573549
 40
0.0024749995
 50
179.9999571957
 51
270.0000428043
 73
1
 72
1
 10
12.8149974111
 20
2.5697573568
 11
12.8149974111
 21
2.5895573678
 72
2
 10
12.8174724106
 20
2.5895573696
 40
0.0024749995
 50
89.9999571958
 51
180.0000428043
 73
1
 72
1
 10
12.8174724125
 20
2.5920323691
 11
12.8914734535
 21
2.5920323691
 72
2
 10
12.8914734553
 20
2.5895573696
 40
0.0024749995
 50
359.9999571957
 51
90.0000428042
 73
1
 72
1
 10
12.8939484549
 20
2.5895573678
 11
12.8939484549
 21
2.5697573568
 72
2
 10
12.8914734553
 20
2.5697573549
 40
0.0024749995
 50
269.9999571958
 51
0.0000428043
 73
1
 72
1
 10
12.8914734535
 20
2.5672823554
 11
12.8735404436
 21
2.5672823554
 72
2
 10
12.8735404417
 20
2.5648073559
 40
0.0024749995
 50
89.9999571957
 51
180.0000428043
 73
1
 72
1
 10
12.8710654422
 20
2.564807354
 11
12.8710654422
 21
2.4937023146
 72
2
 10
12.8685904427
 20
2.4937023128
 40
0.0024749995
 50
269.9999571957
 51
0.0000428043
 73
1
 72
1
 10
12.8685904408
 20
2.4912273132
 11
12.7943853997
 21
2.4912273132
 97
267
330
297
330
298
330
299
330
29A
330
29B
330
29C
330
29D
330
29E
330
29F
330
2A0
330
2A1
330
2A2
330
2A3
330
2A4
330
2A5
330
2A6
330
2A7
330
2A8
330
2A9
330
2AA
330
2AB
330
2AC
330
2AD
330
2AE
330
2AF
330
2B0
330
2B1
330
2B2
330
2B3
330
2B4
330
2B5
330
2B6
330
2B7
330
2B8
330
2B9
330
2BA
330
2BB
330
2BC
330
2BD
330
2BE
330
2BF
330
2C0
330
2C1
330
2C2
330
2C3
330
2C4
330
2C5
330
2C6
330
2C7
330
2C8
330
2C9
330
2CA
330
2CB
330
2CC
330
2CD
330
2CE
330
2CF
330
2D0
330
2D1
330
2D2
330
2D3
330
2D4
330
2D5
330
2D6
330
2D7
330
2D8
330
2D9
330
2DA
330
2DB
330
2DC
330
2DD
330
2DE
330
2DF
330
2E0
330
2E1
330
2E2
330
2E3
330
2E4
330
2E5
330
2E6
330
2E7
330
2E8
330
2E9
330
2EA
330
2EB
330
2EC
330
2ED
330
2EE
330
2EF
330
2F0
330
2F1
330
2F2
330
2F3
330
2F4
330
2F5
330
2F6
330
2F7
330
2F8
330
2F9
330
2FA
330
2FB
330
2FC
330
2FD
330
2FE
330
2FF
330
300
330
301
330
302
330
303
330
304
330
305
330
306
330
307
330
308
330
309
330
30A
330
30B
330
30C
330
30D
330
30E
330
30F
330
310
330
311
330
312
330
313
330
314
330
315
330
316
330
317
330
318
330
319
330
31A
330
31B
330
31C
330
31D
330
31E
330
31F
330
320
330
321
330
322
330
323
330
324
330
325
330
326
330
327
330
328
330
329
330
32A
330
32B
330
32C
330
32D
330
32E
330
32F
330
330
330
331
330
332
330
333
330
334
330
335
330
336
330
337
330
338
330
339
330
33A
330
33B
330
33C
330
33D
330
33E
330
33F
330
340
330
341
330
342
330
343
330
344
330
345
330
346
330
347
330
348
330
349
330
34A
330
34B
330
34C
330
34D
330
34E
330
34F
330
350
330
351
330
352
330
353
330
354
330
355
330
356
330
357
330
358
330
359
330
35A
330
35B
330
35C
330
35D
330
35E
330
35F
330
360
330
361
330
362
330
363
330
364
330
365
330
366
330
367
330
368
330
369
330
36A
330
36B
330
36C
330
36D
330
36E
330
36F
330
370
330
371
330
372
330
373
330
374
330
375
330
376
330
377
330
378
330
379
330
37A
330
37B
330
37C
330
37D
330
37E
330
37F
330
380
330
381
330
382
330
383
330
384
330
385
330
386
330
387
330
388
330
389
330
38A
330
38B
330
38C
330
38D
330
38E
330
38F
330
390
330
391
330
392
330
393
330
394
330
395
330
396
330
397
330
398
330
399
330
39A
330
39B
330
39C
330
39D
330
39E
330
39F
330
3A0
330
3A1
 92
1
 93
23
 72
2
 10
12.3792298263
 20
2.539634765
 40
0.048483885
 50
273.21763719
 51
303.0749121182
 73
1
 72
2
 10
12.3940692204
 20
2.5168671561
 40
0.0213072145
 50
303.0488228549
 51
355.7263138674
 73
1
 72
2
 10
12.400005721
 20
2.5168763464
 40
0.0153945295
 50
354.0454548824
 51
5.1878013979
 73
1
 72
2
 10
12.3931760319
 20
2.5166878286
 40
0.0222174455
 50
4.0793399388
 51
69.834329283
 73
1
 72
1
 10
12.4008351814
 20
2.5375433389
 11
12.3907841758
 21
2.5410923409
 72
1
 10
12.3907841758
 20
2.5410923409
 11
12.3990241804
 21
2.5458683435
 72
2
 10
12.3771587979
 20
2.5826952352
 40
0.0428289026
 50
300.6990502959
 51
319.0591802498
 73
1
 72
2
 10
12.3971873948
 20
2.5665668817
 40
0.0171568255
 50
315.9145124245
 51
16.0049121282
 73
1
 72
2
 10
12.3922357827
 20
2.5632132173
 40
0.0229166529
 50
20.6563876465
 51
62.3316896973
 73
1
 72
2
 10
12.371573659
 20
2.5302846524
 40
0.061747717
 50
59.5385584989
 51
90.0050977555
 73
1
 72
1
 10
12.3715681652
 20
2.5920323691
 11
12.2055050731
 21
2.5920323691
 72
2
 10
12.2055050712
 20
2.5895573696
 40
0.0024749995
 50
89.9999571957
 51
180.0000428043
 73
1
 72
1
 10
12.2030300717
 20
2.5895573678
 11
12.2030300717
 21
2.5697573568
 72
2
 10
12.2055050712
 20
2.5697573549
 40
0.0024749995
 50
179.9999571957
 51
270.0000428043
 73
1
 72
1
 10
12.2055050731
 20
2.5672823554
 11
12.2294470864
 21
2.5672823554
 72
2
 10
12.2294470882
 20
2.5648073559
 40
0.0024749995
 50
359.9999571957
 51
90.0000428043
 73
1
 72
1
 10
12.2319220877
 20
2.564807354
 11
12.2319220877
 21
2.5184523283
 72
2
 10
12.2294470882
 20
2.5184523265
 40
0.0024749995
 50
269.9999571957
 51
0.0000428043
 73
1
 72
1
 10
12.2294470864
 20
2.515977327
 11
12.2055050731
 21
2.515977327
 72
2
 10
12.2055050712
 20
2.5135023274
 40
0.0024749995
 50
89.9999571957
 51
180.0000428043
 73
1
 72
1
 10
12.2030300717
 20
2.5135023256
 11
12.2030300717
 21
2.4937023146
 72
2
 10
12.2055050712
 20
2.4937023128
 40
0.0024749995
 50
179.9999571957
 51
270.0000428043
 73
1
 72
1
 10
12.2055050731
 20
2.4912273132
 11
12.3819511709
 21
2.4912273132
 97
267
330
297
330
298
330
299
330
29A
330
29B
330
29C
330
29D
330
29E
330
29F
330
2A0
330
2A1
330
2A2
330
2A3
330
2A4
330
2A5
330
2A6
330
2A7
330
2A8
330
2A9
330
2AA
330
2AB
330
2AC
330
2AD
330
2AE
330
2AF
330
2B0
330
2B1
330
2B2
330
2B3
330
2B4
330
2B5
330
2B6
330
2B7
330
2B8
330
2B9
330
2BA
330
2BB
330
2BC
330
2BD
330
2BE
330
2BF
330
2C0
330
2C1
330
2C2
330
2C3
330
2C4
330
2C5
330
2C6
330
2C7
330
2C8
330
2C9
330
2CA
330
2CB
330
2CC
330
2CD
330
2CE
330
2CF
330
2D0
330
2D1
330
2D2
330
2D3
330
2D4
330
2D5
330
2D6
330
2D7
330
2D8
330
2D9
330
2DA
330
2DB
330
2DC
330
2DD
330
2DE
330
2DF
330
2E0
330
2E1
330
2E2
330
2E3
330
2E4
330
2E5
330
2E6
330
2E7
330
2E8
330
2E9
330
2EA
330
2EB
330
2EC
330
2ED
330
2EE
330
2EF
330
2F0
330
2F1
330
2F2
330
2F3
330
2F4
330
2F5
330
2F6
330
2F7
330
2F8
330
2F9
330
2FA
330
2FB
330
2FC
330
2FD
330
2FE
330
2FF
330
300
330
301
330
302
330
303
330
304
330
305
330
306
330
307
330
308
330
309
330
30A
330
30B
330
30C
330
30D
330
30E
330
30F
330
310
330
311
330
312
330
313
330
314
330
315
330
316
330
317
330
318
330
319
330
31A
330
31B
330
31C
330
31D
330
31E
330
31F
330
320
330
321
330
322
330
323
330
324
330
325
330
326
330
327
330
328
330
329
330
32A
330
32B
330
32C
330
32D
330
32E
330
32F
330
330
330
331
330
332
330
333
330
334
330
335
330
336
330
337
330
338
330
339
330
33A
330
33B
330
33C
330
33D
330
33E
330
33F
330
340
330
341
330
342
330
343
330
344
330
345
330
346
330
347
330
348
330
349
330
34A
330
34B
330
34C
330
34D
330
34E
330
34F
330
350
330
351
330
352
330
353
330
354
330
355
330
356
330
357
330
358
330
359
330
35A
330
35B
330
35C
330
35D
330
35E
330
35F
330
360
330
361
330
362
330
363
330
364
330
365
330
366
330
367
330
368
330
369
330
36A
330
36B
330
36C
330
36D
330
36E
330
36F
330
370
330
371
330
372
330
373
330
374
330
375
330
376
330
377
330
378
330
379
330
37A
330
37B
330
37C
330
37D
330
37E
330
37F
330
380
330
381
330
382
330
383
330
384
330
385
330
386
330
387
330
388
330
389
330
38A
330
38B
330
38C
330
38D
330
38E
330
38F
330
390
330
391
330
392
330
393
330
394
330
395
330
396
330
397
330
398
330
399
330
39A
330
39B
330
39C
330
39D
330
39E
330
39F
330
3A0
330
3A1
 92
1
 93
32
 72
2
 10
12.5168642476
 20
2.4937023128
 40
0.0024749995
 50
269.9999571957
 51
0.0000428043
 73
1
 72
1
 10
12.5193392471
 20
2.4937023146
 11
12.5193392471
 21
2.5135023256
 72
2
 10
12.5168642476
 20
2.5135023274
 40
0.0024749995
 50
359.9999571957
 51
90.0000428043
 73
1
 72
1
 10
12.5168642458
 20
2.515977327
 11
12.5055812395
 21
2.515977327
 72
2
 10
12.5055811302
 20
2.518452367
 40
0.0024750401
 50
147.6063258011
 51
270.0025305754
 73
1
 72
1
 10
12.5034912383
 20
2.5197783291
 11
12.5090072414
 21
2.5284723339
 72
2
 10
12.5110971723
 20
2.5271461342
 40
0.0024752003
 50
89.998372645
 51
147.602165307
 73
1
 72
1
 10
12.5110972426
 20
2.5296213345
 11
12.5459752619
 21
2.5296213345
 72
2
 10
12.5459747223
 20
2.5271458744
 40
0.0024754602
 50
32.8959418573
 51
89.9875097202
 73
1
 72
1
 10
12.548053263
 20
2.5284903339
 11
12.5536792662
 21
2.5197973291
 72
2
 10
12.5516012439
 20
2.5184525341
 40
0.0024752071
 50
270.0004896794
 51
32.9089806818
 73
1
 72
1
 10
12.551601265
 20
2.515977327
 11
12.537150257
 21
2.515977327
 72
2
 10
12.5371502552
 20
2.5135023274
 40
0.0024749995
 50
89.9999571958
 51
180.0000428043
 73
1
 72
1
 10
12.5346752556
 20
2.5135023256
 11
12.5346752556
 21
2.4937023146
 72
2
 10
12.5371502552
 20
2.4937023128
 40
0.0024749995
 50
179.9999571957
 51
270.0000428042
 73
1
 72
1
 10
12.537150257
 20
2.4912273132
 11
12.6424313154
 21
2.4912273132
 72
2
 10
12.6424313172
 20
2.4937023128
 40
0.0024749995
 50
269.9999571957
 51
0.0000428043
 73
1
 72
1
 10
12.6449063168
 20
2.4937023146
 11
12.6449063168
 21
2.5135023256
 72
2
 10
12.6424313172
 20
2.5135023274
 40
0.0024749995
 50
359.9999571957
 51
90.0000428043
 73
1
 72
1
 10
12.6424313154
 20
2.515977327
 11
12.6224153043
 21
2.515977327
 72
2
 10
12.6224154248
 20
2.518451368
 40
0.002474041
 50
212.9056413127
 51
269.9972091756
 73
1
 72
1
 10
12.6203383031
 20
2.5171073276
 11
12.5725822767
 21
2.5909023685
 72
2
 10
12.570504655
 20
2.589557409
 40
0.0024749602
 50
32.9172174468
 51
90.0087853097
 73
1
 72
1
 10
12.5705042755
 20
2.5920323691
 11
12.5133292438
 21
2.5920323691
 72
2
 10
12.5133291735
 20
2.5895571688
 40
0.0024752003
 50
89.9983726451
 51
147.602165307
 73
1
 72
1
 10
12.5112392426
 20
2.5908833685
 11
12.4644392167
 21
2.5171263276
 72
2
 10
12.4623492858
 20
2.5184525273
 40
0.0024752003
 50
269.9983726451
 51
327.602165307
 73
1
 72
1
 10
12.4623492155
 20
2.515977327
 11
12.4394882028
 21
2.515977327
 72
2
 10
12.439488201
 20
2.5135023274
 40
0.0024749995
 50
89.9999571958
 51
180.0000428043
 73
1
 72
1
 10
12.4370132015
 20
2.5135023256
 11
12.4370132015
 21
2.4937023146
 72
2
 10
12.439488201
 20
2.4937023128
 40
0.0024749995
 50
179.9999571957
 51
270.0000428042
 73
1
 72
1
 10
12.4394882028
 20
2.4912273132
 11
12.5168642458
 21
2.4912273132
 97
267
330
297
330
298
330
299
330
29A
330
29B
330
29C
330
29D
330
29E
330
29F
330
2A0
330
2A1
330
2A2
330
2A3
330
2A4
330
2A5
330
2A6
330
2A7
330
2A8
330
2A9
330
2AA
330
2AB
330
2AC
330
2AD
330
2AE
330
2AF
330
2B0
330
2B1
330
2B2
330
2B3
330
2B4
330
2B5
330
2B6
330
2B7
330
2B8
330
2B9
330
2BA
330
2BB
330
2BC
330
2BD
330
2BE
330
2BF
330
2C0
330
2C1
330
2C2
330
2C3
330
2C4
330
2C5
330
2C6
330
2C7
330
2C8
330
2C9
330
2CA
330
2CB
330
2CC
330
2CD
330
2CE
330
2CF
330
2D0
330
2D1
330
2D2
330
2D3
330
2D4
330
2D5
330
2D6
330
2D7
330
2D8
330
2D9
330
2DA
330
2DB
330
2DC
330
2DD
330
2DE
330
2DF
330
2E0
330
2E1
330
2E2
330
2E3
330
2E4
330
2E5
330
2E6
330
2E7
330
2E8
330
2E9
330
2EA
330
2EB
330
2EC
330
2ED
330
2EE
330
2EF
330
2F0
330
2F1
330
2F2
330
2F3
330
2F4
330
2F5
330
2F6
330
2F7
330
2F8
330
2F9
330
2FA
330
2FB
330
2FC
330
2FD
330
2FE
330
2FF
330
300
330
301
330
302
330
303
330
304
330
305
330
306
330
307
330
308
330
309
330
30A
330
30B
330
30C
330
30D
330
30E
330
30F
330
310
330
311
330
312
330
313
330
314
330
315
330
316
330
317
330
318
330
319
330
31A
330
31B
330
31C
330
31D
330
31E
330
31F
330
320
330
321
330
322
330
323
330
324
330
325
330
326
330
327
330
328
330
329
330
32A
330
32B
330
32C
330
32D
330
32E
330
32F
330
330
330
331
330
332
330
333
330
334
330
335
330
336
330
337
330
338
330
339
330
33A
330
33B
330
33C
330
33D
330
33E
330
33F
330
340
330
341
330
342
330
343
330
344
330
345
330
346
330
347
330
348
330
349
330
34A
330
34B
330
34C
330
34D
330
34E
330
34F
330
350
330
351
330
352
330
353
330
354
330
355
330
356
330
357
330
358
330
359
330
35A
330
35B
330
35C
330
35D
330
35E
330
35F
330
360
330
361
330
362
330
363
330
364
330
365
330
366
330
367
330
368
330
369
330
36A
330
36B
330
36C
330
36D
330
36E
330
36F
330
370
330
371
330
372
330
373
330
374
330
375
330
376
330
377
330
378
330
379
330
37A
330
37B
330
37C
330
37D
330
37E
330
37F
330
380
330
381
330
382
330
383
330
384
330
385
330
386
330
387
330
388
330
389
330
38A
330
38B
330
38C
330
38D
330
38E
330
38F
330
390
330
391
330
392
330
393
330
394
330
395
330
396
330
397
330
398
330
399
330
39A
330
39B
330
39C
330
39D
330
39E
330
39F
330
3A0
330
3A1
 92
1
 93
6
 72
2
 10
12.2949101208
 20
2.5184523265
 40
0.0024749995
 50
179.9999571957
 51
270.0000428043
 73
1
 72
1
 10
12.2924351213
 20
2.5184523283
 11
12.2924351213
 21
2.5308273352
 72
2
 10
12.2949101208
 20
2.530827337
 40
0.0024749995
 50
89.9999571957
 51
180.0000428043
 73
1
 72
1
 10
12.2949101227
 20
2.5333023366
 11
12.3362731456
 21
2.5333023366
 72
2
 10
12.3362731456
 20
2.5246398318
 40
0.0086625048
 50
270.0
 51
90.0
 73
1
 72
1
 10
12.3362731456
 20
2.515977327
 11
12.2949101227
 21
2.515977327
 97
267
330
297
330
298
330
299
330
29A
330
29B
330
29C
330
29D
330
29E
330
29F
330
2A0
330
2A1
330
2A2
330
2A3
330
2A4
330
2A5
330
2A6
330
2A7
330
2A8
330
2A9
330
2AA
330
2AB
330
2AC
330
2AD
330
2AE
330
2AF
330
2B0
330
2B1
330
2B2
330
2B3
330
2B4
330
2B5
330
2B6
330
2B7
330
2B8
330
2B9
330
2BA
330
2BB
330
2BC
330
2BD
330
2BE
330
2BF
330
2C0
330
2C1
330
2C2
330
2C3
330
2C4
330
2C5
330
2C6
330
2C7
330
2C8
330
2C9
330
2CA
330
2CB
330
2CC
330
2CD
330
2CE
330
2CF
330
2D0
330
2D1
330
2D2
330
2D3
330
2D4
330
2D5
330
2D6
330
2D7
330
2D8
330
2D9
330
2DA
330
2DB
330
2DC
330
2DD
330
2DE
330
2DF
330
2E0
330
2E1
330
2E2
330
2E3
330
2E4
330
2E5
330
2E6
330
2E7
330
2E8
330
2E9
330
2EA
330
2EB
330
2EC
330
2ED
330
2EE
330
2EF
330
2F0
330
2F1
330
2F2
330
2F3
330
2F4
330
2F5
330
2F6
330
2F7
330
2F8
330
2F9
330
2FA
330
2FB
330
2FC
330
2FD
330
2FE
330
2FF
330
300
330
301
330
302
330
303
330
304
330
305
330
306
330
307
330
308
330
309
330
30A
330
30B
330
30C
330
30D
330
30E
330
30F
330
310
330
311
330
312
330
313
330
314
330
315
330
316
330
317
330
318
330
319
330
31A
330
31B
330
31C
330
31D
330
31E
330
31F
330
320
330
321
330
322
330
323
330
324
330
325
330
326
330
327
330
328
330
329
330
32A
330
32B
330
32C
330
32D
330
32E
330
32F
330
330
330
331
330
332
330
333
330
334
330
335
330
336
330
337
330
338
330
339
330
33A
330
33B
330
33C
330
33D
330
33E
330
33F
330
340
330
341
330
342
330
343
330
344
330
345
330
346
330
347
330
348
330
349
330
34A
330
34B
330
34C
330
34D
330
34E
330
34F
330
350
330
351
330
352
330
353
330
354
330
355
330
356
330
357
330
358
330
359
330
35A
330
35B
330
35C
330
35D
330
35E
330
35F
330
360
330
361
330
362
330
363
330
364
330
365
330
366
330
367
330
368
330
369
330
36A
330
36B
330
36C
330
36D
330
36E
330
36F
330
370
330
371
330
372
330
373
330
374
330
375
330
376
330
377
330
378
330
379
330
37A
330
37B
330
37C
330
37D
330
37E
330
37F
330
380
330
381
330
382
330
383
330
384
330
385
330
386
330
387
330
388
330
389
330
38A
330
38B
330
38C
330
38D
330
38E
330
38F
330
390
330
391
330
392
330
393
330
394
330
395
330
396
330
397
330
398
330
399
330
39A
330
39B
330
39C
330
39D
330
39E
330
39F
330
3A0
330
3A1
 92
1
 93
13
 72
2
 10
13.4883447827
 20
2.5520823451
 40
0.0024749995
 50
179.9999571957
 51
270.0000428042
 73
1
 72
1
 10
13.4858697831
 20
2.552082347
 11
13.4858697831
 21
2.564807354
 72
2
 10
13.4883447827
 20
2.5648073559
 40
0.0024749995
 50
89.9999571958
 51
180.0000428043
 73
1
 72
1
 10
13.4883447845
 20
2.5672823554
 11
13.5251458049
 21
2.5672823554
 72
2
 10
13.5236009174
 20
2.5388278764
 40
0.0284963867
 50
70.3834917948
 51
86.8922743861
 73
1
 72
2
 10
13.5284605274
 20
2.5518696094
 40
0.0145814632
 50
54.6746025112
 51
71.1660573124
 73
1
 72
2
 10
13.5335900184
 20
2.5587235346
 40
0.0060275915
 50
20.9055592135
 51
56.7851676243
 73
1
 72
2
 10
13.5348905773
 20
2.5593838168
 40
0.0045795888
 50
355.6235353944
 51
18.9942678268
 73
1
 72
2
 10
13.533683767
 20
2.559677593
 40
0.0058087709
 50
318.8515287446
 51
353.6422345323
 73
1
 72
2
 10
13.5295131508
 20
2.5629115009
 40
0.0110815393
 50
306.758405961
 51
320.4502234234
 73
1
 72
2
 10
13.5238839599
 20
2.5706523294
 40
0.0206523367
 50
289.6883413472
 51
306.4184925496
 73
1
 72
2
 10
13.5219564542
 20
2.5750459767
 40
0.0254407115
 50
270.7327484175
 51
290.441894219
 73
1
 72
1
 10
13.5222818033
 20
2.5496073456
 11
13.4883447845
 21
2.5496073456
 97
267
330
297
330
298
330
299
330
29A
330
29B
330
29C
330
29D
330
29E
330
29F
330
2A0
330
2A1
330
2A2
330
2A3
330
2A4
330
2A5
330
2A6
330
2A7
330
2A8
330
2A9
330
2AA
330
2AB
330
2AC
330
2AD
330
2AE
330
2AF
330
2B0
330
2B1
330
2B2
330
2B3
330
2B4
330
2B5
330
2B6
330
2B7
330
2B8
330
2B9
330
2BA
330
2BB
330
2BC
330
2BD
330
2BE
330
2BF
330
2C0
330
2C1
330
2C2
330
2C3
330
2C4
330
2C5
330
2C6
330
2C7
330
2C8
330
2C9
330
2CA
330
2CB
330
2CC
330
2CD
330
2CE
330
2CF
330
2D0
330
2D1
330
2D2
330
2D3
330
2D4
330
2D5
330
2D6
330
2D7
330
2D8
330
2D9
330
2DA
330
2DB
330
2DC
330
2DD
330
2DE
330
2DF
330
2E0
330
2E1
330
2E2
330
2E3
330
2E4
330
2E5
330
2E6
330
2E7
330
2E8
330
2E9
330
2EA
330
2EB
330
2EC
330
2ED
330
2EE
330
2EF
330
2F0
330
2F1
330
2F2
330
2F3
330
2F4
330
2F5
330
2F6
330
2F7
330
2F8
330
2F9
330
2FA
330
2FB
330
2FC
330
2FD
330
2FE
330
2FF
330
300
330
301
330
302
330
303
330
304
330
305
330
306
330
307
330
308
330
309
330
30A
330
30B
330
30C
330
30D
330
30E
330
30F
330
310
330
311
330
312
330
313
330
314
330
315
330
316
330
317
330
318
330
319
330
31A
330
31B
330
31C
330
31D
330
31E
330
31F
330
320
330
321
330
322
330
323
330
324
330
325
330
326
330
327
330
328
330
329
330
32A
330
32B
330
32C
330
32D
330
32E
330
32F
330
330
330
331
330
332
330
333
330
334
330
335
330
336
330
337
330
338
330
339
330
33A
330
33B
330
33C
330
33D
330
33E
330
33F
330
340
330
341
330
342
330
343
330
344
330
345
330
346
330
347
330
348
330
349
330
34A
330
34B
330
34C
330
34D
330
34E
330
34F
330
350
330
351
330
352
330
353
330
354
330
355
330
356
330
357
330
358
330
359
330
35A
330
35B
330
35C
330
35D
330
35E
330
35F
330
360
330
361
330
362
330
363
330
364
330
365
330
366
330
367
330
368
330
369
330
36A
330
36B
330
36C
330
36D
330
36E
330
36F
330
370
330
371
330
372
330
373
330
374
330
375
330
376
330
377
330
378
330
379
330
37A
330
37B
330
37C
330
37D
330
37E
330
37F
330
380
330
381
330
382
330
383
330
384
330
385
330
386
330
387
330
388
330
389
330
38A
330
38B
330
38C
330
38D
330
38E
330
38F
330
390
330
391
330
392
330
393
330
394
330
395
330
396
330
397
330
398
330
399
330
39A
330
39B
330
39C
330
39D
330
39E
330
39F
330
3A0
330
3A1
 92
1
 93
6
 72
2
 10
12.3362731456
 20
2.5586198506
 40
0.0086625048
 50
270.0
 51
90.0
 73
1
 72
1
 10
12.3362731456
 20
2.5672823554
 11
12.2949101227
 21
2.5672823554
 72
2
 10
12.2949101208
 20
2.5648073559
 40
0.0024749995
 50
89.9999571957
 51
180.0000428043
 73
1
 72
1
 10
12.2924351213
 20
2.564807354
 11
12.2924351213
 21
2.5524323472
 72
2
 10
12.2949101208
 20
2.5524323453
 40
0.0024749995
 50
179.9999571957
 51
270.0000428043
 73
1
 72
1
 10
12.2949101227
 20
2.5499573458
 11
12.3362731456
 21
2.5499573458
 97
267
330
297
330
298
330
299
330
29A
330
29B
330
29C
330
29D
330
29E
330
29F
330
2A0
330
2A1
330
2A2
330
2A3
330
2A4
330
2A5
330
2A6
330
2A7
330
2A8
330
2A9
330
2AA
330
2AB
330
2AC
330
2AD
330
2AE
330
2AF
330
2B0
330
2B1
330
2B2
330
2B3
330
2B4
330
2B5
330
2B6
330
2B7
330
2B8
330
2B9
330
2BA
330
2BB
330
2BC
330
2BD
330
2BE
330
2BF
330
2C0
330
2C1
330
2C2
330
2C3
330
2C4
330
2C5
330
2C6
330
2C7
330
2C8
330
2C9
330
2CA
330
2CB
330
2CC
330
2CD
330
2CE
330
2CF
330
2D0
330
2D1
330
2D2
330
2D3
330
2D4
330
2D5
330
2D6
330
2D7
330
2D8
330
2D9
330
2DA
330
2DB
330
2DC
330
2DD
330
2DE
330
2DF
330
2E0
330
2E1
330
2E2
330
2E3
330
2E4
330
2E5
330
2E6
330
2E7
330
2E8
330
2E9
330
2EA
330
2EB
330
2EC
330
2ED
330
2EE
330
2EF
330
2F0
330
2F1
330
2F2
330
2F3
330
2F4
330
2F5
330
2F6
330
2F7
330
2F8
330
2F9
330
2FA
330
2FB
330
2FC
330
2FD
330
2FE
330
2FF
330
300
330
301
330
302
330
303
330
304
330
305
330
306
330
307
330
308
330
309
330
30A
330
30B
330
30C
330
30D
330
30E
330
30F
330
310
330
311
330
312
330
313
330
314
330
315
330
316
330
317
330
318
330
319
330
31A
330
31B
330
31C
330
31D
330
31E
330
31F
330
320
330
321
330
322
330
323
330
324
330
325
330
326
330
327
330
328
330
329
330
32A
330
32B
330
32C
330
32D
330
32E
330
32F
330
330
330
331
330
332
330
333
330
334
330
335
330
336
330
337
330
338
330
339
330
33A
330
33B
330
33C
330
33D
330
33E
330
33F
330
340
330
341
330
342
330
343
330
344
330
345
330
346
330
347
330
348
330
349
330
34A
330
34B
330
34C
330
34D
330
34E
330
34F
330
350
330
351
330
352
330
353
330
354
330
355
330
356
330
357
330
358
330
359
330
35A
330
35B
330
35C
330
35D
330
35E
330
35F
330
360
330
361
330
362
330
363
330
364
330
365
330
366
330
367
330
368
330
369
330
36A
330
36B
330
36C
330
36D
330
36E
330
36F
330
370
330
371
330
372
330
373
330
374
330
375
330
376
330
377
330
378
330
379
330
37A
330
37B
330
37C
330
37D
330
37E
330
37F
330
380
330
381
330
382
330
383
330
384
330
385
330
386
330
387
330
388
330
389
330
38A
330
38B
330
38C
330
38D
330
38E
330
38F
330
390
330
391
330
392
330
393
330
394
330
395
330
396
330
397
330
398
330
399
330
39A
330
39B
330
39C
330
39D
330
39E
330
39F
330
3A0
330
3A1
 92
1
 93
8
 72
2
 10
12.5401702375
 20
2.5530465533
 40
0.0024752071
 50
270.0004896793
 51
32.9089806818
 73
1
 72
1
 10
12.5422482598
 20
2.5543913483
 11
12.5349892558
 21
2.5656073545
 72
2
 10
12.532910715
 20
2.564262895
 40
0.0024754602
 50
32.8959418573
 51
89.9875097202
 73
1
 72
1
 10
12.5329112547
 20
2.5667383551
 11
12.5267302512
 21
2.5667383551
 72
2
 10
12.5267301809
 20
2.5642631548
 40
0.0024752003
 50
89.998372645
 51
147.602165307
 73
1
 72
1
 10
12.5246402501
 20
2.5655893545
 11
12.5175232461
 21
2.5543723483
 72
2
 10
12.519613138
 20
2.5530463862
 40
0.0024750401
 50
147.6063258012
 51
270.0025305754
 73
1
 72
1
 10
12.5196132473
 20
2.5505713461
 11
12.5401702587
 21
2.5505713461
 97
267
330
297
330
298
330
299
330
29A
330
29B
330
29C
330
29D
330
29E
330
29F
330
2A0
330
2A1
330
2A2
330
2A3
330
2A4
330
2A5
330
2A6
330
2A7
330
2A8
330
2A9
330
2AA
330
2AB
330
2AC
330
2AD
330
2AE
330
2AF
330
2B0
330
2B1
330
2B2
330
2B3
330
2B4
330
2B5
330
2B6
330
2B7
330
2B8
330
2B9
330
2BA
330
2BB
330
2BC
330
2BD
330
2BE
330
2BF
330
2C0
330
2C1
330
2C2
330
2C3
330
2C4
330
2C5
330
2C6
330
2C7
330
2C8
330
2C9
330
2CA
330
2CB
330
2CC
330
2CD
330
2CE
330
2CF
330
2D0
330
2D1
330
2D2
330
2D3
330
2D4
330
2D5
330
2D6
330
2D7
330
2D8
330
2D9
330
2DA
330
2DB
330
2DC
330
2DD
330
2DE
330
2DF
330
2E0
330
2E1
330
2E2
330
2E3
330
2E4
330
2E5
330
2E6
330
2E7
330
2E8
330
2E9
330
2EA
330
2EB
330
2EC
330
2ED
330
2EE
330
2EF
330
2F0
330
2F1
330
2F2
330
2F3
330
2F4
330
2F5
330
2F6
330
2F7
330
2F8
330
2F9
330
2FA
330
2FB
330
2FC
330
2FD
330
2FE
330
2FF
330
300
330
301
330
302
330
303
330
304
330
305
330
306
330
307
330
308
330
309
330
30A
330
30B
330
30C
330
30D
330
30E
330
30F
330
310
330
311
330
312
330
313
330
314
330
315
330
316
330
317
330
318
330
319
330
31A
330
31B
330
31C
330
31D
330
31E
330
31F
330
320
330
321
330
322
330
323
330
324
330
325
330
326
330
327
330
328
330
329
330
32A
330
32B
330
32C
330
32D
330
32E
330
32F
330
330
330
331
330
332
330
333
330
334
330
335
330
336
330
337
330
338
330
339
330
33A
330
33B
330
33C
330
33D
330
33E
330
33F
330
340
330
341
330
342
330
343
330
344
330
345
330
346
330
347
330
348
330
349
330
34A
330
34B
330
34C
330
34D
330
34E
330
34F
330
350
330
351
330
352
330
353
330
354
330
355
330
356
330
357
330
358
330
359
330
35A
330
35B
330
35C
330
35D
330
35E
330
35F
330
360
330
361
330
362
330
363
330
364
330
365
330
366
330
367
330
368
330
369
330
36A
330
36B
330
36C
330
36D
330
36E
330
36F
330
370
330
371
330
372
330
373
330
374
330
375
330
376
330
377
330
378
330
379
330
37A
330
37B
330
37C
330
37D
330
37E
330
37F
330
380
330
381
330
382
330
383
330
384
330
385
330
386
330
387
330
388
330
389
330
38A
330
38B
330
38C
330
38D
330
38E
330
38F
330
390
330
391
330
392
330
393
330
394
330
395
330
396
330
397
330
398
330
399
330
39A
330
39B
330
39C
330
39D
330
39E
330
39F
330
3A0
330
3A1
 92
1
 93
1
 72
3
 10
12.9046654608
 20
2.5403783405
 11
-0.8250004575
 21
0.0
 40
0.218572
 50
0.0
 51
-0.0
 73
1
 97
267
330
297
330
298
330
299
330
29A
330
29B
330
29C
330
29D
330
29E
330
29F
330
2A0
330
2A1
330
2A2
330
2A3
330
2A4
330
2A5
330
2A6
330
2A7
330
2A8
330
2A9
330
2AA
330
2AB
330
2AC
330
2AD
330
2AE
330
2AF
330
2B0
330
2B1
330
2B2
330
2B3
330
2B4
330
2B5
330
2B6
330
2B7
330
2B8
330
2B9
330
2BA
330
2BB
330
2BC
330
2BD
330
2BE
330
2BF
330
2C0
330
2C1
330
2C2
330
2C3
330
2C4
330
2C5
330
2C6
330
2C7
330
2C8
330
2C9
330
2CA
330
2CB
330
2CC
330
2CD
330
2CE
330
2CF
330
2D0
330
2D1
330
2D2
330
2D3
330
2D4
330
2D5
330
2D6
330
2D7
330
2D8
330
2D9
330
2DA
330
2DB
330
2DC
330
2DD
330
2DE
330
2DF
330
2E0
330
2E1
330
2E2
330
2E3
330
2E4
330
2E5
330
2E6
330
2E7
330
2E8
330
2E9
330
2EA
330
2EB
330
2EC
330
2ED
330
2EE
330
2EF
330
2F0
330
2F1
330
2F2
330
2F3
330
2F4
330
2F5
330
2F6
330
2F7
330
2F8
330
2F9
330
2FA
330
2FB
330
2FC
330
2FD
330
2FE
330
2FF
330
300
330
301
330
302
330
303
330
304
330
305
330
306
330
307
330
308
330
309
330
30A
330
30B
330
30C
330
30D
330
30E
330
30F
330
310
330
311
330
312
330
313
330
314
330
315
330
316
330
317
330
318
330
319
330
31A
330
31B
330
31C
330
31D
330
31E
330
31F
330
320
330
321
330
322
330
323
330
324
330
325
330
326
330
327
330
328
330
329
330
32A
330
32B
330
32C
330
32D
330
32E
330
32F
330
330
330
331
330
332
330
333
330
334
330
335
330
336
330
337
330
338
330
339
330
33A
330
33B
330
33C
330
33D
330
33E
330
33F
330
340
330
341
330
342
330
343
330
344
330
345
330
346
330
347
330
348
330
349
330
34A
330
34B
330
34C
330
34D
330
34E
330
34F
330
350
330
351
330
352
330
353
330
354
330
355
330
356
330
357
330
358
330
359
330
35A
330
35B
330
35C
330
35D
330
35E
330
35F
330
360
330
361
330
362
330
363
330
364
330
365
330
366
330
367
330
368
330
369
330
36A
330
36B
330
36C
330
36D
330
36E
330
36F
330
370
330
371
330
372
330
373
330
374
330
375
330
376
330
377
330
378
330
379
330
37A
330
37B
330
37C
330
37D
330
37E
330
37F
330
380
330
381
330
382
330
383
330
384
330
385
330
386
330
387
330
388
330
389
330
38A
330
38B
330
38C
330
38D
330
38E
330
38F
330
390
330
391
330
392
330
393
330
394
330
395
330
396
330
397
330
398
330
399
330
39A
330
39B
330
39C
330
39D
330
39E
330
39F
330
3A0
330
3A1
 75
0
 76
1
 98
1
 10
0.0
 20
0.0
  0
LINE
  5
3A3
100
AcDbEntity
  8
0
100
AcDbLine
 62
7
  6
CONTINUOUS
 10
8.5
 20
10.112
 11
8.586603
 21
10.262
  0
LINE
  5
3A4
100
AcDbEntity
  8
0
100
AcDbLine
 62
7
  6
CONTINUOUS
 10
16.38
 20
2.807
 11
10.03
 21
2.807
  0
LINE
  5
3A5
100
AcDbEntity
  8
0
100
AcDbLine
 62
7
  6
CONTINUOUS
 10
0.62
 20
3.1995
 11
0.37
 21
3.1995
  0
LINE
  5
3A6
100
AcDbEntity
  8
0
100
AcDbLine
 62
7
  6
CONTINUOUS
 10
16.38
 20
3.1995
 11
16.63
 21
3.1995
  0
LINE
  5
3A7
100
AcDbEntity
  8
0
100
AcDbLine
 62
7
  6
CONTINUOUS
 10
8.586603
 20
0.737
 11
8.5
 21
0.887
  0
LINE
  5
3A8
100
AcDbEntity
  8
0
100
AcDbLine
 62
7
  6
CONTINUOUS
 10
6.53
 20
0.887
 11
6.53
 21
0.637
  0
LINE
  5
3A9
100
AcDbEntity
  8
0
100
AcDbLine
 62
7
  6
CONTINUOUS
 10
6.53
 20
10.112
 11
6.53
 21
10.362
  0
LINE
  5
3AA
100
AcDbEntity
  8
0
100
AcDbLine
 62
7
  6
CONTINUOUS
 10
8.5
 20
0.887
 11
8.5
 21
0.637
  0
LINE
  5
3AB
100
AcDbEntity
  8
0
100
AcDbLine
 62
7
  6
CONTINUOUS
 10
8.5
 20
10.112
 11
8.5
 21
10.362
  0
LINE
  5
3AC
100
AcDbEntity
  8
0
100
AcDbLine
 62
7
  6
CONTINUOUS
 10
0.62
 20
5.4995
 11
0.37
 21
5.4995
  0
LINE
  5
3AD
100
AcDbEntity
  8
0
100
AcDbLine
 62
7
  6
CONTINUOUS
 10
16.38
 20
5.4995
 11
16.63
 21
5.4995
  0
LINE
  5
3AE
100
AcDbEntity
  8
0
100
AcDbLine
 62
7
  6
CONTINUOUS
 10
10.03
 20
2.807
 11
10.03
 21
0.887
  0
LINE
  5
3AF
100
AcDbEntity
  8
0
100
AcDbLine
 62
7
  6
CONTINUOUS
 10
10.47
 20
0.887
 11
10.47
 21
0.637
  0
LINE
  5
3B0
100
AcDbEntity
  8
0
100
AcDbLine
 62
7
  6
CONTINUOUS
 10
10.47
 20
10.112
 11
10.47
 21
10.362
  0
LINE
  5
3B1
100
AcDbEntity
  8
0
100
AcDbLine
 62
7
  6
CONTINUOUS
 10
10.5342808475
 20
1.143294839
 11
10.5342808475
 21
0.921203839
  0
LINE
  5
3B2
100
AcDbEntity
  8
0
100
AcDbLine
 62
7
  6
CONTINUOUS
 10
10.5342808475
 20
1.193294839
 11
10.5342808475
 21
1.293294839
  0
LINE
  5
3B3
100
AcDbEntity
  8
0
100
AcDbLine
 62
7
  6
CONTINUOUS
 10
10.5342808475
 20
1.343294839
 11
10.5342808475
 21
1.565385839
  0
LINE
  5
3B4
100
AcDbEntity
  8
0
100
AcDbLine
 62
7
  6
CONTINUOUS
 10
8.5
 20
0.887
 11
8.413397
 21
0.737
  0
LINE
  5
3B5
100
AcDbEntity
  8
0
100
AcDbLine
 62
7
  6
CONTINUOUS
 10
0.62
 20
7.7995
 11
0.37
 21
7.7995
  0
LINE
  5
3B6
100
AcDbEntity
  8
0
100
AcDbLine
 62
7
  6
CONTINUOUS
 10
16.38
 20
7.7995
 11
16.63
 21
7.7995
  0
LINE
  5
3B7
100
AcDbEntity
  8
0
100
AcDbLine
 62
7
  6
CONTINUOUS
 10
8.413397
 20
10.262
 11
8.5
 21
10.112
  0
LINE
  5
3B8
100
AcDbEntity
  8
0
100
AcDbLine
 62
7
  6
CONTINUOUS
 10
11.1389508475
 20
1.060596839
 11
11.1389508475
 21
1.425992839
  0
LINE
  5
3B9
100
AcDbEntity
  8
0
100
AcDbLine
 62
7
  6
CONTINUOUS
 10
11.7453418475
 20
1.495385839
 11
11.7453418475
 21
0.991203839
  0
LINE
  5
3BA
100
AcDbEntity
  8
0
100
AcDbLine
 62
7
  6
CONTINUOUS
 10
12.44
 20
0.887
 11
12.44
 21
0.637
  0
LINE
  5
3BB
100
AcDbEntity
  8
0
100
AcDbLine
 62
7
  6
CONTINUOUS
 10
12.44
 20
10.112
 11
12.44
 21
10.362
  0
LINE
  5
3BC
100
AcDbEntity
  8
0
100
AcDbLine
 62
7
  6
CONTINUOUS
 10
16.53
 20
5.586103
 11
16.38
 21
5.4995
  0
LINE
  5
3BD
100
AcDbEntity
  8
0
100
AcDbLine
 62
7
  6
CONTINUOUS
 10
16.38
 20
5.4995
 11
16.53
 21
5.412897
  0
LINE
  5
3BE
100
AcDbEntity
  8
0
100
AcDbLine
 62
7
  6
CONTINUOUS
 10
12.83
 20
1.507
 11
12.83
 21
1.137
  0
LINE
  5
3BF
100
AcDbEntity
  8
0
100
AcDbLine
 62
7
  6
CONTINUOUS
 10
16.38
 20
10.112
 11
0.62
 21
10.112
  0
LINE
  5
3C0
100
AcDbEntity
  8
0
100
AcDbLine
 62
7
  6
CONTINUOUS
 10
8.586603
 20
10.262
 11
8.413397
 21
10.262
  0
LINE
  5
3C1
100
AcDbEntity
  8
0
100
AcDbLine
 62
7
  6
CONTINUOUS
 10
14.205
 20
1.137
 11
14.205
 21
0.887
  0
LINE
  5
3C2
100
AcDbEntity
  8
0
100
AcDbLine
 62
7
  6
CONTINUOUS
 10
14.41
 20
0.887
 11
14.41
 21
0.637
  0
LINE
  5
3C3
100
AcDbEntity
  8
0
100
AcDbLine
 62
7
  6
CONTINUOUS
 10
14.41
 20
10.112
 11
14.41
 21
10.362
  0
LINE
  5
3C4
100
AcDbEntity
  8
0
100
AcDbLine
 62
7
  6
CONTINUOUS
 10
15.58
 20
1.507
 11
15.58
 21
1.137
  0
LINE
  5
3C5
100
AcDbEntity
  8
0
100
AcDbLine
 62
7
  6
CONTINUOUS
 10
16.38
 20
0.887
 11
16.38
 21
10.112
  0
LINE
  5
3C6
100
AcDbEntity
  8
0
100
AcDbLine
 62
7
  6
CONTINUOUS
 10
16.53
 20
5.412897
 11
16.53
 21
5.586103
  0
LINE
  5
3C7
100
AcDbEntity
  8
0
100
AcDbLine
 62
7
  6
CONTINUOUS
 10
3.3529501894
 20
5.9808526531
 11
3.3529501894
 21
6.6008526531
  0
LINE
  5
3C8
100
AcDbEntity
  8
0
100
AcDbLine
 62
7
  6
CONTINUOUS
 10
3.3702440914
 20
5.8858526531
 11
3.3702440914
 21
5.9408526531
  0
LINE
  5
3C9
100
AcDbEntity
  8
0
100
AcDbLine
 62
7
  6
CONTINUOUS
 10
3.3939501894
 20
6.6408526531
 11
3.3939501894
 21
6.8238526531
  0
LWPOLYLINE
  5
3CA
100
AcDbEntity
  8
0
100
AcDbPolyline
 62
7
  6
CONTINUOUS
 90
6
 70
0
 10
3.3939501894
 20
6.7823923621
 10
3.4172810723
 20
6.7895161773
 10
3.439005858
 20
6.7948528754
 10
3.4604474743
 20
6.7987440397
 10
3.4821811654
 20
6.801161557
 10
3.5034501894
 20
6.8019526531
  0
LWPOLYLINE
  5
3CB
100
AcDbEntity
  8
0
100
AcDbPolyline
 62
7
  6
CONTINUOUS
 90
6
 70
0
 10
3.6129501894
 20
6.7823923621
 10
3.6362810723
 20
6.7895161773
 10
3.658005858
 20
6.7948528754
 10
3.6794474743
 20
6.7987440397
 10
3.7011811654
 20
6.801161557
 10
3.7224501894
 20
6.8019526531
  0
LINE
  5
3CC
100
AcDbEntity
  8
0
100
AcDbLine
 62
7
  6
CONTINUOUS
 10
3.5629501894
 20
5.8858526531
 11
3.5629501894
 21
5.9408526531
  0
LWPOLYLINE
  5
3CD
100
AcDbEntity
  8
0
100
AcDbPolyline
 62
7
  6
CONTINUOUS
 90
6
 70
0
 10
3.6129501894
 20
6.6604129442
 10
3.5896193064
 20
6.6532891289
 10
3.5678945207
 20
6.6479524309
 10
3.5464529044
 20
6.6440612665
 10
3.5247192133
 20
6.6416437492
 10
3.5034501894
 20
6.6408526531
  0
LINE
  5
3CE
100
AcDbEntity
  8
0
100
AcDbLine
 62
7
  6
CONTINUOUS
 10
3.6129501894
 20
6.6604129442
 11
3.6129501894
 21
6.7823923621
  0
LINE
  5
3CF
100
AcDbEntity
  8
0
100
AcDbLine
 62
7
  6
CONTINUOUS
 10
3.6679501894
 20
5.9408526531
 11
3.6679501894
 21
6.6408526531
  0
LINE
  5
3D0
100
AcDbEntity
  8
0
100
AcDbLine
 62
7
  6
CONTINUOUS
 10
3.6703639864
 20
5.8458526531
 11
3.6703639864
 21
5.8858526531
  0
LINE
  5
3D1
100
AcDbEntity
  8
0
100
AcDbLine
 62
7
  6
CONTINUOUS
 10
5.1217217519
 20
7.0127836528
 11
5.0835425528
 21
7.0008526531
  0
LWPOLYLINE
  5
3D2
100
AcDbEntity
  8
0
100
AcDbPolyline
 62
7
  6
CONTINUOUS
 90
6
 70
0
 10
3.8319501894
 20
6.6604129442
 10
3.8086193064
 20
6.6532891289
 10
3.7868945207
 20
6.6479524309
 10
3.7654529044
 20
6.6440612665
 10
3.7437192133
 20
6.6416437492
 10
3.7224501894
 20
6.6408526531
  0
LINE
  5
3D3
100
AcDbEntity
  8
0
100
AcDbLine
 62
7
  6
CONTINUOUS
 10
4.1041786268
 20
7.0127836528
 11
4.0098790958
 21
6.7110251538
  0
LINE
  5
3D4
100
AcDbEntity
  8
0
100
AcDbLine
 62
7
  6
CONTINUOUS
 10
3.8319501894
 20
6.6408526531
 11
3.8319501894
 21
6.8238526531
  0
LINE
  5
3D5
100
AcDbEntity
  8
0
100
AcDbLine
 62
7
  6
CONTINUOUS
 10
3.8634545256
 20
5.9408526531
 11
3.8634545256
 21
5.8858526531
  0
LINE
  5
3D6
100
AcDbEntity
  8
0
100
AcDbLine
 62
7
  6
CONTINUOUS
 10
4.1423578259
 20
7.0008526531
 11
4.0173561862
 21
6.6008474061
  0
LINE
  5
3D7
100
AcDbEntity
  8
0
100
AcDbLine
 62
7
  6
CONTINUOUS
 10
3.8258391743
 20
5.8458526531
 11
3.8354454243
 21
5.8666541752
  0
LINE
  5
3D8
100
AcDbEntity
  8
0
100
AcDbLine
 62
7
  6
CONTINUOUS
 10
3.8354454243
 20
5.8666541752
 11
3.8444166833
 21
5.8858526531
  0
LWPOLYLINE
  5
3D9
100
AcDbEntity
  8
0
100
AcDbPolyline
 62
7
  6
CONTINUOUS
 90
6
 70
0
 10
5.3939501894
 20
6.7823923621
 10
5.4172810723
 20
6.7895161773
 10
5.439005858
 20
6.7948528754
 10
5.4604474743
 20
6.7987440397
 10
5.4821811654
 20
6.801161557
 10
5.5034501894
 20
6.8019526531
  0
LWPOLYLINE
  5
3DA
100
AcDbEntity
  8
0
100
AcDbPolyline
 62
7
  6
CONTINUOUS
 90
6
 70
0
 10
5.6129501894
 20
6.7823923621
 10
5.6362810723
 20
6.7895161773
 10
5.658005858
 20
6.7948528754
 10
5.6794474743
 20
6.7987440397
 10
5.7011811654
 20
6.801161557
 10
5.7224501894
 20
6.8019526531
  0
LINE
  5
3DB
100
AcDbEntity
  8
0
100
AcDbLine
 62
7
  6
CONTINUOUS
 10
3.8444166833
 20
5.9408526531
 11
3.8354668626
 21
5.9600052128
  0
LINE
  5
3DC
100
AcDbEntity
  8
0
100
AcDbLine
 62
7
  6
CONTINUOUS
 10
3.8354668626
 20
5.9600052128
 11
3.8258391743
 21
5.9808526531
  0
LWPOLYLINE
  5
3DD
100
AcDbEntity
  8
0
100
AcDbPolyline
 62
7
  6
CONTINUOUS
 90
3
 70
0
 10
4.0098790958
 20
6.7110251538
 10
4.0099553681
 20
6.7099834018
 10
4.0173578259
 20
6.6008526531
  0
LINE
  5
3DE
100
AcDbEntity
  8
0
100
AcDbLine
 62
7
  6
CONTINUOUS
 10
4.1423578259
 20
7.0408526531
 11
4.1423578259
 21
7.0008526531
  0
LWPOLYLINE
  5
3DF
100
AcDbEntity
  8
0
100
AcDbPolyline
 62
7
  6
CONTINUOUS
 90
3
 70
0
 10
5.3114692807
 20
6.6408526531
 10
5.3104976994
 20
6.6404691242
 10
5.2085425528
 20
6.6008526531
  0
LWPOLYLINE
  5
3E0
100
AcDbEntity
  8
0
100
AcDbPolyline
 62
7
  6
CONTINUOUS
 90
6
 70
0
 10
5.6129501894
 20
6.6604129442
 10
5.5896193064
 20
6.6532891289
 10
5.5678945207
 20
6.6479524309
 10
5.5464529044
 20
6.6440612665
 10
5.5247192133
 20
6.6416437492
 10
5.5034501894
 20
6.6408526531
  0
LWPOLYLINE
  5
3E1
100
AcDbEntity
  8
0
100
AcDbPolyline
 62
7
  6
CONTINUOUS
 90
3
 70
0
 10
3.8458173762
 20
5.8570164462
 10
3.8361957441
 20
5.8516804162
 10
3.825839174
 20
5.845852653
  0
LINE
  5
3E2
100
AcDbEntity
  8
0
100
AcDbLine
 62
7
  6
CONTINUOUS
 10
3.8596514445
 20
5.8645499501
 11
3.8458173762
 21
5.8570164462
  0
LINE
  5
3E3
100
AcDbEntity
  8
0
100
AcDbLine
 62
7
  6
CONTINUOUS
 10
3.8643785609
 20
5.8670869302
 11
3.8596514445
 21
5.8645499501
  0
LWPOLYLINE
  5
3E4
100
AcDbEntity
  8
0
100
AcDbPolyline
 62
7
  6
CONTINUOUS
 90
6
 70
0
 10
5.8319501894
 20
6.6604129442
 10
5.8086193064
 20
6.6532891289
 10
5.7868945207
 20
6.6479524309
 10
5.7654529044
 20
6.6440612665
 10
5.7437192133
 20
6.6416437492
 10
5.7224501894
 20
6.6408526531
  0
LINE
  5
3E5
100
AcDbEntity
  8
0
100
AcDbLine
 62
7
  6
CONTINUOUS
 10
3.8596617508
 20
5.9621497695
 11
3.8643785421
 21
5.9596180721
  0
LWPOLYLINE
  5
3E6
100
AcDbEntity
  8
0
100
AcDbPolyline
 62
7
  6
CONTINUOUS
 90
4
 70
0
 10
3.825839174
 20
5.9808526533
 10
3.8362577092
 20
5.9749904054
 10
3.8458616709
 20
5.9696645493
 10
3.8596617508
 20
5.9621497695
  0
LINE
  5
3E7
100
AcDbEntity
  8
DEFAULT_1
100
AcDbLine
 62
7
  6
CENTER
 10
4.6129501894
 20
5.9133526531
 11
4.6129501894
 21
4.5584188746
  0
LINE
  5
3E8
100
AcDbEntity
  8
DEFAULT_1
100
AcDbLine
 62
7
  6
CENTER
 10
4.6129501894
 20
5.9133526531
 11
4.6129501894
 21
7.1800134967
  0
LINE
  5
3E9
100
AcDbEntity
  8
0
100
AcDbLine
 62
7
  6
CONTINUOUS
 10
3.6703673606
 20
5.8458526905
 11
3.5746350176
 21
5.8450562141
  0
LINE
  5
3EA
100
AcDbEntity
  8
0
100
AcDbLine
 62
7
  6
CONTINUOUS
 10
3.5746350176
 20
5.8450562141
 11
3.4703549344
 21
5.8443235754
  0
LINE
  5
3EB
100
AcDbEntity
  8
0
100
AcDbLine
 62
7
  6
CONTINUOUS
 10
3.4703549344
 20
5.8443235754
 11
3.3548802066
 21
5.8436395383
  0
LINE
  5
3EC
100
AcDbEntity
  8
0
100
AcDbLine
 62
7
  6
CONTINUOUS
 10
5.5555330308
 20
5.8458526531
 11
5.4000220368
 21
5.8458526531
  0
LINE
  5
3ED
100
AcDbEntity
  8
0
100
AcDbLine
 62
7
  6
CONTINUOUS
 10
3.8258765463
 20
5.8458526531
 11
3.6703673633
 21
5.8458526531
  0
LINE
  5
3EE
100
AcDbEntity
  8
0
100
AcDbLine
 62
7
  6
CONTINUOUS
 10
5.8710201722
 20
5.8436395383
 11
5.8376415501
 21
5.8438253912
  0
LINE
  5
3EF
100
AcDbEntity
  8
0
100
AcDbLine
 62
7
  6
CONTINUOUS
 10
5.8376415501
 20
5.8438253912
 11
5.7316596546
 21
5.8444806971
  0
LINE
  5
3F0
100
AcDbEntity
  8
0
100
AcDbLine
 62
7
  6
CONTINUOUS
 10
5.7316596546
 20
5.8444806971
 11
5.6512654058
 21
5.8450562138
  0
LINE
  5
3F1
100
AcDbEntity
  8
0
100
AcDbLine
 62
7
  6
CONTINUOUS
 10
5.6512654058
 20
5.8450562138
 11
5.5555330335
 21
5.8458526903
  0
LINE
  5
3F2
100
AcDbEntity
  8
0
100
AcDbLine
 62
7
  6
CONTINUOUS
 10
3.3702440914
 20
5.8858526531
 11
3.8634545256
 21
5.8858526531
  0
LINE
  5
3F3
100
AcDbEntity
  8
0
100
AcDbLine
 62
7
  6
CONTINUOUS
 10
5.3624458531
 20
5.8858526531
 11
5.8556562873
 21
5.8858526531
  0
LINE
  5
3F4
100
AcDbEntity
  8
DEFAULT_1
100
AcDbLine
 62
7
  6
CENTER
 10
4.6129501894
 20
5.9133526531
 11
3.297702446
 21
5.9133526531
  0
LINE
  5
3F5
100
AcDbEntity
  8
DEFAULT_1
100
AcDbLine
 62
7
  6
CENTER
 10
4.6129501894
 20
5.9133526531
 11
5.9281979328
 21
5.9133526531
  0
LINE
  5
3F6
100
AcDbEntity
  8
0
100
AcDbLine
 62
7
  6
CONTINUOUS
 10
3.3702440914
 20
5.9408526531
 11
3.8634545256
 21
5.9408526531
  0
LINE
  5
3F7
100
AcDbEntity
  8
0
100
AcDbLine
 62
7
  6
CONTINUOUS
 10
5.3624458531
 20
5.9408526531
 11
5.8556562873
 21
5.9408526531
  0
LINE
  5
3F8
100
AcDbEntity
  8
0
100
AcDbLine
 62
7
  6
CONTINUOUS
 10
3.3529501894
 20
5.9808526531
 11
3.8258784167
 21
5.9808526531
  0
LINE
  5
3F9
100
AcDbEntity
  8
0
100
AcDbLine
 62
7
  6
CONTINUOUS
 10
5.4000197799
 20
5.9808526531
 11
5.8729501894
 21
5.9808526531
  0
LWPOLYLINE
  5
3FA
100
AcDbEntity
  8
0
100
AcDbPolyline
 62
7
  6
CONTINUOUS
 90
3
 70
0
 10
5.3800771524
 20
5.9696856609
 10
5.3896969483
 20
5.9750206406
 10
5.4000612047
 20
5.9808526533
  0
LINE
  5
3FB
100
AcDbEntity
  8
0
100
AcDbLine
 62
7
  6
CONTINUOUS
 10
5.3662474552
 20
5.9621545395
 11
5.3800771524
 21
5.9696856609
  0
LINE
  5
3FC
100
AcDbEntity
  8
0
100
AcDbLine
 62
7
  6
CONTINUOUS
 10
5.3615218248
 20
5.9596182619
 11
5.3662474552
 21
5.9621545395
  0
LINE
  5
3FD
100
AcDbEntity
  8
0
100
AcDbLine
 62
7
  6
CONTINUOUS
 10
5.0835425528
 20
7.0008526531
 11
5.0835425528
 21
7.0408526531
  0
LINE
  5
3FE
100
AcDbEntity
  8
0
100
AcDbLine
 62
7
  6
CONTINUOUS
 10
5.3662445662
 20
5.8645523225
 11
5.3615218248
 21
5.8670870442
  0
LWPOLYLINE
  5
3FF
100
AcDbEntity
  8
0
100
AcDbPolyline
 62
7
  6
CONTINUOUS
 90
4
 70
0
 10
5.4000612047
 20
5.845852653
 10
5.3896762096
 20
5.8516962498
 10
5.3800634725
 20
5.8570271721
 10
5.3662445662
 20
5.8645523225
  0
LINE
  5
400
100
AcDbEntity
  8
0
100
AcDbLine
 62
7
  6
CONTINUOUS
 10
5.2160214811
 20
6.7110245189
 11
5.2085415614
 21
6.6008382338
  0
LINE
  5
401
100
AcDbEntity
  8
0
100
AcDbLine
 62
7
  6
CONTINUOUS
 10
3.9144317631
 20
6.6408526529
 11
4.0173712932
 21
6.6008474058
  0
LINE
  5
402
100
AcDbEntity
  8
0
100
AcDbLine
 62
7
  6
CONTINUOUS
 10
5.4000612044
 20
5.9808526531
 11
5.390452103
 21
5.9600450755
  0
LINE
  5
403
100
AcDbEntity
  8
0
100
AcDbLine
 62
7
  6
CONTINUOUS
 10
5.390452103
 20
5.9600450755
 11
5.3814836955
 21
5.9408526531
  0
LINE
  5
404
100
AcDbEntity
  8
0
100
AcDbLine
 62
7
  6
CONTINUOUS
 10
5.3624458531
 20
5.9408526531
 11
5.3624458531
 21
5.8858526531
  0
LINE
  5
405
100
AcDbEntity
  8
0
100
AcDbLine
 62
7
  6
CONTINUOUS
 10
5.3939501894
 20
6.6408526531
 11
5.3939501894
 21
6.8238526531
  0
LINE
  5
406
100
AcDbEntity
  8
0
100
AcDbLine
 62
7
  6
CONTINUOUS
 10
5.8729501894
 20
6.6008526531
 11
5.2085370555
 21
6.6008526531
  0
LINE
  5
407
100
AcDbEntity
  8
0
100
AcDbLine
 62
7
  6
CONTINUOUS
 10
4.0173561862
 20
6.6008474061
 11
3.3529501894
 21
6.6008526531
  0
LINE
  5
408
100
AcDbEntity
  8
0
100
AcDbLine
 62
7
  6
CONTINUOUS
 10
5.8329501843
 20
6.6408526531
 11
5.3114692807
 21
6.6408526531
  0
LINE
  5
409
100
AcDbEntity
  8
0
100
AcDbLine
 62
7
  6
CONTINUOUS
 10
3.914431098
 20
6.6408526531
 11
3.3929501942
 21
6.6408526531
  0
LWPOLYLINE
  5
40A
100
AcDbEntity
  8
0
100
AcDbPolyline
 62
7
  6
CONTINUOUS
 90
6
 70
0
 10
3.5034501894
 20
6.6408526531
 10
3.4821447909
 20
6.6416464523
 10
3.4603922355
 20
6.6440694233
 10
3.4389541076
 20
6.6479635257
 10
3.4172449543
 20
6.6532990843
 10
3.3939501894
 20
6.6604129442
  0
LWPOLYLINE
  5
40B
100
AcDbEntity
  8
0
100
AcDbPolyline
 62
7
  6
CONTINUOUS
 90
6
 70
0
 10
3.7224501894
 20
6.6408526531
 10
3.7011447909
 20
6.6416464523
 10
3.6793922355
 20
6.6440694233
 10
3.6579541076
 20
6.6479635257
 10
3.6362449543
 20
6.6532990843
 10
3.6129501894
 20
6.6604129442
  0
LWPOLYLINE
  5
40C
100
AcDbEntity
  8
0
100
AcDbPolyline
 62
7
  6
CONTINUOUS
 90
6
 70
0
 10
5.5034501894
 20
6.6408526531
 10
5.4821447909
 20
6.6416464523
 10
5.4603922355
 20
6.6440694233
 10
5.4389541076
 20
6.6479635257
 10
5.4172449543
 20
6.6532990843
 10
5.3939501894
 20
6.6604129442
  0
LINE
  5
40D
100
AcDbEntity
  8
0
100
AcDbLine
 62
7
  6
CONTINUOUS
 10
5.3814836955
 20
5.8858526531
 11
5.3904455096
 21
5.8666744257
  0
LINE
  5
40E
100
AcDbEntity
  8
0
100
AcDbLine
 62
7
  6
CONTINUOUS
 10
5.3904455096
 20
5.8666744257
 11
5.4000612044
 21
5.8458526531
  0
LINE
  5
40F
100
AcDbEntity
  8
0
100
AcDbLine
 62
7
  6
CONTINUOUS
 10
5.2085370555
 20
6.6008526531
 11
5.0835425528
 21
7.0008526531
  0
LWPOLYLINE
  5
410
100
AcDbEntity
  8
0
100
AcDbPolyline
 62
7
  6
CONTINUOUS
 90
6
 70
0
 10
5.7224501894
 20
6.6408526531
 10
5.7011447909
 20
6.6416464523
 10
5.6793922355
 20
6.6440694233
 10
5.6579541076
 20
6.6479635257
 10
5.6362449543
 20
6.6532990843
 10
5.6129501894
 20
6.6604129442
  0
LWPOLYLINE
  5
411
100
AcDbEntity
  8
0
100
AcDbPolyline
 62
7
  6
CONTINUOUS
 90
6
 70
0
 10
3.5034501894
 20
6.8019526531
 10
3.5247555878
 20
6.8011588539
 10
3.5465081432
 20
6.7987358829
 10
3.5679462711
 20
6.7948417806
 10
3.5896554244
 20
6.7895062219
 10
3.6129501894
 20
6.7823923621
  0
LWPOLYLINE
  5
412
100
AcDbEntity
  8
0
100
AcDbPolyline
 62
7
  6
CONTINUOUS
 90
6
 70
0
 10
3.7224501894
 20
6.8019526531
 10
3.7437555878
 20
6.8011588539
 10
3.7655081432
 20
6.7987358829
 10
3.7869462711
 20
6.7948417806
 10
3.8086554244
 20
6.7895062219
 10
3.8319501894
 20
6.7823923621
  0
LINE
  5
413
100
AcDbEntity
  8
0
100
AcDbLine
 62
7
  6
CONTINUOUS
 10
5.2160212829
 20
6.7110251538
 11
5.1217217519
 21
7.0127836528
  0
LINE
  5
414
100
AcDbEntity
  8
0
100
AcDbLine
 62
7
  6
CONTINUOUS
 10
5.5555363923
 20
5.8458526531
 11
5.5555363923
 21
5.8858526531
  0
LINE
  5
415
100
AcDbEntity
  8
0
100
AcDbLine
 62
7
  6
CONTINUOUS
 10
5.5579501894
 20
5.9408526531
 11
5.5579501894
 21
6.6408526531
  0
LINE
  5
416
100
AcDbEntity
  8
0
100
AcDbLine
 62
7
  6
CONTINUOUS
 10
5.6129501894
 20
6.6604129442
 11
5.6129501894
 21
6.7823923621
  0
LINE
  5
417
100
AcDbEntity
  8
0
100
AcDbLine
 62
7
  6
CONTINUOUS
 10
5.6629501894
 20
5.8858526531
 11
5.6629501894
 21
5.9408526531
  0
LINE
  5
418
100
AcDbEntity
  8
0
100
AcDbLine
 62
7
  6
CONTINUOUS
 10
5.8319501894
 20
6.8019526531
 11
5.3939501894
 21
6.8019526531
  0
LINE
  5
419
100
AcDbEntity
  8
0
100
AcDbLine
 62
7
  6
CONTINUOUS
 10
3.8319501894
 20
6.8019526531
 11
3.3939501894
 21
6.8019526531
  0
LINE
  5
41A
100
AcDbEntity
  8
0
100
AcDbLine
 62
7
  6
CONTINUOUS
 10
3.3939501894
 20
6.8238526531
 11
3.8319501894
 21
6.8238526531
  0
LINE
  5
41B
100
AcDbEntity
  8
0
100
AcDbLine
 62
7
  6
CONTINUOUS
 10
5.3939501894
 20
6.8238526531
 11
5.8319501894
 21
6.8238526531
  0
LWPOLYLINE
  5
41C
100
AcDbEntity
  8
0
100
AcDbPolyline
 62
7
  6
CONTINUOUS
 90
6
 70
0
 10
5.5034501894
 20
6.8019526531
 10
5.5247555878
 20
6.8011588539
 10
5.5465081432
 20
6.7987358829
 10
5.5679462711
 20
6.7948417806
 10
5.5896554244
 20
6.7895062219
 10
5.6129501894
 20
6.7823923621
  0
LWPOLYLINE
  5
41D
100
AcDbEntity
  8
0
100
AcDbPolyline
 62
7
  6
CONTINUOUS
 90
6
 70
0
 10
5.7224501894
 20
6.8019526531
 10
5.7437555878
 20
6.8011588539
 10
5.7655081432
 20
6.7987358829
 10
5.7869462711
 20
6.7948417806
 10
5.8086554244
 20
6.7895062219
 10
5.8319501894
 20
6.7823923621
  0
LINE
  5
41E
100
AcDbEntity
  8
0
100
AcDbLine
 62
7
  6
CONTINUOUS
 10
4.1423578259
 20
7.0008526531
 11
4.1041786268
 21
7.0127836528
  0
LINE
  5
41F
100
AcDbEntity
  8
0
100
AcDbLine
 62
7
  6
CONTINUOUS
 10
5.0835425528
 20
7.0008526531
 11
4.1423578259
 21
7.0008526531
  0
LINE
  5
420
100
AcDbEntity
  8
0
100
AcDbLine
 62
7
  6
CONTINUOUS
 10
5.8319501894
 20
6.6408526531
 11
5.8319501894
 21
6.8238526531
  0
LINE
  5
421
100
AcDbEntity
  8
0
100
AcDbLine
 62
7
  6
CONTINUOUS
 10
5.8556562873
 20
5.8858526531
 11
5.8556562873
 21
5.9408526531
  0
LINE
  5
422
100
AcDbEntity
  8
0
100
AcDbLine
 62
7
  6
CONTINUOUS
 10
5.8729501894
 20
6.6008526531
 11
5.8729501894
 21
5.9808526531
  0
LINE
  5
423
100
AcDbEntity
  8
0
100
AcDbLine
 62
7
  6
CONTINUOUS
 10
5.0835425528
 20
7.0408526531
 11
4.1423578259
 21
7.0408526531
  0
LINE
  5
424
100
AcDbEntity
  8
0
100
AcDbLine
 62
7
  6
CONTINUOUS
 10
8.9320541764
 20
6.8019526531
 11
8.8981747584
 21
6.7823923621
  0
LWPOLYLINE
  5
425
100
AcDbEntity
  8
0
100
AcDbPolyline
 62
7
  6
CONTINUOUS
 90
6
 70
0
 10
8.8981747584
 20
6.7823923621
 10
8.91164485
 20
6.7895161773
 10
8.9241876609
 20
6.7948528754
 10
8.9365669838
 20
6.7987440397
 10
8.9491149362
 20
6.801161557
 10
8.9613946129
 20
6.8019526531
  0
LWPOLYLINE
  5
426
100
AcDbEntity
  8
0
100
AcDbPolyline
 62
7
  6
CONTINUOUS
 90
6
 70
0
 10
9.0246144674
 20
6.6604129442
 10
9.0111443758
 20
6.6532891289
 10
8.998601565
 20
6.6479524309
 10
8.986222242
 20
6.6440612665
 10
8.9736742896
 20
6.6416437492
 10
8.9613946129
 20
6.6408526531
  0
LWPOLYLINE
  5
427
100
AcDbEntity
  8
0
100
AcDbPolyline
 62
7
  6
CONTINUOUS
 90
6
 70
0
 10
9.2774938853
 20
6.7823923621
 10
9.2909639769
 20
6.7895161773
 10
9.3035067877
 20
6.7948528754
 10
9.3158861107
 20
6.7987440397
 10
9.3284340631
 20
6.801161557
 10
9.3407137398
 20
6.8019526531
  0
LINE
  5
428
100
AcDbEntity
  8
0
100
AcDbLine
 62
7
  6
CONTINUOUS
 10
9.3700541764
 20
6.6408526531
 11
9.4039335943
 21
6.6604129442
  0
LWPOLYLINE
  5
429
100
AcDbEntity
  8
0
100
AcDbPolyline
 62
7
  6
CONTINUOUS
 90
6
 70
0
 10
9.4039335943
 20
6.6604129442
 10
9.3904635027
 20
6.6532891289
 10
9.3779206918
 20
6.6479524309
 10
9.3655413689
 20
6.6440612665
 10
9.3529934165
 20
6.6416437492
 10
9.3407137398
 20
6.6408526531
  0
LINE
  5
42A
100
AcDbEntity
  8
0
100
AcDbLine
 62
7
  6
CONTINUOUS
 10
8.8360541764
 20
4.9683497806
 11
8.8360541764
 21
7.0008526531
  0
LINE
  5
42B
100
AcDbEntity
  8
0
100
AcDbLine
 62
7
  6
CONTINUOUS
 10
8.8760541764
 20
7.0408526531
 11
8.8760541764
 21
6.6408526531
  0
LINE
  5
42C
100
AcDbEntity
  8
0
100
AcDbLine
 62
7
  6
CONTINUOUS
 10
8.8981747584
 20
6.6604129442
 11
8.8981747584
 21
6.7823923621
  0
LINE
  5
42D
100
AcDbEntity
  8
0
100
AcDbLine
 62
7
  6
CONTINUOUS
 10
8.9135541764
 20
5.8858526531
 11
8.9135541764
 21
5.9408526531
  0
LINE
  5
42E
100
AcDbEntity
  8
0
100
AcDbLine
 62
7
  6
CONTINUOUS
 10
8.9320541764
 20
6.8019526531
 11
8.9320541764
 21
6.8238526531
  0
LINE
  5
42F
100
AcDbEntity
  8
0
100
AcDbLine
 62
7
  6
CONTINUOUS
 10
9.0246144674
 20
6.6604129442
 11
9.0246144674
 21
6.7823923621
  0
LWPOLYLINE
  5
430
100
AcDbEntity
  8
0
100
AcDbPolyline
 62
7
  6
CONTINUOUS
 90
5
 70
0
 10
9.4660541764
 20
5.8458526585
 10
9.4642065402
 20
5.8455530804
 10
9.4591010396
 20
5.8452898722
 10
9.4512032286
 20
5.8450560521
 10
9.4407638807
 20
5.844845973
  0
LINE
  5
431
100
AcDbEntity
  8
0
100
AcDbLine
 62
7
  6
CONTINUOUS
 10
9.4407638807
 20
5.844845973
 11
9.4124009479
 21
5.8444805527
  0
LINE
  5
432
100
AcDbEntity
  8
0
100
AcDbLine
 62
7
  6
CONTINUOUS
 10
9.4124009479
 20
5.8444805527
 11
9.3749278396
 21
5.8441842473
  0
LINE
  5
433
100
AcDbEntity
  8
0
100
AcDbLine
 62
7
  6
CONTINUOUS
 10
9.3749278396
 20
5.8441842473
 11
9.3253662994
 21
5.8439371376
  0
LINE
  5
434
100
AcDbEntity
  8
0
100
AcDbLine
 62
7
  6
CONTINUOUS
 10
9.3253662994
 20
5.8439371376
 11
9.2515333745
 21
5.8437301556
  0
LINE
  5
435
100
AcDbEntity
  8
0
100
AcDbLine
 62
7
  6
CONTINUOUS
 10
9.2515333745
 20
5.8437301556
 11
9.1510950849
 21
5.8436395384
  0
LINE
  5
436
100
AcDbEntity
  8
0
100
AcDbLine
 62
7
  6
CONTINUOUS
 10
9.1510950849
 20
5.8436395384
 11
9.0506240196
 21
5.8437300634
  0
LINE
  5
437
100
AcDbEntity
  8
0
100
AcDbLine
 62
7
  6
CONTINUOUS
 10
9.0506240196
 20
5.8437300634
 11
8.9767443647
 21
5.8439371285
  0
LINE
  5
438
100
AcDbEntity
  8
0
100
AcDbLine
 62
7
  6
CONTINUOUS
 10
8.9767443647
 20
5.8439371285
 11
8.9271625414
 21
5.8441843607
  0
LINE
  5
439
100
AcDbEntity
  8
0
100
AcDbLine
 62
7
  6
CONTINUOUS
 10
8.9271625414
 20
5.8441843607
 11
8.8896929295
 21
5.8444806971
  0
LWPOLYLINE
  5
43A
100
AcDbEntity
  8
0
100
AcDbPolyline
 62
7
  6
CONTINUOUS
 90
6
 70
0
 10
8.8896929295
 20
5.8444806971
 10
8.8613346342
 20
5.8448461414
 10
8.8508983995
 20
5.8450562138
 10
8.8430037835
 20
5.8452900053
 10
8.8379008105
 20
5.8455531588
 10
8.8360541764
 20
5.8458526585
  0
LINE
  5
43B
100
AcDbEntity
  8
0
100
AcDbLine
 62
7
  6
CONTINUOUS
 10
8.8360541764
 20
5.8858526531
 11
9.4660541764
 21
5.8858526531
  0
LINE
  5
43C
100
AcDbEntity
  8
0
100
AcDbLine
 62
7
  6
CONTINUOUS
 10
8.8360541764
 20
5.9408526531
 11
9.4660541764
 21
5.9408526531
  0
LINE
  5
43D
100
AcDbEntity
  8
0
100
AcDbLine
 62
7
  6
CONTINUOUS
 10
9.2774938853
 20
6.6604129442
 11
9.2774938853
 21
6.7823923621
  0
LINE
  5
43E
100
AcDbEntity
  8
0
100
AcDbLine
 62
7
  6
CONTINUOUS
 10
8.8360541764
 20
5.9808526531
 11
9.4660541764
 21
5.9808526531
  0
LINE
  5
43F
100
AcDbEntity
  8
0
100
AcDbLine
 62
7
  6
CONTINUOUS
 10
9.3700541764
 20
6.8019526531
 11
9.3700541764
 21
6.8238526531
  0
LINE
  5
440
100
AcDbEntity
  8
0
100
AcDbLine
 62
7
  6
CONTINUOUS
 10
9.3885541764
 20
5.8858526531
 11
9.3885541764
 21
5.9408526531
  0
LINE
  5
441
100
AcDbEntity
  8
0
100
AcDbLine
 62
7
  6
CONTINUOUS
 10
9.4039335943
 20
6.6604129442
 11
9.4039335943
 21
6.7823923621
  0
LWPOLYLINE
  5
442
100
AcDbEntity
  8
0
100
AcDbPolyline
 62
7
  6
CONTINUOUS
 90
14
 70
0
 10
9.4660541764
 20
6.6008526531
 10
9.465744541
 20
6.6145342053
 10
9.4650498501
 20
6.6253856072
 10
9.4640829339
 20
6.6350117823
 10
9.4627189185
 20
6.6448951951
 10
9.4608444445
 20
6.6552201307
 10
9.4584477147
 20
6.665485152
 10
9.4556369402
 20
6.6750073141
 10
9.4523581326
 20
6.683853068
 10
9.4482569231
 20
6.6924955602
 10
9.4431575654
 20
6.7004474925
 10
9.4374210476
 20
6.7064806514
 10
9.4315986318
 20
6.709958168
 10
9.4260579377
 20
6.7110245101
  0
LINE
  5
443
100
AcDbEntity
  8
0
100
AcDbLine
 62
7
  6
CONTINUOUS
 10
9.4260541764
 20
7.0408526531
 11
9.4260541764
 21
6.6408526531
  0
LINE
  5
444
100
AcDbEntity
  8
0
100
AcDbLine
 62
7
  6
CONTINUOUS
 10
9.4660541764
 20
7.0008526531
 11
9.4660541764
 21
4.9683497809
  0
LINE
  5
445
100
AcDbEntity
  8
0
100
AcDbLine
 62
7
  6
CONTINUOUS
 10
8.9320541764
 20
6.6408526531
 11
8.8981747584
 21
6.6604129442
  0
LWPOLYLINE
  5
446
100
AcDbEntity
  8
0
100
AcDbPolyline
 62
7
  6
CONTINUOUS
 90
6
 70
0
 10
9.2774938853
 20
6.6604129442
 10
9.2505537022
 20
6.6532891289
 10
9.2254680804
 20
6.6479524309
 10
9.2007094346
 20
6.6440612665
 10
9.1756135298
 20
6.6416437492
 10
9.1510541764
 20
6.6408526531
  0
LINE
  5
447
100
AcDbEntity
  8
0
100
AcDbLine
 62
7
  6
CONTINUOUS
 10
9.4660541764
 20
6.6008526531
 11
8.8360541764
 21
6.6008526531
  0
LINE
  5
448
100
AcDbEntity
  8
0
100
AcDbLine
 62
7
  6
CONTINUOUS
 10
9.4260541764
 20
6.6408526531
 11
8.8760541764
 21
6.6408526531
  0
LWPOLYLINE
  5
449
100
AcDbEntity
  8
0
100
AcDbPolyline
 62
7
  6
CONTINUOUS
 90
6
 70
0
 10
9.1510541764
 20
6.6408526531
 10
9.1264528213
 20
6.6416464523
 10
9.1013351339
 20
6.6440694233
 10
9.076580516
 20
6.6479635257
 10
9.0515129451
 20
6.6532990843
 10
9.0246144674
 20
6.6604129442
  0
LWPOLYLINE
  5
44A
100
AcDbEntity
  8
0
100
AcDbPolyline
 62
7
  6
CONTINUOUS
 90
6
 70
0
 10
8.9613946129
 20
6.6408526531
 10
8.9490939354
 20
6.6416464523
 10
8.9365350917
 20
6.6440694233
 10
8.9241577828
 20
6.6479635257
 10
8.9116239973
 20
6.6532990843
 10
8.8981747584
 20
6.6604129442
  0
LWPOLYLINE
  5
44B
100
AcDbEntity
  8
0
100
AcDbPolyline
 62
7
  6
CONTINUOUS
 90
6
 70
0
 10
9.3407137398
 20
6.6408526531
 10
9.3284130623
 20
6.6416464523
 10
9.3158542186
 20
6.6440694233
 10
9.3034769096
 20
6.6479635257
 10
9.2909431241
 20
6.6532990843
 10
9.2774938853
 20
6.6604129442
  0
LWPOLYLINE
  5
44C
100
AcDbEntity
  8
0
100
AcDbPolyline
 62
7
  6
CONTINUOUS
 90
7
 70
0
 10
9.4660541764
 20
7.0008526531
 10
9.4646912094
 20
7.0039406231
 10
9.4606951925
 20
7.006818153
 10
9.4543384476
 20
7.0092891439
 10
9.4460541764
 20
7.011185202
 10
9.4364069382
 20
7.0123771139
 10
9.4260541764
 20
7.0127836528
  0
LWPOLYLINE
  5
44D
100
AcDbEntity
  8
0
100
AcDbPolyline
 62
7
  6
CONTINUOUS
 90
14
 70
0
 10
8.8760504501
 20
6.7110245189
 10
8.8705341782
 20
6.7099676073
 10
8.8647458095
 20
6.7065282568
 10
8.8589759812
 20
6.7004802297
 10
8.8537907889
 20
6.6923840079
 10
8.8496451709
 20
6.6835996145
 10
8.8463757447
 20
6.6747167572
 10
8.8435890099
 20
6.6652119451
 10
8.8412158459
 20
6.6549861618
 10
8.8393603216
 20
6.6447108859
 10
8.8380098715
 20
6.6348802013
 10
8.8370509935
 20
6.6252948828
 10
8.8363613934
 20
6.6144808747
 10
8.8360541767
 20
6.6008382338
  0
LINE
  5
44E
100
AcDbEntity
  8
0
100
AcDbLine
 62
7
  6
CONTINUOUS
 10
9.4260579377
 20
6.7110251538
 11
9.4039335943
 21
6.7110251538
  0
LINE
  5
44F
100
AcDbEntity
  8
0
100
AcDbLine
 62
7
  6
CONTINUOUS
 10
8.8981747584
 20
6.7110251538
 11
8.8760504501
 21
6.7110251538
  0
LWPOLYLINE
  5
450
100
AcDbEntity
  8
0
100
AcDbPolyline
 62
7
  6
CONTINUOUS
 90
6
 70
0
 10
9.0246144674
 20
6.7823923621
 10
9.0515546505
 20
6.7895161773
 10
9.0766402723
 20
6.7948528754
 10
9.1013989181
 20
6.7987440397
 10
9.1264948229
 20
6.801161557
 10
9.1510541764
 20
6.8019526531
  0
LINE
  5
451
100
AcDbEntity
  8
0
100
AcDbLine
 62
7
  6
CONTINUOUS
 10
9.3700541764
 20
6.8019526531
 11
8.9320541764
 21
6.8019526531
  0
LINE
  5
452
100
AcDbEntity
  8
0
100
AcDbLine
 62
7
  6
CONTINUOUS
 10
8.9320541764
 20
6.8238526531
 11
9.3700541764
 21
6.8238526531
  0
LWPOLYLINE
  5
453
100
AcDbEntity
  8
0
100
AcDbPolyline
 62
7
  6
CONTINUOUS
 90
6
 70
0
 10
9.1510541764
 20
6.8019526531
 10
9.1756555314
 20
6.8011588539
 10
9.2007732188
 20
6.7987358829
 10
9.2255278367
 20
6.7948417806
 10
9.2505954076
 20
6.7895062219
 10
9.2774938853
 20
6.7823923621
  0
LWPOLYLINE
  5
454
100
AcDbEntity
  8
0
100
AcDbPolyline
 62
7
  6
CONTINUOUS
 90
6
 70
0
 10
8.9613946129
 20
6.8019526531
 10
8.9736952904
 20
6.8011588539
 10
8.9862541342
 20
6.7987358829
 10
8.9986314431
 20
6.7948417806
 10
9.0111652286
 20
6.7895062219
 10
9.0246144674
 20
6.7823923621
  0
LWPOLYLINE
  5
455
100
AcDbEntity
  8
0
100
AcDbPolyline
 62
7
  6
CONTINUOUS
 90
6
 70
0
 10
9.3407137398
 20
6.8019526531
 10
9.3530144173
 20
6.8011588539
 10
9.365573261
 20
6.7987358829
 10
9.3779505699
 20
6.7948417806
 10
9.3904843554
 20
6.7895062219
 10
9.4039335943
 20
6.7823923621
  0
LINE
  5
456
100
AcDbEntity
  8
0
100
AcDbLine
 62
7
  6
CONTINUOUS
 10
9.3700541764
 20
6.8019526531
 11
9.4039335943
 21
6.7823923621
  0
LWPOLYLINE
  5
457
100
AcDbEntity
  8
0
100
AcDbPolyline
 62
7
  6
CONTINUOUS
 90
7
 70
0
 10
8.8760541764
 20
7.0127836528
 10
8.8657585953
 20
7.0123816704
 10
8.8561083364
 20
7.011194512
 10
8.8478008516
 20
7.0092983644
 10
8.8414294973
 20
7.0068265852
 10
8.8374210048
 20
7.0039449184
 10
8.8360541764
 20
7.0008526531
  0
LINE
  5
458
100
AcDbEntity
  8
0
100
AcDbLine
 62
7
  6
CONTINUOUS
 10
9.4260541764
 20
7.0127836528
 11
9.2608535617
 21
7.0127836528
  0
LINE
  5
459
100
AcDbEntity
  8
0
100
AcDbLine
 62
7
  6
CONTINUOUS
 10
9.041254791
 20
7.0127836528
 11
8.8760541764
 21
7.0127836528
  0
LINE
  5
45A
100
AcDbEntity
  8
0
100
AcDbLine
 62
7
  6
CONTINUOUS
 10
9.4260541764
 20
7.0408526531
 11
9.1790178303
 21
7.0408526531
  0
LINE
  5
45B
100
AcDbEntity
  8
0
100
AcDbLine
 62
7
  6
CONTINUOUS
 10
9.1230905224
 20
7.0408526531
 11
8.8760541764
 21
7.0408526531
  0
LWPOLYLINE
  5
45C
100
AcDbEntity
  8
0
100
AcDbPolyline
 62
7
  6
CONTINUOUS
 90
26
 70
0
 10
5.5896673737
 20
2.9399124586
 10
5.6214750248
 20
2.9450179592
 10
5.6512865608
 20
2.9529157703
 10
5.6794181544
 20
2.9633551181
 10
5.7061644405
 20
2.976273055
 10
5.7316812015
 20
2.9917180509
 10
5.7555656464
 20
3.0094556496
 10
5.7774956576
 20
3.0291911592
 10
5.7982171237
 20
3.051768682
 10
5.8183274061
 20
3.0787526994
 10
5.8376294645
 20
3.1120061195
 10
5.8545443658
 20
3.1525856243
 10
5.8665440578
 20
3.2001830241
 10
5.8710201695
 20
3.2530239139
 10
5.8665562967
 20
3.3058747915
 10
5.8545608876
 20
3.3534949792
 10
5.8376415501
 20
3.3940994225
 10
5.8183289437
 20
3.4273746341
 10
5.79820705
 20
3.4543730712
 10
5.7774774746
 20
3.4769564575
 10
5.7555443206
 20
3.4966914507
 10
5.7316596546
 20
3.5144260693
 10
5.7061419236
 20
3.5298688027
 10
5.6793950684
 20
3.5427843646
 10
5.6512654058
 20
3.5532205994
 10
5.6214584751
 20
3.5611152153
  0
LWPOLYLINE
  5
45D
100
AcDbEntity
  8
0
100
AcDbPolyline
 62
7
  6
CONTINUOUS
 90
3
 70
0
 10
3.6044251315
 20
2.9450180067
 10
3.63623278
 20
2.9399124831
 10
3.6703638905
 20
2.9380648225
  0
LWPOLYLINE
  5
45E
100
AcDbEntity
  8
0
100
AcDbPolyline
 62
7
  6
CONTINUOUS
 90
19
 70
0
 10
5.5555363923
 20
2.938064889
 10
5.6061547931
 20
2.9421408939
 10
5.6599977169
 20
2.9558154992
 10
5.7105856342
 20
2.9786956466
 10
5.7563629636
 20
3.0100723659
 10
5.7959107943
 20
3.0489670259
 10
5.8280090008
 20
3.0941687375
 10
5.8516711321
 20
3.1442709201
 10
5.8661735885
 20
3.1977134313
 10
5.8710813712
 20
3.2528535121
 10
5.8662475852
 20
3.3080006222
 10
5.8518163606
 20
3.3614638745
 10
5.8282200539
 20
3.4115996086
 10
5.7961800263
 20
3.4568461654
 10
5.7566809432
 20
3.4957950361
 10
5.7109415387
 20
3.5272332997
 10
5.6603798118
 20
3.5501801125
 10
5.6065513026
 20
3.5639242106
 10
5.5555363923
 20
3.5680647536
  0
LINE
  5
45F
100
AcDbEntity
  8
0
100
AcDbLine
 62
7
  6
CONTINUOUS
 10
5.5555364887
 20
2.9380648225
 11
5.5896673737
 21
2.9399124586
  0
LINE
  5
460
100
AcDbEntity
  8
0
100
AcDbLine
 62
7
  6
CONTINUOUS
 10
5.5579501894
 20
2.9380648225
 11
3.6679501894
 21
2.9380648225
  0
LINE
  5
461
100
AcDbEntity
  8
AXIS
100
AcDbLine
 62
7
  6
CENTER
 10
4.6129501894
 20
3.6280648225
 11
4.6129501894
 21
2.8780648225
  0
LINE
  5
462
100
AcDbEntity
  8
0
100
AcDbLine
 62
7
  6
CONTINUOUS
 10
3.6679501894
 20
3.5680648225
 11
5.5579501894
 21
3.5680648225
  0
LWPOLYLINE
  5
463
100
AcDbEntity
  8
0
100
AcDbPolyline
 62
7
  6
CONTINUOUS
 90
19
 70
0
 10
3.6703639864
 20
3.5680647525
 10
3.6197446666
 20
3.5639886022
 10
3.5659006454
 20
3.5503134392
 10
3.5153117581
 20
3.5274323156
 10
3.4695338632
 20
3.4960543527
 10
3.4299859242
 20
3.4571583234
 10
3.3978880752
 20
3.4119552627
 10
3.374226745
 20
3.3618519476
 10
3.359725444
 20
3.3084086875
 10
3.3548190021
 20
3.2532683402
 10
3.3596541295
 20
3.1981214936
 10
3.3740865114
 20
3.1446589878
 10
3.3976836219
 20
3.0945243845
 10
3.4297240095
 20
3.0492791761
 10
3.469222987
 20
3.010331675
 10
3.5149618281
 20
2.9788946564
 10
3.5655225857
 20
2.9559488223
 10
3.6193499965
 20
2.942205284
 10
3.6703639864
 20
2.9380648879
  0
LINE
  5
464
100
AcDbEntity
  8
0
100
AcDbLine
 62
7
  6
CONTINUOUS
 10
3.6703638889
 20
3.5680648225
 11
3.6362424579
 21
3.5662182127
  0
LWPOLYLINE
  5
465
100
AcDbEntity
  8
0
100
AcDbPolyline
 62
7
  6
CONTINUOUS
 90
26
 70
0
 10
3.6362424579
 20
3.5662182127
 10
3.6044421244
 20
3.5611152624
 10
3.5746350176
 20
3.5532206135
 10
3.5465050633
 20
3.5427842594
 10
3.5197578596
 20
3.5298684797
 10
3.4942397959
 20
3.5144254458
 10
3.4703549344
 20
3.496690531
 10
3.4484217612
 20
3.476955328
 10
3.4276922456
 20
3.4543717693
 10
3.4075704344
 20
3.4273731299
 10
3.388257922
 20
3.3940976142
 10
3.3713387609
 20
3.353492811
 10
3.359343654
 20
3.3058722775
 10
3.3548802096
 20
3.2530212433
 10
3.3593567493
 20
3.2001805113
 10
3.3713567431
 20
3.1525834577
 10
3.3882718203
 20
3.1120043126
 10
3.4075739726
 20
3.0787511963
 10
3.4276843375
 20
3.0517673808
 10
3.4484058631
 20
3.0291900304
 10
3.4703358546
 20
3.0094547309
 10
3.4942201032
 20
2.9917174288
 10
3.5197365312
 20
2.9762727333
 10
3.5464824689
 20
2.9633550139
 10
3.5746137711
 20
2.9529157852
 10
3.6044251315
 20
2.9450180067
  0
LWPOLYLINE
  5
466
100
AcDbEntity
  8
0
100
AcDbPolyline
 62
7
  6
CONTINUOUS
 90
3
 70
0
 10
5.6214584751
 20
3.5611152153
 10
5.5896581449
 20
3.5662181884
 10
5.5555364894
 20
3.5680648225
  0
LWPOLYLINE
  5
467
100
AcDbEntity
  8
0
100
AcDbPolyline
 62
7
  6
CONTINUOUS
 90
3
 70
0
 10
12.7504790323
 20
8.9202967183
 10
12.7422913797
 20
8.9135572633
 10
12.723271363
 20
8.8967676333
  0
LWPOLYLINE
  5
468
100
AcDbEntity
  8
0
100
AcDbPolyline
 62
7
  6
CONTINUOUS
 90
4
 70
0
 10
12.7283177489
 20
8.7820877344
 10
12.7099327779
 20
8.7568145809
 10
12.6959962119
 20
8.7228327302
 10
12.691425431
 20
8.6883003274
  0
LWPOLYLINE
  5
469
100
AcDbEntity
  8
0
100
AcDbPolyline
 62
7
  6
CONTINUOUS
 90
6
 70
0
 10
13.0329854226
 20
8.7179581828
 10
13.0520349294
 20
8.7347729674
 10
13.0697730688
 20
8.7493714527
 10
13.0872800023
 20
8.7626561702
 10
13.1050254129
 20
8.7748753354
 10
13.122391426
 20
8.7855474797
  0
LWPOLYLINE
  5
46A
100
AcDbEntity
  8
0
100
AcDbPolyline
 62
7
  6
CONTINUOUS
 90
6
 70
0
 10
13.122391426
 20
8.7855474797
 10
13.1397871385
 20
8.7949427001
 10
13.1575479517
 20
8.8032184875
 10
13.1750520369
 20
8.8101448715
 10
13.1927774126
 20
8.8160220643
 10
13.2117974293
 20
8.8211947268
  0
LWPOLYLINE
  5
46B
100
AcDbEntity
  8
0
100
AcDbPolyline
 62
7
  6
CONTINUOUS
 90
9
 70
0
 10
13.122391426
 20
8.7855474797
 10
13.1008538725
 20
8.774642594
 10
13.0770351858
 20
8.7654540335
 10
13.0513429102
 20
8.7581390172
 10
13.0242166477
 20
8.7528227068
 10
12.9961205362
 20
8.749596066
 10
12.9675353079
 20
8.7485143036
 10
12.938950064
 20
8.7495959286
 10
12.910853906
 20
8.7528224343
  0
LWPOLYLINE
  5
46C
100
AcDbEntity
  8
0
100
AcDbPolyline
 62
7
  6
CONTINUOUS
 90
25
 70
0
 10
12.693005495
 20
8.0645678689
 10
12.7081872442
 20
7.9194523447
 10
12.7395356468
 20
7.7693588259
 10
12.786271584
 20
7.618365559
 10
12.846489735
 20
7.4711008423
 10
12.9190967138
 20
7.3288286955
 10
13.0027995105
 20
7.1934775501
 10
13.0967180808
 20
7.0663800185
 10
13.200090949
 20
6.9490024712
 10
13.3113706775
 20
6.8437408196
 10
13.4299219528
 20
6.7520587607
 10
13.5527268513
 20
6.6770355712
 10
13.6778454803
 20
6.6201970252
 10
13.79993173
 20
6.5833875222
 10
13.9209620893
 20
6.5653687594
 10
14.0326455305
 20
6.5659453325
 10
14.1400556054
 20
6.583619224
 10
14.2412666389
 20
6.6179973968
 10
14.3341128578
 20
6.6680853878
 10
14.4184352415
 20
6.7339201426
 10
14.4937970878
 20
6.8166559173
 10
14.5573150047
 20
6.9155334948
 10
14.6060509927
 20
7.0275849092
 10
14.6401842666
 20
7.1571558754
 10
14.6562654376
 20
7.2940108474
  0
LINE
  5
46D
100
AcDbEntity
  8
0
100
AcDbLine
 62
7
  6
CONTINUOUS
 10
12.6930144771
 20
8.0643915775
 11
12.6930054768
 21
8.0645682312
  0
LINE
  5
46E
100
AcDbEntity
  8
0
100
AcDbLine
 62
7
  6
CONTINUOUS
 10
12.691425431
 20
8.1820688287
 11
12.691425431
 21
8.6883003274
  0
LINE
  5
46F
100
AcDbEntity
  8
0
100
AcDbLine
 62
7
  6
CONTINUOUS
 10
12.691425431
 20
8.1820688287
 11
12.6914254323
 21
8.1820526661
  0
LINE
  5
470
100
AcDbEntity
  8
0
100
AcDbLine
 62
7
  6
CONTINUOUS
 10
12.6914254323
 20
8.6882841816
 11
12.691425431
 21
8.6883003274
  0
LINE
  5
471
100
AcDbEntity
  8
0
100
AcDbLine
 62
7
  6
CONTINUOUS
 10
12.723271363
 20
8.7971711437
 11
12.723271363
 21
8.8967676333
  0
LWPOLYLINE
  5
472
100
AcDbEntity
  8
0
100
AcDbPolyline
 62
7
  6
CONTINUOUS
 90
7
 70
0
 10
12.7836877223
 20
8.5597034189
 10
12.7846514815
 20
8.5687128972
 10
12.7874770803
 20
8.5782212411
 10
12.7919719591
 20
8.5875804725
 10
12.797829799
 20
8.5961527754
 10
12.8046513982
 20
8.6033539614
 10
12.8119718758
 20
8.6086932817
  0
LWPOLYLINE
  5
473
100
AcDbEntity
  8
0
100
AcDbPolyline
 62
7
  6
CONTINUOUS
 90
4
 70
0
 10
12.7050069587
 20
8.1244495697
 10
12.6997298683
 20
8.1134644421
 10
12.6930119527
 20
8.0778855896
 10
12.6930144623
 20
8.0643923322
  0
LWPOLYLINE
  5
474
100
AcDbEntity
  8
0
100
AcDbPolyline
 62
7
  6
CONTINUOUS
 90
14
 70
0
 10
12.9862587588
 20
8.5080679367
 10
12.9830566079
 20
8.5051002395
 10
12.9812356051
 20
8.5004056137
 10
12.9811507686
 20
8.4939495262
 10
12.9828327444
 20
8.4863449144
 10
12.9857044632
 20
8.4786983789
 10
12.9892607187
 20
8.4713425909
 10
12.9935691491
 20
8.463762261
 10
12.998646279
 20
8.455862021
 10
13.0041221131
 20
8.4481395072
 10
13.0096613992
 20
8.4409245825
 10
13.0153154684
 20
8.434035805
 10
13.0219716406
 20
8.426424161
 10
13.0307667833
 20
8.4170511995
  0
LWPOLYLINE
  5
475
100
AcDbEntity
  8
0
100
AcDbPolyline
 62
7
  6
CONTINUOUS
 90
4
 70
0
 10
13.1274302188
 20
8.7436026882
 10
13.1182551784
 20
8.736326237
 10
13.1114445073
 20
8.7264268719
 10
13.1093377897
 20
8.721167092
  0
LWPOLYLINE
  5
476
100
AcDbEntity
  8
0
100
AcDbPolyline
 62
7
  6
CONTINUOUS
 90
7
 70
0
 10
13.1474301293
 20
8.7416217171
 10
13.1401500844
 20
8.7363182135
 10
13.1333263493
 20
8.7291288067
 10
13.1274520949
 20
8.7205467819
 10
13.1229468859
 20
8.7111794286
 10
13.1201124654
 20
8.7016546672
 10
13.1191459758
 20
8.6926318542
  0
LINE
  5
477
100
AcDbEntity
  8
0
100
AcDbLine
 62
7
  6
CONTINUOUS
 10
13.5163373293
 20
8.9681369729
 11
13.1274302188
 21
8.7436026882
  0
LINE
  5
478
100
AcDbEntity
  8
0
100
AcDbLine
 62
7
  6
CONTINUOUS
 10
13.5363372397
 20
8.9661560017
 11
13.1474301293
 21
8.7416217171
  0
LINE
  5
479
100
AcDbEntity
  8
0
100
AcDbLine
 62
7
  6
CONTINUOUS
 10
13.5163393802
 20
8.9681381567
 11
13.5163368389
 21
8.9681366897
  0
LWPOLYLINE
  5
47A
100
AcDbEntity
  8
0
100
AcDbPolyline
 62
7
  6
CONTINUOUS
 90
4
 70
0
 10
13.0813867873
 20
8.6340238284
 10
13.069730815
 20
8.6294115485
 10
13.0520054393
 20
8.6235343557
 10
13.0329854226
 20
8.6183616932
  0
LWPOLYLINE
  5
47B
100
AcDbEntity
  8
0
100
AcDbPolyline
 62
7
  6
CONTINUOUS
 90
4
 70
0
 10
13.1274302188
 20
8.7436026882
 10
13.1336923819
 20
8.7454419461
 10
13.1403343315
 20
8.7446739131
 10
13.1474301293
 20
8.7416217171
  0
LWPOLYLINE
  5
47C
100
AcDbEntity
  8
0
100
AcDbPolyline
 62
7
  6
CONTINUOUS
 90
34
 70
0
 10
12.7853969295
 20
7.942257305
 10
12.7909773772
 20
7.8804886006
 10
12.7998948795
 20
7.8200935168
 10
12.811833398
 20
7.7605293591
 10
12.8266990707
 20
7.7011724357
 10
12.8445801894
 20
7.6413919334
 10
12.8654106009
 20
7.581420586
 10
12.8888069221
 20
7.5222397594
 10
12.9151797664
 20
7.4628172998
 10
12.9463404373
 20
7.3999126173
 10
12.9849255518
 20
7.3302744108
 10
13.0333949743
 20
7.2526768412
 10
13.0928120112
 20
7.1691773153
 10
13.1628667203
 20
7.0837672707
 10
13.2413652808
 20
7.0018295652
 10
13.3243345718
 20
6.9288196993
 10
13.4088933455
 20
6.867408951
 10
13.4938869958
 20
6.8182629789
 10
13.5784480065
 20
6.7818801558
 10
13.6614534178
 20
6.7589169554
 10
13.7400775856
 20
6.7500417105
 10
13.8103442028
 20
6.7544367675
 10
13.870002322
 20
6.7692871247
 10
13.9186992461
 20
6.7909600679
 10
13.9574603204
 20
6.8161393647
 10
13.9887176701
 20
6.8431556934
 10
14.0151156117
 20
6.872178188
 10
14.0384967005
 20
6.9043542111
 10
14.0593093342
 20
6.9402766672
 10
14.0771800438
 20
6.9794262255
 10
14.0920308806
 20
7.0216219942
 10
14.1039494345
 20
7.0673764534
 10
14.1128477869
 20
7.1174193376
 10
14.1184159065
 20
7.1726558505
  0
LWPOLYLINE
  5
47D
100
AcDbEntity
  8
0
100
AcDbPolyline
 62
7
  6
CONTINUOUS
 90
9
 70
0
 10
12.6914254323
 20
8.1820526661
 10
12.6929429685
 20
8.1642389062
 10
12.6972470339
 20
8.1472664588
 10
12.7043237214
 20
8.1305604815
 10
12.7140555381
 20
8.1143821666
 10
12.7265221306
 20
8.0986451201
 10
12.741982643
 20
8.0832522069
 10
12.7608470534
 20
8.0681753876
 10
12.7836877223
 20
8.0534719203
  0
LWPOLYLINE
  5
47E
100
AcDbEntity
  8
0
100
AcDbPolyline
 62
7
  6
CONTINUOUS
 90
7
 70
0
 10
12.7485343961
 20
8.8928336079
 10
12.7490924481
 20
8.8838131062
 10
12.7535394263
 20
8.8659567844
 10
12.762342725
 20
8.8486475972
 10
12.7753231344
 20
8.8322379097
 10
12.7922164108
 20
8.817061776
 10
12.8126786558
 20
8.8034281382
  0
LINE
  5
47F
100
AcDbEntity
  8
0
100
AcDbLine
 62
7
  6
CONTINUOUS
 10
12.7485343961
 20
8.8749522049
 11
12.7485343961
 21
8.8928336079
  0
LINE
  5
480
100
AcDbEntity
  8
0
100
AcDbLine
 62
7
  6
CONTINUOUS
 10
12.7642417485
 20
8.0504083918
 11
12.7642417485
 21
8.0542250225
  0
LINE
  5
481
100
AcDbEntity
  8
0
100
AcDbLine
 62
7
  6
CONTINUOUS
 10
12.7836877223
 20
8.5597034189
 11
12.7836877223
 21
8.0534719203
  0
LINE
  5
482
100
AcDbEntity
  8
0
100
AcDbLine
 62
7
  6
CONTINUOUS
 10
12.7887223894
 20
8.6561481465
 11
12.7887223894
 21
8.755744636
  0
LWPOLYLINE
  5
483
100
AcDbEntity
  8
0
100
AcDbPolyline
 62
7
  6
CONTINUOUS
 90
6
 70
0
 10
12.7853945417
 20
7.9422586836
 10
12.7867788685
 20
7.9531504518
 10
12.7907963402
 20
7.9645745276
 10
12.7970536958
 20
7.9754126401
 10
12.8049384185
 20
7.9846038795
 10
12.8136786952
 20
7.9912485465
  0
LINE
  5
484
100
AcDbEntity
  8
0
100
AcDbLine
 62
7
  6
CONTINUOUS
 10
13.0404012466
 20
8.5062425714
 11
13.0379577407
 21
8.5041978382
  0
LINE
  5
485
100
AcDbEntity
  8
0
100
AcDbLine
 62
7
  6
CONTINUOUS
 10
13.0379577407
 20
8.5041978382
 11
13.0362554217
 21
8.5031144388
  0
LINE
  5
486
100
AcDbEntity
  8
0
100
AcDbLine
 62
7
  6
CONTINUOUS
 10
13.053424908
 20
8.5468466427
 11
12.9862582885
 21
8.5080682084
  0
LINE
  5
487
100
AcDbEntity
  8
0
100
AcDbLine
 62
7
  6
CONTINUOUS
 10
13.036255501
 20
8.503114301
 11
13.0362607698
 21
8.5031173423
  0
LWPOLYLINE
  5
488
100
AcDbEntity
  8
0
100
AcDbPolyline
 62
7
  6
CONTINUOUS
 90
4
 70
0
 10
12.7836877223
 20
8.0534719203
 10
12.7846514815
 20
8.0455752885
 10
12.7874770803
 20
8.0393296457
 10
12.7919722151
 20
8.0351604744
  0
LWPOLYLINE
  5
489
100
AcDbEntity
  8
0
100
AcDbPolyline
 62
7
  6
CONTINUOUS
 90
5
 70
0
 10
12.691425431
 20
8.1820688287
 10
12.6953007846
 20
8.1502492957
 10
12.7071720754
 20
8.1186945301
 10
12.7274730727
 20
8.0881243367
 10
12.7560916048
 20
8.0598282029
  0
LWPOLYLINE
  5
48A
100
AcDbEntity
  8
0
100
AcDbPolyline
 62
7
  6
CONTINUOUS
 90
18
 70
0
 10
12.9219307398
 20
7.8960913529
 10
12.9297794667
 20
7.8067083503
 10
12.9477678769
 20
7.7135518107
 10
12.9755439375
 20
7.6184418626
 10
13.0125724142
 20
7.5232109443
 10
13.058132516
 20
7.4297153936
 10
13.1113352716
 20
7.339777337
 10
13.171156887
 20
7.2551280412
 10
13.2364283161
 20
7.1774230855
 10
13.3058808424
 20
7.1081712134
 10
13.3781756799
 20
7.0487082548
 10
13.451897152
 20
7.0001990278
 10
13.5256196933
 20
6.963580511
 10
13.5979152942
 20
6.9395633392
 10
13.6673687899
 20
6.9286170447
 10
13.7326431652
 20
6.930951918
 10
13.792466648
 20
6.9465243005
 10
13.8269121881
 20
6.9630611311
  0
LINE
  5
48B
100
AcDbEntity
  8
0
100
AcDbLine
 62
7
  6
CONTINUOUS
 10
12.9219307398
 20
7.9409989858
 11
12.9219307398
 21
7.8960913529
  0
LWPOLYLINE
  5
48C
100
AcDbEntity
  8
0
100
AcDbPolyline
 62
7
  6
CONTINUOUS
 90
13
 70
0
 10
12.8953603077
 20
7.9889991816
 10
12.9016324882
 20
8.0413272208
 10
12.9117640202
 20
8.0889299027
 10
12.9254450117
 20
8.1322049139
 10
12.9425317466
 20
8.1714541656
 10
12.963000842
 20
8.2068688635
 10
12.9867950505
 20
8.238353902
 10
13.0137287999
 20
8.2656362148
 10
13.0435907753
 20
8.2885059652
 10
13.076188707
 20
8.3068259106
 10
13.111310769
 20
8.3204798359
 10
13.1487174592
 20
8.3293757699
 10
13.1881541051
 20
8.3334554142
  0
LWPOLYLINE
  5
48D
100
AcDbEntity
  8
0
100
AcDbPolyline
 62
7
  6
CONTINUOUS
 90
10
 70
0
 10
13.039089557
 20
8.5021530785
 10
13.0363956649
 20
8.4924654094
 10
13.0345102233
 20
8.4836316048
 10
13.0329959611
 20
8.4744698405
 10
13.0318086937
 20
8.4648683816
 10
13.030989838
 20
8.455436426
 10
13.0305067713
 20
8.4465859514
 10
13.0302888687
 20
8.4381024203
 10
13.0303202919
 20
8.4286915724
 10
13.0307572601
 20
8.4170609817
  0
LINE
  5
48E
100
AcDbEntity
  8
0
100
AcDbLine
 62
7
  6
CONTINUOUS
 10
13.1093414386
 20
8.7211784793
 11
13.0390895995
 21
8.5021532286
  0
LINE
  5
48F
100
AcDbEntity
  8
0
100
AcDbLine
 62
7
  6
CONTINUOUS
 10
13.1191459758
 20
8.6926318542
 11
13.0307561007
 21
8.4170573669
  0
LWPOLYLINE
  5
490
100
AcDbEntity
  8
AXIS
100
AcDbPolyline
 62
7
  6
CONTINUOUS
 90
5
 70
0
 10
13.5563446643
 20
8.7300725561
 10
13.5343341559
 20
8.7143798542
 10
13.5184558663
 20
8.6963880187
 10
13.5094037529
 20
8.6768833792
 10
13.507348348
 20
8.6617599753
  0
LWPOLYLINE
  5
491
100
AcDbEntity
  8
DEFAULT_2
100
AcDbPolyline
 62
7
  6
HIDDEN
 90
17
 70
0
 10
13.5353435054
 20
8.7421973065
 10
13.5109397246
 20
8.7250445322
 10
13.4927713933
 20
8.7054817984
 10
13.4815305378
 20
8.6842542435
 10
13.4776441213
 20
8.6617734043
 10
13.481396115
 20
8.639681902
 10
13.4925088652
 20
8.6184318761
 10
13.5105590908
 20
8.5988327336
 10
13.5353446654
 20
8.5813497796
 10
13.5650545666
 20
8.5672604515
 10
13.5989386999
 20
8.5567711105
 10
13.6357064292
 20
8.5502812924
 10
13.6746449415
 20
8.5480375008
 10
13.712909093
 20
8.5502036844
 10
13.7497157437
 20
8.556619542
 10
13.7836629396
 20
8.5670406956
 10
13.8139447493
 20
8.5813504563
  0
LINE
  5
492
100
AcDbEntity
  8
0
100
AcDbLine
 62
7
  6
CONTINUOUS
 10
13.0329854226
 20
8.6183616932
 11
13.0329854226
 21
8.7179581828
  0
LINE
  5
493
100
AcDbEntity
  8
0
100
AcDbLine
 62
7
  6
CONTINUOUS
 10
13.1083415522
 20
8.7153565368
 11
13.1093377897
 21
8.721167092
  0
LWPOLYLINE
  5
494
100
AcDbEntity
  8
0
100
AcDbPolyline
 62
7
  6
CONTINUOUS
 90
5
 70
0
 10
12.8953325591
 20
7.8787873756
 10
12.8998994282
 20
7.8861831142
 10
12.9062506709
 20
7.8942320151
 10
12.9136959857
 20
7.9021382801
 10
12.9147610057
 20
7.9031077725
  0
LWPOLYLINE
  5
495
100
AcDbEntity
  8
0
100
AcDbPolyline
 62
7
  6
CONTINUOUS
 90
7
 70
0
 10
13.0769005503
 20
8.2620797593
 10
13.058132516
 20
8.2501062387
 10
13.0125724142
 20
8.209217772
 10
12.9755439375
 20
8.1567426883
 10
12.9477678769
 20
8.0937050467
 10
12.9297794667
 20
8.0213192643
 10
12.9219307398
 20
7.9409989858
  0
LINE
  5
496
100
AcDbEntity
  8
0
100
AcDbLine
 62
7
  6
CONTINUOUS
 10
13.1051895539
 20
8.2784187287
 11
13.1051928901
 21
8.2784206549
  0
LINE
  5
497
100
AcDbEntity
  8
0
100
AcDbLine
 62
7
  6
CONTINUOUS
 10
13.1051895539
 20
8.2784187287
 11
13.0769080914
 21
8.2620905162
  0
LINE
  5
498
100
AcDbEntity
  8
0
100
AcDbLine
 62
7
  6
CONTINUOUS
 10
13.1113352716
 20
8.2786124345
 11
13.0769005503
 21
8.2620797593
  0
LWPOLYLINE
  5
499
100
AcDbEntity
  8
0
100
AcDbPolyline
 62
7
  6
CONTINUOUS
 90
7
 70
0
 10
14.4095399414
 20
7.2168362877
 10
14.430241068
 20
7.2180807651
 10
14.4753480333
 20
7.2260940326
 10
14.5169161454
 20
7.2389956988
 10
14.5533736887
 20
7.2562979439
 10
14.5833421811
 20
7.2773465595
 10
14.601604135
 20
7.2969592303
  0
LWPOLYLINE
  5
49A
100
AcDbEntity
  8
0
100
AcDbPolyline
 62
7
  6
CONTINUOUS
 90
9
 70
0
 10
14.3200277605
 20
7.1755879646
 10
14.3142863678
 20
7.1757635201
 10
14.2885873457
 20
7.1779592295
 10
14.2632944778
 20
7.1815543258
 10
14.2388021846
 20
7.1864887125
 10
14.2149856898
 20
7.192800274
 10
14.1917014575
 20
7.2006163893
 10
14.1689083191
 20
7.2101390679
 10
14.146702437
 20
7.2216443411
  0
LWPOLYLINE
  5
49B
100
AcDbEntity
  8
0
100
AcDbPolyline
 62
7
  6
CONTINUOUS
 90
7
 70
0
 10
13.1865343961
 20
8.8749522049
 10
13.1846609398
 20
8.858449269
 10
13.1790723881
 20
8.8422281765
 10
13.1698643627
 20
8.8265670012
 10
13.1571944155
 20
8.8117337101
 10
13.1412793327
 20
8.797982105
 10
13.122391426
 20
8.7855474797
  0
LWPOLYLINE
  5
49C
100
AcDbEntity
  8
AXIS
100
AcDbPolyline
 62
7
  6
CONTINUOUS
 90
5
 70
0
 10
13.7929435783
 20
8.5934751996
 10
13.8149540867
 20
8.6091679015
 10
13.8308323763
 20
8.627159737
 10
13.8398844896
 20
8.6466643766
 10
13.8419398946
 20
8.6617877804
  0
LWPOLYLINE
  5
49D
100
AcDbEntity
  8
DEFAULT_2
100
AcDbPolyline
 62
7
  6
HIDDEN
 90
17
 70
0
 10
13.8139447371
 20
8.5813504492
 10
13.838348518
 20
8.5985032235
 10
13.8565168493
 20
8.6180659573
 10
13.8677577048
 20
8.6392935123
 10
13.8716441213
 20
8.6617743514
 10
13.8678921276
 20
8.6838658538
 10
13.8567793774
 20
8.7051158797
 10
13.8387291518
 20
8.7247150222
 10
13.8139435772
 20
8.7421979762
 10
13.784233676
 20
8.7562873042
 10
13.7503495426
 20
8.7667766452
 10
13.7135818133
 20
8.7732664634
 10
13.6746433011
 20
8.7755102549
 10
13.6363791495
 20
8.7733440713
 10
13.5995724988
 20
8.7669282137
 10
13.5656253029
 20
8.7565070601
 10
13.5353434933
 20
8.7421972995
  0
LWPOLYLINE
  5
49E
100
AcDbEntity
  8
0
100
AcDbPolyline
 62
7
  6
CONTINUOUS
 90
17
 70
0
 10
13.1051895539
 20
8.2784187287
 10
13.1613800973
 20
8.3014606525
 10
13.2234734814
 20
8.309991277
 10
13.2904423132
 20
8.3045682561
 10
13.3610177259
 20
8.2856463627
 10
13.4342607384
 20
8.2535305424
 10
13.5089223246
 20
8.2085686947
 10
13.5833474393
 20
8.1514948539
 10
13.6558721057
 20
8.0833545357
 10
13.7248865085
 20
8.00545803
 10
13.788786141
 20
7.9194593002
 10
13.8461352325
 20
7.8271940087
 10
13.8956692568
 20
7.7306536588
 10
13.9363052527
 20
7.6319833349
 10
13.9672237709
 20
7.5333037499
 10
13.9878242168
 20
7.4368293807
 10
13.9975305689
 20
7.3495641375
  0
LINE
  5
49F
100
AcDbEntity
  8
0
100
AcDbLine
 62
7
  6
CONTINUOUS
 10
12.752782329
 20
8.0631001984
 11
12.7642417485
 21
8.0504083918
  0
LWPOLYLINE
  5
4A0
100
AcDbEntity
  8
0
100
AcDbPolyline
 62
7
  6
CONTINUOUS
 90
3
 70
0
 10
12.7559968762
 20
8.8422271596
 10
12.7504080905
 20
8.8584482252
 10
12.7485343961
 20
8.8749522049
  0
LWPOLYLINE
  5
4A1
100
AcDbEntity
  8
0
100
AcDbPolyline
 62
7
  6
CONTINUOUS
 90
9
 70
0
 10
13.1865343961
 20
8.8928336079
 10
13.1846842027
 20
8.9212406756
 10
13.1790780736
 20
8.949492875
 10
13.1696919134
 20
8.9770555658
 10
13.156631142
 20
9.0033027018
 10
13.1401719973
 20
9.0275824804
 10
13.1208546181
 20
9.0492110664
 10
13.0999168361
 20
9.0672924557
 10
13.0770325383
 20
9.0824942439
  0
LINE
  5
4A2
100
AcDbEntity
  8
0
100
AcDbLine
 62
7
  6
CONTINUOUS
 10
13.1865343961
 20
8.8749522049
 11
13.1865343961
 21
8.8928336079
  0
LINE
  5
4A3
100
AcDbEntity
  8
0
100
AcDbLine
 62
7
  6
CONTINUOUS
 10
13.2117974293
 20
8.7923118292
 11
13.2117974293
 21
8.8211947268
  0
LWPOLYLINE
  5
4A4
100
AcDbEntity
  8
0
100
AcDbPolyline
 62
7
  6
CONTINUOUS
 90
8
 70
0
 10
13.2019005942
 20
8.0455779408
 10
13.1941760097
 20
8.0408350286
 10
13.1658745203
 20
8.0176713878
 10
13.1420839247
 20
7.9881190639
 10
13.1231794149
 20
7.9526441147
 10
13.1094591261
 20
7.9118060013
 10
13.1011394357
 20
7.8662487653
 10
13.09835155
 20
7.8166908713
  0
LWPOLYLINE
  5
4A5
100
AcDbEntity
  8
0
100
AcDbPolyline
 62
7
  6
CONTINUOUS
 90
4
 70
0
 10
14.2018581133
 20
8.5819260387
 10
14.2091909247
 20
8.5850429286
 10
14.2160239846
 20
8.5857131552
 10
14.2218567945
 20
8.5839077195
  0
LWPOLYLINE
  5
4A6
100
AcDbEntity
  8
0
100
AcDbPolyline
 62
7
  6
CONTINUOUS
 90
12
 70
0
 10
14.2491721714
 20
7.1931028073
 10
14.2910217602
 20
7.180508106
 10
14.3363019845
 20
7.1728274501
 10
14.3833007713
 20
7.17035125
 10
14.430241068
 20
7.1731731322
 10
14.4753480333
 20
7.1811863997
 10
14.5169161454
 20
7.1940880659
 10
14.5533736887
 20
7.211390311
 10
14.5833421811
 20
7.2324389266
 10
14.6056884959
 20
7.2564380516
 10
14.6195677051
 20
7.2824802646
 10
14.6244598142
 20
7.3104677398
  0
LINE
  5
4A7
100
AcDbEntity
  8
0
100
AcDbLine
 62
7
  6
CONTINUOUS
 10
14.2491721714
 20
7.1931028073
 11
13.9818820854
 21
7.2841420023
  0
LINE
  5
4A8
100
AcDbEntity
  8
0
100
AcDbLine
 62
7
  6
CONTINUOUS
 10
12.9219307398
 20
7.8960913529
 11
12.7642417485
 21
8.0504083918
  0
LINE
  5
4A9
100
AcDbEntity
  8
0
100
AcDbLine
 62
7
  6
CONTINUOUS
 10
12.9219307398
 20
7.9409989858
 11
12.874254221
 21
7.9876560108
  0
LWPOLYLINE
  5
4AA
100
AcDbEntity
  8
0
100
AcDbPolyline
 62
7
  6
CONTINUOUS
 90
5
 70
0
 10
12.8953325589
 20
7.9890152021
 10
12.9037631196
 20
7.9805894079
 10
12.9136358524
 20
7.974099302
 10
12.9239833828
 20
7.9700291363
 10
12.9247556902
 20
7.9699082357
  0
LWPOLYLINE
  5
4AB
100
AcDbEntity
  8
0
100
AcDbPolyline
 62
7
  6
CONTINUOUS
 90
6
 70
0
 10
12.7559968762
 20
8.7106886202
 10
12.749629478
 20
8.7250561707
 10
12.7431284411
 20
8.7410418866
 10
12.736721375
 20
8.7580263121
 10
12.7302333094
 20
8.7763622144
 10
12.723271363
 20
8.7971711437
  0
LWPOLYLINE
  5
4AC
100
AcDbEntity
  8
0
100
AcDbPolyline
 62
7
  6
CONTINUOUS
 90
6
 70
0
 10
12.7559968762
 20
8.8422271596
 10
12.7623642743
 20
8.827859609
 10
12.7688653112
 20
8.8118738931
 10
12.7752723773
 20
8.7948894676
 10
12.7817604429
 20
8.7765535654
 10
12.7887223894
 20
8.755744636
  0
LINE
  5
4AD
100
AcDbEntity
  8
0
100
AcDbLine
 62
7
  6
CONTINUOUS
 10
14.2018581133
 20
8.5819260387
 11
13.8129510028
 21
8.357391754
  0
LINE
  5
4AE
100
AcDbEntity
  8
0
100
AcDbLine
 62
7
  6
CONTINUOUS
 10
14.2288549963
 20
8.543421327
 11
13.8399478858
 21
8.3188870424
  0
LWPOLYLINE
  5
4AF
100
AcDbEntity
  8
0
100
AcDbPolyline
 62
7
  6
CONTINUOUS
 90
7
 70
0
 10
13.8399478858
 20
8.3188870424
 10
13.8317582547
 20
8.3148808499
 10
13.8222482757
 20
8.3115227391
 10
13.8120835112
 20
8.309060119
 10
13.8019852811
 20
8.3076698964
 10
13.7926303659
 20
8.3074450891
 10
13.7846668494
 20
8.3084018912
  0
LINE
  5
4B0
100
AcDbEntity
  8
0
100
AcDbLine
 62
7
  6
CONTINUOUS
 10
14.0626959754
 20
7.3015243663
 11
13.9818820854
 21
7.3290496353
  0
LINE
  5
4B1
100
AcDbEntity
  8
0
100
AcDbLine
 62
7
  6
CONTINUOUS
 10
14.1184159065
 20
7.1726558505
 11
14.0084525703
 21
7.2361417761
  0
LINE
  5
4B2
100
AcDbEntity
  8
0
100
AcDbLine
 62
7
  6
CONTINUOUS
 10
12.8953589852
 20
7.8787721188
 11
12.7853969295
 21
7.942257305
  0
LWPOLYLINE
  5
4B3
100
AcDbEntity
  8
0
100
AcDbPolyline
 62
7
  6
CONTINUOUS
 90
9
 70
0
 10
12.7853969276
 20
7.9422573367
 10
12.7625726219
 20
7.9566978135
 10
12.7436946126
 20
7.9715483898
 10
12.7282000539
 20
7.9867489173
 10
12.7156886758
 20
8.0023217652
 10
12.7059082653
 20
8.0183580001
 10
12.6987840228
 20
8.0349375075
 10
12.6944352313
 20
8.0518001715
 10
12.6930144771
 20
8.0643915775
  0
LWPOLYLINE
  5
4B4
100
AcDbEntity
  8
0
100
AcDbPolyline
 62
7
  6
CONTINUOUS
 90
8
 70
0
 10
12.8136786952
 20
7.9912485465
 10
12.7937506313
 20
8.0040687509
 10
12.7772564262
 20
8.017228101
 10
12.7637180417
 20
8.030671076
 10
12.7527856354
 20
8.044421433
 10
12.74423862
 20
8.0585620238
 10
12.7380114109
 20
8.0731648549
 10
12.7364526276
 20
8.0792459398
  0
LINE
  5
4B5
100
AcDbEntity
  8
0
100
AcDbLine
 62
7
  6
CONTINUOUS
 10
12.7560916048
 20
8.0598282029
 11
12.7919722151
 21
8.0351604744
  0
LWPOLYLINE
  5
4B6
100
AcDbEntity
  8
0
100
AcDbPolyline
 62
7
  6
CONTINUOUS
 90
4
 70
0
 10
12.9128457376
 20
7.9653757117
 10
12.9062856286
 20
7.9704560415
 10
12.8999332586
 20
7.9787152695
 10
12.8953325591
 20
7.9890152019
  0
LWPOLYLINE
  5
4B7
100
AcDbEntity
  8
0
100
AcDbPolyline
 62
7
  6
CONTINUOUS
 90
4
 70
0
 10
12.9229169565
 20
7.8848601033
 10
12.9135847167
 20
7.8821284966
 10
12.9037064718
 20
7.879924392
 10
12.8953325589
 20
7.8787873756
  0
LWPOLYLINE
  5
4B8
100
AcDbEntity
  8
0
100
AcDbPolyline
 62
7
  6
CONTINUOUS
 90
13
 70
0
 10
14.4411408866
 20
7.801462807
 10
14.4297030805
 20
7.7987403204
 10
14.3973059864
 20
7.793758857
 10
14.3682763927
 20
7.7912957562
 10
14.3415848311
 20
7.7906180596
 10
14.3158980728
 20
7.7913814313
 10
14.2902326416
 20
7.7935511056
 10
14.2649703511
 20
7.7971183371
 10
14.2405059986
 20
7.8020239189
 10
14.2167087493
 20
7.8083080612
 10
14.1934317398
 20
7.8161014681
 10
14.170632526
 20
7.8256108299
 10
14.1484092563
 20
7.8371182557
  0
LWPOLYLINE
  5
4B9
100
AcDbEntity
  8
0
100
AcDbPolyline
 62
7
  6
CONTINUOUS
 90
21
 70
0
 10
14.1201251028
 20
7.2818968942
 10
14.1455926527
 20
7.2687102116
 10
14.1717069868
 20
7.2578191112
 10
14.1983689351
 20
7.2488931843
 10
14.2256270502
 20
7.2416957653
 10
14.2536495507
 20
7.2360772662
 10
14.2825860222
 20
7.2319917247
 10
14.3119839286
 20
7.2295069847
 10
14.3414062058
 20
7.2286330122
 10
14.3719797263
 20
7.2294096671
 10
14.4052315922
 20
7.2322314404
 10
14.4423406429
 20
7.2379379112
 10
14.4829401216
 20
7.2476021503
 10
14.5250343595
 20
7.2621286687
 10
14.5655354776
 20
7.2818593536
 10
14.5997464976
 20
7.3052404233
 10
14.6249513539
 20
7.3295607183
 10
14.6417236849
 20
7.353028175
 10
14.6516258214
 20
7.3744831907
 10
14.656517745
 20
7.3937053287
 10
14.6578628116
 20
7.4104938027
  0
LWPOLYLINE
  5
4BA
100
AcDbEntity
  8
0
100
AcDbPolyline
 62
7
  6
CONTINUOUS
 90
3
 70
0
 10
12.9128372676
 20
7.9653791346
 10
12.9158055205
 20
7.9638113736
 10
12.9238999501
 20
7.9611509831
  0
LINE
  5
4BB
100
AcDbEntity
  8
0
100
AcDbLine
 62
7
  6
CONTINUOUS
 10
14.146702437
 20
7.2216443411
 11
14.1198382588
 21
7.2371540307
  0
LINE
  5
4BC
100
AcDbEntity
  8
0
100
AcDbLine
 62
7
  6
CONTINUOUS
 10
12.8405428733
 20
7.9757388568
 11
12.8136786952
 21
7.9912485465
  0
LINE
  5
4BD
100
AcDbEntity
  8
0
100
AcDbLine
 62
7
  6
CONTINUOUS
 10
12.7919722151
 20
8.0351604744
 11
12.9128424794
 21
7.9653775734
  0
LINE
  5
4BE
100
AcDbEntity
  8
0
100
AcDbLine
 62
7
  6
CONTINUOUS
 10
14.0075388146
 20
7.3333686476
 11
14.1284095957
 21
7.2635854483
  0
LINE
  5
4BF
100
AcDbEntity
  8
0
100
AcDbLine
 62
7
  6
CONTINUOUS
 10
12.7836877223
 20
8.0534719203
 11
12.8953603077
 21
7.9889991816
  0
LINE
  5
4C0
100
AcDbEntity
  8
0
100
AcDbLine
 62
7
  6
CONTINUOUS
 10
14.0084509744
 20
7.3463705238
 11
14.1201251028
 21
7.2818968942
  0
LWPOLYLINE
  5
4C1
100
AcDbEntity
  8
0
100
AcDbPolyline
 62
7
  6
CONTINUOUS
 90
6
 70
0
 10
12.7887223894
 20
8.6561481465
 10
12.7817496486
 20
8.6653552375
 10
12.775256911
 20
8.6749872828
 10
12.7688488024
 20
8.6856172655
 10
12.7623534033
 20
8.6976385634
 10
12.7559968762
 20
8.7106886202
  0
LWPOLYLINE
  5
4C2
100
AcDbEntity
  8
AXIS
100
AcDbPolyline
 62
7
  6
CONTINUOUS
 90
13
 70
0
 10
13.507348348
 20
8.6617599753
 10
13.5075734366
 20
8.6567183819
 10
13.5130449108
 20
8.6367743341
 10
13.525579046
 20
8.6179228863
 10
13.5446280403
 20
8.6009879372
 10
13.5693593612
 20
8.5867096255
 10
13.5986921313
 20
8.5757119817
 10
13.6313443678
 20
8.5684756558
 10
13.6658890114
 20
8.5653169099
 10
13.7008162953
 20
8.5663737964
 10
13.7345997295
 20
8.5716001242
 10
13.765762816
 20
8.5807674777
 10
13.7929435783
 20
8.5934751996
  0
LWPOLYLINE
  5
4C3
100
AcDbEntity
  8
0
100
AcDbPolyline
 62
7
  6
CONTINUOUS
 90
9
 70
0
 10
13.787333534
 20
7.54539224
 10
13.7468454911
 20
7.5872778029
 10
13.7079376612
 20
7.6344395826
 10
13.6720174789
 20
7.6853125737
 10
13.6396514271
 20
7.739094479
 10
13.6113499377
 20
7.7949371255
 10
13.5875593422
 20
7.8519598415
 10
13.5686548323
 20
7.9092633446
 10
13.5619547086
 20
7.9369425651
  0
LWPOLYLINE
  5
4C4
100
AcDbEntity
  8
0
100
AcDbPolyline
 62
7
  6
CONTINUOUS
 90
6
 70
0
 10
12.723271363
 20
8.8967676333
 10
12.7302441038
 20
8.8875605423
 10
12.7367368413
 20
8.877928497
 10
12.74314495
 20
8.8672985142
 10
12.749640349
 20
8.8552772163
 10
12.7559968762
 20
8.8422271596
  0
LWPOLYLINE
  5
4C5
100
AcDbEntity
  8
0
100
AcDbPolyline
 62
7
  6
CONTINUOUS
 90
5
 70
0
 10
13.2117974293
 20
8.8211947268
 10
13.2048246885
 20
8.8420350426
 10
13.198331951
 20
8.8603819415
 10
13.1919238423
 20
8.8773662144
 10
13.1865343961
 20
8.8906163146
  0
LWPOLYLINE
  5
4C6
100
AcDbEntity
  8
0
100
AcDbPolyline
 62
7
  6
CONTINUOUS
 90
14
 70
0
 10
13.9066255065
 20
8.0340014664
 10
13.9026749529
 20
8.0309153631
 10
13.8984166286
 20
8.0258395182
 10
13.894045366
 20
8.0187140239
 10
13.8899904177
 20
8.010210898
 10
13.8866376794
 20
8.0015892597
 10
13.8838995472
 20
7.9932477848
 10
13.8814728592
 20
7.9846127825
 10
13.8793039514
 20
7.9755779525
 10
13.8774986399
 20
7.9667154371
 10
13.8760718465
 20
7.9584097827
 10
13.8749336828
 20
7.9504575452
 10
13.8739270068
 20
7.9416460272
 10
13.8730548642
 20
7.9307594615
  0
LINE
  5
4C7
100
AcDbEntity
  8
0
100
AcDbLine
 62
7
  6
CONTINUOUS
 10
14.2063813502
 20
8.2070652305
 11
13.9066253664
 21
8.0340020656
  0
LWPOLYLINE
  5
4C8
100
AcDbEntity
  8
0
100
AcDbPolyline
 62
7
  6
CONTINUOUS
 90
6
 70
0
 10
14.4472048729
 20
7.8018801842
 10
14.4211826252
 20
7.8000891029
 10
14.3969517482
 20
7.7994800898
 10
14.3730367061
 20
7.8000025001
 10
14.3487958965
 20
7.8017785416
 10
14.3250733563
 20
7.8048023859
  0
LWPOLYLINE
  5
4C9
100
AcDbEntity
  8
0
100
AcDbPolyline
 62
7
  6
CONTINUOUS
 90
4
 70
0
 10
14.0084802663
 20
7.236125786
 10
14.0021934931
 20
7.2457466755
 10
13.9984737814
 20
7.2558005102
 10
13.9975813717
 20
7.2655938423
  0
LWPOLYLINE
  5
4CA
100
AcDbEntity
  8
0
100
AcDbPolyline
 62
7
  6
CONTINUOUS
 90
20
 70
0
 10
13.8054612751
 20
7.4084501168
 10
13.8026733894
 20
7.461227111
 10
13.794353699
 20
7.5163908808
 10
13.7806334103
 20
7.5730714606
 10
13.7617289004
 20
7.6303749636
 10
13.7379383048
 20
7.6873976796
 10
13.7096368155
 20
7.7432403262
 10
13.6772707637
 20
7.7970222314
 10
13.6413505814
 20
7.8478952226
 10
13.6024427515
 20
7.8950570022
 10
13.5611608735
 20
7.9377638008
 10
13.5181559875
 20
7.9753421067
 10
13.4741063061
 20
8.0071992876
 10
13.4297065191
 20
8.0328329367
 10
13.3856568376
 20
8.051838796
 10
13.3426519516
 20
8.0639171318
 10
13.3013700737
 20
8.0688774614
 10
13.2624622437
 20
8.0666415576
 10
13.2265420615
 20
8.0572446819
 10
13.2019005942
 20
8.0455779408
  0
LWPOLYLINE
  5
4CB
100
AcDbEntity
  8
0
100
AcDbPolyline
 62
7
  6
CONTINUOUS
 90
7
 70
0
 10
13.7846668494
 20
8.3084018912
 10
13.785633339
 20
8.3174247042
 10
13.7884677594
 20
8.3269494655
 10
13.7929729685
 20
8.3363168188
 10
13.7988472229
 20
8.3448988436
 10
13.8056709579
 20
8.3520882505
 10
13.8129510028
 20
8.357391754
  0
LWPOLYLINE
  5
4CC
100
AcDbEntity
  8
0
100
AcDbPolyline
 62
7
  6
CONTINUOUS
 90
3
 70
0
 10
14.1646984826
 20
8.1038152093
 10
14.15651083
 20
8.0970757543
 10
14.1374908133
 20
8.0802861242
  0
LINE
  5
4CD
100
AcDbEntity
  8
0
100
AcDbLine
 62
7
  6
CONTINUOUS
 10
14.1374908133
 20
8.0320633073
 11
13.9741202087
 21
7.9377418078
  0
LWPOLYLINE
  5
4CE
100
AcDbEntity
  8
0
100
AcDbPolyline
 62
7
  6
CONTINUOUS
 90
14
 70
0
 10
13.9741202087
 20
7.9377418078
 10
13.9695258318
 20
7.9355693914
 10
13.9631537868
 20
7.9335055638
 10
13.9550782101
 20
7.9316712668
 10
13.9460634629
 20
7.9302376712
 10
13.9373287852
 20
7.9292894624
 10
13.9291488703
 20
7.9287093163
 10
13.9208994394
 20
7.9283791294
 10
13.9124662048
 20
7.928279287
 10
13.9043662912
 20
7.9283948536
 10
13.8969171895
 20
7.9286787336
 10
13.8899070674
 20
7.9291014999
 10
13.8822756547
 20
7.9297386368
 10
13.873055565
 20
7.93077083
  0
LWPOLYLINE
  5
4CF
100
AcDbEntity
  8
0
100
AcDbPolyline
 62
7
  6
CONTINUOUS
 90
6
 70
0
 10
14.2029418397
 20
7.939263127
 10
14.2289640873
 20
7.9410542082
 10
14.2531949643
 20
7.9416632214
 10
14.2771100064
 20
7.9411408111
 10
14.3013508161
 20
7.9393647696
 10
14.3250733563
 20
7.9363409253
  0
LWPOLYLINE
  5
4D0
100
AcDbEntity
  8
0
100
AcDbPolyline
 62
7
  6
CONTINUOUS
 90
6
 70
0
 10
14.3250733563
 20
7.8048023859
 10
14.3013102456
 20
7.8091265771
 10
14.2770483955
 20
7.8148581439
 10
14.2531372442
 20
7.8217366414
 10
14.2289238029
 20
7.8298388543
 10
14.2029418397
 20
7.8396666374
  0
LWPOLYLINE
  5
4D1
100
AcDbEntity
  8
0
100
AcDbPolyline
 62
7
  6
CONTINUOUS
 90
4
 70
0
 10
13.997530809
 20
7.3495600297
 10
13.9984773385
 20
7.3477773228
 10
14.0022038681
 20
7.3464303958
 10
14.0084802663
 20
7.3463536126
  0
LWPOLYLINE
  5
4D2
100
AcDbEntity
  8
AXIS
100
AcDbPolyline
 62
7
  6
CONTINUOUS
 90
13
 70
0
 10
13.8419398946
 20
8.6617877804
 10
13.841714806
 20
8.6668293738
 10
13.8362433318
 20
8.6867734217
 10
13.8237091966
 20
8.7056248695
 10
13.8046602023
 20
8.7225598185
 10
13.7799288814
 20
8.7368381303
 10
13.7505961113
 20
8.747835774
 10
13.7179438747
 20
8.7550720999
 10
13.6833992312
 20
8.7582308458
 10
13.6484719473
 20
8.7571739593
 10
13.6146885131
 20
8.7519476316
 10
13.5835254266
 20
8.742780278
 10
13.5563446643
 20
8.7300725561
  0
LWPOLYLINE
  5
4D3
100
AcDbEntity
  8
0
100
AcDbPolyline
 62
7
  6
CONTINUOUS
 90
8
 70
0
 10
13.8054612751
 20
7.4084501168
 10
13.8026733894
 20
7.3588922229
 10
13.794353699
 20
7.3133349868
 10
13.7806334103
 20
7.2724968735
 10
13.7617289004
 20
7.2370219243
 10
13.7379383048
 20
7.2074696004
 10
13.7096368155
 20
7.1843059595
 10
13.701912231
 20
7.1795630474
  0
LWPOLYLINE
  5
4D4
100
AcDbEntity
  8
0
100
AcDbPolyline
 62
7
  6
CONTINUOUS
 90
6
 70
0
 10
14.3250733563
 20
7.9363409253
 10
14.348836467
 20
7.9320167341
 10
14.373098317
 20
7.9262851673
 10
14.3970094684
 20
7.9194066698
 10
14.4212229096
 20
7.9113044568
 10
14.4472048729
 20
7.9014766737
  0
LWPOLYLINE
  5
4D5
100
AcDbEntity
  8
0
100
AcDbPolyline
 62
7
  6
CONTINUOUS
 90
5
 70
0
 10
14.3250733563
 20
7.9363409253
 10
14.2979470171
 20
7.9416571052
 10
14.2722546361
 20
7.9489719981
 10
14.2484358169
 20
7.958160444
 10
14.2268981061
 20
7.9690652262
  0
LINE
  5
4D6
100
AcDbEntity
  8
0
100
AcDbLine
 62
7
  6
CONTINUOUS
 10
13.0307561007
 20
8.4170573669
 11
12.7836877223
 21
8.5597034189
  0
LINE
  5
4D7
100
AcDbEntity
  8
0
100
AcDbLine
 62
7
  6
CONTINUOUS
 10
14.1201251028
 20
7.7881283928
 11
13.8730516778
 21
7.9307730742
  0
LWPOLYLINE
  5
4D8
100
AcDbEntity
  8
0
100
AcDbPolyline
 62
7
  6
CONTINUOUS
 90
9
 70
0
 10
12.7836877223
 20
8.5597034189
 10
12.7608471795
 20
8.5744067956
 10
12.7419827531
 20
8.5894836073
 10
12.7265221511
 20
8.6048765959
 10
12.7140554506
 20
8.6206137911
 10
12.7043235521
 20
8.6367923112
 10
12.6972468446
 20
8.653498518
 10
12.6929428424
 20
8.6704711438
 10
12.6914254323
 20
8.6882841816
  0
LWPOLYLINE
  5
4D9
100
AcDbEntity
  8
0
100
AcDbPolyline
 62
7
  6
CONTINUOUS
 90
12
 70
0
 10
12.8119718758
 20
8.6086932817
 10
12.79204007
 20
8.6215235342
 10
12.7755689327
 20
8.6346863922
 10
12.7620698911
 20
8.6481251887
 10
12.7511849893
 20
8.6618644181
 10
12.7426878757
 20
8.6759888549
 10
12.7365089333
 20
8.6905740073
 10
12.7327507349
 20
8.7053918767
 10
12.7314284079
 20
8.7202219878
 10
12.7326021343
 20
8.7356321889
 10
12.7368683248
 20
8.7523922513
 10
12.7379566924
 20
8.7547516221
  0
LWPOLYLINE
  5
4DA
100
AcDbEntity
  8
0
100
AcDbPolyline
 62
7
  6
CONTINUOUS
 90
4
 70
0
 10
13.1191459758
 20
8.6926318542
 10
13.1131154386
 20
8.69975434
 10
13.1094293643
 20
8.7075081958
 10
13.1083415522
 20
8.7153565368
  0
LINE
  5
4DB
100
AcDbEntity
  8
0
100
AcDbLine
 62
7
  6
CONTINUOUS
 10
13.8730516778
 20
7.9307730742
 11
13.7846668494
 21
8.3084018912
  0
LWPOLYLINE
  5
4DC
100
AcDbEntity
  8
0
100
AcDbPolyline
 62
7
  6
CONTINUOUS
 90
17
 70
0
 10
13.9818820854
 20
7.3290496353
 10
13.9740330031
 20
7.4184351485
 10
13.9560430591
 20
7.5115969486
 10
13.9282652066
 20
7.6067099374
 10
13.8912349147
 20
7.7019426035
 10
13.8456715247
 20
7.7954419097
 10
13.792466648
 20
7.8853804967
 10
13.7326431652
 20
7.9700295243
 10
13.6673687899
 20
8.0477350487
 10
13.5979152942
 20
8.1169849288
 10
13.5256196933
 20
8.1764456379
 10
13.451897152
 20
8.2249526533
 10
13.3781756799
 20
8.2615677241
 10
13.3058808424
 20
8.2855817648
 10
13.2364283161
 20
8.2965249479
 10
13.171156887
 20
8.2941872415
 10
13.1113352716
 20
8.2786124345
  0
LINE
  5
4DD
100
AcDbEntity
  8
0
100
AcDbLine
 62
7
  6
CONTINUOUS
 10
13.9975306357
 20
7.3495629887
 11
13.997530809
 21
7.3495600297
  0
LINE
  5
4DE
100
AcDbEntity
  8
0
100
AcDbLine
 62
7
  6
CONTINUOUS
 10
13.9818820854
 20
7.3290496353
 11
13.9818820854
 21
7.2841420023
  0
LWPOLYLINE
  5
4DF
100
AcDbEntity
  8
0
100
AcDbPolyline
 62
7
  6
CONTINUOUS
 90
6
 70
0
 10
14.5366108762
 20
7.9690659707
 10
14.5540065888
 20
7.9784611911
 10
14.5717674019
 20
7.9867369784
 10
14.5892714872
 20
7.9936633625
 10
14.6069968628
 20
7.9995405553
 10
14.6260168796
 20
8.0047132177
  0
LWPOLYLINE
  5
4E0
100
AcDbEntity
  8
0
100
AcDbPolyline
 62
7
  6
CONTINUOUS
 90
9
 70
0
 10
14.5366108762
 20
7.9690659707
 10
14.5150733228
 20
7.958161085
 10
14.4912546361
 20
7.9489725245
 10
14.4655623605
 20
7.9416575081
 10
14.438436098
 20
7.9363411978
 10
14.4103399865
 20
7.933114557
 10
14.3817547582
 20
7.9320327945
 10
14.3531695143
 20
7.9331144196
 10
14.3250733563
 20
7.9363409253
  0
LWPOLYLINE
  5
4E1
100
AcDbEntity
  8
0
100
AcDbPolyline
 62
7
  6
CONTINUOUS
 90
17
 70
0
 10
14.2505127674
 20
7.9751330289
 10
14.2767991186
 20
7.965379957
 10
14.3052220454
 20
7.9578859579
 10
14.335202939
 20
7.9528035879
 10
14.3661314748
 20
7.9502363092
 10
14.397378037
 20
7.9502363843
 10
14.4283065358
 20
7.9528038117
 10
14.4582873561
 20
7.9578863259
 10
14.4867101748
 20
7.9653804616
 10
14.5129963853
 20
7.9751336598
 10
14.5366108762
 20
7.9869473736
 10
14.5570729246
 20
8.0005811097
 10
14.5739659821
 20
8.0157573247
 10
14.5869461548
 20
8.0321670746
 10
14.5957492039
 20
8.0494763041
 10
14.6001959246
 20
8.0673326473
 10
14.6007538464
 20
8.0763520988
  0
LINE
  5
4E2
100
AcDbEntity
  8
0
100
AcDbLine
 62
7
  6
CONTINUOUS
 10
12.9862582885
 20
8.5080682084
 11
12.8119718758
 21
8.6086932817
  0
LINE
  5
4E3
100
AcDbEntity
  8
0
100
AcDbLine
 62
7
  6
CONTINUOUS
 10
14.1484092563
 20
7.8371182557
 11
13.9741202087
 21
7.9377418078
  0
LWPOLYLINE
  5
4E4
100
AcDbEntity
  8
0
100
AcDbPolyline
 62
7
  6
CONTINUOUS
 90
5
 70
0
 10
12.8126786558
 20
8.7855467352
 10
12.7937905697
 20
8.7979812698
 10
12.7778752886
 20
8.8117327984
 10
12.7652051275
 20
8.8265660285
 10
12.7559968762
 20
8.8422271596
  0
LWPOLYLINE
  5
4E5
100
AcDbEntity
  8
0
100
AcDbPolyline
 62
7
  6
CONTINUOUS
 90
6
 70
0
 10
13.9066280013
 20
8.0340035869
 10
13.9140776738
 20
8.0109301332
 10
13.9253676386
 20
7.9883978783
 10
13.939775813
 20
7.9678479634
 10
13.9563806784
 20
7.9505947594
 10
13.9741202087
 20
7.9377418078
  0
LINE
  5
4E6
100
AcDbEntity
  8
0
100
AcDbLine
 62
7
  6
CONTINUOUS
 10
13.9066253664
 20
8.0340020656
 11
13.8399478858
 21
8.3188870424
  0
LWPOLYLINE
  5
4E7
100
AcDbEntity
  8
0
100
AcDbPolyline
 62
7
  6
CONTINUOUS
 90
5
 70
0
 10
13.9975304372
 20
7.3495616049
 10
13.9979967676
 20
7.3462783275
 10
14.0007047266
 20
7.3398541962
 10
14.0054579255
 20
7.3347428422
 10
14.0075037716
 20
7.3333872822
  0
LINE
  5
4E8
100
AcDbEntity
  8
0
100
AcDbLine
 62
7
  6
CONTINUOUS
 10
13.9975813717
 20
7.2655938423
 11
13.9975826424
 21
7.2656147313
  0
LWPOLYLINE
  5
4E9
100
AcDbEntity
  8
0
100
AcDbPolyline
 62
7
  6
CONTINUOUS
 90
5
 70
0
 10
14.0084525703
 20
7.2361417761
 10
14.0021773594
 20
7.1837958181
 10
13.9920415385
 20
7.1361834737
 10
13.978355579
 20
7.092903325
 10
13.9612626819
 20
7.0536502648
  0
LWPOLYLINE
  5
4EA
100
AcDbEntity
  8
0
100
AcDbPolyline
 62
7
  6
CONTINUOUS
 90
6
 70
0
 10
14.5366108762
 20
7.8375274313
 10
14.5192151637
 20
7.8281322108
 10
14.5014543505
 20
7.8198564235
 10
14.4839502653
 20
7.8129300395
 10
14.4662248896
 20
7.8070528467
 10
14.4472048729
 20
7.8018801842
  0
LWPOLYLINE
  5
4EB
100
AcDbEntity
  8
0
100
AcDbPolyline
 62
7
  6
CONTINUOUS
 90
3
 70
0
 10
14.5372593452
 20
7.8370853449
 10
14.5018988473
 20
7.8198592107
 10
14.4984790747
 20
7.8186791039
  0
LWPOLYLINE
  5
4EC
100
AcDbEntity
  8
0
100
AcDbPolyline
 62
7
  6
CONTINUOUS
 90
4
 70
0
 10
12.9862609234
 20
8.5080697296
 10
13.0040004138
 20
8.500439282
 10
13.0206052789
 20
8.4985191938
 10
13.036255501
 20
8.503114301
  0
LINE
  5
4ED
100
AcDbEntity
  8
0
100
AcDbLine
 62
7
  6
CONTINUOUS
 10
14.2268981061
 20
7.9869466291
 11
14.2505127674
 21
7.9751330289
  0
LWPOLYLINE
  5
4EE
100
AcDbEntity
  8
0
100
AcDbPolyline
 62
7
  6
CONTINUOUS
 90
5
 70
0
 10
14.2268981061
 20
7.9690652262
 10
14.20801002
 20
7.9814997607
 10
14.1920947389
 20
7.9952512893
 10
14.1794245777
 20
8.0100845195
 10
14.1702163265
 20
8.0257456505
  0
LWPOLYLINE
  5
4EF
100
AcDbEntity
  8
0
100
AcDbPolyline
 62
7
  6
CONTINUOUS
 90
6
 70
0
 10
14.2029418397
 20
7.8396666374
 10
14.1959690989
 20
7.8488737284
 10
14.1894763613
 20
7.8585057737
 10
14.1830682527
 20
7.8691357565
 10
14.1765728536
 20
7.8811570544
 10
14.1702163265
 20
7.8942071111
  0
LWPOLYLINE
  5
4F0
100
AcDbEntity
  8
0
100
AcDbPolyline
 62
7
  6
CONTINUOUS
 90
4
 70
0
 10
14.1201251028
 20
7.2818968942
 10
14.121088862
 20
7.2740002625
 10
14.1239144609
 20
7.2677546197
 10
14.1284095957
 20
7.2635854483
  0
LWPOLYLINE
  5
4F1
100
AcDbEntity
  8
0
100
AcDbPolyline
 62
7
  6
CONTINUOUS
 90
7
 70
0
 10
14.1627538464
 20
8.0763520988
 10
14.1633118984
 20
8.0673315972
 10
14.1677588766
 20
8.0494752753
 10
14.1765621753
 20
8.0321660881
 10
14.1895425847
 20
8.0157564007
 10
14.2064358611
 20
8.0005802669
 10
14.2268981061
 20
7.9869466291
  0
LINE
  5
4F2
100
AcDbEntity
  8
0
100
AcDbLine
 62
7
  6
CONTINUOUS
 10
14.1201251028
 20
7.2818968942
 11
14.1201251028
 21
7.7881283928
  0
LINE
  5
4F3
100
AcDbEntity
  8
0
100
AcDbLine
 62
7
  6
CONTINUOUS
 10
14.1374908133
 20
7.9806896347
 11
14.1374908133
 21
8.0802861242
  0
LINE
  5
4F4
100
AcDbEntity
  8
0
100
AcDbLine
 62
7
  6
CONTINUOUS
 10
14.1627538464
 20
8.0584706959
 11
14.1627538464
 21
8.0763520988
  0
LINE
  5
4F5
100
AcDbEntity
  8
0
100
AcDbLine
 62
7
  6
CONTINUOUS
 10
14.2029418397
 20
7.8396666374
 11
14.2029418397
 21
7.939263127
  0
LWPOLYLINE
  5
4F6
100
AcDbEntity
  8
0
100
AcDbPolyline
 62
7
  6
CONTINUOUS
 90
7
 70
0
 10
14.1201251028
 20
7.7881283928
 10
14.121088862
 20
7.7971378712
 10
14.1239144609
 20
7.806646215
 10
14.1284093396
 20
7.8160054465
 10
14.1342671796
 20
7.8245777493
 10
14.1410887787
 20
7.8317789354
 10
14.1484092563
 20
7.8371182557
  0
LWPOLYLINE
  5
4F7
100
AcDbEntity
  8
0
100
AcDbPolyline
 62
7
  6
CONTINUOUS
 90
6
 70
0
 10
14.1184182835
 20
7.1726544782
 10
14.1198026085
 20
7.1835462388
 10
14.1238200761
 20
7.1949703092
 10
14.1300774287
 20
7.2058084219
 10
14.1379621529
 20
7.2149996669
 10
14.146702437
 20
7.2216443411
  0
LWPOLYLINE
  5
4F8
100
AcDbEntity
  8
0
100
AcDbPolyline
 62
7
  6
CONTINUOUS
 90
4
 70
0
 10
14.0084802661
 20
7.3463536126
 10
14.0060137715
 20
7.340166979
 10
14.0058136237
 20
7.3356703166
 10
14.0075046429
 20
7.3333883808
  0
LWPOLYLINE
  5
4F9
100
AcDbEntity
  8
0
100
AcDbPolyline
 62
7
  6
CONTINUOUS
 90
5
 70
0
 10
14.009561914
 20
7.2747142328
 10
14.0078249311
 20
7.2704740948
 10
14.0058150778
 20
7.2594391783
 10
14.0060110077
 20
7.2476146836
 10
14.0084802661
 20
7.2361257863
  0
LWPOLYLINE
  5
4FA
100
AcDbEntity
  8
0
100
AcDbPolyline
 62
7
  6
CONTINUOUS
 90
3
 70
0
 10
14.0005345422
 20
7.2777889622
 10
13.9989537464
 20
7.2740290785
 10
13.9975810089
 20
7.2655926677
  0
LWPOLYLINE
  5
4FB
100
AcDbEntity
  8
0
100
AcDbPolyline
 62
7
  6
CONTINUOUS
 90
6
 70
0
 10
14.4472048729
 20
7.9014766737
 10
14.4662543797
 20
7.9182914584
 10
14.4839925191
 20
7.9328899437
 10
14.5014994526
 20
7.9461746612
 10
14.5192448632
 20
7.9583938264
 10
14.5366108762
 20
7.9690659707
  0
LINE
  5
4FC
100
AcDbEntity
  8
0
100
AcDbLine
 62
7
  6
CONTINUOUS
 10
14.5494596021
 20
7.8454235129
 11
14.5372593452
 21
7.8370853449
  0
LWPOLYLINE
  5
4FD
100
AcDbEntity
  8
0
100
AcDbPolyline
 62
7
  6
CONTINUOUS
 90
25
 70
0
 10
13.1881541051
 20
8.3334554142
 10
13.229354447
 20
8.3326939351
 10
13.2720412225
 20
8.3270990751
 10
13.3159283151
 20
8.3167106482
 10
13.3607240042
 20
8.3015993068
 10
13.4061313815
 20
8.2818657555
 10
13.4518484937
 20
8.2576408388
 10
13.4975695059
 20
8.2290857384
 10
13.5429860381
 20
8.1963922776
 10
13.5877909893
 20
8.1597813027
 10
13.6316822181
 20
8.1195000392
 10
13.6743668247
 20
8.0758176392
 10
13.7155635478
 20
8.029021167
 10
13.7549989297
 20
7.9794188613
 10
13.792406135
 20
7.9273433206
 10
13.827529654
 20
7.8731479417
 10
13.8601303847
 20
7.8172006078
 10
13.8899965805
 20
7.759861881
 10
13.9169354741
 20
7.7014920485
 10
13.9407347148
 20
7.6425480874
 10
13.9612084138
 20
7.5835205154
 10
13.9783037741
 20
7.5245586768
 10
13.992002126
 20
7.4654724603
 10
14.0021583462
 20
7.406097872
 10
14.0084509744
 20
7.3463705238
  0
LINE
  5
4FE
100
AcDbEntity
  8
0
100
AcDbLine
 62
7
  6
CONTINUOUS
 10
12.8126786558
 20
8.8034281382
 11
12.8362933171
 21
8.7916145379
  0
LINE
  5
4FF
100
AcDbEntity
  8
0
100
AcDbLine
 62
7
  6
CONTINUOUS
 10
13.7846668494
 20
8.3084018912
 11
13.1191459758
 21
8.6926318542
  0
LINE
  5
500
100
AcDbEntity
  8
0
100
AcDbLine
 62
7
  6
CONTINUOUS
 10
13.8129510028
 20
8.357391754
 11
13.1474301293
 21
8.7416217171
  0
LWPOLYLINE
  5
501
100
AcDbEntity
  8
0
100
AcDbPolyline
 62
7
  6
CONTINUOUS
 90
6
 70
0
 10
13.8129510028
 20
8.357391754
 10
13.8200468006
 20
8.3522506139
 10
13.8266887502
 20
8.3453493576
 10
13.8324520316
 20
8.3371293905
 10
13.8369680247
 20
8.3281164628
 10
13.8399478858
 20
8.3188870424
  0
LWPOLYLINE
  5
502
100
AcDbEntity
  8
0
100
AcDbPolyline
 62
7
  6
CONTINUOUS
 90
6
 70
0
 10
14.1374908133
 20
8.0802861242
 10
14.1444635541
 20
8.0710790332
 10
14.1509562916
 20
8.0614469879
 10
14.1573644003
 20
8.0508170052
 10
14.1638597993
 20
8.0387957073
 10
14.1702163265
 20
8.0257456505
  0
LWPOLYLINE
  5
503
100
AcDbEntity
  8
0
100
AcDbPolyline
 62
7
  6
CONTINUOUS
 90
6
 70
0
 10
14.1702163265
 20
7.8942071111
 10
14.1638489283
 20
7.9085746617
 10
14.1573478914
 20
7.9245603776
 10
14.1509408253
 20
7.941544803
 10
14.1444527597
 20
7.9598807053
 10
14.1374908133
 20
7.9806896347
  0
LWPOLYLINE
  5
504
100
AcDbEntity
  8
0
100
AcDbPolyline
 62
7
  6
CONTINUOUS
 90
6
 70
0
 10
14.1702163265
 20
8.0257456505
 10
14.1765837246
 20
8.0113780999
 10
14.1830847615
 20
7.9953923841
 10
14.1894918276
 20
7.9784079586
 10
14.1959798932
 20
7.9600720563
 10
14.2029418397
 20
7.939263127
  0
LWPOLYLINE
  5
505
100
AcDbEntity
  8
0
100
AcDbPolyline
 62
7
  6
CONTINUOUS
 90
3
 70
0
 10
14.1702163265
 20
8.0257456505
 10
14.1646275408
 20
8.0419667162
 10
14.1627538464
 20
8.0584706959
  0
LWPOLYLINE
  5
506
100
AcDbEntity
  8
0
100
AcDbPolyline
 62
7
  6
CONTINUOUS
 90
5
 70
0
 10
14.2408054808
 20
8.558382003
 10
14.2409477091
 20
8.5566800635
 10
14.2393801766
 20
8.55236924
 10
14.2352555774
 20
8.5478469319
 10
14.2288549963
 20
8.543421327
  0
LINE
  5
507
100
AcDbEntity
  8
0
100
AcDbLine
 62
7
  6
CONTINUOUS
 10
14.2491721714
 20
7.1931028073
 11
14.2491721714
 21
7.2212309042
  0
LWPOLYLINE
  5
508
100
AcDbEntity
  8
0
100
AcDbPolyline
 62
7
  6
CONTINUOUS
 90
33
 70
0
 10
13.9612626819
 20
7.0536502648
 10
13.9407851242
 20
7.0182315264
 10
13.9169808592
 20
6.9867443267
 10
13.8900362361
 20
6.9594625884
 10
13.8601624118
 20
6.9365957075
 10
13.8275516663
 20
6.9182808831
 10
13.7924161054
 20
6.9046344455
 10
13.7549954739
 20
6.8957483693
 10
13.715544646
 20
6.8916809008
 10
13.6743300812
 20
6.8924567978
 10
13.6316292577
 20
6.8980682187
 10
13.5877285007
 20
6.908475227
 10
13.5429197385
 20
6.9236070276
 10
13.4975001054
 20
6.943362744
 10
13.4517717962
 20
6.9676113223
 10
13.4060408885
 20
6.9961913348
 10
13.3606159859
 20
7.0289106872
 10
13.3158043828
 20
7.0655482532
 10
13.2719083965
 20
7.1058565153
 10
13.229221024
 20
7.1495660868
 10
13.1880236385
 20
7.1963896549
 10
13.1485899366
 20
7.2460185531
 10
13.1111870115
 20
7.2981196359
 10
13.0760702958
 20
7.3523393694
 10
13.0434785187
 20
7.4083103292
 10
13.013624058
 20
7.4656707233
 10
12.9867009657
 20
7.524056968
 10
12.9629194478
 20
7.5830159735
 10
12.9424620582
 20
7.6420677619
 10
12.9253879928
 20
7.7010461605
 10
12.9117247423
 20
7.7600944061
 10
12.9016147949
 20
7.8193281533
 10
12.8953589852
 20
7.8787721188
  0
LWPOLYLINE
  5
509
100
AcDbEntity
  8
0
100
AcDbPolyline
 62
7
  6
CONTINUOUS
 90
6
 70
0
 10
14.6260168796
 20
7.9051167282
 10
14.6069673728
 20
7.8883019435
 10
14.5892292334
 20
7.8737034583
 10
14.5717222999
 20
7.8604187407
 10
14.5539768893
 20
7.8481995756
 10
14.5366108762
 20
7.8375274313
  0
LINE
  5
50A
100
AcDbEntity
  8
0
100
AcDbLine
 62
7
  6
CONTINUOUS
 10
14.0006834932
 20
7.3399045684
 11
13.9818820854
 21
7.3290496353
  0
LWPOLYLINE
  5
50B
100
AcDbEntity
  8
0
100
AcDbPolyline
 62
7
  6
CONTINUOUS
 90
20
 70
0
 10
13.701912231
 20
7.1795630474
 10
13.6772707637
 20
7.1678963062
 10
13.6413505814
 20
7.1584994305
 10
13.6024427515
 20
7.1562635268
 10
13.5611608735
 20
7.1612238564
 10
13.5181559875
 20
7.1733021922
 10
13.4741063061
 20
7.1923080515
 10
13.4297065191
 20
7.2179417006
 10
13.3856568376
 20
7.2497988814
 10
13.3426519516
 20
7.2873771874
 10
13.3013700737
 20
7.330083986
 10
13.2624622437
 20
7.3772457656
 10
13.2265420615
 20
7.4281187568
 10
13.1941760097
 20
7.481900662
 10
13.1658745203
 20
7.5377433086
 10
13.1420839247
 20
7.5947660245
 10
13.1231794149
 20
7.6520695276
 10
13.1094591261
 20
7.7087501074
 10
13.1011394357
 20
7.7639138771
 10
13.09835155
 20
7.8166908713
  0
LWPOLYLINE
  5
50C
100
AcDbEntity
  8
0
100
AcDbPolyline
 62
7
  6
CONTINUOUS
 90
6
 70
0
 10
12.910853906
 20
8.6212838949
 10
12.8870907953
 20
8.6256080861
 10
12.8628289452
 20
8.6313396529
 10
12.8389177939
 20
8.6382181504
 10
12.8147043526
 20
8.6463203634
 10
12.7887223894
 20
8.6561481465
  0
LWPOLYLINE
  5
50D
100
AcDbEntity
  8
0
100
AcDbPolyline
 62
7
  6
CONTINUOUS
 90
17
 70
0
 10
12.8362933171
 20
8.7916145379
 10
12.8625796683
 20
8.7818614661
 10
12.8910025951
 20
8.774367467
 10
12.9209834887
 20
8.7692850969
 10
12.9519120245
 20
8.7667178182
 10
12.9831585867
 20
8.7667178933
 10
13.0140870855
 20
8.7692853207
 10
13.0440679058
 20
8.7743678349
 10
13.0724907245
 20
8.7818619706
 10
13.098776935
 20
8.7916151689
 10
13.122391426
 20
8.8034288826
 10
13.1428534743
 20
8.8170626188
 10
13.1597465318
 20
8.8322388338
 10
13.1727267046
 20
8.8486485836
 10
13.1815297536
 20
8.8659578131
 10
13.1859764743
 20
8.8838141563
 10
13.1865343961
 20
8.8928336079
  0
LINE
  5
50E
100
AcDbEntity
  8
0
100
AcDbLine
 62
7
  6
CONTINUOUS
 10
13.2094215674
 20
8.8282957669
 11
13.2417734517
 21
8.8096183905
  0
LINE
  5
50F
100
AcDbEntity
  8
0
100
AcDbLine
 62
7
  6
CONTINUOUS
 10
13.2208786469
 20
8.8352086817
 11
13.2534882955
 21
8.8163819183
  0
LWPOLYLINE
  5
510
100
AcDbEntity
  8
0
100
AcDbPolyline
 62
7
  6
CONTINUOUS
 90
6
 70
0
 10
13.8456715247
 20
6.9750285776
 10
13.8912349147
 20
7.015917003
 10
13.9282652066
 20
7.0683917385
 10
13.9560430591
 20
7.1314303516
 10
13.9740330031
 20
7.2038196236
 10
13.9818820854
 20
7.2841420023
  0
LWPOLYLINE
  5
511
100
AcDbEntity
  8
0
100
AcDbPolyline
 62
7
  6
CONTINUOUS
 90
6
 70
0
 10
12.910853906
 20
8.7528224343
 10
12.9346170167
 20
8.7484982431
 10
12.9588788667
 20
8.7427666763
 10
12.9827900181
 20
8.7358881788
 10
13.0070034593
 20
8.7277859659
 10
13.0329854226
 20
8.7179581828
  0
LWPOLYLINE
  5
512
100
AcDbEntity
  8
0
100
AcDbPolyline
 62
7
  6
CONTINUOUS
 90
5
 70
0
 10
12.910853906
 20
8.7528224343
 10
12.8837275668
 20
8.7581386143
 10
12.8580351858
 20
8.7654535071
 10
12.8342163666
 20
8.7746419531
 10
12.8126786558
 20
8.7855467352
  0
LINE
  5
513
100
AcDbEntity
  8
0
100
AcDbLine
 62
7
  6
CONTINUOUS
 10
13.2208786469
 20
8.8352086817
 11
13.2044632604
 21
8.8430563507
  0
LWPOLYLINE
  5
514
100
AcDbEntity
  8
0
100
AcDbPolyline
 62
7
  6
CONTINUOUS
 90
18
 70
0
 10
14.4912519885
 20
8.2660127349
 10
14.4657272366
 20
8.2786129941
 10
14.4392748287
 20
8.2876630938
 10
14.4133073084
 20
8.2930670707
 10
14.3882844687
 20
8.295254705
 10
14.3638600744
 20
8.2946198539
 10
14.3400250658
 20
8.2913397935
 10
14.3163776308
 20
8.2853663338
 10
14.2936038764
 20
8.2768279896
 10
14.2710880077
 20
8.2653337702
 10
14.2483714052
 20
8.2500475921
 10
14.2291738139
 20
8.2334518559
 10
14.2096823016
 20
8.2118230679
 10
14.1946116319
 20
8.1901009078
 10
14.1810143927
 20
8.1639002096
 10
14.1711028632
 20
8.1362450304
 10
14.1649389865
 20
8.1072117248
 10
14.1627538464
 20
8.0763520988
  0
LWPOLYLINE
  5
515
100
AcDbEntity
  8
0
100
AcDbPolyline
 62
7
  6
CONTINUOUS
 90
6
 70
0
 10
14.2288549963
 20
8.543421327
 10
14.2259173868
 20
8.552547673
 10
14.2214212817
 20
8.5615592919
 10
14.2156383395
 20
8.569831808
 10
14.2089820569
 20
8.5767602083
 10
14.2018581133
 20
8.5819260387
  0
LINE
  5
516
100
AcDbEntity
  8
0
100
AcDbLine
 62
7
  6
CONTINUOUS
 10
14.2288549963
 20
8.543421327
 11
14.2915074408
 21
8.2757577715
  0
LINE
  5
517
100
AcDbEntity
  8
0
100
AcDbLine
 62
7
  6
CONTINUOUS
 10
14.2408054808
 20
8.558382003
 11
14.3056492692
 21
8.2813440526
  0
LINE
  5
518
100
AcDbEntity
  8
0
100
AcDbLine
 62
7
  6
CONTINUOUS
 10
14.4472048729
 20
7.8018801842
 11
14.4472048729
 21
7.9014766737
  0
LWPOLYLINE
  5
519
100
AcDbEntity
  8
0
100
AcDbPolyline
 62
7
  6
CONTINUOUS
 90
6
 70
0
 10
13.8551868753
 20
6.9793790766
 10
13.9026270158
 20
7.0159083734
 10
13.940660508
 20
7.0643791918
 10
13.9692135523
 20
7.1233503998
 10
13.988348664
 20
7.1920040837
 10
13.997582653
 20
7.2656149051
  0
LINE
  5
51A
100
AcDbEntity
  8
0
100
AcDbLine
 62
7
  6
CONTINUOUS
 10
13.8269121881
 20
6.9630611311
 11
13.8456715247
 21
6.9750285776
  0
LINE
  5
51B
100
AcDbEntity
  8
0
100
AcDbLine
 62
7
  6
CONTINUOUS
 10
13.8551868753
 20
6.9793790766
 11
13.8269047337
 21
6.963050472
  0
LWPOLYLINE
  5
51C
100
AcDbEntity
  8
0
100
AcDbPolyline
 62
7
  6
CONTINUOUS
 90
6
 70
0
 10
13.0329854226
 20
8.6183616932
 10
13.0069631749
 20
8.616570612
 10
12.982732298
 20
8.6159615988
 10
12.9588172558
 20
8.6164840091
 10
12.9345764462
 20
8.6182600506
 10
12.910853906
 20
8.6212838949
  0
LWPOLYLINE
  5
51D
100
AcDbEntity
  8
0
100
AcDbPolyline
 62
7
  6
CONTINUOUS
 90
4
 70
0
 10
13.2208786469
 20
8.8352086817
 10
13.215021063
 20
8.8370168262
 10
13.2081994639
 20
8.836341155
 10
13.2069128396
 20
8.8357939204
  0
LWPOLYLINE
  5
51E
100
AcDbEntity
  8
0
100
AcDbPolyline
 62
7
  6
CONTINUOUS
 90
18
 70
0
 10
13.0770325383
 20
9.0824942439
 10
13.0515077863
 20
9.0950945031
 10
13.0250553784
 20
9.1041446029
 10
12.9990878581
 20
9.1095485798
 10
12.9740650184
 20
9.111736214
 10
12.9496406241
 20
9.111101363
 10
12.9258056155
 20
9.1078213026
 10
12.9021581805
 20
9.1018478429
 10
12.8793844261
 20
9.0933094986
 10
12.8568685574
 20
9.0818152793
 10
12.8341519549
 20
9.0665291011
 10
12.8149543636
 20
9.0499333649
 10
12.7954628513
 20
9.0283045769
 10
12.7803921816
 20
9.0065824168
 10
12.7667949424
 20
8.9803817186
 10
12.7568834129
 20
8.9527265394
 10
12.7507195362
 20
8.9236932338
 10
12.7485343961
 20
8.8928336079
  0
LWPOLYLINE
  5
51F
100
AcDbEntity
  8
0
100
AcDbPolyline
 62
7
  6
CONTINUOUS
 90
4
 70
0
 10
14.2408054808
 20
8.558382003
 10
14.2370648828
 20
8.5682523419
 10
14.2308309808
 20
8.5768444291
 10
14.2218567945
 20
8.5839077195
  0
LWPOLYLINE
  5
520
100
AcDbEntity
  8
0
100
AcDbPolyline
 62
7
  6
CONTINUOUS
 90
9
 70
0
 10
14.6007538464
 20
8.0763520988
 10
14.598903653
 20
8.1047591665
 10
14.5932975238
 20
8.1330113659
 10
14.5839113637
 20
8.1605740568
 10
14.5708505923
 20
8.1868211928
 10
14.5543914476
 20
8.2111009714
 10
14.5350740684
 20
8.2327295574
 10
14.5141362864
 20
8.2508109467
 10
14.4912519885
 20
8.2660127349
  0
LINE
  5
521
100
AcDbEntity
  8
0
100
AcDbLine
 62
7
  6
CONTINUOUS
 10
14.6007538464
 20
8.0584706959
 11
14.6007538464
 21
8.0763520988
  0
LINE
  5
522
100
AcDbEntity
  8
0
100
AcDbLine
 62
7
  6
CONTINUOUS
 10
14.6244599444
 20
7.3104728316
 11
14.6244599444
 21
7.3215761949
  0
LINE
  5
523
100
AcDbEntity
  8
0
100
AcDbLine
 62
7
  6
CONTINUOUS
 10
14.6260168796
 20
7.9051167282
 11
14.6260168796
 21
8.0047132177
  0
LWPOLYLINE
  5
524
100
AcDbEntity
  8
0
100
AcDbPolyline
 62
7
  6
CONTINUOUS
 90
21
 70
0
 10
14.6578628116
 20
7.9167253013
 10
14.6565176062
 20
7.8999359634
 10
14.6516255039
 20
7.8807137819
 10
14.6417231174
 20
7.8592586899
 10
14.6249504499
 20
7.8357911667
 10
14.5997451873
 20
7.811470856
 10
14.565533801
 20
7.7880898848
 10
14.5250325144
 20
7.7683594121
 10
14.482938305
 20
7.7538331283
 10
14.4423389418
 20
7.744169083
 10
14.4052300229
 20
7.738462756
 10
14.3719782319
 20
7.7356410856
 10
14.3414047821
 20
7.7348645146
 10
14.3119826487
 20
7.7357385561
 10
14.2825850512
 20
7.7382233326
 10
14.2536489773
 20
7.7423088625
 10
14.2256268322
 20
7.7479273144
 10
14.1983689747
 20
7.7551246711
 10
14.171707157
 20
7.7640505463
 10
14.1455928097
 20
7.7749416375
 10
14.1201251028
 20
7.7881283928
  0
LWPOLYLINE
  5
525
100
AcDbEntity
  8
0
100
AcDbPolyline
 62
7
  6
CONTINUOUS
 90
7
 70
0
 10
14.6007538464
 20
8.0584706959
 10
14.5988803901
 20
8.04196776
 10
14.5932918384
 20
8.0257466675
 10
14.584083813
 20
8.0100854922
 10
14.5714138658
 20
7.9952522011
 10
14.555498783
 20
7.981500596
 10
14.5366108762
 20
7.9690659707
  0
LWPOLYLINE
  5
526
100
AcDbEntity
  8
0
100
AcDbPolyline
 62
7
  6
CONTINUOUS
 90
6
 70
0
 10
12.7887223894
 20
8.755744636
 10
12.814744637
 20
8.7575357173
 10
12.838975514
 20
8.7581447304
 10
12.8628905562
 20
8.7576223201
 10
12.8871313658
 20
8.7558462786
 10
12.910853906
 20
8.7528224343
  0
LINE
  5
527
100
AcDbEntity
  8
0
100
AcDbLine
 62
7
  6
CONTINUOUS
 10
13.5363372397
 20
8.9661560017
 11
14.2018581133
 21
8.5819260387
  0
LINE
  5
528
100
AcDbEntity
  8
0
100
AcDbLine
 62
7
  6
CONTINUOUS
 10
13.5563369004
 20
8.9681371171
 11
14.221857774
 21
8.583907154
  0
LWPOLYLINE
  5
529
100
AcDbEntity
  8
0
100
AcDbPolyline
 62
7
  6
CONTINUOUS
 90
4
 70
0
 10
14.6258460884
 20
8.0045997286
 10
14.6420820533
 20
7.980166025
 10
14.6539676736
 20
7.9486253124
 10
14.6578628116
 20
7.9167253013
  0
LWPOLYLINE
  5
52A
100
AcDbEntity
  8
0
100
AcDbPolyline
 62
7
  6
CONTINUOUS
 90
5
 70
0
 10
14.6260168796
 20
8.0047132177
 10
14.6190441388
 20
8.0255535335
 10
14.6125514013
 20
8.0439004325
 10
14.6061432926
 20
8.0608847054
 10
14.6007538464
 20
8.0741348056
  0
LINE
  5
52B
100
AcDbEntity
  8
0
100
AcDbLine
 62
7
  6
CONTINUOUS
 10
14.6578628116
 20
7.9167253013
 11
14.6578628116
 21
7.4104938027
  0
LWPOLYLINE
  5
52C
100
AcDbEntity
  8
0
100
AcDbPolyline
 62
7
  6
CONTINUOUS
 90
4
 70
0
 10
14.6562583375
 20
7.2938789406
 10
14.6563852598
 20
7.3050065557
 10
14.6513546129
 20
7.3373877504
 10
14.6443565248
 20
7.3542369296
  0
LINE
  5
52D
100
AcDbEntity
  8
0
100
AcDbLine
 62
7
  6
CONTINUOUS
 10
14.6562654608
 20
7.2940112893
 11
14.6562584095
 21
7.2938789835
  0
LWPOLYLINE
  5
52E
100
AcDbEntity
  8
0
100
AcDbPolyline
 62
7
  6
CONTINUOUS
 90
21
 70
0
 10
14.6562584095
 20
7.2938789835
 10
14.6550951708
 20
7.2828909938
 10
14.6502348448
 20
7.2635672671
 10
14.6403698971
 20
7.2420206811
 10
14.6236366647
 20
7.2184711669
 10
14.5984654597
 20
7.1940869824
 10
14.5642665658
 20
7.1706677386
 10
14.5237390595
 20
7.150933885
 10
14.4815845716
 20
7.1364442772
 10
14.440909186
 20
7.126852749
 10
14.4037240243
 20
7.1212437652
 10
14.3704049392
 20
7.1185342677
 10
14.3397780557
 20
7.1178813759
 10
14.3103142197
 20
7.1188923628
 10
14.2808849232
 20
7.1215312867
 10
14.2519214714
 20
7.1257867917
 10
14.2238758667
 20
7.1315890987
 10
14.196605607
 20
7.1389837662
 10
14.1699465232
 20
7.1481201306
 10
14.1438518686
 20
7.159233928
 10
14.1184159084
 20
7.1726558798
  0
LWPOLYLINE
  5
52F
100
AcDbEntity
  8
0
100
AcDbPolyline
 62
7
  6
CONTINUOUS
 90
3
 70
0
 10
14.6578628116
 20
7.4104938027
 10
14.6532941969
 20
7.3759695079
 10
14.6392071459
 20
7.3417158528
  0
LWPOLYLINE
  5
530
100
AcDbEntity
  8
0
100
AcDbPolyline
 62
7
  6
CONTINUOUS
 90
12
 70
0
 10
14.6392071459
 20
7.3417158528
 10
14.6153474257
 20
7.3091315959
 10
14.5819891433
 20
7.2795863278
 10
14.5406577226
 20
7.2546369283
 10
14.4932238831
 20
7.2351191546
 10
14.4415158925
 20
7.2214073469
 10
14.3871245802
 20
7.2136319438
 10
14.3315822547
 20
7.2118480189
 10
14.2764149923
 20
7.2160520426
 10
14.223132886
 20
7.2261809735
 10
14.1732756781
 20
7.2421014884
 10
14.1284095957
 20
7.2635854483
  0
LWPOLYLINE
  5
531
100
AcDbEntity
  8
0
100
AcDbPolyline
 62
7
  6
CONTINUOUS
 90
4
 70
0
 10
13.5563369004
 20
8.9681371171
 10
13.5504793165
 20
8.9699452615
 10
13.5436577173
 20
8.9692695904
 10
13.5363372397
 20
8.9661560017
  0
LINE
  5
532
100
AcDbEntity
  8
0
100
AcDbLine
 62
7
  6
CONTINUOUS
 10
13.5563369004
 20
8.9681371171
 11
13.5462054418
 21
8.9722595296
  0
LWPOLYLINE
  5
533
100
AcDbEntity
  8
0
100
AcDbPolyline
 62
7
  6
CONTINUOUS
 90
5
 70
0
 10
13.5363372397
 20
8.9661560017
 10
13.5293190824
 20
8.9691864717
 10
13.5226746557
 20
8.9699808887
 10
13.5168714555
 20
8.9684293011
 10
13.5163393802
 20
8.9681381567
  0
LWPOLYLINE
  5
534
100
AcDbEntity
  8
0
100
AcDbPolyline
 62
7
  6
CONTINUOUS
 90
4
 70
0
 10
13.5462054418
 20
8.9722595296
 10
13.5351778621
 20
8.9734790995
 10
13.5241234047
 20
8.9715855655
 10
13.5163393802
 20
8.9681381567
  0
LINE
  5
535
100
AcDbEntity
  8
0
100
AcDbLine
 62
7
  6
CONTINUOUS
 10
3.3939501894
 20
8.9020417074
 11
3.3939501894
 21
8.6491622895
  0
LINE
  5
536
100
AcDbEntity
  8
0
100
AcDbLine
 62
7
  6
CONTINUOUS
 10
3.6679501894
 20
9.0906019984
 11
3.6679501894
 21
9.0506019984
  0
LINE
  5
537
100
AcDbEntity
  8
0
100
AcDbLine
 62
7
  6
CONTINUOUS
 10
3.6679501894
 20
8.4606019984
 11
3.6679501894
 21
8.5006019984
  0
LINE
  5
538
100
AcDbEntity
  8
0
100
AcDbLine
 62
7
  6
CONTINUOUS
 10
3.8319501894
 20
8.6491622895
 11
3.8319501894
 21
8.9020417074
  0
LINE
  5
539
100
AcDbEntity
  8
0
100
AcDbLine
 62
7
  6
CONTINUOUS
 10
3.914431098
 20
9.0506057598
 11
3.914431098
 21
8.5005982721
  0
LINE
  5
53A
100
AcDbEntity
  8
0
100
AcDbLine
 62
7
  6
CONTINUOUS
 10
3.6129501894
 20
9.0284814163
 11
3.3939501894
 21
8.9020417074
  0
LINE
  5
53B
100
AcDbEntity
  8
0
100
AcDbLine
 62
7
  6
CONTINUOUS
 10
3.3939501894
 20
8.6491622895
 11
3.6129501894
 21
8.5227225805
  0
LWPOLYLINE
  5
53C
100
AcDbEntity
  8
0
100
AcDbPolyline
 62
7
  6
CONTINUOUS
 90
14
 70
0
 10
3.9144317631
 20
8.5005982721
 10
3.9154194828
 20
8.4950820002
 10
3.918632527
 20
8.4892936316
 10
3.9242823308
 20
8.4835238033
 10
3.9318461431
 20
8.4783386109
 10
3.9400529333
 20
8.474192993
 10
3.9483516161
 20
8.4709235667
 10
3.9572313431
 20
8.4681368319
 10
3.9667846033
 20
8.465763668
 10
3.9763840788
 20
8.4639081437
 10
3.9855682187
 20
8.4625576935
 10
3.9945231167
 20
8.4615988156
 10
4.0046259208
 20
8.4609092155
 10
4.0173564312
 20
8.4606019984
  0
LWPOLYLINE
  5
53D
100
AcDbEntity
  8
0
100
AcDbPolyline
 62
7
  6
CONTINUOUS
 90
14
 70
0
 10
4.0098790958
 20
8.5006019984
 10
4.0099553681
 20
8.4950761305
 10
4.0101848567
 20
8.4892915994
 10
4.0105915666
 20
8.4835290371
 10
4.0111437837
 20
8.4783398508
 10
4.0117413329
 20
8.4741924798
 10
4.0123443205
 20
8.470923059
 10
4.0129894794
 20
8.4681363958
 10
4.0136833608
 20
8.4657634518
 10
4.0143806932
 20
8.4639080721
 10
4.0150479243
 20
8.4625576731
 10
4.0156986218
 20
8.461598808
 10
4.0164326484
 20
8.4609092146
 10
4.0173578259
 20
8.4606019984
  0
LINE
  5
53E
100
AcDbEntity
  8
0
100
AcDbLine
 62
7
  6
CONTINUOUS
 10
4.0098790958
 20
9.0506019984
 11
4.0098790958
 21
8.5006019984
  0
LINE
  5
53F
100
AcDbEntity
  8
0
100
AcDbLine
 62
7
  6
CONTINUOUS
 10
4.1041786268
 20
9.0506019984
 11
4.1041786268
 21
8.5006019984
  0
LWPOLYLINE
  5
540
100
AcDbEntity
  8
0
100
AcDbPolyline
 62
7
  6
CONTINUOUS
 90
7
 70
0
 10
4.1041786268
 20
9.0506019984
 10
4.1054840165
 20
9.0609722028
 10
4.1093122342
 20
9.0706356491
 10
4.115395073
 20
9.0789218648
 10
4.1233267402
 20
9.0852783365
 10
4.1325379349
 20
9.0892562701
 10
4.1423578259
 20
9.0906019984
  0
LINE
  5
541
100
AcDbEntity
  8
0
100
AcDbLine
 62
7
  6
CONTINUOUS
 10
4.1423578259
 20
9.0906019984
 11
4.1423578259
 21
8.4606019984
  0
LWPOLYLINE
  5
542
100
AcDbEntity
  8
0
100
AcDbPolyline
 62
7
  6
CONTINUOUS
 90
14
 70
0
 10
4.0173577464
 20
9.0906019984
 10
4.0164290306
 20
9.090292364
 10
4.0156924638
 20
9.0895976798
 10
4.0150389919
 20
9.0886307769
 10
4.0143681846
 20
9.0872668146
 10
4.0136674871
 20
9.0853924906
 10
4.0129709521
 20
9.0829959906
 10
4.0123246171
 20
9.0801852913
 10
4.0117241159
 20
9.0769064582
 10
4.0111363164
 20
9.0728036713
 10
4.0105938733
 20
9.0677002403
 10
4.0101879794
 20
9.061970735
 10
4.0099560202
 20
9.0561523654
 10
4.0098790958
 20
9.0506019984
  0
LWPOLYLINE
  5
543
100
AcDbEntity
  8
0
100
AcDbPolyline
 62
7
  6
CONTINUOUS
 90
7
 70
0
 10
4.1423578259
 20
8.4606019984
 10
4.1324625769
 20
8.4619688269
 10
4.1232412431
 20
8.4659773194
 10
4.1153315497
 20
8.4723486737
 10
4.1092638774
 20
8.4806561585
 10
4.1054649706
 20
8.4903064173
 10
4.1041786268
 20
8.5006019984
  0
LINE
  5
544
100
AcDbEntity
  8
0
100
AcDbLine
 62
7
  6
CONTINUOUS
 10
3.6129501894
 20
8.5227225805
 11
3.8319501894
 21
8.6491622895
  0
LINE
  5
545
100
AcDbEntity
  8
0
100
AcDbLine
 62
7
  6
CONTINUOUS
 10
5.5579501894
 20
8.4606019984
 11
3.6679501894
 21
8.4606019984
  0
LINE
  5
546
100
AcDbEntity
  8
0
100
AcDbLine
 62
7
  6
CONTINUOUS
 10
5.5579501894
 20
8.5006019984
 11
3.6679501894
 21
8.5006019984
  0
LINE
  5
547
100
AcDbEntity
  8
0
100
AcDbLine
 62
7
  6
CONTINUOUS
 10
3.8319501894
 20
8.9020417074
 11
3.6129501894
 21
9.0284814163
  0
LINE
  5
548
100
AcDbEntity
  8
0
100
AcDbLine
 62
7
  6
CONTINUOUS
 10
4.7377968454
 20
8.6656019984
 11
4.4881035333
 21
8.6656019984
  0
LINE
  5
549
100
AcDbEntity
  8
AXIS
100
AcDbLine
 62
7
  6
CENTER
 10
4.6129501894
 20
8.7756019984
 11
4.6129501894
 21
8.4041150418
  0
LINE
  5
54A
100
AcDbEntity
  8
AXIS
100
AcDbLine
 62
7
  6
CENTER
 10
4.6129501894
 20
8.7756019984
 11
4.6129501894
 21
9.147088955
  0
LINE
  5
54B
100
AcDbEntity
  8
AXIS
100
AcDbLine
 62
7
  6
CENTER
 10
4.6129501894
 20
8.7756019984
 11
4.2414632327
 21
8.7756019984
  0
LINE
  5
54C
100
AcDbEntity
  8
AXIS
100
AcDbLine
 62
7
  6
CENTER
 10
4.6129501894
 20
8.7756019984
 11
4.984437146
 21
8.7756019984
  0
LINE
  5
54D
100
AcDbEntity
  8
0
100
AcDbLine
 62
7
  6
CONTINUOUS
 10
4.4881035333
 20
8.8856019984
 11
4.7377968454
 21
8.8856019984
  0
LINE
  5
54E
100
AcDbEntity
  8
0
100
AcDbLine
 62
7
  6
CONTINUOUS
 10
5.6129501894
 20
9.0284814163
 11
5.3939501894
 21
8.9020417074
  0
LWPOLYLINE
  5
54F
100
AcDbEntity
  8
0
100
AcDbPolyline
 62
7
  6
CONTINUOUS
 90
14
 70
0
 10
4.0173578259
 20
9.0906019984
 10
4.0045760969
 20
9.0902923631
 10
3.994438359
 20
9.0895976722
 10
3.9854452919
 20
9.088630756
 10
3.9762118919
 20
9.0872667406
 10
3.9665660234
 20
9.0853922665
 10
3.9569761058
 20
9.0829955368
 10
3.9480801694
 20
9.0801847623
 10
3.9398161482
 20
9.0769059547
 10
3.9317419415
 20
9.0728047452
 10
3.9243129086
 20
9.0677053874
 10
3.9186769991
 20
9.0619688697
 10
3.9154283049
 20
9.0561464538
 10
3.9144317723
 20
9.0506057598
  0
LINE
  5
550
100
AcDbEntity
  8
0
100
AcDbLine
 62
7
  6
CONTINUOUS
 10
3.6679501894
 20
9.0506019984
 11
5.5579501894
 21
9.0506019984
  0
LINE
  5
551
100
AcDbEntity
  8
0
100
AcDbLine
 62
7
  6
CONTINUOUS
 10
3.6679501894
 20
9.0906019984
 11
5.5579501894
 21
9.0906019984
  0
LWPOLYLINE
  5
552
100
AcDbEntity
  8
0
100
AcDbPolyline
 62
7
  6
CONTINUOUS
 90
14
 70
0
 10
5.2085440012
 20
9.0906019984
 10
5.2213242846
 20
9.090292364
 10
5.2314620334
 20
9.0895976798
 10
5.2404551142
 20
9.0886307769
 10
5.2496885652
 20
9.0872668146
 10
5.2593345582
 20
9.0853924906
 10
5.2689246434
 20
9.0829959906
 10
5.2778206239
 20
9.0801852913
 10
5.286084641
 20
9.0769064582
 10
5.2941575248
 20
9.0728036713
 10
5.3015822765
 20
9.0677002403
 10
5.3072260708
 20
9.061970735
 10
5.3104889259
 20
9.0561523654
 10
5.3114692807
 20
9.0506019984
  0
LINE
  5
553
100
AcDbEntity
  8
0
100
AcDbLine
 62
7
  6
CONTINUOUS
 10
5.3939501894
 20
8.6491622895
 11
5.6129501894
 21
8.5227225805
  0
LWPOLYLINE
  5
554
100
AcDbEntity
  8
0
100
AcDbPolyline
 62
7
  6
CONTINUOUS
 90
7
 70
0
 10
5.0835425528
 20
9.0906019984
 10
5.0934240567
 20
9.0892390315
 10
5.1026321524
 20
9.0852430146
 10
5.1105393234
 20
9.0788862697
 10
5.1166067092
 20
9.0706019984
 10
5.1204208273
 20
9.0609547602
 10
5.1217217519
 20
9.0506019984
  0
LINE
  5
555
100
AcDbEntity
  8
0
100
AcDbLine
 62
7
  6
CONTINUOUS
 10
5.0835425528
 20
8.4606019984
 11
5.0835425528
 21
9.0906019984
  0
LINE
  5
556
100
AcDbEntity
  8
0
100
AcDbLine
 62
7
  6
CONTINUOUS
 10
5.1217217519
 20
9.0506019984
 11
5.1217217519
 21
8.5006019984
  0
LWPOLYLINE
  5
557
100
AcDbEntity
  8
0
100
AcDbPolyline
 62
7
  6
CONTINUOUS
 90
14
 70
0
 10
5.2085425528
 20
9.0906019984
 10
5.2094713559
 20
9.0902923631
 10
5.210207951
 20
9.0895976722
 10
5.2108614563
 20
9.088630756
 10
5.2115323794
 20
9.0872667406
 10
5.2122333291
 20
9.0853922665
 10
5.212930135
 20
9.0829955368
 10
5.2135764402
 20
9.0801847623
 10
5.2141768048
 20
9.0769059547
 10
5.2147631062
 20
9.0728047452
 10
5.2153026329
 20
9.0677053874
 10
5.2157137298
 20
9.0619688697
 10
5.2159501753
 20
9.0561464538
 10
5.2160214839
 20
9.0506057598
  0
LINE
  5
558
100
AcDbEntity
  8
0
100
AcDbLine
 62
7
  6
CONTINUOUS
 10
5.2160212829
 20
9.0506057598
 11
5.2160212829
 21
8.5005982721
  0
LWPOLYLINE
  5
559
100
AcDbEntity
  8
0
100
AcDbPolyline
 62
7
  6
CONTINUOUS
 90
14
 70
0
 10
5.2160214811
 20
8.5005982721
 10
5.2159508038
 20
8.4950820002
 10
5.2157169694
 20
8.4892936316
 10
5.2153048764
 20
8.4835238033
 10
5.2147554867
 20
8.4783386109
 10
5.2141596018
 20
8.474192993
 10
5.2135567133
 20
8.4709235667
 10
5.2129115842
 20
8.4681368319
 10
5.2122174422
 20
8.465763668
 10
5.2115198657
 20
8.4639081437
 10
5.2108525225
 20
8.4625576935
 10
5.2102017926
 20
8.4615988156
 10
5.209467738
 20
8.4609092155
 10
5.2085415614
 20
8.4606019988
  0
LWPOLYLINE
  5
55A
100
AcDbEntity
  8
0
100
AcDbPolyline
 62
7
  6
CONTINUOUS
 90
7
 70
0
 10
5.1217217519
 20
8.5006019984
 10
5.1204354081
 20
8.4903064173
 10
5.1166365013
 20
8.4806561585
 10
5.110568829
 20
8.4723486737
 10
5.1026591356
 20
8.4659773194
 10
5.0934378019
 20
8.4619688269
 10
5.0835425528
 20
8.4606019984
  0
LINE
  5
55B
100
AcDbEntity
  8
0
100
AcDbLine
 62
7
  6
CONTINUOUS
 10
5.3114692807
 20
9.0506019984
 11
5.3114692807
 21
8.5006019984
  0
LINE
  5
55C
100
AcDbEntity
  8
0
100
AcDbLine
 62
7
  6
CONTINUOUS
 10
5.3939501894
 20
8.9020417074
 11
5.3939501894
 21
8.6491622895
  0
LWPOLYLINE
  5
55D
100
AcDbEntity
  8
0
100
AcDbPolyline
 62
7
  6
CONTINUOUS
 90
14
 70
0
 10
5.3114692807
 20
8.5006019984
 10
5.3104976994
 20
8.4950761305
 10
5.3072707875
 20
8.4892915994
 10
5.3016127593
 20
8.4835290371
 10
5.2940531777
 20
8.4783398508
 10
5.2858478659
 20
8.4741924798
 10
5.277549161
 20
8.470923059
 10
5.2686693925
 20
8.4681363958
 10
5.2591159717
 20
8.4657634518
 10
5.249516376
 20
8.4639080721
 10
5.2403321869
 20
8.4625576731
 10
5.2313772755
 20
8.461598808
 10
5.2212744608
 20
8.4609092146
 10
5.2085425528
 20
8.4606019984
  0
LINE
  5
55E
100
AcDbEntity
  8
0
100
AcDbLine
 62
7
  6
CONTINUOUS
 10
5.6129501894
 20
8.5227225805
 11
5.8319501894
 21
8.6491622895
  0
LINE
  5
55F
100
AcDbEntity
  8
0
100
AcDbLine
 62
7
  6
CONTINUOUS
 10
5.8319501894
 20
8.9020417074
 11
5.6129501894
 21
9.0284814163
  0
LINE
  5
560
100
AcDbEntity
  8
0
100
AcDbLine
 62
7
  6
CONTINUOUS
 10
5.5579501894
 20
9.0906019984
 11
5.5579501894
 21
9.0506019984
  0
LINE
  5
561
100
AcDbEntity
  8
0
100
AcDbLine
 62
7
  6
CONTINUOUS
 10
5.5579501894
 20
8.4606019984
 11
5.5579501894
 21
8.5006019984
  0
LINE
  5
562
100
AcDbEntity
  8
0
100
AcDbLine
 62
7
  6
CONTINUOUS
 10
5.8319501894
 20
8.6491622895
 11
5.8319501894
 21
8.9020417074
  0
CIRCLE
  5
563
100
AcDbEntity
  8
0
100
AcDbCircle
 62
7
  6
CONTINUOUS
 10
10.5342808475
 20
1.243294839
 40
0.252091
  0
CIRCLE
  5
564
100
AcDbEntity
  8
0
100
AcDbCircle
 62
7
  6
CONTINUOUS
 10
10.5342808475
 20
1.243294839
 40
0.182698
  0
CIRCLE
  5
565
100
AcDbEntity
  8
0
100
AcDbCircle
 62
7
  6
CONTINUOUS
 10
10.1225539079
 20
1.9935547577
 40
0.0638444824
  0
ARC
  5
566
100
AcDbEntity
  8
0
100
AcDbCircle
 62
7
  6
CONTINUOUS
 10
3.3929501894
 20
5.9808526531
 40
0.04
100
AcDbArc
 50
180.0
 51
270.0000004211
  0
ARC
  5
567
100
AcDbEntity
  8
0
100
AcDbCircle
 62
7
  6
CONTINUOUS
 10
3.3948189362
 20
5.8458526531
 40
0.04
100
AcDbArc
 50
90.0
 51
183.1716729543
  0
ARC
  5
568
100
AcDbEntity
  8
0
100
AcDbCircle
 62
7
  6
CONTINUOUS
 10
3.8444166833
 20
5.9608526531
 40
0.02
100
AcDbArc
 50
270.0
 51
356.4632745343
  0
ARC
  5
569
100
AcDbEntity
  8
0
100
AcDbCircle
 62
7
  6
CONTINUOUS
 10
3.8444166833
 20
5.8658526531
 40
0.02
100
AcDbArc
 50
3.5367255029
 51
90.0
  0
ARC
  5
56A
100
AcDbEntity
  8
0
100
AcDbCircle
 62
7
  6
CONTINUOUS
 10
3.6129501894
 20
6.8238526531
 40
0.219
100
AcDbArc
 50
0.0
 51
180.0
  0
ARC
  5
56B
100
AcDbEntity
  8
0
100
AcDbCircle
 62
7
  6
CONTINUOUS
 10
3.9144316248
 20
6.7408519366
 40
0.0999994882
100
AcDbArc
 50
269.9996981681
 51
342.6462771936
  0
ARC
  5
56C
100
AcDbEntity
  8
0
100
AcDbCircle
 62
7
  6
CONTINUOUS
 10
3.3929501894
 20
6.6008526531
 40
0.04
100
AcDbArc
 50
89.9999995793
 51
180.0
  0
ARC
  5
56D
100
AcDbEntity
  8
0
100
AcDbCircle
 62
7
  6
CONTINUOUS
 10
4.1423578259
 20
7.0008526531
 40
0.04
100
AcDbArc
 50
90.0
 51
162.6459753637
  0
ARC
  5
56E
100
AcDbEntity
  8
0
100
AcDbCircle
 62
7
  6
CONTINUOUS
 10
4.6129501894
 20
5.9133526531
 40
1.26
100
AcDbArc
 50
183.1716812993
 51
356.8283192117
  0
ARC
  5
56F
100
AcDbEntity
  8
0
100
AcDbCircle
 62
7
  6
CONTINUOUS
 10
4.6129501894
 20
5.9133526531
 40
0.945
100
AcDbArc
 50
184.0960583826
 51
355.903941684
  0
ARC
  5
570
100
AcDbEntity
  8
0
100
AcDbCircle
 62
7
  6
CONTINUOUS
 10
4.6129501894
 20
5.9133526531
 40
0.79
100
AcDbArc
 50
4.9017584759
 51
175.098255048
  0
ARC
  5
571
100
AcDbEntity
  8
0
100
AcDbCircle
 62
7
  6
CONTINUOUS
 10
4.6129501894
 20
5.9133526531
 40
0.79
100
AcDbArc
 50
184.9017333603
 51
355.0982555116
  0
ARC
  5
572
100
AcDbEntity
  8
0
100
AcDbCircle
 62
7
  6
CONTINUOUS
 10
4.6129501894
 20
5.9133526531
 40
0.75
100
AcDbArc
 50
2.1013162788
 51
177.8986837212
  0
ARC
  5
573
100
AcDbEntity
  8
0
100
AcDbCircle
 62
7
  6
CONTINUOUS
 10
4.6129501894
 20
5.9133526531
 40
0.75
100
AcDbArc
 50
182.1013162788
 51
357.8986837212
  0
CIRCLE
  5
574
100
AcDbEntity
  8
0
100
AcDbCircle
 62
7
  6
CONTINUOUS
 10
4.6129501894
 20
5.9133526531
 40
0.5
  0
ARC
  5
575
100
AcDbEntity
  8
0
100
AcDbCircle
 62
7
  6
CONTINUOUS
 10
5.8329501894
 20
5.9808526531
 40
0.04
100
AcDbArc
 50
269.9999995793
 51
360.0
  0
ARC
  5
576
100
AcDbEntity
  8
0
100
AcDbCircle
 62
7
  6
CONTINUOUS
 10
5.8310814425
 20
5.8458526531
 40
0.04
100
AcDbArc
 50
356.8283270456
 51
90.0
  0
ARC
  5
577
100
AcDbEntity
  8
0
100
AcDbCircle
 62
7
  6
CONTINUOUS
 10
5.3814836955
 20
5.9608526531
 40
0.02
100
AcDbArc
 50
183.5367254657
 51
270.0
  0
ARC
  5
578
100
AcDbEntity
  8
0
100
AcDbCircle
 62
7
  6
CONTINUOUS
 10
5.3814836955
 20
5.8658526531
 40
0.02
100
AcDbArc
 50
90.0
 51
176.4632745343
  0
ARC
  5
579
100
AcDbEntity
  8
0
100
AcDbCircle
 62
7
  6
CONTINUOUS
 10
5.6129501894
 20
6.8238526531
 40
0.219
100
AcDbArc
 50
0.0
 51
180.0
  0
ARC
  5
57A
100
AcDbEntity
  8
0
100
AcDbCircle
 62
7
  6
CONTINUOUS
 10
5.3114687539
 20
6.7408519366
 40
0.0999994882
100
AcDbArc
 50
197.3537228044
 51
270.0003018299
  0
ARC
  5
57B
100
AcDbEntity
  8
0
100
AcDbCircle
 62
7
  6
CONTINUOUS
 10
5.8329501894
 20
6.6008526531
 40
0.04
100
AcDbArc
 50
0.0
 51
90.0000004211
  0
ARC
  5
57C
100
AcDbEntity
  8
0
100
AcDbCircle
 62
7
  6
CONTINUOUS
 10
5.0835425528
 20
7.0008526531
 40
0.04
100
AcDbArc
 50
17.3540246363
 51
90.0
  0
ARC
  5
57D
100
AcDbEntity
  8
0
100
AcDbCircle
 62
7
  6
CONTINUOUS
 10
8.8760541764
 20
5.9808526531
 40
0.04
100
AcDbArc
 50
180.0
 51
270.0
  0
ARC
  5
57E
100
AcDbEntity
  8
0
100
AcDbCircle
 62
7
  6
CONTINUOUS
 10
8.8760541764
 20
5.8458526531
 40
0.04
100
AcDbArc
 50
90.0
 51
180.0
  0
ARC
  5
57F
100
AcDbEntity
  8
0
100
AcDbCircle
 62
7
  6
CONTINUOUS
 10
8.8760541764
 20
6.6008526531
 40
0.04
100
AcDbArc
 50
90.0
 51
180.0
  0
ARC
  5
580
100
AcDbEntity
  8
0
100
AcDbCircle
 62
7
  6
CONTINUOUS
 10
8.8760541764
 20
7.0008526531
 40
0.04
100
AcDbArc
 50
90.0
 51
180.0
  0
ARC
  5
581
100
AcDbEntity
  8
0
100
AcDbCircle
 62
7
  6
CONTINUOUS
 10
9.1510541764
 20
4.9683526531
 40
0.315
100
AcDbArc
 50
180.0
 51
360.0
  0
ARC
  5
582
100
AcDbEntity
  8
0
100
AcDbCircle
 62
7
  6
CONTINUOUS
 10
9.4260541764
 20
5.9808526531
 40
0.04
100
AcDbArc
 50
270.0
 51
360.0
  0
ARC
  5
583
100
AcDbEntity
  8
0
100
AcDbCircle
 62
7
  6
CONTINUOUS
 10
9.4260541764
 20
5.8458526531
 40
0.04
100
AcDbArc
 50
0.0
 51
90.0
  0
ARC
  5
584
100
AcDbEntity
  8
0
100
AcDbCircle
 62
7
  6
CONTINUOUS
 10
9.1510541764
 20
6.8238526531
 40
0.219
100
AcDbArc
 50
0.0
 51
180.0
  0
ARC
  5
585
100
AcDbEntity
  8
0
100
AcDbCircle
 62
7
  6
CONTINUOUS
 10
9.4260541764
 20
6.6008526531
 40
0.04
100
AcDbArc
 50
0.0
 51
90.0
  0
ARC
  5
586
100
AcDbEntity
  8
0
100
AcDbCircle
 62
7
  6
CONTINUOUS
 10
9.4260541764
 20
7.0008526531
 40
0.04
100
AcDbArc
 50
0.0
 51
90.0
  0
ARC
  5
587
100
AcDbEntity
  8
0
100
AcDbCircle
 62
7
  6
CONTINUOUS
 10
3.6679501894
 20
3.2530648225
 40
0.315
100
AcDbArc
 50
90.0
 51
270.0
  0
ARC
  5
588
100
AcDbEntity
  8
0
100
AcDbCircle
 62
7
  6
CONTINUOUS
 10
5.5579501894
 20
3.2530648225
 40
0.315
100
AcDbArc
 50
270.0
 51
90.0
  0
ARC
  5
589
100
AcDbEntity
  8
0
100
AcDbCircle
 62
7
  6
CONTINUOUS
 10
3.6679501894
 20
8.7756019984
 40
0.315
100
AcDbArc
 50
90.0
 51
270.0
  0
ARC
  5
58A
100
AcDbEntity
  8
0
100
AcDbCircle
 62
7
  6
CONTINUOUS
 10
5.5579501894
 20
8.7756019984
 40
0.315
100
AcDbArc
 50
270.0
 51
90.0
  0
ARC
  5
58B
100
AcDbEntity
  8
0
100
AcDbCircle
 62
7
  6
CONTINUOUS
 10
5.5579501894
 20
8.7756019984
 40
0.2749999968
100
AcDbArc
 50
33.7045491291
 51
90.0
  0
ARC
  5
58C
100
AcDbEntity
  8
0
100
AcDbCircle
 62
7
  6
CONTINUOUS
 10
5.5579501894
 20
8.7756019984
 40
0.2749999968
100
AcDbArc
 50
357.499011189
 51
2.482735159
  0
ARC
  5
58D
100
AcDbEntity
  8
0
100
AcDbCircle
 62
7
  6
CONTINUOUS
 10
5.5579501894
 20
8.7756019984
 40
0.2749999968
100
AcDbArc
 50
270.0
 51
326.2957885035
  0
ARC
  5
58E
100
AcDbEntity
  8
0
100
AcDbCircle
 62
7
  6
CONTINUOUS
 10
3.6679501894
 20
8.7756019984
 40
0.2749999968
100
AcDbArc
 50
213.7042673576
 51
270.0
  0
ARC
  5
58F
100
AcDbEntity
  8
0
100
AcDbCircle
 62
7
  6
CONTINUOUS
 10
3.6679501894
 20
8.7756019984
 40
0.2749999968
100
AcDbArc
 50
177.5170489033
 51
182.500772971
  0
ARC
  5
590
100
AcDbEntity
  8
0
100
AcDbCircle
 62
7
  6
CONTINUOUS
 10
3.6679501894
 20
8.7756019984
 40
0.2749999968
100
AcDbArc
 50
90.0
 51
146.2955068745
  0
CIRCLE
  5
591
100
AcDbEntity
  8
0
100
AcDbCircle
 62
7
  6
CONTINUOUS
 10
5.6129501894
 20
8.7756019984
 40
0.219
  0
CIRCLE
  5
592
100
AcDbEntity
  8
0
100
AcDbCircle
 62
7
  6
CONTINUOUS
 10
3.6129501894
 20
8.7756019984
 40
0.219
  0
CIRCLE
  5
593
100
AcDbEntity
  8
DEFAULT_2
100
AcDbCircle
 62
7
  6
HIDDEN
 10
4.6129501894
 20
8.7756019984
 40
0.197
  0
CIRCLE
  5
594
100
AcDbEntity
  8
AXIS
100
AcDbCircle
 62
7
  6
CONTINUOUS
 10
4.6129501894
 20
8.7756019984
 40
0.1673
  0
ENDSEC
  0
SECTION
  2
OBJECTS
  0
DICTIONARY
  5
C
100
AcDbDictionary
280
0
281
1
  3
ACAD_GROUP
350
D
  3
ACAD_MLINESTYLE
350
17
  3
ACAD_LAYOUT
350
1A
  3
ACAD_PLOTSETTINGS
350
19
  3
ACAD_PLOTSTYLENAME
350
E
  3
ACAD_TABLESTYLE
350
       595
  0
DICTIONARY
  5
D
102
{ACAD_REACTORS
330
C
102
}
100
AcDbDictionary
280
0
281
1
  0
ACDBDICTIONARYWDFLT
  5
E
102
{ACAD_REACTORS
330
C
102
}
100
AcDbDictionary
281
1
  3
Normal
350
F
100
AcDbDictionaryWithDefault
340
F
  0
DICTIONARY
  5
17
102
{ACAD_REACTORS
330
C
102
}
100
AcDbDictionary
280
0
281
1
  3
Standard
350
18
  0
DICTIONARY
  5
595
330
C
100
AcDbDictionary
281
1
  3
Standard
350
       598
  3
Standard1
350
       599
  0
DICTIONARY
  5
19
102
{ACAD_REACTORS
330
C
102
}
100
AcDbDictionary
281
1
  0
DICTIONARY
  5
1A
102
{ACAD_REACTORS
330
C
102
}
100
AcDbDictionary
281
1
  3
Model
350
596
  3
Layout1
350
597
  0
ACDBPLACEHOLDER
  5
F
102
{ACAD_REACTORS
330
E
102
}
  0
MLINESTYLE
  5
18
102
{ACAD_REACTORS
330
17
102
}
100
AcDbMlineStyle
  2
STANDARD
 70
0
  3

 62
256
 51
90.0
 52
90.0
 71
2
 49
0.5
 62
256
  6
BYLAYER
 49
-0.5
 62
256
  6
BYLAYER
  0
LAYOUT
  5
596
102
{ACAD_REACTORS
330
1A
102
}
100
AcDbPlotSettings
  1

  2
none_device
  4
ANSI_B_(17.00_x_11.00_Inches)
  6

 40
0.0
 41
0.0
 42
0.0
 43
0.0
 44
431.8
 45
279.4
 46
0.0
 47
0.0
 48
0.0
 49
0.0
140
0.0
141
0.0
142
1.0
143
1.0
 70
1024
 72
0
 73
0
 74
0
  7

 75
0
147
1.0
148
0.0
149
0.0
100
AcDbLayout
  1
Model
 70
0
 71
0
 10
0.0
 20
0.0
 11
17.0
 21
11.0
 12
0.0
 22
0.0
 32
0.0
 14
0.0
 24
0.0
 34
0.0
 15
0.0
 25
0.0
 35
0.0
146
0.0
 13
0.0
 23
0.0
 33
0.0
 16
1.0
 26
0.0
 36
0.0
 17
0.0
 27
1.0
 37
0.0
 76
0
330
20C
345
0
346
0
  0
LAYOUT
  5
597
102
{ACAD_REACTORS
330
1A
102
}
100
AcDbPlotSettings
  1

  2
none_device
  4
ANSI_B_(17.00_x_11.00_Inches)
  6

 40
0.0
 41
0.0
 42
0.0
 43
0.0
 44
431.8
 45
279.4
 46
0.0
 47
0.0
 48
0.0
 49
0.0
140
0.0
141
0.0
142
1.0
143
1.0
 70
0
 72
0
 73
0
 74
0
  7

 75
0
147
1.0
148
0.0
149
0.0
100
AcDbLayout
  1
Layout1
 70
0
 71
1
 10
0.0
 20
0.0
 11
17.0
 21
11.0
 12
0.0
 22
0.0
 32
0.0
 14
0.0
 24
0.0
 34
0.0
 15
0.0
 25
0.0
 35
0.0
146
0.0
 13
0.0
 23
0.0
 33
0.0
 16
1.0
 26
0.0
 36
0.0
 17
0.0
 27
1.0
 37
0.0
 76
0
330
20D
345
0
346
0
  0
TABLESTYLE
  5
598
102
{ACAD_REACTORS
330
595
102
}
330
595
100
AcDbTableStyle
  3
Standard
 70
0
 71
0
 40
0.06
 41
0.06
280
1
281
1
  7
Standard
140
0.18
170
1
 62
0
 63
7
283
0
  7
Standard
140
0.18
170
1
 62
0
 63
7
283
0
  7
Standard
140
0.18
170
1
 62
0
 63
7
283
0
  0
TABLESTYLE
  5
599
102
{ACAD_REACTORS
330
595
330
27B
102
}
330
595
100
AcDbTableStyle
  3
Standard1
 70
1
 71
0
 40
0.06
 41
0.06
280
1
281
1
  7
Standard
140
0.18
170
1
 62
0
 63
7
283
0
  7
Standard
140
0.18
170
1
 62
0
 63
7
283
0
  7
Standard
140
0.18
170
1
 62
0
 63
7
283
0
  0
ENDSEC
  0
EOF
