999
DXF file: 145504_1.dxf
999
Pro/ENGINEER 2016260 by Parametric Technology Corporation
  0
SECTION
  2
HEADER
  9
$ACADVER
  1
AC1027
  9
$DWGCODEPAGE
  3
ANSI_1252
  9
$EXTMAX
 10
17.0
 20
11.0
 30
0.0
  9
$EXTMIN
 10
0.0
 20
0.0
 30
0.0
  9
$LIMMIN
 10
0.0
 20
0.0
  9
$LIMMAX
 10
17.0
 20
11.0
  9
$VIEWCTR
 10
8.5
 20
5.5
  9
$VIEWSIZE
 40
11.0
  9
$CLAYER
  8
0
  9
$LTSCALE
 40
0.935
  9
$CELTYPE
  6
BYLAYER
  9
$DIMSCALE
 40
1.0
  9
$DIMASZ
 40
0.1875
  9
$DIMEXO
 40
0.0625
  9
$DIMDLI
 40
0.646
  9
$DIMEXE
 40
0.125
  9
$DIMCEN
 40
0.153
  9
$DIMLFAC
 40
1.0
  9
$DIMBLK
  1
_FILLED
  9
$DIMALT
 70
1
  9
$DIMALTD
 70
2
  9
$DIMALTTD
 70
2
  9
$DIMALTF
 40
1.0
  9
$DIMTXT
 40
0.1
  9
$DIMTOL
 70
1
  9
$DIMLIM
 70
0
  9
$DIMTFAC
 40
1.0
  9
$DIMTP
 40
0.005
  9
$DIMTM
 40
0.005
  9
$DIMGAP
 40
0.09
  9
$DIMDSEP
 70
46
  9
$AUNITS
 70
0
  9
$PDMODE
 70
3
  9
$PDSIZE
 40
0.3125
  9
$HANDSEED
  5
63E
  9
$TILEMODE
 70
1
  9
$MEASUREMENT
 70
0
  9
$INSUNITS
 70
1
  0
ENDSEC
  0
SECTION
  2
CLASSES
  0
CLASS
  1
ACDBDICTIONARYWDFLT
  2
AcDbDictionaryWithDefault
  3
AutoCAD 2000
 90
0
 91
1
280
0
281
0
  0
CLASS
  1
ACDBPLACEHOLDER
  2
AcDbPlaceHolder
  3
AutoCAD 2000
 90
0
 91
1
280
0
281
0
  0
CLASS
  1
LAYOUT
  2
AcDbLayout
  3
AutoCAD 2000
 90
0
 91
0
280
0
281
0
  0
CLASS
  1
TABLESTYLE
  2
AcDbTableStyle
  3
ObjectDBX Classes
 90
2047
 91
1
280
0
281
0
  0
CLASS
  1
ACAD_TABLE
  2
AcDbTable
  3
ObjectDBX Classes
 90
1025
 91
1
280
0
281
1
  0
ENDSEC
  0
SECTION
  2
TABLES
  0
TABLE
  2
VPORT
  5
8
100
AcDbSymbolTable
 70
2
  0
VPORT
  5
1F4
100
AcDbSymbolTableRecord
100
AcDbViewportTableRecord
  2
*ACTIVE
 70
0
 10
0.0
 20
0.0
 11
1.0
 21
1.0
 12
8.5
 22
5.5
 13
0.0
 23
0.0
 14
1.0
 24
1.0
 15
0.0
 25
0.0
 16
0.0
 26
0.0
 36
1.0
 17
0.0
 27
0.0
 37
0.0
 40
11.0
 41
1.5454545455
 42
50.0
 43
0.0
 44
0.0
 50
0.0
 51
0.0
 71
0
 72
100
 73
1
 74
1
 75
0
 76
0
 77
0
 78
0
  0
ENDTAB
  0
TABLE
  2
LTYPE
  5
5
100
AcDbSymbolTable
 70
6
  0
LTYPE
  5
14
100
AcDbSymbolTableRecord
100
AcDbLinetypeTableRecord
  2
BYBLOCK
 70
0
  3

 72
65
 73
0
 40
0.0
  0
LTYPE
  5
15
100
AcDbSymbolTableRecord
100
AcDbLinetypeTableRecord
  2
BYLAYER
 70
0
  3

 72
65
 73
0
 40
0.0
  0
LTYPE
  5
16
100
AcDbSymbolTableRecord
100
AcDbLinetypeTableRecord
  2
CONTINUOUS
 70
64
  3
Solid line
 72
65
 73
0
 40
0.0
  0
LTYPE
  5
1F5
100
AcDbSymbolTableRecord
100
AcDbLinetypeTableRecord
  2
CENTER
 70
64
  3
____ _ ____ _ ____ _ ____ _ ____ _ ____ _ ____
 72
65
 73
4
 40
0.6
 49
0.375
 74
0
 49
-0.075
 74
0
 49
0.075
 74
0
 49
-0.075
 74
0
  0
LTYPE
  5
1F6
100
AcDbSymbolTableRecord
100
AcDbLinetypeTableRecord
  2
HIDDEN
 70
64
  3
- - - - - - - - - - - - - - - - - - - -
 72
65
 73
2
 40
0.2
 49
0.1
 74
0
 49
-0.1
 74
0
  0
LTYPE
  5
1F7
100
AcDbSymbolTableRecord
100
AcDbLinetypeTableRecord
  2
PHANTOM
 70
64
  3
_____ _ _ _____ _ _ _____ _ _ _____
 72
65
 73
6
 40
0.8
 49
0.45
 74
0
 49
-0.05
 74
0
 49
0.1
 74
0
 49
-0.05
 74
0
 49
0.1
 74
0
 49
-0.05
 74
0
  0
LTYPE
  5
1F8
100
AcDbSymbolTableRecord
100
AcDbLinetypeTableRecord
  2
DOT
 70
64
  3
. . . . . . . . . . . . . . . . . . . .
 72
65
 73
2
 40
0.2
 49
0.1
 74
0
 49
-0.1
 74
0
  0
LTYPE
  5
1F9
100
AcDbSymbolTableRecord
100
AcDbLinetypeTableRecord
  2
DASHED
 70
64
  3
- - - - - - - - - - - - - - - - - - - -
 72
65
 73
2
 40
0.2
 49
0.1
 74
0
 49
-0.1
 74
0
  0
ENDTAB
  0
TABLE
  2
LAYER
  5
2
100
AcDbSymbolTable
 70
36
  0
LAYER
  5
10
100
AcDbSymbolTableRecord
100
AcDbLayerTableRecord
  2
0
 70
0
 62
7
  6
CONTINUOUS
370
-3
390
F
  0
LAYER
  5
1FA
100
AcDbSymbolTableRecord
100
AcDbLayerTableRecord
  2
DEFAULT_1
 70
0
 62
7
  6
CENTER
370
-3
390
F
  0
LAYER
  5
1FB
100
AcDbSymbolTableRecord
100
AcDbLayerTableRecord
  2
DEFAULT_2
 70
0
 62
7
  6
HIDDEN
370
-3
390
F
  0
LAYER
  5
1FC
100
AcDbSymbolTableRecord
100
AcDbLayerTableRecord
  2
DEFAULT_3
 70
0
 62
7
  6
PHANTOM
370
-3
390
F
  0
LAYER
  5
1FD
100
AcDbSymbolTableRecord
100
AcDbLayerTableRecord
  2
AXIS
 70
0
 62
7
  6
CONTINUOUS
370
-3
390
F
  0
LAYER
  5
1FE
100
AcDbSymbolTableRecord
100
AcDbLayerTableRecord
  2
DATUM_CURVES
 70
0
 62
7
  6
CONTINUOUS
370
-3
390
F
  0
LAYER
  5
1FF
100
AcDbSymbolTableRecord
100
AcDbLayerTableRecord
  2
DATUM_PLANES
 70
0
 62
7
  6
CONTINUOUS
370
-3
390
F
  0
LAYER
  5
200
100
AcDbSymbolTableRecord
100
AcDbLayerTableRecord
  2
INTFCLR_8
 70
0
 62
7
  6
CONTINUOUS
370
-3
390
F
  0
LAYER
  5
201
100
AcDbSymbolTableRecord
100
AcDbLayerTableRecord
  2
NOTES
 70
0
 62
7
  6
CONTINUOUS
370
-3
390
F
  0
LAYER
  5
202
100
AcDbSymbolTableRecord
100
AcDbLayerTableRecord
  2
QUILTS
 70
0
 62
7
  6
CONTINUOUS
370
-3
390
F
  0
LAYER
  5
203
100
AcDbSymbolTableRecord
100
AcDbLayerTableRecord
  2
SCHEME_DIMS
 70
0
 62
7
  6
CONTINUOUS
370
-3
390
F
  0
LAYER
  5
204
100
AcDbSymbolTableRecord
100
AcDbLayerTableRecord
  2
SYMBOLS
 70
0
 62
7
  6
CONTINUOUS
370
-3
390
F
  0
ENDTAB
  0
TABLE
  2
STYLE
  5
3
100
AcDbSymbolTable
 70
1
  0
STYLE
  5
11
100
AcDbSymbolTableRecord
100
AcDbTextStyleTableRecord
  2
STANDARD
 70
0
 40
0.0
 41
1.0
 50
0.0
 71
0
 42
0.2
  3
txt
  4

  0
STYLE
  5
205
100
AcDbSymbolTableRecord
100
AcDbTextStyleTableRecord
  2
TEXTSTYLE_1
 70
0
 40
0.0
 41
0.8
 50
0.0
 71
0
 42
0.2
  3
gdt
  4

  0
STYLE
  5
206
100
AcDbSymbolTableRecord
100
AcDbTextStyleTableRecord
  2
TEXTSTYLE_2
 70
0
 40
0.0
 41
0.8
 50
0.0
 71
0
 42
0.2
  3
txt
  4

  0
STYLE
  5
207
100
AcDbSymbolTableRecord
100
AcDbTextStyleTableRecord
  2
TEXTSTYLE_3
 70
0
 40
0.0
 41
0.85
 50
0.0
 71
0
 42
0.2
  3
txt
  4

  0
STYLE
  5
208
100
AcDbSymbolTableRecord
100
AcDbTextStyleTableRecord
  2
TEXTSTYLE_4
 70
0
 40
0.0
 41
0.9
 50
0.0
 71
0
 42
0.2
  3
txt
  4

  0
STYLE
  5
209
100
AcDbSymbolTableRecord
100
AcDbTextStyleTableRecord
  2
TEXTSTYLE_5
 70
0
 40
0.0
 41
0.75
 50
0.0
 71
0
 42
0.2
  3
txt
  4

  0
ENDTAB
  0
TABLE
  2
VIEW
  5
6
100
AcDbSymbolTable
 70
0
  0
ENDTAB
  0
TABLE
  2
UCS
  5
7
100
AcDbSymbolTable
 70
0
  0
ENDTAB
  0
TABLE
  2
APPID
  5
9
100
AcDbSymbolTable
 70
1
  0
APPID
  5
20A
100
AcDbSymbolTableRecord
100
AcDbRegAppTableRecord
  2
ACAD
 70
0
  0
ENDTAB
  0
TABLE
  2
BLOCK_RECORD
  5
1
100
AcDbSymbolTable
 70
0
  0
BLOCK_RECORD
  5
20B
100
AcDbSymbolTableRecord
100
AcDbBlockTableRecord
  2
*Model_Space
  0
BLOCK_RECORD
  5
20C
100
AcDbSymbolTableRecord
100
AcDbBlockTableRecord
  2
*Paper_Space
  0
BLOCK_RECORD
  5
20D
100
AcDbSymbolTableRecord
100
AcDbBlockTableRecord
  2
_FILLED
  0
BLOCK_RECORD
  5
20E
100
AcDbSymbolTableRecord
100
AcDbBlockTableRecord
  2
*D0
  0
BLOCK_RECORD
  5
20F
100
AcDbSymbolTableRecord
100
AcDbBlockTableRecord
  2
*D1
  0
BLOCK_RECORD
  5
210
100
AcDbSymbolTableRecord
100
AcDbBlockTableRecord
  2
*D2
  0
BLOCK_RECORD
  5
211
100
AcDbSymbolTableRecord
100
AcDbBlockTableRecord
  2
*T1
  0
ENDTAB
  0
TABLE
  2
DIMSTYLE
  5
A
100
AcDbSymbolTable
 70
1
100
AcDbDimStyleTable
 71
0
  0
DIMSTYLE
105
212
100
AcDbSymbolTableRecord
100
AcDbDimStyleTableRecord
  2
STANDARD
 70
0
  3

  4

 40
1.0
 41
0.1875
 42
0.0625
 43
0.38
 44
0.125
 45
0.0
 46
0.0
 47
0.005
 48
0.005
140
0.1
141
0.09
142
0.0
143
1.0
144
1.0
145
0.0
146
1.0
147
0.09
 71
1.0
 72
0.0
 73
1
 74
1
 75
0
 76
0
 77
0
 78
4
170
1
171
2
172
0
173
0
174
0
175
0
176
0
177
0
178
0
270
2
271
3
272
3
273
2
274
2
275
0
280
0
281
0
282
0
283
1
284
4
285
0
286
0
287
3
288
0
340
11
278
46
341
20D
342
20D
343
20D
344
20D
  0
DIMSTYLE
105
213
100
AcDbSymbolTableRecord
100
AcDbDimStyleTableRecord
  2
DIMSTYLE_1
 70
0
  3

  4

 40
1.0
 41
0.1875
 42
0.0625
 43
0.38
 44
0.125
 45
0.0
 46
0.0
 47
0.1
 48
0.1
140
0.1
141
0.09
142
0.0
143
1.0
144
1.0
145
0.0
146
1.0
147
0.1
 71
0.0
 72
0.0
 73
1
 74
1
 75
0
 76
0
 77
0
 78
4
170
1
171
2
172
0
173
0
174
0
175
0
176
0
177
0
178
0
270
2
271
1
272
3
273
2
274
-14
275
0
280
0
281
0
282
0
283
1
284
4
285
0
286
0
287
3
288
0
340
11
278
46
341
20D
342
20D
343
20D
344
20D
  0
ENDTAB
  0
ENDSEC
  0
SECTION
  2
BLOCKS
  0
BLOCK
  5
20
100
AcDbEntity
  8
0
100
AcDbBlockBegin
  2
*Model_Space
 70
0
 10
0.0
 20
0.0
 30
0.0
  3
*Model_Space
  1

  0
ENDBLK
  5
21
100
AcDbEntity
  8
0
100
AcDbBlockEnd
  0
BLOCK
  5
1C
100
AcDbEntity
  8
0
100
AcDbBlockBegin
  2
*Paper_Space
 70
0
 10
0.0
 20
0.0
 30
0.0
  3
*Paper_Space
  1

  0
ENDBLK
  5
1D
100
AcDbEntity
  8
0
100
AcDbBlockEnd
  0
BLOCK
  5
214
100
AcDbEntity
  8
0
100
AcDbBlockBegin
  2
_FILLED
 70
64
 10
0.0
 20
0.0
  3
_FILLED
  1

  0
SOLID
  5
215
100
AcDbEntity
  8
0
  6
BYBLOCK
 62
0
100
AcDbTrace
 10
0.0
 20
0.0
 11
-1.0
 21
0.1666666667
 12
-1.0
 22
-0.1666666667
 13
-1.0
 23
-0.1666666667
  0
ENDBLK
  5
216
100
AcDbEntity
  8
0
  6
BYBLOCK
 62
0
100
AcDbBlockEnd
  0
BLOCK
  5
217
100
AcDbEntity
  8
SCHEME_DIMS
100
AcDbBlockBegin
 62
7
  6
CONTINUOUS
  2
*D0
 70
65
 10
0.0
 20
0.0
  3
*D0
  1

  0
MTEXT
  5
218
100
AcDbEntity
  8
SCHEME_DIMS
100
AcDbMText
 62
7
  6
CONTINUOUS
  7
STANDARD
 71
2
 72
1
 10
4.8384537806
 20
6.8945346379
 30
0.0
 11
1.0
 21
0.0
 31
0.0
 44
0.9
  1
44.4\P[1.75]
 40
0.1
 41
0.6
  0
LINE
  5
219
100
AcDbEntity
  8
SCHEME_DIMS
100
AcDbLine
 62
7
  6
CONTINUOUS
 10
6.6899847704
 20
7.7185503859
 11
4.8134537806
 21
7.7185503859
  0
LINE
  5
21A
100
AcDbEntity
  8
SCHEME_DIMS
100
AcDbLine
 62
7
  6
CONTINUOUS
 10
6.6899847704
 20
5.9705188898
 11
4.8134537806
 21
5.9705188898
  0
LINE
  5
21B
100
AcDbEntity
  8
SCHEME_DIMS
100
AcDbLine
 62
7
  6
CONTINUOUS
 10
4.9384537806
 20
7.7185503859
 11
4.9384537806
 21
6.9945346379
  0
LINE
  5
21C
100
AcDbEntity
  8
SCHEME_DIMS
100
AcDbLine
 62
7
  6
CONTINUOUS
 10
4.9384537806
 20
5.9705188898
 11
4.9384537806
 21
6.5445346379
  0
INSERT
  5
21D
100
AcDbEntity
  8
SCHEME_DIMS
100
AcDbBlockReference
 62
7
  6
CONTINUOUS
  2
_FILLED
 10
4.9384537806
 20
7.7185503859
 41
0.1875
 42
0.1875
 43
0.1875
 50
90.0
  0
INSERT
  5
21E
100
AcDbEntity
  8
SCHEME_DIMS
100
AcDbBlockReference
 62
7
  6
CONTINUOUS
  2
_FILLED
 10
4.9384537806
 20
5.9705188898
 41
0.1875
 42
0.1875
 43
0.1875
 50
270.0
  0
ENDBLK
  5
21F
100
AcDbEntity
  8
0
  6
BYBLOCK
 62
0
100
AcDbBlockEnd
  0
BLOCK
  5
220
100
AcDbEntity
  8
SCHEME_DIMS
100
AcDbBlockBegin
 62
7
  6
CONTINUOUS
  2
*D1
 70
65
 10
0.0
 20
0.0
  3
*D1
  1

  0
MTEXT
  5
221
100
AcDbEntity
  8
SCHEME_DIMS
100
AcDbMText
 62
7
  6
CONTINUOUS
  7
STANDARD
 71
2
 72
1
 10
6.3471644853
 20
8.4749858488
 30
0.0
 11
1.0
 21
0.0
 31
0.0
 44
0.9
  1
23.4\P[.92]
 40
0.1
 41
0.5
  0
LINE
  5
222
100
AcDbEntity
  8
SCHEME_DIMS
100
AcDbLine
 62
7
  6
CONTINUOUS
 10
6.8587733341
 20
7.777113378
 11
6.8587733341
 21
8.5499858488
  0
LINE
  5
223
100
AcDbEntity
  8
SCHEME_DIMS
100
AcDbLine
 62
7
  6
CONTINUOUS
 10
5.9355556365
 20
7.4625464489
 11
5.9355556365
 21
8.5499858488
  0
LINE
  5
224
100
AcDbEntity
  8
SCHEME_DIMS
100
AcDbLine
 62
7
  6
CONTINUOUS
 10
6.8587733341
 20
8.4249858488
 11
7.2587733341
 21
8.4249858488
  0
LINE
  5
225
100
AcDbEntity
  8
SCHEME_DIMS
100
AcDbLine
 62
7
  6
CONTINUOUS
 10
5.9355556365
 20
8.4249858488
 11
5.5355556365
 21
8.4249858488
  0
INSERT
  5
226
100
AcDbEntity
  8
SCHEME_DIMS
100
AcDbBlockReference
 62
7
  6
CONTINUOUS
  2
_FILLED
 10
6.8587733341
 20
8.4249858488
 41
0.1875
 42
0.1875
 43
0.1875
 50
180.0
  0
INSERT
  5
227
100
AcDbEntity
  8
SCHEME_DIMS
100
AcDbBlockReference
 62
7
  6
CONTINUOUS
  2
_FILLED
 10
5.9355556365
 20
8.4249858488
 41
0.1875
 42
0.1875
 43
0.1875
  0
ENDBLK
  5
228
100
AcDbEntity
  8
0
  6
BYBLOCK
 62
0
100
AcDbBlockEnd
  0
BLOCK
  5
229
100
AcDbEntity
  8
SCHEME_DIMS
100
AcDbBlockBegin
 62
7
  6
CONTINUOUS
  2
*D2
 70
65
 10
0.0
 20
0.0
  3
*D2
  1

  0
MTEXT
  5
22A
100
AcDbEntity
  8
SCHEME_DIMS
100
AcDbMText
 62
7
  6
CONTINUOUS
  7
STANDARD
 71
2
 72
1
 10
6.0609440129
 20
9.1632946341
 30
0.0
 11
1.0
 21
0.0
 31
0.0
 44
0.9
  1
35.4\P[1.40]
 40
0.1
 41
0.6
  0
LINE
  5
22B
100
AcDbEntity
  8
SCHEME_DIMS
100
AcDbLine
 62
7
  6
CONTINUOUS
 10
6.8587733341
 20
7.777113378
 11
6.8587733341
 21
9.2382946341
  0
LINE
  5
22C
100
AcDbEntity
  8
SCHEME_DIMS
100
AcDbLine
 62
7
  6
CONTINUOUS
 10
5.4631146917
 20
7.3322314883
 11
5.4631146917
 21
9.2382946341
  0
LINE
  5
22D
100
AcDbEntity
  8
SCHEME_DIMS
100
AcDbLine
 62
7
  6
CONTINUOUS
 10
6.8587733341
 20
9.1132946341
 11
6.5609440129
 21
9.1132946341
  0
LINE
  5
22E
100
AcDbEntity
  8
SCHEME_DIMS
100
AcDbLine
 62
7
  6
CONTINUOUS
 10
5.4631146917
 20
9.1132946341
 11
5.7609440129
 21
9.1132946341
  0
INSERT
  5
22F
100
AcDbEntity
  8
SCHEME_DIMS
100
AcDbBlockReference
 62
7
  6
CONTINUOUS
  2
_FILLED
 10
6.8587733341
 20
9.1132946341
 41
0.1875
 42
0.1875
 43
0.1875
  0
INSERT
  5
230
100
AcDbEntity
  8
SCHEME_DIMS
100
AcDbBlockReference
 62
7
  6
CONTINUOUS
  2
_FILLED
 10
5.4631146917
 20
9.1132946341
 41
0.1875
 42
0.1875
 43
0.1875
 50
180.0
  0
ENDBLK
  5
231
100
AcDbEntity
  8
0
  6
BYBLOCK
 62
0
100
AcDbBlockEnd
  0
BLOCK
  5
232
100
AcDbEntity
  8
0
100
AcDbBlockBegin
  2
*T1
 70
1
 10
0.0
 20
0.0
  3
*T1
  1

  0
LINE
  5
233
100
AcDbEntity
  8
0
100
AcDbLine
 62
7
  6
CONTINUOUS
 10
4.35
 20
0.0
 11
0.0
 21
0.0
  0
LINE
  5
234
100
AcDbEntity
  8
0
100
AcDbLine
 62
7
  6
CONTINUOUS
 10
4.35
 20
0.0
 11
4.35
 21
1.92
  0
LINE
  5
235
100
AcDbEntity
  8
0
100
AcDbLine
 62
7
  6
CONTINUOUS
 10
4.35
 20
1.92
 11
0.0
 21
1.92
  0
LINE
  5
236
100
AcDbEntity
  8
0
100
AcDbLine
 62
7
  6
CONTINUOUS
 10
0.0
 20
0.0
 11
0.0
 21
1.92
  0
MTEXT
  5
237
100
AcDbEntity
  8
NOTES
100
AcDbMText
 62
7
  6
CONTINUOUS
  7
STANDARD
 71
2
 72
1
 10
4.125
 20
0.48
 30
0.0
 11
1.0
 21
0.0
 31
0.0
 44
0.9
  1
B
 40
0.1
 41
0.2
  0
MTEXT
  5
238
100
AcDbEntity
  8
NOTES
100
AcDbMText
 62
7
  6
CONTINUOUS
  7
STANDARD
 71
2
 72
1
 10
2.175
 20
0.93
 30
0.0
 11
1.0
 21
0.0
 31
0.0
 44
0.9
  1
SA-M30TE12
 40
0.1
 41
2.0
  0
ENDBLK
  5
239
100
AcDbEntity
  8
0
  6
BYBLOCK
 62
0
100
AcDbBlockEnd
  0
ENDSEC
  0
SECTION
  2
ENTITIES
  0
MTEXT
  5
23A
100
AcDbEntity
  8
0
100
AcDbMText
 62
7
  6
CONTINUOUS
  7
TEXTSTYLE_2
 71
2
 72
1
 10
11.0287658475
 20
1.794867839
 30
0.0
 11
1.0
 21
0.0
 31
0.0
 44
0.9
  1
THIRD ANGLE PROJECTION
 40
0.1
 41
1.76
  0
MTEXT
  5
23B
100
AcDbEntity
  8
0
100
AcDbMText
 62
7
  6
CONTINUOUS
  7
STANDARD
 71
1
 72
1
 10
12.88
 20
1.457
 30
0.0
 11
1.0
 21
0.0
 31
0.0
 44
0.9
  1
DRAWING NO.
 40
0.08
 41
0.88
  0
MTEXT
  5
23C
100
AcDbEntity
  8
0
100
AcDbMText
 62
7
  6
CONTINUOUS
  7
TEXTSTYLE_2
 71
1
 72
1
 10
12.08
 20
2.217
 30
0.0
 11
1.0
 21
0.0
 31
0.0
 44
0.9
  1
TITLE
 40
0.1
 41
0.4
  0
MTEXT
  5
23D
100
AcDbEntity
  8
0
100
AcDbMText
 62
7
  6
CONTINUOUS
  7
STANDARD
 71
1
 72
1
 10
12.08
 20
1.457
 30
0.0
 11
1.0
 21
0.0
 31
0.0
 44
0.9
  1
SIZE
 40
0.08
 41
0.32
  0
MTEXT
  5
23E
100
AcDbEntity
  8
0
100
AcDbMText
 62
7
  6
CONTINUOUS
  7
STANDARD
 71
1
 72
1
 10
12.08
 20
1.087
 30
0.0
 11
1.0
 21
0.0
 31
0.0
 44
0.9
  1
SCALE
 40
0.08
 41
0.4
  0
MTEXT
  5
23F
100
AcDbEntity
  8
0
100
AcDbMText
 62
7
  6
CONTINUOUS
  7
TEXTSTYLE_2
 71
2
 72
1
 10
12.5
 20
1.337
 30
0.0
 11
1.0
 21
0.0
 31
0.0
 44
0.9
  1
B
 40
0.1
 41
0.08
  0
MTEXT
  5
240
100
AcDbEntity
  8
0
100
AcDbMText
 62
7
  6
CONTINUOUS
  7
TEXTSTYLE_3
 71
2
 72
1
 10
11.0340287086
 20
2.7679425959
 30
0.0
 11
1.0
 21
0.0
 31
0.0
 44
0.9
  1
This drawing is the property\Pof BANNER ENGINEERING CORP.\PAny use or reproduction,\Pin any form, without prior\Pwritten permission of\PBanner is prohibited.
 40
0.08
 41
1.904
  0
MTEXT
  5
241
100
AcDbEntity
  8
0
100
AcDbMText
 62
7
  6
CONTINUOUS
  7
STANDARD
 71
1
 72
1
 10
14.255
 20
1.087
 30
0.0
 11
1.0
 21
0.0
 31
0.0
 44
0.9
  1
SHEET
 40
0.08
 41
0.4
  0
MTEXT
  5
242
100
AcDbEntity
  8
0
100
AcDbMText
 62
7
  6
CONTINUOUS
  7
STANDARD
 71
1
 72
1
 10
15.63
 20
1.457
 30
0.0
 11
1.0
 21
0.0
 31
0.0
 44
0.9
  1
REV.
 40
0.08
 41
0.32
  0
MTEXT
  5
243
100
AcDbEntity
  8
0
100
AcDbMText
 62
7
  6
CONTINUOUS
  7
STANDARD
 71
3
 72
1
 10
16.38
 20
0.835443
 30
0.0
 11
1.0
 21
0.0
 31
0.0
 44
0.9
  1
CREO
 40
0.07
 41
0.28
  0
MTEXT
  5
244
100
AcDbEntity
  8
0
100
AcDbMText
 62
7
  6
CONTINUOUS
  7
TEXTSTYLE_4
 71
2
 72
1
 10
15.1043392653
 20
2.7174764286
 30
0.0
 11
1.0
 21
0.0
 31
0.0
 44
0.9
  1
BANNER ENGINEERING CORP.
 40
0.12
 41
2.592
  0
MTEXT
  5
245
100
AcDbEntity
  8
0
100
AcDbMText
 62
7
  6
CONTINUOUS
  7
TEXTSTYLE_2
 71
2
 72
1
 10
15.0923490612
 20
2.4764783673
 30
0.0
 11
1.0
 21
0.0
 31
0.0
 44
0.9
  1
www.bannerengineering.com
 40
0.1
 41
2.0
  0
MTEXT
  5
246
100
AcDbEntity
  8
0
100
AcDbMText
 62
7
  6
CONTINUOUS
  7
TEXTSTYLE_2
 71
2
 72
1
 10
9.485
 20
10.312
 30
0.0
 11
1.0
 21
0.0
 31
0.0
 44
0.9
  1
4
 40
0.1
 41
0.08
  0
MTEXT
  5
247
100
AcDbEntity
  8
0
100
AcDbMText
 62
7
  6
CONTINUOUS
  7
TEXTSTYLE_2
 71
2
 72
1
 10
11.455
 20
10.312
 30
0.0
 11
1.0
 21
0.0
 31
0.0
 44
0.9
  1
3
 40
0.1
 41
0.08
  0
MTEXT
  5
248
100
AcDbEntity
  8
0
100
AcDbMText
 62
7
  6
CONTINUOUS
  7
TEXTSTYLE_2
 71
2
 72
1
 10
13.425
 20
10.312
 30
0.0
 11
1.0
 21
0.0
 31
0.0
 44
0.9
  1
2
 40
0.1
 41
0.08
  0
MTEXT
  5
249
100
AcDbEntity
  8
0
100
AcDbMText
 62
7
  6
CONTINUOUS
  7
TEXTSTYLE_2
 71
2
 72
1
 10
15.395
 20
10.312
 30
0.0
 11
1.0
 21
0.0
 31
0.0
 44
0.9
  1
1
 40
0.1
 41
0.08
  0
MTEXT
  5
24A
100
AcDbEntity
  8
0
100
AcDbMText
 62
7
  6
CONTINUOUS
  7
TEXTSTYLE_2
 71
2
 72
1
 10
3.575
 20
10.312
 30
0.0
 11
1.0
 21
0.0
 31
0.0
 44
0.9
  1
7
 40
0.1
 41
0.08
  0
MTEXT
  5
24B
100
AcDbEntity
  8
0
100
AcDbMText
 62
7
  6
CONTINUOUS
  7
TEXTSTYLE_2
 71
2
 72
1
 10
5.545
 20
10.312
 30
0.0
 11
1.0
 21
0.0
 31
0.0
 44
0.9
  1
6
 40
0.1
 41
0.08
  0
MTEXT
  5
24C
100
AcDbEntity
  8
0
100
AcDbMText
 62
7
  6
CONTINUOUS
  7
TEXTSTYLE_2
 71
2
 72
1
 10
7.515
 20
10.312
 30
0.0
 11
1.0
 21
0.0
 31
0.0
 44
0.9
  1
5
 40
0.1
 41
0.08
  0
MTEXT
  5
24D
100
AcDbEntity
  8
0
100
AcDbMText
 62
7
  6
CONTINUOUS
  7
TEXTSTYLE_2
 71
2
 72
1
 10
1.605
 20
10.312
 30
0.0
 11
1.0
 21
0.0
 31
0.0
 44
0.9
  1
8
 40
0.1
 41
0.08
  0
MTEXT
  5
24E
100
AcDbEntity
  8
0
100
AcDbMText
 62
7
  6
CONTINUOUS
  7
TEXTSTYLE_2
 71
2
 72
1
 10
1.605
 20
0.787
 30
0.0
 11
1.0
 21
0.0
 31
0.0
 44
0.9
  1
8
 40
0.1
 41
0.08
  0
MTEXT
  5
24F
100
AcDbEntity
  8
0
100
AcDbMText
 62
7
  6
CONTINUOUS
  7
TEXTSTYLE_2
 71
2
 72
1
 10
3.575
 20
0.787
 30
0.0
 11
1.0
 21
0.0
 31
0.0
 44
0.9
  1
7
 40
0.1
 41
0.08
  0
MTEXT
  5
250
100
AcDbEntity
  8
0
100
AcDbMText
 62
7
  6
CONTINUOUS
  7
TEXTSTYLE_2
 71
2
 72
1
 10
5.545
 20
0.787
 30
0.0
 11
1.0
 21
0.0
 31
0.0
 44
0.9
  1
6
 40
0.1
 41
0.08
  0
MTEXT
  5
251
100
AcDbEntity
  8
0
100
AcDbMText
 62
7
  6
CONTINUOUS
  7
TEXTSTYLE_2
 71
2
 72
1
 10
7.515
 20
0.787
 30
0.0
 11
1.0
 21
0.0
 31
0.0
 44
0.9
  1
5
 40
0.1
 41
0.08
  0
MTEXT
  5
252
100
AcDbEntity
  8
0
100
AcDbMText
 62
7
  6
CONTINUOUS
  7
TEXTSTYLE_2
 71
2
 72
1
 10
9.485
 20
0.787
 30
0.0
 11
1.0
 21
0.0
 31
0.0
 44
0.9
  1
4
 40
0.1
 41
0.08
  0
MTEXT
  5
253
100
AcDbEntity
  8
0
100
AcDbMText
 62
7
  6
CONTINUOUS
  7
TEXTSTYLE_2
 71
2
 72
1
 10
11.455
 20
0.787
 30
0.0
 11
1.0
 21
0.0
 31
0.0
 44
0.9
  1
3
 40
0.1
 41
0.08
  0
MTEXT
  5
254
100
AcDbEntity
  8
0
100
AcDbMText
 62
7
  6
CONTINUOUS
  7
TEXTSTYLE_2
 71
2
 72
1
 10
13.425
 20
0.787
 30
0.0
 11
1.0
 21
0.0
 31
0.0
 44
0.9
  1
2
 40
0.1
 41
0.08
  0
MTEXT
  5
255
100
AcDbEntity
  8
0
100
AcDbMText
 62
7
  6
CONTINUOUS
  7
TEXTSTYLE_2
 71
2
 72
1
 10
15.395
 20
0.787
 30
0.0
 11
1.0
 21
0.0
 31
0.0
 44
0.9
  1
1
 40
0.1
 41
0.08
  0
MTEXT
  5
256
100
AcDbEntity
  8
0
100
AcDbMText
 62
7
  6
CONTINUOUS
  7
TEXTSTYLE_2
 71
3
 72
1
 10
0.52
 20
4.3995
 30
0.0
 11
1.0
 21
0.0
 31
0.0
 44
0.9
  1
B
 40
0.1
 41
0.08
  0
MTEXT
  5
257
100
AcDbEntity
  8
0
100
AcDbMText
 62
7
  6
CONTINUOUS
  7
TEXTSTYLE_2
 71
3
 72
1
 10
0.52
 20
2.0995
 30
0.0
 11
1.0
 21
0.0
 31
0.0
 44
0.9
  1
A
 40
0.1
 41
0.08
  0
MTEXT
  5
258
100
AcDbEntity
  8
0
100
AcDbMText
 62
7
  6
CONTINUOUS
  7
TEXTSTYLE_2
 71
3
 72
1
 10
0.52
 20
8.9995
 30
0.0
 11
1.0
 21
0.0
 31
0.0
 44
0.9
  1
D
 40
0.1
 41
0.08
  0
MTEXT
  5
259
100
AcDbEntity
  8
0
100
AcDbMText
 62
7
  6
CONTINUOUS
  7
TEXTSTYLE_2
 71
3
 72
1
 10
0.52
 20
6.6995
 30
0.0
 11
1.0
 21
0.0
 31
0.0
 44
0.9
  1
C
 40
0.1
 41
0.08
  0
MTEXT
  5
25A
100
AcDbEntity
  8
0
100
AcDbMText
 62
7
  6
CONTINUOUS
  7
TEXTSTYLE_2
 71
1
 72
1
 10
16.48
 20
8.9995
 30
0.0
 11
1.0
 21
0.0
 31
0.0
 44
0.9
  1
D
 40
0.1
 41
0.08
  0
MTEXT
  5
25B
100
AcDbEntity
  8
0
100
AcDbMText
 62
7
  6
CONTINUOUS
  7
TEXTSTYLE_2
 71
1
 72
1
 10
16.48
 20
6.6995
 30
0.0
 11
1.0
 21
0.0
 31
0.0
 44
0.9
  1
C
 40
0.1
 41
0.08
  0
MTEXT
  5
25C
100
AcDbEntity
  8
0
100
AcDbMText
 62
7
  6
CONTINUOUS
  7
TEXTSTYLE_2
 71
1
 72
1
 10
16.48
 20
4.3995
 30
0.0
 11
1.0
 21
0.0
 31
0.0
 44
0.9
  1
B
 40
0.1
 41
0.08
  0
MTEXT
  5
25D
100
AcDbEntity
  8
0
100
AcDbMText
 62
7
  6
CONTINUOUS
  7
TEXTSTYLE_2
 71
1
 72
1
 10
16.48
 20
2.0995
 30
0.0
 11
1.0
 21
0.0
 31
0.0
 44
0.9
  1
A
 40
0.1
 41
0.08
  0
MTEXT
  5
25E
100
AcDbEntity
  8
0
100
AcDbMText
 62
7
  6
CONTINUOUS
  7
STANDARD
 71
1
 72
1
 10
14.819264911
 20
1.0627941725
 30
0.0
 11
1.0
 21
0.0
 31
0.0
 44
0.9
  1
1 OF 1
 40
0.1
 41
0.6
  0
MTEXT
  5
25F
100
AcDbEntity
  8
0
100
AcDbMText
 62
7
  6
CONTINUOUS
  7
STANDARD
 71
1
 72
1
 10
13.8911999818
 20
1.3747321586
 30
0.0
 11
1.0
 21
0.0
 31
0.0
 44
0.9
  1
145504
 40
0.12
 41
0.72
  0
MTEXT
  5
260
100
AcDbEntity
  8
0
100
AcDbMText
 62
7
  6
CONTINUOUS
  7
STANDARD
 71
1
 72
1
 10
12.644264911
 20
1.0627941725
 30
0.0
 11
1.0
 21
0.0
 31
0.0
 44
0.9
  1
1:1
 40
0.1
 41
0.3
  0
MTEXT
  5
261
100
AcDbEntity
  8
0
100
AcDbMText
 62
7
  6
CONTINUOUS
  7
STANDARD
 71
1
 72
1
 10
0.8489354566
 20
1.4938330621
 30
0.0
 11
1.0
 21
0.0
 31
0.0
 44
0.9
  1
NOTES:\P1. ALL DIMENSIONS ARE MILLIMETERS [INCHES] UNLESS OTHERWISE NOTED.\P2. REFER TO "www.bannerengineering.com" FOR ADDITIONAL DATA AND SPECIFICATIONS.
 40
0.1
 41
7.9
  0
MTEXT
  5
262
100
AcDbEntity
  8
0
100
AcDbMText
 62
7
  6
CONTINUOUS
  7
TEXTSTYLE_5
 71
2
 72
1
 10
11.0519651892
 20
2.0334024775
 30
0.0
 11
1.0
 21
0.0
 31
0.0
 44
0.9
  1
C  2015 Banner Engineering Corp.
 40
0.08
 41
1.92
  0
HATCH
  5
263
100
AcDbEntity
  8
0
100
AcDbHatch
 62
7
  6
CONTINUOUS
 10
0.0
 20
0.0
 30
0.0
210
0.0
220
0.0
230
1.0
  2
default__1
 70
0
 71
0
 91
2
 92
1
 93
4
 72
1
 10
6.4265005184
 20
7.4488653465
 11
6.4265005184
 21
7.6299677087
 72
1
 10
6.4894926444
 20
7.6299677087
 11
6.4265005184
 21
7.6299677087
 72
1
 10
6.4894926444
 20
7.4488653465
 11
6.4894926444
 21
7.6299677087
 72
1
 10
6.4894926444
 20
7.4488653465
 11
6.4265005184
 21
7.4488653465
 97
0
 92
1
 93
4
 72
1
 10
6.4265005184
 20
6.059101567
 11
6.4265005184
 21
6.2402039292
 72
1
 10
6.4894926444
 20
6.2402039292
 11
6.4265005184
 21
6.2402039292
 72
1
 10
6.4894926444
 20
6.059101567
 11
6.4894926444
 21
6.2402039292
 72
1
 10
6.4894926444
 20
6.059101567
 11
6.4265005184
 21
6.059101567
 97
0
 75
0
 76
0
 52
285.0
 41
0.0359550612
 77
0
 78
1
 53
285.0
 43
0.0
 44
0.0
 45
0.0347299222
 46
0.0093058546
 79
0
 98
1
 10
0.0
 20
0.0
  0
HATCH
  5
264
100
AcDbEntity
  8
0
100
AcDbHatch
 62
7
  6
CONTINUOUS
 10
0.0
 20
0.0
 30
0.0
210
0.0
220
0.0
230
1.0
  2
default__2
 70
0
 71
0
 91
2
 92
1
 93
50
 72
1
 10
6.7524847704
 20
7.7185503859
 11
6.8548363263
 21
7.7185503859
 72
2
 10
6.8548363263
 20
7.714613378
 40
0.0039370079
 50
291.4384686095
 51
90.0
 73
1
 72
2
 10
6.9109566839
 20
7.5716936362
 40
0.1496062992
 50
111.4384685953
 51
138.2538173122
 73
1
 72
1
 10
6.7524847704
 20
7.6713062914
 11
6.7993351641
 21
7.6713062914
 72
2
 10
6.7524847704
 20
5.7815425119
 40
1.8897637795
 50
90.0
 51
99.9332062644
 73
1
 72
1
 10
6.4265005184
 20
7.4077724372
 11
6.4265005184
 21
7.642977821
 72
1
 10
6.4050485487
 20
7.4449283387
 11
6.4265005184
 21
7.4077724372
 72
1
 10
6.3981540617
 20
7.4449283387
 11
6.4050485487
 21
7.4449283387
 72
1
 10
6.3757646911
 20
7.4061488111
 11
6.3981540617
 21
7.4449283387
 72
1
 10
6.3683828013
 20
7.4061488111
 11
6.3757646911
 21
7.4061488111
 72
1
 10
6.3459934306
 20
7.4449283387
 11
6.3683828013
 21
7.4061488111
 72
1
 10
6.3390989436
 20
7.4449283387
 11
6.3459934306
 21
7.4449283387
 72
1
 10
6.316709573
 20
7.4061488111
 11
6.3390989436
 21
7.4449283387
 72
1
 10
6.3093276832
 20
7.4061488111
 11
6.316709573
 21
7.4061488111
 72
1
 10
6.2869383125
 20
7.4449283387
 11
6.3093276832
 21
7.4061488111
 72
1
 10
6.2800438255
 20
7.4449283387
 11
6.2869383125
 21
7.4449283387
 72
1
 10
6.2576544548
 20
7.4061488111
 11
6.2800438255
 21
7.4449283387
 72
1
 10
6.2502725651
 20
7.4061488111
 11
6.2576544548
 21
7.4061488111
 72
1
 10
6.2278831944
 20
7.4449283387
 11
6.2502725651
 21
7.4061488111
 72
1
 10
6.2209887074
 20
7.4449283387
 11
6.2278831944
 21
7.4449283387
 72
1
 10
6.1985993367
 20
7.4061488111
 11
6.2209887074
 21
7.4449283387
 72
1
 10
6.191217447
 20
7.4061488111
 11
6.1985993367
 21
7.4061488111
 72
1
 10
6.1688280763
 20
7.4449283387
 11
6.191217447
 21
7.4061488111
 72
1
 10
6.1619335893
 20
7.4449283387
 11
6.1688280763
 21
7.4449283387
 72
1
 10
6.1395442186
 20
7.4061488111
 11
6.1619335893
 21
7.4449283387
 72
1
 10
6.1321623289
 20
7.4061488111
 11
6.1395442186
 21
7.4061488111
 72
1
 10
6.1097729582
 20
7.4449283387
 11
6.1321623289
 21
7.4061488111
 72
1
 10
6.1028784712
 20
7.4449283387
 11
6.1097729582
 21
7.4449283387
 72
1
 10
6.0804891005
 20
7.4061488111
 11
6.1028784712
 21
7.4449283387
 72
1
 10
6.0731072108
 20
7.4061488111
 11
6.0804891005
 21
7.4061488111
 72
1
 10
6.0507178401
 20
7.4449283387
 11
6.0731072108
 21
7.4061488111
 72
1
 10
6.0438233531
 20
7.4449283387
 11
6.0507178401
 21
7.4449283387
 72
1
 10
6.0214339824
 20
7.4061488111
 11
6.0438233531
 21
7.4449283387
 72
1
 10
6.0140520926
 20
7.4061488111
 11
6.0214339824
 21
7.4061488111
 72
1
 10
5.991662722
 20
7.4449283387
 11
6.0140520926
 21
7.4061488111
 72
1
 10
5.984768235
 20
7.4449283387
 11
5.991662722
 21
7.4449283387
 72
1
 10
5.9623788643
 20
7.4061488111
 11
5.984768235
 21
7.4449283387
 72
1
 10
5.9549969745
 20
7.4061488111
 11
5.9623788643
 21
7.4061488111
 72
1
 10
5.9355556365
 20
7.4398221963
 11
5.9549969745
 21
7.4061488111
 72
1
 10
5.9355556365
 20
7.4000464489
 11
5.9355556365
 21
7.4398221963
 72
1
 10
5.6866257819
 20
7.3930062469
 11
5.9355556365
 21
7.4000464489
 72
2
 10
5.6868483848
 20
7.3851353783
 40
0.0078740157
 50
91.6200000001
 51
112.6913109659
 73
1
 72
1
 10
5.5073212575
 20
7.3186041666
 11
5.6838108562
 21
7.3923999185
 72
2
 10
5.5103587862
 20
7.3113396264
 40
0.0078740157
 50
112.6913109675
 51
180.0
 73
1
 72
1
 10
5.5024847704
 20
7.277605504
 11
5.5024847704
 21
7.3113396264
 72
2
 10
5.4946107547
 20
7.277605504
 40
0.0078740157
 50
270.0
 51
360.0
 73
1
 72
1
 10
5.4631146917
 20
7.2697314883
 11
5.4946107547
 21
7.2697314883
 72
1
 10
5.4631146917
 20
7.2697314883
 11
5.4631146917
 21
7.3123560101
 72
2
 10
5.5024847704
 20
7.3123560101
 40
0.0393700787
 50
116.4360382242
 51
180.0
 73
1
 72
2
 10
7.15743125
 20
3.9837465096
 40
3.7566929134
 50
96.1881269032
 51
116.4360382242
 73
1
 97
0
 92
1
 93
50
 72
1
 10
6.7524847704
 20
5.9705188898
 11
6.8548363263
 21
5.9705188898
 72
2
 10
7.15743125
 20
9.7053227661
 40
3.7566929134
 50
243.5639617758
 51
263.8118730968
 73
1
 72
2
 10
5.5024847704
 20
6.3767132656
 40
0.0393700787
 50
180.0
 51
243.5639617758
 73
1
 72
1
 10
5.4631146917
 20
6.3767132656
 11
5.4631146917
 21
6.4193377875
 72
1
 10
5.4631146917
 20
6.4193377875
 11
5.4946107547
 21
6.4193377875
 72
2
 10
5.4946107547
 20
6.4114637717
 40
0.0078740157
 50
0.0000000002
 51
90.0
 73
1
 72
1
 10
5.5024847704
 20
6.3777296493
 11
5.5024847704
 21
6.4114637717
 72
2
 10
5.5103587862
 20
6.3777296493
 40
0.0078740157
 50
180.0
 51
247.3086890339
 73
1
 72
1
 10
5.5073212575
 20
6.3704651091
 11
5.6838108562
 21
6.2966693572
 72
2
 10
5.6868483848
 20
6.3039338974
 40
0.0078740157
 50
247.3086890342
 51
268.3799999999
 73
1
 72
1
 10
5.6866257819
 20
6.2960630288
 11
5.9355556365
 21
6.2890228268
 72
1
 10
5.9355556365
 20
6.2782364254
 11
5.9355556365
 21
6.2890228268
 72
1
 10
5.9552406759
 20
6.2441409371
 11
5.9355556365
 21
6.2782364254
 72
1
 10
5.9552406759
 20
6.2441409371
 11
5.9621351629
 21
6.2441409371
 72
1
 10
5.9845245336
 20
6.2829204646
 11
5.9621351629
 21
6.2441409371
 72
1
 10
5.9919064234
 20
6.2829204646
 11
5.9845245336
 21
6.2829204646
 72
1
 10
6.014295794
 20
6.2441409371
 11
5.9919064234
 21
6.2829204646
 72
1
 10
6.014295794
 20
6.2441409371
 11
6.021190281
 21
6.2441409371
 72
1
 10
6.0435796517
 20
6.2829204646
 11
6.021190281
 21
6.2441409371
 72
1
 10
6.0509615415
 20
6.2829204646
 11
6.0435796517
 21
6.2829204646
 72
1
 10
6.0733509121
 20
6.2441409371
 11
6.0509615415
 21
6.2829204646
 72
1
 10
6.0733509121
 20
6.2441409371
 11
6.0802453991
 21
6.2441409371
 72
1
 10
6.1026347698
 20
6.2829204646
 11
6.0802453991
 21
6.2441409371
 72
1
 10
6.1100166596
 20
6.2829204646
 11
6.1026347698
 21
6.2829204646
 72
1
 10
6.1324060302
 20
6.2441409371
 11
6.1100166596
 21
6.2829204646
 72
1
 10
6.1324060302
 20
6.2441409371
 11
6.1393005172
 21
6.2441409371
 72
1
 10
6.1616898879
 20
6.2829204646
 11
6.1393005172
 21
6.2441409371
 72
1
 10
6.1690717777
 20
6.2829204646
 11
6.1616898879
 21
6.2829204646
 72
1
 10
6.1914611484
 20
6.2441409371
 11
6.1690717777
 21
6.2829204646
 72
1
 10
6.1914611484
 20
6.2441409371
 11
6.1983556354
 21
6.2441409371
 72
1
 10
6.220745006
 20
6.2829204646
 11
6.1983556354
 21
6.2441409371
 72
1
 10
6.2281268958
 20
6.2829204646
 11
6.220745006
 21
6.2829204646
 72
1
 10
6.2505162665
 20
6.2441409371
 11
6.2281268958
 21
6.2829204646
 72
1
 10
6.2505162665
 20
6.2441409371
 11
6.2574107535
 21
6.2441409371
 72
1
 10
6.2798001241
 20
6.2829204646
 11
6.2574107535
 21
6.2441409371
 72
1
 10
6.2871820139
 20
6.2829204646
 11
6.2798001241
 21
6.2829204646
 72
1
 10
6.3095713846
 20
6.2441409371
 11
6.2871820139
 21
6.2829204646
 72
1
 10
6.3095713846
 20
6.2441409371
 11
6.3164658716
 21
6.2441409371
 72
1
 10
6.3388552423
 20
6.2829204646
 11
6.3164658716
 21
6.2441409371
 72
1
 10
6.346237132
 20
6.2829204646
 11
6.3388552423
 21
6.2829204646
 72
1
 10
6.3686265027
 20
6.2441409371
 11
6.346237132
 21
6.2829204646
 72
1
 10
6.3686265027
 20
6.2441409371
 11
6.3755209897
 21
6.2441409371
 72
1
 10
6.3979103604
 20
6.2829204646
 11
6.3755209897
 21
6.2441409371
 72
1
 10
6.4052922501
 20
6.2829204646
 11
6.3979103604
 21
6.2829204646
 72
1
 10
6.4265005184
 20
6.2461866664
 11
6.4052922501
 21
6.2829204646
 72
1
 10
6.4265005184
 20
6.0460914548
 11
6.4265005184
 21
6.2461866664
 72
2
 10
6.7524847704
 20
7.9075267639
 40
1.8897637795
 50
260.0667937356
 51
270.0
 73
1
 72
1
 10
6.7524847704
 20
6.0177629843
 11
6.7993351641
 21
6.0177629843
 72
2
 10
6.9109566839
 20
6.1173756396
 40
0.1496062992
 50
221.7461826878
 51
248.5615314047
 73
1
 72
2
 10
6.8548363263
 20
5.9744558977
 40
0.0039370079
 50
270.0
 51
68.5615313911
 73
1
 97
0
 75
0
 76
0
 52
45.0
 41
0.1
 77
0
 78
1
 53
45.0
 43
0.0
 44
0.0
 45
-0.0707106781
 46
0.0707106781
 79
0
 98
1
 10
0.0
 20
0.0
  0
MTEXT
  5
265
100
AcDbEntity
  8
0
100
AcDbMText
 62
7
  6
CONTINUOUS
  7
STANDARD
 71
1
 72
1
 10
2.028592877
 20
7.9952636095
 30
0.0
 11
1.0
 21
0.0
 31
0.0
 44
0.9
  1
A
 40
0.15
 41
0.15
  0
LEADER
  5
266
100
AcDbEntity
  8
0
100
AcDbLeader
 62
7
  6
CONTINUOUS
  3
STANDARD
 71
1
 72
0
 73
3
 75
0
 76
2
 10
2.253592877
 20
7.9202636095
 30
0.0
 10
2.7615233963
 20
7.9202636095
 30
0.0
1001
ACAD
1000
DSTYLE
1002
{
1070
77
1070
0
1070
41
1040
0.32
1002
}
  0
MTEXT
  5
267
100
AcDbEntity
  8
0
100
AcDbMText
 62
7
  6
CONTINUOUS
  7
STANDARD
 71
1
 72
1
 10
2.028592877
 20
5.7904627718
 30
0.0
 11
1.0
 21
0.0
 31
0.0
 44
0.9
  1
A
 40
0.15
 41
0.15
  0
LEADER
  5
268
100
AcDbEntity
  8
0
100
AcDbLeader
 62
7
  6
CONTINUOUS
  3
STANDARD
 71
1
 72
0
 73
3
 75
0
 76
2
 10
2.253592877
 20
5.7154627718
 30
0.0
 10
2.7615233963
 20
5.7154627718
 30
0.0
1001
ACAD
1000
DSTYLE
1002
{
1070
77
1070
0
1070
41
1040
0.32
1002
}
  0
DIMENSION
  5
269
100
AcDbEntity
  8
SCHEME_DIMS
100
AcDbDimension
 62
7
  6
CONTINUOUS
  2
*D0
 10
4.9384537806
 20
5.9705188898
 11
4.9384537806
 21
6.7695346379
 70
160
 71
2
 42
44.4
  1
<>\P[]
  3
DIMSTYLE_1
100
AcDbAlignedDimension
 13
6.7524847704
 23
7.7185503859
 14
6.7524847704
 24
5.9705188898
 50
270.0
100
AcDbRotatedDimension
  0
DIMENSION
  5
26A
100
AcDbEntity
  8
SCHEME_DIMS
100
AcDbDimension
 62
7
  6
CONTINUOUS
  2
*D1
 10
5.9355556365
 20
8.4249858488
 11
6.3971644853
 21
8.3499858488
 70
160
 71
2
 42
23.449729519
  1
<>\P[]
  3
DIMSTYLE_1
100
AcDbAlignedDimension
 13
6.8587733341
 23
7.714613378
 14
5.9355556365
 24
7.4000464489
 50
180.0
100
AcDbRotatedDimension
  0
DIMENSION
  5
26B
100
AcDbEntity
  8
SCHEME_DIMS
100
AcDbDimension
 62
7
  6
CONTINUOUS
  2
*D2
 10
5.4631146917
 20
9.1132946341
 11
6.1609440129
 21
9.0382946341
 70
160
 71
2
 42
35.449729519
  1
<>\P[]
  3
DIMSTYLE_1
100
AcDbAlignedDimension
 13
6.8587733341
 23
7.714613378
 14
5.4631146917
 24
7.2697314883
 50
180.0
100
AcDbRotatedDimension
  0
ACAD_TABLE
  5
26C
100
AcDbEntity
  8
0
 62
7
  6
CONTINUOUS
100
AcDbBlockReference
  2
*T1
 10
12.03
 20
0.887
 30
0.0
100
AcDbTable
342
       63D
343
211
 11
1.0
 21
0.0
 31
0.0
 90
6
 91
3
 92
5
 93
4
 94
0
 95
0
 96
0
 70
1
141
0.33
141
0.45
141
1.14
142
0.65
142
1.15
142
1.025
142
1.075
142
0.45
171
1
172
0
173
0
174
0
175
1
176
1
 91
33
178
0
145
0.0
301
CELL_VALUE
 90
4
  1
 
304
ACVALUE_END
170
1
140
0.1
171
1
172
0
173
0
174
0
175
1
176
1
 91
33
178
0
145
0.0
301
CELL_VALUE
 90
4
  1
 
304
ACVALUE_END
170
1
140
0.1
171
1
172
0
173
0
174
0
175
1
176
1
 91
33
178
0
145
0.0
301
CELL_VALUE
 90
4
  1
 
304
ACVALUE_END
170
1
140
0.1
171
1
172
0
173
0
174
0
175
1
176
1
 91
33
178
0
145
0.0
301
CELL_VALUE
 90
4
  1
 
304
ACVALUE_END
170
1
140
0.1
171
1
172
0
173
0
174
0
175
1
176
1
 91
33
178
0
145
0.0
301
CELL_VALUE
 90
4
  1
 
304
ACVALUE_END
170
1
140
0.1
171
1
172
0
173
0
174
0
175
1
176
1
 91
33
178
0
145
0.0
301
CELL_VALUE
 90
4
  1
 
304
ACVALUE_END
170
1
140
0.1
171
1
172
0
173
0
174
0
175
1
176
1
 91
33
178
0
145
0.0
301
CELL_VALUE
 90
4
  1
 
304
ACVALUE_END
170
1
140
0.1
171
1
172
0
173
0
174
0
175
1
176
1
 91
33
178
0
145
0.0
301
CELL_VALUE
 90
4
  1
 
304
ACVALUE_END
170
1
140
0.1
171
1
172
0
173
0
174
0
175
1
176
1
 91
33
178
0
145
0.0
301
CELL_VALUE
 90
4
  1
 
304
ACVALUE_END
170
1
140
0.1
171
1
172
0
173
0
174
0
175
1
176
1
 91
41
178
0
145
0.0
301
CELL_VALUE
 90
4
  1
B
304
ACVALUE_END
170
8
140
0.1
 64
7
171
1
172
0
173
0
174
0
175
5
176
1
 91
33
178
0
145
0.0
301
CELL_VALUE
 90
4
  1
SA-M30TE12
304
ACVALUE_END
170
8
140
0.1
171
1
172
0
173
1
174
0
175
1
176
1
 91
1
178
0
145
0.0
170
1
171
1
172
0
173
1
174
0
175
1
176
1
 91
1
178
0
145
0.0
170
1
171
1
172
0
173
1
174
0
175
1
176
1
 91
1
178
0
145
0.0
170
1
171
1
172
0
173
1
174
0
175
1
176
1
 91
1
178
0
145
0.0
170
8
  0
LEADER
  5
26D
100
AcDbEntity
  8
NOTES
100
AcDbLeader
 62
7
  6
CONTINUOUS
  3
STANDARD
 71
1
 72
0
 73
0
 75
0
 40
0.1
 41
0.9
 76
3
 10
6.4103042314
 20
6.7044210552
 30
0.0
 10
7.1529160115
 20
5.8595878322
 30
0.0
 10
7.4029160115
 20
5.8595878322
 30
0.0
340
26E
1001
ACAD
1000
DSTYLE
1002
{
1070
77
1070
0
1002
}
  0
MTEXT
  5
26E
102
{ACAD_REACTORS
330
26D
102
}
100
AcDbEntity
  8
NOTES
100
AcDbMText
 62
7
  6
CONTINUOUS
  7
STANDARD
 71
1
 72
1
 10
7.4029160115
 20
5.9095878322
 30
0.0
 11
1.0
 21
0.0
 31
0.0
 44
0.9
  1
M30 X 1.5
 40
0.1
 41
0.9
  0
LEADER
  5
26F
100
AcDbEntity
  8
NOTES
100
AcDbLeader
 62
7
  6
CONTINUOUS
  3
STANDARD
 71
1
 72
0
 73
0
 75
0
 40
0.1
 41
0.6
 76
3
 10
6.4894926444
 20
7.5506129576
 30
0.0
 10
7.2400209945
 20
6.8843889361
 30
0.0
 10
7.4900209945
 20
6.8843889361
 30
0.0
340
270
1001
ACAD
1000
DSTYLE
1002
{
1070
77
1070
0
1002
}
  0
MTEXT
  5
270
102
{ACAD_REACTORS
330
26F
102
}
100
AcDbEntity
  8
NOTES
100
AcDbMText
 62
7
  6
CONTINUOUS
  7
STANDARD
 71
1
 72
1
 10
7.4900209945
 20
6.9343889361
 30
0.0
 11
1.0
 21
0.0
 31
0.0
 44
0.9
  1
WASHER
 40
0.1
 41
0.6
  0
LINE
  5
271
100
AcDbEntity
  8
0
100
AcDbLine
 62
7
  6
CONTINUOUS
 10
0.47
 20
5.586103
 11
0.47
 21
5.412897
  0
LINE
  5
272
100
AcDbEntity
  8
0
100
AcDbLine
 62
7
  6
CONTINUOUS
 10
0.62
 20
10.112
 11
0.62
 21
0.887
  0
LINE
  5
273
100
AcDbEntity
  8
0
100
AcDbLine
 62
7
  6
CONTINUOUS
 10
2.59
 20
0.887
 11
2.59
 21
0.637
  0
LINE
  5
274
100
AcDbEntity
  8
0
100
AcDbLine
 62
7
  6
CONTINUOUS
 10
2.59
 20
10.112
 11
2.59
 21
10.362
  0
LINE
  5
275
100
AcDbEntity
  8
0
100
AcDbLine
 62
7
  6
CONTINUOUS
 10
8.413397
 20
0.737
 11
8.586603
 21
0.737
  0
LINE
  5
276
100
AcDbEntity
  8
0
100
AcDbLine
 62
7
  6
CONTINUOUS
 10
11.1389508475
 20
1.425992839
 11
11.7453418475
 21
1.495385839
  0
LINE
  5
277
100
AcDbEntity
  8
0
100
AcDbLine
 62
7
  6
CONTINUOUS
 10
0.62
 20
0.887
 11
16.38
 21
0.887
  0
LINE
  5
278
100
AcDbEntity
  8
0
100
AcDbLine
 62
7
  6
CONTINUOUS
 10
12.03
 20
1.137
 11
16.38
 21
1.137
  0
LINE
  5
279
100
AcDbEntity
  8
0
100
AcDbLine
 62
7
  6
CONTINUOUS
 10
10.2121898475
 20
1.243294839
 11
10.4342808475
 21
1.243294839
  0
LINE
  5
27A
100
AcDbEntity
  8
0
100
AcDbLine
 62
7
  6
CONTINUOUS
 10
10.4842808475
 20
1.243294839
 11
10.5842808475
 21
1.243294839
  0
LINE
  5
27B
100
AcDbEntity
  8
0
100
AcDbLine
 62
7
  6
CONTINUOUS
 10
10.6342808475
 20
1.243294839
 11
10.8563718475
 21
1.243294839
  0
LINE
  5
27C
100
AcDbEntity
  8
0
100
AcDbLine
 62
7
  6
CONTINUOUS
 10
11.0389508475
 20
1.243294839
 11
11.3171028475
 21
1.243294839
  0
LINE
  5
27D
100
AcDbEntity
  8
0
100
AcDbLine
 62
7
  6
CONTINUOUS
 10
11.3671028475
 20
1.243294839
 11
11.5171888475
 21
1.243294839
  0
LINE
  5
27E
100
AcDbEntity
  8
0
100
AcDbLine
 62
7
  6
CONTINUOUS
 10
11.5671888475
 20
1.243294839
 11
11.8453418475
 21
1.243294839
  0
LINE
  5
27F
100
AcDbEntity
  8
0
100
AcDbLine
 62
7
  6
CONTINUOUS
 10
11.7453418475
 20
0.991203839
 11
11.1389508475
 21
1.060596839
  0
LINE
  5
280
100
AcDbEntity
  8
0
100
AcDbLine
 62
7
  6
CONTINUOUS
 10
4.56
 20
0.887
 11
4.56
 21
0.637
  0
LINE
  5
281
100
AcDbEntity
  8
0
100
AcDbLine
 62
7
  6
CONTINUOUS
 10
4.56
 20
10.112
 11
4.56
 21
10.362
  0
LINE
  5
282
100
AcDbEntity
  8
0
100
AcDbLine
 62
7
  6
CONTINUOUS
 10
0.47
 20
5.412897
 11
0.62
 21
5.4995
  0
LINE
  5
283
100
AcDbEntity
  8
0
100
AcDbLine
 62
7
  6
CONTINUOUS
 10
12.03
 20
1.507
 11
16.38
 21
1.507
  0
LINE
  5
284
100
AcDbEntity
  8
0
100
AcDbLine
 62
7
  6
CONTINUOUS
 10
10.03
 20
1.907
 11
12.03
 21
1.907
  0
LINE
  5
285
100
AcDbEntity
  8
0
100
AcDbLine
 62
7
  6
CONTINUOUS
 10
0.62
 20
5.4995
 11
0.47
 21
5.586103
  0
LINE
  5
286
100
AcDbEntity
  8
0
100
AcDbLine
 62
7
  6
CONTINUOUS
 10
12.03
 20
2.267
 11
16.38
 21
2.267
  0
LINE
  5
287
100
AcDbEntity
  8
0
100
AcDbLine
 62
7
  6
CONTINUOUS
 10
13.6042588488
 20
2.4912273132
 11
13.5568948225
 21
2.4912273132
  0
LINE
  5
288
100
AcDbEntity
  8
0
100
AcDbLine
 62
7
  6
CONTINUOUS
 10
13.5130037982
 20
2.4912273132
 11
13.3994327352
 21
2.4912273132
  0
LINE
  5
289
100
AcDbEntity
  8
0
100
AcDbLine
 62
7
  6
CONTINUOUS
 10
13.3705287192
 20
2.4912273132
 11
13.1673166065
 21
2.4912273132
  0
LINE
  5
28A
100
AcDbEntity
  8
0
100
AcDbLine
 62
7
  6
CONTINUOUS
 10
13.1168435785
 20
2.4912273132
 11
13.0426375373
 21
2.4912273132
  0
LINE
  5
28B
100
AcDbEntity
  8
0
100
AcDbLine
 62
7
  6
CONTINUOUS
 10
12.9962575116
 20
2.4912273132
 11
12.9205934696
 21
2.4912273132
  0
LINE
  5
28C
100
AcDbEntity
  8
0
100
AcDbLine
 62
7
  6
CONTINUOUS
 10
12.8685904408
 20
2.4912273132
 11
12.7943853997
 21
2.4912273132
  0
LINE
  5
28D
100
AcDbEntity
  8
0
100
AcDbLine
 62
7
  6
CONTINUOUS
 10
12.7480043739
 20
2.4912273132
 11
12.672340332
 21
2.4912273132
  0
LINE
  5
28E
100
AcDbEntity
  8
0
100
AcDbLine
 62
7
  6
CONTINUOUS
 10
12.2055050731
 20
2.4912273132
 11
12.3819511709
 21
2.4912273132
  0
LINE
  5
28F
100
AcDbEntity
  8
0
100
AcDbLine
 62
7
  6
CONTINUOUS
 10
12.4394882028
 20
2.4912273132
 11
12.5168642458
 21
2.4912273132
  0
LINE
  5
290
100
AcDbEntity
  8
0
100
AcDbLine
 62
7
  6
CONTINUOUS
 10
12.537150257
 20
2.4912273132
 11
12.6424313154
 21
2.4912273132
  0
LINE
  5
291
100
AcDbEntity
  8
0
100
AcDbLine
 62
7
  6
CONTINUOUS
 10
13.4883447845
 20
2.5159553269
 11
13.5130037982
 21
2.5159553269
  0
LINE
  5
292
100
AcDbEntity
  8
0
100
AcDbLine
 62
7
  6
CONTINUOUS
 10
12.6424313154
 20
2.515977327
 11
12.6224153043
 21
2.515977327
  0
LINE
  5
293
100
AcDbEntity
  8
0
100
AcDbLine
 62
7
  6
CONTINUOUS
 10
12.551601265
 20
2.515977327
 11
12.537150257
 21
2.515977327
  0
LINE
  5
294
100
AcDbEntity
  8
0
100
AcDbLine
 62
7
  6
CONTINUOUS
 10
12.5168642458
 20
2.515977327
 11
12.5055812395
 21
2.515977327
  0
LINE
  5
295
100
AcDbEntity
  8
0
100
AcDbLine
 62
7
  6
CONTINUOUS
 10
12.4623492155
 20
2.515977327
 11
12.4394882028
 21
2.515977327
  0
LINE
  5
296
100
AcDbEntity
  8
0
100
AcDbLine
 62
7
  6
CONTINUOUS
 10
12.3362731456
 20
2.515977327
 11
12.2949101227
 21
2.515977327
  0
LINE
  5
297
100
AcDbEntity
  8
0
100
AcDbLine
 62
7
  6
CONTINUOUS
 10
12.2294470864
 20
2.515977327
 11
12.2055050731
 21
2.515977327
  0
LINE
  5
298
100
AcDbEntity
  8
0
100
AcDbLine
 62
7
  6
CONTINUOUS
 10
12.672340332
 20
2.515977327
 11
12.6909873423
 21
2.515977327
  0
LINE
  5
299
100
AcDbEntity
  8
0
100
AcDbLine
 62
7
  6
CONTINUOUS
 10
12.7276873627
 20
2.515977327
 11
12.7480043739
 21
2.515977327
  0
LINE
  5
29A
100
AcDbEntity
  8
0
100
AcDbLine
 62
7
  6
CONTINUOUS
 10
12.9205934696
 20
2.515977327
 11
12.93923948
 21
2.515977327
  0
LINE
  5
29B
100
AcDbEntity
  8
0
100
AcDbLine
 62
7
  6
CONTINUOUS
 10
12.9759405003
 20
2.515977327
 11
12.9962575116
 21
2.515977327
  0
LINE
  5
29C
100
AcDbEntity
  8
0
100
AcDbLine
 62
7
  6
CONTINUOUS
 10
13.1673166065
 20
2.515977327
 11
13.1912396197
 21
2.515977327
  0
LINE
  5
29D
100
AcDbEntity
  8
0
100
AcDbLine
 62
7
  6
CONTINUOUS
 10
13.2582556569
 20
2.515977327
 11
13.3232596929
 21
2.515977327
  0
LINE
  5
29E
100
AcDbEntity
  8
0
100
AcDbLine
 62
7
  6
CONTINUOUS
 10
13.3994327352
 20
2.515977327
 11
13.4221787478
 21
2.515977327
  0
LINE
  5
29F
100
AcDbEntity
  8
0
100
AcDbLine
 62
7
  6
CONTINUOUS
 10
13.6052818493
 20
2.5163643272
 11
13.60639085
 21
2.5163643272
  0
LINE
  5
2A0
100
AcDbEntity
  8
0
100
AcDbLine
 62
7
  6
CONTINUOUS
 10
13.3282096957
 20
2.5291773343
 11
13.3705287192
 21
2.5291773343
  0
LINE
  5
2A1
100
AcDbEntity
  8
0
100
AcDbLine
 62
7
  6
CONTINUOUS
 10
12.5110972426
 20
2.5296213345
 11
12.5459752619
 21
2.5296213345
  0
LINE
  5
2A2
100
AcDbEntity
  8
0
100
AcDbLine
 62
7
  6
CONTINUOUS
 10
13.6171458559
 20
2.5301143348
 11
13.6292558626
 21
2.5301143348
  0
LINE
  5
2A3
100
AcDbEntity
  8
0
100
AcDbLine
 62
7
  6
CONTINUOUS
 10
13.5159517998
 20
2.5306043351
 11
13.4883447845
 21
2.5306043351
  0
LINE
  5
2A4
100
AcDbEntity
  8
0
100
AcDbLine
 62
7
  6
CONTINUOUS
 10
13.2934226764
 20
2.5324773361
 11
13.2582556569
 21
2.5324773361
  0
LINE
  5
2A5
100
AcDbEntity
  8
0
100
AcDbLine
 62
7
  6
CONTINUOUS
 10
12.2949101227
 20
2.5333023366
 11
12.3362731456
 21
2.5333023366
  0
LINE
  5
2A6
100
AcDbEntity
  8
0
100
AcDbLine
 62
7
  6
CONTINUOUS
 10
13.5222818033
 20
2.5496073456
 11
13.4883447845
 21
2.5496073456
  0
LINE
  5
2A7
100
AcDbEntity
  8
0
100
AcDbLine
 62
7
  6
CONTINUOUS
 10
12.2949101227
 20
2.5499573458
 11
12.3362731456
 21
2.5499573458
  0
LINE
  5
2A8
100
AcDbEntity
  8
0
100
AcDbLine
 62
7
  6
CONTINUOUS
 10
12.5196132473
 20
2.5505713461
 11
12.5401702587
 21
2.5505713461
  0
LINE
  5
2A9
100
AcDbEntity
  8
0
100
AcDbLine
 62
7
  6
CONTINUOUS
 10
13.2582556569
 20
2.5507823463
 11
13.2934226764
 21
2.5507823463
  0
LINE
  5
2AA
100
AcDbEntity
  8
0
100
AcDbLine
 62
7
  6
CONTINUOUS
 10
13.3691097184
 20
2.5540823481
 11
13.3272456952
 21
2.5540823481
  0
LINE
  5
2AB
100
AcDbEntity
  8
0
100
AcDbLine
 62
7
  6
CONTINUOUS
 10
12.5329112547
 20
2.5667383551
 11
12.5267302512
 21
2.5667383551
  0
LINE
  5
2AC
100
AcDbEntity
  8
0
100
AcDbLine
 62
7
  6
CONTINUOUS
 10
13.4221787478
 20
2.5672823554
 11
13.3994327352
 21
2.5672823554
  0
LINE
  5
2AD
100
AcDbEntity
  8
0
100
AcDbLine
 62
7
  6
CONTINUOUS
 10
13.3222956924
 20
2.5672823554
 11
13.2582556569
 21
2.5672823554
  0
LINE
  5
2AE
100
AcDbEntity
  8
0
100
AcDbLine
 62
7
  6
CONTINUOUS
 10
13.1912396197
 20
2.5672823554
 11
13.1673166065
 21
2.5672823554
  0
LINE
  5
2AF
100
AcDbEntity
  8
0
100
AcDbLine
 62
7
  6
CONTINUOUS
 10
13.1397265912
 20
2.5672823554
 11
13.1217935812
 21
2.5672823554
  0
LINE
  5
2B0
100
AcDbEntity
  8
0
100
AcDbLine
 62
7
  6
CONTINUOUS
 10
13.0845015605
 20
2.5672823554
 11
13.0657255501
 21
2.5672823554
  0
LINE
  5
2B1
100
AcDbEntity
  8
0
100
AcDbLine
 62
7
  6
CONTINUOUS
 10
12.93923948
 20
2.5672823554
 11
12.9205934696
 21
2.5672823554
  0
LINE
  5
2B2
100
AcDbEntity
  8
0
100
AcDbLine
 62
7
  6
CONTINUOUS
 10
12.8914734535
 20
2.5672823554
 11
12.8735404436
 21
2.5672823554
  0
LINE
  5
2B3
100
AcDbEntity
  8
0
100
AcDbLine
 62
7
  6
CONTINUOUS
 10
12.8362484229
 20
2.5672823554
 11
12.8174724125
 21
2.5672823554
  0
LINE
  5
2B4
100
AcDbEntity
  8
0
100
AcDbLine
 62
7
  6
CONTINUOUS
 10
12.6909873423
 20
2.5672823554
 11
12.672340332
 21
2.5672823554
  0
LINE
  5
2B5
100
AcDbEntity
  8
0
100
AcDbLine
 62
7
  6
CONTINUOUS
 10
12.3362731456
 20
2.5672823554
 11
12.2949101227
 21
2.5672823554
  0
LINE
  5
2B6
100
AcDbEntity
  8
0
100
AcDbLine
 62
7
  6
CONTINUOUS
 10
12.2055050731
 20
2.5672823554
 11
12.2294470864
 21
2.5672823554
  0
LINE
  5
2B7
100
AcDbEntity
  8
0
100
AcDbLine
 62
7
  6
CONTINUOUS
 10
13.4883447845
 20
2.5672823554
 11
13.5251458049
 21
2.5672823554
  0
LINE
  5
2B8
100
AcDbEntity
  8
0
100
AcDbLine
 62
7
  6
CONTINUOUS
 10
12.5705042755
 20
2.5920323691
 11
12.5133292438
 21
2.5920323691
  0
LINE
  5
2B9
100
AcDbEntity
  8
0
100
AcDbLine
 62
7
  6
CONTINUOUS
 10
12.3715681652
 20
2.5920323691
 11
12.2055050731
 21
2.5920323691
  0
LINE
  5
2BA
100
AcDbEntity
  8
0
100
AcDbLine
 62
7
  6
CONTINUOUS
 10
12.672340332
 20
2.5920323691
 11
12.7727983877
 21
2.5920323691
  0
LINE
  5
2BB
100
AcDbEntity
  8
0
100
AcDbLine
 62
7
  6
CONTINUOUS
 10
12.8174724125
 20
2.5920323691
 11
12.8914734535
 21
2.5920323691
  0
LINE
  5
2BC
100
AcDbEntity
  8
0
100
AcDbLine
 62
7
  6
CONTINUOUS
 10
12.9205934696
 20
2.5920323691
 11
13.0210515254
 21
2.5920323691
  0
LINE
  5
2BD
100
AcDbEntity
  8
0
100
AcDbLine
 62
7
  6
CONTINUOUS
 10
13.0657255501
 20
2.5920323691
 11
13.1397265912
 21
2.5920323691
  0
LINE
  5
2BE
100
AcDbEntity
  8
0
100
AcDbLine
 62
7
  6
CONTINUOUS
 10
13.1673166065
 20
2.5920323691
 11
13.3691097184
 21
2.5920323691
  0
LINE
  5
2BF
100
AcDbEntity
  8
0
100
AcDbLine
 62
7
  6
CONTINUOUS
 10
13.3994327352
 20
2.5920323691
 11
13.5490138181
 21
2.5920323691
  0
LINE
  5
2C0
100
AcDbEntity
  8
0
100
AcDbLine
 62
7
  6
CONTINUOUS
 10
12.4008351814
 20
2.5375433389
 11
12.3907841758
 21
2.5410923409
  0
LINE
  5
2C1
100
AcDbEntity
  8
0
100
AcDbLine
 62
7
  6
CONTINUOUS
 10
12.7926763987
 20
2.4919113136
 11
12.7293963636
 21
2.5522893471
  0
LINE
  5
2C2
100
AcDbEntity
  8
0
100
AcDbLine
 62
7
  6
CONTINUOUS
 10
12.7745063886
 20
2.5913483688
 11
12.8345394219
 21
2.534068337
  0
LINE
  5
2C3
100
AcDbEntity
  8
0
100
AcDbLine
 62
7
  6
CONTINUOUS
 10
13.0409295364
 20
2.4919113136
 11
12.9776495013
 21
2.5522893471
  0
LINE
  5
2C4
100
AcDbEntity
  8
0
100
AcDbLine
 62
7
  6
CONTINUOUS
 10
13.0227595263
 20
2.5913483688
 11
13.0827925596
 21
2.534068337
  0
LINE
  5
2C5
100
AcDbEntity
  8
0
100
AcDbLine
 62
7
  6
CONTINUOUS
 10
12.548053263
 20
2.5284903339
 11
12.5536792662
 21
2.5197973291
  0
LINE
  5
2C6
100
AcDbEntity
  8
0
100
AcDbLine
 62
7
  6
CONTINUOUS
 10
12.5422482598
 20
2.5543913483
 11
12.5349892558
 21
2.5656073545
  0
LINE
  5
2C7
100
AcDbEntity
  8
0
100
AcDbLine
 62
7
  6
CONTINUOUS
 10
12.6203383031
 20
2.5171073276
 11
12.5725822767
 21
2.5909023685
  0
LINE
  5
2C8
100
AcDbEntity
  8
0
100
AcDbLine
 62
7
  6
CONTINUOUS
 10
12.2030300717
 20
2.5895573678
 11
12.2030300717
 21
2.5697573568
  0
LINE
  5
2C9
100
AcDbEntity
  8
0
100
AcDbLine
 62
7
  6
CONTINUOUS
 10
12.2030300717
 20
2.5135023256
 11
12.2030300717
 21
2.4937023146
  0
LINE
  5
2CA
100
AcDbEntity
  8
0
100
AcDbLine
 62
7
  6
CONTINUOUS
 10
12.2319220877
 20
2.564807354
 11
12.2319220877
 21
2.5184523283
  0
LINE
  5
2CB
100
AcDbEntity
  8
0
100
AcDbLine
 62
7
  6
CONTINUOUS
 10
12.2924351213
 20
2.564807354
 11
12.2924351213
 21
2.5524323472
  0
LINE
  5
2CC
100
AcDbEntity
  8
0
100
AcDbLine
 62
7
  6
CONTINUOUS
 10
12.2924351213
 20
2.5184523283
 11
12.2924351213
 21
2.5308273352
  0
LINE
  5
2CD
100
AcDbEntity
  8
0
100
AcDbLine
 62
7
  6
CONTINUOUS
 10
12.4370132015
 20
2.5135023256
 11
12.4370132015
 21
2.4937023146
  0
LINE
  5
2CE
100
AcDbEntity
  8
0
100
AcDbLine
 62
7
  6
CONTINUOUS
 10
12.5193392471
 20
2.4937023146
 11
12.5193392471
 21
2.5135023256
  0
LINE
  5
2CF
100
AcDbEntity
  8
0
100
AcDbLine
 62
7
  6
CONTINUOUS
 10
12.5346752556
 20
2.5135023256
 11
12.5346752556
 21
2.4937023146
  0
LINE
  5
2D0
100
AcDbEntity
  8
0
100
AcDbLine
 62
7
  6
CONTINUOUS
 10
12.6449063168
 20
2.4937023146
 11
12.6449063168
 21
2.5135023256
  0
LINE
  5
2D1
100
AcDbEntity
  8
0
100
AcDbLine
 62
7
  6
CONTINUOUS
 10
12.6698653306
 20
2.4937023146
 11
12.6698653306
 21
2.5135023256
  0
LINE
  5
2D2
100
AcDbEntity
  8
0
100
AcDbLine
 62
7
  6
CONTINUOUS
 10
12.6698653306
 20
2.5697573568
 11
12.6698653306
 21
2.5895573678
  0
LINE
  5
2D3
100
AcDbEntity
  8
0
100
AcDbLine
 62
7
  6
CONTINUOUS
 10
12.6934623437
 20
2.5184523283
 11
12.6934623437
 21
2.564807354
  0
LINE
  5
2D4
100
AcDbEntity
  8
0
100
AcDbLine
 62
7
  6
CONTINUOUS
 10
12.7252123613
 20
2.5504983461
 11
12.7252123613
 21
2.5184523283
  0
LINE
  5
2D5
100
AcDbEntity
  8
0
100
AcDbLine
 62
7
  6
CONTINUOUS
 10
13.5375908118
 20
2.5092733232
 11
13.5357868108
 21
2.5153423266
  0
LINE
  5
2D6
100
AcDbEntity
  8
0
100
AcDbLine
 62
7
  6
CONTINUOUS
 10
12.7504793753
 20
2.5135023256
 11
12.7504793753
 21
2.4937023146
  0
LINE
  5
2D7
100
AcDbEntity
  8
0
100
AcDbLine
 62
7
  6
CONTINUOUS
 10
12.8149974111
 20
2.5697573568
 11
12.8149974111
 21
2.5895573678
  0
LINE
  5
2D8
100
AcDbEntity
  8
0
100
AcDbLine
 62
7
  6
CONTINUOUS
 10
12.8387234242
 20
2.535859338
 11
12.8387234242
 21
2.564807354
  0
LINE
  5
2D9
100
AcDbEntity
  8
0
100
AcDbLine
 62
7
  6
CONTINUOUS
 10
12.8710654422
 20
2.564807354
 11
12.8710654422
 21
2.4937023146
  0
LINE
  5
2DA
100
AcDbEntity
  8
0
100
AcDbLine
 62
7
  6
CONTINUOUS
 10
12.8939484549
 20
2.5895573678
 11
12.8939484549
 21
2.5697573568
  0
LINE
  5
2DB
100
AcDbEntity
  8
0
100
AcDbLine
 62
7
  6
CONTINUOUS
 10
12.9181184683
 20
2.4937023146
 11
12.9181184683
 21
2.5135023256
  0
LINE
  5
2DC
100
AcDbEntity
  8
0
100
AcDbLine
 62
7
  6
CONTINUOUS
 10
12.9181184683
 20
2.5697573568
 11
12.9181184683
 21
2.5895573678
  0
LINE
  5
2DD
100
AcDbEntity
  8
0
100
AcDbLine
 62
7
  6
CONTINUOUS
 10
12.9417144814
 20
2.5184523283
 11
12.9417144814
 21
2.564807354
  0
LINE
  5
2DE
100
AcDbEntity
  8
0
100
AcDbLine
 62
7
  6
CONTINUOUS
 10
12.973465499
 20
2.5504983461
 11
12.973465499
 21
2.5184523283
  0
LINE
  5
2DF
100
AcDbEntity
  8
0
100
AcDbLine
 62
7
  6
CONTINUOUS
 10
12.998732513
 20
2.5135023256
 11
12.998732513
 21
2.4937023146
  0
LINE
  5
2E0
100
AcDbEntity
  8
0
100
AcDbLine
 62
7
  6
CONTINUOUS
 10
13.0632505488
 20
2.5697573568
 11
13.0632505488
 21
2.5895573678
  0
LINE
  5
2E1
100
AcDbEntity
  8
0
100
AcDbLine
 62
7
  6
CONTINUOUS
 10
13.0869765619
 20
2.535859338
 11
13.0869765619
 21
2.564807354
  0
LINE
  5
2E2
100
AcDbEntity
  8
0
100
AcDbLine
 62
7
  6
CONTINUOUS
 10
13.1193185799
 20
2.564807354
 11
13.1193185799
 21
2.4937023146
  0
LINE
  5
2E3
100
AcDbEntity
  8
0
100
AcDbLine
 62
7
  6
CONTINUOUS
 10
13.1422015925
 20
2.5895573678
 11
13.1422015925
 21
2.5697573568
  0
LINE
  5
2E4
100
AcDbEntity
  8
0
100
AcDbLine
 62
7
  6
CONTINUOUS
 10
13.1648416051
 20
2.4937023146
 11
13.1648416051
 21
2.5135023256
  0
LINE
  5
2E5
100
AcDbEntity
  8
0
100
AcDbLine
 62
7
  6
CONTINUOUS
 10
13.1648416051
 20
2.5697573568
 11
13.1648416051
 21
2.5895573678
  0
LINE
  5
2E6
100
AcDbEntity
  8
0
100
AcDbLine
 62
7
  6
CONTINUOUS
 10
13.1937146211
 20
2.5184523283
 11
13.1937146211
 21
2.564807354
  0
LINE
  5
2E7
100
AcDbEntity
  8
0
100
AcDbLine
 62
7
  6
CONTINUOUS
 10
13.2557806555
 20
2.564807354
 11
13.2557806555
 21
2.5532573476
  0
LINE
  5
2E8
100
AcDbEntity
  8
0
100
AcDbLine
 62
7
  6
CONTINUOUS
 10
13.2557806555
 20
2.5300023347
 11
13.2557806555
 21
2.5184523283
  0
LINE
  5
2E9
100
AcDbEntity
  8
0
100
AcDbLine
 62
7
  6
CONTINUOUS
 10
13.2958976778
 20
2.5483073449
 11
13.2958976778
 21
2.5349523375
  0
LINE
  5
2EA
100
AcDbEntity
  8
0
100
AcDbLine
 62
7
  6
CONTINUOUS
 10
12.3907841758
 20
2.5410923409
 11
12.3990241804
 21
2.5458683435
  0
LINE
  5
2EB
100
AcDbEntity
  8
0
100
AcDbLine
 62
7
  6
CONTINUOUS
 10
13.3247706938
 20
2.5565573495
 11
13.3247706938
 21
2.564807354
  0
LINE
  5
2EC
100
AcDbEntity
  8
0
100
AcDbLine
 62
7
  6
CONTINUOUS
 10
13.3257346943
 20
2.5184523283
 11
13.3257346943
 21
2.5267023329
  0
LINE
  5
2ED
100
AcDbEntity
  8
0
100
AcDbLine
 62
7
  6
CONTINUOUS
 10
13.3715847197
 20
2.5895573678
 11
13.3715847197
 21
2.5565573495
  0
LINE
  5
2EE
100
AcDbEntity
  8
0
100
AcDbLine
 62
7
  6
CONTINUOUS
 10
13.3730037205
 20
2.5267023329
 11
13.3730037205
 21
2.4937023146
  0
LINE
  5
2EF
100
AcDbEntity
  8
0
100
AcDbLine
 62
7
  6
CONTINUOUS
 10
13.3969577338
 20
2.4937023146
 11
13.3969577338
 21
2.5135023256
  0
LINE
  5
2F0
100
AcDbEntity
  8
0
100
AcDbLine
 62
7
  6
CONTINUOUS
 10
13.3969577338
 20
2.5697573568
 11
13.3969577338
 21
2.5895573678
  0
LINE
  5
2F1
100
AcDbEntity
  8
0
100
AcDbLine
 62
7
  6
CONTINUOUS
 10
13.4246537492
 20
2.5184523283
 11
13.4246537492
 21
2.564807354
  0
LINE
  5
2F2
100
AcDbEntity
  8
0
100
AcDbLine
 62
7
  6
CONTINUOUS
 10
13.4858697831
 20
2.5281293337
 11
13.4858697831
 21
2.5184303283
  0
LINE
  5
2F3
100
AcDbEntity
  8
0
100
AcDbLine
 62
7
  6
CONTINUOUS
 10
13.4858697831
 20
2.552082347
 11
13.4858697831
 21
2.564807354
  0
LINE
  5
2F4
100
AcDbEntity
  8
0
100
AcDbLine
 62
7
  6
CONTINUOUS
 10
13.5154787995
 20
2.5134803256
 11
13.5154787995
 21
2.4937023146
  0
LINE
  5
2F5
100
AcDbEntity
  8
0
100
AcDbLine
 62
7
  6
CONTINUOUS
 10
13.6146708546
 20
2.525013332
 11
13.6146708546
 21
2.5276393334
  0
LINE
  5
2F6
100
AcDbEntity
  8
0
100
AcDbLine
 62
7
  6
CONTINUOUS
 10
13.631730864
 20
2.5276393334
 11
13.631730864
 21
2.516087327
  0
LINE
  5
2F7
100
AcDbEntity
  8
0
100
AcDbLine
 62
7
  6
CONTINUOUS
 10
13.7286871589
 20
2.5350697372
 11
13.7286871589
 21
2.5456869438
  0
LINE
  5
2F8
100
AcDbEntity
  8
0
100
AcDbLine
 62
7
  6
CONTINUOUS
 10
12.5112392426
 20
2.5908833685
 11
12.4644392167
 21
2.5171263276
  0
LINE
  5
2F9
100
AcDbEntity
  8
0
100
AcDbLine
 62
7
  6
CONTINUOUS
 10
12.5246402501
 20
2.5655893545
 11
12.5175232461
 21
2.5543723483
  0
LINE
  5
2FA
100
AcDbEntity
  8
0
100
AcDbLine
 62
7
  6
CONTINUOUS
 10
12.5034912383
 20
2.5197783291
 11
12.5090072414
 21
2.5284723339
  0
ARC
  5
2FB
100
AcDbEntity
  8
0
100
AcDbCircle
 62
7
  6
CONTINUOUS
 10
12.7943847649
 20
2.4937027294
 40
0.0024754162
100
AcDbArc
 50
226.3593695813
 51
270.0146919953
  0
ARC
  5
2FC
100
AcDbEntity
  8
0
100
AcDbCircle
 62
7
  6
CONTINUOUS
 10
12.2055050712
 20
2.4937023128
 40
0.0024749995
100
AcDbArc
 50
179.9999571957
 51
270.0000428043
  0
ARC
  5
2FD
100
AcDbEntity
  8
0
100
AcDbCircle
 62
7
  6
CONTINUOUS
 10
12.8685904427
 20
2.4937023128
 40
0.0024749995
100
AcDbArc
 50
269.9999571957
 51
0.0000428043
  0
ARC
  5
2FE
100
AcDbEntity
  8
0
100
AcDbCircle
 62
7
  6
CONTINUOUS
 10
12.7480043758
 20
2.4937023128
 40
0.0024749995
100
AcDbArc
 50
269.9999571957
 51
0.0000428043
  0
ARC
  5
2FF
100
AcDbEntity
  8
0
100
AcDbCircle
 62
7
  6
CONTINUOUS
 10
12.6723403301
 20
2.4937023128
 40
0.0024749995
100
AcDbArc
 50
179.9999571957
 51
270.0000428043
  0
ARC
  5
300
100
AcDbEntity
  8
0
100
AcDbCircle
 62
7
  6
CONTINUOUS
 10
12.5371502552
 20
2.4937023128
 40
0.0024749995
100
AcDbArc
 50
179.9999571957
 51
270.0000428043
  0
ARC
  5
301
100
AcDbEntity
  8
0
100
AcDbCircle
 62
7
  6
CONTINUOUS
 10
12.6424313172
 20
2.4937023128
 40
0.0024749995
100
AcDbArc
 50
269.9999571957
 51
0.0000428043
  0
ARC
  5
302
100
AcDbEntity
  8
0
100
AcDbCircle
 62
7
  6
CONTINUOUS
 10
12.439488201
 20
2.4937023128
 40
0.0024749995
100
AcDbArc
 50
179.9999571957
 51
270.0000428043
  0
ARC
  5
303
100
AcDbEntity
  8
0
100
AcDbCircle
 62
7
  6
CONTINUOUS
 10
12.5168642476
 20
2.4937023128
 40
0.0024749995
100
AcDbArc
 50
269.9999571957
 51
0.0000428043
  0
ARC
  5
304
100
AcDbEntity
  8
0
100
AcDbCircle
 62
7
  6
CONTINUOUS
 10
12.371573659
 20
2.5302846524
 40
0.061747717
100
AcDbArc
 50
59.5385584989
 51
90.0050977555
  0
ARC
  5
305
100
AcDbEntity
  8
0
100
AcDbCircle
 62
7
  6
CONTINUOUS
 10
12.3792298263
 20
2.539634765
 40
0.048483885
100
AcDbArc
 50
273.21763719
 51
303.0749121182
  0
ARC
  5
306
100
AcDbEntity
  8
0
100
AcDbCircle
 62
7
  6
CONTINUOUS
 10
12.3931760319
 20
2.5166878286
 40
0.0222174455
100
AcDbArc
 50
4.0793399388
 51
69.834329283
  0
ARC
  5
307
100
AcDbEntity
  8
0
100
AcDbCircle
 62
7
  6
CONTINUOUS
 10
12.3940692204
 20
2.5168671561
 40
0.0213072145
100
AcDbArc
 50
303.0488228549
 51
355.7263138674
  0
ARC
  5
308
100
AcDbEntity
  8
0
100
AcDbCircle
 62
7
  6
CONTINUOUS
 10
12.400005721
 20
2.5168763464
 40
0.0153945295
100
AcDbArc
 50
354.0454548824
 51
5.1878013979
  0
ARC
  5
309
100
AcDbEntity
  8
0
100
AcDbCircle
 62
7
  6
CONTINUOUS
 10
12.3362731456
 20
2.5246398318
 40
0.0086625048
100
AcDbArc
 50
270.0
 51
90.0
  0
ARC
  5
30A
100
AcDbEntity
  8
0
100
AcDbCircle
 62
7
  6
CONTINUOUS
 10
12.5459747223
 20
2.5271458744
 40
0.0024754602
100
AcDbArc
 50
32.8959418573
 51
89.9875097202
  0
ARC
  5
30B
100
AcDbEntity
  8
0
100
AcDbCircle
 62
7
  6
CONTINUOUS
 10
12.4623492858
 20
2.5184525273
 40
0.0024752003
100
AcDbArc
 50
269.9983726451
 51
327.602165307
  0
ARC
  5
30C
100
AcDbEntity
  8
0
100
AcDbCircle
 62
7
  6
CONTINUOUS
 10
12.5110971723
 20
2.5271461342
 40
0.0024752003
100
AcDbArc
 50
89.998372645
 51
147.602165307
  0
ARC
  5
30D
100
AcDbEntity
  8
0
100
AcDbCircle
 62
7
  6
CONTINUOUS
 10
12.5055811302
 20
2.518452367
 40
0.0024750401
100
AcDbArc
 50
147.6063258011
 51
270.0025305754
  0
ARC
  5
30E
100
AcDbEntity
  8
0
100
AcDbCircle
 62
7
  6
CONTINUOUS
 10
12.2294470882
 20
2.5184523265
 40
0.0024749995
100
AcDbArc
 50
269.9999571957
 51
0.0000428043
  0
ARC
  5
30F
100
AcDbEntity
  8
0
100
AcDbCircle
 62
7
  6
CONTINUOUS
 10
12.2055050712
 20
2.5135023274
 40
0.0024749995
100
AcDbArc
 50
89.9999571957
 51
180.0000428043
  0
ARC
  5
310
100
AcDbEntity
  8
0
100
AcDbCircle
 62
7
  6
CONTINUOUS
 10
12.2949101208
 20
2.530827337
 40
0.0024749995
100
AcDbArc
 50
89.9999571957
 51
180.0000428043
  0
ARC
  5
311
100
AcDbEntity
  8
0
100
AcDbCircle
 62
7
  6
CONTINUOUS
 10
12.2949101208
 20
2.5184523265
 40
0.0024749995
100
AcDbArc
 50
179.9999571957
 51
270.0000428043
  0
ARC
  5
312
100
AcDbEntity
  8
0
100
AcDbCircle
 62
7
  6
CONTINUOUS
 10
12.5371502552
 20
2.5135023274
 40
0.0024749995
100
AcDbArc
 50
89.9999571957
 51
180.0000428043
  0
ARC
  5
313
100
AcDbEntity
  8
0
100
AcDbCircle
 62
7
  6
CONTINUOUS
 10
12.439488201
 20
2.5135023274
 40
0.0024749995
100
AcDbArc
 50
89.9999571957
 51
180.0000428043
  0
ARC
  5
314
100
AcDbEntity
  8
0
100
AcDbCircle
 62
7
  6
CONTINUOUS
 10
12.5168642476
 20
2.5135023274
 40
0.0024749995
100
AcDbArc
 50
359.9999571957
 51
90.0000428043
  0
ARC
  5
315
100
AcDbEntity
  8
0
100
AcDbCircle
 62
7
  6
CONTINUOUS
 10
12.3771587979
 20
2.5826952352
 40
0.0428289026
100
AcDbArc
 50
300.6990502959
 51
319.0591802498
  0
ARC
  5
316
100
AcDbEntity
  8
0
100
AcDbCircle
 62
7
  6
CONTINUOUS
 10
12.3922357827
 20
2.5632132173
 40
0.0229166529
100
AcDbArc
 50
20.6563876465
 51
62.3316896973
  0
ARC
  5
317
100
AcDbEntity
  8
0
100
AcDbCircle
 62
7
  6
CONTINUOUS
 10
12.3971873948
 20
2.5665668817
 40
0.0171568255
100
AcDbArc
 50
315.9145124245
 51
16.0049121282
  0
ARC
  5
318
100
AcDbEntity
  8
0
100
AcDbCircle
 62
7
  6
CONTINUOUS
 10
12.3362731456
 20
2.5586198506
 40
0.0086625048
100
AcDbArc
 50
270.0
 51
90.0
  0
ARC
  5
319
100
AcDbEntity
  8
0
100
AcDbCircle
 62
7
  6
CONTINUOUS
 10
12.532910715
 20
2.564262895
 40
0.0024754602
100
AcDbArc
 50
32.8959418573
 51
89.9875097202
  0
ARC
  5
31A
100
AcDbEntity
  8
0
100
AcDbCircle
 62
7
  6
CONTINUOUS
 10
12.5401702375
 20
2.5530465533
 40
0.0024752071
100
AcDbArc
 50
270.0004896793
 51
32.9089806818
  0
ARC
  5
31B
100
AcDbEntity
  8
0
100
AcDbCircle
 62
7
  6
CONTINUOUS
 10
12.5267301809
 20
2.5642631548
 40
0.0024752003
100
AcDbArc
 50
89.998372645
 51
147.602165307
  0
ARC
  5
31C
100
AcDbEntity
  8
0
100
AcDbCircle
 62
7
  6
CONTINUOUS
 10
12.5133291735
 20
2.5895571688
 40
0.0024752003
100
AcDbArc
 50
89.9983726451
 51
147.602165307
  0
ARC
  5
31D
100
AcDbEntity
  8
0
100
AcDbCircle
 62
7
  6
CONTINUOUS
 10
12.519613138
 20
2.5530463862
 40
0.0024750401
100
AcDbArc
 50
147.6063258012
 51
270.0025305754
  0
ARC
  5
31E
100
AcDbEntity
  8
0
100
AcDbCircle
 62
7
  6
CONTINUOUS
 10
12.2055050712
 20
2.5895573696
 40
0.0024749995
100
AcDbArc
 50
89.9999571957
 51
180.0000428043
  0
ARC
  5
31F
100
AcDbEntity
  8
0
100
AcDbCircle
 62
7
  6
CONTINUOUS
 10
12.2055050712
 20
2.5697573549
 40
0.0024749995
100
AcDbArc
 50
179.9999571957
 51
270.0000428043
  0
ARC
  5
320
100
AcDbEntity
  8
0
100
AcDbCircle
 62
7
  6
CONTINUOUS
 10
12.2294470882
 20
2.5648073559
 40
0.0024749995
100
AcDbArc
 50
359.9999571957
 51
90.0000428043
  0
ARC
  5
321
100
AcDbEntity
  8
0
100
AcDbCircle
 62
7
  6
CONTINUOUS
 10
12.2949101208
 20
2.5648073559
 40
0.0024749995
100
AcDbArc
 50
89.9999571957
 51
180.0000428043
  0
ARC
  5
322
100
AcDbEntity
  8
0
100
AcDbCircle
 62
7
  6
CONTINUOUS
 10
12.2949101208
 20
2.5524323453
 40
0.0024749995
100
AcDbArc
 50
179.9999571957
 51
270.0000428043
  0
ARC
  5
323
100
AcDbEntity
  8
0
100
AcDbCircle
 62
7
  6
CONTINUOUS
 10
12.8362481229
 20
2.5358592748
 40
0.0024753014
100
AcDbArc
 50
226.3461263059
 51
0.0014637321
  0
ARC
  5
324
100
AcDbEntity
  8
0
100
AcDbCircle
 62
7
  6
CONTINUOUS
 10
12.7276876627
 20
2.5504984093
 40
0.0024753014
100
AcDbArc
 50
46.3461263059
 51
180.0014637321
  0
ARC
  5
325
100
AcDbEntity
  8
0
100
AcDbCircle
 62
7
  6
CONTINUOUS
 10
12.5516012439
 20
2.5184525341
 40
0.0024752071
100
AcDbArc
 50
270.0004896794
 51
32.9089806818
  0
ARC
  5
326
100
AcDbEntity
  8
0
100
AcDbCircle
 62
7
  6
CONTINUOUS
 10
12.7276873608
 20
2.5184523265
 40
0.0024749995
100
AcDbArc
 50
179.9999571957
 51
270.0000428043
  0
ARC
  5
327
100
AcDbEntity
  8
0
100
AcDbCircle
 62
7
  6
CONTINUOUS
 10
12.7480043758
 20
2.5135023274
 40
0.0024749995
100
AcDbArc
 50
359.9999571957
 51
90.0000428043
  0
ARC
  5
328
100
AcDbEntity
  8
0
100
AcDbCircle
 62
7
  6
CONTINUOUS
 10
12.6723403301
 20
2.5135023274
 40
0.0024749995
100
AcDbArc
 50
89.9999571957
 51
180.0000428043
  0
ARC
  5
329
100
AcDbEntity
  8
0
100
AcDbCircle
 62
7
  6
CONTINUOUS
 10
12.6909873442
 20
2.5184523265
 40
0.0024749995
100
AcDbArc
 50
269.9999571957
 51
0.0000428043
  0
ARC
  5
32A
100
AcDbEntity
  8
0
100
AcDbCircle
 62
7
  6
CONTINUOUS
 10
12.6424313172
 20
2.5135023274
 40
0.0024749995
100
AcDbArc
 50
359.9999571957
 51
90.0000428043
  0
ARC
  5
32B
100
AcDbEntity
  8
0
100
AcDbCircle
 62
7
  6
CONTINUOUS
 10
12.6224154248
 20
2.518451368
 40
0.002474041
100
AcDbArc
 50
212.9056413127
 51
269.9972091756
  0
ARC
  5
32C
100
AcDbEntity
  8
0
100
AcDbCircle
 62
7
  6
CONTINUOUS
 10
12.8362484247
 20
2.5648073559
 40
0.0024749995
100
AcDbArc
 50
359.9999571957
 51
90.0000428043
  0
ARC
  5
32D
100
AcDbEntity
  8
0
100
AcDbCircle
 62
7
  6
CONTINUOUS
 10
12.8174724106
 20
2.5697573549
 40
0.0024749995
100
AcDbArc
 50
179.9999571957
 51
270.0000428043
  0
ARC
  5
32E
100
AcDbEntity
  8
0
100
AcDbCircle
 62
7
  6
CONTINUOUS
 10
12.8174724106
 20
2.5895573696
 40
0.0024749995
100
AcDbArc
 50
89.9999571957
 51
180.0000428043
  0
ARC
  5
32F
100
AcDbEntity
  8
0
100
AcDbCircle
 62
7
  6
CONTINUOUS
 10
12.8914734553
 20
2.5895573696
 40
0.0024749995
100
AcDbArc
 50
359.9999571957
 51
90.0000428043
  0
ARC
  5
330
100
AcDbEntity
  8
0
100
AcDbCircle
 62
7
  6
CONTINUOUS
 10
12.8914734553
 20
2.5697573549
 40
0.0024749995
100
AcDbArc
 50
269.9999571957
 51
0.0000428043
  0
ARC
  5
331
100
AcDbEntity
  8
0
100
AcDbCircle
 62
7
  6
CONTINUOUS
 10
12.8735404417
 20
2.5648073559
 40
0.0024749995
100
AcDbArc
 50
89.9999571957
 51
180.0000428043
  0
ARC
  5
332
100
AcDbEntity
  8
0
100
AcDbCircle
 62
7
  6
CONTINUOUS
 10
12.6909873442
 20
2.5648073559
 40
0.0024749995
100
AcDbArc
 50
359.9999571957
 51
90.0000428043
  0
ARC
  5
333
100
AcDbEntity
  8
0
100
AcDbCircle
 62
7
  6
CONTINUOUS
 10
12.6723403301
 20
2.5697573549
 40
0.0024749995
100
AcDbArc
 50
179.9999571957
 51
270.0000428043
  0
ARC
  5
334
100
AcDbEntity
  8
0
100
AcDbCircle
 62
7
  6
CONTINUOUS
 10
12.6723403301
 20
2.5895573696
 40
0.0024749995
100
AcDbArc
 50
89.9999571957
 51
180.0000428043
  0
ARC
  5
335
100
AcDbEntity
  8
0
100
AcDbCircle
 62
7
  6
CONTINUOUS
 10
12.570504655
 20
2.589557409
 40
0.0024749602
100
AcDbArc
 50
32.9172174468
 51
90.0087853097
  0
ARC
  5
336
100
AcDbEntity
  8
0
100
AcDbCircle
 62
7
  6
CONTINUOUS
 10
12.7727985224
 20
2.5895582013
 40
0.0024741678
100
AcDbArc
 50
46.3477981899
 51
90.0031206038
  0
ARC
  5
337
100
AcDbEntity
  8
0
100
AcDbCircle
 62
7
  6
CONTINUOUS
 10
13.5463505148
 20
2.4094934586
 40
0.1825583387
100
AcDbArc
 50
79.8618509324
 51
89.1640948679
  0
ARC
  5
338
100
AcDbEntity
  8
0
100
AcDbCircle
 62
7
  6
CONTINUOUS
 10
13.5282557878
 20
2.4386010294
 40
0.117346916
100
AcDbArc
 50
58.614769177
 51
62.3737227606
  0
ARC
  5
339
100
AcDbEntity
  8
0
100
AcDbCircle
 62
7
  6
CONTINUOUS
 10
13.5571178432
 20
2.509473798
 40
0.0459185159
100
AcDbArc
 50
15.6740290068
 51
20.9917271228
  0
ARC
  5
33A
100
AcDbEntity
  8
0
100
AcDbCircle
 62
7
  6
CONTINUOUS
 10
13.4974076135
 20
2.5055452462
 40
0.0396099176
100
AcDbArc
 50
14.3201081283
 51
22.4984722084
  0
ARC
  5
33B
100
AcDbEntity
  8
0
100
AcDbCircle
 62
7
  6
CONTINUOUS
 10
13.5161192671
 20
2.5062372524
 40
0.0243676582
100
AcDbArc
 50
63.3666028271
 51
90.3937697637
  0
ARC
  5
33C
100
AcDbEntity
  8
0
100
AcDbCircle
 62
7
  6
CONTINUOUS
 10
13.6036139387
 20
2.5111006186
 40
0.0198837666
100
AcDbArc
 50
271.8586572978
 51
289.4131338543
  0
ARC
  5
33D
100
AcDbEntity
  8
0
100
AcDbCircle
 62
7
  6
CONTINUOUS
 10
13.5577001432
 20
2.5085494649
 40
0.0173408616
100
AcDbArc
 50
232.4713476722
 51
267.338189944
  0
ARC
  5
33E
100
AcDbEntity
  8
0
100
AcDbCircle
 62
7
  6
CONTINUOUS
 10
13.5130038
 20
2.4937023128
 40
0.0024749995
100
AcDbArc
 50
269.9999571957
 51
0.0000428043
  0
ARC
  5
33F
100
AcDbEntity
  8
0
100
AcDbCircle
 62
7
  6
CONTINUOUS
 10
13.3994327333
 20
2.4937023128
 40
0.0024749995
100
AcDbArc
 50
179.9999571957
 51
270.0000428043
  0
ARC
  5
340
100
AcDbEntity
  8
0
100
AcDbCircle
 62
7
  6
CONTINUOUS
 10
13.1168435803
 20
2.4937023128
 40
0.0024749995
100
AcDbArc
 50
269.9999571957
 51
0.0000428043
  0
ARC
  5
341
100
AcDbEntity
  8
0
100
AcDbCircle
 62
7
  6
CONTINUOUS
 10
12.9962575135
 20
2.4937023128
 40
0.0024749995
100
AcDbArc
 50
269.9999571957
 51
0.0000428043
  0
ARC
  5
342
100
AcDbEntity
  8
0
100
AcDbCircle
 62
7
  6
CONTINUOUS
 10
12.9205934678
 20
2.4937023128
 40
0.0024749995
100
AcDbArc
 50
179.9999571957
 51
270.0000428043
  0
ARC
  5
343
100
AcDbEntity
  8
0
100
AcDbCircle
 62
7
  6
CONTINUOUS
 10
13.370528721
 20
2.4937023128
 40
0.0024749995
100
AcDbArc
 50
269.9999571957
 51
0.0000428043
  0
ARC
  5
344
100
AcDbEntity
  8
0
100
AcDbCircle
 62
7
  6
CONTINUOUS
 10
13.1673166046
 20
2.4937023128
 40
0.0024749995
100
AcDbArc
 50
179.9999571957
 51
270.0000428043
  0
ARC
  5
345
100
AcDbEntity
  8
0
100
AcDbCircle
 62
7
  6
CONTINUOUS
 10
13.0426374026
 20
2.493701481
 40
0.0024741678
100
AcDbArc
 50
226.3477981898
 51
270.0031206038
  0
ARC
  5
346
100
AcDbEntity
  8
0
100
AcDbCircle
 62
7
  6
CONTINUOUS
 10
13.0845012605
 20
2.5358592748
 40
0.0024753014
100
AcDbArc
 50
226.3461263059
 51
0.0014637321
  0
ARC
  5
347
100
AcDbEntity
  8
0
100
AcDbCircle
 62
7
  6
CONTINUOUS
 10
12.9759408003
 20
2.5504984093
 40
0.0024753014
100
AcDbArc
 50
46.3461263059
 51
180.0014637321
  0
ARC
  5
348
100
AcDbEntity
  8
0
100
AcDbCircle
 62
7
  6
CONTINUOUS
 10
12.9759404985
 20
2.5184523265
 40
0.0024749995
100
AcDbArc
 50
179.9999571957
 51
270.0000428043
  0
ARC
  5
349
100
AcDbEntity
  8
0
100
AcDbCircle
 62
7
  6
CONTINUOUS
 10
12.9962575135
 20
2.5135023274
 40
0.0024749995
100
AcDbArc
 50
359.9999571957
 51
90.0000428043
  0
ARC
  5
34A
100
AcDbEntity
  8
0
100
AcDbCircle
 62
7
  6
CONTINUOUS
 10
12.9205934678
 20
2.5135023274
 40
0.0024749995
100
AcDbArc
 50
89.9999571957
 51
180.0000428042
  0
ARC
  5
34B
100
AcDbEntity
  8
0
100
AcDbCircle
 62
7
  6
CONTINUOUS
 10
12.9392394818
 20
2.5184523265
 40
0.0024749995
100
AcDbArc
 50
269.9999571957
 51
0.0000428043
  0
ARC
  5
34C
100
AcDbEntity
  8
0
100
AcDbCircle
 62
7
  6
CONTINUOUS
 10
13.2582556551
 20
2.5300023366
 40
0.0024749995
100
AcDbArc
 50
89.9999571957
 51
180.0000428043
  0
ARC
  5
34D
100
AcDbEntity
  8
0
100
AcDbCircle
 62
7
  6
CONTINUOUS
 10
13.2582556551
 20
2.5184523265
 40
0.0024749995
100
AcDbArc
 50
179.9999571957
 51
270.0000428043
  0
ARC
  5
34E
100
AcDbEntity
  8
0
100
AcDbCircle
 62
7
  6
CONTINUOUS
 10
13.1673166046
 20
2.5135023274
 40
0.0024749995
100
AcDbArc
 50
89.9999571957
 51
180.0000428043
  0
ARC
  5
34F
100
AcDbEntity
  8
0
100
AcDbCircle
 62
7
  6
CONTINUOUS
 10
13.1912396216
 20
2.5184523265
 40
0.0024749995
100
AcDbArc
 50
269.9999571957
 51
0.0000428042
  0
ARC
  5
350
100
AcDbEntity
  8
0
100
AcDbCircle
 62
7
  6
CONTINUOUS
 10
13.2582556551
 20
2.5532573458
 40
0.0024749995
100
AcDbArc
 50
179.9999571957
 51
270.0000428043
  0
ARC
  5
351
100
AcDbEntity
  8
0
100
AcDbCircle
 62
7
  6
CONTINUOUS
 10
13.0845015624
 20
2.5648073559
 40
0.0024749995
100
AcDbArc
 50
359.9999571957
 51
90.0000428043
  0
ARC
  5
352
100
AcDbEntity
  8
0
100
AcDbCircle
 62
7
  6
CONTINUOUS
 10
13.0657255483
 20
2.5697573549
 40
0.0024749995
100
AcDbArc
 50
179.9999571957
 51
270.0000428043
  0
ARC
  5
353
100
AcDbEntity
  8
0
100
AcDbCircle
 62
7
  6
CONTINUOUS
 10
13.0657255483
 20
2.5895573696
 40
0.0024749995
100
AcDbArc
 50
89.9999571957
 51
180.0000428043
  0
ARC
  5
354
100
AcDbEntity
  8
0
100
AcDbCircle
 62
7
  6
CONTINUOUS
 10
13.139726593
 20
2.5895573696
 40
0.0024749995
100
AcDbArc
 50
359.9999571957
 51
90.0000428043
  0
ARC
  5
355
100
AcDbEntity
  8
0
100
AcDbCircle
 62
7
  6
CONTINUOUS
 10
13.139726593
 20
2.5697573549
 40
0.0024749995
100
AcDbArc
 50
269.9999571957
 51
0.0000428042
  0
ARC
  5
356
100
AcDbEntity
  8
0
100
AcDbCircle
 62
7
  6
CONTINUOUS
 10
13.1217935794
 20
2.5648073559
 40
0.0024749995
100
AcDbArc
 50
89.9999571957
 51
180.0000428042
  0
ARC
  5
357
100
AcDbEntity
  8
0
100
AcDbCircle
 62
7
  6
CONTINUOUS
 10
12.9392394818
 20
2.5648073559
 40
0.0024749995
100
AcDbArc
 50
359.9999571957
 51
90.0000428043
  0
ARC
  5
358
100
AcDbEntity
  8
0
100
AcDbCircle
 62
7
  6
CONTINUOUS
 10
12.9205934678
 20
2.5697573549
 40
0.0024749995
100
AcDbArc
 50
179.9999571957
 51
270.0000428043
  0
ARC
  5
359
100
AcDbEntity
  8
0
100
AcDbCircle
 62
7
  6
CONTINUOUS
 10
12.9205934678
 20
2.5895573696
 40
0.0024749995
100
AcDbArc
 50
89.9999571957
 51
180.0000428042
  0
ARC
  5
35A
100
AcDbEntity
  8
0
100
AcDbCircle
 62
7
  6
CONTINUOUS
 10
13.1912396216
 20
2.5648073559
 40
0.0024749995
100
AcDbArc
 50
359.9999571957
 51
90.0000428043
  0
ARC
  5
35B
100
AcDbEntity
  8
0
100
AcDbCircle
 62
7
  6
CONTINUOUS
 10
13.1673166046
 20
2.5697573549
 40
0.0024749995
100
AcDbArc
 50
179.9999571957
 51
270.0000428043
  0
ARC
  5
35C
100
AcDbEntity
  8
0
100
AcDbCircle
 62
7
  6
CONTINUOUS
 10
13.1673166046
 20
2.5895573696
 40
0.0024749995
100
AcDbArc
 50
89.9999571957
 51
180.0000428043
  0
ARC
  5
35D
100
AcDbEntity
  8
0
100
AcDbCircle
 62
7
  6
CONTINUOUS
 10
13.2582556551
 20
2.5648073559
 40
0.0024749995
100
AcDbArc
 50
89.9999571957
 51
180.0000428043
  0
ARC
  5
35E
100
AcDbEntity
  8
0
100
AcDbCircle
 62
7
  6
CONTINUOUS
 10
13.0210516601
 20
2.5895582013
 40
0.0024741678
100
AcDbArc
 50
46.3477981899
 51
90.0031206038
  0
ARC
  5
35F
100
AcDbEntity
  8
0
100
AcDbCircle
 62
7
  6
CONTINUOUS
 10
13.5806801742
 20
2.5212486481
 40
0.044722495
100
AcDbArc
 50
195.531588407
 51
204.7624440448
  0
ARC
  5
360
100
AcDbEntity
  8
0
100
AcDbCircle
 62
7
  6
CONTINUOUS
 10
13.5726548052
 20
2.5503169747
 40
0.039319019
100
AcDbArc
 50
59.1202086415
 51
81.4730239328
  0
ARC
  5
361
100
AcDbEntity
  8
0
100
AcDbCircle
 62
7
  6
CONTINUOUS
 10
13.5978759713
 20
2.5286873679
 40
0.0383802683
100
AcDbArc
 50
288.7656836787
 51
309.6104317088
  0
ARC
  5
362
100
AcDbEntity
  8
0
100
AcDbCircle
 62
7
  6
CONTINUOUS
 10
13.5783142014
 20
2.5566516438
 40
0.0310192946
100
AcDbArc
 50
34.7540871
 51
62.0879016178
  0
ARC
  5
363
100
AcDbEntity
  8
0
100
AcDbCircle
 62
7
  6
CONTINUOUS
 10
13.5236009174
 20
2.5388278764
 40
0.0284963867
100
AcDbArc
 50
70.3834917948
 51
86.8922743861
  0
ARC
  5
364
100
AcDbEntity
  8
0
100
AcDbCircle
 62
7
  6
CONTINUOUS
 10
13.6048681567
 20
2.5210861501
 40
0.0280715479
100
AcDbArc
 50
308.5071794988
 51
332.24006569
  0
ARC
  5
365
100
AcDbEntity
  8
0
100
AcDbCircle
 62
7
  6
CONTINUOUS
 10
13.5750183849
 20
2.5166552064
 40
0.0266349791
100
AcDbArc
 50
20.3630922153
 51
37.9727053099
  0
ARC
  5
366
100
AcDbEntity
  8
0
100
AcDbCircle
 62
7
  6
CONTINUOUS
 10
13.5761387404
 20
2.5167282896
 40
0.0257145923
100
AcDbArc
 50
39.3804255939
 51
59.0361096173
  0
ARC
  5
367
100
AcDbEntity
  8
0
100
AcDbCircle
 62
7
  6
CONTINUOUS
 10
13.5607987082
 20
2.5143997688
 40
0.0238935861
100
AcDbArc
 50
209.8247607259
 51
235.1255079367
  0
ARC
  5
368
100
AcDbEntity
  8
0
100
AcDbCircle
 62
7
  6
CONTINUOUS
 10
13.6141751675
 20
2.5161916447
 40
0.0175560065
100
AcDbArc
 50
332.2279060967
 51
359.6595469939
  0
ARC
  5
369
100
AcDbEntity
  8
0
100
AcDbCircle
 62
7
  6
CONTINUOUS
 10
13.5201739219
 20
2.5145168728
 40
0.0151491919
100
AcDbArc
 50
24.098260853
 51
63.0369451818
  0
ARC
  5
36A
100
AcDbEntity
  8
0
100
AcDbCircle
 62
7
  6
CONTINUOUS
 10
13.6156881783
 20
2.525116781
 40
0.0147197649
100
AcDbArc
 50
192.7054516565
 51
206.0594861022
  0
ARC
  5
36B
100
AcDbEntity
  8
0
100
AcDbCircle
 62
7
  6
CONTINUOUS
 10
13.5284605274
 20
2.5518696094
 40
0.0145814632
100
AcDbArc
 50
54.6746025112
 51
71.1660573124
  0
ARC
  5
36C
100
AcDbEntity
  8
0
100
AcDbCircle
 62
7
  6
CONTINUOUS
 10
13.6063292954
 20
2.5296129864
 40
0.0132488022
100
AcDbArc
 50
270.266200055
 51
281.2404888597
  0
ARC
  5
36D
100
AcDbEntity
  8
0
100
AcDbCircle
 62
7
  6
CONTINUOUS
 10
13.6027235414
 20
2.524769508
 40
0.0119498009
100
AcDbArc
 50
340.7883861657
 51
1.1691452593
  0
ARC
  5
36E
100
AcDbEntity
  8
0
100
AcDbCircle
 62
7
  6
CONTINUOUS
 10
13.5295131508
 20
2.5629115009
 40
0.0110815393
100
AcDbArc
 50
306.758405961
 51
320.4502234234
  0
ARC
  5
36F
100
AcDbEntity
  8
0
100
AcDbCircle
 62
7
  6
CONTINUOUS
 10
13.6075235364
 20
2.5238762928
 40
0.0073895522
100
AcDbArc
 50
280.8288201977
 51
305.0837508495
  0
ARC
  5
370
100
AcDbEntity
  8
0
100
AcDbCircle
 62
7
  6
CONTINUOUS
 10
13.607924718
 20
2.5230254464
 40
0.0064647042
100
AcDbArc
 50
306.5086174083
 51
340.2162360092
  0
ARC
  5
371
100
AcDbEntity
  8
0
100
AcDbCircle
 62
7
  6
CONTINUOUS
 10
13.5335900184
 20
2.5587235346
 40
0.0060275915
100
AcDbArc
 50
20.9055592135
 51
56.7851676243
  0
ARC
  5
372
100
AcDbEntity
  8
0
100
AcDbCircle
 62
7
  6
CONTINUOUS
 10
13.533683767
 20
2.559677593
 40
0.0058087709
100
AcDbArc
 50
318.8515287446
 51
353.6422345323
  0
ARC
  5
373
100
AcDbEntity
  8
0
100
AcDbCircle
 62
7
  6
CONTINUOUS
 10
13.6071938412
 20
2.5209082945
 40
0.0052403997
100
AcDbArc
 50
205.5232099488
 51
227.5054868079
  0
ARC
  5
374
100
AcDbEntity
  8
0
100
AcDbCircle
 62
7
  6
CONTINUOUS
 10
13.5348905773
 20
2.5593838168
 40
0.0045795888
100
AcDbArc
 50
355.6235353944
 51
18.9942678268
  0
ARC
  5
375
100
AcDbEntity
  8
0
100
AcDbCircle
 62
7
  6
CONTINUOUS
 10
13.6054655419
 20
2.5190929218
 40
0.0027347709
100
AcDbArc
 50
228.5117626737
 51
266.1485845754
  0
ARC
  5
376
100
AcDbEntity
  8
0
100
AcDbCircle
 62
7
  6
CONTINUOUS
 10
13.4883447827
 20
2.5281293355
 40
0.0024749995
100
AcDbArc
 50
89.9999571957
 51
180.0000428043
  0
ARC
  5
377
100
AcDbEntity
  8
0
100
AcDbCircle
 62
7
  6
CONTINUOUS
 10
13.4883447827
 20
2.5184303265
 40
0.0024749995
100
AcDbArc
 50
179.9999571957
 51
270.0000428043
  0
ARC
  5
378
100
AcDbEntity
  8
0
100
AcDbCircle
 62
7
  6
CONTINUOUS
 10
13.5130038
 20
2.5134803274
 40
0.0024749995
100
AcDbArc
 50
359.9999571957
 51
90.0000428043
  0
ARC
  5
379
100
AcDbEntity
  8
0
100
AcDbCircle
 62
7
  6
CONTINUOUS
 10
13.3994327333
 20
2.5135023274
 40
0.0024749995
100
AcDbArc
 50
89.9999571957
 51
180.0000428043
  0
ARC
  5
37A
100
AcDbEntity
  8
0
100
AcDbCircle
 62
7
  6
CONTINUOUS
 10
13.4221787497
 20
2.5184523265
 40
0.0024749995
100
AcDbArc
 50
269.9999571957
 51
0.0000428042
  0
ARC
  5
37B
100
AcDbEntity
  8
0
100
AcDbCircle
 62
7
  6
CONTINUOUS
 10
13.6171458541
 20
2.5276393353
 40
0.0024749995
100
AcDbArc
 50
89.9999571957
 51
180.0000428043
  0
ARC
  5
37C
100
AcDbEntity
  8
0
100
AcDbCircle
 62
7
  6
CONTINUOUS
 10
13.6292558645
 20
2.5276393353
 40
0.0024749995
100
AcDbArc
 50
359.9999571957
 51
90.0000428043
  0
ARC
  5
37D
100
AcDbEntity
  8
0
100
AcDbCircle
 62
7
  6
CONTINUOUS
 10
13.4883447827
 20
2.5520823451
 40
0.0024749995
100
AcDbArc
 50
179.9999571957
 51
270.0000428043
  0
ARC
  5
37E
100
AcDbEntity
  8
0
100
AcDbCircle
 62
7
  6
CONTINUOUS
 10
13.3232596948
 20
2.5184523265
 40
0.0024749995
100
AcDbArc
 50
269.9999571957
 51
0.0000428043
  0
ARC
  5
37F
100
AcDbEntity
  8
0
100
AcDbCircle
 62
7
  6
CONTINUOUS
 10
13.3282096938
 20
2.5267023348
 40
0.0024749995
100
AcDbArc
 50
89.9999571957
 51
180.0000428043
  0
ARC
  5
380
100
AcDbEntity
  8
0
100
AcDbCircle
 62
7
  6
CONTINUOUS
 10
13.370528721
 20
2.5267023348
 40
0.0024749995
100
AcDbArc
 50
359.9999571957
 51
90.0000428043
  0
ARC
  5
381
100
AcDbEntity
  8
0
100
AcDbCircle
 62
7
  6
CONTINUOUS
 10
13.3691097202
 20
2.5565573476
 40
0.0024749995
100
AcDbArc
 50
269.9999571957
 51
0.0000428042
  0
ARC
  5
382
100
AcDbEntity
  8
0
100
AcDbCircle
 62
7
  6
CONTINUOUS
 10
13.3272456933
 20
2.5565573476
 40
0.0024749995
100
AcDbArc
 50
179.9999571957
 51
270.0000428043
  0
ARC
  5
383
100
AcDbEntity
  8
0
100
AcDbCircle
 62
7
  6
CONTINUOUS
 10
13.2934226783
 20
2.5483073467
 40
0.0024749995
100
AcDbArc
 50
359.9999571957
 51
90.0000428043
  0
ARC
  5
384
100
AcDbEntity
  8
0
100
AcDbCircle
 62
7
  6
CONTINUOUS
 10
13.2934226783
 20
2.5349523356
 40
0.0024749995
100
AcDbArc
 50
269.9999571957
 51
0.0000428042
  0
ARC
  5
385
100
AcDbEntity
  8
0
100
AcDbCircle
 62
7
  6
CONTINUOUS
 10
13.5519569538
 20
2.6152551345
 40
0.0789082104
100
AcDbArc
 50
292.906155071
 51
305.2574666259
  0
ARC
  5
386
100
AcDbEntity
  8
0
100
AcDbCircle
 62
7
  6
CONTINUOUS
 10
13.5822888914
 20
2.5720482849
 40
0.0261183659
100
AcDbArc
 50
305.6373831893
 51
329.9727629745
  0
ARC
  5
387
100
AcDbEntity
  8
0
100
AcDbCircle
 62
7
  6
CONTINUOUS
 10
13.5219564542
 20
2.5750459767
 40
0.0254407115
100
AcDbArc
 50
270.7327484175
 51
290.441894219
  0
ARC
  5
388
100
AcDbEntity
  8
0
100
AcDbCircle
 62
7
  6
CONTINUOUS
 10
13.5238839599
 20
2.5706523294
 40
0.0206523367
100
AcDbArc
 50
289.6883413472
 51
306.4184925496
  0
ARC
  5
389
100
AcDbEntity
  8
0
100
AcDbCircle
 62
7
  6
CONTINUOUS
 10
13.5900029525
 20
2.565201245
 40
0.0165459396
100
AcDbArc
 50
1.548452892
 51
33.5033152417
  0
ARC
  5
38A
100
AcDbEntity
  8
0
100
AcDbCircle
 62
7
  6
CONTINUOUS
 10
13.5932995477
 20
2.5653696972
 40
0.0132462337
100
AcDbArc
 50
331.1510006998
 51
1.205404301
  0
ARC
  5
38B
100
AcDbEntity
  8
0
100
AcDbCircle
 62
7
  6
CONTINUOUS
 10
13.4221787497
 20
2.5648073559
 40
0.0024749995
100
AcDbArc
 50
359.9999571957
 51
90.0000428043
  0
ARC
  5
38C
100
AcDbEntity
  8
0
100
AcDbCircle
 62
7
  6
CONTINUOUS
 10
13.3994327333
 20
2.5697573549
 40
0.0024749995
100
AcDbArc
 50
179.9999571957
 51
270.0000428043
  0
ARC
  5
38D
100
AcDbEntity
  8
0
100
AcDbCircle
 62
7
  6
CONTINUOUS
 10
13.3994327333
 20
2.5895573696
 40
0.0024749995
100
AcDbArc
 50
89.9999571957
 51
180.0000428043
  0
ARC
  5
38E
100
AcDbEntity
  8
0
100
AcDbCircle
 62
7
  6
CONTINUOUS
 10
13.4883447827
 20
2.5648073559
 40
0.0024749995
100
AcDbArc
 50
89.9999571957
 51
180.0000428043
  0
ARC
  5
38F
100
AcDbEntity
  8
0
100
AcDbCircle
 62
7
  6
CONTINUOUS
 10
13.3691097202
 20
2.5895573696
 40
0.0024749995
100
AcDbArc
 50
359.9999571957
 51
90.0000428043
  0
ARC
  5
390
100
AcDbEntity
  8
0
100
AcDbCircle
 62
7
  6
CONTINUOUS
 10
13.3222956943
 20
2.5648073559
 40
0.0024749995
100
AcDbArc
 50
359.9999571957
 51
90.0000428043
  0
ELLIPSE
  5
391
100
AcDbEntity
  8
0
100
AcDbEllipse
 62
7
  6
CONTINUOUS
 10
12.9046654608
 20
2.5403783405
 30
0.0
 11
-0.8250004575
 21
0.0
 31
0.0
 40
0.218572
 41
0.0
 42
6.2831853072
  0
HATCH
  5
392
100
AcDbEntity
  8
0
100
AcDbHatch
 62
7
  6
CONTINUOUS
 10
0.0
 20
0.0
 30
0.0
210
0.0
220
0.0
230
1.0
  2
XSEC0001
 70
1
 71
1
 91
11
 92
1
 93
57
 72
2
 10
13.5577001432
 20
2.5085494649
 40
0.0173408616
 50
232.4713476722
 51
267.338189944
 73
1
 72
2
 10
13.5607987082
 20
2.5143997688
 40
0.0238935861
 50
209.8247607259
 51
235.1255079367
 73
1
 72
2
 10
13.5806801742
 20
2.5212486481
 40
0.044722495
 50
195.531588407
 51
204.7624440448
 73
1
 72
1
 10
13.5375908118
 20
2.5092733232
 11
13.5357868108
 21
2.5153423266
 72
2
 10
13.4974076135
 20
2.5055452462
 40
0.0396099176
 50
14.3201081283
 51
22.4984722084
 73
1
 72
2
 10
13.5201739219
 20
2.5145168728
 40
0.0151491919
 50
24.098260853
 51
63.0369451818
 73
1
 72
2
 10
13.5161192671
 20
2.5062372524
 40
0.0243676582
 50
63.3666028271
 51
90.3937697637
 73
1
 72
1
 10
13.5159517998
 20
2.5306043351
 11
13.4883447845
 21
2.5306043351
 72
2
 10
13.4883447827
 20
2.5281293355
 40
0.0024749995
 50
89.9999571958
 51
180.0000428043
 73
1
 72
1
 10
13.4858697831
 20
2.5281293337
 11
13.4858697831
 21
2.5184303283
 72
2
 10
13.4883447827
 20
2.5184303265
 40
0.0024749995
 50
179.9999571957
 51
270.0000428042
 73
1
 72
1
 10
13.4883447845
 20
2.5159553269
 11
13.5130037982
 21
2.5159553269
 72
2
 10
13.5130038
 20
2.5134803274
 40
0.0024749995
 50
359.9999571957
 51
90.0000428042
 73
1
 72
1
 10
13.5154787995
 20
2.5134803256
 11
13.5154787995
 21
2.4937023146
 72
2
 10
13.5130038
 20
2.4937023128
 40
0.0024749995
 50
269.9999571958
 51
0.0000428043
 73
1
 72
1
 10
13.5130037982
 20
2.4912273132
 11
13.3994327352
 21
2.4912273132
 72
2
 10
13.3994327333
 20
2.4937023128
 40
0.0024749995
 50
179.9999571957
 51
270.0000428043
 73
1
 72
1
 10
13.3969577338
 20
2.4937023146
 11
13.3969577338
 21
2.5135023256
 72
2
 10
13.3994327333
 20
2.5135023274
 40
0.0024749995
 50
89.9999571957
 51
180.0000428043
 73
1
 72
1
 10
13.3994327352
 20
2.515977327
 11
13.4221787478
 21
2.515977327
 72
2
 10
13.4221787497
 20
2.5184523265
 40
0.0024749995
 50
269.9999571956
 51
0.0000428042
 73
1
 72
1
 10
13.4246537492
 20
2.5184523283
 11
13.4246537492
 21
2.564807354
 72
2
 10
13.4221787497
 20
2.5648073559
 40
0.0024749995
 50
359.9999571957
 51
90.0000428043
 73
1
 72
1
 10
13.4221787478
 20
2.5672823554
 11
13.3994327352
 21
2.5672823554
 72
2
 10
13.3994327333
 20
2.5697573549
 40
0.0024749995
 50
179.9999571957
 51
270.0000428043
 73
1
 72
1
 10
13.3969577338
 20
2.5697573568
 11
13.3969577338
 21
2.5895573678
 72
2
 10
13.3994327333
 20
2.5895573696
 40
0.0024749995
 50
89.9999571957
 51
180.0000428043
 73
1
 72
1
 10
13.3994327352
 20
2.5920323691
 11
13.5490138181
 21
2.5920323691
 72
2
 10
13.5463505148
 20
2.4094934586
 40
0.1825583387
 50
79.8618509324
 51
89.1640948679
 73
1
 72
2
 10
13.5726548052
 20
2.5503169747
 40
0.039319019
 50
59.1202086415
 51
81.4730239328
 73
1
 72
2
 10
13.5783142014
 20
2.5566516438
 40
0.0310192946
 50
34.7540871
 51
62.0879016178
 73
1
 72
2
 10
13.5900029525
 20
2.565201245
 40
0.0165459396
 50
1.548452892
 51
33.5033152417
 73
1
 72
2
 10
13.5932995477
 20
2.5653696972
 40
0.0132462337
 50
331.1510006998
 51
1.205404301
 73
1
 72
2
 10
13.5822888914
 20
2.5720482849
 40
0.0261183659
 50
305.6373831893
 51
329.9727629745
 73
1
 72
2
 10
13.5519569538
 20
2.6152551345
 40
0.0789082104
 50
292.906155071
 51
305.2574666259
 73
1
 72
2
 10
13.5282557878
 20
2.4386010294
 40
0.117346916
 50
58.614769177
 51
62.3737227606
 73
1
 72
2
 10
13.5761387404
 20
2.5167282896
 40
0.0257145923
 50
39.3804255939
 51
59.0361096173
 73
1
 72
2
 10
13.5750183849
 20
2.5166552064
 40
0.0266349791
 50
20.3630922153
 51
37.9727053099
 73
1
 72
2
 10
13.5571178432
 20
2.509473798
 40
0.0459185159
 50
15.6740290068
 51
20.9917271228
 73
1
 72
2
 10
13.6156881783
 20
2.525116781
 40
0.0147197649
 50
192.7054516565
 51
206.0594861022
 73
1
 72
2
 10
13.6071938412
 20
2.5209082945
 40
0.0052403997
 50
205.5232099488
 51
227.5054868079
 73
1
 72
2
 10
13.6054655419
 20
2.5190929218
 40
0.0027347709
 50
228.5117626737
 51
266.1485845754
 73
1
 72
1
 10
13.6052818493
 20
2.5163643272
 11
13.60639085
 21
2.5163643272
 72
2
 10
13.6063292954
 20
2.5296129864
 40
0.0132488022
 50
270.266200055
 51
281.2404888597
 73
1
 72
2
 10
13.6075235364
 20
2.5238762928
 40
0.0073895522
 50
280.8288201977
 51
305.0837508495
 73
1
 72
2
 10
13.607924718
 20
2.5230254464
 40
0.0064647042
 50
306.5086174083
 51
340.2162360092
 73
1
 72
2
 10
13.6027235414
 20
2.524769508
 40
0.0119498009
 50
340.7883861657
 51
1.1691452593
 73
1
 72
1
 10
13.6146708546
 20
2.525013332
 11
13.6146708546
 21
2.5276393334
 72
2
 10
13.6171458541
 20
2.5276393353
 40
0.0024749995
 50
89.9999571958
 51
180.0000428043
 73
1
 72
1
 10
13.6171458559
 20
2.5301143348
 11
13.6292558626
 21
2.5301143348
 72
2
 10
13.6292558645
 20
2.5276393353
 40
0.0024749995
 50
359.9999571957
 51
90.0000428042
 73
1
 72
1
 10
13.631730864
 20
2.5276393334
 11
13.631730864
 21
2.516087327
 72
2
 10
13.6141751675
 20
2.5161916447
 40
0.0175560065
 50
332.2279060967
 51
359.6595469939
 73
1
 72
2
 10
13.6048681567
 20
2.5210861501
 40
0.0280715479
 50
308.5071794988
 51
332.2400656899
 73
1
 72
2
 10
13.5978759713
 20
2.5286873679
 40
0.0383802683
 50
288.7656836787
 51
309.6104317088
 73
1
 72
2
 10
13.6036139387
 20
2.5111006186
 40
0.0198837666
 50
271.8586572978
 51
289.4131338543
 73
1
 72
1
 10
13.6042588488
 20
2.4912273132
 11
13.5568948225
 21
2.4912273132
 97
267
330
287
330
288
330
289
330
28A
330
28B
330
28C
330
28D
330
28E
330
28F
330
290
330
291
330
292
330
293
330
294
330
295
330
296
330
297
330
298
330
299
330
29A
330
29B
330
29C
330
29D
330
29E
330
29F
330
2A0
330
2A1
330
2A2
330
2A3
330
2A4
330
2A5
330
2A6
330
2A7
330
2A8
330
2A9
330
2AA
330
2AB
330
2AC
330
2AD
330
2AE
330
2AF
330
2B0
330
2B1
330
2B2
330
2B3
330
2B4
330
2B5
330
2B6
330
2B7
330
2B8
330
2B9
330
2BA
330
2BB
330
2BC
330
2BD
330
2BE
330
2BF
330
2C0
330
2C1
330
2C2
330
2C3
330
2C4
330
2C5
330
2C6
330
2C7
330
2C8
330
2C9
330
2CA
330
2CB
330
2CC
330
2CD
330
2CE
330
2CF
330
2D0
330
2D1
330
2D2
330
2D3
330
2D4
330
2D5
330
2D6
330
2D7
330
2D8
330
2D9
330
2DA
330
2DB
330
2DC
330
2DD
330
2DE
330
2DF
330
2E0
330
2E1
330
2E2
330
2E3
330
2E4
330
2E5
330
2E6
330
2E7
330
2E8
330
2E9
330
2EA
330
2EB
330
2EC
330
2ED
330
2EE
330
2EF
330
2F0
330
2F1
330
2F2
330
2F3
330
2F4
330
2F5
330
2F6
330
2F7
330
2F8
330
2F9
330
2FA
330
2FB
330
2FC
330
2FD
330
2FE
330
2FF
330
300
330
301
330
302
330
303
330
304
330
305
330
306
330
307
330
308
330
309
330
30A
330
30B
330
30C
330
30D
330
30E
330
30F
330
310
330
311
330
312
330
313
330
314
330
315
330
316
330
317
330
318
330
319
330
31A
330
31B
330
31C
330
31D
330
31E
330
31F
330
320
330
321
330
322
330
323
330
324
330
325
330
326
330
327
330
328
330
329
330
32A
330
32B
330
32C
330
32D
330
32E
330
32F
330
330
330
331
330
332
330
333
330
334
330
335
330
336
330
337
330
338
330
339
330
33A
330
33B
330
33C
330
33D
330
33E
330
33F
330
340
330
341
330
342
330
343
330
344
330
345
330
346
330
347
330
348
330
349
330
34A
330
34B
330
34C
330
34D
330
34E
330
34F
330
350
330
351
330
352
330
353
330
354
330
355
330
356
330
357
330
358
330
359
330
35A
330
35B
330
35C
330
35D
330
35E
330
35F
330
360
330
361
330
362
330
363
330
364
330
365
330
366
330
367
330
368
330
369
330
36A
330
36B
330
36C
330
36D
330
36E
330
36F
330
370
330
371
330
372
330
373
330
374
330
375
330
376
330
377
330
378
330
379
330
37A
330
37B
330
37C
330
37D
330
37E
330
37F
330
380
330
381
330
382
330
383
330
384
330
385
330
386
330
387
330
388
330
389
330
38A
330
38B
330
38C
330
38D
330
38E
330
38F
330
390
330
391
 92
1
 93
40
 72
2
 10
13.1673166046
 20
2.4937023128
 40
0.0024749995
 50
179.9999571957
 51
270.0000428042
 73
1
 72
1
 10
13.1648416051
 20
2.4937023146
 11
13.1648416051
 21
2.5135023256
 72
2
 10
13.1673166046
 20
2.5135023274
 40
0.0024749995
 50
89.9999571958
 51
180.0000428043
 73
1
 72
1
 10
13.1673166065
 20
2.515977327
 11
13.1912396197
 21
2.515977327
 72
2
 10
13.1912396216
 20
2.5184523265
 40
0.0024749995
 50
269.9999571956
 51
0.0000428042
 73
1
 72
1
 10
13.1937146211
 20
2.5184523283
 11
13.1937146211
 21
2.564807354
 72
2
 10
13.1912396216
 20
2.5648073559
 40
0.0024749995
 50
359.9999571957
 51
90.0000428043
 73
1
 72
1
 10
13.1912396197
 20
2.5672823554
 11
13.1673166065
 21
2.5672823554
 72
2
 10
13.1673166046
 20
2.5697573549
 40
0.0024749995
 50
179.9999571957
 51
270.0000428043
 73
1
 72
1
 10
13.1648416051
 20
2.5697573568
 11
13.1648416051
 21
2.5895573678
 72
2
 10
13.1673166046
 20
2.5895573696
 40
0.0024749995
 50
89.9999571958
 51
180.0000428043
 73
1
 72
1
 10
13.1673166065
 20
2.5920323691
 11
13.3691097184
 21
2.5920323691
 72
2
 10
13.3691097202
 20
2.5895573696
 40
0.0024749995
 50
359.9999571957
 51
90.0000428042
 73
1
 72
1
 10
13.3715847197
 20
2.5895573678
 11
13.3715847197
 21
2.5565573495
 72
2
 10
13.3691097202
 20
2.5565573476
 40
0.0024749995
 50
269.9999571956
 51
0.0000428042
 73
1
 72
1
 10
13.3691097184
 20
2.5540823481
 11
13.3272456952
 21
2.5540823481
 72
2
 10
13.3272456933
 20
2.5565573476
 40
0.0024749995
 50
179.9999571957
 51
270.0000428043
 73
1
 72
1
 10
13.3247706938
 20
2.5565573495
 11
13.3247706938
 21
2.564807354
 72
2
 10
13.3222956943
 20
2.5648073559
 40
0.0024749995
 50
359.9999571957
 51
90.0000428043
 73
1
 72
1
 10
13.3222956924
 20
2.5672823554
 11
13.2582556569
 21
2.5672823554
 72
2
 10
13.2582556551
 20
2.5648073559
 40
0.0024749995
 50
89.9999571957
 51
180.0000428043
 73
1
 72
1
 10
13.2557806555
 20
2.564807354
 11
13.2557806555
 21
2.5532573476
 72
2
 10
13.2582556551
 20
2.5532573458
 40
0.0024749995
 50
179.9999571957
 51
270.0000428042
 73
1
 72
1
 10
13.2582556569
 20
2.5507823463
 11
13.2934226764
 21
2.5507823463
 72
2
 10
13.2934226783
 20
2.5483073467
 40
0.0024749995
 50
359.9999571957
 51
90.0000428042
 73
1
 72
1
 10
13.2958976778
 20
2.5483073449
 11
13.2958976778
 21
2.5349523375
 72
2
 10
13.2934226783
 20
2.5349523356
 40
0.0024749995
 50
269.9999571956
 51
0.0000428042
 73
1
 72
1
 10
13.2934226764
 20
2.5324773361
 11
13.2582556569
 21
2.5324773361
 72
2
 10
13.2582556551
 20
2.5300023366
 40
0.0024749995
 50
89.9999571957
 51
180.0000428043
 73
1
 72
1
 10
13.2557806555
 20
2.5300023347
 11
13.2557806555
 21
2.5184523283
 72
2
 10
13.2582556551
 20
2.5184523265
 40
0.0024749995
 50
179.9999571957
 51
270.0000428043
 73
1
 72
1
 10
13.2582556569
 20
2.515977327
 11
13.3232596929
 21
2.515977327
 72
2
 10
13.3232596948
 20
2.5184523265
 40
0.0024749995
 50
269.9999571958
 51
0.0000428043
 73
1
 72
1
 10
13.3257346943
 20
2.5184523283
 11
13.3257346943
 21
2.5267023329
 72
2
 10
13.3282096938
 20
2.5267023348
 40
0.0024749995
 50
89.9999571957
 51
180.0000428043
 73
1
 72
1
 10
13.3282096957
 20
2.5291773343
 11
13.3705287192
 21
2.5291773343
 72
2
 10
13.370528721
 20
2.5267023348
 40
0.0024749995
 50
359.9999571957
 51
90.0000428043
 73
1
 72
1
 10
13.3730037205
 20
2.5267023329
 11
13.3730037205
 21
2.4937023146
 72
2
 10
13.370528721
 20
2.4937023128
 40
0.0024749995
 50
269.9999571957
 51
0.0000428043
 73
1
 72
1
 10
13.3705287192
 20
2.4912273132
 11
13.1673166065
 21
2.4912273132
 97
267
330
287
330
288
330
289
330
28A
330
28B
330
28C
330
28D
330
28E
330
28F
330
290
330
291
330
292
330
293
330
294
330
295
330
296
330
297
330
298
330
299
330
29A
330
29B
330
29C
330
29D
330
29E
330
29F
330
2A0
330
2A1
330
2A2
330
2A3
330
2A4
330
2A5
330
2A6
330
2A7
330
2A8
330
2A9
330
2AA
330
2AB
330
2AC
330
2AD
330
2AE
330
2AF
330
2B0
330
2B1
330
2B2
330
2B3
330
2B4
330
2B5
330
2B6
330
2B7
330
2B8
330
2B9
330
2BA
330
2BB
330
2BC
330
2BD
330
2BE
330
2BF
330
2C0
330
2C1
330
2C2
330
2C3
330
2C4
330
2C5
330
2C6
330
2C7
330
2C8
330
2C9
330
2CA
330
2CB
330
2CC
330
2CD
330
2CE
330
2CF
330
2D0
330
2D1
330
2D2
330
2D3
330
2D4
330
2D5
330
2D6
330
2D7
330
2D8
330
2D9
330
2DA
330
2DB
330
2DC
330
2DD
330
2DE
330
2DF
330
2E0
330
2E1
330
2E2
330
2E3
330
2E4
330
2E5
330
2E6
330
2E7
330
2E8
330
2E9
330
2EA
330
2EB
330
2EC
330
2ED
330
2EE
330
2EF
330
2F0
330
2F1
330
2F2
330
2F3
330
2F4
330
2F5
330
2F6
330
2F7
330
2F8
330
2F9
330
2FA
330
2FB
330
2FC
330
2FD
330
2FE
330
2FF
330
300
330
301
330
302
330
303
330
304
330
305
330
306
330
307
330
308
330
309
330
30A
330
30B
330
30C
330
30D
330
30E
330
30F
330
310
330
311
330
312
330
313
330
314
330
315
330
316
330
317
330
318
330
319
330
31A
330
31B
330
31C
330
31D
330
31E
330
31F
330
320
330
321
330
322
330
323
330
324
330
325
330
326
330
327
330
328
330
329
330
32A
330
32B
330
32C
330
32D
330
32E
330
32F
330
330
330
331
330
332
330
333
330
334
330
335
330
336
330
337
330
338
330
339
330
33A
330
33B
330
33C
330
33D
330
33E
330
33F
330
340
330
341
330
342
330
343
330
344
330
345
330
346
330
347
330
348
330
349
330
34A
330
34B
330
34C
330
34D
330
34E
330
34F
330
350
330
351
330
352
330
353
330
354
330
355
330
356
330
357
330
358
330
359
330
35A
330
35B
330
35C
330
35D
330
35E
330
35F
330
360
330
361
330
362
330
363
330
364
330
365
330
366
330
367
330
368
330
369
330
36A
330
36B
330
36C
330
36D
330
36E
330
36F
330
370
330
371
330
372
330
373
330
374
330
375
330
376
330
377
330
378
330
379
330
37A
330
37B
330
37C
330
37D
330
37E
330
37F
330
380
330
381
330
382
330
383
330
384
330
385
330
386
330
387
330
388
330
389
330
38A
330
38B
330
38C
330
38D
330
38E
330
38F
330
390
330
391
 92
1
 93
40
 72
2
 10
13.0426374026
 20
2.493701481
 40
0.0024741678
 50
226.3477981898
 51
270.0031206038
 73
1
 72
1
 10
13.0409295364
 20
2.4919113136
 11
12.9776495013
 21
2.5522893471
 72
2
 10
12.9759408003
 20
2.5504984093
 40
0.0024753014
 50
46.3461263059
 51
180.0014637321
 73
1
 72
1
 10
12.973465499
 20
2.5504983461
 11
12.973465499
 21
2.5184523283
 72
2
 10
12.9759404985
 20
2.5184523265
 40
0.0024749995
 50
179.9999571957
 51
270.0000428043
 73
1
 72
1
 10
12.9759405003
 20
2.515977327
 11
12.9962575116
 21
2.515977327
 72
2
 10
12.9962575135
 20
2.5135023274
 40
0.0024749995
 50
359.9999571957
 51
90.0000428043
 73
1
 72
1
 10
12.998732513
 20
2.5135023256
 11
12.998732513
 21
2.4937023146
 72
2
 10
12.9962575135
 20
2.4937023128
 40
0.0024749995
 50
269.9999571957
 51
0.0000428043
 73
1
 72
1
 10
12.9962575116
 20
2.4912273132
 11
12.9205934696
 21
2.4912273132
 72
2
 10
12.9205934678
 20
2.4937023128
 40
0.0024749995
 50
179.9999571957
 51
270.0000428043
 73
1
 72
1
 10
12.9181184683
 20
2.4937023146
 11
12.9181184683
 21
2.5135023256
 72
2
 10
12.9205934678
 20
2.5135023274
 40
0.0024749995
 50
89.9999571956
 51
180.0000428042
 73
1
 72
1
 10
12.9205934696
 20
2.515977327
 11
12.93923948
 21
2.515977327
 72
2
 10
12.9392394818
 20
2.5184523265
 40
0.0024749995
 50
269.9999571957
 51
0.0000428043
 73
1
 72
1
 10
12.9417144814
 20
2.5184523283
 11
12.9417144814
 21
2.564807354
 72
2
 10
12.9392394818
 20
2.5648073559
 40
0.0024749995
 50
359.9999571957
 51
90.0000428043
 73
1
 72
1
 10
12.93923948
 20
2.5672823554
 11
12.9205934696
 21
2.5672823554
 72
2
 10
12.9205934678
 20
2.5697573549
 40
0.0024749995
 50
179.9999571957
 51
270.0000428043
 73
1
 72
1
 10
12.9181184683
 20
2.5697573568
 11
12.9181184683
 21
2.5895573678
 72
2
 10
12.9205934678
 20
2.5895573696
 40
0.0024749995
 50
89.9999571956
 51
180.0000428042
 73
1
 72
1
 10
12.9205934696
 20
2.5920323691
 11
13.0210515254
 21
2.5920323691
 72
2
 10
13.0210516601
 20
2.5895582013
 40
0.0024741678
 50
46.3477981898
 51
90.0031206038
 73
1
 72
1
 10
13.0227595263
 20
2.5913483688
 11
13.0827925596
 21
2.534068337
 72
2
 10
13.0845012605
 20
2.5358592748
 40
0.0024753014
 50
226.3461263059
 51
0.0014637321
 73
1
 72
1
 10
13.0869765619
 20
2.535859338
 11
13.0869765619
 21
2.564807354
 72
2
 10
13.0845015624
 20
2.5648073559
 40
0.0024749995
 50
359.9999571957
 51
90.0000428043
 73
1
 72
1
 10
13.0845015605
 20
2.5672823554
 11
13.0657255501
 21
2.5672823554
 72
2
 10
13.0657255483
 20
2.5697573549
 40
0.0024749995
 50
179.9999571957
 51
270.0000428043
 73
1
 72
1
 10
13.0632505488
 20
2.5697573568
 11
13.0632505488
 21
2.5895573678
 72
2
 10
13.0657255483
 20
2.5895573696
 40
0.0024749995
 50
89.9999571957
 51
180.0000428043
 73
1
 72
1
 10
13.0657255501
 20
2.5920323691
 11
13.1397265912
 21
2.5920323691
 72
2
 10
13.139726593
 20
2.5895573696
 40
0.0024749995
 50
359.9999571957
 51
90.0000428043
 73
1
 72
1
 10
13.1422015925
 20
2.5895573678
 11
13.1422015925
 21
2.5697573568
 72
2
 10
13.139726593
 20
2.5697573549
 40
0.0024749995
 50
269.9999571956
 51
0.0000428042
 73
1
 72
1
 10
13.1397265912
 20
2.5672823554
 11
13.1217935812
 21
2.5672823554
 72
2
 10
13.1217935794
 20
2.5648073559
 40
0.0024749995
 50
89.9999571957
 51
180.0000428042
 73
1
 72
1
 10
13.1193185799
 20
2.564807354
 11
13.1193185799
 21
2.4937023146
 72
2
 10
13.1168435803
 20
2.4937023128
 40
0.0024749995
 50
269.9999571957
 51
0.0000428043
 73
1
 72
1
 10
13.1168435785
 20
2.4912273132
 11
13.0426375373
 21
2.4912273132
 97
267
330
287
330
288
330
289
330
28A
330
28B
330
28C
330
28D
330
28E
330
28F
330
290
330
291
330
292
330
293
330
294
330
295
330
296
330
297
330
298
330
299
330
29A
330
29B
330
29C
330
29D
330
29E
330
29F
330
2A0
330
2A1
330
2A2
330
2A3
330
2A4
330
2A5
330
2A6
330
2A7
330
2A8
330
2A9
330
2AA
330
2AB
330
2AC
330
2AD
330
2AE
330
2AF
330
2B0
330
2B1
330
2B2
330
2B3
330
2B4
330
2B5
330
2B6
330
2B7
330
2B8
330
2B9
330
2BA
330
2BB
330
2BC
330
2BD
330
2BE
330
2BF
330
2C0
330
2C1
330
2C2
330
2C3
330
2C4
330
2C5
330
2C6
330
2C7
330
2C8
330
2C9
330
2CA
330
2CB
330
2CC
330
2CD
330
2CE
330
2CF
330
2D0
330
2D1
330
2D2
330
2D3
330
2D4
330
2D5
330
2D6
330
2D7
330
2D8
330
2D9
330
2DA
330
2DB
330
2DC
330
2DD
330
2DE
330
2DF
330
2E0
330
2E1
330
2E2
330
2E3
330
2E4
330
2E5
330
2E6
330
2E7
330
2E8
330
2E9
330
2EA
330
2EB
330
2EC
330
2ED
330
2EE
330
2EF
330
2F0
330
2F1
330
2F2
330
2F3
330
2F4
330
2F5
330
2F6
330
2F7
330
2F8
330
2F9
330
2FA
330
2FB
330
2FC
330
2FD
330
2FE
330
2FF
330
300
330
301
330
302
330
303
330
304
330
305
330
306
330
307
330
308
330
309
330
30A
330
30B
330
30C
330
30D
330
30E
330
30F
330
310
330
311
330
312
330
313
330
314
330
315
330
316
330
317
330
318
330
319
330
31A
330
31B
330
31C
330
31D
330
31E
330
31F
330
320
330
321
330
322
330
323
330
324
330
325
330
326
330
327
330
328
330
329
330
32A
330
32B
330
32C
330
32D
330
32E
330
32F
330
330
330
331
330
332
330
333
330
334
330
335
330
336
330
337
330
338
330
339
330
33A
330
33B
330
33C
330
33D
330
33E
330
33F
330
340
330
341
330
342
330
343
330
344
330
345
330
346
330
347
330
348
330
349
330
34A
330
34B
330
34C
330
34D
330
34E
330
34F
330
350
330
351
330
352
330
353
330
354
330
355
330
356
330
357
330
358
330
359
330
35A
330
35B
330
35C
330
35D
330
35E
330
35F
330
360
330
361
330
362
330
363
330
364
330
365
330
366
330
367
330
368
330
369
330
36A
330
36B
330
36C
330
36D
330
36E
330
36F
330
370
330
371
330
372
330
373
330
374
330
375
330
376
330
377
330
378
330
379
330
37A
330
37B
330
37C
330
37D
330
37E
330
37F
330
380
330
381
330
382
330
383
330
384
330
385
330
386
330
387
330
388
330
389
330
38A
330
38B
330
38C
330
38D
330
38E
330
38F
330
390
330
391
 92
1
 93
40
 72
2
 10
12.7943847649
 20
2.4937027294
 40
0.0024754162
 50
226.3593695813
 51
270.0146919953
 73
1
 72
1
 10
12.7926763987
 20
2.4919113136
 11
12.7293963636
 21
2.5522893471
 72
2
 10
12.7276876627
 20
2.5504984093
 40
0.0024753014
 50
46.3461263059
 51
180.0014637321
 73
1
 72
1
 10
12.7252123613
 20
2.5504983461
 11
12.7252123613
 21
2.5184523283
 72
2
 10
12.7276873608
 20
2.5184523265
 40
0.0024749995
 50
179.9999571957
 51
270.0000428043
 73
1
 72
1
 10
12.7276873627
 20
2.515977327
 11
12.7480043739
 21
2.515977327
 72
2
 10
12.7480043758
 20
2.5135023274
 40
0.0024749995
 50
359.9999571957
 51
90.0000428043
 73
1
 72
1
 10
12.7504793753
 20
2.5135023256
 11
12.7504793753
 21
2.4937023146
 72
2
 10
12.7480043758
 20
2.4937023128
 40
0.0024749995
 50
269.9999571958
 51
0.0000428043
 73
1
 72
1
 10
12.7480043739
 20
2.4912273132
 11
12.672340332
 21
2.4912273132
 72
2
 10
12.6723403301
 20
2.4937023128
 40
0.0024749995
 50
179.9999571957
 51
270.0000428042
 73
1
 72
1
 10
12.6698653306
 20
2.4937023146
 11
12.6698653306
 21
2.5135023256
 72
2
 10
12.6723403301
 20
2.5135023274
 40
0.0024749995
 50
89.9999571957
 51
180.0000428043
 73
1
 72
1
 10
12.672340332
 20
2.515977327
 11
12.6909873423
 21
2.515977327
 72
2
 10
12.6909873442
 20
2.5184523265
 40
0.0024749995
 50
269.9999571957
 51
0.0000428043
 73
1
 72
1
 10
12.6934623437
 20
2.5184523283
 11
12.6934623437
 21
2.564807354
 72
2
 10
12.6909873442
 20
2.5648073559
 40
0.0024749995
 50
359.9999571957
 51
90.0000428043
 73
1
 72
1
 10
12.6909873423
 20
2.5672823554
 11
12.672340332
 21
2.5672823554
 72
2
 10
12.6723403301
 20
2.5697573549
 40
0.0024749995
 50
179.9999571957
 51
270.0000428043
 73
1
 72
1
 10
12.6698653306
 20
2.5697573568
 11
12.6698653306
 21
2.5895573678
 72
2
 10
12.6723403301
 20
2.5895573696
 40
0.0024749995
 50
89.9999571957
 51
180.0000428043
 73
1
 72
1
 10
12.672340332
 20
2.5920323691
 11
12.7727983877
 21
2.5920323691
 72
2
 10
12.7727985224
 20
2.5895582013
 40
0.0024741678
 50
46.3477981899
 51
90.0031206038
 73
1
 72
1
 10
12.7745063886
 20
2.5913483688
 11
12.8345394219
 21
2.534068337
 72
2
 10
12.8362481229
 20
2.5358592748
 40
0.0024753014
 50
226.3461263059
 51
0.0014637321
 73
1
 72
1
 10
12.8387234242
 20
2.535859338
 11
12.8387234242
 21
2.564807354
 72
2
 10
12.8362484247
 20
2.5648073559
 40
0.0024749995
 50
359.9999571957
 51
90.0000428043
 73
1
 72
1
 10
12.8362484229
 20
2.5672823554
 11
12.8174724125
 21
2.5672823554
 72
2
 10
12.8174724106
 20
2.5697573549
 40
0.0024749995
 50
179.9999571957
 51
270.0000428043
 73
1
 72
1
 10
12.8149974111
 20
2.5697573568
 11
12.8149974111
 21
2.5895573678
 72
2
 10
12.8174724106
 20
2.5895573696
 40
0.0024749995
 50
89.9999571958
 51
180.0000428043
 73
1
 72
1
 10
12.8174724125
 20
2.5920323691
 11
12.8914734535
 21
2.5920323691
 72
2
 10
12.8914734553
 20
2.5895573696
 40
0.0024749995
 50
359.9999571957
 51
90.0000428042
 73
1
 72
1
 10
12.8939484549
 20
2.5895573678
 11
12.8939484549
 21
2.5697573568
 72
2
 10
12.8914734553
 20
2.5697573549
 40
0.0024749995
 50
269.9999571958
 51
0.0000428043
 73
1
 72
1
 10
12.8914734535
 20
2.5672823554
 11
12.8735404436
 21
2.5672823554
 72
2
 10
12.8735404417
 20
2.5648073559
 40
0.0024749995
 50
89.9999571957
 51
180.0000428043
 73
1
 72
1
 10
12.8710654422
 20
2.564807354
 11
12.8710654422
 21
2.4937023146
 72
2
 10
12.8685904427
 20
2.4937023128
 40
0.0024749995
 50
269.9999571957
 51
0.0000428043
 73
1
 72
1
 10
12.8685904408
 20
2.4912273132
 11
12.7943853997
 21
2.4912273132
 97
267
330
287
330
288
330
289
330
28A
330
28B
330
28C
330
28D
330
28E
330
28F
330
290
330
291
330
292
330
293
330
294
330
295
330
296
330
297
330
298
330
299
330
29A
330
29B
330
29C
330
29D
330
29E
330
29F
330
2A0
330
2A1
330
2A2
330
2A3
330
2A4
330
2A5
330
2A6
330
2A7
330
2A8
330
2A9
330
2AA
330
2AB
330
2AC
330
2AD
330
2AE
330
2AF
330
2B0
330
2B1
330
2B2
330
2B3
330
2B4
330
2B5
330
2B6
330
2B7
330
2B8
330
2B9
330
2BA
330
2BB
330
2BC
330
2BD
330
2BE
330
2BF
330
2C0
330
2C1
330
2C2
330
2C3
330
2C4
330
2C5
330
2C6
330
2C7
330
2C8
330
2C9
330
2CA
330
2CB
330
2CC
330
2CD
330
2CE
330
2CF
330
2D0
330
2D1
330
2D2
330
2D3
330
2D4
330
2D5
330
2D6
330
2D7
330
2D8
330
2D9
330
2DA
330
2DB
330
2DC
330
2DD
330
2DE
330
2DF
330
2E0
330
2E1
330
2E2
330
2E3
330
2E4
330
2E5
330
2E6
330
2E7
330
2E8
330
2E9
330
2EA
330
2EB
330
2EC
330
2ED
330
2EE
330
2EF
330
2F0
330
2F1
330
2F2
330
2F3
330
2F4
330
2F5
330
2F6
330
2F7
330
2F8
330
2F9
330
2FA
330
2FB
330
2FC
330
2FD
330
2FE
330
2FF
330
300
330
301
330
302
330
303
330
304
330
305
330
306
330
307
330
308
330
309
330
30A
330
30B
330
30C
330
30D
330
30E
330
30F
330
310
330
311
330
312
330
313
330
314
330
315
330
316
330
317
330
318
330
319
330
31A
330
31B
330
31C
330
31D
330
31E
330
31F
330
320
330
321
330
322
330
323
330
324
330
325
330
326
330
327
330
328
330
329
330
32A
330
32B
330
32C
330
32D
330
32E
330
32F
330
330
330
331
330
332
330
333
330
334
330
335
330
336
330
337
330
338
330
339
330
33A
330
33B
330
33C
330
33D
330
33E
330
33F
330
340
330
341
330
342
330
343
330
344
330
345
330
346
330
347
330
348
330
349
330
34A
330
34B
330
34C
330
34D
330
34E
330
34F
330
350
330
351
330
352
330
353
330
354
330
355
330
356
330
357
330
358
330
359
330
35A
330
35B
330
35C
330
35D
330
35E
330
35F
330
360
330
361
330
362
330
363
330
364
330
365
330
366
330
367
330
368
330
369
330
36A
330
36B
330
36C
330
36D
330
36E
330
36F
330
370
330
371
330
372
330
373
330
374
330
375
330
376
330
377
330
378
330
379
330
37A
330
37B
330
37C
330
37D
330
37E
330
37F
330
380
330
381
330
382
330
383
330
384
330
385
330
386
330
387
330
388
330
389
330
38A
330
38B
330
38C
330
38D
330
38E
330
38F
330
390
330
391
 92
1
 93
23
 72
2
 10
12.3792298263
 20
2.539634765
 40
0.048483885
 50
273.21763719
 51
303.0749121182
 73
1
 72
2
 10
12.3940692204
 20
2.5168671561
 40
0.0213072145
 50
303.0488228549
 51
355.7263138674
 73
1
 72
2
 10
12.400005721
 20
2.5168763464
 40
0.0153945295
 50
354.0454548824
 51
5.1878013979
 73
1
 72
2
 10
12.3931760319
 20
2.5166878286
 40
0.0222174455
 50
4.0793399388
 51
69.834329283
 73
1
 72
1
 10
12.4008351814
 20
2.5375433389
 11
12.3907841758
 21
2.5410923409
 72
1
 10
12.3907841758
 20
2.5410923409
 11
12.3990241804
 21
2.5458683435
 72
2
 10
12.3771587979
 20
2.5826952352
 40
0.0428289026
 50
300.6990502959
 51
319.0591802498
 73
1
 72
2
 10
12.3971873948
 20
2.5665668817
 40
0.0171568255
 50
315.9145124245
 51
16.0049121282
 73
1
 72
2
 10
12.3922357827
 20
2.5632132173
 40
0.0229166529
 50
20.6563876465
 51
62.3316896973
 73
1
 72
2
 10
12.371573659
 20
2.5302846524
 40
0.061747717
 50
59.5385584989
 51
90.0050977555
 73
1
 72
1
 10
12.3715681652
 20
2.5920323691
 11
12.2055050731
 21
2.5920323691
 72
2
 10
12.2055050712
 20
2.5895573696
 40
0.0024749995
 50
89.9999571957
 51
180.0000428043
 73
1
 72
1
 10
12.2030300717
 20
2.5895573678
 11
12.2030300717
 21
2.5697573568
 72
2
 10
12.2055050712
 20
2.5697573549
 40
0.0024749995
 50
179.9999571957
 51
270.0000428043
 73
1
 72
1
 10
12.2055050731
 20
2.5672823554
 11
12.2294470864
 21
2.5672823554
 72
2
 10
12.2294470882
 20
2.5648073559
 40
0.0024749995
 50
359.9999571957
 51
90.0000428043
 73
1
 72
1
 10
12.2319220877
 20
2.564807354
 11
12.2319220877
 21
2.5184523283
 72
2
 10
12.2294470882
 20
2.5184523265
 40
0.0024749995
 50
269.9999571957
 51
0.0000428043
 73
1
 72
1
 10
12.2294470864
 20
2.515977327
 11
12.2055050731
 21
2.515977327
 72
2
 10
12.2055050712
 20
2.5135023274
 40
0.0024749995
 50
89.9999571957
 51
180.0000428043
 73
1
 72
1
 10
12.2030300717
 20
2.5135023256
 11
12.2030300717
 21
2.4937023146
 72
2
 10
12.2055050712
 20
2.4937023128
 40
0.0024749995
 50
179.9999571957
 51
270.0000428043
 73
1
 72
1
 10
12.2055050731
 20
2.4912273132
 11
12.3819511709
 21
2.4912273132
 97
267
330
287
330
288
330
289
330
28A
330
28B
330
28C
330
28D
330
28E
330
28F
330
290
330
291
330
292
330
293
330
294
330
295
330
296
330
297
330
298
330
299
330
29A
330
29B
330
29C
330
29D
330
29E
330
29F
330
2A0
330
2A1
330
2A2
330
2A3
330
2A4
330
2A5
330
2A6
330
2A7
330
2A8
330
2A9
330
2AA
330
2AB
330
2AC
330
2AD
330
2AE
330
2AF
330
2B0
330
2B1
330
2B2
330
2B3
330
2B4
330
2B5
330
2B6
330
2B7
330
2B8
330
2B9
330
2BA
330
2BB
330
2BC
330
2BD
330
2BE
330
2BF
330
2C0
330
2C1
330
2C2
330
2C3
330
2C4
330
2C5
330
2C6
330
2C7
330
2C8
330
2C9
330
2CA
330
2CB
330
2CC
330
2CD
330
2CE
330
2CF
330
2D0
330
2D1
330
2D2
330
2D3
330
2D4
330
2D5
330
2D6
330
2D7
330
2D8
330
2D9
330
2DA
330
2DB
330
2DC
330
2DD
330
2DE
330
2DF
330
2E0
330
2E1
330
2E2
330
2E3
330
2E4
330
2E5
330
2E6
330
2E7
330
2E8
330
2E9
330
2EA
330
2EB
330
2EC
330
2ED
330
2EE
330
2EF
330
2F0
330
2F1
330
2F2
330
2F3
330
2F4
330
2F5
330
2F6
330
2F7
330
2F8
330
2F9
330
2FA
330
2FB
330
2FC
330
2FD
330
2FE
330
2FF
330
300
330
301
330
302
330
303
330
304
330
305
330
306
330
307
330
308
330
309
330
30A
330
30B
330
30C
330
30D
330
30E
330
30F
330
310
330
311
330
312
330
313
330
314
330
315
330
316
330
317
330
318
330
319
330
31A
330
31B
330
31C
330
31D
330
31E
330
31F
330
320
330
321
330
322
330
323
330
324
330
325
330
326
330
327
330
328
330
329
330
32A
330
32B
330
32C
330
32D
330
32E
330
32F
330
330
330
331
330
332
330
333
330
334
330
335
330
336
330
337
330
338
330
339
330
33A
330
33B
330
33C
330
33D
330
33E
330
33F
330
340
330
341
330
342
330
343
330
344
330
345
330
346
330
347
330
348
330
349
330
34A
330
34B
330
34C
330
34D
330
34E
330
34F
330
350
330
351
330
352
330
353
330
354
330
355
330
356
330
357
330
358
330
359
330
35A
330
35B
330
35C
330
35D
330
35E
330
35F
330
360
330
361
330
362
330
363
330
364
330
365
330
366
330
367
330
368
330
369
330
36A
330
36B
330
36C
330
36D
330
36E
330
36F
330
370
330
371
330
372
330
373
330
374
330
375
330
376
330
377
330
378
330
379
330
37A
330
37B
330
37C
330
37D
330
37E
330
37F
330
380
330
381
330
382
330
383
330
384
330
385
330
386
330
387
330
388
330
389
330
38A
330
38B
330
38C
330
38D
330
38E
330
38F
330
390
330
391
 92
1
 93
32
 72
2
 10
12.5168642476
 20
2.4937023128
 40
0.0024749995
 50
269.9999571957
 51
0.0000428043
 73
1
 72
1
 10
12.5193392471
 20
2.4937023146
 11
12.5193392471
 21
2.5135023256
 72
2
 10
12.5168642476
 20
2.5135023274
 40
0.0024749995
 50
359.9999571957
 51
90.0000428043
 73
1
 72
1
 10
12.5168642458
 20
2.515977327
 11
12.5055812395
 21
2.515977327
 72
2
 10
12.5055811302
 20
2.518452367
 40
0.0024750401
 50
147.6063258011
 51
270.0025305754
 73
1
 72
1
 10
12.5034912383
 20
2.5197783291
 11
12.5090072414
 21
2.5284723339
 72
2
 10
12.5110971723
 20
2.5271461342
 40
0.0024752003
 50
89.998372645
 51
147.602165307
 73
1
 72
1
 10
12.5110972426
 20
2.5296213345
 11
12.5459752619
 21
2.5296213345
 72
2
 10
12.5459747223
 20
2.5271458744
 40
0.0024754602
 50
32.8959418573
 51
89.9875097202
 73
1
 72
1
 10
12.548053263
 20
2.5284903339
 11
12.5536792662
 21
2.5197973291
 72
2
 10
12.5516012439
 20
2.5184525341
 40
0.0024752071
 50
270.0004896794
 51
32.9089806818
 73
1
 72
1
 10
12.551601265
 20
2.515977327
 11
12.537150257
 21
2.515977327
 72
2
 10
12.5371502552
 20
2.5135023274
 40
0.0024749995
 50
89.9999571958
 51
180.0000428043
 73
1
 72
1
 10
12.5346752556
 20
2.5135023256
 11
12.5346752556
 21
2.4937023146
 72
2
 10
12.5371502552
 20
2.4937023128
 40
0.0024749995
 50
179.9999571957
 51
270.0000428042
 73
1
 72
1
 10
12.537150257
 20
2.4912273132
 11
12.6424313154
 21
2.4912273132
 72
2
 10
12.6424313172
 20
2.4937023128
 40
0.0024749995
 50
269.9999571957
 51
0.0000428043
 73
1
 72
1
 10
12.6449063168
 20
2.4937023146
 11
12.6449063168
 21
2.5135023256
 72
2
 10
12.6424313172
 20
2.5135023274
 40
0.0024749995
 50
359.9999571957
 51
90.0000428043
 73
1
 72
1
 10
12.6424313154
 20
2.515977327
 11
12.6224153043
 21
2.515977327
 72
2
 10
12.6224154248
 20
2.518451368
 40
0.002474041
 50
212.9056413127
 51
269.9972091756
 73
1
 72
1
 10
12.6203383031
 20
2.5171073276
 11
12.5725822767
 21
2.5909023685
 72
2
 10
12.570504655
 20
2.589557409
 40
0.0024749602
 50
32.9172174468
 51
90.0087853097
 73
1
 72
1
 10
12.5705042755
 20
2.5920323691
 11
12.5133292438
 21
2.5920323691
 72
2
 10
12.5133291735
 20
2.5895571688
 40
0.0024752003
 50
89.9983726451
 51
147.602165307
 73
1
 72
1
 10
12.5112392426
 20
2.5908833685
 11
12.4644392167
 21
2.5171263276
 72
2
 10
12.4623492858
 20
2.5184525273
 40
0.0024752003
 50
269.9983726451
 51
327.602165307
 73
1
 72
1
 10
12.4623492155
 20
2.515977327
 11
12.4394882028
 21
2.515977327
 72
2
 10
12.439488201
 20
2.5135023274
 40
0.0024749995
 50
89.9999571958
 51
180.0000428043
 73
1
 72
1
 10
12.4370132015
 20
2.5135023256
 11
12.4370132015
 21
2.4937023146
 72
2
 10
12.439488201
 20
2.4937023128
 40
0.0024749995
 50
179.9999571957
 51
270.0000428042
 73
1
 72
1
 10
12.4394882028
 20
2.4912273132
 11
12.5168642458
 21
2.4912273132
 97
267
330
287
330
288
330
289
330
28A
330
28B
330
28C
330
28D
330
28E
330
28F
330
290
330
291
330
292
330
293
330
294
330
295
330
296
330
297
330
298
330
299
330
29A
330
29B
330
29C
330
29D
330
29E
330
29F
330
2A0
330
2A1
330
2A2
330
2A3
330
2A4
330
2A5
330
2A6
330
2A7
330
2A8
330
2A9
330
2AA
330
2AB
330
2AC
330
2AD
330
2AE
330
2AF
330
2B0
330
2B1
330
2B2
330
2B3
330
2B4
330
2B5
330
2B6
330
2B7
330
2B8
330
2B9
330
2BA
330
2BB
330
2BC
330
2BD
330
2BE
330
2BF
330
2C0
330
2C1
330
2C2
330
2C3
330
2C4
330
2C5
330
2C6
330
2C7
330
2C8
330
2C9
330
2CA
330
2CB
330
2CC
330
2CD
330
2CE
330
2CF
330
2D0
330
2D1
330
2D2
330
2D3
330
2D4
330
2D5
330
2D6
330
2D7
330
2D8
330
2D9
330
2DA
330
2DB
330
2DC
330
2DD
330
2DE
330
2DF
330
2E0
330
2E1
330
2E2
330
2E3
330
2E4
330
2E5
330
2E6
330
2E7
330
2E8
330
2E9
330
2EA
330
2EB
330
2EC
330
2ED
330
2EE
330
2EF
330
2F0
330
2F1
330
2F2
330
2F3
330
2F4
330
2F5
330
2F6
330
2F7
330
2F8
330
2F9
330
2FA
330
2FB
330
2FC
330
2FD
330
2FE
330
2FF
330
300
330
301
330
302
330
303
330
304
330
305
330
306
330
307
330
308
330
309
330
30A
330
30B
330
30C
330
30D
330
30E
330
30F
330
310
330
311
330
312
330
313
330
314
330
315
330
316
330
317
330
318
330
319
330
31A
330
31B
330
31C
330
31D
330
31E
330
31F
330
320
330
321
330
322
330
323
330
324
330
325
330
326
330
327
330
328
330
329
330
32A
330
32B
330
32C
330
32D
330
32E
330
32F
330
330
330
331
330
332
330
333
330
334
330
335
330
336
330
337
330
338
330
339
330
33A
330
33B
330
33C
330
33D
330
33E
330
33F
330
340
330
341
330
342
330
343
330
344
330
345
330
346
330
347
330
348
330
349
330
34A
330
34B
330
34C
330
34D
330
34E
330
34F
330
350
330
351
330
352
330
353
330
354
330
355
330
356
330
357
330
358
330
359
330
35A
330
35B
330
35C
330
35D
330
35E
330
35F
330
360
330
361
330
362
330
363
330
364
330
365
330
366
330
367
330
368
330
369
330
36A
330
36B
330
36C
330
36D
330
36E
330
36F
330
370
330
371
330
372
330
373
330
374
330
375
330
376
330
377
330
378
330
379
330
37A
330
37B
330
37C
330
37D
330
37E
330
37F
330
380
330
381
330
382
330
383
330
384
330
385
330
386
330
387
330
388
330
389
330
38A
330
38B
330
38C
330
38D
330
38E
330
38F
330
390
330
391
 92
1
 93
6
 72
2
 10
12.2949101208
 20
2.5184523265
 40
0.0024749995
 50
179.9999571957
 51
270.0000428043
 73
1
 72
1
 10
12.2924351213
 20
2.5184523283
 11
12.2924351213
 21
2.5308273352
 72
2
 10
12.2949101208
 20
2.530827337
 40
0.0024749995
 50
89.9999571957
 51
180.0000428043
 73
1
 72
1
 10
12.2949101227
 20
2.5333023366
 11
12.3362731456
 21
2.5333023366
 72
2
 10
12.3362731456
 20
2.5246398318
 40
0.0086625048
 50
270.0
 51
90.0
 73
1
 72
1
 10
12.3362731456
 20
2.515977327
 11
12.2949101227
 21
2.515977327
 97
267
330
287
330
288
330
289
330
28A
330
28B
330
28C
330
28D
330
28E
330
28F
330
290
330
291
330
292
330
293
330
294
330
295
330
296
330
297
330
298
330
299
330
29A
330
29B
330
29C
330
29D
330
29E
330
29F
330
2A0
330
2A1
330
2A2
330
2A3
330
2A4
330
2A5
330
2A6
330
2A7
330
2A8
330
2A9
330
2AA
330
2AB
330
2AC
330
2AD
330
2AE
330
2AF
330
2B0
330
2B1
330
2B2
330
2B3
330
2B4
330
2B5
330
2B6
330
2B7
330
2B8
330
2B9
330
2BA
330
2BB
330
2BC
330
2BD
330
2BE
330
2BF
330
2C0
330
2C1
330
2C2
330
2C3
330
2C4
330
2C5
330
2C6
330
2C7
330
2C8
330
2C9
330
2CA
330
2CB
330
2CC
330
2CD
330
2CE
330
2CF
330
2D0
330
2D1
330
2D2
330
2D3
330
2D4
330
2D5
330
2D6
330
2D7
330
2D8
330
2D9
330
2DA
330
2DB
330
2DC
330
2DD
330
2DE
330
2DF
330
2E0
330
2E1
330
2E2
330
2E3
330
2E4
330
2E5
330
2E6
330
2E7
330
2E8
330
2E9
330
2EA
330
2EB
330
2EC
330
2ED
330
2EE
330
2EF
330
2F0
330
2F1
330
2F2
330
2F3
330
2F4
330
2F5
330
2F6
330
2F7
330
2F8
330
2F9
330
2FA
330
2FB
330
2FC
330
2FD
330
2FE
330
2FF
330
300
330
301
330
302
330
303
330
304
330
305
330
306
330
307
330
308
330
309
330
30A
330
30B
330
30C
330
30D
330
30E
330
30F
330
310
330
311
330
312
330
313
330
314
330
315
330
316
330
317
330
318
330
319
330
31A
330
31B
330
31C
330
31D
330
31E
330
31F
330
320
330
321
330
322
330
323
330
324
330
325
330
326
330
327
330
328
330
329
330
32A
330
32B
330
32C
330
32D
330
32E
330
32F
330
330
330
331
330
332
330
333
330
334
330
335
330
336
330
337
330
338
330
339
330
33A
330
33B
330
33C
330
33D
330
33E
330
33F
330
340
330
341
330
342
330
343
330
344
330
345
330
346
330
347
330
348
330
349
330
34A
330
34B
330
34C
330
34D
330
34E
330
34F
330
350
330
351
330
352
330
353
330
354
330
355
330
356
330
357
330
358
330
359
330
35A
330
35B
330
35C
330
35D
330
35E
330
35F
330
360
330
361
330
362
330
363
330
364
330
365
330
366
330
367
330
368
330
369
330
36A
330
36B
330
36C
330
36D
330
36E
330
36F
330
370
330
371
330
372
330
373
330
374
330
375
330
376
330
377
330
378
330
379
330
37A
330
37B
330
37C
330
37D
330
37E
330
37F
330
380
330
381
330
382
330
383
330
384
330
385
330
386
330
387
330
388
330
389
330
38A
330
38B
330
38C
330
38D
330
38E
330
38F
330
390
330
391
 92
1
 93
13
 72
2
 10
13.4883447827
 20
2.5520823451
 40
0.0024749995
 50
179.9999571957
 51
270.0000428042
 73
1
 72
1
 10
13.4858697831
 20
2.552082347
 11
13.4858697831
 21
2.564807354
 72
2
 10
13.4883447827
 20
2.5648073559
 40
0.0024749995
 50
89.9999571958
 51
180.0000428043
 73
1
 72
1
 10
13.4883447845
 20
2.5672823554
 11
13.5251458049
 21
2.5672823554
 72
2
 10
13.5236009174
 20
2.5388278764
 40
0.0284963867
 50
70.3834917948
 51
86.8922743861
 73
1
 72
2
 10
13.5284605274
 20
2.5518696094
 40
0.0145814632
 50
54.6746025112
 51
71.1660573124
 73
1
 72
2
 10
13.5335900184
 20
2.5587235346
 40
0.0060275915
 50
20.9055592135
 51
56.7851676243
 73
1
 72
2
 10
13.5348905773
 20
2.5593838168
 40
0.0045795888
 50
355.6235353944
 51
18.9942678268
 73
1
 72
2
 10
13.533683767
 20
2.559677593
 40
0.0058087709
 50
318.8515287446
 51
353.6422345323
 73
1
 72
2
 10
13.5295131508
 20
2.5629115009
 40
0.0110815393
 50
306.758405961
 51
320.4502234234
 73
1
 72
2
 10
13.5238839599
 20
2.5706523294
 40
0.0206523367
 50
289.6883413472
 51
306.4184925496
 73
1
 72
2
 10
13.5219564542
 20
2.5750459767
 40
0.0254407115
 50
270.7327484175
 51
290.441894219
 73
1
 72
1
 10
13.5222818033
 20
2.5496073456
 11
13.4883447845
 21
2.5496073456
 97
267
330
287
330
288
330
289
330
28A
330
28B
330
28C
330
28D
330
28E
330
28F
330
290
330
291
330
292
330
293
330
294
330
295
330
296
330
297
330
298
330
299
330
29A
330
29B
330
29C
330
29D
330
29E
330
29F
330
2A0
330
2A1
330
2A2
330
2A3
330
2A4
330
2A5
330
2A6
330
2A7
330
2A8
330
2A9
330
2AA
330
2AB
330
2AC
330
2AD
330
2AE
330
2AF
330
2B0
330
2B1
330
2B2
330
2B3
330
2B4
330
2B5
330
2B6
330
2B7
330
2B8
330
2B9
330
2BA
330
2BB
330
2BC
330
2BD
330
2BE
330
2BF
330
2C0
330
2C1
330
2C2
330
2C3
330
2C4
330
2C5
330
2C6
330
2C7
330
2C8
330
2C9
330
2CA
330
2CB
330
2CC
330
2CD
330
2CE
330
2CF
330
2D0
330
2D1
330
2D2
330
2D3
330
2D4
330
2D5
330
2D6
330
2D7
330
2D8
330
2D9
330
2DA
330
2DB
330
2DC
330
2DD
330
2DE
330
2DF
330
2E0
330
2E1
330
2E2
330
2E3
330
2E4
330
2E5
330
2E6
330
2E7
330
2E8
330
2E9
330
2EA
330
2EB
330
2EC
330
2ED
330
2EE
330
2EF
330
2F0
330
2F1
330
2F2
330
2F3
330
2F4
330
2F5
330
2F6
330
2F7
330
2F8
330
2F9
330
2FA
330
2FB
330
2FC
330
2FD
330
2FE
330
2FF
330
300
330
301
330
302
330
303
330
304
330
305
330
306
330
307
330
308
330
309
330
30A
330
30B
330
30C
330
30D
330
30E
330
30F
330
310
330
311
330
312
330
313
330
314
330
315
330
316
330
317
330
318
330
319
330
31A
330
31B
330
31C
330
31D
330
31E
330
31F
330
320
330
321
330
322
330
323
330
324
330
325
330
326
330
327
330
328
330
329
330
32A
330
32B
330
32C
330
32D
330
32E
330
32F
330
330
330
331
330
332
330
333
330
334
330
335
330
336
330
337
330
338
330
339
330
33A
330
33B
330
33C
330
33D
330
33E
330
33F
330
340
330
341
330
342
330
343
330
344
330
345
330
346
330
347
330
348
330
349
330
34A
330
34B
330
34C
330
34D
330
34E
330
34F
330
350
330
351
330
352
330
353
330
354
330
355
330
356
330
357
330
358
330
359
330
35A
330
35B
330
35C
330
35D
330
35E
330
35F
330
360
330
361
330
362
330
363
330
364
330
365
330
366
330
367
330
368
330
369
330
36A
330
36B
330
36C
330
36D
330
36E
330
36F
330
370
330
371
330
372
330
373
330
374
330
375
330
376
330
377
330
378
330
379
330
37A
330
37B
330
37C
330
37D
330
37E
330
37F
330
380
330
381
330
382
330
383
330
384
330
385
330
386
330
387
330
388
330
389
330
38A
330
38B
330
38C
330
38D
330
38E
330
38F
330
390
330
391
 92
1
 93
6
 72
2
 10
12.3362731456
 20
2.5586198506
 40
0.0086625048
 50
270.0
 51
90.0
 73
1
 72
1
 10
12.3362731456
 20
2.5672823554
 11
12.2949101227
 21
2.5672823554
 72
2
 10
12.2949101208
 20
2.5648073559
 40
0.0024749995
 50
89.9999571957
 51
180.0000428043
 73
1
 72
1
 10
12.2924351213
 20
2.564807354
 11
12.2924351213
 21
2.5524323472
 72
2
 10
12.2949101208
 20
2.5524323453
 40
0.0024749995
 50
179.9999571957
 51
270.0000428043
 73
1
 72
1
 10
12.2949101227
 20
2.5499573458
 11
12.3362731456
 21
2.5499573458
 97
267
330
287
330
288
330
289
330
28A
330
28B
330
28C
330
28D
330
28E
330
28F
330
290
330
291
330
292
330
293
330
294
330
295
330
296
330
297
330
298
330
299
330
29A
330
29B
330
29C
330
29D
330
29E
330
29F
330
2A0
330
2A1
330
2A2
330
2A3
330
2A4
330
2A5
330
2A6
330
2A7
330
2A8
330
2A9
330
2AA
330
2AB
330
2AC
330
2AD
330
2AE
330
2AF
330
2B0
330
2B1
330
2B2
330
2B3
330
2B4
330
2B5
330
2B6
330
2B7
330
2B8
330
2B9
330
2BA
330
2BB
330
2BC
330
2BD
330
2BE
330
2BF
330
2C0
330
2C1
330
2C2
330
2C3
330
2C4
330
2C5
330
2C6
330
2C7
330
2C8
330
2C9
330
2CA
330
2CB
330
2CC
330
2CD
330
2CE
330
2CF
330
2D0
330
2D1
330
2D2
330
2D3
330
2D4
330
2D5
330
2D6
330
2D7
330
2D8
330
2D9
330
2DA
330
2DB
330
2DC
330
2DD
330
2DE
330
2DF
330
2E0
330
2E1
330
2E2
330
2E3
330
2E4
330
2E5
330
2E6
330
2E7
330
2E8
330
2E9
330
2EA
330
2EB
330
2EC
330
2ED
330
2EE
330
2EF
330
2F0
330
2F1
330
2F2
330
2F3
330
2F4
330
2F5
330
2F6
330
2F7
330
2F8
330
2F9
330
2FA
330
2FB
330
2FC
330
2FD
330
2FE
330
2FF
330
300
330
301
330
302
330
303
330
304
330
305
330
306
330
307
330
308
330
309
330
30A
330
30B
330
30C
330
30D
330
30E
330
30F
330
310
330
311
330
312
330
313
330
314
330
315
330
316
330
317
330
318
330
319
330
31A
330
31B
330
31C
330
31D
330
31E
330
31F
330
320
330
321
330
322
330
323
330
324
330
325
330
326
330
327
330
328
330
329
330
32A
330
32B
330
32C
330
32D
330
32E
330
32F
330
330
330
331
330
332
330
333
330
334
330
335
330
336
330
337
330
338
330
339
330
33A
330
33B
330
33C
330
33D
330
33E
330
33F
330
340
330
341
330
342
330
343
330
344
330
345
330
346
330
347
330
348
330
349
330
34A
330
34B
330
34C
330
34D
330
34E
330
34F
330
350
330
351
330
352
330
353
330
354
330
355
330
356
330
357
330
358
330
359
330
35A
330
35B
330
35C
330
35D
330
35E
330
35F
330
360
330
361
330
362
330
363
330
364
330
365
330
366
330
367
330
368
330
369
330
36A
330
36B
330
36C
330
36D
330
36E
330
36F
330
370
330
371
330
372
330
373
330
374
330
375
330
376
330
377
330
378
330
379
330
37A
330
37B
330
37C
330
37D
330
37E
330
37F
330
380
330
381
330
382
330
383
330
384
330
385
330
386
330
387
330
388
330
389
330
38A
330
38B
330
38C
330
38D
330
38E
330
38F
330
390
330
391
 92
1
 93
8
 72
2
 10
12.5401702375
 20
2.5530465533
 40
0.0024752071
 50
270.0004896793
 51
32.9089806818
 73
1
 72
1
 10
12.5422482598
 20
2.5543913483
 11
12.5349892558
 21
2.5656073545
 72
2
 10
12.532910715
 20
2.564262895
 40
0.0024754602
 50
32.8959418573
 51
89.9875097202
 73
1
 72
1
 10
12.5329112547
 20
2.5667383551
 11
12.5267302512
 21
2.5667383551
 72
2
 10
12.5267301809
 20
2.5642631548
 40
0.0024752003
 50
89.998372645
 51
147.602165307
 73
1
 72
1
 10
12.5246402501
 20
2.5655893545
 11
12.5175232461
 21
2.5543723483
 72
2
 10
12.519613138
 20
2.5530463862
 40
0.0024750401
 50
147.6063258012
 51
270.0025305754
 73
1
 72
1
 10
12.5196132473
 20
2.5505713461
 11
12.5401702587
 21
2.5505713461
 97
267
330
287
330
288
330
289
330
28A
330
28B
330
28C
330
28D
330
28E
330
28F
330
290
330
291
330
292
330
293
330
294
330
295
330
296
330
297
330
298
330
299
330
29A
330
29B
330
29C
330
29D
330
29E
330
29F
330
2A0
330
2A1
330
2A2
330
2A3
330
2A4
330
2A5
330
2A6
330
2A7
330
2A8
330
2A9
330
2AA
330
2AB
330
2AC
330
2AD
330
2AE
330
2AF
330
2B0
330
2B1
330
2B2
330
2B3
330
2B4
330
2B5
330
2B6
330
2B7
330
2B8
330
2B9
330
2BA
330
2BB
330
2BC
330
2BD
330
2BE
330
2BF
330
2C0
330
2C1
330
2C2
330
2C3
330
2C4
330
2C5
330
2C6
330
2C7
330
2C8
330
2C9
330
2CA
330
2CB
330
2CC
330
2CD
330
2CE
330
2CF
330
2D0
330
2D1
330
2D2
330
2D3
330
2D4
330
2D5
330
2D6
330
2D7
330
2D8
330
2D9
330
2DA
330
2DB
330
2DC
330
2DD
330
2DE
330
2DF
330
2E0
330
2E1
330
2E2
330
2E3
330
2E4
330
2E5
330
2E6
330
2E7
330
2E8
330
2E9
330
2EA
330
2EB
330
2EC
330
2ED
330
2EE
330
2EF
330
2F0
330
2F1
330
2F2
330
2F3
330
2F4
330
2F5
330
2F6
330
2F7
330
2F8
330
2F9
330
2FA
330
2FB
330
2FC
330
2FD
330
2FE
330
2FF
330
300
330
301
330
302
330
303
330
304
330
305
330
306
330
307
330
308
330
309
330
30A
330
30B
330
30C
330
30D
330
30E
330
30F
330
310
330
311
330
312
330
313
330
314
330
315
330
316
330
317
330
318
330
319
330
31A
330
31B
330
31C
330
31D
330
31E
330
31F
330
320
330
321
330
322
330
323
330
324
330
325
330
326
330
327
330
328
330
329
330
32A
330
32B
330
32C
330
32D
330
32E
330
32F
330
330
330
331
330
332
330
333
330
334
330
335
330
336
330
337
330
338
330
339
330
33A
330
33B
330
33C
330
33D
330
33E
330
33F
330
340
330
341
330
342
330
343
330
344
330
345
330
346
330
347
330
348
330
349
330
34A
330
34B
330
34C
330
34D
330
34E
330
34F
330
350
330
351
330
352
330
353
330
354
330
355
330
356
330
357
330
358
330
359
330
35A
330
35B
330
35C
330
35D
330
35E
330
35F
330
360
330
361
330
362
330
363
330
364
330
365
330
366
330
367
330
368
330
369
330
36A
330
36B
330
36C
330
36D
330
36E
330
36F
330
370
330
371
330
372
330
373
330
374
330
375
330
376
330
377
330
378
330
379
330
37A
330
37B
330
37C
330
37D
330
37E
330
37F
330
380
330
381
330
382
330
383
330
384
330
385
330
386
330
387
330
388
330
389
330
38A
330
38B
330
38C
330
38D
330
38E
330
38F
330
390
330
391
 92
1
 93
1
 72
3
 10
12.9046654608
 20
2.5403783405
 11
-0.8250004575
 21
0.0
 40
0.218572
 50
0.0
 51
-0.0
 73
1
 97
267
330
287
330
288
330
289
330
28A
330
28B
330
28C
330
28D
330
28E
330
28F
330
290
330
291
330
292
330
293
330
294
330
295
330
296
330
297
330
298
330
299
330
29A
330
29B
330
29C
330
29D
330
29E
330
29F
330
2A0
330
2A1
330
2A2
330
2A3
330
2A4
330
2A5
330
2A6
330
2A7
330
2A8
330
2A9
330
2AA
330
2AB
330
2AC
330
2AD
330
2AE
330
2AF
330
2B0
330
2B1
330
2B2
330
2B3
330
2B4
330
2B5
330
2B6
330
2B7
330
2B8
330
2B9
330
2BA
330
2BB
330
2BC
330
2BD
330
2BE
330
2BF
330
2C0
330
2C1
330
2C2
330
2C3
330
2C4
330
2C5
330
2C6
330
2C7
330
2C8
330
2C9
330
2CA
330
2CB
330
2CC
330
2CD
330
2CE
330
2CF
330
2D0
330
2D1
330
2D2
330
2D3
330
2D4
330
2D5
330
2D6
330
2D7
330
2D8
330
2D9
330
2DA
330
2DB
330
2DC
330
2DD
330
2DE
330
2DF
330
2E0
330
2E1
330
2E2
330
2E3
330
2E4
330
2E5
330
2E6
330
2E7
330
2E8
330
2E9
330
2EA
330
2EB
330
2EC
330
2ED
330
2EE
330
2EF
330
2F0
330
2F1
330
2F2
330
2F3
330
2F4
330
2F5
330
2F6
330
2F7
330
2F8
330
2F9
330
2FA
330
2FB
330
2FC
330
2FD
330
2FE
330
2FF
330
300
330
301
330
302
330
303
330
304
330
305
330
306
330
307
330
308
330
309
330
30A
330
30B
330
30C
330
30D
330
30E
330
30F
330
310
330
311
330
312
330
313
330
314
330
315
330
316
330
317
330
318
330
319
330
31A
330
31B
330
31C
330
31D
330
31E
330
31F
330
320
330
321
330
322
330
323
330
324
330
325
330
326
330
327
330
328
330
329
330
32A
330
32B
330
32C
330
32D
330
32E
330
32F
330
330
330
331
330
332
330
333
330
334
330
335
330
336
330
337
330
338
330
339
330
33A
330
33B
330
33C
330
33D
330
33E
330
33F
330
340
330
341
330
342
330
343
330
344
330
345
330
346
330
347
330
348
330
349
330
34A
330
34B
330
34C
330
34D
330
34E
330
34F
330
350
330
351
330
352
330
353
330
354
330
355
330
356
330
357
330
358
330
359
330
35A
330
35B
330
35C
330
35D
330
35E
330
35F
330
360
330
361
330
362
330
363
330
364
330
365
330
366
330
367
330
368
330
369
330
36A
330
36B
330
36C
330
36D
330
36E
330
36F
330
370
330
371
330
372
330
373
330
374
330
375
330
376
330
377
330
378
330
379
330
37A
330
37B
330
37C
330
37D
330
37E
330
37F
330
380
330
381
330
382
330
383
330
384
330
385
330
386
330
387
330
388
330
389
330
38A
330
38B
330
38C
330
38D
330
38E
330
38F
330
390
330
391
 75
0
 76
1
 98
1
 10
0.0
 20
0.0
  0
LINE
  5
393
100
AcDbEntity
  8
0
100
AcDbLine
 62
7
  6
CONTINUOUS
 10
8.5
 20
10.112
 11
8.586603
 21
10.262
  0
LINE
  5
394
100
AcDbEntity
  8
0
100
AcDbLine
 62
7
  6
CONTINUOUS
 10
16.38
 20
2.807
 11
10.03
 21
2.807
  0
LINE
  5
395
100
AcDbEntity
  8
0
100
AcDbLine
 62
7
  6
CONTINUOUS
 10
0.62
 20
3.1995
 11
0.37
 21
3.1995
  0
LINE
  5
396
100
AcDbEntity
  8
0
100
AcDbLine
 62
7
  6
CONTINUOUS
 10
16.38
 20
3.1995
 11
16.63
 21
3.1995
  0
LINE
  5
397
100
AcDbEntity
  8
0
100
AcDbLine
 62
7
  6
CONTINUOUS
 10
8.586603
 20
0.737
 11
8.5
 21
0.887
  0
LINE
  5
398
100
AcDbEntity
  8
0
100
AcDbLine
 62
7
  6
CONTINUOUS
 10
6.53
 20
0.887
 11
6.53
 21
0.637
  0
LINE
  5
399
100
AcDbEntity
  8
0
100
AcDbLine
 62
7
  6
CONTINUOUS
 10
6.53
 20
10.112
 11
6.53
 21
10.362
  0
LINE
  5
39A
100
AcDbEntity
  8
0
100
AcDbLine
 62
7
  6
CONTINUOUS
 10
8.5
 20
0.887
 11
8.5
 21
0.637
  0
LINE
  5
39B
100
AcDbEntity
  8
0
100
AcDbLine
 62
7
  6
CONTINUOUS
 10
8.5
 20
10.112
 11
8.5
 21
10.362
  0
LINE
  5
39C
100
AcDbEntity
  8
0
100
AcDbLine
 62
7
  6
CONTINUOUS
 10
0.62
 20
5.4995
 11
0.37
 21
5.4995
  0
LINE
  5
39D
100
AcDbEntity
  8
0
100
AcDbLine
 62
7
  6
CONTINUOUS
 10
16.38
 20
5.4995
 11
16.63
 21
5.4995
  0
LINE
  5
39E
100
AcDbEntity
  8
0
100
AcDbLine
 62
7
  6
CONTINUOUS
 10
10.03
 20
2.807
 11
10.03
 21
0.887
  0
LINE
  5
39F
100
AcDbEntity
  8
0
100
AcDbLine
 62
7
  6
CONTINUOUS
 10
10.47
 20
0.887
 11
10.47
 21
0.637
  0
LINE
  5
3A0
100
AcDbEntity
  8
0
100
AcDbLine
 62
7
  6
CONTINUOUS
 10
10.47
 20
10.112
 11
10.47
 21
10.362
  0
LINE
  5
3A1
100
AcDbEntity
  8
0
100
AcDbLine
 62
7
  6
CONTINUOUS
 10
10.5342808475
 20
1.143294839
 11
10.5342808475
 21
0.921203839
  0
LINE
  5
3A2
100
AcDbEntity
  8
0
100
AcDbLine
 62
7
  6
CONTINUOUS
 10
10.5342808475
 20
1.193294839
 11
10.5342808475
 21
1.293294839
  0
LINE
  5
3A3
100
AcDbEntity
  8
0
100
AcDbLine
 62
7
  6
CONTINUOUS
 10
10.5342808475
 20
1.343294839
 11
10.5342808475
 21
1.565385839
  0
LINE
  5
3A4
100
AcDbEntity
  8
0
100
AcDbLine
 62
7
  6
CONTINUOUS
 10
8.5
 20
0.887
 11
8.413397
 21
0.737
  0
LINE
  5
3A5
100
AcDbEntity
  8
0
100
AcDbLine
 62
7
  6
CONTINUOUS
 10
0.62
 20
7.7995
 11
0.37
 21
7.7995
  0
LINE
  5
3A6
100
AcDbEntity
  8
0
100
AcDbLine
 62
7
  6
CONTINUOUS
 10
16.38
 20
7.7995
 11
16.63
 21
7.7995
  0
LINE
  5
3A7
100
AcDbEntity
  8
0
100
AcDbLine
 62
7
  6
CONTINUOUS
 10
8.413397
 20
10.262
 11
8.5
 21
10.112
  0
LINE
  5
3A8
100
AcDbEntity
  8
0
100
AcDbLine
 62
7
  6
CONTINUOUS
 10
11.1389508475
 20
1.060596839
 11
11.1389508475
 21
1.425992839
  0
LINE
  5
3A9
100
AcDbEntity
  8
0
100
AcDbLine
 62
7
  6
CONTINUOUS
 10
11.7453418475
 20
1.495385839
 11
11.7453418475
 21
0.991203839
  0
LINE
  5
3AA
100
AcDbEntity
  8
0
100
AcDbLine
 62
7
  6
CONTINUOUS
 10
12.44
 20
0.887
 11
12.44
 21
0.637
  0
LINE
  5
3AB
100
AcDbEntity
  8
0
100
AcDbLine
 62
7
  6
CONTINUOUS
 10
12.44
 20
10.112
 11
12.44
 21
10.362
  0
LINE
  5
3AC
100
AcDbEntity
  8
0
100
AcDbLine
 62
7
  6
CONTINUOUS
 10
16.53
 20
5.586103
 11
16.38
 21
5.4995
  0
LINE
  5
3AD
100
AcDbEntity
  8
0
100
AcDbLine
 62
7
  6
CONTINUOUS
 10
16.38
 20
5.4995
 11
16.53
 21
5.412897
  0
LINE
  5
3AE
100
AcDbEntity
  8
0
100
AcDbLine
 62
7
  6
CONTINUOUS
 10
12.83
 20
1.507
 11
12.83
 21
1.137
  0
LINE
  5
3AF
100
AcDbEntity
  8
0
100
AcDbLine
 62
7
  6
CONTINUOUS
 10
16.38
 20
10.112
 11
0.62
 21
10.112
  0
LINE
  5
3B0
100
AcDbEntity
  8
0
100
AcDbLine
 62
7
  6
CONTINUOUS
 10
8.586603
 20
10.262
 11
8.413397
 21
10.262
  0
LINE
  5
3B1
100
AcDbEntity
  8
0
100
AcDbLine
 62
7
  6
CONTINUOUS
 10
14.205
 20
1.137
 11
14.205
 21
0.887
  0
LINE
  5
3B2
100
AcDbEntity
  8
0
100
AcDbLine
 62
7
  6
CONTINUOUS
 10
14.41
 20
0.887
 11
14.41
 21
0.637
  0
LINE
  5
3B3
100
AcDbEntity
  8
0
100
AcDbLine
 62
7
  6
CONTINUOUS
 10
14.41
 20
10.112
 11
14.41
 21
10.362
  0
LINE
  5
3B4
100
AcDbEntity
  8
0
100
AcDbLine
 62
7
  6
CONTINUOUS
 10
15.58
 20
1.507
 11
15.58
 21
1.137
  0
LINE
  5
3B5
100
AcDbEntity
  8
0
100
AcDbLine
 62
7
  6
CONTINUOUS
 10
16.38
 20
0.887
 11
16.38
 21
10.112
  0
LINE
  5
3B6
100
AcDbEntity
  8
0
100
AcDbLine
 62
7
  6
CONTINUOUS
 10
16.53
 20
5.412897
 11
16.53
 21
5.586103
  0
LINE
  5
3B7
100
AcDbEntity
  8
0
100
AcDbLine
 62
7
  6
CONTINUOUS
 10
6.7524847704
 20
5.9705188898
 11
6.8548363263
 21
5.9705188898
  0
LINE
  5
3B8
100
AcDbEntity
  8
0
100
AcDbLine
 62
7
  6
CONTINUOUS
 10
6.7524847704
 20
6.0177629843
 11
6.7993351641
 21
6.0177629843
  0
LINE
  5
3B9
100
AcDbEntity
  8
0
100
AcDbLine
 62
7
  6
CONTINUOUS
 10
6.4894926444
 20
6.059101567
 11
6.4265005184
 21
6.059101567
  0
LINE
  5
3BA
100
AcDbEntity
  8
0
100
AcDbLine
 62
7
  6
CONTINUOUS
 10
5.4631146917
 20
6.3767132656
 11
5.4631146917
 21
7.3123560101
  0
LINE
  5
3BB
100
AcDbEntity
  8
0
100
AcDbLine
 62
7
  6
CONTINUOUS
 10
5.4946107547
 20
7.2697314883
 11
5.4946107547
 21
6.4193377875
  0
LINE
  5
3BC
100
AcDbEntity
  8
0
100
AcDbLine
 62
7
  6
CONTINUOUS
 10
5.5073212575
 20
7.3186041666
 11
5.6838108562
 21
7.3923999185
  0
LINE
  5
3BD
100
AcDbEntity
  8
0
100
AcDbLine
 62
7
  6
CONTINUOUS
 10
5.5073212575
 20
6.3704651091
 11
5.6838108562
 21
6.2966693572
  0
LINE
  5
3BE
100
AcDbEntity
  8
0
100
AcDbLine
 62
7
  6
CONTINUOUS
 10
5.5024847704
 20
6.3777296493
 11
5.5024847704
 21
7.3113396264
  0
LINE
  5
3BF
100
AcDbEntity
  8
0
100
AcDbLine
 62
7
  6
CONTINUOUS
 10
5.5073212575
 20
6.3704651091
 11
5.5073212575
 21
7.3186041666
  0
LINE
  5
3C0
100
AcDbEntity
  8
0
100
AcDbLine
 62
7
  6
CONTINUOUS
 10
6.4894926444
 20
6.2402039292
 11
6.4265005184
 21
6.2402039292
  0
LINE
  5
3C1
100
AcDbEntity
  8
0
100
AcDbLine
 62
7
  6
CONTINUOUS
 10
5.9552406759
 20
6.2441409371
 11
5.9621351629
 21
6.2441409371
  0
LINE
  5
3C2
100
AcDbEntity
  8
0
100
AcDbLine
 62
7
  6
CONTINUOUS
 10
6.014295794
 20
6.2441409371
 11
6.021190281
 21
6.2441409371
  0
LINE
  5
3C3
100
AcDbEntity
  8
0
100
AcDbLine
 62
7
  6
CONTINUOUS
 10
6.0733509121
 20
6.2441409371
 11
6.0802453991
 21
6.2441409371
  0
LINE
  5
3C4
100
AcDbEntity
  8
0
100
AcDbLine
 62
7
  6
CONTINUOUS
 10
6.1324060302
 20
6.2441409371
 11
6.1393005172
 21
6.2441409371
  0
LINE
  5
3C5
100
AcDbEntity
  8
0
100
AcDbLine
 62
7
  6
CONTINUOUS
 10
6.1914611484
 20
6.2441409371
 11
6.1983556354
 21
6.2441409371
  0
LINE
  5
3C6
100
AcDbEntity
  8
0
100
AcDbLine
 62
7
  6
CONTINUOUS
 10
6.2505162665
 20
6.2441409371
 11
6.2574107535
 21
6.2441409371
  0
LINE
  5
3C7
100
AcDbEntity
  8
0
100
AcDbLine
 62
7
  6
CONTINUOUS
 10
6.3095713846
 20
6.2441409371
 11
6.3164658716
 21
6.2441409371
  0
LINE
  5
3C8
100
AcDbEntity
  8
0
100
AcDbLine
 62
7
  6
CONTINUOUS
 10
6.3686265027
 20
6.2441409371
 11
6.3755209897
 21
6.2441409371
  0
LINE
  5
3C9
100
AcDbEntity
  8
0
100
AcDbLine
 62
7
  6
CONTINUOUS
 10
6.4052922501
 20
6.2829204646
 11
6.3979103604
 21
6.2829204646
  0
LINE
  5
3CA
100
AcDbEntity
  8
0
100
AcDbLine
 62
7
  6
CONTINUOUS
 10
6.346237132
 20
6.2829204646
 11
6.3388552423
 21
6.2829204646
  0
LINE
  5
3CB
100
AcDbEntity
  8
0
100
AcDbLine
 62
7
  6
CONTINUOUS
 10
6.2871820139
 20
6.2829204646
 11
6.2798001241
 21
6.2829204646
  0
LINE
  5
3CC
100
AcDbEntity
  8
0
100
AcDbLine
 62
7
  6
CONTINUOUS
 10
6.2281268958
 20
6.2829204646
 11
6.220745006
 21
6.2829204646
  0
LINE
  5
3CD
100
AcDbEntity
  8
0
100
AcDbLine
 62
7
  6
CONTINUOUS
 10
6.1690717777
 20
6.2829204646
 11
6.1616898879
 21
6.2829204646
  0
LINE
  5
3CE
100
AcDbEntity
  8
0
100
AcDbLine
 62
7
  6
CONTINUOUS
 10
6.1100166596
 20
6.2829204646
 11
6.1026347698
 21
6.2829204646
  0
LINE
  5
3CF
100
AcDbEntity
  8
0
100
AcDbLine
 62
7
  6
CONTINUOUS
 10
6.0509615415
 20
6.2829204646
 11
6.0435796517
 21
6.2829204646
  0
LINE
  5
3D0
100
AcDbEntity
  8
0
100
AcDbLine
 62
7
  6
CONTINUOUS
 10
5.9919064234
 20
6.2829204646
 11
5.9845245336
 21
6.2829204646
  0
LINE
  5
3D1
100
AcDbEntity
  8
0
100
AcDbLine
 62
7
  6
CONTINUOUS
 10
5.6866257819
 20
6.2960630288
 11
5.9355556365
 21
6.2890228268
  0
LINE
  5
3D2
100
AcDbEntity
  8
0
100
AcDbLine
 62
7
  6
CONTINUOUS
 10
5.6838108562
 20
6.2966693572
 11
5.6838108562
 21
7.3923999185
  0
LINE
  5
3D3
100
AcDbEntity
  8
0
100
AcDbLine
 62
7
  6
CONTINUOUS
 10
5.6866257819
 20
6.2966693572
 11
5.6866257819
 21
7.3923999185
  0
LINE
  5
3D4
100
AcDbEntity
  8
0
100
AcDbLine
 62
7
  6
CONTINUOUS
 10
5.9623788643
 20
7.4061488111
 11
5.984768235
 21
7.4449283387
  0
LINE
  5
3D5
100
AcDbEntity
  8
0
100
AcDbLine
 62
7
  6
CONTINUOUS
 10
5.9552406759
 20
6.2441409371
 11
5.9355556365
 21
6.2782364254
  0
LINE
  5
3D6
100
AcDbEntity
  8
0
100
AcDbLine
 62
7
  6
CONTINUOUS
 10
6.0214339824
 20
7.4061488111
 11
6.0438233531
 21
7.4449283387
  0
LINE
  5
3D7
100
AcDbEntity
  8
0
100
AcDbLine
 62
7
  6
CONTINUOUS
 10
5.4631146917
 20
6.4193377875
 11
5.4946107547
 21
6.4193377875
  0
LINE
  5
3D8
100
AcDbEntity
  8
0
100
AcDbLine
 62
7
  6
CONTINUOUS
 10
6.014295794
 20
6.2441409371
 11
5.9919064234
 21
6.2829204646
  0
LINE
  5
3D9
100
AcDbEntity
  8
0
100
AcDbLine
 62
7
  6
CONTINUOUS
 10
6.0733509121
 20
6.2441409371
 11
6.0509615415
 21
6.2829204646
  0
LINE
  5
3DA
100
AcDbEntity
  8
0
100
AcDbLine
 62
7
  6
CONTINUOUS
 10
5.960888685
 20
7.3991048032
 11
5.9621064962
 21
7.4059130159
  0
LINE
  5
3DB
100
AcDbEntity
  8
0
100
AcDbLine
 62
7
  6
CONTINUOUS
 10
6.0804891005
 20
7.4061488111
 11
6.1028784712
 21
7.4449283387
  0
LINE
  5
3DC
100
AcDbEntity
  8
0
100
AcDbLine
 62
7
  6
CONTINUOUS
 10
6.1395442186
 20
7.4061488111
 11
6.1619335893
 21
7.4449283387
  0
LINE
  5
3DD
100
AcDbEntity
  8
0
100
AcDbLine
 62
7
  6
CONTINUOUS
 10
6.1324060302
 20
6.2441409371
 11
6.1100166596
 21
6.2829204646
  0
LINE
  5
3DE
100
AcDbEntity
  8
0
100
AcDbLine
 62
7
  6
CONTINUOUS
 10
5.9355556365
 20
6.2782364254
 11
5.9355556365
 21
7.4398221963
  0
LWPOLYLINE
  5
3DF
100
AcDbEntity
  8
0
100
AcDbPolyline
 62
7
  6
CONTINUOUS
 90
10
 70
0
 10
5.9424989715
 20
6.9786142884
 10
5.9438876385
 20
7.0574384173
 10
5.9452763055
 20
7.1316234425
 10
5.9466649725
 20
7.1995528967
 10
5.9480536395
 20
7.2597466192
 10
5.9494423065
 20
7.3108930085
 10
5.9508309735
 20
7.3518776015
 10
5.9522196405
 20
7.3818073574
 10
5.9536083075
 20
7.4000301166
 10
5.9549969745
 20
7.4061488111
  0
LWPOLYLINE
  5
3E0
100
AcDbEntity
  8
0
100
AcDbPolyline
 62
7
  6
CONTINUOUS
 90
3
 70
0
 10
5.9355556365
 20
6.5764315108
 10
5.9369443035
 20
6.6519992567
 10
5.9424989715
 20
6.9786142884
  0
LWPOLYLINE
  5
3E1
100
AcDbEntity
  8
0
100
AcDbPolyline
 62
7
  6
CONTINUOUS
 90
9
 70
0
 10
5.9833621284
 20
7.4382221297
 10
5.9819559754
 20
7.4182524393
 10
5.9805498304
 20
7.3854656298
 10
5.9791437364
 20
7.3405959395
 10
5.9777376779
 20
7.2846462889
 10
5.9763315931
 20
7.2188641782
 10
5.9749254924
 20
7.144719155
 10
5.9735194136
 20
7.0638695631
 10
5.9678951691
 20
6.7109235701
  0
LWPOLYLINE
  5
3E2
100
AcDbEntity
  8
0
100
AcDbPolyline
 62
7
  6
CONTINUOUS
 90
10
 70
0
 10
6.0435148015
 20
7.4443939116
 10
6.0423568359
 20
7.4376347072
 10
6.0408911526
 20
7.415947372
 10
6.0394216219
 20
7.3802817593
 10
6.037953297
 20
7.3315911466
 10
6.0364835257
 20
7.270972768
 10
6.0350080618
 20
7.1996544943
 10
6.0335423503
 20
7.1201563919
 10
6.0320775091
 20
7.0340218363
 10
6.0261751146
 20
6.6631568582
  0
LINE
  5
3E3
100
AcDbEntity
  8
0
100
AcDbLine
 62
7
  6
CONTINUOUS
 10
5.9844568727
 20
7.4443890433
 11
5.9833621284
 21
7.4382221297
  0
LINE
  5
3E4
100
AcDbEntity
  8
0
100
AcDbLine
 62
7
  6
CONTINUOUS
 10
6.0199576045
 20
7.3992344087
 11
6.0211616143
 21
7.4059130159
  0
LINE
  5
3E5
100
AcDbEntity
  8
0
100
AcDbLine
 62
7
  6
CONTINUOUS
 10
6.1985993367
 20
7.4061488111
 11
6.2209887074
 21
7.4449283387
  0
LINE
  5
3E6
100
AcDbEntity
  8
0
100
AcDbLine
 62
7
  6
CONTINUOUS
 10
6.1914611484
 20
6.2441409371
 11
6.1690717777
 21
6.2829204646
  0
LINE
  5
3E7
100
AcDbEntity
  8
0
100
AcDbLine
 62
7
  6
CONTINUOUS
 10
6.2505162665
 20
6.2441409371
 11
6.2281268958
 21
6.2829204646
  0
LWPOLYLINE
  5
3E8
100
AcDbEntity
  8
0
100
AcDbPolyline
 62
7
  6
CONTINUOUS
 90
10
 70
0
 10
5.9678951691
 20
6.7109235701
 10
5.9664891101
 20
6.6251766865
 10
5.9650830491
 20
6.544329684
 10
5.9636769937
 20
6.4701889114
 10
5.9622709439
 20
6.4044104255
 10
5.9608648902
 20
6.3484631073
 10
5.9594588246
 20
6.3035965526
 10
5.9580527555
 20
6.2708134474
 10
5.9566466958
 20
6.2508463208
 10
5.9555310451
 20
6.245525723
  0
LWPOLYLINE
  5
3E9
100
AcDbEntity
  8
0
100
AcDbPolyline
 62
7
  6
CONTINUOUS
 90
9
 70
0
 10
5.9798518909
 20
7.0300781956
 10
5.9813282362
 20
7.1171167762
 10
5.9828045834
 20
7.1974438765
 10
5.9842809585
 20
7.2690827996
 10
5.985757317
 20
7.3302673578
 10
5.9872336711
 20
7.3794917499
 10
5.9887100285
 20
7.4155442126
 10
5.9901863742
 20
7.4375367978
 10
5.9913982253
 20
7.4436040991
  0
LWPOLYLINE
  5
3EA
100
AcDbEntity
  8
0
100
AcDbPolyline
 62
7
  6
CONTINUOUS
 90
8
 70
0
 10
5.9504574297
 20
7.0117966364
 10
5.9519476091
 20
7.0943452271
 10
5.9534377884
 20
7.1706273529
 10
5.9549279677
 20
7.2387294869
 10
5.956418147
 20
7.2969432964
 10
5.9579083263
 20
7.3438084956
 10
5.9593985057
 20
7.3781494776
 10
5.960888685
 20
7.3991048032
  0
LWPOLYLINE
  5
3EB
100
AcDbEntity
  8
0
100
AcDbPolyline
 62
7
  6
CONTINUOUS
 90
7
 70
0
 10
6.002241069
 20
7.0180829617
 10
6.003717447
 20
7.099502137
 10
6.0051938249
 20
7.1746431664
 10
6.0066702029
 20
7.2416558282
 10
6.0081465808
 20
7.2988900483
 10
6.0096229588
 20
7.3449365303
 10
6.0110993367
 20
7.378661457
  0
LWPOLYLINE
  5
3EC
100
AcDbEntity
  8
0
100
AcDbPolyline
 62
7
  6
CONTINUOUS
 90
7
 70
0
 10
6.0096229588
 20
7.0180829617
 10
6.0110993367
 20
7.099502137
 10
6.0125757147
 20
7.1746431664
 10
6.0140520926
 20
7.2416558282
 10
6.0155284706
 20
7.2988900483
 10
6.0170048486
 20
7.3449365303
 10
6.0184812265
 20
7.378661457
  0
LWPOLYLINE
  5
3ED
100
AcDbEntity
  8
0
100
AcDbPolyline
 62
7
  6
CONTINUOUS
 90
8
 70
0
 10
5.9355556365
 20
6.3060078238
 10
5.9370458159
 20
6.3379246056
 10
5.9385359952
 20
6.3825496317
 10
5.9400261745
 20
6.4387634893
 10
5.9415163538
 20
6.5051560615
 10
5.9430065331
 20
6.5800618994
 10
5.9444967125
 20
6.6616020003
 10
5.9504574297
 20
7.0117966364
  0
LWPOLYLINE
  5
3EE
100
AcDbEntity
  8
0
100
AcDbPolyline
 62
7
  6
CONTINUOUS
 90
3
 70
0
 10
6.0110993367
 20
7.378661457
 10
6.0125757147
 20
7.3992344087
 10
6.0140520926
 20
7.4061488111
  0
LINE
  5
3EF
100
AcDbEntity
  8
0
100
AcDbLine
 62
7
  6
CONTINUOUS
 10
6.0184812265
 20
7.378661457
 11
6.0199576045
 21
7.3992344087
  0
LWPOLYLINE
  5
3F0
100
AcDbEntity
  8
0
100
AcDbPolyline
 62
7
  6
CONTINUOUS
 90
10
 70
0
 10
6.1025703105
 20
7.4443945887
 10
6.1014030459
 20
7.4375460123
 10
6.0999130988
 20
7.4152934191
 10
6.0984273299
 20
7.37884965
 10
6.096960624
 20
7.3297997683
 10
6.0954835379
 20
7.2684875181
 10
6.0939883761
 20
7.1957903682
 10
6.0924939871
 20
7.1142672205
 10
6.0910186316
 20
7.0270983069
 10
6.08657588
 20
6.7466753636
  0
LINE
  5
3F1
100
AcDbEntity
  8
0
100
AcDbLine
 62
7
  6
CONTINUOUS
 10
6.0790127226
 20
7.3992344087
 11
6.0802167324
 21
7.4059130159
  0
LINE
  5
3F2
100
AcDbEntity
  8
0
100
AcDbLine
 62
7
  6
CONTINUOUS
 10
6.2576544548
 20
7.4061488111
 11
6.2800438255
 21
7.4449283387
  0
LINE
  5
3F3
100
AcDbEntity
  8
0
100
AcDbLine
 62
7
  6
CONTINUOUS
 10
6.316709573
 20
7.4061488111
 11
6.3390989436
 21
7.4449283387
  0
LINE
  5
3F4
100
AcDbEntity
  8
0
100
AcDbLine
 62
7
  6
CONTINUOUS
 10
6.3095713846
 20
6.2441409371
 11
6.2871820139
 21
6.2829204646
  0
LWPOLYLINE
  5
3F5
100
AcDbEntity
  8
0
100
AcDbPolyline
 62
7
  6
CONTINUOUS
 90
10
 70
0
 10
6.0973182454
 20
6.9905563477
 10
6.0986971777
 20
7.0741214971
 10
6.1000836065
 20
7.1531646426
 10
6.1014669625
 20
7.2253527286
 10
6.1028450346
 20
7.2890793549
 10
6.1042229075
 20
7.3432593906
 10
6.1056119872
 20
7.3870474198
 10
6.1070082853
 20
7.4191411118
 10
6.1083965503
 20
7.4385019232
 10
6.1097729582
 20
7.4449283387
  0
LWPOLYLINE
  5
3F6
100
AcDbEntity
  8
0
100
AcDbPolyline
 62
7
  6
CONTINUOUS
 90
7
 70
0
 10
6.0261751146
 20
6.6631568582
 10
6.0246998646
 20
6.5759204355
 10
6.0232053569
 20
6.494288212
 10
6.0217099117
 20
6.4214503857
 10
6.0202324048
 20
6.3599762633
 10
6.0187592975
 20
6.3105802425
 10
6.0172668986
 20
6.2738895822
  0
LWPOLYLINE
  5
3F7
100
AcDbEntity
  8
0
100
AcDbPolyline
 62
7
  6
CONTINUOUS
 90
9
 70
0
 10
6.0388580005
 20
7.0270983069
 10
6.040333356
 20
7.1142672205
 10
6.041827745
 20
7.1957903682
 10
6.0433229068
 20
7.2684875181
 10
6.0447999929
 20
7.3297997683
 10
6.0462666988
 20
7.37884965
 10
6.0477524677
 20
7.4152934191
 10
6.0492424147
 20
7.4375460123
 10
6.0504530266
 20
7.4436033379
  0
LWPOLYLINE
  5
3F8
100
AcDbEntity
  8
0
100
AcDbPolyline
 62
7
  6
CONTINUOUS
 90
9
 70
0
 10
6.08657588
 20
6.7466753636
 10
6.0836389176
 20
6.569310365
 10
6.0821696798
 20
6.4895938666
 10
6.0806906667
 20
6.4180932345
 10
6.0792198561
 20
6.3574365899
 10
6.0777529811
 20
6.3087972574
 10
6.0762872608
 20
6.2732032919
 10
6.0748185787
 20
6.2514459822
 10
6.0736184129
 20
6.2454723739
  0
LWPOLYLINE
  5
3F9
100
AcDbEntity
  8
0
100
AcDbPolyline
 62
7
  6
CONTINUOUS
 90
9
 70
0
 10
6.0612961871
 20
7.0180829617
 10
6.0627725651
 20
7.099502137
 10
6.064248943
 20
7.1746431664
 10
6.065725321
 20
7.2416558282
 10
6.0672016989
 20
7.2988900483
 10
6.0686780769
 20
7.3449365303
 10
6.0701544548
 20
7.378661457
 10
6.0716308328
 20
7.3992344087
 10
6.0731072108
 20
7.4061488111
  0
LWPOLYLINE
  5
3FA
100
AcDbEntity
  8
0
100
AcDbPolyline
 62
7
  6
CONTINUOUS
 90
8
 70
0
 10
6.0686780769
 20
7.0180829617
 10
6.0701544548
 20
7.099502137
 10
6.0716308328
 20
7.1746431664
 10
6.0731072108
 20
7.2416558282
 10
6.0745835887
 20
7.2988900483
 10
6.0760599667
 20
7.3449365303
 10
6.0775363446
 20
7.378661457
 10
6.0790127226
 20
7.3992344087
  0
LINE
  5
3FB
100
AcDbEntity
  8
0
100
AcDbLine
 62
7
  6
CONTINUOUS
 10
6.0172668986
 20
6.2738895822
 11
6.0157727884
 21
6.2515389408
  0
LWPOLYLINE
  5
3FC
100
AcDbEntity
  8
0
100
AcDbPolyline
 62
7
  6
CONTINUOUS
 90
9
 70
0
 10
6.0226579475
 20
6.2514459822
 10
6.0241266297
 20
6.2732032919
 10
6.02559235
 20
6.3087972574
 10
6.0270592249
 20
6.3574365899
 10
6.0285300356
 20
6.4180932345
 10
6.0300090487
 20
6.4895938666
 10
6.0314782865
 20
6.569310365
 10
6.0329415332
 20
6.6553752842
 10
6.0388580005
 20
7.0270983069
  0
LWPOLYLINE
  5
3FD
100
AcDbEntity
  8
0
100
AcDbPolyline
 62
7
  6
CONTINUOUS
 90
10
 70
0
 10
5.9624432821
 20
6.2446746151
 10
5.9636115426
 20
6.2515327972
 10
5.9650879748
 20
6.2735274014
 10
5.9665644005
 20
6.3095829421
 10
5.9680407687
 20
6.3588094579
 10
5.9695171498
 20
6.4199965664
 10
5.9709935836
 20
6.4916399827
 10
5.9724700134
 20
6.5719732587
 10
5.9739463881
 20
6.6590150256
 10
5.9798518909
 20
7.0300781956
  0
LINE
  5
3FE
100
AcDbEntity
  8
0
100
AcDbLine
 62
7
  6
CONTINUOUS
 10
6.1380678407
 20
7.3992344087
 11
6.1392718505
 21
7.4059130159
  0
LWPOLYLINE
  5
3FF
100
AcDbEntity
  8
0
100
AcDbPolyline
 62
7
  6
CONTINUOUS
 90
10
 70
0
 10
5.9847969017
 20
6.2831562598
 10
5.9860009115
 20
6.2898348671
 10
5.9874772895
 20
6.3104078188
 10
5.9889536674
 20
6.3441327454
 10
5.9904300454
 20
6.3901792274
 10
5.9919064234
 20
6.4474134476
 10
5.9933828013
 20
6.5144261094
 10
5.9948591793
 20
6.5895671387
 10
5.9963355572
 20
6.6709863141
 10
6.002241069
 20
7.0180829617
  0
LINE
  5
400
100
AcDbEntity
  8
0
100
AcDbLine
 62
7
  6
CONTINUOUS
 10
6.161620734
 20
7.4443864574
 11
6.1605571814
 21
7.4385019232
  0
LINE
  5
401
100
AcDbEntity
  8
0
100
AcDbLine
 62
7
  6
CONTINUOUS
 10
6.3757646911
 20
7.4061488111
 11
6.3981540617
 21
7.4449283387
  0
LINE
  5
402
100
AcDbEntity
  8
0
100
AcDbLine
 62
7
  6
CONTINUOUS
 10
6.3686265027
 20
6.2441409371
 11
6.346237132
 21
6.2829204646
  0
LINE
  5
403
100
AcDbEntity
  8
0
100
AcDbLine
 62
7
  6
CONTINUOUS
 10
6.4265005184
 20
6.2461866664
 11
6.4052922501
 21
6.2829204646
  0
LWPOLYLINE
  5
404
100
AcDbEntity
  8
0
100
AcDbPolyline
 62
7
  6
CONTINUOUS
 90
4
 70
0
 10
6.1453332514
 20
6.7279621737
 10
6.1425674209
 20
6.5621473747
 10
6.1411732571
 20
6.4869437821
 10
6.13978792
 20
6.4199921807
  0
LWPOLYLINE
  5
405
100
AcDbEntity
  8
0
100
AcDbPolyline
 62
7
  6
CONTINUOUS
 90
9
 70
0
 10
6.1570588054
 20
7.0326012443
 10
6.1585211588
 20
7.1186846797
 10
6.1599999699
 20
7.1989940959
 10
6.1614846629
 20
7.2708114841
 10
6.1629568095
 20
7.3315459206
 10
6.1644204332
 20
7.380111186
 10
6.1658847482
 20
7.4157287942
 10
6.167358964
 20
7.4376089236
 10
6.1688280763
 20
7.4449283387
  0
LWPOLYLINE
  5
406
100
AcDbEntity
  8
0
100
AcDbPolyline
 62
7
  6
CONTINUOUS
 90
9
 70
0
 10
6.1203513052
 20
7.0180829617
 10
6.1218276832
 20
7.099502137
 10
6.1233040611
 20
7.1746431664
 10
6.1247804391
 20
7.2416558282
 10
6.1262568171
 20
7.2988900483
 10
6.127733195
 20
7.3449365303
 10
6.129209573
 20
7.378661457
 10
6.1306859509
 20
7.3992344087
 10
6.1321623289
 20
7.4061488111
  0
LWPOLYLINE
  5
407
100
AcDbEntity
  8
0
100
AcDbPolyline
 62
7
  6
CONTINUOUS
 90
8
 70
0
 10
6.127733195
 20
7.0180829617
 10
6.129209573
 20
7.099502137
 10
6.1306859509
 20
7.1746431664
 10
6.1321623289
 20
7.2416558282
 10
6.1336387068
 20
7.2988900483
 10
6.1351150848
 20
7.3449365303
 10
6.1365914627
 20
7.378661457
 10
6.1380678407
 20
7.3992344087
  0
LWPOLYLINE
  5
408
100
AcDbEntity
  8
0
100
AcDbPolyline
 62
7
  6
CONTINUOUS
 90
5
 70
0
 10
6.0876272889
 20
6.4199921807
 10
6.089012626
 20
6.4869437821
 10
6.0904067898
 20
6.5621473747
 10
6.0917945229
 20
6.6431657726
 10
6.0973182454
 20
6.9905563477
  0
LWPOLYLINE
  5
409
100
AcDbEntity
  8
0
100
AcDbPolyline
 62
7
  6
CONTINUOUS
 90
5
 70
0
 10
6.1100166596
 20
6.4474134476
 10
6.1114930375
 20
6.5144261094
 10
6.1129694155
 20
6.5895671387
 10
6.1144457934
 20
6.6709863141
 10
6.1203513052
 20
7.0180829617
  0
LWPOLYLINE
  5
40A
100
AcDbEntity
  8
0
100
AcDbPolyline
 62
7
  6
CONTINUOUS
 90
5
 70
0
 10
6.1173985493
 20
6.4474134476
 10
6.1188749273
 20
6.5144261094
 10
6.1203513052
 20
6.5895671387
 10
6.1218276832
 20
6.6709863141
 10
6.127733195
 20
7.0180829617
  0
LWPOLYLINE
  5
40B
100
AcDbEntity
  8
0
100
AcDbPolyline
 62
7
  6
CONTINUOUS
 90
7
 70
0
 10
6.13978792
 20
6.4199921807
 10
6.1385690003
 20
6.3686537693
 10
6.1373458096
 20
6.3251709528
 10
6.136107924
 20
6.290111212
 10
6.1348651624
 20
6.2645741001
 10
6.1336281675
 20
6.2492094289
 10
6.1324060302
 20
6.2441409371
  0
LWPOLYLINE
  5
40C
100
AcDbEntity
  8
0
100
AcDbPolyline
 62
7
  6
CONTINUOUS
 90
9
 70
0
 10
6.1605571814
 20
7.4385019232
 10
6.1591689165
 20
7.4191411118
 10
6.1577726183
 20
7.3870474198
 10
6.1563835386
 20
7.3432593906
 10
6.1550056657
 20
7.2890793549
 10
6.1536275936
 20
7.2253527286
 10
6.1522442376
 20
7.1531646426
 10
6.1508578088
 20
7.0741214971
 10
6.1453332514
 20
6.7279621737
  0
LWPOLYLINE
  5
40D
100
AcDbEntity
  8
0
100
AcDbPolyline
 62
7
  6
CONTINUOUS
 90
6
 70
0
 10
6.0814675364
 20
6.2492094289
 10
6.0827045312
 20
6.2645741001
 10
6.0839472929
 20
6.290111212
 10
6.0851851784
 20
6.3251709528
 10
6.0864083692
 20
6.3686537693
 10
6.0876272889
 20
6.4199921807
  0
LWPOLYLINE
  5
40E
100
AcDbEntity
  8
0
100
AcDbPolyline
 62
7
  6
CONTINUOUS
 90
9
 70
0
 10
6.2206802703
 20
7.4443941099
 10
6.2195195951
 20
7.4376089236
 10
6.2180453793
 20
7.4157287942
 10
6.2165810643
 20
7.380111186
 10
6.2151174406
 20
7.3315459206
 10
6.213645294
 20
7.2708114841
 10
6.212160601
 20
7.1989940959
 10
6.2106817899
 20
7.1186846797
 10
6.2092194366
 20
7.0326012443
  0
LINE
  5
40F
100
AcDbEntity
  8
0
100
AcDbLine
 62
7
  6
CONTINUOUS
 10
6.0214987819
 20
6.2446752762
 11
6.0226579475
 21
6.2514459822
  0
LINE
  5
410
100
AcDbEntity
  8
0
100
AcDbLine
 62
7
  6
CONTINUOUS
 10
6.1971229588
 20
7.3992344087
 11
6.1983269686
 21
7.4059130159
  0
LWPOLYLINE
  5
411
100
AcDbEntity
  8
0
100
AcDbPolyline
 62
7
  6
CONTINUOUS
 90
10
 70
0
 10
6.0438520198
 20
6.2831562598
 10
6.0450560297
 20
6.2898348671
 10
6.0465324076
 20
6.3104078188
 10
6.0480087856
 20
6.3441327454
 10
6.0494851635
 20
6.3901792274
 10
6.0509615415
 20
6.4474134476
 10
6.0524379194
 20
6.5144261094
 10
6.0539142974
 20
6.5895671387
 10
6.0553906753
 20
6.6709863141
 10
6.0612961871
 20
7.0180829617
  0
LINE
  5
412
100
AcDbEntity
  8
0
100
AcDbLine
 62
7
  6
CONTINUOUS
 10
6.2561780769
 20
7.3992344087
 11
6.2573820867
 21
7.4059130159
  0
LINE
  5
413
100
AcDbEntity
  8
0
100
AcDbLine
 62
7
  6
CONTINUOUS
 10
6.0157727884
 20
6.2515389408
 11
6.014560069
 21
6.2454646436
  0
LWPOLYLINE
  5
414
100
AcDbEntity
  8
0
100
AcDbPolyline
 62
7
  6
CONTINUOUS
 90
10
 70
0
 10
5.9919064234
 20
6.2829204646
 10
5.9933828013
 20
6.2898348671
 10
5.9948591793
 20
6.3104078188
 10
5.9963355572
 20
6.3441327454
 10
5.9978119352
 20
6.3901792274
 10
5.9992883131
 20
6.4474134476
 10
6.0007646911
 20
6.5144261094
 10
6.002241069
 20
6.5895671387
 10
6.003717447
 20
6.6709863141
 10
6.0096229588
 20
7.0180829617
  0
LWPOLYLINE
  5
415
100
AcDbEntity
  8
0
100
AcDbPolyline
 62
7
  6
CONTINUOUS
 90
10
 70
0
 10
6.0509615415
 20
6.2829204646
 10
6.0524379194
 20
6.2898348671
 10
6.0539142974
 20
6.3104078188
 10
6.0553906753
 20
6.3441327454
 10
6.0568670533
 20
6.3901792274
 10
6.0583434312
 20
6.4474134476
 10
6.0598198092
 20
6.5144261094
 10
6.0612961871
 20
6.5895671387
 10
6.0627725651
 20
6.6709863141
 10
6.0686780769
 20
7.0180829617
  0
LWPOLYLINE
  5
416
100
AcDbEntity
  8
0
100
AcDbPolyline
 62
7
  6
CONTINUOUS
 90
10
 70
0
 10
6.2092194366
 20
7.0326012443
 10
6.2032813811
 20
6.6595623456
 10
6.2018092082
 20
6.5727253692
 10
6.20031784
 20
6.4915506303
 10
6.1988252938
 20
6.4191914375
 10
6.1973502352
 20
6.3581899608
 10
6.1958889095
 20
6.3095401301
 10
6.1944150469
 20
6.2735488553
 10
6.1929330355
 20
6.2514879717
 10
6.1917271823
 20
6.2454688654
  0
LWPOLYLINE
  5
417
100
AcDbEntity
  8
0
100
AcDbPolyline
 62
7
  6
CONTINUOUS
 90
9
 70
0
 10
6.2160082999
 20
7.0261819176
 10
6.2174838024
 20
7.1134160933
 10
6.2189749061
 20
7.1948471872
 10
6.2204633812
 20
7.2673606696
 10
6.221932656
 20
7.3285671574
 10
6.2234099528
 20
7.3782043115
 10
6.2249063228
 20
7.4150650626
 10
6.2264037268
 20
7.4375055898
 10
6.2278831944
 20
7.4449283387
  0
LWPOLYLINE
  5
418
100
AcDbEntity
  8
0
100
AcDbPolyline
 62
7
  6
CONTINUOUS
 90
9
 70
0
 10
6.1794064234
 20
7.0180829617
 10
6.1808828013
 20
7.099502137
 10
6.1823591793
 20
7.1746431664
 10
6.1838355572
 20
7.2416558282
 10
6.1853119352
 20
7.2988900483
 10
6.1867883131
 20
7.3449365303
 10
6.1882646911
 20
7.378661457
 10
6.189741069
 20
7.3992344087
 10
6.191217447
 20
7.4061488111
  0
LWPOLYLINE
  5
419
100
AcDbEntity
  8
0
100
AcDbPolyline
 62
7
  6
CONTINUOUS
 90
8
 70
0
 10
6.1867883131
 20
7.0180829617
 10
6.1882646911
 20
7.099502137
 10
6.189741069
 20
7.1746431664
 10
6.191217447
 20
7.2416558282
 10
6.1926938249
 20
7.2988900483
 10
6.1941702029
 20
7.3449365303
 10
6.1956465808
 20
7.378661457
 10
6.1971229588
 20
7.3992344087
  0
LWPOLYLINE
  5
41A
100
AcDbEntity
  8
0
100
AcDbPolyline
 62
7
  6
CONTINUOUS
 90
9
 70
0
 10
6.2384615415
 20
7.0180829617
 10
6.2399379194
 20
7.099502137
 10
6.2414142974
 20
7.1746431664
 10
6.2428906753
 20
7.2416558282
 10
6.2443670533
 20
7.2988900483
 10
6.2458434312
 20
7.3449365303
 10
6.2473198092
 20
7.378661457
 10
6.2487961871
 20
7.3992344087
 10
6.2502725651
 20
7.4061488111
  0
LWPOLYLINE
  5
41B
100
AcDbEntity
  8
0
100
AcDbPolyline
 62
7
  6
CONTINUOUS
 90
8
 70
0
 10
6.2458434312
 20
7.0180829617
 10
6.2473198092
 20
7.099502137
 10
6.2487961871
 20
7.1746431664
 10
6.2502725651
 20
7.2416558282
 10
6.251748943
 20
7.2988900483
 10
6.253225321
 20
7.3449365303
 10
6.2547016989
 20
7.378661457
 10
6.2561780769
 20
7.3992344087
  0
LWPOLYLINE
  5
41C
100
AcDbEntity
  8
0
100
AcDbPolyline
 62
7
  6
CONTINUOUS
 90
10
 70
0
 10
6.2797358403
 20
7.4443948926
 10
6.278564358
 20
7.4375055898
 10
6.2770669539
 20
7.4150650626
 10
6.275570584
 20
7.3782043115
 10
6.2740932871
 20
7.3285671574
 10
6.2726240124
 20
7.2673606696
 10
6.2711355372
 20
7.1948471872
 10
6.2696444336
 20
7.1134160933
 10
6.268168931
 20
7.0261819176
 10
6.2637511154
 20
6.7472981707
  0
LWPOLYLINE
  5
41D
100
AcDbEntity
  8
0
100
AcDbPolyline
 62
7
  6
CONTINUOUS
 90
10
 70
0
 10
6.1396088325
 20
6.2446749548
 10
6.1407724044
 20
6.2514879717
 10
6.1422544158
 20
6.2735488553
 10
6.1437282784
 20
6.3095401301
 10
6.1451896041
 20
6.3581899608
 10
6.1466646627
 20
6.4191914375
 10
6.1481572089
 20
6.4915506303
 10
6.1496485771
 20
6.5727253692
 10
6.15112075
 20
6.6595623456
 10
6.1570588054
 20
7.0326012443
  0
LWPOLYLINE
  5
41E
100
AcDbEntity
  8
0
100
AcDbPolyline
 62
7
  6
CONTINUOUS
 90
10
 70
0
 10
6.3387903843
 20
7.4443938983
 10
6.3376326011
 20
7.4376364406
 10
6.3361655033
 20
7.415923057
 10
6.3346888981
 20
7.3800418105
 10
6.3332173396
 20
7.3311594401
 10
6.3317477585
 20
7.2704617338
 10
6.330276086
 20
7.1992646587
 10
6.3288093067
 20
7.1196662857
 10
6.3273410233
 20
7.033289681
 10
6.3214489738
 20
6.6630514346
  0
LWPOLYLINE
  5
41F
100
AcDbEntity
  8
0
100
AcDbPolyline
 62
7
  6
CONTINUOUS
 90
6
 70
0
 10
6.1029071379
 20
6.2831562598
 10
6.1041111478
 20
6.2898348671
 10
6.1055875257
 20
6.3104078188
 10
6.1070639037
 20
6.3441327454
 10
6.1085402816
 20
6.3901792274
 10
6.1100166596
 20
6.4474134476
  0
LINE
  5
420
100
AcDbEntity
  8
0
100
AcDbLine
 62
7
  6
CONTINUOUS
 10
6.315233195
 20
7.3992344087
 11
6.3164372048
 21
7.4059130159
  0
LINE
  5
421
100
AcDbEntity
  8
0
100
AcDbLine
 62
7
  6
CONTINUOUS
 10
6.0805674867
 20
6.244698809
 11
6.0814675364
 21
6.2492094289
  0
LWPOLYLINE
  5
422
100
AcDbEntity
  8
0
100
AcDbPolyline
 62
7
  6
CONTINUOUS
 90
6
 70
0
 10
6.1100166596
 20
6.2829204646
 10
6.1114930375
 20
6.2898348671
 10
6.1129694155
 20
6.3104078188
 10
6.1144457934
 20
6.3441327454
 10
6.1159221714
 20
6.3901792274
 10
6.1173985493
 20
6.4474134476
  0
LWPOLYLINE
  5
423
100
AcDbEntity
  8
0
100
AcDbPolyline
 62
7
  6
CONTINUOUS
 90
10
 70
0
 10
6.2637511154
 20
6.7472981707
 10
6.2622784789
 20
6.6560398907
 10
6.2608094473
 20
6.5696042212
 10
6.2593416043
 20
6.4899324514
 10
6.2578708026
 20
6.4187584371
 10
6.2564012732
 20
6.3580371813
 10
6.2549289799
 20
6.3091045485
 10
6.2534507838
 20
6.2731673482
 10
6.2519825947
 20
6.2514326928
 10
6.2505162665
 20
6.2441409371
  0
LWPOLYLINE
  5
424
100
AcDbEntity
  8
0
100
AcDbPolyline
 62
7
  6
CONTINUOUS
 90
10
 70
0
 10
6.2692883427
 20
6.6630514346
 10
6.2751803922
 20
7.033289681
 10
6.2766486756
 20
7.1196662857
 10
6.2781154549
 20
7.1992646587
 10
6.2795871274
 20
7.2704617338
 10
6.2810567084
 20
7.3311594401
 10
6.282528267
 20
7.3800418105
 10
6.2840048722
 20
7.415923057
 10
6.28547197
 20
7.4376364406
 10
6.2866703491
 20
7.4435957976
  0
LWPOLYLINE
  5
425
100
AcDbEntity
  8
0
100
AcDbPolyline
 62
7
  6
CONTINUOUS
 90
9
 70
0
 10
6.2975166596
 20
7.0180829617
 10
6.2989930375
 20
7.099502137
 10
6.3004694155
 20
7.1746431664
 10
6.3019457934
 20
7.2416558282
 10
6.3034221714
 20
7.2988900483
 10
6.3048985493
 20
7.3449365303
 10
6.3063749273
 20
7.378661457
 10
6.3078513052
 20
7.3992344087
 10
6.3093276832
 20
7.4061488111
  0
LWPOLYLINE
  5
426
100
AcDbEntity
  8
0
100
AcDbPolyline
 62
7
  6
CONTINUOUS
 90
8
 70
0
 10
6.3048985493
 20
7.0180829617
 10
6.3063749273
 20
7.099502137
 10
6.3078513052
 20
7.1746431664
 10
6.3093276832
 20
7.2416558282
 10
6.3108040611
 20
7.2988900483
 10
6.3122804391
 20
7.3449365303
 10
6.3137568171
 20
7.378661457
 10
6.315233195
 20
7.3992344087
  0
LWPOLYLINE
  5
427
100
AcDbEntity
  8
0
100
AcDbPolyline
 62
7
  6
CONTINUOUS
 90
9
 70
0
 10
6.3978458032
 20
7.4443944193
 10
6.3966808777
 20
7.4375683778
 10
6.3951957562
 20
7.4154333317
 10
6.3937171611
 20
7.3792639202
 10
6.392254774
 20
7.3304969362
 10
6.390778781
 20
7.2693755153
 10
6.3892845318
 20
7.1968549267
 10
6.3877908023
 20
7.1154778112
 10
6.3863158032
 20
7.0284111232
  0
LWPOLYLINE
  5
428
100
AcDbEntity
  8
0
100
AcDbPolyline
 62
7
  6
CONTINUOUS
 90
10
 70
0
 10
6.1986641953
 20
6.2446753786
 10
6.1998219636
 20
6.2514326928
 10
6.2012901527
 20
6.2731673482
 10
6.2027683487
 20
6.3091045485
 10
6.2042406421
 20
6.3580371813
 10
6.2057101715
 20
6.4187584371
 10
6.2071809732
 20
6.4899324514
 10
6.2086488162
 20
6.5696042212
 10
6.2101178478
 20
6.6560398907
 10
6.2160082999
 20
7.0261819176
  0
LWPOLYLINE
  5
429
100
AcDbEntity
  8
0
100
AcDbPolyline
 62
7
  6
CONTINUOUS
 90
10
 70
0
 10
6.161962256
 20
6.2831562598
 10
6.1631662659
 20
6.2898348671
 10
6.1646426438
 20
6.3104078188
 10
6.1661190218
 20
6.3441327454
 10
6.1675953997
 20
6.3901792274
 10
6.1690717777
 20
6.4474134476
 10
6.1705481556
 20
6.5144261094
 10
6.1720245336
 20
6.5895671387
 10
6.1735009115
 20
6.6709863141
 10
6.1794064234
 20
7.0180829617
  0
LINE
  5
42A
100
AcDbEntity
  8
0
100
AcDbLine
 62
7
  6
CONTINUOUS
 10
6.3742883131
 20
7.3992344087
 11
6.3754923229
 21
7.4059130159
  0
LWPOLYLINE
  5
42B
100
AcDbEntity
  8
0
100
AcDbPolyline
 62
7
  6
CONTINUOUS
 90
10
 70
0
 10
6.2210173742
 20
6.2831562598
 10
6.222221384
 20
6.2898348671
 10
6.2236977619
 20
6.3104078188
 10
6.2251741399
 20
6.3441327454
 10
6.2266505178
 20
6.3901792274
 10
6.2281268958
 20
6.4474134476
 10
6.2296032737
 20
6.5144261094
 10
6.2310796517
 20
6.5895671387
 10
6.2325560297
 20
6.6709863141
 10
6.2384615415
 20
7.0180829617
  0
LWPOLYLINE
  5
42C
100
AcDbEntity
  8
0
100
AcDbPolyline
 62
7
  6
CONTINUOUS
 90
10
 70
0
 10
6.1690717777
 20
6.2829204646
 10
6.1705481556
 20
6.2898348671
 10
6.1720245336
 20
6.3104078188
 10
6.1735009115
 20
6.3441327454
 10
6.1749772895
 20
6.3901792274
 10
6.1764536674
 20
6.4474134476
 10
6.1779300454
 20
6.5144261094
 10
6.1794064234
 20
6.5895671387
 10
6.1808828013
 20
6.6709863141
 10
6.1867883131
 20
7.0180829617
  0
LINE
  5
42D
100
AcDbEntity
  8
0
100
AcDbLine
 62
7
  6
CONTINUOUS
 10
5.9845245336
 20
6.2829204646
 11
5.9621351629
 21
6.2441409371
  0
LINE
  5
42E
100
AcDbEntity
  8
0
100
AcDbLine
 62
7
  6
CONTINUOUS
 10
5.9355556365
 20
7.4398221963
 11
5.9549969745
 21
7.4061488111
  0
LINE
  5
42F
100
AcDbEntity
  8
0
100
AcDbLine
 62
7
  6
CONTINUOUS
 10
5.991662722
 20
7.4449283387
 11
6.0140520926
 21
7.4061488111
  0
LWPOLYLINE
  5
430
100
AcDbEntity
  8
0
100
AcDbPolyline
 62
7
  6
CONTINUOUS
 90
10
 70
0
 10
6.3863158032
 20
7.0284111232
 10
6.3803844448
 20
6.6557809163
 10
6.3789228413
 20
6.5697835599
 10
6.3774483101
 20
6.4897504939
 10
6.3759662317
 20
6.4180920883
 10
6.3744949117
 20
6.3574166155
 10
6.3730301232
 20
6.3088420046
 10
6.3715664504
 20
6.273273997
 10
6.3700947831
 20
6.2514520824
 10
6.3686265027
 20
6.2441409371
  0
LWPOLYLINE
  5
431
100
AcDbEntity
  8
0
100
AcDbPolyline
 62
7
  6
CONTINUOUS
 90
9
 70
0
 10
6.3214489738
 20
6.6630514346
 10
6.3199734283
 20
6.5758046465
 10
6.3184814445
 20
6.4943140028
 10
6.3169913053
 20
6.4217134853
 10
6.315520561
 20
6.3604506484
 10
6.3140435083
 20
6.3108322511
 10
6.3125474397
 20
6.2739879705
 10
6.311050424
 20
6.2515593989
 10
6.3095713846
 20
6.2441409371
  0
LWPOLYLINE
  5
432
100
AcDbEntity
  8
0
100
AcDbPolyline
 62
7
  6
CONTINUOUS
 90
9
 70
0
 10
6.334155172
 20
7.0284111232
 10
6.3356301712
 20
7.1154778112
 10
6.3371239007
 20
7.1968549267
 10
6.3386181499
 20
7.2693755153
 10
6.3400941429
 20
7.3304969362
 10
6.34155653
 20
7.3792639202
 10
6.3430351251
 20
7.4154333317
 10
6.3445202466
 20
7.4375683778
 10
6.3459934306
 20
7.4449283387
  0
LWPOLYLINE
  5
433
100
AcDbEntity
  8
0
100
AcDbPolyline
 62
7
  6
CONTINUOUS
 90
9
 70
0
 10
6.393219145
 20
7.028949499
 10
6.3946938301
 20
7.1159645645
 10
6.3961766229
 20
7.1967309861
 10
6.3976495551
 20
7.2683038208
 10
6.3991166941
 20
7.3292723393
 10
6.400594376
 20
7.3787613067
 10
6.4020872875
 20
7.415374853
 10
6.4035773039
 20
7.4375877023
 10
6.4047822923
 20
7.4435998776
  0
LWPOLYLINE
  5
434
100
AcDbEntity
  8
0
100
AcDbPolyline
 62
7
  6
CONTINUOUS
 90
9
 70
0
 10
6.3565717777
 20
7.0180829617
 10
6.3580481556
 20
7.099502137
 10
6.3595245336
 20
7.1746431664
 10
6.3610009115
 20
7.2416558282
 10
6.3624772895
 20
7.2988900483
 10
6.3639536674
 20
7.3449365303
 10
6.3654300454
 20
7.378661457
 10
6.3669064234
 20
7.3992344087
 10
6.3683828013
 20
7.4061488111
  0
LWPOLYLINE
  5
435
100
AcDbEntity
  8
0
100
AcDbPolyline
 62
7
  6
CONTINUOUS
 90
8
 70
0
 10
6.3639536674
 20
7.0180829617
 10
6.3654300454
 20
7.099502137
 10
6.3669064234
 20
7.1746431664
 10
6.3683828013
 20
7.2416558282
 10
6.3698591793
 20
7.2988900483
 10
6.3713355572
 20
7.3449365303
 10
6.3728119352
 20
7.378661457
 10
6.3742883131
 20
7.3992344087
  0
LINE
  5
436
100
AcDbEntity
  8
0
100
AcDbLine
 62
7
  6
CONTINUOUS
 10
6.4250710105
 20
7.3884346972
 11
6.4265005184
 21
7.4033579161
  0
LWPOLYLINE
  5
437
100
AcDbEntity
  8
0
100
AcDbPolyline
 62
7
  6
CONTINUOUS
 90
9
 70
0
 10
6.2577187572
 20
6.2446744152
 10
6.2588897928
 20
6.2515593989
 10
6.2603868086
 20
6.2739879705
 10
6.2618828772
 20
6.3108322511
 10
6.2633599299
 20
6.3604506484
 10
6.2648306742
 20
6.4217134853
 10
6.2663208134
 20
6.4943140028
 10
6.2678127972
 20
6.5758046465
 10
6.2692883427
 20
6.6630514346
  0
LWPOLYLINE
  5
438
100
AcDbEntity
  8
0
100
AcDbPolyline
 62
7
  6
CONTINUOUS
 90
10
 70
0
 10
6.2800724923
 20
6.2831562598
 10
6.2812765021
 20
6.2898348671
 10
6.28275288
 20
6.3104078188
 10
6.284229258
 20
6.3441327454
 10
6.285705636
 20
6.3901792274
 10
6.2871820139
 20
6.4474134476
 10
6.2886583919
 20
6.5144261094
 10
6.2901347698
 20
6.5895671387
 10
6.2916111478
 20
6.6709863141
 10
6.2975166596
 20
7.0180829617
  0
LWPOLYLINE
  5
439
100
AcDbEntity
  8
0
100
AcDbPolyline
 62
7
  6
CONTINUOUS
 90
10
 70
0
 10
6.2281268958
 20
6.2829204646
 10
6.2296032737
 20
6.2898348671
 10
6.2310796517
 20
6.3104078188
 10
6.2325560297
 20
6.3441327454
 10
6.2340324076
 20
6.3901792274
 10
6.2355087856
 20
6.4474134476
 10
6.2369851635
 20
6.5144261094
 10
6.2384615415
 20
6.5895671387
 10
6.2399379194
 20
6.6709863141
 10
6.2458434312
 20
7.0180829617
  0
LINE
  5
43A
100
AcDbEntity
  8
0
100
AcDbLine
 62
7
  6
CONTINUOUS
 10
6.0435796517
 20
6.2829204646
 11
6.021190281
 21
6.2441409371
  0
LINE
  5
43B
100
AcDbEntity
  8
0
100
AcDbLine
 62
7
  6
CONTINUOUS
 10
6.1026347698
 20
6.2829204646
 11
6.0802453991
 21
6.2441409371
  0
LINE
  5
43C
100
AcDbEntity
  8
0
100
AcDbLine
 62
7
  6
CONTINUOUS
 10
6.0507178401
 20
7.4449283387
 11
6.0731072108
 21
7.4061488111
  0
LINE
  5
43D
100
AcDbEntity
  8
0
100
AcDbLine
 62
7
  6
CONTINUOUS
 10
6.4265005184
 20
6.0460914548
 11
6.4265005184
 21
7.2001411025
  0
LINE
  5
43E
100
AcDbEntity
  8
AXIS
100
AcDbLine
 62
7
  6
CONTINUOUS
 10
6.4265005184
 20
7.2001411025
 11
6.4265005184
 21
7.4033579161
  0
LINE
  5
43F
100
AcDbEntity
  8
0
100
AcDbLine
 62
7
  6
CONTINUOUS
 10
6.4265005184
 20
7.4033579161
 11
6.4265005184
 21
7.642977821
  0
LWPOLYLINE
  5
440
100
AcDbEntity
  8
0
100
AcDbPolyline
 62
7
  6
CONTINUOUS
 90
4
 70
0
 10
6.4222588648
 20
6.9749591182
 10
6.4236727493
 20
7.055350841
 10
6.4250866339
 20
7.1309809145
 10
6.4265005184
 20
7.2001411025
  0
LWPOLYLINE
  5
441
100
AcDbEntity
  8
0
100
AcDbPolyline
 62
7
  6
CONTINUOUS
 90
8
 70
0
 10
6.4150644552
 20
6.9858287004
 10
6.4164939631
 20
7.0665493349
 10
6.417923471
 20
7.1421441635
 10
6.4193529789
 20
7.2108678765
 10
6.4207824868
 20
7.2711338023
 10
6.4222119947
 20
7.3215505401
 10
6.4236415026
 20
7.360954084
 10
6.4250710105
 20
7.3884346972
  0
LWPOLYLINE
  5
442
100
AcDbEntity
  8
0
100
AcDbPolyline
 62
7
  6
CONTINUOUS
 90
10
 70
0
 10
6.3167743453
 20
6.2446752293
 10
6.317934152
 20
6.2514520824
 10
6.3194058193
 20
6.273273997
 10
6.320869492
 20
6.3088420046
 10
6.3223342806
 20
6.3574166155
 10
6.3238056006
 20
6.4180920883
 10
6.325287679
 20
6.4897504939
 10
6.3267622101
 20
6.5697835599
 10
6.3282238137
 20
6.6557809163
 10
6.334155172
 20
7.0284111232
  0
LWPOLYLINE
  5
443
100
AcDbEntity
  8
0
100
AcDbPolyline
 62
7
  6
CONTINUOUS
 90
10
 70
0
 10
6.3391276104
 20
6.2831562598
 10
6.3403316202
 20
6.2898348671
 10
6.3418079982
 20
6.3104078188
 10
6.3432843761
 20
6.3441327454
 10
6.3447607541
 20
6.3901792274
 10
6.346237132
 20
6.4474134476
 10
6.34771351
 20
6.5144261094
 10
6.3491898879
 20
6.5895671387
 10
6.3506662659
 20
6.6709863141
 10
6.3565717777
 20
7.0180829617
  0
LWPOLYLINE
  5
444
100
AcDbEntity
  8
0
100
AcDbPolyline
 62
7
  6
CONTINUOUS
 90
10
 70
0
 10
6.2871820139
 20
6.2829204646
 10
6.2886583919
 20
6.2898348671
 10
6.2901347698
 20
6.3104078188
 10
6.2916111478
 20
6.3441327454
 10
6.2930875257
 20
6.3901792274
 10
6.2945639037
 20
6.4474134476
 10
6.2960402816
 20
6.5144261094
 10
6.2975166596
 20
6.5895671387
 10
6.2989930375
 20
6.6709863141
 10
6.3048985493
 20
7.0180829617
  0
LWPOLYLINE
  5
445
100
AcDbEntity
  8
0
100
AcDbPolyline
 62
7
  6
CONTINUOUS
 90
10
 70
0
 10
6.346237132
 20
6.2829204646
 10
6.34771351
 20
6.2898348671
 10
6.3491898879
 20
6.3104078188
 10
6.3506662659
 20
6.3441327454
 10
6.3521426438
 20
6.3901792274
 10
6.3536190218
 20
6.4474134476
 10
6.3550953997
 20
6.5144261094
 10
6.3565717777
 20
6.5895671387
 10
6.3580481556
 20
6.6709863141
 10
6.3639536674
 20
7.0180829617
  0
LINE
  5
446
100
AcDbEntity
  8
0
100
AcDbLine
 62
7
  6
CONTINUOUS
 10
6.1616898879
 20
6.2829204646
 11
6.1393005172
 21
6.2441409371
  0
LINE
  5
447
100
AcDbEntity
  8
0
100
AcDbLine
 62
7
  6
CONTINUOUS
 10
6.1097729582
 20
7.4449283387
 11
6.1321623289
 21
7.4061488111
  0
LINE
  5
448
100
AcDbEntity
  8
0
100
AcDbLine
 62
7
  6
CONTINUOUS
 10
6.1688280763
 20
7.4449283387
 11
6.191217447
 21
7.4061488111
  0
LINE
  5
449
100
AcDbEntity
  8
0
100
AcDbLine
 62
7
  6
CONTINUOUS
 10
6.4894926444
 20
6.059101567
 11
6.4894926444
 21
7.6299677087
  0
LWPOLYLINE
  5
44A
100
AcDbEntity
  8
0
100
AcDbPolyline
 62
7
  6
CONTINUOUS
 90
10
 70
0
 10
6.3758294578
 20
6.2446752195
 10
6.3769893987
 20
6.2514533599
 10
6.3784749192
 20
6.2735494668
 10
6.379965301
 20
6.3100207835
 10
6.3814423667
 20
6.359402317
 10
6.3829103667
 20
6.4203305083
 10
6.3843804548
 20
6.4916939596
 10
6.3858606179
 20
6.5722452274
 10
6.3873346379
 20
6.6591622386
 10
6.393219145
 20
7.028949499
  0
LWPOLYLINE
  5
44B
100
AcDbEntity
  8
0
100
AcDbPolyline
 62
7
  6
CONTINUOUS
 90
10
 70
0
 10
6.3981827285
 20
6.2831562598
 10
6.3993398683
 20
6.2894036508
 10
6.4007693762
 20
6.3087035275
 10
6.4021988841
 20
6.3403745052
 10
6.403628392
 20
6.3836853744
 10
6.4050578999
 20
6.4376361871
 10
6.4064874078
 20
6.500981344
 10
6.4079169157
 20
6.5722583518
 10
6.4093464236
 20
6.6498215893
 10
6.4150644552
 20
6.9858287004
  0
LWPOLYLINE
  5
44C
100
AcDbEntity
  8
0
100
AcDbPolyline
 62
7
  6
CONTINUOUS
 90
10
 70
0
 10
6.4052922501
 20
6.2829204646
 10
6.4067061347
 20
6.2892629793
 10
6.4081200192
 20
6.3081472664
 10
6.4095339038
 20
6.3391467918
 10
6.4109477883
 20
6.3815613774
 10
6.4123616729
 20
6.4344330163
 10
6.4137755575
 20
6.4965675109
 10
6.415189442
 20
6.5665614461
 10
6.4166033266
 20
6.6428338874
 10
6.4222588648
 20
6.9749591182
  0
LINE
  5
44D
100
AcDbEntity
  8
0
100
AcDbLine
 62
7
  6
CONTINUOUS
 10
6.220745006
 20
6.2829204646
 11
6.1983556354
 21
6.2441409371
  0
LINE
  5
44E
100
AcDbEntity
  8
0
100
AcDbLine
 62
7
  6
CONTINUOUS
 10
6.2278831944
 20
7.4449283387
 11
6.2502725651
 21
7.4061488111
  0
LINE
  5
44F
100
AcDbEntity
  8
0
100
AcDbLine
 62
7
  6
CONTINUOUS
 10
6.2798001241
 20
6.2829204646
 11
6.2574107535
 21
6.2441409371
  0
LINE
  5
450
100
AcDbEntity
  8
0
100
AcDbLine
 62
7
  6
CONTINUOUS
 10
6.3388552423
 20
6.2829204646
 11
6.3164658716
 21
6.2441409371
  0
LINE
  5
451
100
AcDbEntity
  8
0
100
AcDbLine
 62
7
  6
CONTINUOUS
 10
5.4631146917
 20
7.2697314883
 11
5.4946107547
 21
7.2697314883
  0
LINE
  5
452
100
AcDbEntity
  8
0
100
AcDbLine
 62
7
  6
CONTINUOUS
 10
6.2869383125
 20
7.4449283387
 11
6.3093276832
 21
7.4061488111
  0
LINE
  5
453
100
AcDbEntity
  8
0
100
AcDbLine
 62
7
  6
CONTINUOUS
 10
6.3979103604
 20
6.2829204646
 11
6.3755209897
 21
6.2441409371
  0
LINE
  5
454
100
AcDbEntity
  8
0
100
AcDbLine
 62
7
  6
CONTINUOUS
 10
6.3459934306
 20
7.4449283387
 11
6.3683828013
 21
7.4061488111
  0
LINE
  5
455
100
AcDbEntity
  8
0
100
AcDbLine
 62
7
  6
CONTINUOUS
 10
6.4050485487
 20
7.4449283387
 11
6.4265005184
 21
7.4077724372
  0
LINE
  5
456
100
AcDbEntity
  8
0
100
AcDbLine
 62
7
  6
CONTINUOUS
 10
6.7524847704
 20
6.0177629843
 11
6.7524847704
 21
7.6713062914
  0
LINE
  5
457
100
AcDbEntity
  8
0
100
AcDbLine
 62
7
  6
CONTINUOUS
 10
5.6866257819
 20
7.3930062469
 11
5.9355556365
 21
7.4000464489
  0
LINE
  5
458
100
AcDbEntity
  8
0
100
AcDbLine
 62
7
  6
CONTINUOUS
 10
5.9549969745
 20
7.4061488111
 11
5.9623788643
 21
7.4061488111
  0
LINE
  5
459
100
AcDbEntity
  8
0
100
AcDbLine
 62
7
  6
CONTINUOUS
 10
6.0140520926
 20
7.4061488111
 11
6.0214339824
 21
7.4061488111
  0
LINE
  5
45A
100
AcDbEntity
  8
0
100
AcDbLine
 62
7
  6
CONTINUOUS
 10
6.0731072108
 20
7.4061488111
 11
6.0804891005
 21
7.4061488111
  0
LINE
  5
45B
100
AcDbEntity
  8
0
100
AcDbLine
 62
7
  6
CONTINUOUS
 10
6.1321623289
 20
7.4061488111
 11
6.1395442186
 21
7.4061488111
  0
LINE
  5
45C
100
AcDbEntity
  8
0
100
AcDbLine
 62
7
  6
CONTINUOUS
 10
6.191217447
 20
7.4061488111
 11
6.1985993367
 21
7.4061488111
  0
LINE
  5
45D
100
AcDbEntity
  8
0
100
AcDbLine
 62
7
  6
CONTINUOUS
 10
6.2502725651
 20
7.4061488111
 11
6.2576544548
 21
7.4061488111
  0
LINE
  5
45E
100
AcDbEntity
  8
0
100
AcDbLine
 62
7
  6
CONTINUOUS
 10
6.3093276832
 20
7.4061488111
 11
6.316709573
 21
7.4061488111
  0
LINE
  5
45F
100
AcDbEntity
  8
0
100
AcDbLine
 62
7
  6
CONTINUOUS
 10
6.3683828013
 20
7.4061488111
 11
6.3757646911
 21
7.4061488111
  0
LINE
  5
460
100
AcDbEntity
  8
0
100
AcDbLine
 62
7
  6
CONTINUOUS
 10
5.984768235
 20
7.4449283387
 11
5.991662722
 21
7.4449283387
  0
LINE
  5
461
100
AcDbEntity
  8
0
100
AcDbLine
 62
7
  6
CONTINUOUS
 10
6.0438233531
 20
7.4449283387
 11
6.0507178401
 21
7.4449283387
  0
LINE
  5
462
100
AcDbEntity
  8
0
100
AcDbLine
 62
7
  6
CONTINUOUS
 10
6.1028784712
 20
7.4449283387
 11
6.1097729582
 21
7.4449283387
  0
LINE
  5
463
100
AcDbEntity
  8
0
100
AcDbLine
 62
7
  6
CONTINUOUS
 10
6.1619335893
 20
7.4449283387
 11
6.1688280763
 21
7.4449283387
  0
LINE
  5
464
100
AcDbEntity
  8
0
100
AcDbLine
 62
7
  6
CONTINUOUS
 10
6.2209887074
 20
7.4449283387
 11
6.2278831944
 21
7.4449283387
  0
LINE
  5
465
100
AcDbEntity
  8
0
100
AcDbLine
 62
7
  6
CONTINUOUS
 10
6.2800438255
 20
7.4449283387
 11
6.2869383125
 21
7.4449283387
  0
LINE
  5
466
100
AcDbEntity
  8
0
100
AcDbLine
 62
7
  6
CONTINUOUS
 10
6.3390989436
 20
7.4449283387
 11
6.3459934306
 21
7.4449283387
  0
LINE
  5
467
100
AcDbEntity
  8
0
100
AcDbLine
 62
7
  6
CONTINUOUS
 10
6.3981540617
 20
7.4449283387
 11
6.4050485487
 21
7.4449283387
  0
LINE
  5
468
100
AcDbEntity
  8
0
100
AcDbLine
 62
7
  6
CONTINUOUS
 10
6.4894926444
 20
7.4488653465
 11
6.4265005184
 21
7.4488653465
  0
LINE
  5
469
100
AcDbEntity
  8
0
100
AcDbLine
 62
7
  6
CONTINUOUS
 10
6.7993351641
 20
6.0177629843
 11
6.7993351641
 21
7.6713062914
  0
LINE
  5
46A
100
AcDbEntity
  8
0
100
AcDbLine
 62
7
  6
CONTINUOUS
 10
6.8562753098
 20
7.7109487693
 11
6.8562753098
 21
5.9781205065
  0
LINE
  5
46B
100
AcDbEntity
  8
0
100
AcDbLine
 62
7
  6
CONTINUOUS
 10
6.8587733341
 20
7.714613378
 11
6.8587733341
 21
5.9833120447
  0
LINE
  5
46C
100
AcDbEntity
  8
0
100
AcDbLine
 62
7
  6
CONTINUOUS
 10
6.4894926444
 20
7.6299677087
 11
6.4265005184
 21
7.6299677087
  0
LINE
  5
46D
100
AcDbEntity
  8
0
100
AcDbLine
 62
7
  6
CONTINUOUS
 10
6.7524847704
 20
7.6713062914
 11
6.7993351641
 21
7.6713062914
  0
LINE
  5
46E
100
AcDbEntity
  8
0
100
AcDbLine
 62
7
  6
CONTINUOUS
 10
6.8548363263
 20
7.7185503859
 11
6.7524847704
 21
7.7185503859
  0
LWPOLYLINE
  5
46F
100
AcDbEntity
  8
0
100
AcDbPolyline
 62
7
  6
CONTINUOUS
 90
8
 70
0
 10
2.065118127
 20
6.6392049434
 10
2.0656821379
 20
6.6428838245
 10
2.0667415688
 20
6.6466605293
 10
2.0683221896
 20
6.6504899395
 10
2.0704391746
 20
6.6542793419
 10
2.0731191633
 20
6.6579471934
 10
2.0764437068
 20
6.6614337754
 10
2.0805560292
 20
6.6646302961
  0
LWPOLYLINE
  5
470
100
AcDbEntity
  8
0
100
AcDbPolyline
 62
7
  6
CONTINUOUS
 90
9
 70
0
 10
2.0774299322
 20
7.0877561725
 10
2.0800486195
 20
7.0904009413
 10
2.0831256088
 20
7.0928336389
 10
2.0866552296
 20
7.0950026299
 10
2.0905952624
 20
7.0968239872
 10
2.0949193288
 20
7.0982160825
 10
2.0996583023
 20
7.0990826676
 10
2.104864107
 20
7.0992515438
 10
2.1100824653
 20
7.0985124088
  0
LWPOLYLINE
  5
471
100
AcDbEntity
  8
0
100
AcDbPolyline
 62
7
  6
CONTINUOUS
 90
9
 70
0
 10
3.1720046034
 20
6.2456642335
 10
3.1683314853
 20
6.2450637965
 10
3.1644122465
 20
6.2449043125
 10
3.1602818235
 20
6.2452242206
 10
3.1560237039
 20
6.246066604
 10
3.1517072081
 20
6.2474819968
 10
3.1473639314
 20
6.2495664127
 10
3.143053082
 20
6.2524896847
 10
3.1392657916
 20
6.2561549336
  0
LWPOLYLINE
  5
472
100
AcDbEntity
  8
0
100
AcDbPolyline
 62
7
  6
CONTINUOUS
 90
9
 70
0
 10
2.741602477
 20
6.1187635034
 10
2.7382779327
 20
6.1204367445
 10
2.7350134585
 20
6.1226113905
 10
2.7318599129
 20
6.1252980044
 10
2.728910162
 20
6.128482368
 10
2.7262499907
 20
6.1321646186
 10
2.723961396
 20
6.1364038607
 10
2.7221921031
 20
6.1413026894
 10
2.7212825007
 20
6.1464940485
  0
LWPOLYLINE
  5
473
100
AcDbEntity
  8
0
100
AcDbPolyline
 62
7
  6
CONTINUOUS
 90
9
 70
0
 10
2.3188094647
 20
6.2690826787
 10
2.3171033648
 20
6.2723904747
 10
2.3157405702
 20
6.276068612
 10
2.3147684486
 20
6.2800957366
 10
2.3142537712
 20
6.2844057613
 10
2.3142660197
 20
6.2889483742
 10
2.3149062717
 20
6.2937231953
 10
2.3163543431
 20
6.2987263952
 10
2.3186698629
 20
6.3034609417
  0
LWPOLYLINE
  5
474
100
AcDbEntity
  8
0
100
AcDbPolyline
 62
7
  6
CONTINUOUS
 90
8
 70
0
 10
2.0805640236
 20
7.0244337559
 10
2.0764569325
 20
7.0276234342
 10
2.0731331397
 20
7.0311052792
 10
2.070450205
 20
7.0347726875
 10
2.0683286932
 20
7.0385658638
 10
2.0667441437
 20
7.042401272
 10
2.065682609
 20
7.0461832539
 10
2.065118127
 20
7.0498643325
  0
LWPOLYLINE
  5
475
100
AcDbEntity
  8
0
100
AcDbPolyline
 62
7
  6
CONTINUOUS
 90
9
 70
0
 10
2.7212824753
 20
7.542575209
 10
2.7221896075
 20
7.5477573695
 10
2.7239540108
 20
7.5526491081
 10
2.7262383338
 20
7.5568861718
 10
2.7288971743
 20
7.5605710866
 10
2.7318491164
 20
7.5637609212
 10
2.7350071529
 20
7.5664531247
 10
2.7382759947
 20
7.5686314028
 10
2.7416024772
 20
7.5703057723
  0
LWPOLYLINE
  5
476
100
AcDbEntity
  8
0
100
AcDbPolyline
 62
7
  6
CONTINUOUS
 90
9
 70
0
 10
3.1392657677
 20
7.4329143518
 10
3.1430456404
 20
7.4365736
 10
3.1473483636
 20
7.4394940101
 10
3.1516869034
 20
7.4415791754
 10
3.1560038902
 20
7.4429975059
 10
3.1602670014
 20
7.443843026
 10
3.1644043486
 20
7.4441648123
 10
3.1683292693
 20
7.4440056856
 10
3.1720046034
 20
7.4434050422
  0
LINE
  5
477
100
AcDbEntity
  8
0
100
AcDbLine
 62
7
  6
CONTINUOUS
 10
2.0805560292
 20
6.6646302961
 11
2.085212225
 21
6.6670995992
  0
LWPOLYLINE
  5
478
100
AcDbEntity
  8
0
100
AcDbPolyline
 62
7
  6
CONTINUOUS
 90
9
 70
0
 10
2.1100825018
 20
6.5905568516
 10
2.1048736461
 20
6.5898182101
 10
2.0996760969
 20
6.5899846296
 10
2.0949405159
 20
6.5908478283
 10
2.0906143262
 20
6.5922378391
 10
2.0866684119
 20
6.5940595968
 10
2.0831320857
 20
6.5962311436
 10
2.0800502883
 20
6.5986669054
 10
2.0774299322
 20
6.6013131031
  0
LINE
  5
479
100
AcDbEntity
  8
0
100
AcDbLine
 62
7
  6
CONTINUOUS
 10
2.0852122256
 20
7.0219696501
 11
2.0805640236
 21
7.0244337559
  0
LWPOLYLINE
  5
47A
100
AcDbEntity
  8
0
100
AcDbPolyline
 62
7
  6
CONTINUOUS
 90
9
 70
0
 10
2.3186698532
 20
7.3856083041
 10
2.3163577419
 20
7.3903339573
 10
2.3149098825
 20
7.3953285473
 10
2.3142674557
 20
7.4000990953
 10
2.3142525652
 20
7.4046430815
 10
2.3147658001
 20
7.4089588205
 10
2.31573827
 20
7.4129931071
 10
2.3171024642
 20
7.4166767505
 10
2.3188094648
 20
7.4199865972
  0
LWPOLYLINE
  5
47B
100
AcDbEntity
  8
0
100
AcDbPolyline
 62
7
  6
CONTINUOUS
 90
5
 70
0
 10
2.741602477
 20
6.1187635034
 10
2.7390612664
 20
6.1495383117
 10
2.736751187
 20
6.1798324138
 10
2.7346493383
 20
6.2093236143
 10
2.7327293697
 20
6.2378686742
  0
LINE
  5
47C
100
AcDbEntity
  8
0
100
AcDbLine
 62
7
  6
CONTINUOUS
 10
2.7175915295
 20
6.1949002815
 11
2.7212739958
 21
6.146493287
  0
LINE
  5
47D
100
AcDbEntity
  8
0
100
AcDbLine
 62
7
  6
CONTINUOUS
 10
2.7155049274
 20
6.2251582833
 11
2.7175915295
 21
6.1949002815
  0
LWPOLYLINE
  5
47E
100
AcDbEntity
  8
0
100
AcDbPolyline
 62
7
  6
CONTINUOUS
 90
3
 70
0
 10
2.7212739948
 20
7.5425759678
 10
2.7175821984
 20
7.4940383041
 10
2.7155049284
 20
7.4639110025
  0
LWPOLYLINE
  5
47F
100
AcDbEntity
  8
0
100
AcDbPolyline
 62
7
  6
CONTINUOUS
 90
5
 70
0
 10
2.3188094647
 20
6.2690826787
 10
2.3351406793
 20
6.2959606126
 10
2.3513739875
 20
6.3222979096
 10
2.367300359
 20
6.3478496213
 10
2.3827768488
 20
6.3724586409
  0
LINE
  5
480
100
AcDbEntity
  8
0
100
AcDbLine
 62
7
  6
CONTINUOUS
 10
2.3441363762
 20
6.3447920687
 11
2.3186625346
 21
6.3034653248
  0
LINE
  5
481
100
AcDbEntity
  8
0
100
AcDbLine
 62
7
  6
CONTINUOUS
 10
2.3602333859
 20
6.3704976182
 11
2.3441363762
 21
6.3447920687
  0
LWPOLYLINE
  5
482
100
AcDbEntity
  8
0
100
AcDbPolyline
 62
7
  6
CONTINUOUS
 90
3
 70
0
 10
3.1392593528
 20
7.4329199506
 10
3.1077427671
 20
7.3958219762
 10
3.0883539638
 20
7.3726696166
  0
LWPOLYLINE
  5
483
100
AcDbEntity
  8
0
100
AcDbPolyline
 62
7
  6
CONTINUOUS
 90
4
 70
0
 10
2.065118127
 20
6.6392049434
 10
2.089501368
 20
6.6494290992
 10
2.1138683191
 20
6.6594868572
 10
2.1378087924
 20
6.6692409662
  0
LINE
  5
484
100
AcDbEntity
  8
0
100
AcDbLine
 62
7
  6
CONTINUOUS
 10
2.1301087058
 20
6.6855682661
 11
2.0852088726
 21
6.6671074526
  0
LINE
  5
485
100
AcDbEntity
  8
0
100
AcDbLine
 62
7
  6
CONTINUOUS
 10
2.1582409894
 20
6.6969029832
 11
2.1301087058
 21
6.6855682661
  0
LWPOLYLINE
  5
486
100
AcDbEntity
  8
0
100
AcDbPolyline
 62
7
  6
CONTINUOUS
 90
3
 70
0
 10
2.1100844007
 20
6.5905485519
 10
2.1573876268
 20
6.6020364911
 10
2.1866819649
 20
6.6093706532
  0
LWPOLYLINE
  5
487
100
AcDbEntity
  8
0
100
AcDbPolyline
 62
7
  6
CONTINUOUS
 90
5
 70
0
 10
3.4456168604
 20
6.6013131032
 10
3.4155615009
 20
6.6084065666
 10
3.3860199278
 20
6.6155749571
 10
3.3572901084
 20
6.6226974807
 10
3.3295152797
 20
6.629701108
  0
LINE
  5
488
100
AcDbEntity
  8
0
100
AcDbLine
 62
7
  6
CONTINUOUS
 10
3.3657868216
 20
6.602004861
 11
3.4129624234
 21
6.5905485429
  0
LINE
  5
489
100
AcDbEntity
  8
0
100
AcDbLine
 62
7
  6
CONTINUOUS
 10
3.3363648253
 20
6.6093706537
 11
3.3657868216
 21
6.602004861
  0
LWPOLYLINE
  5
48A
100
AcDbEntity
  8
0
100
AcDbPolyline
 62
7
  6
CONTINUOUS
 90
3
 70
0
 10
2.0852088832
 20
7.021961819
 10
2.130229739
 20
7.0034519025
 10
2.1582409838
 20
6.992166295
  0
LWPOLYLINE
  5
48B
100
AcDbEntity
  8
0
100
AcDbPolyline
 62
7
  6
CONTINUOUS
 90
8
 70
0
 10
3.1720046034
 20
6.2456642335
 10
3.156028757
 20
6.2641975006
 10
3.1393165383
 20
6.2837968461
 10
3.1216630855
 20
6.3046983358
 10
3.1027986039
 20
6.3272247087
 10
3.0822853006
 20
6.3519103412
 10
3.0616185861
 20
6.3769512744
 10
3.0415417141
 20
6.4014174031
  0
LINE
  5
48C
100
AcDbEntity
  8
0
100
AcDbLine
 62
7
  6
CONTINUOUS
 10
3.1078275659
 20
6.2931465407
 11
3.1392593585
 21
6.2561493184
  0
LINE
  5
48D
100
AcDbEntity
  8
0
100
AcDbLine
 62
7
  6
CONTINUOUS
 10
3.0883539597
 20
6.3163996637
 11
3.1078275659
 21
6.2931465407
  0
LWPOLYLINE
  5
48E
100
AcDbEntity
  8
0
100
AcDbPolyline
 62
7
  6
CONTINUOUS
 90
3
 70
0
 10
2.3186625463
 20
7.3856039332
 10
2.3442053698
 20
7.3441664334
 10
2.3602333827
 20
7.318571663
  0
LWPOLYLINE
  5
48F
100
AcDbEntity
  8
0
100
AcDbPolyline
 62
7
  6
CONTINUOUS
 90
3
 70
0
 10
2.7327293697
 20
6.2378686742
 10
2.729357781
 20
6.2916740233
 10
2.7276051986
 20
6.3214546269
  0
LWPOLYLINE
  5
490
100
AcDbEntity
  8
0
100
AcDbPolyline
 62
7
  6
CONTINUOUS
 90
6
 70
0
 10
2.7155363596
 20
6.2251562083
 10
2.7153262367
 20
6.2330714354
 10
2.7158775478
 20
6.2437552529
 10
2.7170119239
 20
6.2547027781
 10
2.7185792544
 20
6.2662874338
 10
2.7205123184
 20
6.2788033574
  0
LINE
  5
491
100
AcDbEntity
  8
DEFAULT_3
100
AcDbLine
 62
7
  6
PHANTOM
 10
2.7615233963
 20
7.9202636095
 11
2.7615233963
 21
5.7154627718
  0
LWPOLYLINE
  5
492
100
AcDbEntity
  8
0
100
AcDbPolyline
 62
7
  6
CONTINUOUS
 90
6
 70
0
 10
2.7276051993
 20
7.3676146489
 10
2.7298608039
 20
7.4057167511
 10
2.7323416461
 20
7.4452506116
 10
2.7350982421
 20
7.4861986934
 10
2.7381752877
 20
7.5281741691
 10
2.7416024772
 20
7.5703057723
  0
LINE
  5
493
100
AcDbEntity
  8
0
100
AcDbLine
 62
7
  6
CONTINUOUS
 10
2.8025453179
 20
7.4103333625
 11
2.7954415941
 21
7.3676146489
  0
LWPOLYLINE
  5
494
100
AcDbEntity
  8
0
100
AcDbPolyline
 62
7
  6
CONTINUOUS
 90
7
 70
0
 10
2.4815050782
 20
6.4014174033
 10
2.4621443547
 20
6.3626850755
 10
2.4563443097
 20
6.3514113794
 10
2.4507984051
 20
6.3411135609
 10
2.4452822225
 20
6.3315979398
 10
2.4394595945
 20
6.3226552567
 10
2.4346666668
 20
6.3164161492
  0
LWPOLYLINE
  5
495
100
AcDbEntity
  8
0
100
AcDbPolyline
 62
7
  6
CONTINUOUS
 90
3
 70
0
 10
2.3827768488
 20
6.3724586409
 10
2.4121444957
 20
6.4186831758
 10
2.4266242817
 20
6.441290636
  0
LWPOLYLINE
  5
496
100
AcDbEntity
  8
0
100
AcDbPolyline
 62
7
  6
CONTINUOUS
 90
6
 70
0
 10
2.3602575955
 20
6.370477464
 10
2.3647400563
 20
6.3770045247
 10
2.3714658665
 20
6.385323862
 10
2.37881839
 20
6.3935138263
 10
2.3868956766
 20
6.401964756
 10
2.3958162337
 20
6.4109541239
  0
LWPOLYLINE
  5
497
100
AcDbEntity
  8
0
100
AcDbPolyline
 62
7
  6
CONTINUOUS
 90
7
 70
0
 10
3.0415417144
 20
7.2876518724
 10
3.0610184128
 20
7.3113885056
 10
3.081502106
 20
7.3362129211
 10
3.1029573355
 20
7.3620348503
 10
3.1253044782
 20
7.3886974127
 10
3.1483520823
 20
7.4158936109
 10
3.1720046034
 20
7.4434050422
  0
LINE
  5
498
100
AcDbEntity
  8
0
100
AcDbLine
 62
7
  6
CONTINUOUS
 10
3.1272305589
 20
7.2781151519
 11
3.0964225109
 21
7.2477786398
  0
LWPOLYLINE
  5
499
100
AcDbEntity
  8
0
100
AcDbPolyline
 62
7
  6
CONTINUOUS
 90
7
 70
0
 10
2.2745260427
 20
6.6506359025
 10
2.2360965909
 20
6.6306807332
 10
2.2247777434
 20
6.6249693016
 10
2.2142381062
 20
6.6198979944
 10
2.2041822784
 20
6.6154420277
 10
2.1942152985
 20
6.611629701
 10
2.1866704921
 20
6.6093993717
  0
LINE
  5
49A
100
AcDbEntity
  8
0
100
AcDbLine
 62
7
  6
CONTINUOUS
 10
2.1378087924
 20
6.6692409662
 11
2.1828020684
 21
6.6872979631
  0
LWPOLYLINE
  5
49B
100
AcDbEntity
  8
0
100
AcDbPolyline
 62
7
  6
CONTINUOUS
 90
3
 70
0
 10
2.1828020684
 20
6.6872979631
 10
2.2291022307
 20
6.7055857907
 10
2.2535634438
 20
6.7151521481
  0
LWPOLYLINE
  5
49C
100
AcDbEntity
  8
0
100
AcDbPolyline
 62
7
  6
CONTINUOUS
 90
6
 70
0
 10
2.1582487291
 20
6.696872448
 10
2.1657116319
 20
6.6995182285
 10
2.1760429143
 20
6.7022953821
 10
2.1868051717
 20
6.7045994974
 10
2.1983071647
 20
6.706688732
 10
2.2108078624
 20
6.7087179125
  0
LWPOLYLINE
  5
49D
100
AcDbEntity
  8
0
100
AcDbPolyline
 62
7
  6
CONTINUOUS
 90
6
 70
0
 10
2.2745260427
 20
6.6506359025
 10
2.2377169371
 20
6.6410393294
 10
2.1994002045
 20
6.6311940224
 10
2.1596473065
 20
6.6211717791
 10
2.1187046698
 20
6.6111083968
 10
2.0774299322
 20
6.6013131031
  0
LINE
  5
49E
100
AcDbEntity
  8
0
100
AcDbLine
 62
7
  6
CONTINUOUS
 10
2.2108078624
 20
6.7087179125
 11
2.2535634438
 21
6.7151521481
  0
LWPOLYLINE
  5
49F
100
AcDbEntity
  8
0
100
AcDbPolyline
 62
7
  6
CONTINUOUS
 90
4
 70
0
 10
3.2694833487
 20
6.7151521478
 10
3.3123309597
 20
6.7087035567
 10
3.3444014461
 20
6.7028950933
 10
3.3647951016
 20
6.6968606666
  0
LWPOLYLINE
  5
4A0
100
AcDbEntity
  8
0
100
AcDbPolyline
 62
7
  6
CONTINUOUS
 90
3
 70
0
 10
3.3295152797
 20
6.629701108
 10
3.2773063209
 20
6.6431205277
 10
3.2485207498
 20
6.6506359021
  0
LWPOLYLINE
  5
4A1
100
AcDbEntity
  8
0
100
AcDbPolyline
 62
7
  6
CONTINUOUS
 90
4
 70
0
 10
3.3363812826
 20
6.6094118019
 10
3.316314337
 20
6.6165253569
 10
3.2869726522
 20
6.6306692317
 10
3.2485207498
 20
6.6506359021
  0
LWPOLYLINE
  5
4A2
100
AcDbEntity
  8
0
100
AcDbPolyline
 62
7
  6
CONTINUOUS
 90
7
 70
0
 10
2.2535634439
 20
6.973917128
 10
2.2267237388
 20
6.9844168981
 10
2.1978816974
 20
6.9957862589
 10
2.1670589253
 20
7.0080532998
 10
2.1344078862
 20
7.0212070673
 10
2.1002435251
 20
7.0351884622
 10
2.065118127
 20
7.0498643325
  0
LWPOLYLINE
  5
4A3
100
AcDbEntity
  8
0
100
AcDbPolyline
 62
7
  6
CONTINUOUS
 90
4
 70
0
 10
3.0964225107
 20
6.4412906358
 10
3.1272727885
 20
6.4109120944
 10
3.1498257709
 20
6.3873412606
 10
3.1627800648
 20
6.3704698324
  0
LWPOLYLINE
  5
4A4
100
AcDbEntity
  8
0
100
AcDbPolyline
 62
7
  6
CONTINUOUS
 90
6
 70
0
 10
3.0883806087
 20
6.3164164605
 10
3.0835581607
 20
6.3226965082
 10
3.0777243896
 20
6.3316639519
 10
3.0722073245
 20
6.3411874574
 10
3.0666660323
 20
6.3514808947
 10
3.0608732366
 20
6.362742713
  0
LWPOLYLINE
  5
4A5
100
AcDbEntity
  8
0
100
AcDbPolyline
 62
7
  6
CONTINUOUS
 90
7
 70
0
 10
2.4266242819
 20
7.24777864
 10
2.4102421467
 20
7.2733644121
 10
2.3931347781
 20
7.3002433215
 10
2.3752737065
 20
7.3285167257
 10
2.356772564
 20
7.3580812995
 10
2.3378579872
 20
7.3886763464
 10
2.3188094648
 20
7.4199865972
  0
LINE
  5
4A6
100
AcDbEntity
  8
0
100
AcDbLine
 62
7
  6
CONTINUOUS
 10
2.4621735521
 20
7.3263265653
 11
2.4815050785
 21
7.2876518726
  0
LWPOLYLINE
  5
4A7
100
AcDbEntity
  8
0
100
AcDbPolyline
 62
7
  6
CONTINUOUS
 90
7
 70
0
 10
2.7954415938
 20
6.3214546269
 10
2.8025554252
 20
6.2786730357
 10
2.8044918142
 20
6.2661215282
 10
2.8060569058
 20
6.2545215282
 10
2.8071823038
 20
6.2435950748
 10
2.8077220082
 20
6.2329731602
 10
2.8075114329
 20
6.2251562676
  0
LWPOLYLINE
  5
4A8
100
AcDbEntity
  8
0
100
AcDbPolyline
 62
7
  6
CONTINUOUS
 90
5
 70
0
 10
2.7814443156
 20
7.5703057723
 10
2.7836854699
 20
7.5433034987
 10
2.7857483814
 20
7.5166134
 10
2.7876471683
 20
7.4904840326
 10
2.7894014197
 20
7.4650101965
  0
LINE
  5
4A9
100
AcDbEntity
  8
0
100
AcDbLine
 62
7
  6
CONTINUOUS
 10
2.8054552238
 20
7.4941695454
 11
2.8017727969
 21
7.5425759881
  0
LINE
  5
4AA
100
AcDbEntity
  8
0
100
AcDbLine
 62
7
  6
CONTINUOUS
 10
2.8075418653
 20
7.4639109919
 11
2.8054552238
 21
7.4941695454
  0
LINE
  5
4AB
100
AcDbEntity
  8
0
100
AcDbLine
 62
7
  6
CONTINUOUS
 10
2.7894014197
 20
7.4650101965
 11
2.7924951468
 21
7.4169785414
  0
LINE
  5
4AC
100
AcDbEntity
  8
0
100
AcDbLine
 62
7
  6
CONTINUOUS
 10
2.7924951468
 20
7.4169785414
 11
2.7954415941
 21
7.3676146489
  0
LWPOLYLINE
  5
4AD
100
AcDbEntity
  8
0
100
AcDbPolyline
 62
7
  6
CONTINUOUS
 90
6
 70
0
 10
2.8075108665
 20
7.4639130381
 10
2.8077212826
 20
7.4560463425
 10
2.8071761287
 20
7.4453982739
 10
2.806046857
 20
7.4344650008
 10
2.8044806026
 20
7.4228710956
 10
2.8025453179
 20
7.4103333625
  0
LWPOLYLINE
  5
4AE
100
AcDbEntity
  8
0
100
AcDbPolyline
 62
7
  6
CONTINUOUS
 90
7
 70
0
 10
2.7954415938
 20
6.3214546269
 10
2.793625422
 20
6.2906164413
 10
2.7916401075
 20
6.2584217122
 10
2.7894588346
 20
6.22491444
 10
2.7870524065
 20
6.1902392968
 10
2.7843924992
 20
6.1547146442
 10
2.7814443156
 20
6.1187635034
  0
LWPOLYLINE
  5
4AF
100
AcDbEntity
  8
0
100
AcDbPolyline
 62
7
  6
CONTINUOUS
 90
3
 70
0
 10
2.8017727976
 20
6.1464932968
 10
2.805464586
 20
6.195030852
 10
2.8075418645
 20
6.2251582761
  0
LINE
  5
4B0
100
AcDbEntity
  8
0
100
AcDbLine
 62
7
  6
CONTINUOUS
 10
2.7205123184
 20
6.2788033574
 11
2.7276051986
 21
6.3214546269
  0
LWPOLYLINE
  5
4B1
100
AcDbEntity
  8
0
100
AcDbPolyline
 62
7
  6
CONTINUOUS
 90
7
 70
0
 10
3.0415417144
 20
7.2876518724
 10
3.0609024379
 20
7.3263842003
 10
3.0667024829
 20
7.3376578964
 10
3.0722483875
 20
7.3479557148
 10
3.0777645701
 20
7.357471336
 10
3.0835871981
 20
7.366414019
 10
3.0883801258
 20
7.3726531265
  0
LWPOLYLINE
  5
4B2
100
AcDbEntity
  8
0
100
AcDbPolyline
 62
7
  6
CONTINUOUS
 90
5
 70
0
 10
3.2042373279
 20
7.4199865971
 10
3.1879061133
 20
7.3931086631
 10
3.1716728051
 20
7.3667713661
 10
3.1557464336
 20
7.3412196544
 10
3.1402699438
 20
7.3166106349
  0
LINE
  5
4B3
100
AcDbEntity
  8
0
100
AcDbLine
 62
7
  6
CONTINUOUS
 10
3.1789104164
 20
7.3442772071
 11
3.204384258
 21
7.385603951
  0
LINE
  5
4B4
100
AcDbEntity
  8
0
100
AcDbLine
 62
7
  6
CONTINUOUS
 10
3.1628134067
 20
7.3185716576
 11
3.1789104164
 21
7.3442772071
  0
LWPOLYLINE
  5
4B5
100
AcDbEntity
  8
0
100
AcDbPolyline
 62
7
  6
CONTINUOUS
 90
3
 70
0
 10
3.1402699438
 20
7.3166106349
 10
3.1109022969
 20
7.2703860999
 10
3.0964225109
 20
7.2477786398
  0
LWPOLYLINE
  5
4B6
100
AcDbEntity
  8
0
100
AcDbPolyline
 62
7
  6
CONTINUOUS
 90
6
 70
0
 10
3.1627891971
 20
7.3185918117
 10
3.1583067363
 20
7.3120647511
 10
3.1515809261
 20
7.3037454138
 10
3.1442284025
 20
7.2955554495
 10
3.136151116
 20
7.2871045197
 10
3.1272305589
 20
7.2781151519
  0
LWPOLYLINE
  5
4B7
100
AcDbEntity
  8
0
100
AcDbPolyline
 62
7
  6
CONTINUOUS
 90
7
 70
0
 10
2.4815050782
 20
6.4014174033
 10
2.4620283798
 20
6.3776807702
 10
2.4415446866
 20
6.3528563547
 10
2.4200894571
 20
6.3270344255
 10
2.3977423144
 20
6.3003718631
 10
2.3746947103
 20
6.2731756649
 10
2.3510421892
 20
6.2456642335
  0
LWPOLYLINE
  5
4B8
100
AcDbEntity
  8
0
100
AcDbPolyline
 62
7
  6
CONTINUOUS
 90
3
 70
0
 10
2.3837874398
 20
6.2561493252
 10
2.4153040255
 20
6.2932472996
 10
2.4346928288
 20
6.3163996591
  0
LINE
  5
4B9
100
AcDbEntity
  8
0
100
AcDbLine
 62
7
  6
CONTINUOUS
 10
2.3958162337
 20
6.4109541239
 11
2.4266242817
 21
6.441290636
  0
LWPOLYLINE
  5
4BA
100
AcDbEntity
  8
0
100
AcDbPolyline
 62
7
  6
CONTINUOUS
 90
7
 70
0
 10
3.2485207499
 20
7.0384333733
 10
3.2869502017
 20
7.0583885425
 10
3.2982690492
 20
7.0640999741
 10
3.3088086864
 20
7.0691712813
 10
3.3188645142
 20
7.0736272481
 10
3.3288314941
 20
7.0774395748
 10
3.3363763005
 20
7.0796699041
  0
LWPOLYLINE
  5
4BB
100
AcDbEntity
  8
0
100
AcDbPolyline
 62
7
  6
CONTINUOUS
 90
5
 70
0
 10
3.4579286656
 20
7.0498643323
 10
3.4288102594
 20
7.0376742142
 10
3.4001534255
 20
7.0258917
 10
3.372255484
 20
7.0145842907
 10
3.3453378566
 20
7.0037997163
  0
LINE
  5
4BC
100
AcDbEntity
  8
0
100
AcDbLine
 62
7
  6
CONTINUOUS
 10
3.3929377934
 20
7.0035008905
 11
3.4378379176
 21
7.0219618224
  0
LINE
  5
4BD
100
AcDbEntity
  8
0
100
AcDbLine
 62
7
  6
CONTINUOUS
 10
3.3648058029
 20
6.9921662924
 11
3.3929377934
 21
7.0035008905
  0
LWPOLYLINE
  5
4BE
100
AcDbEntity
  8
0
100
AcDbPolyline
 62
7
  6
CONTINUOUS
 90
3
 70
0
 10
3.3453378566
 20
7.0037997163
 10
3.2943047239
 20
6.9836247881
 10
3.2694833488
 20
6.9739171277
  0
LWPOLYLINE
  5
4BF
100
AcDbEntity
  8
0
100
AcDbPolyline
 62
7
  6
CONTINUOUS
 90
6
 70
0
 10
3.3647980632
 20
6.9921968276
 10
3.357335164
 20
6.9895510484
 10
3.3470038837
 20
6.9867738949
 10
3.3362416265
 20
6.9844697793
 10
3.3247396317
 20
6.9823805444
 10
3.3122389325
 20
6.9803513632
  0
LWPOLYLINE
  5
4C0
100
AcDbEntity
  8
0
100
AcDbPolyline
 62
7
  6
CONTINUOUS
 90
6
 70
0
 10
3.2485207499
 20
7.0384333733
 10
3.2853298555
 20
7.0480299463
 10
3.3236465881
 20
7.0578752534
 10
3.3633994861
 20
7.0678974966
 10
3.4043421228
 20
7.077960879
 10
3.4456168604
 20
7.0877561726
  0
LWPOLYLINE
  5
4C1
100
AcDbEntity
  8
0
100
AcDbPolyline
 62
7
  6
CONTINUOUS
 90
3
 70
0
 10
3.4129623919
 20
7.0985207238
 10
3.3656591658
 20
7.0870327847
 10
3.3363648277
 20
7.0796986225
  0
LINE
  5
4C2
100
AcDbEntity
  8
0
100
AcDbLine
 62
7
  6
CONTINUOUS
 10
3.3122389325
 20
6.9803513632
 11
3.2694833488
 21
6.9739171277
  0
LWPOLYLINE
  5
4C3
100
AcDbEntity
  8
0
100
AcDbPolyline
 62
7
  6
CONTINUOUS
 90
4
 70
0
 10
2.2535634439
 20
6.973917128
 10
2.2108001127
 20
6.9803525716
 10
2.1786794035
 20
6.9861665411
 10
2.1582517374
 20
6.9922087887
  0
LWPOLYLINE
  5
4C4
100
AcDbEntity
  8
0
100
AcDbPolyline
 62
7
  6
CONTINUOUS
 90
5
 70
0
 10
2.0774299322
 20
7.0877561725
 10
2.1074852917
 20
7.0806627091
 10
2.1370268648
 20
7.0734943187
 10
2.1657566842
 20
7.066371795
 10
2.1935315129
 20
7.0593681678
  0
LINE
  5
4C5
100
AcDbEntity
  8
0
100
AcDbLine
 62
7
  6
CONTINUOUS
 10
2.157259971
 20
7.0870644148
 11
2.1100843692
 21
7.0985207329
  0
LINE
  5
4C6
100
AcDbEntity
  8
0
100
AcDbLine
 62
7
  6
CONTINUOUS
 10
2.1866819673
 20
7.0796986221
 11
2.157259971
 21
7.0870644148
  0
LWPOLYLINE
  5
4C7
100
AcDbEntity
  8
0
100
AcDbPolyline
 62
7
  6
CONTINUOUS
 90
3
 70
0
 10
2.1935315129
 20
7.0593681678
 10
2.2457404717
 20
7.0459487481
 10
2.2745260428
 20
7.0384333737
  0
LWPOLYLINE
  5
4C8
100
AcDbEntity
  8
0
100
AcDbPolyline
 62
7
  6
CONTINUOUS
 90
4
 70
0
 10
2.1866657566
 20
7.0796580894
 10
2.2067180479
 20
7.0725501395
 10
2.2360893564
 20
7.0583922472
 10
2.2745260428
 20
7.0384333737
  0
LWPOLYLINE
  5
4C9
100
AcDbEntity
  8
0
100
AcDbPolyline
 62
7
  6
CONTINUOUS
 90
7
 70
0
 10
3.2694833487
 20
6.7151521478
 10
3.2977975465
 20
6.7040734267
 10
3.3274546422
 20
6.6923762162
 10
3.358530246
 20
6.6799980471
 10
3.3908703275
 20
6.6669563861
 10
3.4241275444
 20
6.6533335872
 10
3.4579286656
 20
6.6392049433
  0
LWPOLYLINE
  5
4CA
100
AcDbEntity
  8
0
100
AcDbPolyline
 62
7
  6
CONTINUOUS
 90
3
 70
0
 10
3.4378379008
 20
6.6671074598
 10
3.3928169325
 20
6.6856174223
 10
3.3648058098
 20
6.6969029802
  0
LWPOLYLINE
  5
4CB
100
AcDbEntity
  8
0
100
AcDbPolyline
 62
7
  6
CONTINUOUS
 90
4
 70
0
 10
2.4266242819
 20
7.24777864
 10
2.3957859068
 20
7.2781453335
 10
2.3732277079
 20
7.301720418
 10
2.360266833
 20
7.3185995311
  0
LWPOLYLINE
  5
4CC
100
AcDbEntity
  8
0
100
AcDbPolyline
 62
7
  6
CONTINUOUS
 90
5
 70
0
 10
2.3510421892
 20
7.4434050422
 10
2.3711839072
 20
7.4200050621
 10
2.3908671045
 20
7.3968451718
 10
2.4099199913
 20
7.3742002321
 10
2.4282736492
 20
7.3522086631
  0
LINE
  5
4CD
100
AcDbEntity
  8
0
100
AcDbLine
 62
7
  6
CONTINUOUS
 10
2.4152193614
 20
7.3959225751
 11
2.3837874337
 21
7.4329199576
  0
LINE
  5
4CE
100
AcDbEntity
  8
0
100
AcDbLine
 62
7
  6
CONTINUOUS
 10
2.434692833
 20
7.3726696118
 11
2.4152193614
 21
7.3959225751
  0
LWPOLYLINE
  5
4CF
100
AcDbEntity
  8
0
100
AcDbPolyline
 62
7
  6
CONTINUOUS
 90
3
 70
0
 10
2.4282736492
 20
7.3522086631
 10
2.4626535834
 20
7.3106284571
 10
2.4815050785
 20
7.2876518726
  0
LWPOLYLINE
  5
4D0
100
AcDbEntity
  8
0
100
AcDbPolyline
 62
7
  6
CONTINUOUS
 90
6
 70
0
 10
2.4346661842
 20
7.3726528151
 10
2.4394886307
 20
7.3663727693
 10
2.445322401
 20
7.3574053269
 10
2.4508394654
 20
7.3478818236
 10
2.4563807579
 20
7.3375883864
 10
2.4621735521
 20
7.3263265653
  0
LWPOLYLINE
  5
4D1
100
AcDbEntity
  8
0
100
AcDbPolyline
 62
7
  6
CONTINUOUS
 90
7
 70
0
 10
3.0964225107
 20
6.4412906358
 10
3.1128046459
 20
6.4157048636
 10
3.1299120145
 20
6.3888259543
 10
3.1477730861
 20
6.36055255
 10
3.1662742286
 20
6.3309879762
 10
3.1851888054
 20
6.3003929293
 10
3.2042373278
 20
6.2690826786
  0
LWPOLYLINE
  5
4D2
100
AcDbEntity
  8
0
100
AcDbPolyline
 62
7
  6
CONTINUOUS
 90
3
 70
0
 10
3.2043842463
 20
6.3034653425
 10
3.1788414228
 20
6.3449028423
 10
3.1628134099
 20
6.3704976127
  0
LINE
  5
4D3
100
AcDbEntity
  8
0
100
AcDbLine
 62
7
  6
CONTINUOUS
 10
3.0608732366
 20
6.362742713
 11
3.0415417141
 21
6.4014174031
  0
LWPOLYLINE
  5
4D4
100
AcDbEntity
  8
0
100
AcDbPolyline
 62
7
  6
CONTINUOUS
 90
7
 70
0
 10
2.7276051993
 20
7.3676146489
 10
2.7205020532
 20
7.4103297087
 10
2.7185678862
 20
7.4228595027
 10
2.7170017098
 20
7.4344504137
 10
2.7158712526
 20
7.445391043
 10
2.7153254812
 20
7.4560482798
 10
2.7155357864
 20
7.4639130393
  0
LWPOLYLINE
  5
4D5
100
AcDbEntity
  8
0
100
AcDbPolyline
 62
7
  6
CONTINUOUS
 90
9
 70
0
 10
2.8017645362
 20
6.1464940319
 10
2.8008670795
 20
6.1413485235
 10
2.7991162907
 20
6.1364722022
 10
2.7968406761
 20
6.1322343038
 10
2.7941814078
 20
6.1285369784
 10
2.7912223944
 20
6.1253320801
 10
2.7880554539
 20
6.1226281066
 10
2.7847772835
 20
6.1204416788
 10
2.7814443156
 20
6.1187635034
  0
LWPOLYLINE
  5
4D6
100
AcDbEntity
  8
0
100
AcDbPolyline
 62
7
  6
CONTINUOUS
 90
9
 70
0
 10
2.3837810248
 20
6.2561549239
 10
2.3800011515
 20
6.2524956751
 10
2.3756984279
 20
6.249575265
 10
2.3713598881
 20
6.2474900999
 10
2.3670429014
 20
6.2460717695
 10
2.3627797904
 20
6.2452262496
 10
2.3586424436
 20
6.2449044634
 10
2.3547175231
 20
6.2450635902
 10
2.3510421892
 20
6.2456642335
  0
LINE
  5
4D7
100
AcDbEntity
  8
0
100
AcDbLine
 62
7
  6
CONTINUOUS
 10
3.4424907607
 20
7.0244389786
 11
3.4378345652
 21
7.0219696757
  0
LWPOLYLINE
  5
4D8
100
AcDbEntity
  8
0
100
AcDbPolyline
 62
7
  6
CONTINUOUS
 90
9
 70
0
 10
3.4129642908
 20
7.0985124242
 10
3.4181731465
 20
7.0992510656
 10
3.4233706957
 20
7.0990846462
 10
3.4281062767
 20
7.0982214475
 10
3.4324324663
 20
7.0968314366
 10
3.4363783807
 20
7.095009679
 10
3.4399147069
 20
7.0928381321
 10
3.4429965043
 20
7.0904023703
 10
3.4456168604
 20
7.0877561726
  0
LINE
  5
4D9
100
AcDbEntity
  8
0
100
AcDbLine
 62
7
  6
CONTINUOUS
 10
3.4378345585
 20
6.6670996289
 11
3.4424827661
 21
6.6646355193
  0
LWPOLYLINE
  5
4DA
100
AcDbEntity
  8
0
100
AcDbPolyline
 62
7
  6
CONTINUOUS
 90
9
 70
0
 10
3.2043769394
 20
6.3034609717
 10
3.2066890507
 20
6.2987353185
 10
3.2081369101
 20
6.2937407285
 10
3.2087793369
 20
6.2889701804
 10
3.2087942274
 20
6.2844261942
 10
3.2082809924
 20
6.2801104553
 10
3.2073085226
 20
6.2760761687
 10
3.2059443284
 20
6.2723925252
 10
3.2042373278
 20
6.2690826786
  0
LWPOLYLINE
  5
4DB
100
AcDbEntity
  8
0
100
AcDbPolyline
 62
7
  6
CONTINUOUS
 90
8
 70
0
 10
3.4424827661
 20
6.6646355193
 10
3.4465898548
 20
6.6614458412
 10
3.4499136464
 20
6.6579639955
 10
3.4525965808
 20
6.6542965851
 10
3.4547180921
 20
6.6505034058
 10
3.4563026405
 20
6.646667994
 10
3.4573641725
 20
6.6428860052
 10
3.4579286656
 20
6.6392049433
  0
LWPOLYLINE
  5
4DC
100
AcDbEntity
  8
0
100
AcDbPolyline
 62
7
  6
CONTINUOUS
 90
8
 70
0
 10
3.4579286656
 20
7.0498643323
 10
3.4573646504
 20
7.046185457
 10
3.4563052209
 20
7.0424087482
 10
3.4547246
 20
7.0385793359
 10
3.4526076144
 20
7.0347899319
 10
3.4499276249
 20
7.0311220795
 10
3.4466030815
 20
7.0276354979
 10
3.4424907607
 20
7.0244389786
  0
LWPOLYLINE
  5
4DD
100
AcDbEntity
  8
0
100
AcDbPolyline
 62
7
  6
CONTINUOUS
 90
9
 70
0
 10
3.4456168604
 20
6.6013131032
 10
3.4429981731
 20
6.5986683345
 10
3.4399211838
 20
6.5962356369
 10
3.436391563
 20
6.5940666459
 10
3.4324515302
 20
6.5922452886
 10
3.4281274638
 20
6.5908531933
 10
3.4233884903
 20
6.5899866081
 10
3.4181826856
 20
6.5898177319
 10
3.4129643273
 20
6.5905568669
  0
LWPOLYLINE
  5
4DE
100
AcDbEntity
  8
0
100
AcDbPolyline
 62
7
  6
CONTINUOUS
 90
9
 70
0
 10
2.3510421892
 20
7.4434050422
 10
2.3547153083
 20
7.4440054798
 10
2.3586345482
 20
7.4441649641
 10
2.3627649722
 20
7.4438450555
 10
2.3670230927
 20
7.4430026713
 10
2.371339589
 20
7.4415872776
 10
2.3756828651
 20
7.439502861
 10
2.3799937125
 20
7.4365795895
 10
2.3837810007
 20
7.4329143425
  0
LWPOLYLINE
  5
4DF
100
AcDbEntity
  8
0
100
AcDbPolyline
 62
7
  6
CONTINUOUS
 90
9
 70
0
 10
2.7814443156
 20
7.5703057723
 10
2.7847754451
 20
7.5686286956
 10
2.7880492682
 20
7.5664458566
 10
2.7912117128
 20
7.5637474599
 10
2.7941684856
 20
7.5605480825
 10
2.7968290322
 20
7.5568535018
 10
2.7991089032
 20
7.5526134523
 10
2.8008645824
 20
7.5477300118
 10
2.8017645109
 20
7.5425752503
  0
LWPOLYLINE
  5
4E0
100
AcDbEntity
  8
0
100
AcDbPolyline
 62
7
  6
CONTINUOUS
 90
9
 70
0
 10
3.2042373279
 20
7.4199865971
 10
3.2059434278
 20
7.416678801
 10
3.2073062224
 20
7.4130006638
 10
3.208278344
 20
7.4089735391
 10
3.2087930214
 20
7.4046635145
 10
3.2087807729
 20
7.4001209016
 10
3.2081405209
 20
7.3953460804
 10
3.2066924495
 20
7.3903428806
 10
3.2043769297
 20
7.385608334
  0
LWPOLYLINE
  5
4E1
100
AcDbEntity
  8
AXIS
100
AcDbPolyline
 62
7
  6
CONTINUOUS
 90
17
 70
0
 10
9.6656155553
 20
6.2488752207
 10
9.7362974191
 20
6.2460798532
 10
9.8062462473
 20
6.251568074
 10
9.8752848696
 20
6.2652911153
 10
9.9447408046
 20
6.28807637
 10
10.0153156371
 20
6.3217138305
 10
10.0861511006
 20
6.3684272688
 10
10.151730523
 20
6.4271345163
 10
10.2072034657
 20
6.494211652
 10
10.251491657
 20
6.5676511354
 10
10.2841582862
 20
6.6458494369
 10
10.3050898096
 20
6.7282392142
 10
10.3136656353
 20
6.8128690184
 10
10.3096871892
 20
6.8973506467
 10
10.2933129303
 20
6.9801781027
 10
10.2650557554
 20
7.0592150669
 10
10.2255160988
 20
7.1330623739
  0
LINE
  5
4E2
100
AcDbEntity
  8
AXIS
100
AcDbLine
 62
7
  6
CONTINUOUS
 10
9.6843565746
 20
6.2857705592
 11
9.5976041999
 21
6.301499769
  0
LINE
  5
4E3
100
AcDbEntity
  8
AXIS
100
AcDbLine
 62
7
  6
CONTINUOUS
 10
9.5976041999
 20
6.301499769
 11
9.5143825252
 21
6.3306122303
  0
LINE
  5
4E4
100
AcDbEntity
  8
AXIS
100
AcDbLine
 62
7
  6
CONTINUOUS
 10
9.5143825252
 20
6.3306122303
 11
9.4367425727
 21
6.372390458
  0
LINE
  5
4E5
100
AcDbEntity
  8
AXIS
100
AcDbLine
 62
7
  6
CONTINUOUS
 10
9.4367425727
 20
6.372390458
 11
9.3665978014
 21
6.4258048157
  0
LINE
  5
4E6
100
AcDbEntity
  8
AXIS
100
AcDbLine
 62
7
  6
CONTINUOUS
 10
9.3665978014
 20
6.4258048157
 11
9.3056769496
 21
6.489538891
  0
LWPOLYLINE
  5
4E7
100
AcDbEntity
  8
AXIS
100
AcDbPolyline
 62
7
  6
CONTINUOUS
 90
16
 70
0
 10
9.3056769496
 20
6.489538891
 10
9.2554814292
 20
6.5620219393
 10
9.2172483235
 20
6.6414675947
 10
9.1919198983
 20
6.7259178962
 10
9.1801203801
 20
6.8132915416
 10
9.1821405713
 20
6.9014351822
 10
9.1979306838
 20
6.9881764924
 10
9.2271015656
 20
7.0713777075
 10
9.268934292
 20
7.1489883095
 10
9.3223978833
 20
7.2190955627
 10
9.3861747139
 20
7.2799716535
 10
9.4586929852
 20
7.330116273
 10
9.5381654635
 20
7.3682935926
 10
9.6226335266
 20
7.3935627212
 10
9.7100154347
 20
7.4053008938
 10
9.7967821141
 20
7.403251312
  0
LINE
  5
4E8
100
AcDbEntity
  8
0
100
AcDbLine
 62
7
  6
CONTINUOUS
 10
9.7113372802
 20
7.6424316487
 11
9.7095023606
 21
7.62772462
  0
LINE
  5
4E9
100
AcDbEntity
  8
0
100
AcDbLine
 62
7
  6
CONTINUOUS
 10
9.2552060438
 20
6.2294665032
 11
9.2479844464
 21
6.2163782601
  0
LINE
  5
4EA
100
AcDbEntity
  8
0
100
AcDbLine
 62
7
  6
CONTINUOUS
 10
10.185968638
 20
7.5074027431
 11
10.176368725
 21
7.4971482676
  0
LINE
  5
4EB
100
AcDbEntity
  8
0
100
AcDbLine
 62
7
  6
CONTINUOUS
 10
8.9853665385
 20
6.6318984135
 11
8.9728951702
 21
6.6260532792
  0
LINE
  5
4EC
100
AcDbEntity
  8
0
100
AcDbLine
 62
7
  6
CONTINUOUS
 10
8.9911442053
 20
6.5698885243
 11
9.006079544
 21
6.5727614415
  0
LINE
  5
4ED
100
AcDbEntity
  8
0
100
AcDbLine
 62
7
  6
CONTINUOUS
 10
10.4756501345
 20
6.5727614415
 11
10.4905854732
 21
6.5698885243
  0
LINE
  5
4EE
100
AcDbEntity
  8
0
100
AcDbLine
 62
7
  6
CONTINUOUS
 10
8.9728951702
 20
7.0630159965
 11
8.9853665385
 21
7.0571708622
  0
LINE
  5
4EF
100
AcDbEntity
  8
0
100
AcDbLine
 62
7
  6
CONTINUOUS
 10
10.176368725
 20
6.1919210081
 11
10.185968638
 21
6.1816665326
  0
LINE
  5
4F0
100
AcDbEntity
  8
0
100
AcDbLine
 62
7
  6
CONTINUOUS
 10
9.2479844464
 20
7.4726910156
 11
9.2552060438
 21
7.4596027725
  0
LINE
  5
4F1
100
AcDbEntity
  8
0
100
AcDbLine
 62
7
  6
CONTINUOUS
 10
9.7095023606
 20
6.0613446557
 11
9.7113372802
 21
6.046637627
  0
LINE
  5
4F2
100
AcDbEntity
  8
0
100
AcDbLine
 62
7
  6
CONTINUOUS
 10
9.7113372802
 20
7.6424316487
 11
9.7113372802
 21
7.627855856
  0
LINE
  5
4F3
100
AcDbEntity
  8
0
100
AcDbLine
 62
7
  6
CONTINUOUS
 10
9.7113372802
 20
6.046637627
 11
9.7113372802
 21
6.0612134197
  0
LINE
  5
4F4
100
AcDbEntity
  8
0
100
AcDbLine
 62
7
  6
CONTINUOUS
 10
10.185968638
 20
7.5074027431
 11
10.1777610588
 21
7.4961059796
  0
LINE
  5
4F5
100
AcDbEntity
  8
0
100
AcDbLine
 62
7
  6
CONTINUOUS
 10
9.2479844464
 20
6.2163782601
 11
9.2566877415
 21
6.2283573182
  0
LINE
  5
4F6
100
AcDbEntity
  8
0
100
AcDbLine
 62
7
  6
CONTINUOUS
 10
10.4905854732
 20
7.1191807514
 11
10.4763087683
 21
7.1145419688
  0
LINE
  5
4F7
100
AcDbEntity
  8
0
100
AcDbLine
 62
7
  6
CONTINUOUS
 10
8.9728951702
 20
6.6260532792
 11
8.9857308208
 21
6.6302238349
  0
LINE
  5
4F8
100
AcDbEntity
  8
0
100
AcDbLine
 62
7
  6
CONTINUOUS
 10
10.4905854732
 20
6.5698885243
 11
10.4763087683
 21
6.5745273069
  0
LINE
  5
4F9
100
AcDbEntity
  8
0
100
AcDbLine
 62
7
  6
CONTINUOUS
 10
8.9728951702
 20
7.0630159965
 11
8.9857308208
 21
7.0588454408
  0
LINE
  5
4FA
100
AcDbEntity
  8
0
100
AcDbLine
 62
7
  6
CONTINUOUS
 10
9.2479844464
 20
7.4726910156
 11
9.2566877415
 21
7.4607119575
  0
LINE
  5
4FB
100
AcDbEntity
  8
0
100
AcDbLine
 62
7
  6
CONTINUOUS
 10
10.185968638
 20
6.1816665326
 11
10.1777610588
 21
6.1929632962
  0
LINE
  5
4FC
100
AcDbEntity
  8
0
100
AcDbLine
 62
7
  6
CONTINUOUS
 10
9.7703923983
 20
7.6424316487
 11
9.7703923983
 21
7.627855856
  0
LINE
  5
4FD
100
AcDbEntity
  8
0
100
AcDbLine
 62
7
  6
CONTINUOUS
 10
9.7703923983
 20
6.046637627
 11
9.7703923983
 21
6.0612134197
  0
LINE
  5
4FE
100
AcDbEntity
  8
0
100
AcDbLine
 62
7
  6
CONTINUOUS
 10
10.2337452321
 20
7.4726910156
 11
10.225041937
 21
7.4607119575
  0
LINE
  5
4FF
100
AcDbEntity
  8
0
100
AcDbLine
 62
7
  6
CONTINUOUS
 10
9.2957610405
 20
6.1816665326
 11
9.3039686197
 21
6.1929632962
  0
LINE
  5
500
100
AcDbEntity
  8
0
100
AcDbLine
 62
7
  6
CONTINUOUS
 10
10.5088345083
 20
7.0630159965
 11
10.4959988577
 21
7.0588454408
  0
LINE
  5
501
100
AcDbEntity
  8
0
100
AcDbLine
 62
7
  6
CONTINUOUS
 10
8.9911442053
 20
6.5698885243
 11
9.0054209102
 21
6.5745273069
  0
LINE
  5
502
100
AcDbEntity
  8
0
100
AcDbLine
 62
7
  6
CONTINUOUS
 10
10.5088345083
 20
6.6260532792
 11
10.4959988577
 21
6.6302238349
  0
LINE
  5
503
100
AcDbEntity
  8
0
100
AcDbLine
 62
7
  6
CONTINUOUS
 10
8.9911442053
 20
7.1191807514
 11
9.0054209102
 21
7.1145419688
  0
LINE
  5
504
100
AcDbEntity
  8
0
100
AcDbLine
 62
7
  6
CONTINUOUS
 10
9.2957610405
 20
7.5074027431
 11
9.3039686197
 21
7.4961059796
  0
LINE
  5
505
100
AcDbEntity
  8
0
100
AcDbLine
 62
7
  6
CONTINUOUS
 10
10.2337452321
 20
6.2163782601
 11
10.225041937
 21
6.2283573182
  0
LINE
  5
506
100
AcDbEntity
  8
0
100
AcDbLine
 62
7
  6
CONTINUOUS
 10
9.7703923983
 20
6.046637627
 11
9.7722273179
 21
6.0613446558
  0
LINE
  5
507
100
AcDbEntity
  8
0
100
AcDbLine
 62
7
  6
CONTINUOUS
 10
10.2265236347
 20
7.4596027725
 11
10.2337452321
 21
7.4726910156
  0
LINE
  5
508
100
AcDbEntity
  8
0
100
AcDbLine
 62
7
  6
CONTINUOUS
 10
9.2957610405
 20
6.1816665326
 11
9.3053609535
 21
6.1919210081
  0
LINE
  5
509
100
AcDbEntity
  8
0
100
AcDbLine
 62
7
  6
CONTINUOUS
 10
10.49636314
 20
7.0571708622
 11
10.5088345083
 21
7.0630159965
  0
LINE
  5
50A
100
AcDbEntity
  8
0
100
AcDbLine
 62
7
  6
CONTINUOUS
 10
10.4905854732
 20
7.1191807514
 11
10.4756501345
 21
7.1163078343
  0
LINE
  5
50B
100
AcDbEntity
  8
0
100
AcDbLine
 62
7
  6
CONTINUOUS
 10
9.006079544
 20
7.1163078342
 11
8.9911442053
 21
7.1191807514
  0
LINE
  5
50C
100
AcDbEntity
  8
0
100
AcDbLine
 62
7
  6
CONTINUOUS
 10
10.5088345083
 20
6.6260532792
 11
10.49636314
 21
6.6318984135
  0
LINE
  5
50D
100
AcDbEntity
  8
0
100
AcDbLine
 62
7
  6
CONTINUOUS
 10
9.3053609535
 20
7.4971482676
 11
9.2957610405
 21
7.5074027431
  0
LINE
  5
50E
100
AcDbEntity
  8
0
100
AcDbLine
 62
7
  6
CONTINUOUS
 10
10.2337452321
 20
6.2163782601
 11
10.2265236347
 21
6.2294665033
  0
LINE
  5
50F
100
AcDbEntity
  8
0
100
AcDbLine
 62
7
  6
CONTINUOUS
 10
9.7722273179
 20
7.62772462
 11
9.7703923983
 21
7.6424316487
  0
LWPOLYLINE
  5
510
100
AcDbEntity
  8
AXIS
100
AcDbPolyline
 62
7
  6
CONTINUOUS
 90
17
 70
0
 10
9.7967846323
 20
7.4033579161
 10
9.7125855621
 20
7.4078796118
 10
9.628186034
 20
7.3997129848
 10
9.5458093984
 20
7.378987633
 10
9.4672386792
 20
7.3461218814
 10
9.3940480832
 20
7.3016656936
 10
9.3283214276
 20
7.2468366117
 10
9.2710413632
 20
7.1823434489
 10
9.2240016553
 20
7.1100726029
 10
9.188037633
 20
7.0312495107
 10
9.164070827
 20
6.9476050408
 10
9.1527632174
 20
6.8613873476
 10
9.1543534144
 20
6.773779387
 10
9.1688630234
 20
6.6874782744
 10
9.1961058737
 20
6.6037910129
 10
9.2355111363
 20
6.5248280484
 10
9.2861726872
 20
6.4524534692
  0
LINE
  5
511
100
AcDbEntity
  8
AXIS
100
AcDbLine
 62
7
  6
CONTINUOUS
 10
9.7967846323
 20
7.4033579161
 11
9.7982303621
 21
7.4030973643
  0
LWPOLYLINE
  5
512
100
AcDbEntity
  8
AXIS
100
AcDbPolyline
 62
7
  6
CONTINUOUS
 90
8
 70
0
 10
10.1755538337
 20
7.2001411025
 10
10.1274436045
 20
7.2519255285
 10
10.0738658389
 20
7.2967744126
 10
10.0170188032
 20
7.3335637452
 10
9.9599562752
 20
7.3616510873
 10
9.9042699281
 20
7.3818513569
 10
9.849941831
 20
7.3954544954
 10
9.7967846323
 20
7.4033579161
  0
LINE
  5
513
100
AcDbEntity
  8
AXIS
100
AcDbLine
 62
7
  6
CONTINUOUS
 10
10.2255160988
 20
7.1330623739
 11
10.1755538337
 21
7.2001411025
  0
LWPOLYLINE
  5
514
100
AcDbEntity
  8
AXIS
100
AcDbPolyline
 62
7
  6
CONTINUOUS
 90
16
 70
0
 10
10.1755538337
 20
7.2001411025
 10
10.2258510814
 20
7.1277286077
 10
10.2641957028
 20
7.0483367154
 10
10.2896426837
 20
6.963922062
 10
10.3015648757
 20
6.876565071
 10
10.2996684532
 20
6.7884186807
 10
10.2840001538
 20
6.7016552844
 10
10.2549461274
 20
6.6184131911
 10
10.213222419
 20
6.5407439263
 10
10.1598573213
 20
6.4705616715
 10
10.0961660326
 20
6.4095960887
 10
10.0237182431
 20
6.3593496922
 10
9.9442994497
 20
6.3210608192
 10
9.8598669515
 20
6.2956731099
 10
9.7725016117
 20
6.2838122518
 10
9.6843565746
 20
6.2857705592
  0
LWPOLYLINE
  5
515
100
AcDbEntity
  8
0
100
AcDbPolyline
 62
7
  6
CONTINUOUS
 90
4
 70
0
 10
13.0476773421
 20
5.584215545
 10
13.1000900727
 20
5.5583520083
 10
13.152006702
 20
5.5415438544
 10
13.2020122231
 20
5.5342127172
  0
LWPOLYLINE
  5
516
100
AcDbEntity
  8
0
100
AcDbPolyline
 62
7
  6
CONTINUOUS
 90
20
 70
0
 10
13.0395233137
 20
5.6022386217
 10
12.9850960388
 20
5.6388671803
 10
12.9321097144
 20
5.684950133
 10
12.8820536106
 20
5.7392061592
 10
12.8362969117
 20
5.8001520485
 10
12.7960921096
 20
5.8661180769
 10
12.7625399172
 20
5.9352915539
 10
12.7365522161
 20
6.0057789919
 10
12.7188306003
 20
6.0756581555
 10
12.7098503893
 20
6.1430291126
 10
12.7098504023
 20
6.2060677596
 10
12.7188306344
 20
6.2630694578
 10
12.7365522544
 20
6.3124858681
 10
12.7625399427
 20
6.3529659241
 10
12.7960921094
 20
6.3833975123
 10
12.8362968879
 20
6.4029400768
 10
12.8820535812
 20
6.4110518827
 10
12.932109685
 20
6.4075094133
 10
12.9850960185
 20
6.3924104153
 10
13.0395233137
 20
6.3661931842
  0
LINE
  5
517
100
AcDbEntity
  8
0
100
AcDbLine
 62
7
  6
CONTINUOUS
 10
13.1112811473
 20
5.6260640793
 11
13.0617943007
 21
5.6498997304
  0
LINE
  5
518
100
AcDbEntity
  8
0
100
AcDbLine
 62
7
  6
CONTINUOUS
 10
13.1955784185
 20
5.626980496
 11
13.2248395897
 21
5.6127460848
  0
LINE
  5
519
100
AcDbEntity
  8
0
100
AcDbLine
 62
7
  6
CONTINUOUS
 10
13.1975688633
 20
5.6276346044
 11
13.2274972635
 21
5.6130756192
  0
LWPOLYLINE
  5
51A
100
AcDbEntity
  8
0
100
AcDbPolyline
 62
7
  6
CONTINUOUS
 90
5
 70
0
 10
13.0657312418
 20
5.6502897138
 10
13.111951596
 20
5.6277435731
 10
13.1568916313
 20
5.614085318
 10
13.1995571901
 20
5.6096112309
 10
13.2390499897
 20
5.6145080824
  0
LWPOLYLINE
  5
51B
100
AcDbEntity
  8
0
100
AcDbPolyline
 62
7
  6
CONTINUOUS
 90
14
 70
0
 10
13.0617943007
 20
5.6498997304
 10
13.0123074536
 20
5.6832052754
 10
12.9641703808
 20
5.7250723159
 10
12.9186959131
 20
5.7743591463
 10
12.8771248756
 20
5.829720998
 10
12.8405911337
 20
5.8896478373
 10
12.8100912557
 20
5.9525049852
 10
12.7864571979
 20
6.0165778623
 10
12.7703336376
 20
6.0801187236
 10
12.7621603845
 20
6.1413943352
 10
12.7621603844
 20
6.1987332539
 10
12.7703336373
 20
6.2505714194
 10
12.7864571975
 20
6.2954948183
 10
12.8100912553
 20
6.332278054
  0
LINE
  5
51C
100
AcDbEntity
  8
0
100
AcDbLine
 62
7
  6
CONTINUOUS
 10
13.0155438509
 20
5.6841338873
 11
13.0657312418
 21
5.6502897138
  0
LWPOLYLINE
  5
51D
100
AcDbEntity
  8
0
100
AcDbPolyline
 62
7
  6
CONTINUOUS
 90
12
 70
0
 10
12.8104854015
 20
6.3305029505
 10
12.8081775505
 20
6.2979747533
 10
12.8129470881
 20
6.2252428492
 10
12.8271382688
 20
6.1487945353
 10
12.8504016326
 20
6.0705123363
 10
12.8821644244
 20
5.9923236225
 10
12.9216443786
 20
5.9161540068
 10
12.9678698776
 20
5.8438781926
 10
13.0197022996
 20
5.7772766229
 10
13.0758652007
 20
5.7179893545
 10
13.1349760487
 20
5.6674758272
 10
13.1955784185
 20
5.626980496
  0
LWPOLYLINE
  5
51E
100
AcDbEntity
  8
0
100
AcDbPolyline
 62
7
  6
CONTINUOUS
 90
12
 70
0
 10
12.8121102982
 20
6.3327903351
 10
12.8097392546
 20
6.2993714591
 10
12.814514069
 20
6.2265590743
 10
12.8287209501
 20
6.1500261692
 10
12.8520100525
 20
6.0716573461
 10
12.8838079846
 20
5.9933821164
 10
12.92333162
 20
5.9171282117
 10
12.9696082698
 20
5.8447724077
 10
13.021498022
 20
5.778097157
 10
13.0777230869
 20
5.7187442507
 10
13.1368992723
 20
5.6681748677
 10
13.1975688633
 20
5.6276346044
  0
LWPOLYLINE
  5
51F
100
AcDbEntity
  8
0
100
AcDbPolyline
 62
7
  6
CONTINUOUS
 90
4
 70
0
 10
12.9880394158
 20
6.3556057587
 10
12.9897695955
 20
6.3282714254
 10
13.0044186856
 20
6.2482524333
 10
13.0284912139
 20
6.1665390908
  0
LWPOLYLINE
  5
520
100
AcDbEntity
  8
AXIS
100
AcDbPolyline
 62
7
  6
CONTINUOUS
 90
4
 70
0
 10
12.9835866185
 20
6.3569421202
 10
12.9847785317
 20
6.3370106983
 10
12.9966917908
 20
6.2668960968
 10
13.0162775721
 20
6.1949532442
  0
LWPOLYLINE
  5
521
100
AcDbEntity
  8
0
100
AcDbPolyline
 62
7
  6
CONTINUOUS
 90
4
 70
0
 10
12.9623085446
 20
6.6962340201
 10
12.9621170426
 20
6.6950553265
 10
12.9623784798
 20
6.6934764184
 10
12.9631321544
 20
6.6915176496
  0
LWPOLYLINE
  5
522
100
AcDbEntity
  8
0
100
AcDbPolyline
 62
7
  6
CONTINUOUS
 90
13
 70
0
 10
12.7310554683
 20
6.3499386139
 10
12.7101883772
 20
6.295238266
 10
12.6990105119
 20
6.2320743234
 10
12.6980062472
 20
6.1628647453
 10
12.7069607706
 20
6.0898087885
 10
12.7253567148
 20
6.0148398999
 10
12.7525228081
 20
5.9397981735
 10
12.7876685599
 20
5.8664678137
 10
12.8298857175
 20
5.79659631
 10
12.8781557178
 20
5.731873446
 10
12.9313660586
 20
5.6739054879
 10
12.9883103168
 20
5.6242121754
 10
13.0476773421
 20
5.584215545
  0
LINE
  5
523
100
AcDbEntity
  8
AXIS
100
AcDbLine
 62
7
  6
CONTINUOUS
 10
12.7498231418
 20
6.3860883794
 11
12.7310554683
 21
6.3499386139
  0
LWPOLYLINE
  5
524
100
AcDbEntity
  8
0
100
AcDbPolyline
 62
7
  6
CONTINUOUS
 90
3
 70
0
 10
13.6094781424
 20
5.5469700669
 10
13.544998243
 20
5.5412227565
 10
13.4792388215
 20
5.53705223
  0
LINE
  5
525
100
AcDbEntity
  8
0
100
AcDbLine
 62
7
  6
CONTINUOUS
 10
13.2427013391
 20
5.5323909544
 11
13.2834735816
 21
5.5346218394
  0
LINE
  5
526
100
AcDbEntity
  8
0
100
AcDbLine
 62
7
  6
CONTINUOUS
 10
13.7109459198
 20
5.5600050154
 11
13.7220261192
 21
5.5604682316
  0
LWPOLYLINE
  5
527
100
AcDbEntity
  8
0
100
AcDbPolyline
 62
7
  6
CONTINUOUS
 90
3
 70
0
 10
13.4792388215
 20
5.53705223
 10
13.4109191256
 20
5.5345128216
 10
13.345015764
 20
5.5337838384
  0
LWPOLYLINE
  5
528
100
AcDbEntity
  8
0
100
AcDbPolyline
 62
7
  6
CONTINUOUS
 90
4
 70
0
 10
13.3222803266
 20
5.5447738524
 10
13.4141119682
 20
5.5477995153
 10
13.4956232288
 20
5.5571998934
 10
13.5667414844
 20
5.5707955638
  0
LWPOLYLINE
  5
529
100
AcDbEntity
  8
0
100
AcDbPolyline
 62
7
  6
CONTINUOUS
 90
3
 70
0
 10
13.2427012623
 20
5.5323909572
 10
13.3539997954
 20
5.5340428997
 10
13.3590756
 20
5.5345521787
  0
LWPOLYLINE
  5
52A
100
AcDbEntity
  8
0
100
AcDbPolyline
 62
7
  6
CONTINUOUS
 90
3
 70
0
 10
13.3004896895
 20
5.5341340893
 10
13.4337689725
 20
5.5350852166
 10
13.5881314736
 20
5.5448468198
  0
LWPOLYLINE
  5
52B
100
AcDbEntity
  8
0
100
AcDbPolyline
 62
7
  6
CONTINUOUS
 90
5
 70
0
 10
13.379264758
 20
5.5434069661
 10
13.4415530933
 20
5.5434542778
 10
13.5101267076
 20
5.545376377
 10
13.5857370552
 20
5.5497842586
 10
13.6690299513
 20
5.557448687
  0
LINE
  5
52C
100
AcDbEntity
  8
0
100
AcDbLine
 62
7
  6
CONTINUOUS
 10
13.345015764
 20
5.5337838384
 11
13.2834735816
 21
5.5346218394
  0
LINE
  5
52D
100
AcDbEntity
  8
0
100
AcDbLine
 62
7
  6
CONTINUOUS
 10
13.3222803266
 20
5.5447738524
 11
13.379264758
 21
5.5434069661
  0
LINE
  5
52E
100
AcDbEntity
  8
0
100
AcDbLine
 62
7
  6
CONTINUOUS
 10
13.3004876931
 20
5.5341338079
 11
13.2834735816
 21
5.5346218394
  0
LINE
  5
52F
100
AcDbEntity
  8
AXIS
100
AcDbLine
 62
7
  6
CONTINUOUS
 10
13.2020122231
 20
5.5342127172
 11
13.2427013391
 21
5.5323909544
  0
LWPOLYLINE
  5
530
100
AcDbEntity
  8
AXIS
100
AcDbPolyline
 62
7
  6
CONTINUOUS
 90
3
 70
0
 10
13.2629213717
 20
5.8057754959
 10
13.3176857396
 20
5.760401701
 10
13.3343438267
 20
5.7494086417
  0
LINE
  5
531
100
AcDbEntity
  8
0
100
AcDbLine
 62
7
  6
CONTINUOUS
 10
13.2663955987
 20
5.9370814369
 11
13.3070992327
 21
5.8890616765
  0
LWPOLYLINE
  5
532
100
AcDbEntity
  8
0
100
AcDbPolyline
 62
7
  6
CONTINUOUS
 90
3
 70
0
 10
13.1900880045
 20
5.9600228547
 10
13.2456044395
 20
5.8870593423
 10
13.2617897479
 20
5.8695694976
  0
LINE
  5
533
100
AcDbEntity
  8
0
100
AcDbLine
 62
7
  6
CONTINUOUS
 10
13.2214023518
 20
5.9995602499
 11
13.2663955987
 21
5.9370814369
  0
LWPOLYLINE
  5
534
100
AcDbEntity
  8
AXIS
100
AcDbPolyline
 62
7
  6
CONTINUOUS
 90
4
 70
0
 10
13.1163537119
 20
5.9828077255
 10
13.1612201864
 20
5.9181220339
 10
13.2104098597
 20
5.8587081254
 10
13.2629213717
 20
5.8057754959
  0
LWPOLYLINE
  5
535
100
AcDbEntity
  8
0
100
AcDbPolyline
 62
7
  6
CONTINUOUS
 90
3
 70
0
 10
13.0974593134
 20
6.0175290871
 10
13.1470852927
 20
5.9377209768
 10
13.1534635823
 20
5.9293050231
  0
LINE
  5
536
100
AcDbEntity
  8
0
100
AcDbLine
 62
7
  6
CONTINUOUS
 10
13.1809204674
 20
6.0658451104
 11
13.2214023518
 21
5.9995602499
  0
LINE
  5
537
100
AcDbEntity
  8
AXIS
100
AcDbLine
 62
7
  6
CONTINUOUS
 10
13.076723788
 20
6.0514483861
 11
13.1163537119
 21
5.9828077255
  0
LWPOLYLINE
  5
538
100
AcDbEntity
  8
0
100
AcDbPolyline
 62
7
  6
CONTINUOUS
 90
5
 70
0
 10
13.1540249574
 20
6.1140370301
 10
13.1965971725
 20
6.0359016131
 10
13.2457800891
 20
5.9625616239
 10
13.3003129545
 20
5.895842344
 10
13.3370002343
 20
5.8591853957
  0
LWPOLYLINE
  5
539
100
AcDbEntity
  8
0
100
AcDbPolyline
 62
7
  6
CONTINUOUS
 90
3
 70
0
 10
13.0284912139
 20
6.1665390908
 10
13.0613566021
 20
6.0851668187
 10
13.0961682483
 20
6.0177697799
  0
LWPOLYLINE
  5
53A
100
AcDbEntity
  8
0
100
AcDbPolyline
 62
7
  6
CONTINUOUS
 90
4
 70
0
 10
13.0692029688
 20
6.1964370258
 10
13.0979647503
 20
6.1235242496
 10
13.1404813692
 20
6.0393897977
 10
13.1900880045
 20
5.9600228547
  0
LWPOLYLINE
  5
53B
100
AcDbEntity
  8
0
100
AcDbPolyline
 62
7
  6
CONTINUOUS
 90
3
 70
0
 10
13.0244765008
 20
6.1801668917
 10
13.0552237267
 20
6.1016112115
 10
13.0974593134
 20
6.0175290871
  0
LWPOLYLINE
  5
53C
100
AcDbEntity
  8
AXIS
100
AcDbPolyline
 62
7
  6
CONTINUOUS
 90
3
 70
0
 10
13.0162775721
 20
6.1949532442
 10
13.0431371658
 20
6.1226466897
 10
13.076723788
 20
6.0514483861
  0
LWPOLYLINE
  5
53D
100
AcDbEntity
  8
0
100
AcDbPolyline
 62
7
  6
CONTINUOUS
 90
9
 70
0
 10
13.0285979426
 20
6.3367049155
 10
13.0409375797
 20
6.2694289376
 10
13.0647704964
 20
6.1883773037
 10
13.0972618073
 20
6.107643058
 10
13.1375833741
 20
6.0292049031
 10
13.1847137029
 20
5.9549848431
 10
13.2374631676
 20
5.8868007225
 10
13.2945033867
 20
5.8263213381
 10
13.3386167956
 20
5.7885421527
  0
LWPOLYLINE
  5
53E
100
AcDbEntity
  8
0
100
AcDbPolyline
 62
7
  6
CONTINUOUS
 90
9
 70
0
 10
13.0352530154
 20
6.3334674885
 10
13.0394827922
 20
6.3030297566
 10
13.0600417432
 20
6.221720819
 10
13.0896597604
 20
6.1399789369
 10
13.1275670948
 20
6.0598402474
 10
13.1727859678
 20
5.9833006535
 10
13.2241551087
 20
5.9122657348
 10
13.280358899
 20
5.8485029244
 10
13.3390358706
 20
5.7944488338
  0
LINE
  5
53F
100
AcDbEntity
  8
0
100
AcDbLine
 62
7
  6
CONTINUOUS
 10
12.976397034
 20
6.7281692204
 11
12.9623087172
 21
6.6962344644
  0
LINE
  5
540
100
AcDbEntity
  8
0
100
AcDbLine
 62
7
  6
CONTINUOUS
 10
13.0234895598
 20
6.7336941963
 11
13.0383624204
 21
6.7616354501
  0
LWPOLYLINE
  5
541
100
AcDbEntity
  8
0
100
AcDbPolyline
 62
7
  6
CONTINUOUS
 90
9
 70
0
 10
12.7310554683
 20
6.3499386139
 10
12.7380118389
 20
6.3626064493
 10
12.7671779432
 20
6.4007253669
 10
12.8034303542
 20
6.4288080242
 10
12.8458763942
 20
6.4461629519
 10
12.8934710391
 20
6.4523628492
 10
12.9450422746
 20
6.4472550082
 10
12.9993202386
 20
6.4309652039
 10
13.0549682855
 20
6.403894633
  0
LINE
  5
542
100
AcDbEntity
  8
0
100
AcDbLine
 62
7
  6
CONTINUOUS
 10
12.8486594851
 20
6.4767121915
 11
12.8815274486
 21
6.531425714
  0
LINE
  5
543
100
AcDbEntity
  8
0
100
AcDbLine
 62
7
  6
CONTINUOUS
 10
12.8486594851
 20
6.4767121915
 11
12.8824759822
 21
6.5305027054
  0
LINE
  5
544
100
AcDbEntity
  8
0
100
AcDbLine
 62
7
  6
CONTINUOUS
 10
13.013802619
 20
6.7871546393
 11
12.976397034
 21
6.7281692204
  0
LWPOLYLINE
  5
545
100
AcDbEntity
  8
0
100
AcDbPolyline
 62
7
  6
CONTINUOUS
 90
5
 70
0
 10
12.8824759822
 20
6.5305027054
 10
12.9205707442
 20
6.588411256
 10
12.9638848835
 20
6.6510871958
 10
13.0133305556
 20
6.7188800099
 10
13.0698740893
 20
6.7919497
  0
LWPOLYLINE
  5
546
100
AcDbEntity
  8
AXIS
100
AcDbPolyline
 62
7
  6
CONTINUOUS
 90
4
 70
0
 10
13.7220250963
 20
5.560468076
 10
13.9035895163
 20
5.5945210763
 10
14.1284068731
 20
5.65489648
 10
14.3534558935
 20
5.7365563398
  0
LINE
  5
547
100
AcDbEntity
  8
0
100
AcDbLine
 62
7
  6
CONTINUOUS
 10
13.7381011867
 20
5.5634053796
 11
13.7220261192
 21
5.5604682316
  0
LINE
  5
548
100
AcDbEntity
  8
0
100
AcDbLine
 62
7
  6
CONTINUOUS
 10
13.7381011867
 20
5.5634053796
 11
13.7368962309
 21
5.5632077708
  0
LWPOLYLINE
  5
549
100
AcDbEntity
  8
0
100
AcDbPolyline
 62
7
  6
CONTINUOUS
 90
3
 70
0
 10
13.7381011867
 20
5.5634053796
 10
13.673571379
 20
5.5543258493
 10
13.6094781424
 20
5.5469700669
  0
LWPOLYLINE
  5
54A
100
AcDbEntity
  8
0
100
AcDbPolyline
 62
7
  6
CONTINUOUS
 90
3
 70
0
 10
13.2640601768
 20
5.5401030648
 10
13.2164655318
 20
5.5339031675
 10
13.2020122231
 20
5.5342127172
  0
LINE
  5
54B
100
AcDbEntity
  8
0
100
AcDbLine
 62
7
  6
CONTINUOUS
 10
13.6690299513
 20
5.557448687
 11
13.7608932596
 21
5.5693678849
  0
LINE
  5
54C
100
AcDbEntity
  8
0
100
AcDbLine
 62
7
  6
CONTINUOUS
 10
13.5881314736
 20
5.5448468198
 11
13.7368961848
 21
5.5632078894
  0
LWPOLYLINE
  5
54D
100
AcDbEntity
  8
0
100
AcDbPolyline
 62
7
  6
CONTINUOUS
 90
4
 70
0
 10
13.5667414868
 20
5.5707955641
 10
13.6223490942
 20
5.5749392449
 10
13.6819352617
 20
5.5808473185
 10
13.7457600124
 20
5.5888795323
  0
LWPOLYLINE
  5
54E
100
AcDbEntity
  8
0
100
AcDbPolyline
 62
7
  6
CONTINUOUS
 90
3
 70
0
 10
13.2232333042
 20
6.0889654506
 10
13.2728808647
 20
6.0092898553
 10
13.3188467262
 20
5.9486950877
  0
LWPOLYLINE
  5
54F
100
AcDbEntity
  8
0
100
AcDbPolyline
 62
7
  6
CONTINUOUS
 90
3
 70
0
 10
13.2213616844
 20
6.0891941054
 10
13.2681765677
 20
6.0138122634
 10
13.3196747694
 20
5.9459086896
  0
LWPOLYLINE
  5
550
100
AcDbEntity
  8
0
100
AcDbPolyline
 62
7
  6
CONTINUOUS
 90
4
 70
0
 10
13.2161419218
 20
6.0861804921
 10
13.2625537557
 20
6.0113858156
 10
13.3147278301
 20
5.9424267061
 10
13.323556064
 20
5.9328479811
  0
LWPOLYLINE
  5
551
100
AcDbEntity
  8
0
100
AcDbPolyline
 62
7
  6
CONTINUOUS
 90
4
 70
0
 10
12.9631321544
 20
6.6915176496
 10
12.9644185693
 20
6.6890986095
 10
12.9663173752
 20
6.6860822882
 10
12.968891289
 20
6.6823290153
  0
LINE
  5
552
100
AcDbEntity
  8
0
100
AcDbLine
 62
7
  6
CONTINUOUS
 10
13.1804978628
 20
6.1739383032
 11
13.2232333042
 21
6.0889654506
  0
LINE
  5
553
100
AcDbEntity
  8
0
100
AcDbLine
 62
7
  6
CONTINUOUS
 10
13.1763686897
 20
6.1656436822
 11
13.2161419218
 21
6.0861804921
  0
LWPOLYLINE
  5
554
100
AcDbEntity
  8
0
100
AcDbPolyline
 62
7
  6
CONTINUOUS
 90
3
 70
0
 10
13.1084292109
 20
6.2260364806
 10
13.1410678583
 20
6.1446507509
 10
13.1809204674
 20
6.0658451104
  0
LINE
  5
555
100
AcDbEntity
  8
0
100
AcDbLine
 62
7
  6
CONTINUOUS
 10
13.1564892258
 20
6.2353633365
 11
13.1804978628
 21
6.1739383032
  0
LWPOLYLINE
  5
556
100
AcDbEntity
  8
0
100
AcDbPolyline
 62
7
  6
CONTINUOUS
 90
3
 70
0
 10
13.1550841076
 20
6.2368466232
 10
13.1815884523
 20
6.1686572955
 10
13.2213616844
 20
6.0891941054
  0
LINE
  5
557
100
AcDbEntity
  8
0
100
AcDbLine
 62
7
  6
CONTINUOUS
 10
13.097862948
 20
6.2613727197
 11
13.1084292109
 21
6.2260364806
  0
LWPOLYLINE
  5
558
100
AcDbEntity
  8
0
100
AcDbPolyline
 62
7
  6
CONTINUOUS
 90
3
 70
0
 10
13.1444149977
 20
6.2481092691
 10
13.1446697743
 20
6.2471973957
 10
13.1763686897
 20
6.1656436822
  0
LWPOLYLINE
  5
559
100
AcDbEntity
  8
0
100
AcDbPolyline
 62
7
  6
CONTINUOUS
 90
4
 70
0
 10
13.0883555948
 20
6.298424577
 10
13.0928986503
 20
6.2768401136
 10
13.1191582935
 20
6.1950222461
 10
13.1540249574
 20
6.1140370301
  0
LWPOLYLINE
  5
55A
100
AcDbEntity
  8
0
100
AcDbPolyline
 62
7
  6
CONTINUOUS
 90
9
 70
0
 10
13.0805806829
 20
6.3039550345
 10
13.0816125987
 20
6.298122844
 10
13.1049317495
 20
6.2171130948
 10
13.1369501965
 20
6.1363073291
 10
13.1768514783
 20
6.0576860154
 10
13.2236244789
 20
5.9831756806
 10
13.2760883963
 20
5.9146013374
 10
13.3329218997
 20
5.8536414182
 10
13.3376317317
 20
5.8495555392
  0
LWPOLYLINE
  5
55B
100
AcDbEntity
  8
0
100
AcDbPolyline
 62
7
  6
CONTINUOUS
 90
9
 70
0
 10
13.1575906796
 20
6.8765139604
 10
13.1572211483
 20
6.8737918126
 10
13.1571460445
 20
6.8706786574
 10
13.1573569268
 20
6.8671667606
 10
13.1578432869
 20
6.8632830447
 10
13.1585916086
 20
6.8590350447
 10
13.159598222
 20
6.8543680445
 10
13.1608641949
 20
6.8491923351
 10
13.1623407716
 20
6.8435159241
  0
LWPOLYLINE
  5
55C
100
AcDbEntity
  8
0
100
AcDbPolyline
 62
7
  6
CONTINUOUS
 90
3
 70
0
 10
12.9624729362
 20
6.6966067087
 10
12.8834688923
 20
6.5947780288
 10
12.8088218164
 20
6.4842834819
  0
LWPOLYLINE
  5
55D
100
AcDbEntity
  8
0
100
AcDbPolyline
 62
7
  6
CONTINUOUS
 90
4
 70
0
 10
13.1641713641
 20
6.8436674573
 10
13.123112756
 20
6.7914565975
 10
13.0845317922
 20
6.7400084048
 10
13.049584528
 20
6.6912941515
  0
LWPOLYLINE
  5
55E
100
AcDbEntity
  8
0
100
AcDbPolyline
 62
7
  6
CONTINUOUS
 90
3
 70
0
 10
12.9722612032
 20
6.6843694668
 10
12.935524986
 20
6.6378618488
 10
12.9339191698
 20
6.6357066331
  0
LWPOLYLINE
  5
55F
100
AcDbEntity
  8
0
100
AcDbPolyline
 62
7
  6
CONTINUOUS
 90
8
 70
0
 10
13.1575906796
 20
6.8765139604
 10
13.1052647234
 20
6.8107521182
 10
13.0588504258
 20
6.7489737642
 10
13.0176226439
 20
6.691124928
 10
12.9808513
 20
6.636953393
 10
12.948440997
 20
6.5870168386
 10
12.9185250131
 20
6.5389483563
 10
12.8874662301
 20
6.4868642045
  0
LWPOLYLINE
  5
560
100
AcDbEntity
  8
0
100
AcDbPolyline
 62
7
  6
CONTINUOUS
 90
4
 70
0
 10
13.126909073
 20
6.8628546345
 10
13.0312449904
 20
6.7443796126
 10
12.9342736401
 20
6.6107726855
 10
12.8815510509
 20
6.5314357858
  0
LINE
  5
561
100
AcDbEntity
  8
0
100
AcDbLine
 62
7
  6
CONTINUOUS
 10
13.0383624204
 20
6.7616354501
 11
13.0700667794
 21
6.8005903163
  0
LINE
  5
562
100
AcDbEntity
  8
0
100
AcDbLine
 62
7
  6
CONTINUOUS
 10
13.0698740893
 20
6.7919497
 11
13.1347986067
 21
6.8705514551
  0
LWPOLYLINE
  5
563
100
AcDbEntity
  8
0
100
AcDbPolyline
 62
7
  6
CONTINUOUS
 90
3
 70
0
 10
13.013802619
 20
6.7871546393
 10
13.0325060897
 20
6.8082061575
 10
13.0798774902
 20
6.8457980054
  0
LWPOLYLINE
  5
564
100
AcDbEntity
  8
0
100
AcDbPolyline
 62
7
  6
CONTINUOUS
 90
3
 70
0
 10
13.1269090086
 20
6.8628547282
 10
13.1306230285
 20
6.8668319466
 10
13.1347986067
 20
6.8705514551
  0
LWPOLYLINE
  5
565
100
AcDbEntity
  8
0
100
AcDbPolyline
 62
7
  6
CONTINUOUS
 90
4
 70
0
 10
12.9845850007
 20
6.6882106144
 10
12.8851613682
 20
6.5851799043
 10
12.8074752176
 20
6.4825037098
 10
12.7498224844
 20
6.3860871385
  0
LWPOLYLINE
  5
566
100
AcDbEntity
  8
AXIS
100
AcDbPolyline
 62
7
  6
CONTINUOUS
 90
4
 70
0
 10
13.4820166529
 20
7.2459423901
 10
13.301030624
 20
7.093945137
 10
13.136664515
 20
6.9301787798
 10
13.0138021227
 20
6.7871540186
  0
LINE
  5
567
100
AcDbEntity
  8
AXIS
100
AcDbLine
 62
7
  6
CONTINUOUS
 10
13.5142359264
 20
7.2675146704
 11
13.4820166529
 21
7.2459423901
  0
LINE
  5
568
100
AcDbEntity
  8
AXIS
100
AcDbLine
 62
7
  6
CONTINUOUS
 10
13.5866091043
 20
7.3092990947
 11
13.5142359264
 21
7.2675146704
  0
LINE
  5
569
100
AcDbEntity
  8
0
100
AcDbLine
 62
7
  6
CONTINUOUS
 10
13.586609104
 20
7.3092990946
 11
13.586614781
 21
7.3093023721
  0
LWPOLYLINE
  5
56A
100
AcDbEntity
  8
0
100
AcDbPolyline
 62
7
  6
CONTINUOUS
 90
17
 70
0
 10
14.4247513693
 20
7.6886013395
 10
14.4881876675
 20
7.7068115769
 10
14.5577364968
 20
7.7105101051
 10
14.6319820436
 20
7.6996216327
 10
14.7094128827
 20
7.6743678176
 10
14.7884527454
 20
7.6352627547
 10
14.8674926081
 20
7.5831025102
 10
14.9449234472
 20
7.5189489164
 10
15.019168994
 20
7.4441079555
 10
15.0887178233
 20
7.3601031734
 10
15.1521541215
 20
7.2686446655
 10
15.2081865085
 20
7.171594263
 10
15.2556743265
 20
7.0709276325
 10
15.2936508605
 20
6.968694056
 10
15.3213430177
 20
6.8669747146
 10
15.3381870657
 20
6.7678403206
 10
15.3438401083
 20
6.6733089643
  0
LWPOLYLINE
  5
56B
100
AcDbEntity
  8
0
100
AcDbPolyline
 62
7
  6
CONTINUOUS
 90
6
 70
0
 10
13.9315750745
 20
5.7420938671
 10
13.8437411115
 20
5.7217148872
 10
13.7625116162
 20
5.7047906534
 10
13.6874876871
 20
5.6907489457
 10
13.6180999392
 20
5.6790844513
 10
13.5548015712
 20
5.6695265839
  0
LINE
  5
56C
100
AcDbEntity
  8
0
100
AcDbLine
 62
7
  6
CONTINUOUS
 10
13.8396865444
 20
5.7767226831
 11
13.9074902972
 21
5.7897623361
  0
LWPOLYLINE
  5
56D
100
AcDbEntity
  8
0
100
AcDbPolyline
 62
7
  6
CONTINUOUS
 90
4
 70
0
 10
13.2464637266
 20
5.6164879376
 10
13.2048926895
 20
5.6091270992
 10
13.1594182214
 20
5.612348473
 10
13.1112811473
 20
5.6260640793
  0
LWPOLYLINE
  5
56E
100
AcDbEntity
  8
0
100
AcDbPolyline
 62
7
  6
CONTINUOUS
 90
4
 70
0
 10
13.4446533282
 20
5.6977319518
 10
13.5450289163
 20
5.7154336151
 10
13.6332172401
 20
5.7354210622
 10
13.7103654171
 20
5.7554442085
  0
LWPOLYLINE
  5
56F
100
AcDbEntity
  8
0
100
AcDbPolyline
 62
7
  6
CONTINUOUS
 90
3
 70
0
 10
13.7103654211
 20
5.7554442094
 10
13.7729126131
 20
5.7651674553
 10
13.8396865444
 20
5.7767226831
  0
LWPOLYLINE
  5
570
100
AcDbEntity
  8
0
100
AcDbPolyline
 62
7
  6
CONTINUOUS
 90
4
 70
0
 10
13.5438176588
 20
5.6642904648
 10
13.5951721868
 20
5.6718319457
 10
13.7651375962
 20
5.701694864
 10
13.9133255318
 20
5.7341429638
  0
LWPOLYLINE
  5
571
100
AcDbEntity
  8
0
100
AcDbPolyline
 62
7
  6
CONTINUOUS
 90
4
 70
0
 10
13.659242183
 20
5.7202149867
 10
13.744634494
 20
5.7324621201
 10
13.8380147991
 20
5.7480977655
 10
13.9402808717
 20
5.7680064655
  0
LWPOLYLINE
  5
572
100
AcDbEntity
  8
0
100
AcDbPolyline
 62
7
  6
CONTINUOUS
 90
3
 70
0
 10
13.5548015712
 20
5.6695265839
 10
13.4946198922
 20
5.6613786316
 10
13.4298304706
 20
5.6536120684
  0
LWPOLYLINE
  5
573
100
AcDbEntity
  8
0
100
AcDbPolyline
 62
7
  6
CONTINUOUS
 90
3
 70
0
 10
13.5438214506
 20
5.6642983244
 10
13.5270918713
 20
5.6620672657
 10
13.4298304706
 20
5.6536120684
  0
LWPOLYLINE
  5
574
100
AcDbEntity
  8
0
100
AcDbPolyline
 62
7
  6
CONTINUOUS
 90
4
 70
0
 10
13.4446533282
 20
5.6977319518
 10
13.5101109757
 20
5.7033597026
 10
13.5813066944
 20
5.7106988522
 10
13.659242183
 20
5.7202149867
  0
LWPOLYLINE
  5
575
100
AcDbEntity
  8
AXIS
100
AcDbPolyline
 62
7
  6
CONTINUOUS
 90
16
 70
0
 10
13.0395233137
 20
6.3313901591
 10
13.0865570295
 20
6.2999615537
 10
13.1324326191
 20
6.2607582425
 10
13.1760204733
 20
6.2147455412
 10
13.2162473144
 20
6.163056435
 10
13.252122624
 20
6.1069636814
 10
13.2827630331
 20
6.0478484702
 10
13.307414073
 20
5.9871664139
 10
13.3254687534
 20
5.9264117063
 10
13.336482508
 20
5.8670803298
 10
13.3401841417
 20
5.8106332199
 10
13.336482508
 20
5.7584602918
 10
13.3254687534
 20
5.711846216
 10
13.307414073
 20
5.6719387859
 10
13.2827630331
 20
5.6397206547
 10
13.2521207947
 20
5.6159840838
  0
LWPOLYLINE
  5
576
100
AcDbEntity
  8
0
100
AcDbPolyline
 62
7
  6
CONTINUOUS
 90
5
 70
0
 10
13.2834735818
 20
6.2582344256
 10
13.2429673114
 20
6.3072464054
 10
13.2000218394
 20
6.3516481577
 10
13.155279053
 20
6.3907731045
 10
13.1094537933
 20
6.4239923246
  0
LWPOLYLINE
  5
577
100
AcDbEntity
  8
0
100
AcDbPolyline
 62
7
  6
CONTINUOUS
 90
9
 70
0
 10
13.7422734228
 20
5.5870043253
 10
13.745425685
 20
5.5826473789
 10
13.7482276432
 20
5.5790048255
 10
13.7507431545
 20
5.5760374499
 10
13.7530566921
 20
5.5736508299
 10
13.7552202834
 20
5.5717952115
 10
13.7572462108
 20
5.5704648797
 10
13.7591317548
 20
5.5696596374
 10
13.7608932596
 20
5.5693678849
  0
LWPOLYLINE
  5
578
100
AcDbEntity
  8
0
100
AcDbPolyline
 62
7
  6
CONTINUOUS
 90
9
 70
0
 10
13.0495845262
 20
6.6912941494
 10
13.0254419618
 20
6.6651057956
 10
13.0035772436
 20
6.6403971264
 10
12.983142848
 20
6.616318811
 10
12.9633346236
 20
6.5919535787
 10
12.9437064054
 20
6.5666962364
 10
12.9243830172
 20
6.5406179516
 10
12.9055797521
 20
6.5139401413
 10
12.8874662301
 20
6.4868642045
  0
LWPOLYLINE
  5
579
100
AcDbEntity
  8
0
100
AcDbPolyline
 62
7
  6
CONTINUOUS
 90
4
 70
0
 10
13.049584528
 20
6.6912941515
 10
13.1245569716
 20
6.7633184462
 10
13.2053263683
 20
6.8261049878
 10
13.2362316837
 20
6.8451807814
  0
LINE
  5
57A
100
AcDbEntity
  8
0
100
AcDbLine
 62
7
  6
CONTINUOUS
 10
12.9987783169
 20
6.6996470966
 11
12.9845850007
 21
6.6882106144
  0
LINE
  5
57B
100
AcDbEntity
  8
0
100
AcDbLine
 62
7
  6
CONTINUOUS
 10
13.0700667794
 20
6.8005903163
 11
13.0886249806
 21
6.8154417647
  0
LWPOLYLINE
  5
57C
100
AcDbEntity
  8
0
100
AcDbPolyline
 62
7
  6
CONTINUOUS
 90
5
 70
0
 10
13.0734464861
 20
6.8105882964
 10
13.0449103026
 20
6.7897388405
 10
13.0151339826
 20
6.7596059051
 10
12.9897078458
 20
6.7236846621
 10
12.968891289
 20
6.6823290153
  0
LINE
  5
57D
100
AcDbEntity
  8
0
100
AcDbLine
 62
7
  6
CONTINUOUS
 10
14.3957379681
 20
7.6741607612
 11
14.4402799421
 21
7.6998769284
  0
LWPOLYLINE
  5
57E
100
AcDbEntity
  8
0
100
AcDbPolyline
 62
7
  6
CONTINUOUS
 90
18
 70
0
 10
14.4402837687
 20
7.6998703138
 10
14.4692933433
 20
7.7143175067
 10
14.5327296415
 20
7.7325277441
 10
14.6022784708
 20
7.7362262722
 10
14.6765240176
 20
7.7253377998
 10
14.7539548567
 20
7.7000839848
 10
14.8329947194
 20
7.6609789218
 10
14.9120345821
 20
7.6088186774
 10
14.9894654212
 20
7.5446650836
 10
15.063710968
 20
7.4698241226
 10
15.1332597973
 20
7.3858193406
 10
15.1966960955
 20
7.2943608326
 10
15.2527284825
 20
7.1973104302
 10
15.3002163005
 20
7.0966437996
 10
15.3381928345
 20
6.9944102232
 10
15.3658849917
 20
6.8926908818
 10
15.3827290397
 20
6.7935564877
 10
15.3883820823
 20
6.6990251315
  0
LINE
  5
57F
100
AcDbEntity
  8
0
100
AcDbLine
 62
7
  6
CONTINUOUS
 10
14.3957417947
 20
7.6741541466
 11
14.4247513693
 21
7.6886013395
  0
LWPOLYLINE
  5
580
100
AcDbEntity
  8
0
100
AcDbPolyline
 62
7
  6
CONTINUOUS
 90
6
 70
0
 10
13.6188947183
 20
7.3253683201
 10
13.6894854962
 20
7.345632339
 10
13.7668781673
 20
7.3497479875
 10
13.8494973572
 20
7.3376314671
 10
13.9356609454
 20
7.3095294801
 10
14.0236150219
 20
7.266014095
  0
LWPOLYLINE
  5
581
100
AcDbEntity
  8
AXIS
100
AcDbPolyline
 62
7
  6
CONTINUOUS
 90
6
 70
0
 10
13.0395233137
 20
6.3313901591
 10
12.9924895979
 20
6.354270182
 10
12.9466140083
 20
6.3680382405
 10
12.9030261541
 20
6.3723553192
 10
12.8627993131
 20
6.3671151173
 10
12.8269258327
 20
6.3524477222
  0
LWPOLYLINE
  5
582
100
AcDbEntity
  8
0
100
AcDbPolyline
 62
7
  6
CONTINUOUS
 90
17
 70
0
 10
13.0549682855
 20
6.403894633
 10
13.1106163433
 20
6.3667098196
 10
13.164894306
 20
6.3203262466
 10
13.2164655402
 20
6.2658861008
 10
13.2640601849
 20
6.2047298828
 10
13.3065062241
 20
6.1383635975
 10
13.3427586337
 20
6.0684212085
 10
13.3719247365
 20
5.9966249367
 10
13.3932863948
 20
5.9247424704
 10
13.4063175181
 20
5.8545439836
 10
13.4106972256
 20
5.7877574521
 10
13.4063175169
 20
5.7260280551
 10
13.3932863919
 20
5.6708762724
 10
13.371924732
 20
5.6236595674
 10
13.3427586277
 20
5.5855406497
 10
13.3065062167
 20
5.5574579924
 10
13.2640601768
 20
5.5401030648
  0
LWPOLYLINE
  5
583
100
AcDbEntity
  8
0
100
AcDbPolyline
 62
7
  6
CONTINUOUS
 90
20
 70
0
 10
13.0395233137
 20
6.3661931842
 10
13.0939505886
 20
6.3295646256
 10
13.146936913
 20
6.2834816729
 10
13.1969930168
 20
6.2292256467
 10
13.2427497157
 20
6.1682797574
 10
13.2829545178
 20
6.102313729
 10
13.3165067102
 20
6.0331402521
 10
13.3424944113
 20
5.962652814
 10
13.3602160271
 20
5.8927736504
 10
13.3691962382
 20
5.8254026933
 10
13.3691962251
 20
5.7623640463
 10
13.360215993
 20
5.7053623481
 10
13.342494373
 20
5.6559459378
 10
13.3165066847
 20
5.6154658818
 10
13.2829545181
 20
5.5850342937
 10
13.2427497395
 20
5.5654917291
 10
13.1969930462
 20
5.5573799232
 10
13.1469369424
 20
5.5609223926
 10
13.0939506089
 20
5.5760213906
 10
13.0395233137
 20
5.6022386217
  0
LWPOLYLINE
  5
584
100
AcDbEntity
  8
0
100
AcDbPolyline
 62
7
  6
CONTINUOUS
 90
9
 70
0
 10
13.90724203
 20
5.7885280929
 10
13.9121577141
 20
5.7851451729
 10
13.916840039
 20
5.7818907286
 10
13.9212515691
 20
5.778880939
 10
13.9254517062
 20
5.7761208408
 10
13.9294783516
 20
5.7736162825
 10
13.9333123705
 20
5.7714044528
 10
13.936913166
 20
5.7695286293
 10
13.9402808717
 20
5.7680064655
  0
LWPOLYLINE
  5
585
100
AcDbEntity
  8
0
100
AcDbPolyline
 62
7
  6
CONTINUOUS
 90
5
 70
0
 10
13.4298304707
 20
5.970249641
 10
13.4101048551
 20
6.0298623401
 10
13.3853422696
 20
6.0891695554
 10
13.3559113413
 20
6.1472833411
 10
13.3222803267
 20
6.2032732569
  0
LWPOLYLINE
  5
586
100
AcDbEntity
  8
0
100
AcDbPolyline
 62
7
  6
CONTINUOUS
 90
4
 70
0
 10
13.4598546086
 20
6.7848652151
 10
13.4589848353
 20
6.7738506163
 10
13.4584548882
 20
6.7681238205
 10
13.4577464605
 20
6.7624280719
  0
LWPOLYLINE
  5
587
100
AcDbEntity
  8
0
100
AcDbPolyline
 62
7
  6
CONTINUOUS
 90
5
 70
0
 10
13.4619322089
 20
6.8044210244
 10
13.4613150534
 20
6.7999755462
 10
13.4607755986
 20
6.7952087621
 10
13.4602945319
 20
6.7901456733
 10
13.4598546086
 20
6.7848652151
  0
LWPOLYLINE
  5
588
100
AcDbEntity
  8
0
100
AcDbPolyline
 62
7
  6
CONTINUOUS
 90
6
 70
0
 10
13.0614860189
 20
6.4516859056
 10
13.0826708237
 20
6.4781845831
 10
13.1043721047
 20
6.5043281483
 10
13.1264894952
 20
6.5298920414
 10
13.148882704
 20
6.5546305213
 10
13.1702587971
 20
6.5771460495
  0
LINE
  5
589
100
AcDbEntity
  8
0
100
AcDbLine
 62
7
  6
CONTINUOUS
 10
13.0614860189
 20
6.4516859056
 11
13.1204930215
 21
6.5150221949
  0
LWPOLYLINE
  5
58A
100
AcDbEntity
  8
0
100
AcDbPolyline
 62
7
  6
CONTINUOUS
 90
4
 70
0
 10
13.1204930215
 20
6.5150221949
 10
13.1859738375
 20
6.58308125
 10
13.259274604
 20
6.6565846941
 10
13.3416011777
 20
6.7358763854
  0
LINE
  5
58B
100
AcDbEntity
  8
0
100
AcDbLine
 62
7
  6
CONTINUOUS
 10
12.8100912553
 20
6.332278054
 11
12.8368055527
 21
6.3564871896
  0
LINE
  5
58C
100
AcDbEntity
  8
0
100
AcDbLine
 62
7
  6
CONTINUOUS
 10
12.968891289
 20
6.6823290153
 11
12.9705584556
 21
6.6833439133
  0
LINE
  5
58D
100
AcDbEntity
  8
0
100
AcDbLine
 62
7
  6
CONTINUOUS
 10
12.9705584556
 20
6.6833439133
 11
12.9995561862
 21
6.7007188432
  0
LWPOLYLINE
  5
58E
100
AcDbEntity
  8
0
100
AcDbPolyline
 62
7
  6
CONTINUOUS
 90
3
 70
0
 10
13.0925288808
 20
6.8202765433
 10
13.0787297832
 20
6.8137727689
 10
13.0734464861
 20
6.8105882964
  0
LINE
  5
58F
100
AcDbEntity
  8
0
100
AcDbLine
 62
7
  6
CONTINUOUS
 10
13.0798774902
 20
6.8457980054
 11
13.1347986067
 21
6.8705514551
  0
LWPOLYLINE
  5
590
100
AcDbEntity
  8
0
100
AcDbPolyline
 62
7
  6
CONTINUOUS
 90
4
 70
0
 10
13.4583868258
 20
6.7617897494
 10
13.4081890011
 20
6.711431283
 10
13.3593535906
 20
6.6610753828
 10
13.3143456448
 20
6.6134808094
  0
LWPOLYLINE
  5
591
100
AcDbEntity
  8
0
100
AcDbPolyline
 62
7
  6
CONTINUOUS
 90
9
 70
0
 10
13.4619322089
 20
6.8044210244
 10
13.4047880981
 20
6.7475517557
 10
13.3523539784
 20
6.69380221
 10
13.3042617378
 20
6.6431512787
 10
13.2600051676
 20
6.595368114
 10
13.2196093752
 20
6.5507480945
 10
13.1824739239
 20
6.5088617423
 10
13.1464839007
 20
6.4674542202
 10
13.1094537933
 20
6.4239923246
  0
LWPOLYLINE
  5
592
100
AcDbEntity
  8
0
100
AcDbPolyline
 62
7
  6
CONTINUOUS
 90
3
 70
0
 10
13.4090743942
 20
6.807876707
 10
13.2994092973
 20
6.7055014449
 10
13.170259409
 20
6.5771457618
  0
LINE
  5
593
100
AcDbEntity
  8
0
100
AcDbLine
 62
7
  6
CONTINUOUS
 10
13.3416011777
 20
6.7358763854
 11
13.4337596575
 21
6.8206860866
  0
LWPOLYLINE
  5
594
100
AcDbEntity
  8
0
100
AcDbPolyline
 62
7
  6
CONTINUOUS
 90
7
 70
0
 10
13.4090751003
 20
6.807875474
 10
13.4095337186
 20
6.8082868249
 10
13.4137168194
 20
6.8115397545
 10
13.4183306716
 20
6.8143978289
 10
13.4232773213
 20
6.8168734523
 10
13.4284389331
 20
6.8189630906
 10
13.4337596575
 20
6.8206860866
  0
LWPOLYLINE
  5
595
100
AcDbEntity
  8
0
100
AcDbPolyline
 62
7
  6
CONTINUOUS
 90
9
 70
0
 10
13.3143456429
 20
6.6134808075
 10
13.2859467573
 20
6.5880684462
 10
13.2596431398
 20
6.5646330741
 10
13.234523519
 20
6.5421253341
 10
13.209655269
 20
6.5195801058
 10
13.1845097583
 20
6.496405473
 10
13.1592547701
 20
6.4726462419
 10
13.134159911
 20
6.4484607963
 10
13.1094537933
 20
6.4239923246
  0
LWPOLYLINE
  5
596
100
AcDbEntity
  8
0
100
AcDbPolyline
 62
7
  6
CONTINUOUS
 90
3
 70
0
 10
13.3143456448
 20
6.6134808094
 10
13.3991435783
 20
6.685230503
 10
13.4812959736
 20
6.7458566293
  0
LWPOLYLINE
  5
597
100
AcDbEntity
  8
0
100
AcDbPolyline
 62
7
  6
CONTINUOUS
 90
14
 70
0
 10
12.8395242357
 20
6.3575987628
 10
12.8169639922
 20
6.3396229325
 10
12.7918803624
 20
6.3043124361
 10
12.7744560785
 20
6.26042345
 10
12.7650863765
 20
6.2091655236
 10
12.7640271512
 20
6.151845791
 10
12.7713692821
 20
6.0900517479
 10
12.7869668697
 20
6.0255203673
 10
12.8104182706
 20
5.9601156287
 10
12.8410735424
 20
5.8957375069
 10
12.8780589853
 20
5.8342522013
 10
12.9203090372
 20
5.777431698
 10
12.9665894499
 20
5.7269132621
 10
13.0155438509
 20
5.6841338873
  0
LWPOLYLINE
  5
598
100
AcDbEntity
  8
AXIS
100
AcDbPolyline
 62
7
  6
CONTINUOUS
 90
16
 70
0
 10
12.8269258327
 20
6.3524477222
 10
12.7962835943
 20
6.3287111512
 10
12.7716325544
 20
6.29649302
 10
12.753577874
 20
6.2565855899
 10
12.7425641194
 20
6.2099715141
 10
12.7388624857
 20
6.157798586
 10
12.7425641194
 20
6.1013514761
 10
12.753577874
 20
6.0420200996
 10
12.7716325544
 20
5.981265392
 10
12.7962835943
 20
5.9205833357
 10
12.8269240034
 20
5.8614681245
 10
12.8627993131
 20
5.8053753709
 10
12.9030261541
 20
5.7536862647
 10
12.9466140083
 20
5.7076735634
 10
12.9924895979
 20
5.6684702522
 10
13.0395233137
 20
5.6370416469
  0
LWPOLYLINE
  5
599
100
AcDbEntity
  8
0
100
AcDbPolyline
 62
7
  6
CONTINUOUS
 90
7
 70
0
 10
14.4862749072
 20
7.5173086928
 10
14.4751990662
 20
7.510430483
 10
14.4353776822
 20
7.4757613574
 10
14.4034434117
 20
7.4303294683
 10
14.3801096136
 20
7.3751496893
 10
14.3658975262
 20
7.3114546452
 10
14.3611246241
 20
7.2406671783
  0
LWPOLYLINE
  5
59A
100
AcDbEntity
  8
0
100
AcDbPolyline
 62
7
  6
CONTINUOUS
 90
6
 70
0
 10
13.8896398814
 20
6.1507465927
 10
13.894968145
 20
6.149933994
 10
13.900421544
 20
6.1487028767
 10
13.905831363
 20
6.1472548681
 10
13.9111934606
 20
6.1456834276
 10
13.9165101574
 20
6.1440437432
  0
LINE
  5
59B
100
AcDbEntity
  8
0
100
AcDbLine
 62
7
  6
CONTINUOUS
 10
13.9165101574
 20
6.1440437432
 11
13.9315750745
 21
6.1392758091
  0
LWPOLYLINE
  5
59C
100
AcDbEntity
  8
0
100
AcDbPolyline
 62
7
  6
CONTINUOUS
 90
5
 70
0
 10
13.0614860189
 20
6.4516859056
 10
13.0156711123
 20
6.4713762558
 10
12.9709464642
 20
6.483912585
 10
12.9279820433
 20
6.4891042931
 10
12.8874662301
 20
6.4868642045
  0
LWPOLYLINE
  5
59D
100
AcDbEntity
  8
0
100
AcDbPolyline
 62
7
  6
CONTINUOUS
 90
5
 70
0
 10
13.4446533282
 20
5.6977319518
 10
13.453242882
 20
5.7451753453
 10
13.456121649
 20
5.796734683
 10
13.4532441932
 20
5.8516398167
 10
13.4446533282
 20
5.9090141833
  0
LWPOLYLINE
  5
59E
100
AcDbEntity
  8
0
100
AcDbPolyline
 62
7
  6
CONTINUOUS
 90
6
 70
0
 10
14.5110373544
 20
7.5285690839
 10
14.4799196562
 20
7.5014775245
 10
14.4479853857
 20
7.4560456355
 10
14.4246515875
 20
7.4008658564
 10
14.4104395002
 20
7.3371708124
 10
14.4056665981
 20
7.2663833455
  0
LWPOLYLINE
  5
59F
100
AcDbEntity
  8
0
100
AcDbPolyline
 62
7
  6
CONTINUOUS
 90
5
 70
0
 10
12.8486594851
 20
6.4767121915
 10
12.8150356795
 20
6.4595598674
 10
12.785615151
 20
6.4354423217
 10
12.7608400442
 20
6.404717735
 10
12.7498231418
 20
6.3860883794
  0
LWPOLYLINE
  5
5A0
100
AcDbEntity
  8
0
100
AcDbPolyline
 62
7
  6
CONTINUOUS
 90
9
 70
0
 10
13.7608932596
 20
6.5090837161
 10
13.7591328267
 20
6.5039735017
 10
13.7572500376
 20
6.4987705656
 10
13.7552276541
 20
6.493521066
 10
13.7530669894
 20
6.4883342395
 10
13.7507544137
 20
6.4833000276
 10
13.748237126
 20
6.4784707847
 10
13.7454309115
 20
6.4739478343
 10
13.7422734231
 20
6.470038262
  0
LINE
  5
5A1
100
AcDbEntity
  8
0
100
AcDbLine
 62
7
  6
CONTINUOUS
 10
13.5081397478
 20
6.726967064
 11
13.4577464605
 21
6.7624280719
  0
LWPOLYLINE
  5
5A2
100
AcDbEntity
  8
0
100
AcDbPolyline
 62
7
  6
CONTINUOUS
 90
5
 70
0
 10
13.6961903984
 20
6.5353046711
 10
13.6521802991
 20
6.5897650861
 10
13.6058525671
 20
6.6401914631
 10
13.5576734532
 20
6.6860831905
 10
13.5081397478
 20
6.726967064
  0
LWPOLYLINE
  5
5A3
100
AcDbEntity
  8
0
100
AcDbPolyline
 62
7
  6
CONTINUOUS
 90
5
 70
0
 10
13.7608932596
 20
6.5090837161
 10
13.815824751
 20
6.420895955
 10
13.8631935921
 20
6.3286069329
 10
13.9020429105
 20
6.234087127
 10
13.9315750745
 20
6.1392758091
  0
LWPOLYLINE
  5
5A4
100
AcDbEntity
  8
0
100
AcDbPolyline
 62
7
  6
CONTINUOUS
 90
6
 70
0
 10
13.8896398814
 20
6.1507465927
 10
13.868823332
 20
6.2161385643
 10
13.8433971922
 20
6.2814187275
 10
13.8136208623
 20
6.3459336394
 10
13.7798013754
 20
6.4090180665
 10
13.7422734231
 20
6.470038262
  0
LWPOLYLINE
  5
5A5
100
AcDbEntity
  8
0
100
AcDbPolyline
 62
7
  6
CONTINUOUS
 90
9
 70
0
 10
13.2834735818
 20
6.2582344256
 10
13.3112228821
 20
6.2798007438
 10
13.3391812637
 20
6.301257213
 10
13.3671899155
 20
6.3223850198
 10
13.3950520593
 20
6.3429404712
 10
13.4227260876
 20
6.3627980109
 10
13.4509620619
 20
6.38236559
 10
13.4810191778
 20
6.4022665851
 10
13.4954189604
 20
6.4113659716
  0
LINE
  5
5A6
100
AcDbEntity
  8
0
100
AcDbLine
 62
7
  6
CONTINUOUS
 10
13.3973005615
 20
6.7968855234
 11
13.3503914062
 21
6.8180410481
  0
LWPOLYLINE
  5
5A7
100
AcDbEntity
  8
0
100
AcDbPolyline
 62
7
  6
CONTINUOUS
 90
5
 70
0
 10
13.4619322089
 20
6.8044210244
 10
13.535119868
 20
6.7537618186
 10
13.6064994519
 20
6.6921632559
 10
13.674625906
 20
6.6208764897
 10
13.7381011867
 20
6.541363645
  0
LWPOLYLINE
  5
5A8
100
AcDbEntity
  8
0
100
AcDbPolyline
 62
7
  6
CONTINUOUS
 90
5
 70
0
 10
13.9402808717
 20
6.1033108492
 10
13.9559742327
 20
6.0112792599
 10
13.9612390437
 20
5.9235510481
 10
13.9559721073
 20
5.8419015558
 10
13.9402808717
 20
5.7680064655
  0
LWPOLYLINE
  5
5A9
100
AcDbEntity
  8
0
100
AcDbPolyline
 62
7
  6
CONTINUOUS
 90
8
 70
0
 10
13.7608932596
 20
6.5090837161
 10
13.6815897244
 20
6.4546864198
 10
13.6088281182
 20
6.4044275773
 10
13.5420851463
 20
6.3580343963
 10
13.4808392439
 20
6.3152173181
 10
13.4250674377
 20
6.2760229165
 10
13.3725209797
 20
6.2389160082
 10
13.3222803267
 20
6.2032732569
  0
LWPOLYLINE
  5
5AA
100
AcDbEntity
  8
0
100
AcDbPolyline
 62
7
  6
CONTINUOUS
 90
4
 70
0
 10
13.7423950836
 20
6.4698608465
 10
13.681859427
 20
6.4283492377
 10
13.6222545714
 20
6.3872493006
 10
13.5667414864
 20
6.3487763152
  0
LWPOLYLINE
  5
5AB
100
AcDbEntity
  8
0
100
AcDbPolyline
 62
7
  6
CONTINUOUS
 90
3
 70
0
 10
13.5667414864
 20
6.3487763152
 10
13.6622361919
 20
6.4120487177
 10
13.7451862195
 20
6.4655196061
  0
LWPOLYLINE
  5
5AC
100
AcDbEntity
  8
0
100
AcDbPolyline
 62
7
  6
CONTINUOUS
 90
9
 70
0
 10
13.566741484
 20
6.3487763136
 10
13.5337252349
 20
6.3273123217
 10
13.5029795153
 20
6.3082601646
 10
13.4734449087
 20
6.2905245771
 10
13.4440068546
 20
6.2732234156
 10
13.4139746831
 20
6.2558281268
 10
13.3834839322
 20
6.2383207936
 10
13.352833387
 20
6.2207819746
 10
13.3222803267
 20
6.2032732569
  0
LWPOLYLINE
  5
5AD
100
AcDbEntity
  8
0
100
AcDbPolyline
 62
7
  6
CONTINUOUS
 90
7
 70
0
 10
13.2834735818
 20
6.2582344256
 10
13.3431420574
 20
6.2961623522
 10
13.4083705226
 20
6.3373662986
 10
13.4797798394
 20
6.3821599643
 10
13.5580513753
 20
6.4308736529
 10
13.6437311087
 20
6.4837282371
 10
13.7381011867
 20
6.541363645
  0
LWPOLYLINE
  5
5AE
100
AcDbEntity
  8
0
100
AcDbPolyline
 62
7
  6
CONTINUOUS
 90
3
 70
0
 10
13.6974858204
 20
6.5361735841
 10
13.5753671685
 20
6.4611082298
 10
13.4954008845
 20
6.4113906161
  0
LWPOLYLINE
  5
5AF
100
AcDbEntity
  8
0
100
AcDbPolyline
 62
7
  6
CONTINUOUS
 90
9
 70
0
 10
13.6974980211
 20
6.536151063
 10
13.7004228103
 20
6.5376769197
 10
13.7052434704
 20
6.5393315112
 10
13.7103725392
 20
6.5404529383
 10
13.715728131
 20
6.5411782733
 10
13.7212691228
 20
6.541586936
 10
13.7269082502
 20
6.541727312
 10
13.7325337735
 20
6.5416406107
 10
13.7381011867
 20
6.541363645
  0
LWPOLYLINE
  5
5B0
100
AcDbEntity
  8
0
100
AcDbPolyline
 62
7
  6
CONTINUOUS
 90
4
 70
0
 10
13.3503914062
 20
6.8180410481
 10
13.3008577088
 20
6.8343524728
 10
13.252678611
 20
6.8440919324
 10
13.2063508856
 20
6.8471590036
  0
LINE
  5
5B1
100
AcDbEntity
  8
0
100
AcDbLine
 62
7
  6
CONTINUOUS
 10
13.3605866599
 20
6.854529254
 11
13.4337596575
 21
6.8206860866
  0
LWPOLYLINE
  5
5B2
100
AcDbEntity
  8
0
100
AcDbPolyline
 62
7
  6
CONTINUOUS
 90
6
 70
0
 10
13.90724203
 20
5.7885280929
 10
13.9175702452
 20
5.8398741097
 10
13.922757619
 20
5.8950732553
 10
13.922757619
 20
5.9535688482
 10
13.9175702452
 20
6.0147577217
 10
13.9074331791
 20
6.0768584651
  0
LWPOLYLINE
  5
5B3
100
AcDbEntity
  8
0
100
AcDbPolyline
 62
7
  6
CONTINUOUS
 90
7
 70
0
 10
14.2330653825
 20
7.3146005433
 10
14.2387184251
 20
7.4026044759
 10
14.2555624731
 20
7.4822894786
 10
14.2832546303
 20
7.5520333946
 10
14.3212311643
 20
7.6104164388
 10
14.3687189823
 20
7.6562501009
 10
14.3957417947
 20
7.6741541466
  0
LWPOLYLINE
  5
5B4
100
AcDbEntity
  8
0
100
AcDbPolyline
 62
7
  6
CONTINUOUS
 90
8
 70
0
 10
13.9402808717
 20
6.1033108492
 10
13.9369152139
 20
6.0988243986
 10
13.9333196482
 20
6.0945298301
 10
13.9294921966
 20
6.0904838972
 10
13.925470658
 20
6.0867965112
 10
13.9212716971
 20
6.0835656241
 10
13.9168563213
 20
6.0808840695
 10
13.9146057703
 20
6.0798186936
  0
LWPOLYLINE
  5
5B5
100
AcDbEntity
  8
0
100
AcDbPolyline
 62
7
  6
CONTINUOUS
 90
17
 70
0
 10
14.3611246241
 20
7.2406671783
 10
14.3658975262
 20
7.1643685635
 10
14.3801096136
 20
7.0842631857
 10
14.4034434117
 20
7.0021404669
 10
14.4353776822
 20
6.9198348927
 10
14.4751990662
 20
6.8391850337
 10
14.5220180197
 20
6.7619924746
 10
14.5747886848
 20
6.6899815694
 10
14.6323322518
 20
6.6247609229
 10
14.6933632928
 20
6.5677874565
 10
14.7565184749
 20
6.5203338633
 10
14.8203870159
 20
6.4834601782
 10
14.8835421981
 20
6.4579900983
 10
14.944573239
 20
6.4444925831
 10
15.0021168061
 20
6.4432691449
 10
15.0548874711
 20
6.4543471132
 10
15.0906305836
 20
6.4706008149
  0
LWPOLYLINE
  5
5B6
100
AcDbEntity
  8
0
100
AcDbPolyline
 62
7
  6
CONTINUOUS
 90
5
 70
0
 10
13.9315750745
 20
5.7420938671
 10
13.9020359746
 20
5.6813713889
 10
13.8631857766
 20
5.6317131824
 10
13.815814376
 20
5.5941213345
 10
13.7608932596
 20
5.5693678849
  0
LINE
  5
5B7
100
AcDbEntity
  8
0
100
AcDbLine
 62
7
  6
CONTINUOUS
 10
13.8688233318
 20
5.6947800805
 11
13.8855786267
 21
5.7280673387
  0
LWPOLYLINE
  5
5B8
100
AcDbEntity
  8
0
100
AcDbPolyline
 62
7
  6
CONTINUOUS
 90
3
 70
0
 10
13.884427538
 20
6.1671203635
 10
13.7947446939
 20
6.1249490275
 10
13.6903579809
 20
6.0809425187
  0
LWPOLYLINE
  5
5B9
100
AcDbEntity
  8
0
100
AcDbPolyline
 62
7
  6
CONTINUOUS
 90
4
 70
0
 10
13.1575906796
 20
6.8765139604
 10
13.2210793083
 20
6.8827334048
 10
13.2892050601
 20
6.8753538587
 10
13.3605866599
 20
6.854529254
  0
LINE
  5
5BA
100
AcDbEntity
  8
0
100
AcDbLine
 62
7
  6
CONTINUOUS
 10
13.2063508856
 20
6.8471590036
 11
13.1623407716
 21
6.8435159241
  0
LWPOLYLINE
  5
5BB
100
AcDbEntity
  8
0
100
AcDbPolyline
 62
7
  6
CONTINUOUS
 90
4
 70
0
 10
14.2707632691
 20
7.0650989496
 10
14.2555624731
 20
7.120934793
 10
14.2387184251
 20
7.2200691871
 10
14.2330653825
 20
7.3146005433
  0
LWPOLYLINE
  5
5BC
100
AcDbEntity
  8
0
100
AcDbPolyline
 62
7
  6
CONTINUOUS
 90
17
 70
0
 10
14.4056665981
 20
7.2663833455
 10
14.4104395002
 20
7.1900847306
 10
14.4246515875
 20
7.1099793529
 10
14.4479853857
 20
7.027856634
 10
14.4799196562
 20
6.9455510599
 10
14.5197410402
 20
6.8649012009
 10
14.5665599937
 20
6.7877086417
 10
14.6193306588
 20
6.7156977366
 10
14.6768742258
 20
6.6504770901
 10
14.7379052668
 20
6.5935036237
 10
14.8010604489
 20
6.5460500305
 10
14.8649289899
 20
6.5091763453
 10
14.9280841721
 20
6.4837062654
 10
14.989115213
 20
6.4702087503
 10
15.0466587801
 20
6.4689853121
 10
15.0994294451
 20
6.4800632804
 10
15.1104101104
 20
6.4850565909
  0
LWPOLYLINE
  5
5BD
100
AcDbEntity
  8
0
100
AcDbPolyline
 62
7
  6
CONTINUOUS
 90
4
 70
0
 10
13.5900001926
 20
6.038596302
 10
13.6214461953
 20
6.0521793936
 10
13.6544338183
 20
6.0661995443
 10
13.6903579864
 20
6.0809425208
  0
LWPOLYLINE
  5
5BE
100
AcDbEntity
  8
0
100
AcDbPolyline
 62
7
  6
CONTINUOUS
 90
8
 70
0
 10
13.9402808717
 20
6.1033108492
 10
13.8516951546
 20
6.0659877442
 10
13.770078418
 20
6.0326440991
 10
13.6949018635
 20
6.0027869702
 10
13.6257050175
 20
5.976008688
 10
13.561927247
 20
5.9519099827
 10
13.501909958
 20
5.9297310823
 10
13.4446533282
 20
5.9090141833
  0
LWPOLYLINE
  5
5BF
100
AcDbEntity
  8
0
100
AcDbPolyline
 62
7
  6
CONTINUOUS
 90
5
 70
0
 10
13.4298304707
 20
5.970249641
 10
13.4623090293
 20
5.9837059176
 10
13.4947824873
 20
5.9974394526
 10
13.5270305021
 20
6.0112840161
 10
13.5900001926
 20
6.038596302
  0
LINE
  5
5C0
100
AcDbEntity
  8
0
100
AcDbLine
 62
7
  6
CONTINUOUS
 10
13.7791637255
 20
6.0238675737
 11
13.9146043407
 21
6.0798210273
  0
LINE
  5
5C1
100
AcDbEntity
  8
0
100
AcDbLine
 62
7
  6
CONTINUOUS
 10
13.6506994409
 20
5.9732942122
 11
13.7791637255
 21
6.0238675737
  0
LWPOLYLINE
  5
5C2
100
AcDbEntity
  8
0
100
AcDbPolyline
 62
7
  6
CONTINUOUS
 90
8
 70
0
 10
13.6506994804
 20
5.9732940045
 10
13.641164978
 20
5.9696725311
 10
13.6092193153
 20
5.9581347455
 10
13.5773596165
 20
5.9474260286
 10
13.5447958935
 20
5.9371753099
 10
13.5116364581
 20
5.927349519
 10
13.4781717692
 20
5.917964368
 10
13.4446533282
 20
5.9090141833
  0
LWPOLYLINE
  5
5C3
100
AcDbEntity
  8
0
100
AcDbPolyline
 62
7
  6
CONTINUOUS
 90
3
 70
0
 10
13.6903579809
 20
6.0809425187
 10
13.7876708899
 20
6.114663698
 10
13.8894405796
 20
6.1513002172
  0
LWPOLYLINE
  5
5C4
100
AcDbEntity
  8
0
100
AcDbPolyline
 62
7
  6
CONTINUOUS
 90
6
 70
0
 10
13.4298304707
 20
5.970249641
 10
13.5130698584
 20
5.9960890577
 10
13.6037918172
 20
6.0252206453
 10
13.7031471991
 20
6.0583085688
 10
13.8123531243
 20
6.0961458547
 10
13.9315750745
 20
6.1392758091
  0
LWPOLYLINE
  5
5C5
100
AcDbEntity
  8
AXIS
100
AcDbPolyline
 62
7
  6
CONTINUOUS
 90
20
 70
0
 10
13.951241844
 20
7.2242296707
 10
14.0287009201
 20
7.1738824311
 10
14.1049384203
 20
7.1130747321
 10
14.1787520337
 20
7.0427655473
 10
14.2489776754
 20
6.9640636945
 10
14.3145078453
 20
6.878210349
 10
14.3743090933
 20
6.7865594694
 10
14.4274383181
 20
6.6905564447
 10
14.47305764
 20
6.5917153
 10
14.5104476151
 20
6.4915948193
 10
14.5390185811
 20
6.3917739622
 10
14.5583199568
 20
6.2938269634
 10
14.5680473481
 20
6.1992985055
 10
14.5680473481
 20
6.1096793587
 10
14.5583199568
 20
6.0263828706
 10
14.5390185811
 20
5.9507226766
 10
14.5104476151
 20
5.883891983
 10
14.47305764
 20
5.8269447499
 10
14.4274383181
 20
5.7807790691
 10
14.3882477616
 20
5.7536727291
  0
LWPOLYLINE
  5
5C6
100
AcDbEntity
  8
0
100
AcDbPolyline
 62
7
  6
CONTINUOUS
 90
7
 70
0
 10
14.0255834924
 20
7.2662090866
 10
13.9374091333
 20
7.3098198035
 10
13.8509901018
 20
7.3379726736
 10
13.7681346517
 20
7.3500931454
 10
13.6904875133
 20
7.3459662915
 10
13.6196651685
 20
7.3257154785
 10
13.586614781
 20
7.3093023721
  0
LWPOLYLINE
  5
5C7
100
AcDbEntity
  8
AXIS
100
AcDbPolyline
 62
7
  6
CONTINUOUS
 90
8
 70
0
 10
13.951241844
 20
7.2242296707
 10
13.8737827679
 20
7.2633224446
 10
13.7975452677
 20
7.2905442366
 10
13.7237316543
 20
7.3054657427
 10
13.6535060125
 20
7.3078516419
 10
13.5879758426
 20
7.297664307
 10
13.5281745946
 20
7.2750643985
 10
13.5142359264
 20
7.2675146704
  0
LWPOLYLINE
  5
5C8
100
AcDbEntity
  8
0
100
AcDbPolyline
 62
7
  6
CONTINUOUS
 90
16
 70
0
 10
14.0236150219
 20
7.266014095
 10
14.1115690986
 20
7.207971158
 10
14.197732687
 20
7.1365822539
 10
14.2803518784
 20
7.0533005076
 10
14.3577445454
 20
6.9598215268
 10
14.4283353275
 20
6.8580481367
 10
14.4906871609
 20
6.7500521995
 10
14.5435307552
 20
6.6380321807
 10
14.5857903609
 20
6.5242684975
 10
14.6166056981
 20
6.41107704
 10
14.6353494526
 20
6.3007620709
 10
14.6416400572
 20
6.1955692741
 10
14.6353494529
 20
6.0976400831
 10
14.6166056974
 20
6.0089680428
 10
14.5857903618
 20
5.9313582712
 10
14.5435307538
 20
5.8663906699
  0
LWPOLYLINE
  5
5C9
100
AcDbEntity
  8
0
100
AcDbPolyline
 62
7
  6
CONTINUOUS
 90
7
 70
0
 10
15.0906305836
 20
6.4706008149
 10
15.1017064246
 20
6.4774790246
 10
15.1415278086
 20
6.5121481503
 10
15.1734620791
 20
6.5575800393
 10
15.1967958773
 20
6.6127598184
 10
15.2110079647
 20
6.6764548624
 10
15.2157808667
 20
6.7472423293
  0
LINE
  5
5CA
100
AcDbEntity
  8
0
100
AcDbLine
 62
7
  6
CONTINUOUS
 10
13.9157685637
 20
5.8309171732
 11
13.9101176588
 21
5.8279240476
  0
LWPOLYLINE
  5
5CB
100
AcDbEntity
  8
0
100
AcDbPolyline
 62
7
  6
CONTINUOUS
 90
5
 70
0
 10
13.3222803266
 20
5.5447738524
 10
13.3559041322
 20
5.5619261765
 10
13.3853246606
 20
5.5860437222
 10
13.4100997675
 20
5.6167683089
 10
13.4298304706
 20
5.6536120684
  0
LINE
  5
5CC
100
AcDbEntity
  8
0
100
AcDbLine
 62
7
  6
CONTINUOUS
 10
13.2611684054
 20
5.6229926858
 11
13.2464637266
 21
5.6164879376
  0
LINE
  5
5CD
100
AcDbEntity
  8
0
100
AcDbLine
 62
7
  6
CONTINUOUS
 10
13.9101176588
 20
5.8279240476
 11
13.8133423757
 21
5.7878063078
  0
LWPOLYLINE
  5
5CE
100
AcDbEntity
  8
AXIS
100
AcDbPolyline
 62
7
  6
CONTINUOUS
 90
6
 70
0
 10
13.2521207947
 20
5.6159840838
 10
13.2162473144
 20
5.6013166886
 10
13.1760204733
 20
5.5960764867
 10
13.1324326191
 20
5.6003935654
 10
13.0865570295
 20
5.6141616239
 10
13.0395233137
 20
5.6370416469
  0
LINE
  5
5CF
100
AcDbEntity
  8
0
100
AcDbLine
 62
7
  6
CONTINUOUS
 10
13.2390499897
 20
5.6145080824
 11
13.2624860645
 21
5.6240133915
  0
LWPOLYLINE
  5
5D0
100
AcDbEntity
  8
0
100
AcDbPolyline
 62
7
  6
CONTINUOUS
 90
5
 70
0
 10
13.9315750745
 20
5.7420938671
 10
13.9267565454
 20
5.7392905722
 10
13.9217343402
 20
5.7369170402
 10
13.9165287304
 20
5.7350225056
 10
13.9133259009
 20
5.7341422823
  0
LWPOLYLINE
  5
5D1
100
AcDbEntity
  8
0
100
AcDbPolyline
 62
7
  6
CONTINUOUS
 90
5
 70
0
 10
13.7721454561
 20
5.6004058834
 10
13.7798013752
 20
5.6046919544
 10
13.8136208621
 20
5.628725885
 10
13.843397192
 20
5.6588588306
 10
13.8688233318
 20
5.6947800805
  0
LINE
  5
5D2
100
AcDbEntity
  8
0
100
AcDbLine
 62
7
  6
CONTINUOUS
 10
13.7835443823
 20
5.6092513356
 11
13.7422734228
 21
5.5870043253
  0
LWPOLYLINE
  5
5D3
100
AcDbEntity
  8
0
100
AcDbPolyline
 62
7
  6
CONTINUOUS
 90
10
 70
0
 10
15.1811636961
 20
6.313755361
 10
15.1521541215
 20
6.2993081681
 10
15.0887178233
 20
6.2810979307
 10
15.019168994
 20
6.2773994026
 10
14.9449234472
 20
6.288287875
 10
14.8674926081
 20
6.31354169
 10
14.7884527454
 20
6.352646753
 10
14.7094128827
 20
6.4048069974
 10
14.6319820436
 20
6.4689605912
 10
14.5913181961
 20
6.5099505435
  0
LWPOLYLINE
  5
5D4
100
AcDbEntity
  8
0
100
AcDbPolyline
 62
7
  6
CONTINUOUS
 90
3
 70
0
 10
13.6841769147
 20
5.6063726728
 10
13.7543047063
 20
5.6357104573
 10
13.8704456493
 20
5.6980030917
  0
LINE
  5
5D5
100
AcDbEntity
  8
0
100
AcDbLine
 62
7
  6
CONTINUOUS
 10
13.8133423757
 20
5.7878063078
 11
13.7103654211
 21
5.7554442094
  0
LINE
  5
5D6
100
AcDbEntity
  8
0
100
AcDbLine
 62
7
  6
CONTINUOUS
 10
14.5435307538
 20
5.8663906699
 11
14.4906871624
 21
5.8153878004
  0
LINE
  5
5D7
100
AcDbEntity
  8
0
100
AcDbLine
 62
7
  6
CONTINUOUS
 10
14.4906871624
 20
5.8153878004
 11
14.4901926132
 21
5.8149912795
  0
LWPOLYLINE
  5
5D8
100
AcDbEntity
  8
0
100
AcDbPolyline
 62
7
  6
CONTINUOUS
 90
18
 70
0
 10
14.4606152627
 20
5.7954538761
 10
14.4901926132
 20
5.8149912795
 10
14.5433692501
 20
5.8659352313
 10
14.5859845824
 20
5.9308515301
 10
14.6171707927
 20
6.0085022081
 10
14.6362366623
 20
6.0972536653
 10
14.6427910188
 20
6.1952952059
 10
14.6367105044
 20
6.3005632823
 10
14.6181372059
 20
6.4109413915
 10
14.5874710345
 20
6.524153313
 10
14.545341233
 20
6.6379285875
 10
14.4926159951
 20
6.7499462158
 10
14.430365485
 20
6.8579453382
 10
14.3598516038
 20
6.959737845
 10
14.2825068772
 20
7.0532522253
 10
14.1998845859
 20
7.1365999918
 10
14.1136732472
 20
7.2080649823
 10
14.0255834924
 20
7.2662090866
  0
LINE
  5
5D9
100
AcDbEntity
  8
0
100
AcDbLine
 62
7
  6
CONTINUOUS
 10
15.1811675227
 20
6.3137487464
 11
15.2257094967
 21
6.3394649136
  0
LINE
  5
5DA
100
AcDbEntity
  8
AXIS
100
AcDbLine
 62
7
  6
CONTINUOUS
 10
14.4606209395
 20
5.7954571535
 11
14.3882477616
 21
5.7536727291
  0
LWPOLYLINE
  5
5DB
100
AcDbEntity
  8
AXIS
100
AcDbPolyline
 62
7
  6
CONTINUOUS
 90
3
 70
0
 10
14.3882477616
 20
5.7536727291
 10
14.3743090933
 20
5.746123001
 10
14.3534558935
 20
5.7365563398
  0
LINE
  5
5DC
100
AcDbEntity
  8
0
100
AcDbLine
 62
7
  6
CONTINUOUS
 10
13.7422734228
 20
5.5870043253
 11
13.7721454561
 21
5.6004058834
  0
LINE
  5
5DD
100
AcDbEntity
  8
0
100
AcDbLine
 62
7
  6
CONTINUOUS
 10
13.7907295903
 20
5.6124581268
 11
13.7835443823
 21
5.6092513356
  0
LWPOLYLINE
  5
5DE
100
AcDbEntity
  8
0
100
AcDbPolyline
 62
7
  6
CONTINUOUS
 90
3
 70
0
 10
13.6841768102
 20
5.6063729811
 10
13.6622361901
 20
5.5983552809
 10
13.5667414868
 20
5.5707955641
  0
LWPOLYLINE
  5
5DF
100
AcDbEntity
  8
0
100
AcDbPolyline
 62
7
  6
CONTINUOUS
 90
3
 70
0
 10
15.2556743265
 20
6.3774930688
 10
15.2081865085
 20
6.3316594068
 10
15.1811636961
 20
6.313755361
  0
LWPOLYLINE
  5
5E0
100
AcDbEntity
  8
0
100
AcDbPolyline
 62
7
  6
CONTINUOUS
 90
17
 70
0
 10
15.2157808667
 20
6.7472423293
 10
15.2110079647
 20
6.8235409442
 10
15.1967958773
 20
6.9036463219
 10
15.1734620791
 20
6.9857690408
 10
15.1415278086
 20
7.0680746149
 10
15.1017064246
 20
7.1487244739
 10
15.0548874711
 20
7.2259170331
 10
15.0021168061
 20
7.2979279382
 10
14.944573239
 20
7.3631485847
 10
14.8835421981
 20
7.4201220511
 10
14.8203870159
 20
7.4675756443
 10
14.7565184749
 20
7.5044493295
 10
14.6933632928
 20
7.5299194094
 10
14.6323322518
 20
7.5434169245
 10
14.5747886848
 20
7.5446403627
 10
14.5220180197
 20
7.5335623944
 10
14.4862749072
 20
7.5173086928
  0
LWPOLYLINE
  5
5E1
100
AcDbEntity
  8
0
100
AcDbPolyline
 62
7
  6
CONTINUOUS
 90
5
 70
0
 10
15.3438401083
 20
6.6733089643
 10
15.3381870657
 20
6.5853050317
 10
15.3213430177
 20
6.505620029
 10
15.2936508605
 20
6.435876113
 10
15.2556743265
 20
6.3774930688
  0
LWPOLYLINE
  5
5E2
100
AcDbEntity
  8
0
100
AcDbPolyline
 62
7
  6
CONTINUOUS
 90
7
 70
0
 10
15.3883820823
 20
6.6990251315
 10
15.3827290397
 20
6.6110211989
 10
15.3658849917
 20
6.5313361962
 10
15.3381928345
 20
6.4615922802
 10
15.3002163005
 20
6.403209236
 10
15.2527284825
 20
6.3573755739
 10
15.2257056701
 20
6.3394715282
  0
CIRCLE
  5
5E3
100
AcDbEntity
  8
0
100
AcDbCircle
 62
7
  6
CONTINUOUS
 10
10.5342808475
 20
1.243294839
 40
0.252091
  0
CIRCLE
  5
5E4
100
AcDbEntity
  8
0
100
AcDbCircle
 62
7
  6
CONTINUOUS
 10
10.5342808475
 20
1.243294839
 40
0.182698
  0
CIRCLE
  5
5E5
100
AcDbEntity
  8
0
100
AcDbCircle
 62
7
  6
CONTINUOUS
 10
10.1225539079
 20
1.9935547577
 40
0.0638444824
  0
ARC
  5
5E6
100
AcDbEntity
  8
0
100
AcDbCircle
 62
7
  6
CONTINUOUS
 10
5.5024847704
 20
6.3767132656
 40
0.0393700787
100
AcDbArc
 50
180.0
 51
243.5639617758
  0
ARC
  5
5E7
100
AcDbEntity
  8
0
100
AcDbCircle
 62
7
  6
CONTINUOUS
 10
5.4946107547
 20
6.4114637717
 40
0.0078740157
100
AcDbArc
 50
0.0000000002
 51
90.0
  0
ARC
  5
5E8
100
AcDbEntity
  8
0
100
AcDbCircle
 62
7
  6
CONTINUOUS
 10
5.5103587862
 20
6.3777296493
 40
0.0078740157
100
AcDbArc
 50
180.0
 51
247.3086890339
  0
ARC
  5
5E9
100
AcDbEntity
  8
0
100
AcDbCircle
 62
7
  6
CONTINUOUS
 10
5.6868483848
 20
6.3039338974
 40
0.0078740157
100
AcDbArc
 50
247.3086890342
 51
268.3799999999
  0
ARC
  5
5EA
100
AcDbEntity
  8
0
100
AcDbCircle
 62
7
  6
CONTINUOUS
 10
5.5024847704
 20
7.3123560101
 40
0.0393700787
100
AcDbArc
 50
116.4360382242
 51
180.0
  0
ARC
  5
5EB
100
AcDbEntity
  8
0
100
AcDbCircle
 62
7
  6
CONTINUOUS
 10
5.4946107547
 20
7.277605504
 40
0.0078740157
100
AcDbArc
 50
270.0
 51
359.9999999999
  0
ARC
  5
5EC
100
AcDbEntity
  8
0
100
AcDbCircle
 62
7
  6
CONTINUOUS
 10
5.5103587862
 20
7.3113396264
 40
0.0078740157
100
AcDbArc
 50
112.6913109675
 51
180.0
  0
ARC
  5
5ED
100
AcDbEntity
  8
0
100
AcDbCircle
 62
7
  6
CONTINUOUS
 10
5.6868483848
 20
7.3851353783
 40
0.0078740157
100
AcDbArc
 50
91.6200000001
 51
112.6913109659
  0
ARC
  5
5EE
100
AcDbEntity
  8
0
100
AcDbCircle
 62
7
  6
CONTINUOUS
 10
7.15743125
 20
3.9837465096
 40
3.7566929134
100
AcDbArc
 50
96.1881269032
 51
116.4360382242
  0
ARC
  5
5EF
100
AcDbEntity
  8
0
100
AcDbCircle
 62
7
  6
CONTINUOUS
 10
6.7524847704
 20
5.7815425119
 40
1.8897637795
100
AcDbArc
 50
90.0
 51
99.9332062644
  0
ARC
  5
5F0
100
AcDbEntity
  8
0
100
AcDbCircle
 62
7
  6
CONTINUOUS
 10
6.9109566839
 20
6.1173756396
 40
0.1496062992
100
AcDbArc
 50
221.7461826878
 51
248.5615314047
  0
ARC
  5
5F1
100
AcDbEntity
  8
0
100
AcDbCircle
 62
7
  6
CONTINUOUS
 10
6.8548363263
 20
5.9744558977
 40
0.0039370079
100
AcDbArc
 50
270.0
 51
68.5615313911
  0
ARC
  5
5F2
100
AcDbEntity
  8
0
100
AcDbCircle
 62
7
  6
CONTINUOUS
 10
7.15743125
 20
9.7053227661
 40
3.7566929134
100
AcDbArc
 50
243.5639617758
 51
263.8118730968
  0
ARC
  5
5F3
100
AcDbEntity
  8
0
100
AcDbCircle
 62
7
  6
CONTINUOUS
 10
6.7524847704
 20
7.9075267639
 40
1.8897637795
100
AcDbArc
 50
260.0667937356
 51
270.0
  0
ARC
  5
5F4
100
AcDbEntity
  8
0
100
AcDbCircle
 62
7
  6
CONTINUOUS
 10
6.9109566839
 20
7.5716936362
 40
0.1496062992
100
AcDbArc
 50
111.4384685953
 51
138.2538173122
  0
ARC
  5
5F5
100
AcDbEntity
  8
0
100
AcDbCircle
 62
7
  6
CONTINUOUS
 10
6.8548363263
 20
7.714613378
 40
0.0039370079
100
AcDbArc
 50
291.4384686095
 51
90.0
  0
CIRCLE
  5
5F6
100
AcDbEntity
  8
0
100
AcDbCircle
 62
7
  6
CONTINUOUS
 10
9.7408648393
 20
6.8445346379
 40
0.874015748
  0
CIRCLE
  5
5F7
100
AcDbEntity
  8
0
100
AcDbCircle
 62
7
  6
CONTINUOUS
 10
9.7408648393
 20
6.8445346379
 40
0.8664141314
  0
CIRCLE
  5
5F8
100
AcDbEntity
  8
AXIS
100
AcDbCircle
 62
7
  6
CONTINUOUS
 10
9.7408648393
 20
6.8445346379
 40
0.8267716535
  0
ARC
  5
5F9
100
AcDbEntity
  8
0
100
AcDbCircle
 62
7
  6
CONTINUOUS
 10
9.7408648393
 20
6.8445346379
 40
0.7984431831
100
AcDbArc
 50
123.8806377057
 51
128.1193622943
  0
ARC
  5
5FA
100
AcDbEntity
  8
0
100
AcDbCircle
 62
7
  6
CONTINUOUS
 10
9.7408648393
 20
6.8445346379
 40
0.7984431831
100
AcDbArc
 50
159.8806377057
 51
164.1193622943
  0
ARC
  5
5FB
100
AcDbEntity
  8
0
100
AcDbCircle
 62
7
  6
CONTINUOUS
 10
9.7408648393
 20
6.8445346379
 40
0.7984431831
100
AcDbArc
 50
15.8806377057
 51
20.1193622943
  0
ARC
  5
5FC
100
AcDbEntity
  8
0
100
AcDbCircle
 62
7
  6
CONTINUOUS
 10
9.7408648393
 20
6.8445346379
 40
0.7984431831
100
AcDbArc
 50
51.8806377057
 51
56.1193622943
  0
ARC
  5
5FD
100
AcDbEntity
  8
0
100
AcDbCircle
 62
7
  6
CONTINUOUS
 10
9.7408648393
 20
6.8445346379
 40
0.7984431831
100
AcDbArc
 50
87.8806377057
 51
92.1193622943
  0
ARC
  5
5FE
100
AcDbEntity
  8
0
100
AcDbCircle
 62
7
  6
CONTINUOUS
 10
9.7408648393
 20
6.8445346379
 40
0.7984431831
100
AcDbArc
 50
195.8806377057
 51
200.1193622943
  0
ARC
  5
5FF
100
AcDbEntity
  8
0
100
AcDbCircle
 62
7
  6
CONTINUOUS
 10
9.7408648393
 20
6.8445346379
 40
0.7984431831
100
AcDbArc
 50
231.8806377057
 51
236.1193622943
  0
ARC
  5
600
100
AcDbEntity
  8
0
100
AcDbCircle
 62
7
  6
CONTINUOUS
 10
9.7408648393
 20
6.8445346379
 40
0.7984431831
100
AcDbArc
 50
267.8806377057
 51
272.1193622943
  0
ARC
  5
601
100
AcDbEntity
  8
0
100
AcDbCircle
 62
7
  6
CONTINUOUS
 10
9.7408648393
 20
6.8445346379
 40
0.7984431831
100
AcDbArc
 50
303.8806377057
 51
308.1193622943
  0
ARC
  5
602
100
AcDbEntity
  8
0
100
AcDbCircle
 62
7
  6
CONTINUOUS
 10
9.7408648393
 20
6.8445346379
 40
0.7984431831
100
AcDbArc
 50
339.8806377057
 51
344.1193622943
  0
CIRCLE
  5
603
100
AcDbEntity
  8
0
100
AcDbCircle
 62
7
  6
CONTINUOUS
 10
9.7408648393
 20
6.8445346379
 40
0.7854330709
  0
CIRCLE
  5
604
100
AcDbEntity
  8
0
100
AcDbCircle
 62
7
  6
CONTINUOUS
 10
9.7408648393
 20
6.8445346379
 40
0.6043307087
  0
ARC
  5
605
100
AcDbEntity
  8
AXIS
100
AcDbCircle
 62
7
  6
CONTINUOUS
 10
9.7408648393
 20
6.8445346379
 40
0.6003937008
100
AcDbArc
 50
220.7712072729
 51
262.8
  0
CIRCLE
  5
606
100
AcDbEntity
  8
AXIS
100
AcDbCircle
 62
7
  6
CONTINUOUS
 10
9.7408648393
 20
6.8445346379
 40
0.555511811
  0
CIRCLE
  5
607
100
AcDbEntity
  8
0
100
AcDbCircle
 62
7
  6
CONTINUOUS
 10
9.7408648393
 20
6.8445346379
 40
0.548471609
  0
CIRCLE
  5
608
100
AcDbEntity
  8
0
100
AcDbCircle
 62
7
  6
CONTINUOUS
 10
9.7408648393
 20
6.8445346379
 40
0.5478652806
  0
CIRCLE
  5
609
100
AcDbEntity
  8
0
100
AcDbCircle
 62
7
  6
CONTINUOUS
 10
9.7408648393
 20
6.8445346379
 40
0.4740695287
  0
CIRCLE
  5
60A
100
AcDbEntity
  8
0
100
AcDbCircle
 62
7
  6
CONTINUOUS
 10
9.7408648393
 20
6.8445346379
 40
0.4668049886
  0
CIRCLE
  5
60B
100
AcDbEntity
  8
0
100
AcDbCircle
 62
7
  6
CONTINUOUS
 10
9.7408648393
 20
6.8445346379
 40
0.4330708661
  0
CIRCLE
  5
60C
100
AcDbEntity
  8
0
100
AcDbCircle
 62
7
  6
CONTINUOUS
 10
9.7408648393
 20
6.8445346379
 40
0.4251968504
  0
CIRCLE
  5
60D
100
AcDbEntity
  8
AXIS
100
AcDbCircle
 62
7
  6
CONTINUOUS
 10
2.7615233963
 20
6.8445346379
 40
0.874015748
  0
ARC
  5
60E
100
AcDbEntity
  8
0
100
AcDbCircle
 62
7
  6
CONTINUOUS
 10
2.7615233963
 20
6.8445346379
 40
0.726044477
100
AcDbArc
 50
307.5722560899
 51
340.4277439012
  0
ARC
  5
60F
100
AcDbEntity
  8
0
100
AcDbCircle
 62
7
  6
CONTINUOUS
 10
2.7615233963
 20
6.8445346379
 40
0.726044477
100
AcDbArc
 50
343.5722560941
 51
16.4277438966
  0
ARC
  5
610
100
AcDbEntity
  8
0
100
AcDbCircle
 62
7
  6
CONTINUOUS
 10
2.7615233963
 20
6.8445346379
 40
0.726044477
100
AcDbArc
 50
19.5722561089
 51
52.4277438988
  0
ARC
  5
611
100
AcDbEntity
  8
0
100
AcDbCircle
 62
7
  6
CONTINUOUS
 10
2.7615233963
 20
6.8445346379
 40
0.726044477
100
AcDbArc
 50
55.572256098
 51
88.4277439021
  0
ARC
  5
612
100
AcDbEntity
  8
0
100
AcDbCircle
 62
7
  6
CONTINUOUS
 10
2.7615233963
 20
6.8445346379
 40
0.726044477
100
AcDbArc
 50
91.5722560861
 51
124.4277439016
  0
ARC
  5
613
100
AcDbEntity
  8
0
100
AcDbCircle
 62
7
  6
CONTINUOUS
 10
2.7615233963
 20
6.8445346379
 40
0.726044477
100
AcDbArc
 50
127.5722560899
 51
160.4277439012
  0
ARC
  5
614
100
AcDbEntity
  8
0
100
AcDbCircle
 62
7
  6
CONTINUOUS
 10
2.7615233963
 20
6.8445346379
 40
0.726044477
100
AcDbArc
 50
163.5722560895
 51
196.4277438991
  0
ARC
  5
615
100
AcDbEntity
  8
0
100
AcDbCircle
 62
7
  6
CONTINUOUS
 10
2.7615233963
 20
6.8445346379
 40
0.726044477
100
AcDbArc
 50
199.5722561089
 51
232.4277438988
  0
ARC
  5
616
100
AcDbEntity
  8
0
100
AcDbCircle
 62
7
  6
CONTINUOUS
 10
2.7615233963
 20
6.8445346379
 40
0.726044477
100
AcDbArc
 50
235.572256098
 51
268.4277439017
  0
ARC
  5
617
100
AcDbEntity
  8
0
100
AcDbCircle
 62
7
  6
CONTINUOUS
 10
2.7615233963
 20
6.8445346379
 40
0.726044477
100
AcDbArc
 50
271.5722561004
 51
304.427743902
  0
ARC
  5
618
100
AcDbEntity
  8
0
100
AcDbCircle
 62
7
  6
CONTINUOUS
 10
2.7615233963
 20
6.8445346379
 40
0.6988188976
100
AcDbArc
 50
309.3041918974
 51
338.6958080586
  0
ARC
  5
619
100
AcDbEntity
  8
0
100
AcDbCircle
 62
7
  6
CONTINUOUS
 10
2.7615233963
 20
6.8445346379
 40
0.6988188976
100
AcDbArc
 50
345.3041918903
 51
14.6958080697
  0
ARC
  5
61A
100
AcDbEntity
  8
0
100
AcDbCircle
 62
7
  6
CONTINUOUS
 10
2.7615233963
 20
6.8445346379
 40
0.6988188976
100
AcDbArc
 50
21.304191838
 51
50.6958080521
  0
ARC
  5
61B
100
AcDbEntity
  8
0
100
AcDbCircle
 62
7
  6
CONTINUOUS
 10
2.7615233963
 20
6.8445346379
 40
0.6988188976
100
AcDbArc
 50
57.3041919386
 51
86.695808063
  0
ARC
  5
61C
100
AcDbEntity
  8
0
100
AcDbCircle
 62
7
  6
CONTINUOUS
 10
2.7615233963
 20
6.8445346379
 40
0.6988188976
100
AcDbArc
 50
93.3041918875
 51
122.6958080601
  0
ARC
  5
61D
100
AcDbEntity
  8
0
100
AcDbCircle
 62
7
  6
CONTINUOUS
 10
2.7615233963
 20
6.8445346379
 40
0.6988188976
100
AcDbArc
 50
129.3041918974
 51
158.6958080586
  0
ARC
  5
61E
100
AcDbEntity
  8
0
100
AcDbCircle
 62
7
  6
CONTINUOUS
 10
2.7615233963
 20
6.8445346379
 40
0.6988188976
100
AcDbArc
 50
165.3041919237
 51
194.6958080582
  0
ARC
  5
61F
100
AcDbEntity
  8
0
100
AcDbCircle
 62
7
  6
CONTINUOUS
 10
2.7615233963
 20
6.8445346379
 40
0.6988188976
100
AcDbArc
 50
201.304191838
 51
230.6958080521
  0
ARC
  5
620
100
AcDbEntity
  8
0
100
AcDbCircle
 62
7
  6
CONTINUOUS
 10
2.7615233963
 20
6.8445346379
 40
0.6988188976
100
AcDbArc
 50
237.3041919386
 51
266.6958080611
  0
ARC
  5
621
100
AcDbEntity
  8
0
100
AcDbCircle
 62
7
  6
CONTINUOUS
 10
2.7615233963
 20
6.8445346379
 40
0.6988188976
100
AcDbArc
 50
273.3041919363
 51
302.6958080584
  0
ARC
  5
622
100
AcDbEntity
  8
0
100
AcDbCircle
 62
7
  6
CONTINUOUS
 10
2.7615233963
 20
6.8445346379
 40
0.6644231935
100
AcDbArc
 50
57.705358877
 51
86.2902455175
  0
ARC
  5
623
100
AcDbEntity
  8
0
100
AcDbCircle
 62
7
  6
CONTINUOUS
 10
2.7615233963
 20
6.8445346379
 40
0.6644231935
100
AcDbArc
 50
21.7065933211
 51
50.2917460649
  0
ARC
  5
624
100
AcDbEntity
  8
0
100
AcDbCircle
 62
7
  6
CONTINUOUS
 10
2.7615233963
 20
6.8445346379
 40
0.6644231935
100
AcDbArc
 50
345.7079487569
 51
14.2931241363
  0
ARC
  5
625
100
AcDbEntity
  8
0
100
AcDbCircle
 62
7
  6
CONTINUOUS
 10
2.7615233963
 20
6.8445346379
 40
0.6644231935
100
AcDbArc
 50
309.7094259663
 51
338.2943811593
  0
ARC
  5
626
100
AcDbEntity
  8
0
100
AcDbCircle
 62
7
  6
CONTINUOUS
 10
2.7615233963
 20
6.8445346379
 40
0.6644231935
100
AcDbArc
 50
273.7034238944
 51
302.2955186109
  0
ARC
  5
627
100
AcDbEntity
  8
0
100
AcDbCircle
 62
7
  6
CONTINUOUS
 10
2.7615233963
 20
6.8445346379
 40
0.6644231935
100
AcDbArc
 50
237.704442744
 51
266.2965378581
  0
ARC
  5
628
100
AcDbEntity
  8
0
100
AcDbCircle
 62
7
  6
CONTINUOUS
 10
2.7615233963
 20
6.8445346379
 40
0.6644231935
100
AcDbArc
 50
201.705580002
 51
230.2905350138
  0
ARC
  5
629
100
AcDbEntity
  8
0
100
AcDbCircle
 62
7
  6
CONTINUOUS
 10
2.7615233963
 20
6.8445346379
 40
0.6644231935
100
AcDbArc
 50
165.7068372711
 51
194.2920123495
  0
ARC
  5
62A
100
AcDbEntity
  8
0
100
AcDbCircle
 62
7
  6
CONTINUOUS
 10
2.7615233963
 20
6.8445346379
 40
0.6644231935
100
AcDbArc
 50
129.708215077
 51
158.2933676934
  0
ARC
  5
62B
100
AcDbEntity
  8
0
100
AcDbCircle
 62
7
  6
CONTINUOUS
 10
2.7615233963
 20
6.8445346379
 40
0.6644231935
100
AcDbArc
 50
93.7097150961
 51
122.2946024019
  0
ARC
  5
62C
100
AcDbEntity
  8
0
100
AcDbCircle
 62
7
  6
CONTINUOUS
 10
2.7615233963
 20
6.8445346379
 40
0.5241785402
100
AcDbArc
 50
309.7100494112
 51
338.2899505559
  0
ARC
  5
62D
100
AcDbEntity
  8
0
100
AcDbCircle
 62
7
  6
CONTINUOUS
 10
2.7615233963
 20
6.8445346379
 40
0.5241785402
100
AcDbArc
 50
345.7100494129
 51
14.2899505547
  0
ARC
  5
62E
100
AcDbEntity
  8
0
100
AcDbCircle
 62
7
  6
CONTINUOUS
 10
2.7615233963
 20
6.8445346379
 40
0.5241785402
100
AcDbArc
 50
21.710049397
 51
50.2899505561
  0
ARC
  5
62F
100
AcDbEntity
  8
0
100
AcDbCircle
 62
7
  6
CONTINUOUS
 10
2.7615233963
 20
6.8445346379
 40
0.5241785402
100
AcDbArc
 50
57.7100494115
 51
86.2899505525
  0
ARC
  5
630
100
AcDbEntity
  8
0
100
AcDbCircle
 62
7
  6
CONTINUOUS
 10
2.7615233963
 20
6.8445346379
 40
0.5241785402
100
AcDbArc
 50
93.7100493609
 51
122.2899505546
  0
ARC
  5
631
100
AcDbEntity
  8
0
100
AcDbCircle
 62
7
  6
CONTINUOUS
 10
2.7615233963
 20
6.8445346379
 40
0.5241785402
100
AcDbArc
 50
129.7100494112
 51
158.2899505559
  0
ARC
  5
632
100
AcDbEntity
  8
0
100
AcDbCircle
 62
7
  6
CONTINUOUS
 10
2.7615233963
 20
6.8445346379
 40
0.5241785402
100
AcDbArc
 50
165.7100494117
 51
194.2899505515
  0
ARC
  5
633
100
AcDbEntity
  8
0
100
AcDbCircle
 62
7
  6
CONTINUOUS
 10
2.7615233963
 20
6.8445346379
 40
0.5241785402
100
AcDbArc
 50
201.710049397
 51
230.2899505561
  0
ARC
  5
634
100
AcDbEntity
  8
0
100
AcDbCircle
 62
7
  6
CONTINUOUS
 10
2.7615233963
 20
6.8445346379
 40
0.5241785402
100
AcDbArc
 50
237.7100494115
 51
266.2899505616
  0
ARC
  5
635
100
AcDbEntity
  8
0
100
AcDbCircle
 62
7
  6
CONTINUOUS
 10
2.7615233963
 20
6.8445346379
 40
0.5241785402
100
AcDbArc
 50
273.7100494126
 51
302.2899505542
  0
CIRCLE
  5
636
100
AcDbEntity
  8
0
100
AcDbCircle
 62
7
  6
CONTINUOUS
 10
2.7615233963
 20
6.8445346379
 40
0.5030745972
  0
CIRCLE
  5
637
100
AcDbEntity
  8
0
100
AcDbCircle
 62
7
  6
CONTINUOUS
 10
2.7615233963
 20
6.8445346379
 40
0.4678213723
  0
CIRCLE
  5
638
100
AcDbEntity
  8
AXIS
100
AcDbCircle
 62
7
  6
CONTINUOUS
 10
2.7615233963
 20
6.8445346379
 40
0.4251968504
  0
ENDSEC
  0
SECTION
  2
OBJECTS
  0
DICTIONARY
  5
C
100
AcDbDictionary
280
0
281
1
  3
ACAD_GROUP
350
D
  3
ACAD_MLINESTYLE
350
17
  3
ACAD_LAYOUT
350
1A
  3
ACAD_PLOTSETTINGS
350
19
  3
ACAD_PLOTSTYLENAME
350
E
  3
ACAD_TABLESTYLE
350
       639
  0
DICTIONARY
  5
D
102
{ACAD_REACTORS
330
C
102
}
100
AcDbDictionary
280
0
281
1
  0
ACDBDICTIONARYWDFLT
  5
E
102
{ACAD_REACTORS
330
C
102
}
100
AcDbDictionary
281
1
  3
Normal
350
F
100
AcDbDictionaryWithDefault
340
F
  0
DICTIONARY
  5
17
102
{ACAD_REACTORS
330
C
102
}
100
AcDbDictionary
280
0
281
1
  3
Standard
350
18
  0
DICTIONARY
  5
639
330
C
100
AcDbDictionary
281
1
  3
Standard
350
       63C
  3
Standard1
350
       63D
  0
DICTIONARY
  5
19
102
{ACAD_REACTORS
330
C
102
}
100
AcDbDictionary
281
1
  0
DICTIONARY
  5
1A
102
{ACAD_REACTORS
330
C
102
}
100
AcDbDictionary
281
1
  3
Model
350
63A
  3
Layout1
350
63B
  0
ACDBPLACEHOLDER
  5
F
102
{ACAD_REACTORS
330
E
102
}
  0
MLINESTYLE
  5
18
102
{ACAD_REACTORS
330
17
102
}
100
AcDbMlineStyle
  2
STANDARD
 70
0
  3

 62
256
 51
90.0
 52
90.0
 71
2
 49
0.5
 62
256
  6
BYLAYER
 49
-0.5
 62
256
  6
BYLAYER
  0
LAYOUT
  5
63A
102
{ACAD_REACTORS
330
1A
102
}
100
AcDbPlotSettings
  1

  2
none_device
  4
ANSI_B_(17.00_x_11.00_Inches)
  6

 40
0.0
 41
0.0
 42
0.0
 43
0.0
 44
431.8
 45
279.4
 46
0.0
 47
0.0
 48
0.0
 49
0.0
140
0.0
141
0.0
142
1.0
143
1.0
 70
1024
 72
0
 73
0
 74
0
  7

 75
0
147
1.0
148
0.0
149
0.0
100
AcDbLayout
  1
Model
 70
0
 71
0
 10
0.0
 20
0.0
 11
17.0
 21
11.0
 12
0.0
 22
0.0
 32
0.0
 14
0.0
 24
0.0
 34
0.0
 15
0.0
 25
0.0
 35
0.0
146
0.0
 13
0.0
 23
0.0
 33
0.0
 16
1.0
 26
0.0
 36
0.0
 17
0.0
 27
1.0
 37
0.0
 76
0
330
20B
345
0
346
0
  0
LAYOUT
  5
63B
102
{ACAD_REACTORS
330
1A
102
}
100
AcDbPlotSettings
  1

  2
none_device
  4
ANSI_B_(17.00_x_11.00_Inches)
  6

 40
0.0
 41
0.0
 42
0.0
 43
0.0
 44
431.8
 45
279.4
 46
0.0
 47
0.0
 48
0.0
 49
0.0
140
0.0
141
0.0
142
1.0
143
1.0
 70
0
 72
0
 73
0
 74
0
  7

 75
0
147
1.0
148
0.0
149
0.0
100
AcDbLayout
  1
Layout1
 70
0
 71
1
 10
0.0
 20
0.0
 11
17.0
 21
11.0
 12
0.0
 22
0.0
 32
0.0
 14
0.0
 24
0.0
 34
0.0
 15
0.0
 25
0.0
 35
0.0
146
0.0
 13
0.0
 23
0.0
 33
0.0
 16
1.0
 26
0.0
 36
0.0
 17
0.0
 27
1.0
 37
0.0
 76
0
330
20C
345
0
346
0
  0
TABLESTYLE
  5
63C
102
{ACAD_REACTORS
330
639
102
}
330
639
100
AcDbTableStyle
  3
Standard
 70
0
 71
0
 40
0.06
 41
0.06
280
1
281
1
  7
Standard
140
0.18
170
1
 62
0
 63
7
283
0
  7
Standard
140
0.18
170
1
 62
0
 63
7
283
0
  7
Standard
140
0.18
170
1
 62
0
 63
7
283
0
  0
TABLESTYLE
  5
63D
102
{ACAD_REACTORS
330
639
330
26C
102
}
330
639
100
AcDbTableStyle
  3
Standard1
 70
1
 71
0
 40
0.06
 41
0.06
280
1
281
1
  7
Standard
140
0.18
170
1
 62
0
 63
7
283
0
  7
Standard
140
0.18
170
1
 62
0
 63
7
283
0
  7
Standard
140
0.18
170
1
 62
0
 63
7
283
0
  0
ENDSEC
  0
EOF
