999
DXF file: 145181_1.dxf
999
Pro/ENGINEER 2006170 by Parametric Technology Corporation
  0
SECTION
  2
HEADER
  9
$ACADVER
  1
AC1015
  9
$DWGCODEPAGE
  3
ANSI_1252
  9
$EXTMAX
 10
22.0
 20
17.0
 30
0.0
  9
$EXTMIN
 10
0.0
 20
0.0
 30
0.0
  9
$LIMMIN
 10
0.0
 20
0.0
  9
$LIMMAX
 10
22.0
 20
17.0
  9
$VIEWCTR
 10
11.0
 20
8.5
  9
$VIEWSIZE
 40
17.0
  9
$CLAYER
  8
0
  9
$LTSCALE
 40
1.21
  9
$CELTYPE
  6
BYLAYER
  9
$DIMSCALE
 40
1.0
  9
$DIMASZ
 40
0.1875
  9
$DIMEXO
 40
0.1375
  9
$DIMDLI
 40
0.836
  9
$DIMEXE
 40
0.396
  9
$DIMCEN
 40
0.198
  9
$DIMLFAC
 40
1.0
  9
$DIMBLK
  1
_FILLED
  9
$DIMTXT
 40
0.1
  9
$DIMTOL
 70
1
  9
$DIMLIM
 70
0
  9
$DIMTFAC
 40
1.0
  9
$DIMTP
 40
0.005
  9
$DIMTM
 40
0.005
  9
$PDMODE
 70
3
  9
$PDSIZE
 40
0.3125
  9
$HANDSEED
  5
77F
  9
$MEASUREMENT
 70
0
  9
$INSUNITS
 70
1
  0
ENDSEC
  0
SECTION
  2
CLASSES
  0
CLASS
  1
ACDBDICTIONARYWDFLT
  2
AcDbDictionaryWithDefault
  3
AutoCAD 2000
 90
0
280
0
281
0
  0
CLASS
  1
ACDBPLACEHOLDER
  2
AcDbPlaceHolder
  3
AutoCAD 2000
 90
0
280
0
281
0
  0
CLASS
  1
LAYOUT
  2
AcDbLayout
  3
AutoCAD 2000
 90
0
280
0
281
0
  0
ENDSEC
  0
SECTION
  2
TABLES
  0
TABLE
  2
VPORT
  5
8
100
AcDbSymbolTable
 70
2
  0
VPORT
  5
1F4
100
AcDbSymbolTableRecord
100
AcDbViewportTableRecord
  2
*ACTIVE
 70
0
 10
0.0
 20
0.0
 11
1.0
 21
1.0
 12
11.0
 22
8.5
 13
0.0
 23
0.0
 14
1.0
 24
1.0
 15
0.0
 25
0.0
 16
0.0
 26
0.0
 36
1.0
 17
0.0
 27
0.0
 37
0.0
 40
17.0
 41
1.2941176471
 42
50.0
 43
0.0
 44
0.0
 50
0.0
 51
0.0
 71
0
 72
100
 73
1
 74
1
 75
0
 76
0
 77
0
 78
0
  0
ENDTAB
  0
TABLE
  2
LTYPE
  5
5
100
AcDbSymbolTable
 70
6
  0
LTYPE
  5
14
100
AcDbSymbolTableRecord
100
AcDbLinetypeTableRecord
  2
BYBLOCK
 70
0
  3

 72
65
 73
0
 40
0.0
  0
LTYPE
  5
15
100
AcDbSymbolTableRecord
100
AcDbLinetypeTableRecord
  2
BYLAYER
 70
0
  3

 72
65
 73
0
 40
0.0
  0
LTYPE
  5
16
100
AcDbSymbolTableRecord
100
AcDbLinetypeTableRecord
  2
CONTINUOUS
 70
64
  3
Solid line
 72
65
 73
0
 40
0.0
  0
LTYPE
  5
1F5
100
AcDbSymbolTableRecord
100
AcDbLinetypeTableRecord
  2
CENTER
 70
64
  3
____ _ ____ _ ____ _ ____ _ ____ _ ____ _ ____
 72
65
 73
4
 40
0.6
 49
0.375
 74
0
 49
-0.075
 74
0
 49
0.075
 74
0
 49
-0.075
 74
0
  0
LTYPE
  5
1F6
100
AcDbSymbolTableRecord
100
AcDbLinetypeTableRecord
  2
HIDDEN
 70
64
  3
- - - - - - - - - - - - - - - - - - - -
 72
65
 73
2
 40
0.2
 49
0.1
 74
0
 49
-0.1
 74
0
  0
LTYPE
  5
1F7
100
AcDbSymbolTableRecord
100
AcDbLinetypeTableRecord
  2
PHANTOM
 70
64
  3
_____ _ _ _____ _ _ _____ _ _ _____
 72
65
 73
6
 40
0.8
 49
0.45
 74
0
 49
-0.05
 74
0
 49
0.1
 74
0
 49
-0.05
 74
0
 49
0.1
 74
0
 49
-0.05
 74
0
  0
LTYPE
  5
1F8
100
AcDbSymbolTableRecord
100
AcDbLinetypeTableRecord
  2
DOT
 70
64
  3
. . . . . . . . . . . . . . . . . . . .
 72
65
 73
2
 40
0.2
 49
0.1
 74
0
 49
-0.1
 74
0
  0
LTYPE
  5
1F9
100
AcDbSymbolTableRecord
100
AcDbLinetypeTableRecord
  2
DASHED
 70
64
  3
- - - - - - - - - - - - - - - - - - - -
 72
65
 73
2
 40
0.2
 49
0.1
 74
0
 49
-0.1
 74
0
  0
ENDTAB
  0
TABLE
  2
LAYER
  5
2
100
AcDbSymbolTable
 70
36
  0
LAYER
  5
10
100
AcDbSymbolTableRecord
100
AcDbLayerTableRecord
  2
0
 70
0
 62
7
  6
CONTINUOUS
370
-3
390
F
  0
LAYER
  5
1FA
100
AcDbSymbolTableRecord
100
AcDbLayerTableRecord
  2
DEFAULT_1
 70
0
 62
7
  6
CENTER
370
-3
390
F
  0
LAYER
  5
1FB
100
AcDbSymbolTableRecord
100
AcDbLayerTableRecord
  2
DEFAULT_2
 70
0
 62
8
  6
HIDDEN
370
-3
390
F
  0
LAYER
  5
1FC
100
AcDbSymbolTableRecord
100
AcDbLayerTableRecord
  2
DEFAULT_3
 70
0
 62
7
  6
PHANTOM
370
-3
390
F
  0
LAYER
  5
1FD
100
AcDbSymbolTableRecord
100
AcDbLayerTableRecord
  2
_2D_DELETED_OBJS
 70
0
 62
7
  6
CONTINUOUS
370
-3
390
F
  0
LAYER
  5
1FE
100
AcDbSymbolTableRecord
100
AcDbLayerTableRecord
  2
_BLACK_HOLE
 70
0
 62
7
  6
CONTINUOUS
370
-3
390
F
  0
LAYER
  5
1FF
100
AcDbSymbolTableRecord
100
AcDbLayerTableRecord
  2
01___PRT_ALL_DTM_PLN
 70
0
 62
7
  6
CONTINUOUS
370
-3
390
F
  0
LAYER
  5
200
100
AcDbSymbolTableRecord
100
AcDbLayerTableRecord
  2
01___PRT_DEF_DTM_PLN
 70
0
 62
7
  6
CONTINUOUS
370
-3
390
F
  0
LAYER
  5
201
100
AcDbSymbolTableRecord
100
AcDbLayerTableRecord
  2
02___PRT_ALL_AXES
 70
0
 62
7
  6
CONTINUOUS
370
-3
390
F
  0
LAYER
  5
202
100
AcDbSymbolTableRecord
100
AcDbLayerTableRecord
  2
03___PRT_ALL_CURVES
 70
0
 62
7
  6
CONTINUOUS
370
-3
390
F
  0
LAYER
  5
203
100
AcDbSymbolTableRecord
100
AcDbLayerTableRecord
  2
04___PRT_ALL_DTM_PNT
 70
0
 62
7
  6
CONTINUOUS
370
-3
390
F
  0
LAYER
  5
204
100
AcDbSymbolTableRecord
100
AcDbLayerTableRecord
  2
05___PRT_ALL_DTM_CSYS
 70
0
 62
7
  6
CONTINUOUS
370
-3
390
F
  0
LAYER
  5
205
100
AcDbSymbolTableRecord
100
AcDbLayerTableRecord
  2
05___PRT_DEF_DTM_CSYS
 70
0
 62
7
  6
CONTINUOUS
370
-3
390
F
  0
LAYER
  5
206
100
AcDbSymbolTableRecord
100
AcDbLayerTableRecord
  2
06___PRT_ALL_SURFS
 70
0
 62
7
  6
CONTINUOUS
370
-3
390
F
  0
LAYER
  5
207
100
AcDbSymbolTableRecord
100
AcDbLayerTableRecord
  2
AXIS
 70
0
 62
7
  6
CONTINUOUS
370
-3
390
F
  0
LAYER
  5
208
100
AcDbSymbolTableRecord
100
AcDbLayerTableRecord
  2
AXIS_COSMETIC_THREADS
 70
0
 62
7
  6
CONTINUOUS
370
-3
390
F
  0
LAYER
  5
209
100
AcDbSymbolTableRecord
100
AcDbLayerTableRecord
  2
DATUM_CURVES
 70
0
 62
7
  6
CONTINUOUS
370
-3
390
F
  0
LAYER
  5
20A
100
AcDbSymbolTableRecord
100
AcDbLayerTableRecord
  2
DATUM_PLANES
 70
0
 62
7
  6
CONTINUOUS
370
-3
390
F
  0
LAYER
  5
20B
100
AcDbSymbolTableRecord
100
AcDbLayerTableRecord
  2
HIDE
 70
0
 62
7
  6
CONTINUOUS
370
-3
390
F
  0
LAYER
  5
20C
100
AcDbSymbolTableRecord
100
AcDbLayerTableRecord
  2
NOTES
 70
0
 62
7
  6
CONTINUOUS
370
-3
390
F
  0
LAYER
  5
20D
100
AcDbSymbolTableRecord
100
AcDbLayerTableRecord
  2
QUILTS
 70
0
 62
7
  6
CONTINUOUS
370
-3
390
F
  0
LAYER
  5
20E
100
AcDbSymbolTableRecord
100
AcDbLayerTableRecord
  2
SCHEME_DIMS
 70
0
 62
7
  6
CONTINUOUS
370
-3
390
F
  0
LAYER
  5
20F
100
AcDbSymbolTableRecord
100
AcDbLayerTableRecord
  2
SYMBOLS
 70
0
 62
7
  6
CONTINUOUS
370
-3
390
F
  0
ENDTAB
  0
TABLE
  2
STYLE
  5
3
100
AcDbSymbolTable
 70
1
  0
STYLE
  5
11
100
AcDbSymbolTableRecord
100
AcDbTextStyleTableRecord
  2
STANDARD
 70
0
 40
0.0
 41
1.0
 50
0.0
 71
0
 42
0.2
  3
txt
  4

  0
ENDTAB
  0
TABLE
  2
VIEW
  5
6
100
AcDbSymbolTable
 70
0
  0
ENDTAB
  0
TABLE
  2
UCS
  5
7
100
AcDbSymbolTable
 70
0
  0
ENDTAB
  0
TABLE
  2
APPID
  5
9
100
AcDbSymbolTable
 70
1
  0
APPID
  5
210
100
AcDbSymbolTableRecord
100
AcDbRegAppTableRecord
  2
ACAD
 70
0
  0
ENDTAB
  0
TABLE
  2
BLOCK_RECORD
  5
1
100
AcDbSymbolTable
 70
0
  0
BLOCK_RECORD
  5
1F
100
AcDbSymbolTableRecord
100
AcDbBlockTableRecord
  2
*MODEL_SPACE
  0
BLOCK_RECORD
  5
1B
100
AcDbSymbolTableRecord
100
AcDbBlockTableRecord
  2
*PAPER_SPACE
  0
BLOCK_RECORD
  5
211
100
AcDbSymbolTableRecord
100
AcDbBlockTableRecord
  2
_FILLED
  0
BLOCK_RECORD
  5
212
100
AcDbSymbolTableRecord
100
AcDbBlockTableRecord
  2
BANNER_LOGO_TITLEBLOCK_BL0
  0
BLOCK_RECORD
  5
213
100
AcDbSymbolTableRecord
100
AcDbBlockTableRecord
  2
*D0
  0
BLOCK_RECORD
  5
214
100
AcDbSymbolTableRecord
100
AcDbBlockTableRecord
  2
*D1
  0
BLOCK_RECORD
  5
215
100
AcDbSymbolTableRecord
100
AcDbBlockTableRecord
  2
*D2
  0
BLOCK_RECORD
  5
216
100
AcDbSymbolTableRecord
100
AcDbBlockTableRecord
  2
*D3
  0
BLOCK_RECORD
  5
217
100
AcDbSymbolTableRecord
100
AcDbBlockTableRecord
  2
*D4
  0
ENDTAB
  0
TABLE
  2
DIMSTYLE
  5
A
100
AcDbSymbolTable
 70
1
100
AcDbDimStyleTable
 71
0
  0
DIMSTYLE
105
218
100
AcDbSymbolTableRecord
100
AcDbDimStyleTableRecord
  2
STANDARD
 70
0
  3

  4

 40
1.0
 41
0.1875
 42
0.0625
 43
0.38
 44
0.18
 45
0.0
 46
0.0
 47
0.005
 48
0.005
140
0.1
141
0.09
142
0.0
143
25.4
144
1.0
145
0.0
146
1.0
147
0.09
 71
1.0
 72
0.0
 73
1
 74
1
 75
0
 76
0
 77
0
 78
4
170
0
171
2
172
0
173
0
174
0
175
0
176
0
177
0
178
0
270
2
271
3
272
3
273
2
274
2
275
0
280
0
281
0
282
0
283
1
284
4
285
0
286
0
287
3
288
0
340
11
341
211
342
211
343
211
344
211
  0
DIMSTYLE
105
219
100
AcDbSymbolTableRecord
100
AcDbDimStyleTableRecord
  2
DIMSTYLE_1
 70
0
  3

  4

 40
1.0
 41
0.1875
 42
0.0625
 43
0.38
 44
0.18
 45
0.0
 46
0.0
 47
0.1
 48
0.1
140
0.1
141
0.09
142
0.0
143
25.4
144
1.0
145
0.0
146
1.0
147
0.09
 71
0.0
 72
0.0
 73
1
 74
1
 75
0
 76
0
 77
0
 78
4
170
0
171
2
172
0
173
0
174
0
175
0
176
0
177
0
178
0
270
2
271
1
272
1
273
2
274
2
275
0
280
0
281
0
282
0
283
1
284
4
285
0
286
0
287
3
288
0
340
11
341
211
342
211
343
211
344
211
  0
DIMSTYLE
105
21A
100
AcDbSymbolTableRecord
100
AcDbDimStyleTableRecord
  2
DIMSTYLE_2
 70
0
  3

  4

 40
1.0
 41
0.1875
 42
0.0625
 43
0.38
 44
0.18
 45
0.0
 46
0.0
 47
0.1
 48
0.1
140
0.1
141
0.09
142
0.0
143
25.4
144
1.0
145
0.0
146
1.0
147
0.09
 71
0.0
 72
0.0
 73
1
 74
1
 75
0
 76
0
 77
0
 78
4
170
0
171
2
172
0
173
0
174
0
175
0
176
0
177
0
178
0
270
2
271
1
272
1
273
2
274
2
275
0
280
0
281
0
282
0
283
1
284
4
285
0
286
0
287
3
288
0
340
11
341
211
342
211
343
211
344
211
  0
ENDTAB
  0
ENDSEC
  0
SECTION
  2
BLOCKS
  0
BLOCK
  5
20
100
AcDbEntity
  8
0
100
AcDbBlockBegin
  2
*MODEL_SPACE
 70
0
 10
0.0
 20
0.0
 30
0.0
  3
*MODEL_SPACE
  1

  0
ENDBLK
  5
21
100
AcDbEntity
  8
0
100
AcDbBlockEnd
  0
BLOCK
  5
1C
100
AcDbEntity
  8
0
100
AcDbBlockBegin
  2
*PAPER_SPACE
 70
0
 10
0.0
 20
0.0
 30
0.0
  3
*PAPER_SPACE
  1

  0
ENDBLK
  5
1D
100
AcDbEntity
  8
0
100
AcDbBlockEnd
  0
BLOCK
  5
21B
100
AcDbEntity
  8
0
100
AcDbBlockBegin
 62
2
  6
CONTINUOUS
  2
BANNER_LOGO_TITLEBLOCK_BL0
 70
64
 10
17.5737928667
 20
2.4016160592
  3
BANNER_LOGO_TITLEBLOCK_BL0
  1

  0
LWPOLYLINE
  5
21C
100
AcDbEntity
  8
0
100
AcDbPolyline
 62
2
  6
CONTINUOUS
 90
29
 70
0
 10
16.7487923615
 20
2.4016160592
 10
16.7691351996
 20
2.3618196847
 10
16.8307163685
 20
2.3232759622
 10
16.9281409297
 20
2.2893628079
 10
17.0602177432
 20
2.2604945935
 10
17.2153753953
 20
2.2392004647
 10
17.3917175036
 20
2.2257402979
 10
17.5737926282
 20
2.2212942658
 10
17.7558682297
 20
2.2257402979
 10
17.932210338
 20
2.2392004647
 10
18.0873675133
 20
2.2604945935
 10
18.2194448036
 20
2.2893628079
 10
18.316868888
 20
2.3232759622
 10
18.3784505337
 20
2.3618196847
 10
18.3987933719
 20
2.4016160592
 10
18.3784505337
 20
2.4414124337
 10
18.316868888
 20
2.4799561562
 10
18.2194448036
 20
2.5138693105
 10
18.0873675133
 20
2.5427375249
 10
17.932210338
 20
2.5640316537
 10
17.7558682297
 20
2.5774918205
 10
17.5737926282
 20
2.5819378526
 10
17.3917175036
 20
2.5774918205
 10
17.2153753953
 20
2.5640316537
 10
17.0602177432
 20
2.5427375249
 10
16.9281409297
 20
2.5138693105
 10
16.8307163685
 20
2.4799561562
 10
16.7691351996
 20
2.4414124337
 10
16.7487923615
 20
2.4016160592
  0
ARC
  5
21D
100
AcDbEntity
  8
0
100
AcDbCircle
 62
2
  6
CONTINUOUS
 10
17.0691330821
 20
2.3781140608
 40
0.0153945295
100
AcDbArc
 50
354.0454548824
 51
5.1878013979
  0
ARC
  5
21E
100
AcDbEntity
  8
0
100
AcDbCircle
 62
2
  6
CONTINUOUS
 10
17.062303393
 20
2.377925543
 40
0.0222174455
100
AcDbArc
 50
4.0793399388
 51
69.834329283
  0
LINE
  5
21F
100
AcDbEntity
  8
0
100
AcDbLine
 62
2
  6
CONTINUOUS
 10
17.0699625425
 20
2.3987810533
 11
17.0599115369
 21
2.4023300553
  0
LINE
  5
220
100
AcDbEntity
  8
0
100
AcDbLine
 62
2
  6
CONTINUOUS
 10
17.0599115369
 20
2.4023300553
 11
17.0681515415
 21
2.4071060579
  0
ARC
  5
221
100
AcDbEntity
  8
0
100
AcDbCircle
 62
2
  6
CONTINUOUS
 10
17.046286159
 20
2.4439329496
 40
0.0428289026
100
AcDbArc
 50
300.6990502959
 51
319.0591802498
  0
ARC
  5
222
100
AcDbEntity
  8
0
100
AcDbCircle
 62
2
  6
CONTINUOUS
 10
17.0663147559
 20
2.4278045961
 40
0.0171568255
100
AcDbArc
 50
315.9145124245
 51
16.0049121282
  0
ARC
  5
223
100
AcDbEntity
  8
0
100
AcDbCircle
 62
2
  6
CONTINUOUS
 10
17.0613631438
 20
2.4244509317
 40
0.0229166529
100
AcDbArc
 50
20.6563876465
 51
62.3316896973
  0
ARC
  5
224
100
AcDbEntity
  8
0
100
AcDbCircle
 62
2
  6
CONTINUOUS
 10
17.0407010201
 20
2.3915223668
 40
0.061747717
100
AcDbArc
 50
59.5385584989
 51
90.0050977555
  0
LINE
  5
225
100
AcDbEntity
  8
0
100
AcDbLine
 62
2
  6
CONTINUOUS
 10
17.0406955262
 20
2.4532700835
 11
16.8746324342
 21
2.4532700835
  0
ARC
  5
226
100
AcDbEntity
  8
0
100
AcDbCircle
 62
2
  6
CONTINUOUS
 10
16.8746324323
 20
2.450795084
 40
0.0024749995
100
AcDbArc
 50
89.9999571957
 51
180.0000428043
  0
LINE
  5
227
100
AcDbEntity
  8
0
100
AcDbLine
 62
2
  6
CONTINUOUS
 10
16.8721574328
 20
2.4507950822
 11
16.8721574328
 21
2.4309950712
  0
ARC
  5
228
100
AcDbEntity
  8
0
100
AcDbCircle
 62
2
  6
CONTINUOUS
 10
16.8746324323
 20
2.4309950693
 40
0.0024749995
100
AcDbArc
 50
179.9999571957
 51
270.0000428043
  0
LINE
  5
229
100
AcDbEntity
  8
0
100
AcDbLine
 62
2
  6
CONTINUOUS
 10
16.8746324342
 20
2.4285200698
 11
16.8985744474
 21
2.4285200698
  0
ARC
  5
22A
100
AcDbEntity
  8
0
100
AcDbCircle
 62
2
  6
CONTINUOUS
 10
16.8985744493
 20
2.4260450703
 40
0.0024749995
100
AcDbArc
 50
359.9999571957
 51
90.0000428043
  0
LINE
  5
22B
100
AcDbEntity
  8
0
100
AcDbLine
 62
2
  6
CONTINUOUS
 10
16.9010494488
 20
2.4260450684
 11
16.9010494488
 21
2.3796900427
  0
ARC
  5
22C
100
AcDbEntity
  8
0
100
AcDbCircle
 62
2
  6
CONTINUOUS
 10
16.8985744493
 20
2.3796900409
 40
0.0024749995
100
AcDbArc
 50
269.9999571957
 51
0.0000428043
  0
LINE
  5
22D
100
AcDbEntity
  8
0
100
AcDbLine
 62
2
  6
CONTINUOUS
 10
16.8985744474
 20
2.3772150414
 11
16.8746324342
 21
2.3772150414
  0
ARC
  5
22E
100
AcDbEntity
  8
0
100
AcDbCircle
 62
2
  6
CONTINUOUS
 10
16.8746324323
 20
2.3747400418
 40
0.0024749995
100
AcDbArc
 50
89.9999571957
 51
180.0000428043
  0
LINE
  5
22F
100
AcDbEntity
  8
0
100
AcDbLine
 62
2
  6
CONTINUOUS
 10
16.8721574328
 20
2.37474004
 11
16.8721574328
 21
2.354940029
  0
ARC
  5
230
100
AcDbEntity
  8
0
100
AcDbCircle
 62
2
  6
CONTINUOUS
 10
16.8746324323
 20
2.3549400272
 40
0.0024749995
100
AcDbArc
 50
179.9999571957
 51
270.0000428043
  0
LINE
  5
231
100
AcDbEntity
  8
0
100
AcDbLine
 62
2
  6
CONTINUOUS
 10
16.8746324342
 20
2.3524650276
 11
17.051078532
 21
2.3524650276
  0
ARC
  5
232
100
AcDbEntity
  8
0
100
AcDbCircle
 62
2
  6
CONTINUOUS
 10
17.0483571873
 20
2.4008724794
 40
0.048483885
100
AcDbArc
 50
273.21763719
 51
303.0749121182
  0
ARC
  5
233
100
AcDbEntity
  8
0
100
AcDbCircle
 62
2
  6
CONTINUOUS
 10
17.0631965815
 20
2.3781048705
 40
0.0213072145
100
AcDbArc
 50
303.0488228549
 51
355.7263138674
  0
LINE
  5
234
100
AcDbEntity
  8
0
100
AcDbLine
 62
2
  6
CONTINUOUS
 10
16.9640374837
 20
2.4111950602
 11
17.0054005067
 21
2.4111950602
  0
ARC
  5
235
100
AcDbEntity
  8
0
100
AcDbCircle
 62
2
  6
CONTINUOUS
 10
17.0054005067
 20
2.419857565
 40
0.0086625048
100
AcDbArc
 50
270.0
 51
90.0
  0
LINE
  5
236
100
AcDbEntity
  8
0
100
AcDbLine
 62
2
  6
CONTINUOUS
 10
17.0054005067
 20
2.4285200698
 11
16.9640374837
 21
2.4285200698
  0
ARC
  5
237
100
AcDbEntity
  8
0
100
AcDbCircle
 62
2
  6
CONTINUOUS
 10
16.9640374819
 20
2.4260450703
 40
0.0024749995
100
AcDbArc
 50
89.9999571957
 51
180.0000428043
  0
LINE
  5
238
100
AcDbEntity
  8
0
100
AcDbLine
 62
2
  6
CONTINUOUS
 10
16.9615624824
 20
2.4260450684
 11
16.9615624824
 21
2.4136700616
  0
ARC
  5
239
100
AcDbEntity
  8
0
100
AcDbCircle
 62
2
  6
CONTINUOUS
 10
16.9640374819
 20
2.4136700597
 40
0.0024749995
100
AcDbArc
 50
179.9999571957
 51
270.0000428043
  0
LINE
  5
23A
100
AcDbEntity
  8
0
100
AcDbLine
 62
2
  6
CONTINUOUS
 10
16.9615624824
 20
2.3796900427
 11
16.9615624824
 21
2.3920650496
  0
ARC
  5
23B
100
AcDbEntity
  8
0
100
AcDbCircle
 62
2
  6
CONTINUOUS
 10
16.9640374819
 20
2.3920650514
 40
0.0024749995
100
AcDbArc
 50
89.9999571957
 51
180.0000428043
  0
LINE
  5
23C
100
AcDbEntity
  8
0
100
AcDbLine
 62
2
  6
CONTINUOUS
 10
16.9640374837
 20
2.394540051
 11
17.0054005067
 21
2.394540051
  0
ARC
  5
23D
100
AcDbEntity
  8
0
100
AcDbCircle
 62
2
  6
CONTINUOUS
 10
17.0054005067
 20
2.3858775462
 40
0.0086625048
100
AcDbArc
 50
270.0
 51
90.0
  0
LINE
  5
23E
100
AcDbEntity
  8
0
100
AcDbLine
 62
2
  6
CONTINUOUS
 10
17.0054005067
 20
2.3772150414
 11
16.9640374837
 21
2.3772150414
  0
ARC
  5
23F
100
AcDbEntity
  8
0
100
AcDbCircle
 62
2
  6
CONTINUOUS
 10
16.9640374819
 20
2.3796900409
 40
0.0024749995
100
AcDbArc
 50
179.9999571957
 51
270.0000428043
  0
ARC
  5
240
100
AcDbEntity
  8
0
100
AcDbCircle
 62
2
  6
CONTINUOUS
 10
18.2498075353
 20
2.3824863625
 40
0.044722495
100
AcDbArc
 50
195.531588407
 51
204.7624440448
  0
LINE
  5
241
100
AcDbEntity
  8
0
100
AcDbLine
 62
2
  6
CONTINUOUS
 10
18.2067181729
 20
2.3705110376
 11
18.2049141719
 21
2.376580041
  0
ARC
  5
242
100
AcDbEntity
  8
0
100
AcDbCircle
 62
2
  6
CONTINUOUS
 10
18.1665349746
 20
2.3667829606
 40
0.0396099176
100
AcDbArc
 50
14.3201081283
 51
22.4984722084
  0
ARC
  5
243
100
AcDbEntity
  8
0
100
AcDbCircle
 62
2
  6
CONTINUOUS
 10
18.189301283
 20
2.3757545872
 40
0.0151491919
100
AcDbArc
 50
24.098260853
 51
63.0369451818
  0
ARC
  5
244
100
AcDbEntity
  8
0
100
AcDbCircle
 62
2
  6
CONTINUOUS
 10
18.1852466282
 20
2.3674749668
 40
0.0243676582
100
AcDbArc
 50
63.3666028271
 51
90.3937697637
  0
LINE
  5
245
100
AcDbEntity
  8
0
100
AcDbLine
 62
2
  6
CONTINUOUS
 10
18.1850791609
 20
2.3918420495
 11
18.1574721456
 21
2.3918420495
  0
ARC
  5
246
100
AcDbEntity
  8
0
100
AcDbCircle
 62
2
  6
CONTINUOUS
 10
18.1574721437
 20
2.3893670499
 40
0.0024749995
100
AcDbArc
 50
89.9999571957
 51
180.0000428043
  0
LINE
  5
247
100
AcDbEntity
  8
0
100
AcDbLine
 62
2
  6
CONTINUOUS
 10
18.1549971442
 20
2.3893670481
 11
18.1549971442
 21
2.3796680427
  0
ARC
  5
248
100
AcDbEntity
  8
0
100
AcDbCircle
 62
2
  6
CONTINUOUS
 10
18.1574721437
 20
2.3796680409
 40
0.0024749995
100
AcDbArc
 50
179.9999571957
 51
270.0000428043
  0
LINE
  5
249
100
AcDbEntity
  8
0
100
AcDbLine
 62
2
  6
CONTINUOUS
 10
18.1574721456
 20
2.3771930413
 11
18.1821311592
 21
2.3771930413
  0
ARC
  5
24A
100
AcDbEntity
  8
0
100
AcDbCircle
 62
2
  6
CONTINUOUS
 10
18.1821311611
 20
2.3747180418
 40
0.0024749995
100
AcDbArc
 50
359.9999571957
 51
90.0000428043
  0
LINE
  5
24B
100
AcDbEntity
  8
0
100
AcDbLine
 62
2
  6
CONTINUOUS
 10
18.1846061606
 20
2.37471804
 11
18.1846061606
 21
2.354940029
  0
ARC
  5
24C
100
AcDbEntity
  8
0
100
AcDbCircle
 62
2
  6
CONTINUOUS
 10
18.1821311611
 20
2.3549400272
 40
0.0024749995
100
AcDbArc
 50
269.9999571957
 51
0.0000428043
  0
LINE
  5
24D
100
AcDbEntity
  8
0
100
AcDbLine
 62
2
  6
CONTINUOUS
 10
18.1821311592
 20
2.3524650276
 11
18.0685600963
 21
2.3524650276
  0
ARC
  5
24E
100
AcDbEntity
  8
0
100
AcDbCircle
 62
2
  6
CONTINUOUS
 10
18.0685600944
 20
2.3549400272
 40
0.0024749995
100
AcDbArc
 50
179.9999571957
 51
270.0000428043
  0
LINE
  5
24F
100
AcDbEntity
  8
0
100
AcDbLine
 62
2
  6
CONTINUOUS
 10
18.0660850949
 20
2.354940029
 11
18.0660850949
 21
2.37474004
  0
ARC
  5
250
100
AcDbEntity
  8
0
100
AcDbCircle
 62
2
  6
CONTINUOUS
 10
18.0685600944
 20
2.3747400418
 40
0.0024749995
100
AcDbArc
 50
89.9999571957
 51
180.0000428043
  0
LINE
  5
251
100
AcDbEntity
  8
0
100
AcDbLine
 62
2
  6
CONTINUOUS
 10
18.0685600963
 20
2.3772150414
 11
18.0913061089
 21
2.3772150414
  0
ARC
  5
252
100
AcDbEntity
  8
0
100
AcDbCircle
 62
2
  6
CONTINUOUS
 10
18.0913061107
 20
2.3796900409
 40
0.0024749995
100
AcDbArc
 50
269.9999571957
 51
0.0000428043
  0
LINE
  5
253
100
AcDbEntity
  8
0
100
AcDbLine
 62
2
  6
CONTINUOUS
 10
18.0937811102
 20
2.3796900427
 11
18.0937811102
 21
2.4260450684
  0
ARC
  5
254
100
AcDbEntity
  8
0
100
AcDbCircle
 62
2
  6
CONTINUOUS
 10
18.0913061107
 20
2.4260450703
 40
0.0024749995
100
AcDbArc
 50
359.9999571957
 51
90.0000428043
  0
LINE
  5
255
100
AcDbEntity
  8
0
100
AcDbLine
 62
2
  6
CONTINUOUS
 10
18.0913061089
 20
2.4285200698
 11
18.0685600963
 21
2.4285200698
  0
ARC
  5
256
100
AcDbEntity
  8
0
100
AcDbCircle
 62
2
  6
CONTINUOUS
 10
18.0685600944
 20
2.4309950693
 40
0.0024749995
100
AcDbArc
 50
179.9999571957
 51
270.0000428043
  0
LINE
  5
257
100
AcDbEntity
  8
0
100
AcDbLine
 62
2
  6
CONTINUOUS
 10
18.0660850949
 20
2.4309950712
 11
18.0660850949
 21
2.4507950822
  0
ARC
  5
258
100
AcDbEntity
  8
0
100
AcDbCircle
 62
2
  6
CONTINUOUS
 10
18.0685600944
 20
2.450795084
 40
0.0024749995
100
AcDbArc
 50
89.9999571957
 51
180.0000428043
  0
LINE
  5
259
100
AcDbEntity
  8
0
100
AcDbLine
 62
2
  6
CONTINUOUS
 10
18.0685600963
 20
2.4532700835
 11
18.2181411792
 21
2.4532700835
  0
ARC
  5
25A
100
AcDbEntity
  8
0
100
AcDbCircle
 62
2
  6
CONTINUOUS
 10
18.2154778759
 20
2.270731173
 40
0.1825583387
100
AcDbArc
 50
79.8618509324
 51
89.1640948679
  0
ARC
  5
25B
100
AcDbEntity
  8
0
100
AcDbCircle
 62
2
  6
CONTINUOUS
 10
18.2417821663
 20
2.4115546891
 40
0.039319019
100
AcDbArc
 50
59.1202086415
 51
81.4730239328
  0
ARC
  5
25C
100
AcDbEntity
  8
0
100
AcDbCircle
 62
2
  6
CONTINUOUS
 10
18.2474415625
 20
2.4178893582
 40
0.0310192946
100
AcDbArc
 50
34.7540871
 51
62.0879016178
  0
ARC
  5
25D
100
AcDbEntity
  8
0
100
AcDbCircle
 62
2
  6
CONTINUOUS
 10
18.2591303136
 20
2.4264389594
 40
0.0165459396
100
AcDbArc
 50
1.548452892
 51
33.5033152417
  0
ARC
  5
25E
100
AcDbEntity
  8
0
100
AcDbCircle
 62
2
  6
CONTINUOUS
 10
18.2624269088
 20
2.4266074116
 40
0.0132462337
100
AcDbArc
 50
331.1510006998
 51
1.205404301
  0
ARC
  5
25F
100
AcDbEntity
  8
0
100
AcDbCircle
 62
2
  6
CONTINUOUS
 10
18.2514162524
 20
2.4332859993
 40
0.0261183659
100
AcDbArc
 50
305.6373831893
 51
329.9727629745
  0
ARC
  5
260
100
AcDbEntity
  8
0
100
AcDbCircle
 62
2
  6
CONTINUOUS
 10
18.2210843148
 20
2.4764928489
 40
0.0789082104
100
AcDbArc
 50
292.906155071
 51
305.2574666259
  0
ARC
  5
261
100
AcDbEntity
  8
0
100
AcDbCircle
 62
2
  6
CONTINUOUS
 10
18.1973831488
 20
2.2998387438
 40
0.117346916
100
AcDbArc
 50
58.614769177
 51
62.3737227606
  0
ARC
  5
262
100
AcDbEntity
  8
0
100
AcDbCircle
 62
2
  6
CONTINUOUS
 10
18.2452661015
 20
2.377966004
 40
0.0257145923
100
AcDbArc
 50
39.3804255939
 51
59.0361096173
  0
ARC
  5
263
100
AcDbEntity
  8
0
100
AcDbCircle
 62
2
  6
CONTINUOUS
 10
18.244145746
 20
2.3778929208
 40
0.0266349791
100
AcDbArc
 50
20.3630922153
 51
37.9727053099
  0
ARC
  5
264
100
AcDbEntity
  8
0
100
AcDbCircle
 62
2
  6
CONTINUOUS
 10
18.2262452042
 20
2.3707115124
 40
0.0459185159
100
AcDbArc
 50
15.6740290068
 51
20.9917271228
  0
ARC
  5
265
100
AcDbEntity
  8
0
100
AcDbCircle
 62
2
  6
CONTINUOUS
 10
18.2848155393
 20
2.3863544954
 40
0.0147197649
100
AcDbArc
 50
192.7054516566
 51
206.0594861022
  0
ARC
  5
266
100
AcDbEntity
  8
0
100
AcDbCircle
 62
2
  6
CONTINUOUS
 10
18.2763212023
 20
2.3821460089
 40
0.0052403997
100
AcDbArc
 50
205.5232099488
 51
227.5054868079
  0
ARC
  5
267
100
AcDbEntity
  8
0
100
AcDbCircle
 62
2
  6
CONTINUOUS
 10
18.274592903
 20
2.3803306362
 40
0.0027347709
100
AcDbArc
 50
228.5117626737
 51
266.1485845754
  0
LINE
  5
268
100
AcDbEntity
  8
0
100
AcDbLine
 62
2
  6
CONTINUOUS
 10
18.2744092104
 20
2.3776020416
 11
18.275518211
 21
2.3776020416
  0
ARC
  5
269
100
AcDbEntity
  8
0
100
AcDbCircle
 62
2
  6
CONTINUOUS
 10
18.2754566564
 20
2.3908507008
 40
0.0132488022
100
AcDbArc
 50
270.266200055
 51
281.2404888597
  0
ARC
  5
26A
100
AcDbEntity
  8
0
100
AcDbCircle
 62
2
  6
CONTINUOUS
 10
18.2766508974
 20
2.3851140072
 40
0.0073895522
100
AcDbArc
 50
280.8288201977
 51
305.0837508495
  0
ARC
  5
26B
100
AcDbEntity
  8
0
100
AcDbCircle
 62
2
  6
CONTINUOUS
 10
18.2770520791
 20
2.3842631608
 40
0.0064647042
100
AcDbArc
 50
306.5086174083
 51
340.2162360092
  0
ARC
  5
26C
100
AcDbEntity
  8
0
100
AcDbCircle
 62
2
  6
CONTINUOUS
 10
18.2718509025
 20
2.3860072224
 40
0.0119498009
100
AcDbArc
 50
340.7883861657
 51
1.1691452593
  0
LINE
  5
26D
100
AcDbEntity
  8
0
100
AcDbLine
 62
2
  6
CONTINUOUS
 10
18.2837982156
 20
2.3862510464
 11
18.2837982156
 21
2.3888770478
  0
ARC
  5
26E
100
AcDbEntity
  8
0
100
AcDbCircle
 62
2
  6
CONTINUOUS
 10
18.2862732151
 20
2.3888770497
 40
0.0024749995
100
AcDbArc
 50
89.9999571957
 51
180.0000428043
  0
LINE
  5
26F
100
AcDbEntity
  8
0
100
AcDbLine
 62
2
  6
CONTINUOUS
 10
18.286273217
 20
2.3913520492
 11
18.2983832237
 21
2.3913520492
  0
ARC
  5
270
100
AcDbEntity
  8
0
100
AcDbCircle
 62
2
  6
CONTINUOUS
 10
18.2983832256
 20
2.3888770497
 40
0.0024749995
100
AcDbArc
 50
359.9999571957
 51
90.0000428043
  0
LINE
  5
271
100
AcDbEntity
  8
0
100
AcDbLine
 62
2
  6
CONTINUOUS
 10
18.3008582251
 20
2.3888770478
 11
18.3008582251
 21
2.3773250414
  0
ARC
  5
272
100
AcDbEntity
  8
0
100
AcDbCircle
 62
2
  6
CONTINUOUS
 10
18.2833025285
 20
2.3774293591
 40
0.0175560065
100
AcDbArc
 50
332.2279060967
 51
359.6595469939
  0
ARC
  5
273
100
AcDbEntity
  8
0
100
AcDbCircle
 62
2
  6
CONTINUOUS
 10
18.2739955177
 20
2.3823238645
 40
0.0280715479
100
AcDbArc
 50
308.5071794988
 51
332.2400656899
  0
ARC
  5
274
100
AcDbEntity
  8
0
100
AcDbCircle
 62
2
  6
CONTINUOUS
 10
18.2670033323
 20
2.3899250823
 40
0.0383802683
100
AcDbArc
 50
288.7656836787
 51
309.6104317088
  0
ARC
  5
275
100
AcDbEntity
  8
0
100
AcDbCircle
 62
2
  6
CONTINUOUS
 10
18.2727412998
 20
2.372338333
 40
0.0198837666
100
AcDbArc
 50
271.8586572978
 51
289.4131338543
  0
LINE
  5
276
100
AcDbEntity
  8
0
100
AcDbLine
 62
2
  6
CONTINUOUS
 10
18.2733862098
 20
2.3524650276
 11
18.2260221836
 21
2.3524650276
  0
ARC
  5
277
100
AcDbEntity
  8
0
100
AcDbCircle
 62
2
  6
CONTINUOUS
 10
18.2268275043
 20
2.3697871793
 40
0.0173408616
100
AcDbArc
 50
232.4713476722
 51
267.338189944
  0
ARC
  5
278
100
AcDbEntity
  8
0
100
AcDbCircle
 62
2
  6
CONTINUOUS
 10
18.2299260692
 20
2.3756374832
 40
0.0238935861
100
AcDbArc
 50
209.8247607259
 51
235.1255079367
  0
ARC
  5
279
100
AcDbEntity
  8
0
100
AcDbCircle
 62
2
  6
CONTINUOUS
 10
18.1986405119
 20
2.4241492153
 40
0.0110815393
100
AcDbArc
 50
306.758405961
 51
320.4502234234
  0
ARC
  5
27A
100
AcDbEntity
  8
0
100
AcDbCircle
 62
2
  6
CONTINUOUS
 10
18.1930113209
 20
2.4318900438
 40
0.0206523367
100
AcDbArc
 50
289.6883413472
 51
306.4184925496
  0
ARC
  5
27B
100
AcDbEntity
  8
0
100
AcDbCircle
 62
2
  6
CONTINUOUS
 10
18.1910838152
 20
2.4362836911
 40
0.0254407115
100
AcDbArc
 50
270.7327484175
 51
290.441894219
  0
LINE
  5
27C
100
AcDbEntity
  8
0
100
AcDbLine
 62
2
  6
CONTINUOUS
 10
18.1914091644
 20
2.41084506
 11
18.1574721456
 21
2.41084506
  0
ARC
  5
27D
100
AcDbEntity
  8
0
100
AcDbCircle
 62
2
  6
CONTINUOUS
 10
18.1574721437
 20
2.4133200595
 40
0.0024749995
100
AcDbArc
 50
179.9999571957
 51
270.0000428043
  0
LINE
  5
27E
100
AcDbEntity
  8
0
100
AcDbLine
 62
2
  6
CONTINUOUS
 10
18.1549971442
 20
2.4133200614
 11
18.1549971442
 21
2.4260450684
  0
ARC
  5
27F
100
AcDbEntity
  8
0
100
AcDbCircle
 62
2
  6
CONTINUOUS
 10
18.1574721437
 20
2.4260450703
 40
0.0024749995
100
AcDbArc
 50
89.9999571957
 51
180.0000428043
  0
LINE
  5
280
100
AcDbEntity
  8
0
100
AcDbLine
 62
2
  6
CONTINUOUS
 10
18.1574721456
 20
2.4285200698
 11
18.194273166
 21
2.4285200698
  0
ARC
  5
281
100
AcDbEntity
  8
0
100
AcDbCircle
 62
2
  6
CONTINUOUS
 10
18.1927282785
 20
2.4000655908
 40
0.0284963867
100
AcDbArc
 50
70.3834917948
 51
86.8922743861
  0
ARC
  5
282
100
AcDbEntity
  8
0
100
AcDbCircle
 62
2
  6
CONTINUOUS
 10
18.1975878885
 20
2.4131073238
 40
0.0145814632
100
AcDbArc
 50
54.6746025112
 51
71.1660573124
  0
ARC
  5
283
100
AcDbEntity
  8
0
100
AcDbCircle
 62
2
  6
CONTINUOUS
 10
18.2027173795
 20
2.419961249
 40
0.0060275915
100
AcDbArc
 50
20.9055592135
 51
56.7851676243
  0
ARC
  5
284
100
AcDbEntity
  8
0
100
AcDbCircle
 62
2
  6
CONTINUOUS
 10
18.2040179384
 20
2.4206215312
 40
0.0045795888
100
AcDbArc
 50
355.6235353944
 51
18.9942678268
  0
ARC
  5
285
100
AcDbEntity
  8
0
100
AcDbCircle
 62
2
  6
CONTINUOUS
 10
18.202811128
 20
2.4209153074
 40
0.0058087709
100
AcDbArc
 50
318.8515287446
 51
353.6422345323
  0
LINE
  5
286
100
AcDbEntity
  8
0
100
AcDbLine
 62
2
  6
CONTINUOUS
 10
17.341467693
 20
2.4532700835
 11
17.4419257488
 21
2.4532700835
  0
ARC
  5
287
100
AcDbEntity
  8
0
100
AcDbCircle
 62
2
  6
CONTINUOUS
 10
17.4419258835
 20
2.4507959157
 40
0.0024741678
100
AcDbArc
 50
46.3477981898
 51
90.0031206038
  0
LINE
  5
288
100
AcDbEntity
  8
0
100
AcDbLine
 62
2
  6
CONTINUOUS
 10
17.4436337497
 20
2.4525860832
 11
17.503666783
 21
2.3953060514
  0
ARC
  5
289
100
AcDbEntity
  8
0
100
AcDbCircle
 62
2
  6
CONTINUOUS
 10
17.5053754839
 20
2.3970969891
 40
0.0024753014
100
AcDbArc
 50
226.3461263059
 51
0.0014637322
  0
LINE
  5
28A
100
AcDbEntity
  8
0
100
AcDbLine
 62
2
  6
CONTINUOUS
 10
17.5078507853
 20
2.3970970524
 11
17.5078507853
 21
2.4260450684
  0
ARC
  5
28B
100
AcDbEntity
  8
0
100
AcDbCircle
 62
2
  6
CONTINUOUS
 10
17.5053757858
 20
2.4260450703
 40
0.0024749995
100
AcDbArc
 50
359.9999571957
 51
90.0000428043
  0
LINE
  5
28C
100
AcDbEntity
  8
0
100
AcDbLine
 62
2
  6
CONTINUOUS
 10
17.5053757839
 20
2.4285200698
 11
17.4865997735
 21
2.4285200698
  0
ARC
  5
28D
100
AcDbEntity
  8
0
100
AcDbCircle
 62
2
  6
CONTINUOUS
 10
17.4865997717
 20
2.4309950693
 40
0.0024749995
100
AcDbArc
 50
179.9999571957
 51
270.0000428043
  0
LINE
  5
28E
100
AcDbEntity
  8
0
100
AcDbLine
 62
2
  6
CONTINUOUS
 10
17.4841247722
 20
2.4309950712
 11
17.4841247722
 21
2.4507950822
  0
ARC
  5
28F
100
AcDbEntity
  8
0
100
AcDbCircle
 62
2
  6
CONTINUOUS
 10
17.4865997717
 20
2.450795084
 40
0.0024749995
100
AcDbArc
 50
89.9999571957
 51
180.0000428043
  0
LINE
  5
290
100
AcDbEntity
  8
0
100
AcDbLine
 62
2
  6
CONTINUOUS
 10
17.4865997735
 20
2.4532700835
 11
17.5606008146
 21
2.4532700835
  0
ARC
  5
291
100
AcDbEntity
  8
0
100
AcDbCircle
 62
2
  6
CONTINUOUS
 10
17.5606008164
 20
2.450795084
 40
0.0024749995
100
AcDbArc
 50
359.9999571957
 51
90.0000428043
  0
LINE
  5
292
100
AcDbEntity
  8
0
100
AcDbLine
 62
2
  6
CONTINUOUS
 10
17.5630758159
 20
2.4507950822
 11
17.5630758159
 21
2.4309950712
  0
ARC
  5
293
100
AcDbEntity
  8
0
100
AcDbCircle
 62
2
  6
CONTINUOUS
 10
17.5606008164
 20
2.4309950693
 40
0.0024749995
100
AcDbArc
 50
269.9999571957
 51
0.0000428043
  0
LINE
  5
294
100
AcDbEntity
  8
0
100
AcDbLine
 62
2
  6
CONTINUOUS
 10
17.5606008146
 20
2.4285200698
 11
17.5426678046
 21
2.4285200698
  0
ARC
  5
295
100
AcDbEntity
  8
0
100
AcDbCircle
 62
2
  6
CONTINUOUS
 10
17.5426678028
 20
2.4260450703
 40
0.0024749995
100
AcDbArc
 50
89.9999571957
 51
180.0000428043
  0
LINE
  5
296
100
AcDbEntity
  8
0
100
AcDbLine
 62
2
  6
CONTINUOUS
 10
17.5401928032
 20
2.4260450684
 11
17.5401928032
 21
2.354940029
  0
ARC
  5
297
100
AcDbEntity
  8
0
100
AcDbCircle
 62
2
  6
CONTINUOUS
 10
17.5377178037
 20
2.3549400272
 40
0.0024749995
100
AcDbArc
 50
269.9999571957
 51
0.0000428043
  0
LINE
  5
298
100
AcDbEntity
  8
0
100
AcDbLine
 62
2
  6
CONTINUOUS
 10
17.5377178019
 20
2.3524650276
 11
17.4635127607
 21
2.3524650276
  0
ARC
  5
299
100
AcDbEntity
  8
0
100
AcDbCircle
 62
2
  6
CONTINUOUS
 10
17.463512126
 20
2.3549404438
 40
0.0024754162
100
AcDbArc
 50
226.3593695813
 51
270.0146919953
  0
LINE
  5
29A
100
AcDbEntity
  8
0
100
AcDbLine
 62
2
  6
CONTINUOUS
 10
17.4618037598
 20
2.353149028
 11
17.3985237247
 21
2.4135270615
  0
ARC
  5
29B
100
AcDbEntity
  8
0
100
AcDbCircle
 62
2
  6
CONTINUOUS
 10
17.3968150237
 20
2.4117361237
 40
0.0024753014
100
AcDbArc
 50
46.3461263059
 51
180.0014637321
  0
LINE
  5
29C
100
AcDbEntity
  8
0
100
AcDbLine
 62
2
  6
CONTINUOUS
 10
17.3943397224
 20
2.4117360605
 11
17.3943397224
 21
2.3796900427
  0
ARC
  5
29D
100
AcDbEntity
  8
0
100
AcDbCircle
 62
2
  6
CONTINUOUS
 10
17.3968147219
 20
2.3796900409
 40
0.0024749995
100
AcDbArc
 50
179.9999571957
 51
270.0000428043
  0
LINE
  5
29E
100
AcDbEntity
  8
0
100
AcDbLine
 62
2
  6
CONTINUOUS
 10
17.3968147237
 20
2.3772150414
 11
17.417131735
 21
2.3772150414
  0
ARC
  5
29F
100
AcDbEntity
  8
0
100
AcDbCircle
 62
2
  6
CONTINUOUS
 10
17.4171317369
 20
2.3747400418
 40
0.0024749995
100
AcDbArc
 50
359.9999571957
 51
90.0000428043
  0
LINE
  5
2A0
100
AcDbEntity
  8
0
100
AcDbLine
 62
2
  6
CONTINUOUS
 10
17.4196067364
 20
2.37474004
 11
17.4196067364
 21
2.354940029
  0
ARC
  5
2A1
100
AcDbEntity
  8
0
100
AcDbCircle
 62
2
  6
CONTINUOUS
 10
17.4171317369
 20
2.3549400272
 40
0.0024749995
100
AcDbArc
 50
269.9999571957
 51
0.0000428043
  0
LINE
  5
2A2
100
AcDbEntity
  8
0
100
AcDbLine
 62
2
  6
CONTINUOUS
 10
17.417131735
 20
2.3524650276
 11
17.341467693
 21
2.3524650276
  0
ARC
  5
2A3
100
AcDbEntity
  8
0
100
AcDbCircle
 62
2
  6
CONTINUOUS
 10
17.3414676912
 20
2.3549400272
 40
0.0024749995
100
AcDbArc
 50
179.9999571957
 51
270.0000428043
  0
LINE
  5
2A4
100
AcDbEntity
  8
0
100
AcDbLine
 62
2
  6
CONTINUOUS
 10
17.3389926917
 20
2.354940029
 11
17.3389926917
 21
2.37474004
  0
ARC
  5
2A5
100
AcDbEntity
  8
0
100
AcDbCircle
 62
2
  6
CONTINUOUS
 10
17.3414676912
 20
2.3747400418
 40
0.0024749995
100
AcDbArc
 50
89.9999571957
 51
180.0000428043
  0
LINE
  5
2A6
100
AcDbEntity
  8
0
100
AcDbLine
 62
2
  6
CONTINUOUS
 10
17.341467693
 20
2.3772150414
 11
17.3601147034
 21
2.3772150414
  0
ARC
  5
2A7
100
AcDbEntity
  8
0
100
AcDbCircle
 62
2
  6
CONTINUOUS
 10
17.3601147052
 20
2.3796900409
 40
0.0024749995
100
AcDbArc
 50
269.9999571957
 51
0.0000428043
  0
LINE
  5
2A8
100
AcDbEntity
  8
0
100
AcDbLine
 62
2
  6
CONTINUOUS
 10
17.3625897048
 20
2.3796900427
 11
17.3625897048
 21
2.4260450684
  0
ARC
  5
2A9
100
AcDbEntity
  8
0
100
AcDbCircle
 62
2
  6
CONTINUOUS
 10
17.3601147052
 20
2.4260450703
 40
0.0024749995
100
AcDbArc
 50
359.9999571957
 51
90.0000428043
  0
LINE
  5
2AA
100
AcDbEntity
  8
0
100
AcDbLine
 62
2
  6
CONTINUOUS
 10
17.3601147034
 20
2.4285200698
 11
17.341467693
 21
2.4285200698
  0
ARC
  5
2AB
100
AcDbEntity
  8
0
100
AcDbCircle
 62
2
  6
CONTINUOUS
 10
17.3414676912
 20
2.4309950693
 40
0.0024749995
100
AcDbArc
 50
179.9999571957
 51
270.0000428043
  0
LINE
  5
2AC
100
AcDbEntity
  8
0
100
AcDbLine
 62
2
  6
CONTINUOUS
 10
17.3389926917
 20
2.4309950712
 11
17.3389926917
 21
2.4507950822
  0
ARC
  5
2AD
100
AcDbEntity
  8
0
100
AcDbCircle
 62
2
  6
CONTINUOUS
 10
17.3414676912
 20
2.450795084
 40
0.0024749995
100
AcDbArc
 50
89.9999571957
 51
180.0000428043
  0
LINE
  5
2AE
100
AcDbEntity
  8
0
100
AcDbLine
 62
2
  6
CONTINUOUS
 10
17.1937676111
 20
2.4268270689
 11
17.1866506072
 21
2.4156100627
  0
ARC
  5
2AF
100
AcDbEntity
  8
0
100
AcDbCircle
 62
2
  6
CONTINUOUS
 10
17.188740499
 20
2.4142841006
 40
0.0024750401
100
AcDbArc
 50
147.6063258012
 51
270.0025305754
  0
LINE
  5
2B0
100
AcDbEntity
  8
0
100
AcDbLine
 62
2
  6
CONTINUOUS
 10
17.1887406083
 20
2.4118090605
 11
17.2092976197
 21
2.4118090605
  0
ARC
  5
2B1
100
AcDbEntity
  8
0
100
AcDbCircle
 62
2
  6
CONTINUOUS
 10
17.2092975986
 20
2.4142842677
 40
0.0024752071
100
AcDbArc
 50
270.0004896793
 51
32.9089806818
  0
LINE
  5
2B2
100
AcDbEntity
  8
0
100
AcDbLine
 62
2
  6
CONTINUOUS
 10
17.2113756209
 20
2.4156290627
 11
17.2041166169
 21
2.4268450689
  0
ARC
  5
2B3
100
AcDbEntity
  8
0
100
AcDbCircle
 62
2
  6
CONTINUOUS
 10
17.2020380761
 20
2.4255006094
 40
0.0024754602
100
AcDbArc
 50
32.8959418573
 51
89.9875097202
  0
LINE
  5
2B4
100
AcDbEntity
  8
0
100
AcDbLine
 62
2
  6
CONTINUOUS
 10
17.2020386157
 20
2.4279760695
 11
17.1958576123
 21
2.4279760695
  0
ARC
  5
2B5
100
AcDbEntity
  8
0
100
AcDbCircle
 62
2
  6
CONTINUOUS
 10
17.195857542
 20
2.4255008692
 40
0.0024752003
100
AcDbArc
 50
89.998372645
 51
147.602165307
  0
LINE
  5
2B6
100
AcDbEntity
  8
0
100
AcDbLine
 62
2
  6
CONTINUOUS
 10
17.2171806241
 20
2.3897280483
 11
17.2228066272
 21
2.3810350435
  0
ARC
  5
2B7
100
AcDbEntity
  8
0
100
AcDbCircle
 62
2
  6
CONTINUOUS
 10
17.2207286049
 20
2.3796902485
 40
0.0024752071
100
AcDbArc
 50
270.0004896793
 51
32.9089806818
  0
LINE
  5
2B8
100
AcDbEntity
  8
0
100
AcDbLine
 62
2
  6
CONTINUOUS
 10
17.2207286261
 20
2.3772150414
 11
17.2062776181
 21
2.3772150414
  0
ARC
  5
2B9
100
AcDbEntity
  8
0
100
AcDbCircle
 62
2
  6
CONTINUOUS
 10
17.2062776162
 20
2.3747400418
 40
0.0024749995
100
AcDbArc
 50
89.9999571957
 51
180.0000428043
  0
LINE
  5
2BA
100
AcDbEntity
  8
0
100
AcDbLine
 62
2
  6
CONTINUOUS
 10
17.2038026167
 20
2.37474004
 11
17.2038026167
 21
2.354940029
  0
ARC
  5
2BB
100
AcDbEntity
  8
0
100
AcDbCircle
 62
2
  6
CONTINUOUS
 10
17.2062776162
 20
2.3549400272
 40
0.0024749995
100
AcDbArc
 50
179.9999571957
 51
270.0000428043
  0
LINE
  5
2BC
100
AcDbEntity
  8
0
100
AcDbLine
 62
2
  6
CONTINUOUS
 10
17.2062776181
 20
2.3524650276
 11
17.3115586765
 21
2.3524650276
  0
ARC
  5
2BD
100
AcDbEntity
  8
0
100
AcDbCircle
 62
2
  6
CONTINUOUS
 10
17.3115586783
 20
2.3549400272
 40
0.0024749995
100
AcDbArc
 50
269.9999571957
 51
0.0000428043
  0
LINE
  5
2BE
100
AcDbEntity
  8
0
100
AcDbLine
 62
2
  6
CONTINUOUS
 10
17.3140336778
 20
2.354940029
 11
17.3140336778
 21
2.37474004
  0
ARC
  5
2BF
100
AcDbEntity
  8
0
100
AcDbCircle
 62
2
  6
CONTINUOUS
 10
17.3115586783
 20
2.3747400418
 40
0.0024749995
100
AcDbArc
 50
359.9999571957
 51
90.0000428043
  0
LINE
  5
2C0
100
AcDbEntity
  8
0
100
AcDbLine
 62
2
  6
CONTINUOUS
 10
17.3115586765
 20
2.3772150414
 11
17.2915426654
 21
2.3772150414
  0
ARC
  5
2C1
100
AcDbEntity
  8
0
100
AcDbCircle
 62
2
  6
CONTINUOUS
 10
17.2915427859
 20
2.3796890824
 40
0.002474041
100
AcDbArc
 50
212.9056413127
 51
269.9972091756
  0
LINE
  5
2C2
100
AcDbEntity
  8
0
100
AcDbLine
 62
2
  6
CONTINUOUS
 10
17.2894656642
 20
2.378345042
 11
17.2417096377
 21
2.4521400829
  0
ARC
  5
2C3
100
AcDbEntity
  8
0
100
AcDbCircle
 62
2
  6
CONTINUOUS
 10
17.2396320161
 20
2.4507951234
 40
0.0024749602
100
AcDbArc
 50
32.9172174468
 51
90.0087853097
  0
LINE
  5
2C4
100
AcDbEntity
  8
0
100
AcDbLine
 62
2
  6
CONTINUOUS
 10
17.2396316366
 20
2.4532700835
 11
17.1824566049
 21
2.4532700835
  0
ARC
  5
2C5
100
AcDbEntity
  8
0
100
AcDbCircle
 62
2
  6
CONTINUOUS
 10
17.1824565346
 20
2.4507948832
 40
0.0024752003
100
AcDbArc
 50
89.998372645
 51
147.602165307
  0
LINE
  5
2C6
100
AcDbEntity
  8
0
100
AcDbLine
 62
2
  6
CONTINUOUS
 10
17.1803666037
 20
2.4521210829
 11
17.1335665777
 21
2.378364042
  0
ARC
  5
2C7
100
AcDbEntity
  8
0
100
AcDbCircle
 62
2
  6
CONTINUOUS
 10
17.1314766469
 20
2.3796902417
 40
0.0024752003
100
AcDbArc
 50
269.998372645
 51
327.602165307
  0
LINE
  5
2C8
100
AcDbEntity
  8
0
100
AcDbLine
 62
2
  6
CONTINUOUS
 10
17.1314765766
 20
2.3772150414
 11
17.1086155639
 21
2.3772150414
  0
ARC
  5
2C9
100
AcDbEntity
  8
0
100
AcDbCircle
 62
2
  6
CONTINUOUS
 10
17.1086155621
 20
2.3747400418
 40
0.0024749995
100
AcDbArc
 50
89.9999571957
 51
180.0000428043
  0
LINE
  5
2CA
100
AcDbEntity
  8
0
100
AcDbLine
 62
2
  6
CONTINUOUS
 10
17.1061405625
 20
2.37474004
 11
17.1061405625
 21
2.354940029
  0
ARC
  5
2CB
100
AcDbEntity
  8
0
100
AcDbCircle
 62
2
  6
CONTINUOUS
 10
17.1086155621
 20
2.3549400272
 40
0.0024749995
100
AcDbArc
 50
179.9999571957
 51
270.0000428043
  0
LINE
  5
2CC
100
AcDbEntity
  8
0
100
AcDbLine
 62
2
  6
CONTINUOUS
 10
17.1086155639
 20
2.3524650276
 11
17.1859916068
 21
2.3524650276
  0
ARC
  5
2CD
100
AcDbEntity
  8
0
100
AcDbCircle
 62
2
  6
CONTINUOUS
 10
17.1859916087
 20
2.3549400272
 40
0.0024749995
100
AcDbArc
 50
269.9999571957
 51
0.0000428043
  0
LINE
  5
2CE
100
AcDbEntity
  8
0
100
AcDbLine
 62
2
  6
CONTINUOUS
 10
17.1884666082
 20
2.354940029
 11
17.1884666082
 21
2.37474004
  0
ARC
  5
2CF
100
AcDbEntity
  8
0
100
AcDbCircle
 62
2
  6
CONTINUOUS
 10
17.1859916087
 20
2.3747400418
 40
0.0024749995
100
AcDbArc
 50
359.9999571957
 51
90.0000428043
  0
LINE
  5
2D0
100
AcDbEntity
  8
0
100
AcDbLine
 62
2
  6
CONTINUOUS
 10
17.1859916068
 20
2.3772150414
 11
17.1747086006
 21
2.3772150414
  0
ARC
  5
2D1
100
AcDbEntity
  8
0
100
AcDbCircle
 62
2
  6
CONTINUOUS
 10
17.1747084912
 20
2.3796900814
 40
0.0024750401
100
AcDbArc
 50
147.6063258011
 51
270.0025305754
  0
LINE
  5
2D2
100
AcDbEntity
  8
0
100
AcDbLine
 62
2
  6
CONTINUOUS
 10
17.1726185994
 20
2.3810160435
 11
17.1781346025
 21
2.3897100483
  0
ARC
  5
2D3
100
AcDbEntity
  8
0
100
AcDbCircle
 62
2
  6
CONTINUOUS
 10
17.1802245333
 20
2.3883838486
 40
0.0024752003
100
AcDbArc
 50
89.998372645
 51
147.602165307
  0
LINE
  5
2D4
100
AcDbEntity
  8
0
100
AcDbLine
 62
2
  6
CONTINUOUS
 10
17.1802246036
 20
2.3908590489
 11
17.215102623
 21
2.3908590489
  0
ARC
  5
2D5
100
AcDbEntity
  8
0
100
AcDbCircle
 62
2
  6
CONTINUOUS
 10
17.2151020833
 20
2.3883835888
 40
0.0024754602
100
AcDbArc
 50
32.8959418573
 51
89.9875097202
  0
LINE
  5
2D6
100
AcDbEntity
  8
0
100
AcDbLine
 62
2
  6
CONTINUOUS
 10
17.5897208307
 20
2.4532700835
 11
17.6901788864
 21
2.4532700835
  0
ARC
  5
2D7
100
AcDbEntity
  8
0
100
AcDbCircle
 62
2
  6
CONTINUOUS
 10
17.6901790212
 20
2.4507959157
 40
0.0024741678
100
AcDbArc
 50
46.3477981899
 51
90.0031206038
  0
LINE
  5
2D8
100
AcDbEntity
  8
0
100
AcDbLine
 62
2
  6
CONTINUOUS
 10
17.6918868874
 20
2.4525860832
 11
17.7519199207
 21
2.3953060514
  0
ARC
  5
2D9
100
AcDbEntity
  8
0
100
AcDbCircle
 62
2
  6
CONTINUOUS
 10
17.7536286216
 20
2.3970969891
 40
0.0024753014
100
AcDbArc
 50
226.3461263059
 51
0.0014637321
  0
LINE
  5
2DA
100
AcDbEntity
  8
0
100
AcDbLine
 62
2
  6
CONTINUOUS
 10
17.756103923
 20
2.3970970524
 11
17.756103923
 21
2.4260450684
  0
ARC
  5
2DB
100
AcDbEntity
  8
0
100
AcDbCircle
 62
2
  6
CONTINUOUS
 10
17.7536289235
 20
2.4260450703
 40
0.0024749995
100
AcDbArc
 50
359.9999571957
 51
90.0000428043
  0
LINE
  5
2DC
100
AcDbEntity
  8
0
100
AcDbLine
 62
2
  6
CONTINUOUS
 10
17.7536289216
 20
2.4285200698
 11
17.7348529112
 21
2.4285200698
  0
ARC
  5
2DD
100
AcDbEntity
  8
0
100
AcDbCircle
 62
2
  6
CONTINUOUS
 10
17.7348529093
 20
2.4309950693
 40
0.0024749995
100
AcDbArc
 50
179.9999571957
 51
270.0000428043
  0
LINE
  5
2DE
100
AcDbEntity
  8
0
100
AcDbLine
 62
2
  6
CONTINUOUS
 10
17.7323779098
 20
2.4309950712
 11
17.7323779098
 21
2.4507950822
  0
ARC
  5
2DF
100
AcDbEntity
  8
0
100
AcDbCircle
 62
2
  6
CONTINUOUS
 10
17.7348529093
 20
2.450795084
 40
0.0024749995
100
AcDbArc
 50
89.9999571957
 51
180.0000428043
  0
LINE
  5
2E0
100
AcDbEntity
  8
0
100
AcDbLine
 62
2
  6
CONTINUOUS
 10
17.7348529112
 20
2.4532700835
 11
17.8088539522
 21
2.4532700835
  0
ARC
  5
2E1
100
AcDbEntity
  8
0
100
AcDbCircle
 62
2
  6
CONTINUOUS
 10
17.8088539541
 20
2.450795084
 40
0.0024749995
100
AcDbArc
 50
359.9999571957
 51
90.0000428043
  0
LINE
  5
2E2
100
AcDbEntity
  8
0
100
AcDbLine
 62
2
  6
CONTINUOUS
 10
17.8113289536
 20
2.4507950822
 11
17.8113289536
 21
2.4309950712
  0
ARC
  5
2E3
100
AcDbEntity
  8
0
100
AcDbCircle
 62
2
  6
CONTINUOUS
 10
17.8088539541
 20
2.4309950693
 40
0.0024749995
100
AcDbArc
 50
269.9999571957
 51
0.0000428043
  0
LINE
  5
2E4
100
AcDbEntity
  8
0
100
AcDbLine
 62
2
  6
CONTINUOUS
 10
17.8088539522
 20
2.4285200698
 11
17.7909209423
 21
2.4285200698
  0
ARC
  5
2E5
100
AcDbEntity
  8
0
100
AcDbCircle
 62
2
  6
CONTINUOUS
 10
17.7909209404
 20
2.4260450703
 40
0.0024749995
100
AcDbArc
 50
89.9999571957
 51
180.0000428043
  0
LINE
  5
2E6
100
AcDbEntity
  8
0
100
AcDbLine
 62
2
  6
CONTINUOUS
 10
17.7884459409
 20
2.4260450684
 11
17.7884459409
 21
2.354940029
  0
ARC
  5
2E7
100
AcDbEntity
  8
0
100
AcDbCircle
 62
2
  6
CONTINUOUS
 10
17.7859709414
 20
2.3549400272
 40
0.0024749995
100
AcDbArc
 50
269.9999571957
 51
0.0000428043
  0
LINE
  5
2E8
100
AcDbEntity
  8
0
100
AcDbLine
 62
2
  6
CONTINUOUS
 10
17.7859709395
 20
2.3524650276
 11
17.7117648984
 21
2.3524650276
  0
ARC
  5
2E9
100
AcDbEntity
  8
0
100
AcDbCircle
 62
2
  6
CONTINUOUS
 10
17.7117647636
 20
2.3549391954
 40
0.0024741678
100
AcDbArc
 50
226.3477981898
 51
270.0031206038
  0
LINE
  5
2EA
100
AcDbEntity
  8
0
100
AcDbLine
 62
2
  6
CONTINUOUS
 10
17.7100568974
 20
2.353149028
 11
17.6467768624
 21
2.4135270615
  0
ARC
  5
2EB
100
AcDbEntity
  8
0
100
AcDbCircle
 62
2
  6
CONTINUOUS
 10
17.6450681614
 20
2.4117361237
 40
0.0024753014
100
AcDbArc
 50
46.3461263059
 51
180.0014637321
  0
LINE
  5
2EC
100
AcDbEntity
  8
0
100
AcDbLine
 62
2
  6
CONTINUOUS
 10
17.64259286
 20
2.4117360605
 11
17.64259286
 21
2.3796900427
  0
ARC
  5
2ED
100
AcDbEntity
  8
0
100
AcDbCircle
 62
2
  6
CONTINUOUS
 10
17.6450678596
 20
2.3796900409
 40
0.0024749995
100
AcDbArc
 50
179.9999571957
 51
270.0000428043
  0
LINE
  5
2EE
100
AcDbEntity
  8
0
100
AcDbLine
 62
2
  6
CONTINUOUS
 10
17.6450678614
 20
2.3772150414
 11
17.6653848727
 21
2.3772150414
  0
ARC
  5
2EF
100
AcDbEntity
  8
0
100
AcDbCircle
 62
2
  6
CONTINUOUS
 10
17.6653848745
 20
2.3747400418
 40
0.0024749995
100
AcDbArc
 50
359.9999571957
 51
90.0000428043
  0
LINE
  5
2F0
100
AcDbEntity
  8
0
100
AcDbLine
 62
2
  6
CONTINUOUS
 10
17.667859874
 20
2.37474004
 11
17.667859874
 21
2.354940029
  0
ARC
  5
2F1
100
AcDbEntity
  8
0
100
AcDbCircle
 62
2
  6
CONTINUOUS
 10
17.6653848745
 20
2.3549400272
 40
0.0024749995
100
AcDbArc
 50
269.9999571957
 51
0.0000428043
  0
LINE
  5
2F2
100
AcDbEntity
  8
0
100
AcDbLine
 62
2
  6
CONTINUOUS
 10
17.6653848727
 20
2.3524650276
 11
17.5897208307
 21
2.3524650276
  0
ARC
  5
2F3
100
AcDbEntity
  8
0
100
AcDbCircle
 62
2
  6
CONTINUOUS
 10
17.5897208289
 20
2.3549400272
 40
0.0024749995
100
AcDbArc
 50
179.9999571957
 51
270.0000428043
  0
LINE
  5
2F4
100
AcDbEntity
  8
0
100
AcDbLine
 62
2
  6
CONTINUOUS
 10
17.5872458293
 20
2.354940029
 11
17.5872458293
 21
2.37474004
  0
ARC
  5
2F5
100
AcDbEntity
  8
0
100
AcDbCircle
 62
2
  6
CONTINUOUS
 10
17.5897208289
 20
2.3747400418
 40
0.0024749995
100
AcDbArc
 50
89.9999571957
 51
180.0000428043
  0
LINE
  5
2F6
100
AcDbEntity
  8
0
100
AcDbLine
 62
2
  6
CONTINUOUS
 10
17.5897208307
 20
2.3772150414
 11
17.6083668411
 21
2.3772150414
  0
ARC
  5
2F7
100
AcDbEntity
  8
0
100
AcDbCircle
 62
2
  6
CONTINUOUS
 10
17.6083668429
 20
2.3796900409
 40
0.0024749995
100
AcDbArc
 50
269.9999571957
 51
0.0000428043
  0
LINE
  5
2F8
100
AcDbEntity
  8
0
100
AcDbLine
 62
2
  6
CONTINUOUS
 10
17.6108418424
 20
2.3796900427
 11
17.6108418424
 21
2.4260450684
  0
ARC
  5
2F9
100
AcDbEntity
  8
0
100
AcDbCircle
 62
2
  6
CONTINUOUS
 10
17.6083668429
 20
2.4260450703
 40
0.0024749995
100
AcDbArc
 50
359.9999571957
 51
90.0000428043
  0
LINE
  5
2FA
100
AcDbEntity
  8
0
100
AcDbLine
 62
2
  6
CONTINUOUS
 10
17.6083668411
 20
2.4285200698
 11
17.5897208307
 21
2.4285200698
  0
ARC
  5
2FB
100
AcDbEntity
  8
0
100
AcDbCircle
 62
2
  6
CONTINUOUS
 10
17.5897208289
 20
2.4309950693
 40
0.0024749995
100
AcDbArc
 50
179.9999571957
 51
270.0000428043
  0
LINE
  5
2FC
100
AcDbEntity
  8
0
100
AcDbLine
 62
2
  6
CONTINUOUS
 10
17.5872458293
 20
2.4309950712
 11
17.5872458293
 21
2.4507950822
  0
ARC
  5
2FD
100
AcDbEntity
  8
0
100
AcDbCircle
 62
2
  6
CONTINUOUS
 10
17.5897208289
 20
2.450795084
 40
0.0024749995
100
AcDbArc
 50
89.9999571957
 51
180.0000428043
  0
LINE
  5
2FE
100
AcDbEntity
  8
0
100
AcDbLine
 62
2
  6
CONTINUOUS
 10
17.9625500375
 20
2.3937150505
 11
17.927383018
 21
2.3937150505
  0
ARC
  5
2FF
100
AcDbEntity
  8
0
100
AcDbCircle
 62
2
  6
CONTINUOUS
 10
17.9273830161
 20
2.391240051
 40
0.0024749995
100
AcDbArc
 50
89.9999571957
 51
180.0000428043
  0
LINE
  5
300
100
AcDbEntity
  8
0
100
AcDbLine
 62
2
  6
CONTINUOUS
 10
17.9249080166
 20
2.3912400491
 11
17.9249080166
 21
2.3796900427
  0
ARC
  5
301
100
AcDbEntity
  8
0
100
AcDbCircle
 62
2
  6
CONTINUOUS
 10
17.9273830161
 20
2.3796900409
 40
0.0024749995
100
AcDbArc
 50
179.9999571957
 51
270.0000428043
  0
LINE
  5
302
100
AcDbEntity
  8
0
100
AcDbLine
 62
2
  6
CONTINUOUS
 10
17.927383018
 20
2.3772150414
 11
17.992387054
 21
2.3772150414
  0
ARC
  5
303
100
AcDbEntity
  8
0
100
AcDbCircle
 62
2
  6
CONTINUOUS
 10
17.9923870559
 20
2.3796900409
 40
0.0024749995
100
AcDbArc
 50
269.9999571957
 51
0.0000428043
  0
LINE
  5
304
100
AcDbEntity
  8
0
100
AcDbLine
 62
2
  6
CONTINUOUS
 10
17.9948620554
 20
2.3796900427
 11
17.9948620554
 21
2.3879400473
  0
ARC
  5
305
100
AcDbEntity
  8
0
100
AcDbCircle
 62
2
  6
CONTINUOUS
 10
17.9973370549
 20
2.3879400492
 40
0.0024749995
100
AcDbArc
 50
89.9999571957
 51
180.0000428043
  0
LINE
  5
306
100
AcDbEntity
  8
0
100
AcDbLine
 62
2
  6
CONTINUOUS
 10
17.9973370568
 20
2.3904150487
 11
18.0396560802
 21
2.3904150487
  0
ARC
  5
307
100
AcDbEntity
  8
0
100
AcDbCircle
 62
2
  6
CONTINUOUS
 10
18.0396560821
 20
2.3879400492
 40
0.0024749995
100
AcDbArc
 50
359.9999571957
 51
90.0000428043
  0
LINE
  5
308
100
AcDbEntity
  8
0
100
AcDbLine
 62
2
  6
CONTINUOUS
 10
18.0421310816
 20
2.3879400473
 11
18.0421310816
 21
2.354940029
  0
ARC
  5
309
100
AcDbEntity
  8
0
100
AcDbCircle
 62
2
  6
CONTINUOUS
 10
18.0396560821
 20
2.3549400272
 40
0.0024749995
100
AcDbArc
 50
269.9999571957
 51
0.0000428043
  0
LINE
  5
30A
100
AcDbEntity
  8
0
100
AcDbLine
 62
2
  6
CONTINUOUS
 10
18.0396560802
 20
2.3524650276
 11
17.8364439675
 21
2.3524650276
  0
ARC
  5
30B
100
AcDbEntity
  8
0
100
AcDbCircle
 62
2
  6
CONTINUOUS
 10
17.8364439657
 20
2.3549400272
 40
0.0024749995
100
AcDbArc
 50
179.9999571957
 51
270.0000428043
  0
LINE
  5
30C
100
AcDbEntity
  8
0
100
AcDbLine
 62
2
  6
CONTINUOUS
 10
17.8339689662
 20
2.354940029
 11
17.8339689662
 21
2.37474004
  0
ARC
  5
30D
100
AcDbEntity
  8
0
100
AcDbCircle
 62
2
  6
CONTINUOUS
 10
17.8364439657
 20
2.3747400418
 40
0.0024749995
100
AcDbArc
 50
89.9999571957
 51
180.0000428043
  0
LINE
  5
30E
100
AcDbEntity
  8
0
100
AcDbLine
 62
2
  6
CONTINUOUS
 10
17.8364439675
 20
2.3772150414
 11
17.8603669808
 21
2.3772150414
  0
ARC
  5
30F
100
AcDbEntity
  8
0
100
AcDbCircle
 62
2
  6
CONTINUOUS
 10
17.8603669827
 20
2.3796900409
 40
0.0024749995
100
AcDbArc
 50
269.9999571956
 51
0.0000428042
  0
LINE
  5
310
100
AcDbEntity
  8
0
100
AcDbLine
 62
2
  6
CONTINUOUS
 10
17.8628419822
 20
2.3796900427
 11
17.8628419822
 21
2.4260450684
  0
ARC
  5
311
100
AcDbEntity
  8
0
100
AcDbCircle
 62
2
  6
CONTINUOUS
 10
17.8603669827
 20
2.4260450703
 40
0.0024749995
100
AcDbArc
 50
359.9999571957
 51
90.0000428043
  0
LINE
  5
312
100
AcDbEntity
  8
0
100
AcDbLine
 62
2
  6
CONTINUOUS
 10
17.8603669808
 20
2.4285200698
 11
17.8364439675
 21
2.4285200698
  0
ARC
  5
313
100
AcDbEntity
  8
0
100
AcDbCircle
 62
2
  6
CONTINUOUS
 10
17.8364439657
 20
2.4309950693
 40
0.0024749995
100
AcDbArc
 50
179.9999571957
 51
270.0000428043
  0
LINE
  5
314
100
AcDbEntity
  8
0
100
AcDbLine
 62
2
  6
CONTINUOUS
 10
17.8339689662
 20
2.4309950712
 11
17.8339689662
 21
2.4507950822
  0
ARC
  5
315
100
AcDbEntity
  8
0
100
AcDbCircle
 62
2
  6
CONTINUOUS
 10
17.8364439657
 20
2.450795084
 40
0.0024749995
100
AcDbArc
 50
89.9999571957
 51
180.0000428043
  0
LINE
  5
316
100
AcDbEntity
  8
0
100
AcDbLine
 62
2
  6
CONTINUOUS
 10
17.8364439675
 20
2.4532700835
 11
18.0382370794
 21
2.4532700835
  0
ARC
  5
317
100
AcDbEntity
  8
0
100
AcDbCircle
 62
2
  6
CONTINUOUS
 10
18.0382370813
 20
2.450795084
 40
0.0024749995
100
AcDbArc
 50
359.9999571957
 51
90.0000428043
  0
LINE
  5
318
100
AcDbEntity
  8
0
100
AcDbLine
 62
2
  6
CONTINUOUS
 10
18.0407120808
 20
2.4507950822
 11
18.0407120808
 21
2.4177950639
  0
ARC
  5
319
100
AcDbEntity
  8
0
100
AcDbCircle
 62
2
  6
CONTINUOUS
 10
18.0382370813
 20
2.417795062
 40
0.0024749995
100
AcDbArc
 50
269.9999571957
 51
0.0000428043
  0
LINE
  5
31A
100
AcDbEntity
  8
0
100
AcDbLine
 62
2
  6
CONTINUOUS
 10
18.0382370794
 20
2.4153200625
 11
17.9963730562
 21
2.4153200625
  0
ARC
  5
31B
100
AcDbEntity
  8
0
100
AcDbCircle
 62
2
  6
CONTINUOUS
 10
17.9963730544
 20
2.417795062
 40
0.0024749995
100
AcDbArc
 50
179.9999571957
 51
270.0000428043
  0
LINE
  5
31C
100
AcDbEntity
  8
0
100
AcDbLine
 62
2
  6
CONTINUOUS
 10
17.9938980549
 20
2.4177950639
 11
17.9938980549
 21
2.4260450684
  0
ARC
  5
31D
100
AcDbEntity
  8
0
100
AcDbCircle
 62
2
  6
CONTINUOUS
 10
17.9914230553
 20
2.4260450703
 40
0.0024749995
100
AcDbArc
 50
359.9999571957
 51
90.0000428043
  0
LINE
  5
31E
100
AcDbEntity
  8
0
100
AcDbLine
 62
2
  6
CONTINUOUS
 10
17.9914230535
 20
2.4285200698
 11
17.927383018
 21
2.4285200698
  0
ARC
  5
31F
100
AcDbEntity
  8
0
100
AcDbCircle
 62
2
  6
CONTINUOUS
 10
17.9273830161
 20
2.4260450703
 40
0.0024749995
100
AcDbArc
 50
89.9999571957
 51
180.0000428043
  0
LINE
  5
320
100
AcDbEntity
  8
0
100
AcDbLine
 62
2
  6
CONTINUOUS
 10
17.9249080166
 20
2.4260450684
 11
17.9249080166
 21
2.414495062
  0
ARC
  5
321
100
AcDbEntity
  8
0
100
AcDbCircle
 62
2
  6
CONTINUOUS
 10
17.9273830161
 20
2.4144950602
 40
0.0024749995
100
AcDbArc
 50
179.9999571957
 51
270.0000428043
  0
LINE
  5
322
100
AcDbEntity
  8
0
100
AcDbLine
 62
2
  6
CONTINUOUS
 10
17.927383018
 20
2.4120200607
 11
17.9625500375
 21
2.4120200607
  0
ARC
  5
323
100
AcDbEntity
  8
0
100
AcDbCircle
 62
2
  6
CONTINUOUS
 10
17.9625500393
 20
2.4095450611
 40
0.0024749995
100
AcDbArc
 50
359.9999571957
 51
90.0000428043
  0
LINE
  5
324
100
AcDbEntity
  8
0
100
AcDbLine
 62
2
  6
CONTINUOUS
 10
17.9650250388
 20
2.4095450593
 11
17.9650250388
 21
2.3961900519
  0
ARC
  5
325
100
AcDbEntity
  8
0
100
AcDbCircle
 62
2
  6
CONTINUOUS
 10
17.9625500393
 20
2.39619005
 40
0.0024749995
100
AcDbArc
 50
269.9999571956
 51
0.0000428042
  0
LINE
  5
326
100
AcDbEntity
  8
0
100
AcDbLine
 62
2
  6
CONTINUOUS
 10
18.39781452
 20
2.3963074516
 11
18.39781452
 21
2.4069246582
  0
LINE
  5
327
100
AcDbEntity
  8
0
100
AcDbLine
 62
2
  6
CONTINUOUS
 10
18.3778145089
 20
2.3616679219
 11
18.3778145089
 21
2.4415641879
  0
LINE
  5
328
100
AcDbEntity
  8
0
100
AcDbLine
 62
2
  6
CONTINUOUS
 10
18.3578144978
 20
2.345629656
 11
18.3578144978
 21
2.4576024538
  0
LINE
  5
329
100
AcDbEntity
  8
0
100
AcDbLine
 62
2
  6
CONTINUOUS
 10
18.3378144867
 20
2.3338395042
 11
18.3378144867
 21
2.4693926055
  0
LINE
  5
32A
100
AcDbEntity
  8
0
100
AcDbLine
 62
2
  6
CONTINUOUS
 10
18.3178144756
 20
2.3240439832
 11
18.3178144756
 21
2.4791881266
  0
LINE
  5
32B
100
AcDbEntity
  8
0
100
AcDbLine
 62
2
  6
CONTINUOUS
 10
18.2978144645
 20
2.3153630651
 11
18.2978144645
 21
2.36748602
  0
LINE
  5
32C
100
AcDbEntity
  8
0
100
AcDbLine
 62
2
  6
CONTINUOUS
 10
18.2978144645
 20
2.3913520492
 11
18.2978144645
 21
2.4878690447
  0
LINE
  5
32D
100
AcDbEntity
  8
0
100
AcDbLine
 62
2
  6
CONTINUOUS
 10
18.2778144535
 20
2.3077915047
 11
18.2778144535
 21
2.3531152062
  0
LINE
  5
32E
100
AcDbEntity
  8
0
100
AcDbLine
 62
2
  6
CONTINUOUS
 10
18.2778144535
 20
2.3778158317
 11
18.2778144535
 21
2.4954406051
  0
LINE
  5
32F
100
AcDbEntity
  8
0
100
AcDbLine
 62
2
  6
CONTINUOUS
 10
18.2578144424
 20
2.301041061
 11
18.2578144424
 21
2.3524650276
  0
LINE
  5
330
100
AcDbEntity
  8
0
100
AcDbLine
 62
2
  6
CONTINUOUS
 10
18.2578144424
 20
2.4004217989
 11
18.2578144424
 21
2.4066675471
  0
LINE
  5
331
100
AcDbEntity
  8
0
100
AcDbLine
 62
2
  6
CONTINUOUS
 10
18.2578144424
 20
2.4474440616
 11
18.2578144424
 21
2.5021910487
  0
LINE
  5
332
100
AcDbEntity
  8
0
100
AcDbLine
 62
2
  6
CONTINUOUS
 10
18.2378144313
 20
2.2947079333
 11
18.2378144313
 21
2.3524650276
  0
LINE
  5
333
100
AcDbEntity
  8
0
100
AcDbLine
 62
2
  6
CONTINUOUS
 10
18.2378144313
 20
2.4518964909
 11
18.2378144313
 21
2.5085241764
  0
LINE
  5
334
100
AcDbEntity
  8
0
100
AcDbLine
 62
2
  6
CONTINUOUS
 10
18.2178144202
 20
2.2891345268
 11
18.2178144202
 21
2.354983815
  0
LINE
  5
335
100
AcDbEntity
  8
0
100
AcDbLine
 62
2
  6
CONTINUOUS
 10
18.2178144202
 20
2.4532700835
 11
18.2178144202
 21
2.514097583
  0
LINE
  5
336
100
AcDbEntity
  8
0
100
AcDbLine
 62
2
  6
CONTINUOUS
 10
18.1978144091
 20
2.2837804818
 11
18.1978144091
 21
2.3882804137
  0
LINE
  5
337
100
AcDbEntity
  8
0
100
AcDbLine
 62
2
  6
CONTINUOUS
 10
18.1978144091
 20
2.4117543403
 11
18.1978144091
 21
2.4281034235
  0
LINE
  5
338
100
AcDbEntity
  8
0
100
AcDbLine
 62
2
  6
CONTINUOUS
 10
18.1978144091
 20
2.4532700835
 11
18.1978144091
 21
2.519451628
  0
LINE
  5
339
100
AcDbEntity
  8
0
100
AcDbLine
 62
2
  6
CONTINUOUS
 10
18.177814398
 20
2.2789683935
 11
18.177814398
 21
2.3524650276
  0
LINE
  5
33A
100
AcDbEntity
  8
0
100
AcDbLine
 62
2
  6
CONTINUOUS
 10
18.177814398
 20
2.3771930413
 11
18.177814398
 21
2.3918420495
  0
LINE
  5
33B
100
AcDbEntity
  8
0
100
AcDbLine
 62
2
  6
CONTINUOUS
 10
18.177814398
 20
2.41084506
 11
18.177814398
 21
2.4285200698
  0
LINE
  5
33C
100
AcDbEntity
  8
0
100
AcDbLine
 62
2
  6
CONTINUOUS
 10
18.177814398
 20
2.4532700835
 11
18.177814398
 21
2.5242637163
  0
LINE
  5
33D
100
AcDbEntity
  8
0
100
AcDbLine
 62
2
  6
CONTINUOUS
 10
18.1578143869
 20
2.2744172398
 11
18.1578143869
 21
2.3524650276
  0
LINE
  5
33E
100
AcDbEntity
  8
0
100
AcDbLine
 62
2
  6
CONTINUOUS
 10
18.1578143869
 20
2.3771930413
 11
18.1578143869
 21
2.3918420495
  0
LINE
  5
33F
100
AcDbEntity
  8
0
100
AcDbLine
 62
2
  6
CONTINUOUS
 10
18.1578143869
 20
2.41084506
 11
18.1578143869
 21
2.4285200698
  0
LINE
  5
340
100
AcDbEntity
  8
0
100
AcDbLine
 62
2
  6
CONTINUOUS
 10
18.1578143869
 20
2.4532700835
 11
18.1578143869
 21
2.5288148699
  0
LINE
  5
341
100
AcDbEntity
  8
0
100
AcDbLine
 62
2
  6
CONTINUOUS
 10
18.1378143758
 20
2.2701196816
 11
18.1378143758
 21
2.3524650276
  0
LINE
  5
342
100
AcDbEntity
  8
0
100
AcDbLine
 62
2
  6
CONTINUOUS
 10
18.1378143758
 20
2.4532700835
 11
18.1378143758
 21
2.5331124282
  0
LINE
  5
343
100
AcDbEntity
  8
0
100
AcDbLine
 62
2
  6
CONTINUOUS
 10
18.1178143647
 20
2.2662469216
 11
18.1178143647
 21
2.3524650276
  0
LINE
  5
344
100
AcDbEntity
  8
0
100
AcDbLine
 62
2
  6
CONTINUOUS
 10
18.1178143647
 20
2.4532700835
 11
18.1178143647
 21
2.5369851882
  0
LINE
  5
345
100
AcDbEntity
  8
0
100
AcDbLine
 62
2
  6
CONTINUOUS
 10
18.0978143536
 20
2.2623741615
 11
18.0978143536
 21
2.3524650276
  0
LINE
  5
346
100
AcDbEntity
  8
0
100
AcDbLine
 62
2
  6
CONTINUOUS
 10
18.0978143536
 20
2.4532700835
 11
18.0978143536
 21
2.5408579483
  0
LINE
  5
347
100
AcDbEntity
  8
0
100
AcDbLine
 62
2
  6
CONTINUOUS
 10
18.0778143425
 20
2.2592603806
 11
18.0778143425
 21
2.3524650276
  0
LINE
  5
348
100
AcDbEntity
  8
0
100
AcDbLine
 62
2
  6
CONTINUOUS
 10
18.0778143425
 20
2.3772150414
 11
18.0778143425
 21
2.4285200698
  0
LINE
  5
349
100
AcDbEntity
  8
0
100
AcDbLine
 62
2
  6
CONTINUOUS
 10
18.0778143425
 20
2.4532700835
 11
18.0778143425
 21
2.5439717292
  0
LINE
  5
34A
100
AcDbEntity
  8
0
100
AcDbLine
 62
2
  6
CONTINUOUS
 10
18.0578143315
 20
2.2562429918
 11
18.0578143315
 21
2.546989118
  0
LINE
  5
34B
100
AcDbEntity
  8
0
100
AcDbLine
 62
2
  6
CONTINUOUS
 10
18.0378143204
 20
2.2532256029
 11
18.0378143204
 21
2.3524650276
  0
LINE
  5
34C
100
AcDbEntity
  8
0
100
AcDbLine
 62
2
  6
CONTINUOUS
 10
18.0378143204
 20
2.3904150487
 11
18.0378143204
 21
2.4153200625
  0
LINE
  5
34D
100
AcDbEntity
  8
0
100
AcDbLine
 62
2
  6
CONTINUOUS
 10
18.0378143204
 20
2.4532700835
 11
18.0378143204
 21
2.5500065068
  0
LINE
  5
34E
100
AcDbEntity
  8
0
100
AcDbLine
 62
2
  6
CONTINUOUS
 10
18.0178143093
 20
2.2502082141
 11
18.0178143093
 21
2.3524650276
  0
LINE
  5
34F
100
AcDbEntity
  8
0
100
AcDbLine
 62
2
  6
CONTINUOUS
 10
18.0178143093
 20
2.3904150487
 11
18.0178143093
 21
2.4153200625
  0
LINE
  5
350
100
AcDbEntity
  8
0
100
AcDbLine
 62
2
  6
CONTINUOUS
 10
18.0178143093
 20
2.4532700835
 11
18.0178143093
 21
2.5530238957
  0
LINE
  5
351
100
AcDbEntity
  8
0
100
AcDbLine
 62
2
  6
CONTINUOUS
 10
17.9978142982
 20
2.2471908253
 11
17.9978142982
 21
2.3524650276
  0
LINE
  5
352
100
AcDbEntity
  8
0
100
AcDbLine
 62
2
  6
CONTINUOUS
 10
17.9978142982
 20
2.3904150487
 11
17.9978142982
 21
2.4153200625
  0
LINE
  5
353
100
AcDbEntity
  8
0
100
AcDbLine
 62
2
  6
CONTINUOUS
 10
17.9978142982
 20
2.4532700835
 11
17.9978142982
 21
2.5560412845
  0
LINE
  5
354
100
AcDbEntity
  8
0
100
AcDbLine
 62
2
  6
CONTINUOUS
 10
17.9778142871
 20
2.2445732581
 11
17.9778142871
 21
2.3524650276
  0
LINE
  5
355
100
AcDbEntity
  8
0
100
AcDbLine
 62
2
  6
CONTINUOUS
 10
17.9778142871
 20
2.3772150414
 11
17.9778142871
 21
2.4285200698
  0
LINE
  5
356
100
AcDbEntity
  8
0
100
AcDbLine
 62
2
  6
CONTINUOUS
 10
17.9778142871
 20
2.4532700835
 11
17.9778142871
 21
2.5586588517
  0
LINE
  5
357
100
AcDbEntity
  8
0
100
AcDbLine
 62
2
  6
CONTINUOUS
 10
17.957814276
 20
2.2424989828
 11
17.957814276
 21
2.3524650276
  0
LINE
  5
358
100
AcDbEntity
  8
0
100
AcDbLine
 62
2
  6
CONTINUOUS
 10
17.957814276
 20
2.3772150414
 11
17.957814276
 21
2.3937150505
  0
LINE
  5
359
100
AcDbEntity
  8
0
100
AcDbLine
 62
2
  6
CONTINUOUS
 10
17.957814276
 20
2.4120200607
 11
17.957814276
 21
2.4285200698
  0
LINE
  5
35A
100
AcDbEntity
  8
0
100
AcDbLine
 62
2
  6
CONTINUOUS
 10
17.957814276
 20
2.4532700835
 11
17.957814276
 21
2.5607331269
  0
LINE
  5
35B
100
AcDbEntity
  8
0
100
AcDbLine
 62
2
  6
CONTINUOUS
 10
17.9378142649
 20
2.2404247076
 11
17.9378142649
 21
2.3524650276
  0
LINE
  5
35C
100
AcDbEntity
  8
0
100
AcDbLine
 62
2
  6
CONTINUOUS
 10
17.9378142649
 20
2.3772150414
 11
17.9378142649
 21
2.3937150505
  0
LINE
  5
35D
100
AcDbEntity
  8
0
100
AcDbLine
 62
2
  6
CONTINUOUS
 10
17.9378142649
 20
2.4120200607
 11
17.9378142649
 21
2.4285200698
  0
LINE
  5
35E
100
AcDbEntity
  8
0
100
AcDbLine
 62
2
  6
CONTINUOUS
 10
17.9378142649
 20
2.4532700835
 11
17.9378142649
 21
2.5628074022
  0
LINE
  5
35F
100
AcDbEntity
  8
0
100
AcDbLine
 62
2
  6
CONTINUOUS
 10
17.9178142538
 20
2.2383504324
 11
17.9178142538
 21
2.3524650276
  0
LINE
  5
360
100
AcDbEntity
  8
0
100
AcDbLine
 62
2
  6
CONTINUOUS
 10
17.9178142538
 20
2.4532700835
 11
17.9178142538
 21
2.5648816774
  0
LINE
  5
361
100
AcDbEntity
  8
0
100
AcDbLine
 62
2
  6
CONTINUOUS
 10
17.8978142427
 20
2.2362761572
 11
17.8978142427
 21
2.3524650276
  0
LINE
  5
362
100
AcDbEntity
  8
0
100
AcDbLine
 62
2
  6
CONTINUOUS
 10
17.8978142427
 20
2.4532700835
 11
17.8978142427
 21
2.5669559526
  0
LINE
  5
363
100
AcDbEntity
  8
0
100
AcDbLine
 62
2
  6
CONTINUOUS
 10
17.8778142316
 20
2.234201882
 11
17.8778142316
 21
2.3524650276
  0
LINE
  5
364
100
AcDbEntity
  8
0
100
AcDbLine
 62
2
  6
CONTINUOUS
 10
17.8778142316
 20
2.4532700835
 11
17.8778142316
 21
2.5690302278
  0
LINE
  5
365
100
AcDbEntity
  8
0
100
AcDbLine
 62
2
  6
CONTINUOUS
 10
17.8578142205
 20
2.23247216
 11
17.8578142205
 21
2.3524650276
  0
LINE
  5
366
100
AcDbEntity
  8
0
100
AcDbLine
 62
2
  6
CONTINUOUS
 10
17.8578142205
 20
2.3772150414
 11
17.8578142205
 21
2.4285200698
  0
LINE
  5
367
100
AcDbEntity
  8
0
100
AcDbLine
 62
2
  6
CONTINUOUS
 10
17.8578142205
 20
2.4532700835
 11
17.8578142205
 21
2.5707599498
  0
LINE
  5
368
100
AcDbEntity
  8
0
100
AcDbLine
 62
2
  6
CONTINUOUS
 10
17.8378142094
 20
2.2312059562
 11
17.8378142094
 21
2.3524650276
  0
LINE
  5
369
100
AcDbEntity
  8
0
100
AcDbLine
 62
2
  6
CONTINUOUS
 10
17.8378142094
 20
2.3772150414
 11
17.8378142094
 21
2.4285200698
  0
LINE
  5
36A
100
AcDbEntity
  8
0
100
AcDbLine
 62
2
  6
CONTINUOUS
 10
17.8378142094
 20
2.4532700835
 11
17.8378142094
 21
2.5720261536
  0
LINE
  5
36B
100
AcDbEntity
  8
0
100
AcDbLine
 62
2
  6
CONTINUOUS
 10
17.8178141984
 20
2.2299397525
 11
17.8178141984
 21
2.5732923573
  0
LINE
  5
36C
100
AcDbEntity
  8
0
100
AcDbLine
 62
2
  6
CONTINUOUS
 10
17.7978141873
 20
2.2286735487
 11
17.7978141873
 21
2.4285200698
  0
LINE
  5
36D
100
AcDbEntity
  8
0
100
AcDbLine
 62
2
  6
CONTINUOUS
 10
17.7978141873
 20
2.4532700835
 11
17.7978141873
 21
2.574558561
  0
LINE
  5
36E
100
AcDbEntity
  8
0
100
AcDbLine
 62
2
  6
CONTINUOUS
 10
17.7778141762
 20
2.227407345
 11
17.7778141762
 21
2.3524650276
  0
LINE
  5
36F
100
AcDbEntity
  8
0
100
AcDbLine
 62
2
  6
CONTINUOUS
 10
17.7778141762
 20
2.4532700835
 11
17.7778141762
 21
2.5758247648
  0
LINE
  5
370
100
AcDbEntity
  8
0
100
AcDbLine
 62
2
  6
CONTINUOUS
 10
17.7578141651
 20
2.2261411413
 11
17.7578141651
 21
2.3524650276
  0
LINE
  5
371
100
AcDbEntity
  8
0
100
AcDbLine
 62
2
  6
CONTINUOUS
 10
17.7578141651
 20
2.4532700835
 11
17.7578141651
 21
2.5770909685
  0
LINE
  5
372
100
AcDbEntity
  8
0
100
AcDbLine
 62
2
  6
CONTINUOUS
 10
17.737814154
 20
2.2249117066
 11
17.737814154
 21
2.3524650276
  0
LINE
  5
373
100
AcDbEntity
  8
0
100
AcDbLine
 62
2
  6
CONTINUOUS
 10
17.737814154
 20
2.4087649542
 11
17.737814154
 21
2.4285200698
  0
LINE
  5
374
100
AcDbEntity
  8
0
100
AcDbLine
 62
2
  6
CONTINUOUS
 10
17.737814154
 20
2.4532700835
 11
17.737814154
 21
2.5783204031
  0
LINE
  5
375
100
AcDbEntity
  8
0
100
AcDbLine
 62
2
  6
CONTINUOUS
 10
17.7178141429
 20
2.2243809174
 11
17.7178141429
 21
2.3524650276
  0
LINE
  5
376
100
AcDbEntity
  8
0
100
AcDbLine
 62
2
  6
CONTINUOUS
 10
17.7178141429
 20
2.4278478026
 11
17.7178141429
 21
2.5788511924
  0
LINE
  5
377
100
AcDbEntity
  8
0
100
AcDbLine
 62
2
  6
CONTINUOUS
 10
17.6978141318
 20
2.2238501282
 11
17.6978141318
 21
2.3648303444
  0
LINE
  5
378
100
AcDbEntity
  8
0
100
AcDbLine
 62
2
  6
CONTINUOUS
 10
17.6978141318
 20
2.446930651
 11
17.6978141318
 21
2.5793819816
  0
LINE
  5
379
100
AcDbEntity
  8
0
100
AcDbLine
 62
2
  6
CONTINUOUS
 10
17.6778141207
 20
2.223319339
 11
17.6778141207
 21
2.3839131616
  0
LINE
  5
37A
100
AcDbEntity
  8
0
100
AcDbLine
 62
2
  6
CONTINUOUS
 10
17.6778141207
 20
2.4532700835
 11
17.6778141207
 21
2.5799127708
  0
LINE
  5
37B
100
AcDbEntity
  8
0
100
AcDbLine
 62
2
  6
CONTINUOUS
 10
17.6578141096
 20
2.2227885498
 11
17.6578141096
 21
2.3524650276
  0
LINE
  5
37C
100
AcDbEntity
  8
0
100
AcDbLine
 62
2
  6
CONTINUOUS
 10
17.6578141096
 20
2.3772150414
 11
17.6578141096
 21
2.4029959788
  0
LINE
  5
37D
100
AcDbEntity
  8
0
100
AcDbLine
 62
2
  6
CONTINUOUS
 10
17.6578141096
 20
2.4532700835
 11
17.6578141096
 21
2.58044356
  0
LINE
  5
37E
100
AcDbEntity
  8
0
100
AcDbLine
 62
2
  6
CONTINUOUS
 10
17.6378140985
 20
2.2222577606
 11
17.6378140985
 21
2.3524650276
  0
LINE
  5
37F
100
AcDbEntity
  8
0
100
AcDbLine
 62
2
  6
CONTINUOUS
 10
17.6378140985
 20
2.4532700835
 11
17.6378140985
 21
2.5809743492
  0
LINE
  5
380
100
AcDbEntity
  8
0
100
AcDbLine
 62
2
  6
CONTINUOUS
 10
17.6178140874
 20
2.2217269714
 11
17.6178140874
 21
2.3524650276
  0
LINE
  5
381
100
AcDbEntity
  8
0
100
AcDbLine
 62
2
  6
CONTINUOUS
 10
17.6178140874
 20
2.4532700835
 11
17.6178140874
 21
2.5815051384
  0
LINE
  5
382
100
AcDbEntity
  8
0
100
AcDbLine
 62
2
  6
CONTINUOUS
 10
17.5978140764
 20
2.2215213152
 11
17.5978140764
 21
2.3524650276
  0
LINE
  5
383
100
AcDbEntity
  8
0
100
AcDbLine
 62
2
  6
CONTINUOUS
 10
17.5978140764
 20
2.3772150414
 11
17.5978140764
 21
2.4285200698
  0
LINE
  5
384
100
AcDbEntity
  8
0
100
AcDbLine
 62
2
  6
CONTINUOUS
 10
17.5978140764
 20
2.4532700835
 11
17.5978140764
 21
2.5817107946
  0
LINE
  5
385
100
AcDbEntity
  8
0
100
AcDbLine
 62
2
  6
CONTINUOUS
 10
17.5778140653
 20
2.2216974783
 11
17.5778140653
 21
2.5815346315
  0
LINE
  5
386
100
AcDbEntity
  8
0
100
AcDbLine
 62
2
  6
CONTINUOUS
 10
17.5578140542
 20
2.2218736414
 11
17.5578140542
 21
2.4285200698
  0
LINE
  5
387
100
AcDbEntity
  8
0
100
AcDbLine
 62
2
  6
CONTINUOUS
 10
17.5578140542
 20
2.4532700835
 11
17.5578140542
 21
2.5813584684
  0
LINE
  5
388
100
AcDbEntity
  8
0
100
AcDbLine
 62
2
  6
CONTINUOUS
 10
17.5378140431
 20
2.2220498045
 11
17.5378140431
 21
2.3524700714
  0
LINE
  5
389
100
AcDbEntity
  8
0
100
AcDbLine
 62
2
  6
CONTINUOUS
 10
17.5378140431
 20
2.4532700835
 11
17.5378140431
 21
2.5811823053
  0
LINE
  5
38A
100
AcDbEntity
  8
0
100
AcDbLine
 62
2
  6
CONTINUOUS
 10
17.517814032
 20
2.2222259676
 11
17.517814032
 21
2.3524650276
  0
LINE
  5
38B
100
AcDbEntity
  8
0
100
AcDbLine
 62
2
  6
CONTINUOUS
 10
17.517814032
 20
2.4532700835
 11
17.517814032
 21
2.5810061422
  0
LINE
  5
38C
100
AcDbEntity
  8
0
100
AcDbLine
 62
2
  6
CONTINUOUS
 10
17.4978140209
 20
2.2224021307
 11
17.4978140209
 21
2.3524650276
  0
LINE
  5
38D
100
AcDbEntity
  8
0
100
AcDbLine
 62
2
  6
CONTINUOUS
 10
17.4978140209
 20
2.4008904169
 11
17.4978140209
 21
2.4285200698
  0
LINE
  5
38E
100
AcDbEntity
  8
0
100
AcDbLine
 62
2
  6
CONTINUOUS
 10
17.4978140209
 20
2.4532700835
 11
17.4978140209
 21
2.5808299791
  0
LINE
  5
38F
100
AcDbEntity
  8
0
100
AcDbLine
 62
2
  6
CONTINUOUS
 10
17.4778140098
 20
2.2225782938
 11
17.4778140098
 21
2.3524650276
  0
LINE
  5
390
100
AcDbEntity
  8
0
100
AcDbLine
 62
2
  6
CONTINUOUS
 10
17.4778140098
 20
2.4199732652
 11
17.4778140098
 21
2.580653816
  0
LINE
  5
391
100
AcDbEntity
  8
0
100
AcDbLine
 62
2
  6
CONTINUOUS
 10
17.4578139987
 20
2.2233466716
 11
17.4578139987
 21
2.3569558199
  0
LINE
  5
392
100
AcDbEntity
  8
0
100
AcDbLine
 62
2
  6
CONTINUOUS
 10
17.4578139987
 20
2.4390561136
 11
17.4578139987
 21
2.5798854382
  0
LINE
  5
393
100
AcDbEntity
  8
0
100
AcDbLine
 62
2
  6
CONTINUOUS
 10
17.4378139876
 20
2.2242391079
 11
17.4378139876
 21
2.3760386371
  0
LINE
  5
394
100
AcDbEntity
  8
0
100
AcDbLine
 62
2
  6
CONTINUOUS
 10
17.4378139876
 20
2.4532700835
 11
17.4378139876
 21
2.5789930018
  0
LINE
  5
395
100
AcDbEntity
  8
0
100
AcDbLine
 62
2
  6
CONTINUOUS
 10
17.4178139765
 20
2.2251315443
 11
17.4178139765
 21
2.3525640362
  0
LINE
  5
396
100
AcDbEntity
  8
0
100
AcDbLine
 62
2
  6
CONTINUOUS
 10
17.4178139765
 20
2.3771160328
 11
17.4178139765
 21
2.3951214543
  0
LINE
  5
397
100
AcDbEntity
  8
0
100
AcDbLine
 62
2
  6
CONTINUOUS
 10
17.4178139765
 20
2.4532700835
 11
17.4178139765
 21
2.5781005655
  0
LINE
  5
398
100
AcDbEntity
  8
0
100
AcDbLine
 62
2
  6
CONTINUOUS
 10
17.3978139654
 20
2.2260239807
 11
17.3978139654
 21
2.3524650276
  0
LINE
  5
399
100
AcDbEntity
  8
0
100
AcDbLine
 62
2
  6
CONTINUOUS
 10
17.3978139654
 20
2.3772150414
 11
17.3978139654
 21
2.4139978698
  0
LINE
  5
39A
100
AcDbEntity
  8
0
100
AcDbLine
 62
2
  6
CONTINUOUS
 10
17.3978139654
 20
2.4532700835
 11
17.3978139654
 21
2.5772081291
  0
LINE
  5
39B
100
AcDbEntity
  8
0
100
AcDbLine
 62
2
  6
CONTINUOUS
 10
17.3778139543
 20
2.226916417
 11
17.3778139543
 21
2.3524650276
  0
LINE
  5
39C
100
AcDbEntity
  8
0
100
AcDbLine
 62
2
  6
CONTINUOUS
 10
17.3778139543
 20
2.4532700835
 11
17.3778139543
 21
2.5763156928
  0
LINE
  5
39D
100
AcDbEntity
  8
0
100
AcDbLine
 62
2
  6
CONTINUOUS
 10
17.3578139433
 20
2.2278088534
 11
17.3578139433
 21
2.3524650276
  0
LINE
  5
39E
100
AcDbEntity
  8
0
100
AcDbLine
 62
2
  6
CONTINUOUS
 10
17.3578139433
 20
2.3772150414
 11
17.3578139433
 21
2.4285200698
  0
LINE
  5
39F
100
AcDbEntity
  8
0
100
AcDbLine
 62
2
  6
CONTINUOUS
 10
17.3578139433
 20
2.4532700835
 11
17.3578139433
 21
2.5754232564
  0
LINE
  5
3A0
100
AcDbEntity
  8
0
100
AcDbLine
 62
2
  6
CONTINUOUS
 10
17.3378139322
 20
2.2289481171
 11
17.3378139322
 21
2.5742839927
  0
LINE
  5
3A1
100
AcDbEntity
  8
0
100
AcDbLine
 62
2
  6
CONTINUOUS
 10
17.3178139211
 20
2.2306059865
 11
17.3178139211
 21
2.5726261233
  0
LINE
  5
3A2
100
AcDbEntity
  8
0
100
AcDbLine
 62
2
  6
CONTINUOUS
 10
17.29781391
 20
2.2322638559
 11
17.29781391
 21
2.3524650276
  0
LINE
  5
3A3
100
AcDbEntity
  8
0
100
AcDbLine
 62
2
  6
CONTINUOUS
 10
17.29781391
 20
2.3772150414
 11
17.29781391
 21
2.5709682538
  0
LINE
  5
3A4
100
AcDbEntity
  8
0
100
AcDbLine
 62
2
  6
CONTINUOUS
 10
17.2778138989
 20
2.2339217254
 11
17.2778138989
 21
2.3524650276
  0
LINE
  5
3A5
100
AcDbEntity
  8
0
100
AcDbLine
 62
2
  6
CONTINUOUS
 10
17.2778138989
 20
2.3963499423
 11
17.2778138989
 21
2.5693103844
  0
LINE
  5
3A6
100
AcDbEntity
  8
0
100
AcDbLine
 62
2
  6
CONTINUOUS
 10
17.2578138878
 20
2.2355795948
 11
17.2578138878
 21
2.3524650276
  0
LINE
  5
3A7
100
AcDbEntity
  8
0
100
AcDbLine
 62
2
  6
CONTINUOUS
 10
17.2578138878
 20
2.4272549766
 11
17.2578138878
 21
2.567652515
  0
LINE
  5
3A8
100
AcDbEntity
  8
0
100
AcDbLine
 62
2
  6
CONTINUOUS
 10
17.2378138767
 20
2.2372374642
 11
17.2378138767
 21
2.3524650276
  0
LINE
  5
3A9
100
AcDbEntity
  8
0
100
AcDbLine
 62
2
  6
CONTINUOUS
 10
17.2378138767
 20
2.4532700835
 11
17.2378138767
 21
2.5659946456
  0
LINE
  5
3AA
100
AcDbEntity
  8
0
100
AcDbLine
 62
2
  6
CONTINUOUS
 10
17.2178138656
 20
2.2389952421
 11
17.2178138656
 21
2.3524650276
  0
LINE
  5
3AB
100
AcDbEntity
  8
0
100
AcDbLine
 62
2
  6
CONTINUOUS
 10
17.2178138656
 20
2.3772150414
 11
17.2178138656
 21
2.3887495968
  0
LINE
  5
3AC
100
AcDbEntity
  8
0
100
AcDbLine
 62
2
  6
CONTINUOUS
 10
17.2178138656
 20
2.4532700835
 11
17.2178138656
 21
2.5642368677
  0
LINE
  5
3AD
100
AcDbEntity
  8
0
100
AcDbLine
 62
2
  6
CONTINUOUS
 10
17.1978138545
 20
2.2415190955
 11
17.1978138545
 21
2.3908590489
  0
LINE
  5
3AE
100
AcDbEntity
  8
0
100
AcDbLine
 62
2
  6
CONTINUOUS
 10
17.1978138545
 20
2.4118090605
 11
17.1978138545
 21
2.4279760695
  0
LINE
  5
3AF
100
AcDbEntity
  8
0
100
AcDbLine
 62
2
  6
CONTINUOUS
 10
17.1978138545
 20
2.4532700835
 11
17.1978138545
 21
2.5617130143
  0
LINE
  5
3B0
100
AcDbEntity
  8
0
100
AcDbLine
 62
2
  6
CONTINUOUS
 10
17.1778138434
 20
2.244042949
 11
17.1778138434
 21
2.3524650276
  0
LINE
  5
3B1
100
AcDbEntity
  8
0
100
AcDbLine
 62
2
  6
CONTINUOUS
 10
17.1778138434
 20
2.3772150414
 11
17.1778138434
 21
2.3892044865
  0
LINE
  5
3B2
100
AcDbEntity
  8
0
100
AcDbLine
 62
2
  6
CONTINUOUS
 10
17.1778138434
 20
2.4480979218
 11
17.1778138434
 21
2.5591891608
  0
LINE
  5
3B3
100
AcDbEntity
  8
0
100
AcDbLine
 62
2
  6
CONTINUOUS
 10
17.1578138323
 20
2.2465668024
 11
17.1578138323
 21
2.3524650276
  0
LINE
  5
3B4
100
AcDbEntity
  8
0
100
AcDbLine
 62
2
  6
CONTINUOUS
 10
17.1578138323
 20
2.4165778189
 11
17.1578138323
 21
2.5566653073
  0
LINE
  5
3B5
100
AcDbEntity
  8
0
100
AcDbLine
 62
2
  6
CONTINUOUS
 10
17.1378138213
 20
2.2490906559
 11
17.1378138213
 21
2.3524650276
  0
LINE
  5
3B6
100
AcDbEntity
  8
0
100
AcDbLine
 62
2
  6
CONTINUOUS
 10
17.1378138213
 20
2.3850577159
 11
17.1378138213
 21
2.5541414539
  0
LINE
  5
3B7
100
AcDbEntity
  8
0
100
AcDbLine
 62
2
  6
CONTINUOUS
 10
17.1178138102
 20
2.2516145094
 11
17.1178138102
 21
2.3524650276
  0
LINE
  5
3B8
100
AcDbEntity
  8
0
100
AcDbLine
 62
2
  6
CONTINUOUS
 10
17.1178138102
 20
2.3772150414
 11
17.1178138102
 21
2.5516176004
  0
LINE
  5
3B9
100
AcDbEntity
  8
0
100
AcDbLine
 62
2
  6
CONTINUOUS
 10
17.0978137991
 20
2.2544171186
 11
17.0978137991
 21
2.5488149912
  0
LINE
  5
3BA
100
AcDbEntity
  8
0
100
AcDbLine
 62
2
  6
CONTINUOUS
 10
17.077813788
 20
2.2577020445
 11
17.077813788
 21
2.362615113
  0
LINE
  5
3BB
100
AcDbEntity
  8
0
100
AcDbLine
 62
2
  6
CONTINUOUS
 10
17.077813788
 20
2.3938117115
 11
17.077813788
 21
2.4149601455
  0
LINE
  5
3BC
100
AcDbEntity
  8
0
100
AcDbLine
 62
2
  6
CONTINUOUS
 10
17.077813788
 20
2.4403850542
 11
17.077813788
 21
2.5455300653
  0
LINE
  5
3BD
100
AcDbEntity
  8
0
100
AcDbLine
 62
2
  6
CONTINUOUS
 10
17.0578137769
 20
2.2609869704
 11
17.0578137769
 21
2.3533399802
  0
LINE
  5
3BE
100
AcDbEntity
  8
0
100
AcDbLine
 62
2
  6
CONTINUOUS
 10
17.0578137769
 20
2.4508307102
 11
17.0578137769
 21
2.5422451394
  0
LINE
  5
3BF
100
AcDbEntity
  8
0
100
AcDbLine
 62
2
  6
CONTINUOUS
 10
17.0378137658
 20
2.2646895914
 11
17.0378137658
 21
2.3524650276
  0
LINE
  5
3C0
100
AcDbEntity
  8
0
100
AcDbLine
 62
2
  6
CONTINUOUS
 10
17.0378137658
 20
2.4532700835
 11
17.0378137658
 21
2.5385425184
  0
LINE
  5
3C1
100
AcDbEntity
  8
0
100
AcDbLine
 62
2
  6
CONTINUOUS
 10
17.0178137547
 20
2.2685623514
 11
17.0178137547
 21
2.3524650276
  0
LINE
  5
3C2
100
AcDbEntity
  8
0
100
AcDbLine
 62
2
  6
CONTINUOUS
 10
17.0178137547
 20
2.4532700835
 11
17.0178137547
 21
2.5346697584
  0
LINE
  5
3C3
100
AcDbEntity
  8
0
100
AcDbLine
 62
2
  6
CONTINUOUS
 10
16.9978137436
 20
2.2725871112
 11
16.9978137436
 21
2.3524650276
  0
LINE
  5
3C4
100
AcDbEntity
  8
0
100
AcDbLine
 62
2
  6
CONTINUOUS
 10
16.9978137436
 20
2.3772150414
 11
16.9978137436
 21
2.394540051
  0
LINE
  5
3C5
100
AcDbEntity
  8
0
100
AcDbLine
 62
2
  6
CONTINUOUS
 10
16.9978137436
 20
2.4111950602
 11
16.9978137436
 21
2.4285200698
  0
LINE
  5
3C6
100
AcDbEntity
  8
0
100
AcDbLine
 62
2
  6
CONTINUOUS
 10
16.9978137436
 20
2.4532700835
 11
16.9978137436
 21
2.5306449986
  0
LINE
  5
3C7
100
AcDbEntity
  8
0
100
AcDbLine
 62
2
  6
CONTINUOUS
 10
16.9778137325
 20
2.2771382649
 11
16.9778137325
 21
2.3524650276
  0
LINE
  5
3C8
100
AcDbEntity
  8
0
100
AcDbLine
 62
2
  6
CONTINUOUS
 10
16.9778137325
 20
2.3772150414
 11
16.9778137325
 21
2.394540051
  0
LINE
  5
3C9
100
AcDbEntity
  8
0
100
AcDbLine
 62
2
  6
CONTINUOUS
 10
16.9778137325
 20
2.4111950602
 11
16.9778137325
 21
2.4285200698
  0
LINE
  5
3CA
100
AcDbEntity
  8
0
100
AcDbLine
 62
2
  6
CONTINUOUS
 10
16.9778137325
 20
2.4532700835
 11
16.9778137325
 21
2.5260938449
  0
LINE
  5
3CB
100
AcDbEntity
  8
0
100
AcDbLine
 62
2
  6
CONTINUOUS
 10
16.9578137214
 20
2.2816894185
 11
16.9578137214
 21
2.3524650276
  0
LINE
  5
3CC
100
AcDbEntity
  8
0
100
AcDbLine
 62
2
  6
CONTINUOUS
 10
16.9578137214
 20
2.4532700835
 11
16.9578137214
 21
2.5215426913
  0
LINE
  5
3CD
100
AcDbEntity
  8
0
100
AcDbLine
 62
2
  6
CONTINUOUS
 10
16.9378137103
 20
2.2869815362
 11
16.9378137103
 21
2.3524650276
  0
LINE
  5
3CE
100
AcDbEntity
  8
0
100
AcDbLine
 62
2
  6
CONTINUOUS
 10
16.9378137103
 20
2.4532700835
 11
16.9378137103
 21
2.5162505736
  0
LINE
  5
3CF
100
AcDbEntity
  8
0
100
AcDbLine
 62
2
  6
CONTINUOUS
 10
16.9178136992
 20
2.2923355811
 11
16.9178136992
 21
2.3524650276
  0
LINE
  5
3D0
100
AcDbEntity
  8
0
100
AcDbLine
 62
2
  6
CONTINUOUS
 10
16.9178136992
 20
2.4532700835
 11
16.9178136992
 21
2.5108965286
  0
LINE
  5
3D1
100
AcDbEntity
  8
0
100
AcDbLine
 62
2
  6
CONTINUOUS
 10
16.8978136882
 20
2.2984943577
 11
16.8978136882
 21
2.3524650276
  0
LINE
  5
3D2
100
AcDbEntity
  8
0
100
AcDbLine
 62
2
  6
CONTINUOUS
 10
16.8978136882
 20
2.3772150414
 11
16.8978136882
 21
2.4285200698
  0
LINE
  5
3D3
100
AcDbEntity
  8
0
100
AcDbLine
 62
2
  6
CONTINUOUS
 10
16.8978136882
 20
2.4532700835
 11
16.8978136882
 21
2.5047377521
  0
LINE
  5
3D4
100
AcDbEntity
  8
0
100
AcDbLine
 62
2
  6
CONTINUOUS
 10
16.8778136771
 20
2.3048274854
 11
16.8778136771
 21
2.3524650276
  0
LINE
  5
3D5
100
AcDbEntity
  8
0
100
AcDbLine
 62
2
  6
CONTINUOUS
 10
16.8778136771
 20
2.3772150414
 11
16.8778136771
 21
2.4285200698
  0
LINE
  5
3D6
100
AcDbEntity
  8
0
100
AcDbLine
 62
2
  6
CONTINUOUS
 10
16.8778136771
 20
2.4532700835
 11
16.8778136771
 21
2.4984046244
  0
LINE
  5
3D7
100
AcDbEntity
  8
0
100
AcDbLine
 62
2
  6
CONTINUOUS
 10
16.857813666
 20
2.312318358
 11
16.857813666
 21
2.4909137517
  0
LINE
  5
3D8
100
AcDbEntity
  8
0
100
AcDbLine
 62
2
  6
CONTINUOUS
 10
16.8378136549
 20
2.3203393667
 11
16.8378136549
 21
2.4828927431
  0
LINE
  5
3D9
100
AcDbEntity
  8
0
100
AcDbLine
 62
2
  6
CONTINUOUS
 10
16.8178136438
 20
2.3295519864
 11
16.8178136438
 21
2.4736801234
  0
LINE
  5
3DA
100
AcDbEntity
  8
0
100
AcDbLine
 62
2
  6
CONTINUOUS
 10
16.7978136327
 20
2.3407309483
 11
16.7978136327
 21
2.4625011614
  0
LINE
  5
3DB
100
AcDbEntity
  8
0
100
AcDbLine
 62
2
  6
CONTINUOUS
 10
16.7778136216
 20
2.3546527809
 11
16.7778136216
 21
2.4485793288
  0
LINE
  5
3DC
100
AcDbEntity
  8
0
100
AcDbLine
 62
2
  6
CONTINUOUS
 10
16.7578136105
 20
2.3756826696
 11
16.7578136105
 21
2.4275494401
  0
ENDBLK
  5
3DD
100
AcDbEntity
  8
0
  6
BYBLOCK
 62
0
100
AcDbBlockEnd
  0
BLOCK
  5
3DE
100
AcDbEntity
  8
SCHEME_DIMS
100
AcDbBlockBegin
 62
2
  6
CONTINUOUS
  2
*D0
 70
65
 10
0.0
 20
0.0
  3
*D0
  1

  0
TEXT
  5
3DF
100
AcDbEntity
  8
SCHEME_DIMS
100
AcDbText
 62
2
  6
CONTINUOUS
 10
7.3609846487
 20
8.8365657364
  7
STANDARD
 40
0.1
  1
19
 41
1.0
 72
0
100
AcDbText
  0
TEXT
  5
3E0
100
AcDbEntity
  8
SCHEME_DIMS
100
AcDbText
 62
2
  6
CONTINUOUS
 10
7.4609846487
 20
8.6865657364
  7
STANDARD
 40
0.1
  1
.75
 41
1.0
 72
0
100
AcDbText
  0
TEXT
  5
3E1
100
AcDbEntity
  8
SCHEME_DIMS
100
AcDbText
 62
2
  6
CONTINUOUS
 10
7.3609846487
 20
8.6865657364
  7
STANDARD
 40
0.1
  1
[
 41
1.0
 72
0
100
AcDbText
  0
TEXT
  5
3E2
100
AcDbEntity
  8
SCHEME_DIMS
100
AcDbText
 62
2
  6
CONTINUOUS
 10
7.7609846487
 20
8.6865657364
  7
STANDARD
 40
0.1
  1
]
 41
1.0
 72
0
100
AcDbText
  0
LINE
  5
3E3
100
AcDbEntity
  8
SCHEME_DIMS
100
AcDbLine
 62
2
  6
CONTINUOUS
 10
6.7010437038
 20
8.4375499884
 11
7.7359846487
 21
8.4375499884
  0
LINE
  5
3E4
100
AcDbEntity
  8
SCHEME_DIMS
100
AcDbLine
 62
2
  6
CONTINUOUS
 10
6.9642967565
 20
9.1855814845
 11
6.9895621123
 21
9.1855814845
  0
LINE
  5
3E5
100
AcDbEntity
  8
SCHEME_DIMS
100
AcDbLine
 62
2
  6
CONTINUOUS
 10
7.0321591493
 20
9.1855814845
 11
7.7359846487
 21
9.1855814845
  0
LINE
  5
3E6
100
AcDbEntity
  8
SCHEME_DIMS
100
AcDbLine
 62
2
  6
CONTINUOUS
 10
7.6109846487
 20
8.4375499884
 11
7.6109846487
 21
8.0375499884
  0
LINE
  5
3E7
100
AcDbEntity
  8
SCHEME_DIMS
100
AcDbLine
 62
2
  6
CONTINUOUS
 10
7.6109846487
 20
9.1855814845
 11
7.6109846487
 21
9.5855814845
  0
INSERT
  5
3E8
100
AcDbEntity
  8
SCHEME_DIMS
100
AcDbBlockReference
 62
2
  6
CONTINUOUS
  2
_FILLED
 10
7.6109846487
 20
8.4375499884
 41
0.1875
 42
0.1875
 43
0.1875
 50
90.0
  0
INSERT
  5
3E9
100
AcDbEntity
  8
SCHEME_DIMS
100
AcDbBlockReference
 62
2
  6
CONTINUOUS
  2
_FILLED
 10
7.6109846487
 20
9.1855814845
 41
0.1875
 42
0.1875
 43
0.1875
 50
270.0
  0
ENDBLK
  5
3EA
100
AcDbEntity
  8
0
  6
BYBLOCK
 62
0
100
AcDbBlockEnd
  0
BLOCK
  5
3EB
100
AcDbEntity
  8
SCHEME_DIMS
100
AcDbBlockBegin
 62
2
  6
CONTINUOUS
  2
*D1
 70
65
 10
0.0
 20
0.0
  3
*D1
  1

  0
TEXT
  5
3EC
100
AcDbEntity
  8
SCHEME_DIMS
100
AcDbText
 62
2
  6
CONTINUOUS
 10
8.0609846487
 20
10.8786113585
  7
STANDARD
 40
0.1
  1
120,8
 41
1.0
 72
0
100
AcDbText
  0
TEXT
  5
3ED
100
AcDbEntity
  8
SCHEME_DIMS
100
AcDbText
 62
2
  6
CONTINUOUS
 10
8.1609846487
 20
10.7286113585
  7
STANDARD
 40
0.1
  1
4.76
 41
1.0
 72
0
100
AcDbText
  0
TEXT
  5
3EE
100
AcDbEntity
  8
SCHEME_DIMS
100
AcDbText
 62
2
  6
CONTINUOUS
 10
8.0609846487
 20
10.7286113585
  7
STANDARD
 40
0.1
  1
[
 41
1.0
 72
0
100
AcDbText
  0
TEXT
  5
3EF
100
AcDbEntity
  8
SCHEME_DIMS
100
AcDbText
 62
2
  6
CONTINUOUS
 10
8.5609846487
 20
10.7286113585
  7
STANDARD
 40
0.1
  1
]
 41
1.0
 72
0
100
AcDbText
  0
LINE
  5
3F0
100
AcDbEntity
  8
SCHEME_DIMS
100
AcDbLine
 62
2
  6
CONTINUOUS
 10
6.7010437038
 20
8.4375499884
 11
8.4859846487
 21
8.4375499884
  0
LINE
  5
3F1
100
AcDbEntity
  8
SCHEME_DIMS
100
AcDbLine
 62
2
  6
CONTINUOUS
 10
7.1347090293
 20
13.1934555002
 11
8.4859846487
 21
13.1934555002
  0
LINE
  5
3F2
100
AcDbEntity
  8
SCHEME_DIMS
100
AcDbLine
 62
2
  6
CONTINUOUS
 10
8.3609846487
 20
8.4375499884
 11
8.3609846487
 21
10.6286113585
  0
LINE
  5
3F3
100
AcDbEntity
  8
SCHEME_DIMS
100
AcDbLine
 62
2
  6
CONTINUOUS
 10
8.3609846487
 20
13.1934555002
 11
8.3609846487
 21
11.0786113585
  0
INSERT
  5
3F4
100
AcDbEntity
  8
SCHEME_DIMS
100
AcDbBlockReference
 62
2
  6
CONTINUOUS
  2
_FILLED
 10
8.3609846487
 20
8.4375499884
 41
0.1875
 42
0.1875
 43
0.1875
 50
270.0
  0
INSERT
  5
3F5
100
AcDbEntity
  8
SCHEME_DIMS
100
AcDbBlockReference
 62
2
  6
CONTINUOUS
  2
_FILLED
 10
8.3609846487
 20
13.1934555002
 41
0.1875
 42
0.1875
 43
0.1875
 50
90.0
  0
ENDBLK
  5
3F6
100
AcDbEntity
  8
0
  6
BYBLOCK
 62
0
100
AcDbBlockEnd
  0
BLOCK
  5
3F7
100
AcDbEntity
  8
SCHEME_DIMS
100
AcDbBlockBegin
 62
2
  6
CONTINUOUS
  2
*D2
 70
65
 10
0.0
 20
0.0
  3
*D2
  1

  0
TEXT
  5
3F8
100
AcDbEntity
  8
SCHEME_DIMS
100
AcDbText
 62
2
  6
CONTINUOUS
 10
5.8267326802
 20
7.0752559111
  7
STANDARD
 40
0.1
  1
45
 41
1.0
 72
0
100
AcDbText
  0
TEXT
  5
3F9
100
AcDbEntity
  8
SCHEME_DIMS
100
AcDbText
 62
2
  6
CONTINUOUS
 10
5.9267326802
 20
6.9252559111
  7
STANDARD
 40
0.1
  1
1.77
 41
1.0
 72
0
100
AcDbText
  0
TEXT
  5
3FA
100
AcDbEntity
  8
SCHEME_DIMS
100
AcDbText
 62
2
  6
CONTINUOUS
 10
5.8267326802
 20
6.9252559111
  7
STANDARD
 40
0.1
  1
[
 41
1.0
 72
0
100
AcDbText
  0
TEXT
  5
3FB
100
AcDbEntity
  8
SCHEME_DIMS
100
AcDbText
 62
2
  6
CONTINUOUS
 10
6.3267326802
 20
6.9252559111
  7
STANDARD
 40
0.1
  1
]
 41
1.0
 72
0
100
AcDbText
  0
LINE
  5
3FC
100
AcDbEntity
  8
SCHEME_DIMS
100
AcDbLine
 62
2
  6
CONTINUOUS
 10
5.2409059085
 20
9.2169316796
 11
5.2409059085
 21
8.4777426057
  0
LINE
  5
3FD
100
AcDbEntity
  8
SCHEME_DIMS
100
AcDbLine
 62
2
  6
CONTINUOUS
 10
5.2409059085
 20
8.4212598753
 11
5.2409059085
 21
7.0002559111
  0
LINE
  5
3FE
100
AcDbEntity
  8
SCHEME_DIMS
100
AcDbLine
 62
2
  6
CONTINUOUS
 10
7.0125594518
 20
9.2099842346
 11
7.0125594518
 21
8.4769812232
  0
LINE
  5
3FF
100
AcDbEntity
  8
SCHEME_DIMS
100
AcDbLine
 62
2
  6
CONTINUOUS
 10
7.0125594518
 20
8.4005186789
 11
7.0125594518
 21
7.0002559111
  0
LINE
  5
400
100
AcDbEntity
  8
SCHEME_DIMS
100
AcDbLine
 62
2
  6
CONTINUOUS
 10
5.2409059085
 20
7.1252559111
 11
5.7267326802
 21
7.1252559111
  0
LINE
  5
401
100
AcDbEntity
  8
SCHEME_DIMS
100
AcDbLine
 62
2
  6
CONTINUOUS
 10
7.0125594518
 20
7.1252559111
 11
6.5267326802
 21
7.1252559111
  0
INSERT
  5
402
100
AcDbEntity
  8
SCHEME_DIMS
100
AcDbBlockReference
 62
2
  6
CONTINUOUS
  2
_FILLED
 10
5.2409059085
 20
7.1252559111
 41
0.1875
 42
0.1875
 43
0.1875
 50
180.0
  0
INSERT
  5
403
100
AcDbEntity
  8
SCHEME_DIMS
100
AcDbBlockReference
 62
2
  6
CONTINUOUS
  2
_FILLED
 10
7.0125594518
 20
7.1252559111
 41
0.1875
 42
0.1875
 43
0.1875
  0
ENDBLK
  5
404
100
AcDbEntity
  8
0
  6
BYBLOCK
 62
0
100
AcDbBlockEnd
  0
BLOCK
  5
405
100
AcDbEntity
  8
SCHEME_DIMS
100
AcDbBlockBegin
 62
2
  6
CONTINUOUS
  2
*D3
 70
65
 10
0.0
 20
0.0
  3
*D3
  1

  0
TEXT
  5
406
100
AcDbEntity
  8
SCHEME_DIMS
100
AcDbText
 62
2
  6
CONTINUOUS
 10
7.4647947649
 20
4.8770220021
  7
STANDARD
 40
0.1
  1
%%c
 41
1.3333333333
 72
0
100
AcDbText
  0
TEXT
  5
407
100
AcDbEntity
  8
SCHEME_DIMS
100
AcDbText
 62
2
  6
CONTINUOUS
 10
7.5981280982
 20
4.8770220021
  7
STANDARD
 40
0.1
  1
50
 41
1.0
 72
0
100
AcDbText
  0
TEXT
  5
408
100
AcDbEntity
  8
SCHEME_DIMS
100
AcDbText
 62
2
  6
CONTINUOUS
 10
7.6981280982
 20
4.7270220021
  7
STANDARD
 40
0.1
  1
1.97
 41
1.0
 72
0
100
AcDbText
  0
TEXT
  5
409
100
AcDbEntity
  8
SCHEME_DIMS
100
AcDbText
 62
2
  6
CONTINUOUS
 10
7.5981280982
 20
4.7270220021
  7
STANDARD
 40
0.1
  1
[
 41
1.0
 72
0
100
AcDbText
  0
TEXT
  5
40A
100
AcDbEntity
  8
SCHEME_DIMS
100
AcDbText
 62
2
  6
CONTINUOUS
 10
8.0981280982
 20
4.7270220021
  7
STANDARD
 40
0.1
  1
]
 41
1.0
 72
0
100
AcDbText
  0
LINE
  5
40B
100
AcDbEntity
  8
SCHEME_DIMS
100
AcDbLine
 62
2
  6
CONTINUOUS
 10
6.9194537257
 20
4.7096701838
 11
6.1267326802
 21
4.126278993
  0
LINE
  5
40C
100
AcDbEntity
  8
SCHEME_DIMS
100
AcDbLine
 62
2
  6
CONTINUOUS
 10
6.1267326802
 20
4.126278993
 11
7.2147947649
 21
4.9270220021
  0
LINE
  5
40D
100
AcDbEntity
  8
SCHEME_DIMS
100
AcDbLine
 62
2
  6
CONTINUOUS
 10
7.2147947649
 20
4.9270220021
 11
7.3647947649
 21
4.9270220021
  0
LINE
  5
40E
100
AcDbEntity
  8
SCHEME_DIMS
100
AcDbLine
 62
2
  6
CONTINUOUS
 10
5.3340116346
 20
3.5428878022
 11
6.1267326802
 21
4.126278993
  0
INSERT
  5
40F
100
AcDbEntity
  8
SCHEME_DIMS
100
AcDbBlockReference
 62
2
  6
CONTINUOUS
  2
_FILLED
 10
6.9194537257
 20
4.7096701838
 41
0.1875
 42
0.1875
 43
0.1875
 50
36.3506538711
  0
INSERT
  5
410
100
AcDbEntity
  8
SCHEME_DIMS
100
AcDbBlockReference
 62
2
  6
CONTINUOUS
  2
_FILLED
 10
5.3340116346
 20
3.5428878022
 41
0.1875
 42
0.1875
 43
0.1875
 50
216.3506538711
  0
ENDBLK
  5
411
100
AcDbEntity
  8
0
  6
BYBLOCK
 62
0
100
AcDbBlockEnd
  0
BLOCK
  5
412
100
AcDbEntity
  8
SCHEME_DIMS
100
AcDbBlockBegin
 62
2
  6
CONTINUOUS
  2
*D4
 70
65
 10
0.0
 20
0.0
  3
*D4
  1

  0
TEXT
  5
413
100
AcDbEntity
  8
SCHEME_DIMS
100
AcDbText
 62
2
  6
CONTINUOUS
 10
7.1609846487
 20
10.6651090435
  7
STANDARD
 40
0.1
  1
2X 
 41
1.0
 72
0
100
AcDbText
  0
TEXT
  5
414
100
AcDbEntity
  8
SCHEME_DIMS
100
AcDbText
 62
2
  6
CONTINUOUS
 10
7.4609846487
 20
10.6651090435
  7
STANDARD
 40
0.1
  1
26,9
 41
1.0
 72
0
100
AcDbText
  0
TEXT
  5
415
100
AcDbEntity
  8
SCHEME_DIMS
100
AcDbText
 62
2
  6
CONTINUOUS
 10
7.5609846487
 20
10.5151090435
  7
STANDARD
 40
0.1
  1
1.06
 41
1.0
 72
0
100
AcDbText
  0
TEXT
  5
416
100
AcDbEntity
  8
SCHEME_DIMS
100
AcDbText
 62
2
  6
CONTINUOUS
 10
7.4609846487
 20
10.5151090435
  7
STANDARD
 40
0.1
  1
[
 41
1.0
 72
0
100
AcDbText
  0
TEXT
  5
417
100
AcDbEntity
  8
SCHEME_DIMS
100
AcDbText
 62
2
  6
CONTINUOUS
 10
7.9609846487
 20
10.5151090435
  7
STANDARD
 40
0.1
  1
]
 41
1.0
 72
0
100
AcDbText
  0
LINE
  5
418
100
AcDbEntity
  8
SCHEME_DIMS
100
AcDbLine
 62
2
  6
CONTINUOUS
 10
7.1734846487
 20
10.1855814845
 11
7.7359846487
 21
10.1855814845
  0
LINE
  5
419
100
AcDbEntity
  8
SCHEME_DIMS
100
AcDbLine
 62
2
  6
CONTINUOUS
 10
7.1734846487
 20
11.2446366026
 11
7.7359846487
 21
11.2446366026
  0
LINE
  5
41A
100
AcDbEntity
  8
SCHEME_DIMS
100
AcDbLine
 62
2
  6
CONTINUOUS
 10
7.6109846487
 20
10.1855814845
 11
7.6109846487
 21
10.4151090435
  0
LINE
  5
41B
100
AcDbEntity
  8
SCHEME_DIMS
100
AcDbLine
 62
2
  6
CONTINUOUS
 10
7.6109846487
 20
11.2446366026
 11
7.6109846487
 21
10.8651090435
  0
INSERT
  5
41C
100
AcDbEntity
  8
SCHEME_DIMS
100
AcDbBlockReference
 62
2
  6
CONTINUOUS
  2
_FILLED
 10
7.6109846487
 20
10.1855814845
 41
0.1875
 42
0.1875
 43
0.1875
 50
270.0
  0
INSERT
  5
41D
100
AcDbEntity
  8
SCHEME_DIMS
100
AcDbBlockReference
 62
2
  6
CONTINUOUS
  2
_FILLED
 10
7.6109846487
 20
11.2446366026
 41
0.1875
 42
0.1875
 43
0.1875
 50
90.0
  0
ENDBLK
  5
41E
100
AcDbEntity
  8
0
  6
BYBLOCK
 62
0
100
AcDbBlockEnd
  0
BLOCK
  5
41F
100
AcDbEntity
  8
0
100
AcDbBlockBegin
  2
_FILLED
 70
64
 10
0.0
 20
0.0
  3
_FILLED
  1

  0
SOLID
  5
420
100
AcDbEntity
  8
0
  6
BYBLOCK
 62
0
100
AcDbTrace
 10
0.0
 20
0.0
 11
-1.0
 21
0.1666666667
 12
-1.0
 22
-0.1666666667
 13
-1.0
 23
-0.1666666667
  0
ENDBLK
  5
421
100
AcDbEntity
  8
0
  6
BYBLOCK
 62
0
100
AcDbBlockEnd
  0
ENDSEC
  0
SECTION
  2
ENTITIES
  0
TEXT
  5
422
100
AcDbEntity
  8
0
100
AcDbText
 62
2
  6
CONTINUOUS
 10
14.8374677477
 20
1.5655662523
  7
STANDARD
 40
0.1
  1
%%uTHIRD ANGLE PROJECTION
 41
0.8
 72
1
 11
15.7174677477
 21
1.5655662523
100
AcDbText
  0
TEXT
  5
423
100
AcDbEntity
  8
0
100
AcDbText
 62
2
  6
CONTINUOUS
 10
17.55
 20
1.24
  7
STANDARD
 40
0.08
  1
DRAWING NO.
 41
1.0
 72
0
100
AcDbText
  0
TEXT
  5
424
100
AcDbEntity
  8
0
100
AcDbText
 62
2
  6
CONTINUOUS
 10
14.714
 20
2.299432
  7
STANDARD
 40
0.08
  1
and is proprietary in general
 41
0.85
 72
1
 11
15.7
 21
2.299432
100
AcDbText
  0
TEXT
  5
425
100
AcDbEntity
  8
0
100
AcDbText
 62
2
  6
CONTINUOUS
 10
14.748
 20
2.179432
  7
STANDARD
 40
0.08
  1
and in detail.  Its contents
 41
0.85
 72
1
 11
15.7
 21
2.179432
100
AcDbText
  0
TEXT
  5
426
100
AcDbEntity
  8
0
100
AcDbText
 62
2
  6
CONTINUOUS
 10
14.884
 20
2.059432
  7
STANDARD
 40
0.08
  1
shall not be revealed to
 41
0.85
 72
1
 11
15.7
 21
2.059432
100
AcDbText
  0
TEXT
  5
427
100
AcDbEntity
  8
0
100
AcDbText
 62
2
  6
CONTINUOUS
 10
14.918
 20
1.939432
  7
STANDARD
 40
0.08
  1
outside parties without
 41
0.85
 72
1
 11
15.7
 21
1.939432
100
AcDbText
  0
TEXT
  5
428
100
AcDbEntity
  8
0
100
AcDbText
 62
2
  6
CONTINUOUS
 10
14.816
 20
1.819432
  7
STANDARD
 40
0.08
  1
written consent of BANNER.
 41
0.85
 72
1
 11
15.7
 21
1.819432
100
AcDbText
  0
TEXT
  5
429
100
AcDbEntity
  8
0
100
AcDbText
 62
2
  6
CONTINUOUS
 10
16.75
 20
1.98
  7
STANDARD
 40
0.1
  1
TITLE
 41
0.8
 72
0
100
AcDbText
  0
TEXT
  5
42A
100
AcDbEntity
  8
0
100
AcDbText
 62
2
  6
CONTINUOUS
 10
16.75
 20
1.24
  7
STANDARD
 40
0.08
  1
SIZE
 41
1.0
 72
0
100
AcDbText
  0
TEXT
  5
42B
100
AcDbEntity
  8
0
100
AcDbText
 62
2
  6
CONTINUOUS
 10
16.75
 20
0.87
  7
STANDARD
 40
0.08
  1
SCALE
 41
1.0
 72
0
100
AcDbText
  0
TEXT
  5
42C
100
AcDbEntity
  8
0
100
AcDbText
 62
2
  6
CONTINUOUS
 10
17.13
 20
1.1
  7
STANDARD
 40
0.1
  1
C
 41
0.8
 72
1
 11
17.17
 21
1.1
100
AcDbText
  0
TEXT
  5
42D
100
AcDbEntity
  8
0
100
AcDbText
 62
2
  6
CONTINUOUS
 10
14.782
 20
2.419432
  7
STANDARD
 40
0.08
  1
of BANNER ENGINEERING CORP.
 41
0.85
 72
1
 11
15.7
 21
2.419432
100
AcDbText
  0
TEXT
  5
42E
100
AcDbEntity
  8
0
100
AcDbText
 62
2
  6
CONTINUOUS
 10
14.748
 20
2.539432
  7
STANDARD
 40
0.08
  1
This drawing is the property
 41
0.85
 72
1
 11
15.7
 21
2.539432
100
AcDbText
  0
TEXT
  5
42F
100
AcDbEntity
  8
0
100
AcDbText
 62
2
  6
CONTINUOUS
 10
18.86
 20
2.1764
  7
STANDARD
 40
0.1
  1
MINNEAPOLIS, MN 55440
 41
0.8
 72
1
 11
19.7
 21
2.1764
100
AcDbText
  0
TEXT
  5
430
100
AcDbEntity
  8
0
100
AcDbText
 62
2
  6
CONTINUOUS
 10
18.925
 20
0.87
  7
STANDARD
 40
0.08
  1
SHEET
 41
1.0
 72
0
100
AcDbText
  0
TEXT
  5
431
100
AcDbEntity
  8
0
100
AcDbText
 62
2
  6
CONTINUOUS
 10
20.3
 20
1.24
  7
STANDARD
 40
0.08
  1
REV.
 41
1.0
 72
0
100
AcDbText
  0
TEXT
  5
432
100
AcDbEntity
  8
0
100
AcDbText
 62
2
  6
CONTINUOUS
 10
20.7
 20
0.628443
  7
STANDARD
 40
0.07
  1
PRO/E
 41
1.0
 72
2
 11
21.05
 21
0.628443
100
AcDbText
  0
TEXT
  5
433
100
AcDbEntity
  8
0
100
AcDbText
 62
2
  6
CONTINUOUS
 10
18.3752
 20
2.494049
  7
STANDARD
 40
0.12
  1
BANNER ENGINEERING CORP.
 41
0.92
 72
1
 11
19.7
 21
2.494049
100
AcDbText
  0
TEXT
  5
434
100
AcDbEntity
  8
0
100
AcDbText
 62
2
  6
CONTINUOUS
 10
19.18
 20
2.3354
  7
STANDARD
 40
0.1
  1
P.O. BOX 9414
 41
0.8
 72
1
 11
19.7
 21
2.3354
100
AcDbText
  0
TEXT
  5
435
100
AcDbEntity
  8
0
100
AcDbText
 62
2
  6
CONTINUOUS
 10
12.217
 20
15.85
  7
STANDARD
 40
0.1
  1
4
 41
0.8
 72
1
 11
12.257
 21
15.85
100
AcDbText
  0
TEXT
  5
436
100
AcDbEntity
  8
0
100
AcDbText
 62
2
  6
CONTINUOUS
 10
12.217
 20
0.55
  7
STANDARD
 40
0.1
  1
4
 41
0.8
 72
1
 11
12.257
 21
0.55
100
AcDbText
  0
TEXT
  5
437
100
AcDbEntity
  8
0
100
AcDbText
 62
2
  6
CONTINUOUS
 10
0.784
 20
6.275
  7
STANDARD
 40
0.1
  1
B
 41
0.8
 72
2
 11
0.864
 21
6.275
100
AcDbText
  0
TEXT
  5
438
100
AcDbEntity
  8
0
100
AcDbText
 62
2
  6
CONTINUOUS
 10
21.15
 20
6.275
  7
STANDARD
 40
0.1
  1
B
 41
0.8
 72
0
100
AcDbText
  0
TEXT
  5
439
100
AcDbEntity
  8
0
100
AcDbText
 62
2
  6
CONTINUOUS
 10
0.784
 20
2.425
  7
STANDARD
 40
0.1
  1
A
 41
0.8
 72
2
 11
0.864
 21
2.425
100
AcDbText
  0
TEXT
  5
43A
100
AcDbEntity
  8
0
100
AcDbText
 62
2
  6
CONTINUOUS
 10
21.15
 20
2.425
  7
STANDARD
 40
0.1
  1
A
 41
0.8
 72
0
100
AcDbText
  0
TEXT
  5
43B
100
AcDbEntity
  8
0
100
AcDbText
 62
2
  6
CONTINUOUS
 10
0.784
 20
13.975
  7
STANDARD
 40
0.1
  1
D
 41
0.8
 72
2
 11
0.864
 21
13.975
100
AcDbText
  0
TEXT
  5
43C
100
AcDbEntity
  8
0
100
AcDbText
 62
2
  6
CONTINUOUS
 10
21.15
 20
13.975
  7
STANDARD
 40
0.1
  1
D
 41
0.8
 72
0
100
AcDbText
  0
TEXT
  5
43D
100
AcDbEntity
  8
0
100
AcDbText
 62
2
  6
CONTINUOUS
 10
0.784
 20
10.125
  7
STANDARD
 40
0.1
  1
C
 41
0.8
 72
2
 11
0.864
 21
10.125
100
AcDbText
  0
TEXT
  5
43E
100
AcDbEntity
  8
0
100
AcDbText
 62
2
  6
CONTINUOUS
 10
21.15
 20
10.125
  7
STANDARD
 40
0.1
  1
C
 41
0.8
 72
0
100
AcDbText
  0
TEXT
  5
43F
100
AcDbEntity
  8
0
100
AcDbText
 62
2
  6
CONTINUOUS
 10
14.717
 20
0.55
  7
STANDARD
 40
0.1
  1
3
 41
0.8
 72
1
 11
14.757
 21
0.55
100
AcDbText
  0
TEXT
  5
440
100
AcDbEntity
  8
0
100
AcDbText
 62
2
  6
CONTINUOUS
 10
14.717
 20
15.85
  7
STANDARD
 40
0.1
  1
3
 41
0.8
 72
1
 11
14.757
 21
15.85
100
AcDbText
  0
TEXT
  5
441
100
AcDbEntity
  8
0
100
AcDbText
 62
2
  6
CONTINUOUS
 10
17.217
 20
15.85
  7
STANDARD
 40
0.1
  1
2
 41
0.8
 72
1
 11
17.257
 21
15.85
100
AcDbText
  0
TEXT
  5
442
100
AcDbEntity
  8
0
100
AcDbText
 62
2
  6
CONTINUOUS
 10
17.217
 20
0.55
  7
STANDARD
 40
0.1
  1
2
 41
0.8
 72
1
 11
17.257
 21
0.55
100
AcDbText
  0
TEXT
  5
443
100
AcDbEntity
  8
0
100
AcDbText
 62
2
  6
CONTINUOUS
 10
19.717
 20
0.55
  7
STANDARD
 40
0.1
  1
1
 41
0.8
 72
1
 11
19.757
 21
0.55
100
AcDbText
  0
TEXT
  5
444
100
AcDbEntity
  8
0
100
AcDbText
 62
2
  6
CONTINUOUS
 10
19.717
 20
15.85
  7
STANDARD
 40
0.1
  1
1
 41
0.8
 72
1
 11
19.757
 21
15.85
100
AcDbText
  0
TEXT
  5
445
100
AcDbEntity
  8
0
100
AcDbText
 62
2
  6
CONTINUOUS
 10
2.217
 20
0.55
  7
STANDARD
 40
0.1
  1
8
 41
0.8
 72
1
 11
2.257
 21
0.55
100
AcDbText
  0
TEXT
  5
446
100
AcDbEntity
  8
0
100
AcDbText
 62
2
  6
CONTINUOUS
 10
4.717
 20
0.55
  7
STANDARD
 40
0.1
  1
7
 41
0.8
 72
1
 11
4.757
 21
0.55
100
AcDbText
  0
TEXT
  5
447
100
AcDbEntity
  8
0
100
AcDbText
 62
2
  6
CONTINUOUS
 10
7.217
 20
0.55
  7
STANDARD
 40
0.1
  1
6
 41
0.8
 72
1
 11
7.257
 21
0.55
100
AcDbText
  0
TEXT
  5
448
100
AcDbEntity
  8
0
100
AcDbText
 62
2
  6
CONTINUOUS
 10
9.717
 20
0.55
  7
STANDARD
 40
0.1
  1
5
 41
0.8
 72
1
 11
9.757
 21
0.55
100
AcDbText
  0
TEXT
  5
449
100
AcDbEntity
  8
0
100
AcDbText
 62
2
  6
CONTINUOUS
 10
9.717
 20
15.85
  7
STANDARD
 40
0.1
  1
5
 41
0.8
 72
1
 11
9.757
 21
15.85
100
AcDbText
  0
TEXT
  5
44A
100
AcDbEntity
  8
0
100
AcDbText
 62
2
  6
CONTINUOUS
 10
7.217
 20
15.85
  7
STANDARD
 40
0.1
  1
6
 41
0.8
 72
1
 11
7.257
 21
15.85
100
AcDbText
  0
TEXT
  5
44B
100
AcDbEntity
  8
0
100
AcDbText
 62
2
  6
CONTINUOUS
 10
4.717
 20
15.85
  7
STANDARD
 40
0.1
  1
7
 41
0.8
 72
1
 11
4.757
 21
15.85
100
AcDbText
  0
TEXT
  5
44C
100
AcDbEntity
  8
0
100
AcDbText
 62
2
  6
CONTINUOUS
 10
2.217
 20
15.85
  7
STANDARD
 40
0.1
  1
8
 41
0.8
 72
1
 11
2.257
 21
15.85
100
AcDbText
  0
TEXT
  5
44D
100
AcDbEntity
  8
0
100
AcDbText
 62
2
  6
CONTINUOUS
 10
17.2749123633
 20
0.8184107931
  7
STANDARD
 40
0.1
  1
1:1
 41
1.0
 72
0
100
AcDbText
  0
MTEXT
  5
44E
100
AcDbEntity
  8
0
100
AcDbMText
 62
2
  6
CONTINUOUS
  7
STANDARD
 71
1
 72
1
 10
19.4499123633
 20
0.9184107931
 30
0.0
 11
1.0
 21
0.0
 31
0.0
  1
1 OF 1
 40
0.1
 41
0.6
  0
TEXT
  5
44F
100
AcDbEntity
  8
0
100
AcDbText
 62
7
  6
CONTINUOUS
 10
18.5204017884
 20
1.1200373234
  7
STANDARD
 40
0.12
  1
145181
 41
1.0
 72
0
100
AcDbText
  0
MTEXT
  5
450
100
AcDbEntity
  8
0
100
AcDbMText
 62
2
  6
CONTINUOUS
  7
STANDARD
 71
1
 72
1
 10
1.7464424763
 20
1.7731130192
 30
0.0
 11
1.0
 21
0.0
 31
0.0
  1
NOTES:\P1. ALL DIMENSIONS ARE MILLIMETERS [INCHES] UNLESS OTHERWISE NOTED.
 40
0.1
 41
6.6
  0
INSERT
  5
451
100
AcDbEntity
  8
0
100
AcDbBlockReference
 62
2
  6
CONTINUOUS
  2
BANNER_LOGO_TITLEBLOCK_BL0
 10
17.5737928667
 20
2.4016160592
  0
DIMENSION
  5
452
100
AcDbEntity
  8
SCHEME_DIMS
100
AcDbDimension
 62
2
  6
CONTINUOUS
  2
*D0
 10
7.6109846487
 20
9.1855814845
 11
7.6109846487
 21
8.8115657364
 70
160
 42
19.0
  3
DIMSTYLE_1
100
AcDbAlignedDimension
 13
6.7010437038
 23
8.4375499884
 14
6.9642967565
 24
9.1855814845
 50
90.0
100
AcDbRotatedDimension
  0
DIMENSION
  5
453
100
AcDbEntity
  8
SCHEME_DIMS
100
AcDbDimension
 62
2
  6
CONTINUOUS
  2
*D1
 10
8.3609846487
 20
13.1934555002
 11
8.3609846487
 21
10.8536113585
 70
160
 42
120.8
  3
DIMSTYLE_1
100
AcDbAlignedDimension
 13
6.7010437038
 23
8.4375499884
 14
7.1347090293
 24
13.1934555002
 50
90.0
100
AcDbRotatedDimension
  0
DIMENSION
  5
454
100
AcDbEntity
  8
SCHEME_DIMS
100
AcDbDimension
 62
2
  6
CONTINUOUS
  2
*D2
 10
7.0125594518
 20
7.1252559111
 11
6.1267326802
 21
7.0502559111
 70
160
 42
45.0
  3
DIMSTYLE_1
100
AcDbAlignedDimension
 13
5.2409059085
 23
9.2169316796
 14
7.0125594518
 24
9.2099842346
100
AcDbRotatedDimension
  0
DIMENSION
  5
455
100
AcDbEntity
  8
SCHEME_DIMS
100
AcDbDimension
 62
2
  6
CONTINUOUS
  2
*D3
 10
6.9194537257
 20
4.7096701838
 11
7.8314614316
 21
4.8520220021
 70
163
 42
50.0
  1
<>
  3
DIMSTYLE_2
100
AcDbDiametricDimension
 15
5.3340116346
 25
3.5428878022
  0
DIMENSION
  5
456
100
AcDbEntity
  8
SCHEME_DIMS
100
AcDbDimension
 62
2
  6
CONTINUOUS
  2
*D4
 10
7.6109846487
 20
11.2446366026
 11
7.6109846487
 21
10.6401090435
 70
160
 42
26.9
  1
2X <>
  3
DIMSTYLE_1
100
AcDbAlignedDimension
 13
7.1734846487
 23
10.1855814845
 14
7.1734846487
 24
11.2446366026
 50
90.0
100
AcDbRotatedDimension
  0
LINE
  5
457
100
AcDbEntity
  8
0
100
AcDbLine
 62
2
  6
CONTINUOUS
 10
21.05
 20
0.75
 11
16.7
 21
0.75
  0
LINE
  5
458
100
AcDbEntity
  8
0
100
AcDbLine
 62
2
  6
CONTINUOUS
 10
21.05
 20
0.75
 11
21.05
 21
2.67
  0
LINE
  5
459
100
AcDbEntity
  8
0
100
AcDbLine
 62
2
  6
CONTINUOUS
 10
21.05
 20
2.67
 11
16.7
 21
2.67
  0
LINE
  5
45A
100
AcDbEntity
  8
0
100
AcDbLine
 62
2
  6
CONTINUOUS
 10
16.7
 20
0.75
 11
16.7
 21
2.67
  0
TEXT
  5
45B
100
AcDbEntity
  8
0
100
AcDbText
 62
7
  6
CONTINUOUS
 10
20.775
 20
1.13
  7
STANDARD
 40
0.1
  1
A
 41
1.0
 72
1
 11
20.825
 21
1.13
100
AcDbText
  0
MTEXT
  5
45C
100
AcDbEntity
  8
0
100
AcDbMText
 62
7
  6
CONTINUOUS
  7
STANDARD
 71
2
 72
1
 10
18.875
 20
1.83
 30
0.0
 11
1.0
 21
0.0
 31
0.0
  1
TL50 2-STACK CABLE\PWEB CAD DRAWINGS 2D/3D
 40
0.1
 41
2.2
  0
TEXT
  5
45D
100
AcDbEntity
  8
NOTES
100
AcDbText
 62
2
  6
CONTINUOUS
 10
3.4567056236
 20
8.2683597656
  7
STANDARD
 40
0.1
  1
M30 X 1.5-6g
 41
1.0
 72
0
100
AcDbText
  0
LINE
  5
45E
100
AcDbEntity
  8
NOTES
100
AcDbLine
 62
2
  6
CONTINUOUS
 10
5.5849415201
 20
8.5901161408
 11
4.9067056236
 21
8.3183597656
  0
LINE
  5
45F
100
AcDbEntity
  8
NOTES
100
AcDbLine
 62
2
  6
CONTINUOUS
 10
4.9067056236
 20
8.3183597656
 11
4.6567056236
 21
8.3183597656
  0
SOLID
  5
460
100
AcDbEntity
  8
NOTES
100
AcDbTrace
 62
2
  6
CONTINUOUS
 10
5.4225160456
 20
8.4913701143
 11
5.5849415201
 21
8.5901161408
 12
5.3992700627
 22
8.5493862697
 13
5.3992700627
 23
8.5493862697
  0
MTEXT
  5
461
100
AcDbEntity
  8
NOTES
100
AcDbMText
 62
2
  6
CONTINUOUS
  7
STANDARD
 71
2
 72
1
 10
17.3262752762
 20
4.6523317803
 30
0.0
 11
1.0
 21
0.0
 31
0.0
  1
ISOMETRIC VIEW\P\H0.1;SCALE  1:1
 40
0.125
 41
1.75
  0
TEXT
  5
462
100
AcDbEntity
  8
NOTES
100
AcDbText
 62
2
  6
CONTINUOUS
 10
3.4102131097
 20
4.8020695531
  7
STANDARD
 40
0.1
  1
1/2-14 NPSM
 41
1.0
 72
0
100
AcDbText
  0
LINE
  5
463
100
AcDbEntity
  8
NOTES
100
AcDbLine
 62
2
  6
CONTINUOUS
 10
5.7672895237
 20
4.2493268737
 11
4.7602131097
 21
4.8520695531
  0
LINE
  5
464
100
AcDbEntity
  8
NOTES
100
AcDbLine
 62
2
  6
CONTINUOUS
 10
4.7602131097
 20
4.8520695531
 11
4.5102131097
 21
4.8520695531
  0
SOLID
  5
465
100
AcDbEntity
  8
NOTES
100
AcDbTrace
 62
2
  6
CONTINUOUS
 10
5.5903551995
 20
4.3188039017
 11
5.7672895237
 21
4.2493268737
 12
5.6224523072
 22
4.3724324918
 13
5.6224523072
 23
4.3724324918
  0
LINE
  5
466
100
AcDbEntity
  8
0
100
AcDbLine
 62
2
  6
CONTINUOUS
 10
0.814
 20
8.336603
 11
0.814
 21
8.163397
  0
LINE
  5
467
100
AcDbEntity
  8
0
100
AcDbLine
 62
2
  6
CONTINUOUS
 10
0.964
 20
15.75
 11
0.964
 21
0.75
  0
LINE
  5
468
100
AcDbEntity
  8
0
100
AcDbLine
 62
7
  6
CONTINUOUS
 10
15.8276527477
 20
1.2966912523
 11
16.4340437477
 21
1.3660842523
  0
LINE
  5
469
100
AcDbEntity
  8
0
100
AcDbLine
 62
2
  6
CONTINUOUS
 10
10.920397
 20
0.6
 11
11.093603
 21
0.6
  0
LINE
  5
46A
100
AcDbEntity
  8
0
100
AcDbLine
 62
2
  6
CONTINUOUS
 10
0.964
 20
0.75
 11
21.05
 21
0.75
  0
LINE
  5
46B
100
AcDbEntity
  8
0
100
AcDbLine
 62
2
  6
CONTINUOUS
 10
3.507
 20
0.75
 11
3.507
 21
0.5
  0
LINE
  5
46C
100
AcDbEntity
  8
0
100
AcDbLine
 62
2
  6
CONTINUOUS
 10
3.507
 20
15.75
 11
3.507
 21
16.0
  0
LINE
  5
46D
100
AcDbEntity
  8
0
100
AcDbLine
 62
2
  6
CONTINUOUS
 10
16.7
 20
1.0
 11
21.05
 21
1.0
  0
LINE
  5
46E
100
AcDbEntity
  8
0
100
AcDbLine
 62
7
  6
CONTINUOUS
 10
14.9008917477
 20
1.1139932523
 11
15.1229827477
 21
1.1139932523
  0
LINE
  5
46F
100
AcDbEntity
  8
0
100
AcDbLine
 62
7
  6
CONTINUOUS
 10
15.1729827477
 20
1.1139932523
 11
15.2729827477
 21
1.1139932523
  0
LINE
  5
470
100
AcDbEntity
  8
0
100
AcDbLine
 62
7
  6
CONTINUOUS
 10
15.3229827477
 20
1.1139932523
 11
15.5450737477
 21
1.1139932523
  0
LINE
  5
471
100
AcDbEntity
  8
0
100
AcDbLine
 62
7
  6
CONTINUOUS
 10
15.7276527477
 20
1.1139932523
 11
16.0058047477
 21
1.1139932523
  0
LINE
  5
472
100
AcDbEntity
  8
0
100
AcDbLine
 62
7
  6
CONTINUOUS
 10
16.0558047477
 20
1.1139932523
 11
16.2058907477
 21
1.1139932523
  0
LINE
  5
473
100
AcDbEntity
  8
0
100
AcDbLine
 62
7
  6
CONTINUOUS
 10
16.2558907477
 20
1.1139932523
 11
16.5340437477
 21
1.1139932523
  0
LINE
  5
474
100
AcDbEntity
  8
0
100
AcDbLine
 62
2
  6
CONTINUOUS
 10
16.7
 20
1.37
 11
21.05
 21
1.37
  0
LINE
  5
475
100
AcDbEntity
  8
0
100
AcDbLine
 62
7
  6
CONTINUOUS
 10
16.4340437477
 20
0.8619022523
 11
15.8276527477
 21
0.9312952523
  0
LINE
  5
476
100
AcDbEntity
  8
0
100
AcDbLine
 62
2
  6
CONTINUOUS
 10
14.7
 20
1.77
 11
16.7
 21
1.77
  0
LINE
  5
477
100
AcDbEntity
  8
0
100
AcDbLine
 62
2
  6
CONTINUOUS
 10
16.7
 20
2.13
 11
21.05
 21
2.13
  0
LINE
  5
478
100
AcDbEntity
  8
0
100
AcDbLine
 62
2
  6
CONTINUOUS
 10
21.05
 20
2.67
 11
14.7
 21
2.67
  0
LINE
  5
479
100
AcDbEntity
  8
0
100
AcDbLine
 62
2
  6
CONTINUOUS
 10
6.007
 20
0.75
 11
6.007
 21
0.5
  0
LINE
  5
47A
100
AcDbEntity
  8
0
100
AcDbLine
 62
2
  6
CONTINUOUS
 10
6.007
 20
15.75
 11
6.007
 21
16.0
  0
LINE
  5
47B
100
AcDbEntity
  8
0
100
AcDbLine
 62
2
  6
CONTINUOUS
 10
0.814
 20
8.163397
 11
0.964
 21
8.25
  0
LINE
  5
47C
100
AcDbEntity
  8
0
100
AcDbLine
 62
2
  6
CONTINUOUS
 10
0.964
 20
8.25
 11
0.814
 21
8.336603
  0
LINE
  5
47D
100
AcDbEntity
  8
0
100
AcDbLine
 62
2
  6
CONTINUOUS
 10
0.964
 20
4.4
 11
0.714
 21
4.4
  0
LINE
  5
47E
100
AcDbEntity
  8
0
100
AcDbLine
 62
2
  6
CONTINUOUS
 10
21.05
 20
4.4
 11
21.3
 21
4.4
  0
LINE
  5
47F
100
AcDbEntity
  8
0
100
AcDbLine
 62
2
  6
CONTINUOUS
 10
11.093603
 20
0.6
 11
11.007
 21
0.75
  0
LINE
  5
480
100
AcDbEntity
  8
0
100
AcDbLine
 62
2
  6
CONTINUOUS
 10
11.007
 20
15.75
 11
11.093603
 21
15.9
  0
LINE
  5
481
100
AcDbEntity
  8
0
100
AcDbLine
 62
2
  6
CONTINUOUS
 10
8.507
 20
0.75
 11
8.507
 21
0.5
  0
LINE
  5
482
100
AcDbEntity
  8
0
100
AcDbLine
 62
2
  6
CONTINUOUS
 10
8.507
 20
15.75
 11
8.507
 21
16.0
  0
LINE
  5
483
100
AcDbEntity
  8
0
100
AcDbLine
 62
2
  6
CONTINUOUS
 10
11.007
 20
0.75
 11
11.007
 21
0.5
  0
LINE
  5
484
100
AcDbEntity
  8
0
100
AcDbLine
 62
2
  6
CONTINUOUS
 10
11.007
 20
15.75
 11
11.007
 21
16.0
  0
LINE
  5
485
100
AcDbEntity
  8
0
100
AcDbLine
 62
2
  6
CONTINUOUS
 10
0.964
 20
8.25
 11
0.714
 21
8.25
  0
LINE
  5
486
100
AcDbEntity
  8
0
100
AcDbLine
 62
2
  6
CONTINUOUS
 10
21.05
 20
8.25
 11
21.3
 21
8.25
  0
LINE
  5
487
100
AcDbEntity
  8
0
100
AcDbLine
 62
2
  6
CONTINUOUS
 10
13.507
 20
0.75
 11
13.507
 21
0.5
  0
LINE
  5
488
100
AcDbEntity
  8
0
100
AcDbLine
 62
2
  6
CONTINUOUS
 10
13.507
 20
15.75
 11
13.507
 21
16.0
  0
LINE
  5
489
100
AcDbEntity
  8
0
100
AcDbLine
 62
2
  6
CONTINUOUS
 10
14.7
 20
2.67
 11
14.7
 21
0.75
  0
LINE
  5
48A
100
AcDbEntity
  8
0
100
AcDbLine
 62
2
  6
CONTINUOUS
 10
11.007
 20
0.75
 11
10.920397
 21
0.6
  0
LINE
  5
48B
100
AcDbEntity
  8
0
100
AcDbLine
 62
2
  6
CONTINUOUS
 10
0.964
 20
12.1
 11
0.714
 21
12.1
  0
LINE
  5
48C
100
AcDbEntity
  8
0
100
AcDbLine
 62
2
  6
CONTINUOUS
 10
21.05
 20
12.1
 11
21.3
 21
12.1
  0
LINE
  5
48D
100
AcDbEntity
  8
0
100
AcDbLine
 62
2
  6
CONTINUOUS
 10
10.920397
 20
15.9
 11
11.007
 21
15.75
  0
LINE
  5
48E
100
AcDbEntity
  8
0
100
AcDbLine
 62
7
  6
CONTINUOUS
 10
15.2229827477
 20
1.0139932523
 11
15.2229827477
 21
0.7919022523
  0
LINE
  5
48F
100
AcDbEntity
  8
0
100
AcDbLine
 62
7
  6
CONTINUOUS
 10
15.2229827477
 20
1.0639932523
 11
15.2229827477
 21
1.1639932523
  0
LINE
  5
490
100
AcDbEntity
  8
0
100
AcDbLine
 62
7
  6
CONTINUOUS
 10
15.2229827477
 20
1.2139932523
 11
15.2229827477
 21
1.4360842523
  0
LINE
  5
491
100
AcDbEntity
  8
0
100
AcDbLine
 62
7
  6
CONTINUOUS
 10
15.8276527477
 20
0.9312952523
 11
15.8276527477
 21
1.2966912523
  0
LINE
  5
492
100
AcDbEntity
  8
0
100
AcDbLine
 62
2
  6
CONTINUOUS
 10
16.007
 20
0.75
 11
16.007
 21
0.5
  0
LINE
  5
493
100
AcDbEntity
  8
0
100
AcDbLine
 62
2
  6
CONTINUOUS
 10
16.007
 20
15.75
 11
16.007
 21
16.0
  0
LINE
  5
494
100
AcDbEntity
  8
0
100
AcDbLine
 62
7
  6
CONTINUOUS
 10
16.4340437477
 20
1.3660842523
 11
16.4340437477
 21
0.8619022523
  0
LINE
  5
495
100
AcDbEntity
  8
0
100
AcDbLine
 62
2
  6
CONTINUOUS
 10
21.2
 20
8.336603
 11
21.05
 21
8.25
  0
LINE
  5
496
100
AcDbEntity
  8
0
100
AcDbLine
 62
2
  6
CONTINUOUS
 10
21.05
 20
8.25
 11
21.2
 21
8.163397
  0
LINE
  5
497
100
AcDbEntity
  8
0
100
AcDbLine
 62
7
  6
CONTINUOUS
 10
16.7
 20
2.67
 11
16.7
 21
0.75
  0
LINE
  5
498
100
AcDbEntity
  8
0
100
AcDbLine
 62
2
  6
CONTINUOUS
 10
17.5
 20
1.37
 11
17.5
 21
1.0
  0
LINE
  5
499
100
AcDbEntity
  8
0
100
AcDbLine
 62
2
  6
CONTINUOUS
 10
18.507
 20
0.75
 11
18.507
 21
0.5
  0
LINE
  5
49A
100
AcDbEntity
  8
0
100
AcDbLine
 62
2
  6
CONTINUOUS
 10
18.507
 20
15.75
 11
18.507
 21
16.0
  0
LINE
  5
49B
100
AcDbEntity
  8
0
100
AcDbLine
 62
2
  6
CONTINUOUS
 10
21.05
 20
15.75
 11
0.964
 21
15.75
  0
LINE
  5
49C
100
AcDbEntity
  8
0
100
AcDbLine
 62
2
  6
CONTINUOUS
 10
11.093603
 20
15.9
 11
10.920397
 21
15.9
  0
LINE
  5
49D
100
AcDbEntity
  8
0
100
AcDbLine
 62
2
  6
CONTINUOUS
 10
18.875
 20
1.0
 11
18.875
 21
0.75
  0
LINE
  5
49E
100
AcDbEntity
  8
0
100
AcDbLine
 62
2
  6
CONTINUOUS
 10
20.25
 20
1.37
 11
20.25
 21
1.0
  0
LINE
  5
49F
100
AcDbEntity
  8
0
100
AcDbLine
 62
2
  6
CONTINUOUS
 10
21.05
 20
0.75
 11
21.05
 21
15.75
  0
LINE
  5
4A0
100
AcDbEntity
  8
0
100
AcDbLine
 62
2
  6
CONTINUOUS
 10
21.2
 20
8.163397
 11
21.2
 21
8.336603
  0
LINE
  5
4A1
100
AcDbEntity
  8
02___PRT_ALL_AXES
100
AcDbLine
 62
7
  6
CONTINUOUS
 10
6.0192326802
 20
7.3824318782
 11
6.2342326802
 21
7.3824318782
  0
LINE
  5
4A2
100
AcDbEntity
  8
0
100
AcDbLine
 62
7
  6
CONTINUOUS
 10
6.6385437038
 20
8.4375499884
 11
5.6149216565
 21
8.4375499884
  0
LINE
  5
4A3
100
AcDbEntity
  8
0
100
AcDbLine
 62
7
  6
CONTINUOUS
 10
5.5403442649
 20
8.527102214
 11
5.5757918304
 21
8.5066281668
  0
LWPOLYLINE
  5
4A4
100
AcDbEntity
  8
02___PRT_ALL_AXES
100
AcDbPolyline
 62
7
  6
CONTINUOUS
 90
5
 70
0
 10
6.3527165892
 20
8.5458436707
 10
6.3230685295
 20
8.5391782294
 10
6.292010616
 20
8.5330144999
 10
6.2607881014
 20
8.5277090925
 10
6.2304300596
 20
8.5234483487
  0
LWPOLYLINE
  5
4A5
100
AcDbEntity
  8
02___PRT_ALL_AXES
100
AcDbPolyline
 62
7
  6
CONTINUOUS
 90
4
 70
0
 10
6.3527165892
 20
8.6048987889
 10
6.3117408885
 20
8.5958857664
 10
6.2709603061
 20
8.5883918286
 10
6.2304300596
 20
8.5825034668
  0
LWPOLYLINE
  5
4A6
100
AcDbEntity
  8
02___PRT_ALL_AXES
100
AcDbPolyline
 62
7
  6
CONTINUOUS
 90
4
 70
0
 10
5.9007487711
 20
8.5457917391
 10
5.9417178181
 20
8.5548034158
 10
5.9824978248
 20
8.5622975077
 10
6.0230353007
 20
8.5681870612
  0
LWPOLYLINE
  5
4A7
100
AcDbEntity
  8
02___PRT_ALL_AXES
100
AcDbPolyline
 62
7
  6
CONTINUOUS
 90
4
 70
0
 10
6.3527165892
 20
8.663953907
 10
6.3117408885
 20
8.6549408845
 10
6.2709603061
 20
8.6474469467
 10
6.2304300596
 20
8.6415585849
  0
LWPOLYLINE
  5
4A8
100
AcDbEntity
  8
02___PRT_ALL_AXES
100
AcDbPolyline
 62
7
  6
CONTINUOUS
 90
5
 70
0
 10
6.5367629214
 20
8.6369058598
 10
6.4714093866
 20
8.6353706829
 10
6.3979869523
 20
8.6338571596
 10
6.3170373643
 20
8.6323343975
 10
6.2304300596
 20
8.6307999426
  0
LWPOLYLINE
  5
4A9
100
AcDbEntity
  8
02___PRT_ALL_AXES
100
AcDbPolyline
 62
7
  6
CONTINUOUS
 90
3
 70
0
 10
5.7448543339
 20
8.6019010255
 10
5.8190309436
 20
8.6033739414
 10
5.9007487711
 20
8.6048468572
  0
LWPOLYLINE
  5
4AA
100
AcDbEntity
  8
02___PRT_ALL_AXES
100
AcDbPolyline
 62
7
  6
CONTINUOUS
 90
9
 70
0
 10
6.3527165892
 20
8.5458436707
 10
6.4344344167
 20
8.5473165866
 10
6.5086110264
 20
8.5487895024
 10
6.5734284825
 20
8.5502624183
 10
6.6272982255
 20
8.5517353341
 10
6.6689000045
 20
8.55320825
 10
6.6972142345
 20
8.5546811658
 10
6.7115469845
 20
8.5561540817
 10
6.7131210954
 20
8.556629773
  0
LWPOLYLINE
  5
4AB
100
AcDbEntity
  8
02___PRT_ALL_AXES
100
AcDbPolyline
 62
7
  6
CONTINUOUS
 90
9
 70
0
 10
6.3527165892
 20
8.5532255605
 10
6.4344344167
 20
8.5546984764
 10
6.5086110264
 20
8.5561713922
 10
6.5734284825
 20
8.557644308
 10
6.6272982255
 20
8.5591172239
 10
6.6689000045
 20
8.5605901397
 10
6.6972142345
 20
8.5620630556
 10
6.7115469845
 20
8.5635359714
 10
6.7133468534
 20
8.5642724293
  0
LWPOLYLINE
  5
4AC
100
AcDbEntity
  8
02___PRT_ALL_AXES
100
AcDbPolyline
 62
7
  6
CONTINUOUS
 90
9
 70
0
 10
6.3527165892
 20
8.6048987889
 10
6.4344344167
 20
8.6063717047
 10
6.5086110264
 20
8.6078446205
 10
6.5734284825
 20
8.6093175364
 10
6.6272982255
 20
8.6107904522
 10
6.6689000045
 20
8.6122633681
 10
6.6972142345
 20
8.6137362839
 10
6.7115469845
 20
8.6152091998
 10
6.7131210954
 20
8.6156848911
  0
LWPOLYLINE
  5
4AD
100
AcDbEntity
  8
02___PRT_ALL_AXES
100
AcDbPolyline
 62
7
  6
CONTINUOUS
 90
9
 70
0
 10
6.3527165892
 20
8.6122806786
 10
6.4344344167
 20
8.6137535945
 10
6.5086110264
 20
8.6152265103
 10
6.5734284825
 20
8.6166994262
 10
6.6272982255
 20
8.618172342
 10
6.6689000045
 20
8.6196452578
 10
6.6972142345
 20
8.6211181737
 10
6.7115469845
 20
8.6225910895
 10
6.7133468534
 20
8.6233275475
  0
LWPOLYLINE
  5
4AE
100
AcDbEntity
  8
02___PRT_ALL_AXES
100
AcDbPolyline
 62
7
  6
CONTINUOUS
 90
9
 70
0
 10
6.3527165892
 20
8.663953907
 10
6.4344344167
 20
8.6654268228
 10
6.5086110264
 20
8.6668997387
 10
6.5734284825
 20
8.6683726545
 10
6.6272982255
 20
8.6698455703
 10
6.6689000045
 20
8.6713184862
 10
6.6972142345
 20
8.672791402
 10
6.7115469845
 20
8.6742643179
 10
6.7131210954
 20
8.6747400092
  0
LWPOLYLINE
  5
4AF
100
AcDbEntity
  8
02___PRT_ALL_AXES
100
AcDbPolyline
 62
7
  6
CONTINUOUS
 90
9
 70
0
 10
6.3527165892
 20
8.6713357967
 10
6.4344344167
 20
8.6728087126
 10
6.5086110264
 20
8.6742816284
 10
6.5734284825
 20
8.6757545443
 10
6.6272982255
 20
8.6772274601
 10
6.6689000045
 20
8.678700376
 10
6.6972142345
 20
8.6801732918
 10
6.7115469845
 20
8.6816462076
 10
6.7133468534
 20
8.6823826656
  0
LWPOLYLINE
  5
4B0
100
AcDbEntity
  8
02___PRT_ALL_AXES
100
AcDbPolyline
 62
7
  6
CONTINUOUS
 90
10
 70
0
 10
6.2304300596
 20
8.5234483487
 10
6.3162048002
 20
8.5249676806
 10
6.3973682677
 20
8.526493451
 10
6.4709650492
 20
8.5280093833
 10
6.5361929849
 20
8.5295397354
 10
6.5910270319
 20
8.5310839114
 10
6.6331818064
 20
8.5326205134
 10
6.6615323386
 20
8.5341360237
 10
6.6760893505
 20
8.5356683033
 10
6.6776735299
 20
8.5361557259
  0
LWPOLYLINE
  5
4B1
100
AcDbEntity
  8
02___PRT_ALL_AXES
100
AcDbPolyline
 62
7
  6
CONTINUOUS
 90
10
 70
0
 10
6.0230353007
 20
8.5681870612
 10
5.9358015628
 20
8.5666412217
 10
5.8540232911
 20
8.5651013158
 10
5.7805250258
 20
8.5635828185
 10
5.7161113551
 20
8.5620660479
 10
5.6624678763
 20
8.5605524334
 10
5.6207584415
 20
8.5590353653
 10
5.5922316019
 20
8.5575203329
 10
5.5774596712
 20
8.5559844586
 10
5.5757918304
 20
8.555479684
  0
LWPOLYLINE
  5
4B2
100
AcDbEntity
  8
02___PRT_ALL_AXES
100
AcDbPolyline
 62
7
  6
CONTINUOUS
 90
10
 70
0
 10
6.2304300596
 20
8.5825034668
 10
6.3170373643
 20
8.5840379217
 10
6.3979869523
 20
8.5855606839
 10
6.4714093866
 20
8.5870742071
 10
6.5367629214
 20
8.588609384
 10
6.5916188643
 20
8.5901577856
 10
6.6337055682
 20
8.591698328
 10
6.6618939293
 20
8.5932167623
 10
6.6761594679
 20
8.5947382727
 10
6.6776735299
 20
8.595210844
  0
LWPOLYLINE
  5
4B3
100
AcDbEntity
  8
02___PRT_ALL_AXES
100
AcDbPolyline
 62
7
  6
CONTINUOUS
 90
10
 70
0
 10
6.0230353007
 20
8.6272421793
 10
5.935916703
 20
8.6256984327
 10
5.8542849119
 20
8.6241615668
 10
5.7808109447
 20
8.6226442008
 10
5.7157251459
 20
8.6211112877
 10
5.6611358386
 20
8.6195652606
 10
5.6193032383
 20
8.6180274287
 10
5.5913188148
 20
8.6165108152
 10
5.5772037445
 20
8.6149851969
 10
5.5757918304
 20
8.6145348021
  0
LWPOLYLINE
  5
4B4
100
AcDbEntity
  8
02___PRT_ALL_AXES
100
AcDbPolyline
 62
7
  6
CONTINUOUS
 90
10
 70
0
 10
6.2304300596
 20
8.6415585849
 10
6.3176054834
 20
8.6431033644
 10
6.3993403032
 20
8.6446423335
 10
6.4727792779
 20
8.6461592986
 10
6.5369999436
 20
8.6476705523
 10
6.5908215692
 20
8.6491876499
 10
6.6327270215
 20
8.6507111452
 10
6.6612460694
 20
8.6522261732
 10
6.6760046459
 20
8.6537609736
 10
6.6776735299
 20
8.6542659621
  0
LINE
  5
4B5
100
AcDbEntity
  8
0
100
AcDbLine
 62
9
  6
CONTINUOUS
 10
5.5755515778
 20
8.4769200671
 11
6.6779137825
 21
8.4769200671
  0
LWPOLYLINE
  5
4B6
100
AcDbEntity
  8
02___PRT_ALL_AXES
100
AcDbPolyline
 62
7
  6
CONTINUOUS
 90
4
 70
0
 10
6.0230353007
 20
8.5198905854
 10
5.9825058502
 20
8.5244420391
 10
5.9417220699
 20
8.5306406369
 10
5.9007487711
 20
8.5384098494
  0
LWPOLYLINE
  5
4B7
100
AcDbEntity
  8
02___PRT_ALL_AXES
100
AcDbPolyline
 62
7
  6
CONTINUOUS
 90
4
 70
0
 10
6.0230353007
 20
8.5789457035
 10
5.9825058502
 20
8.5834971572
 10
5.9417220699
 20
8.589695755
 10
5.9007487711
 20
8.5974649675
  0
LWPOLYLINE
  5
4B8
100
AcDbEntity
  8
02___PRT_ALL_AXES
100
AcDbPolyline
 62
7
  6
CONTINUOUS
 90
4
 70
0
 10
6.0230353007
 20
8.6380008216
 10
5.9825158756
 20
8.6425509478
 10
5.9417330789
 20
8.6487489888
 10
5.9007487711
 20
8.6565200856
  0
LWPOLYLINE
  5
4B9
100
AcDbEntity
  8
02___PRT_ALL_AXES
100
AcDbPolyline
 62
7
  6
CONTINUOUS
 90
4
 70
0
 10
6.2304300596
 20
8.6307999426
 10
6.2709670733
 20
8.6262474873
 10
6.3117502091
 20
8.6200487068
 10
6.3527165892
 20
8.6122806786
  0
LWPOLYLINE
  5
4BA
100
AcDbEntity
  8
02___PRT_ALL_AXES
100
AcDbPolyline
 62
7
  6
CONTINUOUS
 90
4
 70
0
 10
6.2304300596
 20
8.5717448245
 10
6.2712364042
 20
8.5671566656
 10
6.3127800329
 20
8.5608168207
 10
6.3527165892
 20
8.5532255605
  0
LINE
  5
4BB
100
AcDbEntity
  8
0
100
AcDbLine
 62
7
  6
CONTINUOUS
 10
5.5403442649
 20
8.5861573321
 11
5.5757918304
 21
8.5656832849
  0
LINE
  5
4BC
100
AcDbEntity
  8
0
100
AcDbLine
 62
7
  6
CONTINUOUS
 10
5.5403442649
 20
8.6452124502
 11
5.5757918304
 21
8.6247384031
  0
LINE
  5
4BD
100
AcDbEntity
  8
0
100
AcDbLine
 62
7
  6
CONTINUOUS
 10
5.5403442649
 20
8.7042675683
 11
5.5757918304
 21
8.6837935212
  0
LINE
  5
4BE
100
AcDbEntity
  8
0
100
AcDbLine
 62
7
  6
CONTINUOUS
 10
5.5403442649
 20
8.7633226864
 11
5.5757918304
 21
8.7428486393
  0
LWPOLYLINE
  5
4BF
100
AcDbEntity
  8
02___PRT_ALL_AXES
100
AcDbPolyline
 62
7
  6
CONTINUOUS
 90
5
 70
0
 10
6.3527165892
 20
8.7820641432
 10
6.3233900591
 20
8.7754669732
 10
6.2927099762
 20
8.7693642089
 10
6.2614711474
 20
8.7640357571
 10
6.2304300596
 20
8.7596688211
  0
LWPOLYLINE
  5
4C0
100
AcDbEntity
  8
02___PRT_ALL_AXES
100
AcDbPolyline
 62
7
  6
CONTINUOUS
 90
4
 70
0
 10
5.9007487711
 20
8.6048468572
 10
5.9417178181
 20
8.6138585339
 10
5.9824978248
 20
8.6213526258
 10
6.0230353007
 20
8.6272421793
  0
LWPOLYLINE
  5
4C1
100
AcDbEntity
  8
02___PRT_ALL_AXES
100
AcDbPolyline
 62
7
  6
CONTINUOUS
 90
4
 70
0
 10
6.3527165892
 20
8.7230090251
 10
6.3117408885
 20
8.7139960026
 10
6.2709603061
 20
8.7065020648
 10
6.2304300596
 20
8.700613703
  0
LWPOLYLINE
  5
4C2
100
AcDbEntity
  8
02___PRT_ALL_AXES
100
AcDbPolyline
 62
7
  6
CONTINUOUS
 90
4
 70
0
 10
5.9007487711
 20
8.6639019753
 10
5.9417262041
 20
8.6729153482
 10
5.9825053631
 20
8.6804089866
 10
6.0230353007
 20
8.6862972974
  0
LWPOLYLINE
  5
4C3
100
AcDbEntity
  8
02___PRT_ALL_AXES
100
AcDbPolyline
 62
7
  6
CONTINUOUS
 90
4
 70
0
 10
5.9007487711
 20
8.7229570935
 10
5.9417178181
 20
8.7319687702
 10
5.9824978248
 20
8.739462862
 10
6.0230353007
 20
8.7453524155
  0
LWPOLYLINE
  5
4C4
100
AcDbEntity
  8
02___PRT_ALL_AXES
100
AcDbPolyline
 62
7
  6
CONTINUOUS
 90
4
 70
0
 10
6.3527165892
 20
8.8411192613
 10
6.3117408885
 20
8.8321062388
 10
6.2709603061
 20
8.824612301
 10
6.2304300596
 20
8.8187239393
  0
LWPOLYLINE
  5
4C5
100
AcDbEntity
  8
02___PRT_ALL_AXES
100
AcDbPolyline
 62
7
  6
CONTINUOUS
 90
4
 70
0
 10
5.9007487711
 20
8.7820122116
 10
5.9417178181
 20
8.7910238883
 10
5.9824978248
 20
8.7985179801
 10
6.0230353007
 20
8.8044075336
  0
LWPOLYLINE
  5
4C6
100
AcDbEntity
  8
02___PRT_ALL_AXES
100
AcDbPolyline
 62
7
  6
CONTINUOUS
 90
5
 70
0
 10
5.6493958434
 20
8.7372887775
 10
5.6121134444
 20
8.7358101459
 10
5.5874854027
 20
8.7343269129
 10
5.5761944213
 20
8.7328215014
 10
5.5757918304
 20
8.7326450383
  0
LWPOLYLINE
  5
4C7
100
AcDbEntity
  8
02___PRT_ALL_AXES
100
AcDbPolyline
 62
7
  6
CONTINUOUS
 90
5
 70
0
 10
6.6040695169
 20
8.8858426954
 10
6.6413484351
 20
8.8873211613
 10
6.6659781245
 20
8.8888044089
 10
6.6772706289
 20
8.8903098619
 10
6.6776735299
 20
8.8904864345
  0
LWPOLYLINE
  5
4C8
100
AcDbEntity
  8
02___PRT_ALL_AXES
100
AcDbPolyline
 62
7
  6
CONTINUOUS
 90
7
 70
0
 10
5.6493958434
 20
8.6889923017
 10
5.6932031044
 20
8.6903269573
 10
5.7460158171
 20
8.6916681783
 10
5.8061680671
 20
8.6930010187
 10
5.8731770191
 20
8.6943419484
 10
5.9461477933
 20
8.6956974944
 10
6.0230353007
 20
8.6970559397
  0
LWPOLYLINE
  5
4C9
100
AcDbEntity
  8
02___PRT_ALL_AXES
100
AcDbPolyline
 62
7
  6
CONTINUOUS
 90
5
 70
0
 10
5.6187099039
 20
8.7094495947
 10
5.6730168753
 20
8.710980997
 10
5.7393422321
 20
8.7125123992
 10
5.8159290953
 20
8.7140438014
 10
5.9007487711
 20
8.7155752037
  0
LWPOLYLINE
  5
4CA
100
AcDbEntity
  8
02___PRT_ALL_AXES
100
AcDbPolyline
 62
7
  6
CONTINUOUS
 90
5
 70
0
 10
5.6187099039
 20
8.7168314845
 10
5.6730168753
 20
8.7183628867
 10
5.7393422321
 20
8.719894289
 10
5.8159290953
 20
8.7214256912
 10
5.9007487711
 20
8.7229570935
  0
LWPOLYLINE
  5
4CB
100
AcDbEntity
  8
02___PRT_ALL_AXES
100
AcDbPolyline
 62
7
  6
CONTINUOUS
 90
7
 70
0
 10
6.4723689443
 20
8.7052054305
 10
6.537267728
 20
8.7067325111
 10
6.5915717581
 20
8.7082665268
 10
6.6332106367
 20
8.7097871137
 10
6.6615036898
 20
8.7112993601
 10
6.6760965032
 20
8.7128351594
 10
6.6776735299
 20
8.7133210802
  0
LWPOLYLINE
  5
4CC
100
AcDbEntity
  8
02___PRT_ALL_AXES
100
AcDbPolyline
 62
7
  6
CONTINUOUS
 90
5
 70
0
 10
5.7175378346
 20
8.8090815486
 10
5.7829716682
 20
8.8106154285
 10
5.8566053374
 20
8.8121310193
 10
5.9371165156
 20
8.8136442282
 10
6.0230353007
 20
8.815166176
  0
LWPOLYLINE
  5
4CD
100
AcDbEntity
  8
02___PRT_ALL_AXES
100
AcDbPolyline
 62
7
  6
CONTINUOUS
 90
9
 70
0
 10
6.3527165892
 20
8.7230090251
 10
6.4344344167
 20
8.7244819409
 10
6.5086110264
 20
8.7259548568
 10
6.5734284825
 20
8.7274277726
 10
6.6272982255
 20
8.7289006885
 10
6.6689000045
 20
8.7303736043
 10
6.6972142345
 20
8.7318465201
 10
6.7115469845
 20
8.733319436
 10
6.7131210954
 20
8.7337951273
  0
LWPOLYLINE
  5
4CE
100
AcDbEntity
  8
02___PRT_ALL_AXES
100
AcDbPolyline
 62
7
  6
CONTINUOUS
 90
9
 70
0
 10
6.3527165892
 20
8.7303909148
 10
6.4344344167
 20
8.7318638307
 10
6.5086110264
 20
8.7333367465
 10
6.5734284825
 20
8.7348096624
 10
6.6272982255
 20
8.7362825782
 10
6.6689000045
 20
8.7377554941
 10
6.6972142345
 20
8.7392284099
 10
6.7115469845
 20
8.7407013258
 10
6.7133468534
 20
8.7414377837
  0
LWPOLYLINE
  5
4CF
100
AcDbEntity
  8
02___PRT_ALL_AXES
100
AcDbPolyline
 62
7
  6
CONTINUOUS
 90
9
 70
0
 10
6.3527165892
 20
8.7820641432
 10
6.4344344167
 20
8.783537059
 10
6.5086110264
 20
8.7850099749
 10
6.5734284825
 20
8.7864828907
 10
6.6272982255
 20
8.7879558066
 10
6.6689000045
 20
8.7894287224
 10
6.6972142345
 20
8.7909016383
 10
6.7115469845
 20
8.7923745541
 10
6.7131210954
 20
8.7928502455
  0
LWPOLYLINE
  5
4D0
100
AcDbEntity
  8
02___PRT_ALL_AXES
100
AcDbPolyline
 62
7
  6
CONTINUOUS
 90
9
 70
0
 10
6.3527165892
 20
8.789446033
 10
6.4344344167
 20
8.7909189488
 10
6.5086110264
 20
8.7923918646
 10
6.5734284825
 20
8.7938647805
 10
6.6272982255
 20
8.7953376963
 10
6.6689000045
 20
8.7968106122
 10
6.6972142345
 20
8.798283528
 10
6.7115469845
 20
8.7997564439
 10
6.7133468534
 20
8.8004929018
  0
LWPOLYLINE
  5
4D1
100
AcDbEntity
  8
02___PRT_ALL_AXES
100
AcDbPolyline
 62
7
  6
CONTINUOUS
 90
9
 70
0
 10
6.3527165892
 20
8.8411192613
 10
6.4344344167
 20
8.8425921771
 10
6.5086110264
 20
8.844065093
 10
6.5734284825
 20
8.8455380088
 10
6.6272982255
 20
8.8470109247
 10
6.6689000045
 20
8.8484838405
 10
6.6972142345
 20
8.8499567564
 10
6.7115469845
 20
8.8514296722
 10
6.7131210954
 20
8.8519053636
  0
LWPOLYLINE
  5
4D2
100
AcDbEntity
  8
02___PRT_ALL_AXES
100
AcDbPolyline
 62
7
  6
CONTINUOUS
 90
9
 70
0
 10
6.3527165892
 20
8.8485011511
 10
6.4344344167
 20
8.8499740669
 10
6.5086110264
 20
8.8514469828
 10
6.5734284825
 20
8.8529198986
 10
6.6272982255
 20
8.8543928144
 10
6.6689000045
 20
8.8558657303
 10
6.6972142345
 20
8.8573386461
 10
6.7115469845
 20
8.858811562
 10
6.7133468534
 20
8.8595480199
  0
LWPOLYLINE
  5
4D3
100
AcDbEntity
  8
02___PRT_ALL_AXES
100
AcDbPolyline
 62
7
  6
CONTINUOUS
 90
10
 70
0
 10
6.0230353007
 20
8.6862972974
 10
5.9376048562
 20
8.6847842167
 10
5.8567785201
 20
8.6832655283
 10
5.7831251274
 20
8.6817498971
 10
5.7177544792
 20
8.6802181824
 10
5.6627830695
 20
8.6786726332
 10
5.6205045374
 20
8.6771346705
 10
5.5920798201
 20
8.6756199442
 10
5.5775089179
 20
8.6741047317
 10
5.5757918304
 20
8.6735899202
  0
LWPOLYLINE
  5
4D4
100
AcDbEntity
  8
02___PRT_ALL_AXES
100
AcDbPolyline
 62
7
  6
CONTINUOUS
 90
4
 70
0
 10
6.2304300596
 20
8.700613703
 10
6.3172095944
 20
8.7021512875
 10
6.3987987817
 20
8.7036868304
 10
6.4723689443
 20
8.7052054305
  0
LWPOLYLINE
  5
4D5
100
AcDbEntity
  8
02___PRT_ALL_AXES
100
AcDbPolyline
 62
7
  6
CONTINUOUS
 90
7
 70
0
 10
6.0230353007
 20
8.7453524155
 10
5.9461477933
 20
8.7439939701
 10
5.8731770191
 20
8.7426384242
 10
5.8061680671
 20
8.7412974945
 10
5.7460158171
 20
8.739964654
 10
5.6932031044
 20
8.7386234331
 10
5.6493958434
 20
8.7372887775
  0
LWPOLYLINE
  5
4D6
100
AcDbEntity
  8
02___PRT_ALL_AXES
100
AcDbPolyline
 62
7
  6
CONTINUOUS
 90
10
 70
0
 10
6.2304300596
 20
8.7596688211
 10
6.3163796282
 20
8.761191328
 10
6.3968942479
 20
8.7627046473
 10
6.4705222583
 20
8.7642201918
 10
6.5359539955
 20
8.7657541223
 10
6.5909429584
 20
8.7673017242
 10
6.6331990606
 20
8.7688417315
 10
6.6615665359
 20
8.7703589072
 10
6.6760145571
 20
8.7718732448
 10
6.6776735299
 20
8.7723761983
  0
LWPOLYLINE
  5
4D7
100
AcDbEntity
  8
02___PRT_ALL_AXES
100
AcDbPolyline
 62
7
  6
CONTINUOUS
 90
10
 70
0
 10
6.0230353007
 20
8.8044075336
 10
5.9358507702
 20
8.8028625886
 10
5.8541148646
 20
8.801323585
 10
5.780672895
 20
8.799806531
 10
5.7162977806
 20
8.7982912845
 10
5.6620044556
 20
8.7967582265
 10
5.6200905108
 20
8.7952270186
 10
5.5918087262
 20
8.7937110834
 10
5.5773383982
 20
8.7921796488
 10
5.5757918304
 20
8.7917001564
  0
LWPOLYLINE
  5
4D8
100
AcDbEntity
  8
02___PRT_ALL_AXES
100
AcDbPolyline
 62
7
  6
CONTINUOUS
 90
10
 70
0
 10
6.2304300596
 20
8.8187239393
 10
6.3176096004
 20
8.8202687936
 10
6.39934638
 20
8.8218078071
 10
6.472786811
 20
8.823324818
 10
6.5371367908
 20
8.8248394018
 10
6.5914126794
 20
8.8263717171
 10
6.6333319257
 20
8.8279025961
 10
6.6616291462
 20
8.829418446
 10
6.6761184794
 20
8.8309500283
 10
6.6776735299
 20
8.8314313164
  0
LWPOLYLINE
  5
4D9
100
AcDbEntity
  8
02___PRT_ALL_AXES
100
AcDbPolyline
 62
7
  6
CONTINUOUS
 90
10
 70
0
 10
6.0230353007
 20
8.8634626517
 10
5.9371165156
 20
8.8619407039
 10
5.8566053374
 20
8.8604274951
 10
5.7829716682
 20
8.8589119042
 10
5.7175378346
 20
8.8573780244
 10
5.6625468941
 20
8.8558305233
 10
5.6202883627
 20
8.8542906948
 10
5.5919150405
 20
8.8527737093
 10
5.5774581586
 20
8.8512597388
 10
5.5757918304
 20
8.8507552745
  0
LWPOLYLINE
  5
4DA
100
AcDbEntity
  8
02___PRT_ALL_AXES
100
AcDbPolyline
 62
7
  6
CONTINUOUS
 90
7
 70
0
 10
6.2304300596
 20
8.8777790574
 10
6.3073079769
 20
8.8791373297
 10
6.3802723563
 20
8.8804927417
 10
6.4472711058
 20
8.8818334294
 10
6.5074331371
 20
8.8831664319
 10
6.5602530274
 20
8.8845077849
 10
6.6040695169
 20
8.8858426954
  0
LWPOLYLINE
  5
4DB
100
AcDbEntity
  8
02___PRT_ALL_AXES
100
AcDbPolyline
 62
7
  6
CONTINUOUS
 90
5
 70
0
 10
6.0230353007
 20
8.815166176
 10
5.9920254772
 20
8.8185014498
 10
5.9607994118
 20
8.822820115
 10
5.9301094496
 20
8.8279656668
 10
5.9007487711
 20
8.8336854399
  0
LWPOLYLINE
  5
4DC
100
AcDbEntity
  8
02___PRT_ALL_AXES
100
AcDbPolyline
 62
7
  6
CONTINUOUS
 90
5
 70
0
 10
6.2304300596
 20
8.8079652969
 10
6.2615009035
 20
8.8046225117
 10
6.2927540354
 20
8.8002978478
 10
6.3234309021
 20
8.7951521727
 10
6.3527165892
 20
8.789446033
  0
LWPOLYLINE
  5
4DD
100
AcDbEntity
  8
02___PRT_ALL_AXES
100
AcDbPolyline
 62
7
  6
CONTINUOUS
 90
4
 70
0
 10
6.0230353007
 20
8.6970559397
 10
5.9825058502
 20
8.7016073935
 10
5.9417220699
 20
8.7078059913
 10
5.9007487711
 20
8.7155752037
  0
LWPOLYLINE
  5
4DE
100
AcDbEntity
  8
02___PRT_ALL_AXES
100
AcDbPolyline
 62
7
  6
CONTINUOUS
 90
4
 70
0
 10
6.2304300596
 20
8.6898550607
 10
6.2709670733
 20
8.6853026054
 10
6.3117502091
 20
8.6791038249
 10
6.3527165892
 20
8.6713357967
  0
LWPOLYLINE
  5
4DF
100
AcDbEntity
  8
02___PRT_ALL_AXES
100
AcDbPolyline
 62
7
  6
CONTINUOUS
 90
4
 70
0
 10
6.0230353007
 20
8.7561110578
 10
5.9825058502
 20
8.7606625116
 10
5.9417220699
 20
8.7668611094
 10
5.9007487711
 20
8.7746303218
  0
LWPOLYLINE
  5
4E0
100
AcDbEntity
  8
02___PRT_ALL_AXES
100
AcDbPolyline
 62
7
  6
CONTINUOUS
 90
4
 70
0
 10
6.2304300596
 20
8.7489101788
 10
6.2709670733
 20
8.7443577235
 10
6.3117502091
 20
8.738158943
 10
6.3527165892
 20
8.7303909148
  0
LWPOLYLINE
  5
4E1
100
AcDbEntity
  8
02___PRT_ALL_AXES
100
AcDbPolyline
 62
7
  6
CONTINUOUS
 90
4
 70
0
 10
6.0230353007
 20
8.8742212941
 10
5.9825058502
 20
8.8787727478
 10
5.9417220699
 20
8.8849713456
 10
5.9007487711
 20
8.892740558
  0
LINE
  5
4E2
100
AcDbEntity
  8
0
100
AcDbLine
 62
7
  6
CONTINUOUS
 10
5.5403442649
 20
8.8223778045
 11
5.5757918304
 21
8.8019037574
  0
LINE
  5
4E3
100
AcDbEntity
  8
0
100
AcDbLine
 62
7
  6
CONTINUOUS
 10
5.5403442649
 20
8.8814329226
 11
5.5757918304
 21
8.8609588755
  0
LINE
  5
4E4
100
AcDbEntity
  8
0
100
AcDbLine
 62
7
  6
CONTINUOUS
 10
5.5403442649
 20
8.9404880407
 11
5.5757918304
 21
8.9200139936
  0
LINE
  5
4E5
100
AcDbEntity
  8
0
100
AcDbLine
 62
7
  6
CONTINUOUS
 10
5.5403442649
 20
8.9995431588
 11
5.5757918304
 21
8.9790691117
  0
LINE
  5
4E6
100
AcDbEntity
  8
02___PRT_ALL_AXES
100
AcDbLine
 62
7
  6
CONTINUOUS
 10
5.5403442649
 20
8.527102214
 11
5.5401185069
 21
8.5273629805
  0
LINE
  5
4E7
100
AcDbEntity
  8
02___PRT_ALL_AXES
100
AcDbLine
 62
7
  6
CONTINUOUS
 10
5.5403442649
 20
8.5861573321
 11
5.5401185069
 21
8.5864180986
  0
LINE
  5
4E8
100
AcDbEntity
  8
02___PRT_ALL_AXES
100
AcDbLine
 62
7
  6
CONTINUOUS
 10
5.5403442649
 20
8.6452124502
 11
5.5401185069
 21
8.6454732167
  0
LINE
  5
4E9
100
AcDbEntity
  8
02___PRT_ALL_AXES
100
AcDbLine
 62
7
  6
CONTINUOUS
 10
5.5403442649
 20
8.7042675683
 11
5.5401185069
 21
8.7045283349
  0
LINE
  5
4EA
100
AcDbEntity
  8
02___PRT_ALL_AXES
100
AcDbLine
 62
7
  6
CONTINUOUS
 10
5.5403442649
 20
8.7633226864
 11
5.5401185069
 21
8.763583453
  0
LWPOLYLINE
  5
4EB
100
AcDbEntity
  8
02___PRT_ALL_AXES
100
AcDbPolyline
 62
7
  6
CONTINUOUS
 90
5
 70
0
 10
5.9007487711
 20
8.8410673297
 10
5.9300052734
 20
8.8476496185
 10
5.9606676456
 20
8.853751019
 10
5.9919289268
 20
8.8590855424
 10
6.0230353007
 20
8.8634626517
  0
LWPOLYLINE
  5
4EC
100
AcDbEntity
  8
02___PRT_ALL_AXES
100
AcDbPolyline
 62
7
  6
CONTINUOUS
 90
4
 70
0
 10
6.3527165892
 20
8.9001743794
 10
6.3117408885
 20
8.8911613569
 10
6.2709603061
 20
8.8836674191
 10
6.2304300596
 20
8.8777790574
  0
LWPOLYLINE
  5
4ED
100
AcDbEntity
  8
02___PRT_ALL_AXES
100
AcDbPolyline
 62
7
  6
CONTINUOUS
 90
4
 70
0
 10
6.3527165892
 20
8.9592294975
 10
6.3117302863
 20
8.9502143307
 10
6.2709507308
 20
8.9427209588
 10
6.2304300596
 20
8.9368341755
  0
LWPOLYLINE
  5
4EE
100
AcDbEntity
  8
02___PRT_ALL_AXES
100
AcDbPolyline
 62
7
  6
CONTINUOUS
 90
4
 70
0
 10
5.9007487711
 20
8.9001224478
 10
5.9417178181
 20
8.9091341245
 10
5.9824978248
 20
8.9166282163
 10
6.0230353007
 20
8.9225177698
  0
LWPOLYLINE
  5
4EF
100
AcDbEntity
  8
02___PRT_ALL_AXES
100
AcDbPolyline
 62
7
  6
CONTINUOUS
 90
4
 70
0
 10
6.3527165892
 20
9.0182846156
 10
6.3117408885
 20
9.0092715932
 10
6.2709603061
 20
9.0017776553
 10
6.2304300596
 20
8.9958892936
  0
LWPOLYLINE
  5
4F0
100
AcDbEntity
  8
02___PRT_ALL_AXES
100
AcDbPolyline
 62
7
  6
CONTINUOUS
 90
4
 70
0
 10
5.9007487711
 20
8.9591775659
 10
5.9417178181
 20
8.9681892426
 10
5.9824978248
 20
8.9756833344
 10
6.0230353007
 20
8.9815728879
  0
LWPOLYLINE
  5
4F1
100
AcDbEntity
  8
02___PRT_ALL_AXES
100
AcDbPolyline
 62
7
  6
CONTINUOUS
 90
4
 70
0
 10
6.3527165892
 20
9.0773397337
 10
6.3117408885
 20
9.0683267113
 10
6.2709603061
 20
9.0608327734
 10
6.2304300596
 20
9.0549444117
  0
LWPOLYLINE
  5
4F2
100
AcDbEntity
  8
02___PRT_ALL_AXES
100
AcDbPolyline
 62
7
  6
CONTINUOUS
 90
5
 70
0
 10
6.6347554564
 20
8.9062999884
 10
6.6738291664
 20
8.9077516365
 10
6.6998781753
 20
8.9092032845
 10
6.7122823355
 20
8.9106549326
 10
6.7131210954
 20
8.9109604817
  0
LWPOLYLINE
  5
4F3
100
AcDbEntity
  8
02___PRT_ALL_AXES
100
AcDbPolyline
 62
7
  6
CONTINUOUS
 90
5
 70
0
 10
6.6347554564
 20
8.9136818782
 10
6.6738291664
 20
8.9151335262
 10
6.6998781753
 20
8.9165851743
 10
6.7122823355
 20
8.9180368224
 10
6.7133468534
 20
8.918603138
  0
LWPOLYLINE
  5
4F4
100
AcDbEntity
  8
02___PRT_ALL_AXES
100
AcDbPolyline
 62
7
  6
CONTINUOUS
 90
7
 70
0
 10
6.6040695169
 20
8.9341391712
 10
6.5602530274
 20
8.9328042607
 10
6.5074331371
 20
8.9314629077
 10
6.4472711058
 20
8.9301299052
 10
6.3802723563
 20
8.9287892175
 10
6.3073079769
 20
8.9274338054
 10
6.2304300596
 20
8.9260755331
  0
LWPOLYLINE
  5
4F5
100
AcDbEntity
  8
02___PRT_ALL_AXES
100
AcDbPolyline
 62
7
  6
CONTINUOUS
 90
4
 70
0
 10
5.6800368778
 20
9.0064320467
 10
5.7448543339
 20
9.0079049626
 10
5.8190309436
 20
9.0093778784
 10
5.9007487711
 20
9.0108507942
  0
LWPOLYLINE
  5
4F6
100
AcDbEntity
  8
02___PRT_ALL_AXES
100
AcDbPolyline
 62
7
  6
CONTINUOUS
 90
8
 70
0
 10
6.4344344167
 20
9.0861945393
 10
6.5086110264
 20
9.0876674552
 10
6.5734284825
 20
9.089140371
 10
6.6272982255
 20
9.0906132869
 10
6.6689000045
 20
9.0920862027
 10
6.6972142345
 20
9.0935591186
 10
6.7115469845
 20
9.0950320344
 10
6.7133468534
 20
9.0957684923
  0
LWPOLYLINE
  5
4F7
100
AcDbEntity
  8
02___PRT_ALL_AXES
100
AcDbPolyline
 62
7
  6
CONTINUOUS
 90
3
 70
0
 10
5.8555403886
 20
8.9892755273
 10
5.9364555965
 20
8.9907975769
 10
6.0230353007
 20
8.9923315303
  0
LWPOLYLINE
  5
4F8
100
AcDbEntity
  8
02___PRT_ALL_AXES
100
AcDbPolyline
 62
7
  6
CONTINUOUS
 90
3
 70
0
 10
6.3992311025
 20
9.0472673756
 10
6.3175663378
 20
9.0457298373
 10
6.2304300596
 20
9.0441857694
  0
LWPOLYLINE
  5
4F9
100
AcDbEntity
  8
02___PRT_ALL_AXES
100
AcDbPolyline
 62
7
  6
CONTINUOUS
 90
9
 70
0
 10
6.31586143
 20
8.9383472729
 10
6.3966670545
 20
8.9398655576
 10
6.4703172512
 20
8.9413810745
 10
6.5356882057
 20
8.9429127137
 10
6.5906636089
 20
8.9444582497
 10
6.6329491251
 20
8.9459962981
 10
6.6613793652
 20
8.9475110954
 10
6.6759515328
 20
8.9490257476
 10
6.6776735299
 20
8.9495415527
  0
LWPOLYLINE
  5
4FA
100
AcDbEntity
  8
02___PRT_ALL_AXES
100
AcDbPolyline
 62
7
  6
CONTINUOUS
 90
5
 70
0
 10
6.3527165892
 20
8.9001743794
 10
6.437536265
 20
8.9017057817
 10
6.5141231282
 20
8.9032371839
 10
6.580448485
 20
8.9047685862
 10
6.6347554564
 20
8.9062999884
  0
LWPOLYLINE
  5
4FB
100
AcDbEntity
  8
02___PRT_ALL_AXES
100
AcDbPolyline
 62
7
  6
CONTINUOUS
 90
5
 70
0
 10
6.3527165892
 20
8.9075562692
 10
6.437536265
 20
8.9090876714
 10
6.5141231282
 20
8.9106190737
 10
6.580448485
 20
8.9121504759
 10
6.6347554564
 20
8.9136818782
  0
LWPOLYLINE
  5
4FC
100
AcDbEntity
  8
02___PRT_ALL_AXES
100
AcDbPolyline
 62
7
  6
CONTINUOUS
 90
9
 70
0
 10
6.3527165892
 20
8.9592294975
 10
6.4344344167
 20
8.9607024134
 10
6.5086110264
 20
8.9621753292
 10
6.5734284825
 20
8.9636482451
 10
6.6272982255
 20
8.9651211609
 10
6.6689000045
 20
8.9665940767
 10
6.6972142345
 20
8.9680669926
 10
6.7115469845
 20
8.9695399084
 10
6.7131210954
 20
8.9700155998
  0
LINE
  5
4FD
100
AcDbEntity
  8
02___PRT_ALL_AXES
100
AcDbLine
 62
7
  6
CONTINUOUS
 10
5.8190309436
 20
8.9503227603
 11
5.9007487711
 21
8.9517956761
  0
LWPOLYLINE
  5
4FE
100
AcDbEntity
  8
02___PRT_ALL_AXES
100
AcDbPolyline
 62
7
  6
CONTINUOUS
 90
9
 70
0
 10
6.3527165892
 20
8.9666113873
 10
6.4344344167
 20
8.9680843031
 10
6.5086110264
 20
8.969557219
 10
6.5734284825
 20
8.9710301348
 10
6.6272982255
 20
8.9725030507
 10
6.6689000045
 20
8.9739759665
 10
6.6972142345
 20
8.9754488824
 10
6.7115469845
 20
8.9769217982
 10
6.7133468534
 20
8.9776582561
  0
LWPOLYLINE
  5
4FF
100
AcDbEntity
  8
02___PRT_ALL_AXES
100
AcDbPolyline
 62
7
  6
CONTINUOUS
 90
9
 70
0
 10
6.3527165892
 20
9.0182846156
 10
6.4344344167
 20
9.0197575315
 10
6.5086110264
 20
9.0212304473
 10
6.5734284825
 20
9.0227033632
 10
6.6272982255
 20
9.024176279
 10
6.6689000045
 20
9.0256491949
 10
6.6972142345
 20
9.0271221107
 10
6.7115469845
 20
9.0285950265
 10
6.7131210954
 20
9.0290707179
  0
LWPOLYLINE
  5
500
100
AcDbEntity
  8
02___PRT_ALL_AXES
100
AcDbPolyline
 62
7
  6
CONTINUOUS
 90
9
 70
0
 10
6.3527165892
 20
9.0256665054
 10
6.4344344167
 20
9.0271394212
 10
6.5086110264
 20
9.0286123371
 10
6.5734284825
 20
9.0300852529
 10
6.6272982255
 20
9.0315581688
 10
6.6689000045
 20
9.0330310846
 10
6.6972142345
 20
9.0345040005
 10
6.7115469845
 20
9.0359769163
 10
6.7133468534
 20
9.0367133742
  0
LWPOLYLINE
  5
501
100
AcDbEntity
  8
02___PRT_ALL_AXES
100
AcDbPolyline
 62
7
  6
CONTINUOUS
 90
9
 70
0
 10
6.3527165892
 20
9.0773397337
 10
6.4344344167
 20
9.0788126496
 10
6.5086110264
 20
9.0802855654
 10
6.5734284825
 20
9.0817584813
 10
6.6272982255
 20
9.0832313971
 10
6.6689000045
 20
9.084704313
 10
6.6972142345
 20
9.0861772288
 10
6.7115469845
 20
9.0876501447
 10
6.7131210954
 20
9.088125836
  0
LINE
  5
502
100
AcDbEntity
  8
02___PRT_ALL_AXES
100
AcDbLine
 62
7
  6
CONTINUOUS
 10
5.8190309436
 20
9.0684329965
 11
5.9007487711
 21
9.0699059124
  0
LINE
  5
503
100
AcDbEntity
  8
02___PRT_ALL_AXES
100
AcDbLine
 62
7
  6
CONTINUOUS
 10
6.3527165892
 20
9.0847216235
 11
6.4344344167
 21
9.0861945393
  0
LWPOLYLINE
  5
504
100
AcDbEntity
  8
02___PRT_ALL_AXES
100
AcDbPolyline
 62
7
  6
CONTINUOUS
 90
10
 70
0
 10
6.0230353007
 20
8.9225177698
 10
5.9362140573
 20
8.9209794275
 10
5.8546108589
 20
8.91944355
 10
5.7810436123
 20
8.9179248864
 10
5.7161584704
 20
8.9163979609
 10
5.6618787407
 20
8.9148644744
 10
5.6202618555
 20
8.9133446674
 10
5.5919637334
 20
8.911832258
 10
5.5773689636
 20
8.9102963358
 10
5.5757918304
 20
8.9098103927
  0
LINE
  5
505
100
AcDbEntity
  8
02___PRT_ALL_AXES
100
AcDbLine
 62
7
  6
CONTINUOUS
 10
6.2304300596
 20
8.9368341755
 11
6.31586143
 21
8.9383472729
  0
LWPOLYLINE
  5
506
100
AcDbEntity
  8
02___PRT_ALL_AXES
100
AcDbPolyline
 62
7
  6
CONTINUOUS
 90
10
 70
0
 10
6.0230353007
 20
8.9815728879
 10
5.935863525
 20
8.9800281747
 10
5.8541365999
 20
8.9784893658
 10
5.7807043797
 20
8.9769725751
 10
5.716491276
 20
8.9754615808
 10
5.6626476997
 20
8.9739439466
 10
5.6207360104
 20
8.9724202276
 10
5.5922179576
 20
8.9709052065
 10
5.5774603308
 20
8.9693704206
 10
5.5757918304
 20
8.9688655108
  0
LWPOLYLINE
  5
507
100
AcDbEntity
  8
02___PRT_ALL_AXES
100
AcDbPolyline
 62
7
  6
CONTINUOUS
 90
10
 70
0
 10
6.2304300596
 20
8.9958892936
 10
6.3175663378
 20
8.9974333616
 10
6.3992311025
 20
8.9989708998
 10
6.4727212607
 20
9.0004887363
 10
6.5377868647
 20
9.0020213791
 10
6.5923608839
 20
9.0035672116
 10
6.6341822078
 20
9.0051049215
 10
6.6621569631
 20
9.0066214058
 10
6.6762654309
 20
9.0081471173
 10
6.6776735299
 20
9.0085966708
  0
LWPOLYLINE
  5
508
100
AcDbEntity
  8
02___PRT_ALL_AXES
100
AcDbPolyline
 62
7
  6
CONTINUOUS
 90
10
 70
0
 10
6.0230353007
 20
9.0406280061
 10
5.9364555965
 20
9.0390940527
 10
5.8555403886
 20
9.0375720031
 10
5.7821035277
 20
9.0360583048
 10
5.7167392284
 20
9.0345230276
 10
5.6618745925
 20
9.032974579
 10
5.6197809665
 20
9.0314340649
 10
5.5915847819
 20
9.0299156615
 10
5.5773115324
 20
9.0283944056
 10
5.5757918304
 20
9.0279206289
  0
LWPOLYLINE
  5
509
100
AcDbEntity
  8
02___PRT_ALL_AXES
100
AcDbPolyline
 62
7
  6
CONTINUOUS
 90
10
 70
0
 10
6.2304300596
 20
9.0549444117
 10
6.3176653094
 20
9.0564902787
 10
6.3994496193
 20
9.0580303052
 10
6.4729520562
 20
9.0595489113
 10
6.5373759199
 20
9.0610659852
 10
6.5910221997
 20
9.0625798215
 10
6.632718352
 20
9.0640965991
 10
6.6612399474
 20
9.0656115723
 10
6.6760077791
 20
9.0671474431
 10
6.6776735299
 20
9.0676517889
  0
LWPOLYLINE
  5
50A
100
AcDbEntity
  8
02___PRT_ALL_AXES
100
AcDbPolyline
 62
7
  6
CONTINUOUS
 90
5
 70
0
 10
6.0230353007
 20
9.0513866484
 10
5.9927040589
 20
9.054638639
 10
5.9614882248
 20
9.0589351968
 10
5.930419207
 20
9.0641298794
 10
5.9007487711
 20
9.0699059124
  0
LWPOLYLINE
  5
50B
100
AcDbEntity
  8
02___PRT_ALL_AXES
100
AcDbPolyline
 62
7
  6
CONTINUOUS
 90
4
 70
0
 10
6.2304300596
 20
8.867020415
 10
6.2709670733
 20
8.8624679597
 10
6.311750209
 20
8.8562691792
 10
6.3527165892
 20
8.8485011511
  0
LWPOLYLINE
  5
50C
100
AcDbEntity
  8
02___PRT_ALL_AXES
100
AcDbPolyline
 62
7
  6
CONTINUOUS
 90
4
 70
0
 10
6.0230353007
 20
8.9332764122
 10
5.9825058502
 20
8.9378278659
 10
5.9417220699
 20
8.9440264637
 10
5.9007487711
 20
8.9517956761
  0
LWPOLYLINE
  5
50D
100
AcDbEntity
  8
02___PRT_ALL_AXES
100
AcDbPolyline
 62
7
  6
CONTINUOUS
 90
4
 70
0
 10
6.2304300596
 20
8.9260755331
 10
6.2709670733
 20
8.9215230778
 10
6.311750209
 20
8.9153242973
 10
6.3527165892
 20
8.9075562692
  0
LWPOLYLINE
  5
50E
100
AcDbEntity
  8
02___PRT_ALL_AXES
100
AcDbPolyline
 62
7
  6
CONTINUOUS
 90
4
 70
0
 10
6.0230353007
 20
8.9923315303
 10
5.9825058502
 20
8.996882984
 10
5.9417220699
 20
9.0030815818
 10
5.9007487711
 20
9.0108507942
  0
LWPOLYLINE
  5
50F
100
AcDbEntity
  8
02___PRT_ALL_AXES
100
AcDbPolyline
 62
7
  6
CONTINUOUS
 90
4
 70
0
 10
6.2304300596
 20
8.9851306512
 10
6.2709596424
 20
8.98057918
 10
6.3117419907
 20
8.9743808222
 10
6.3527165892
 20
8.9666113873
  0
LWPOLYLINE
  5
510
100
AcDbEntity
  8
02___PRT_ALL_AXES
100
AcDbPolyline
 62
7
  6
CONTINUOUS
 90
4
 70
0
 10
6.2304300596
 20
9.0441857694
 10
6.2709670733
 20
9.039633314
 10
6.3117502091
 20
9.0334345336
 10
6.3527165892
 20
9.0256665054
  0
LINE
  5
511
100
AcDbEntity
  8
0
100
AcDbLine
 62
7
  6
CONTINUOUS
 10
5.5403442649
 20
9.0585982769
 11
5.5757918304
 21
9.0381242298
  0
LINE
  5
512
100
AcDbEntity
  8
02___PRT_ALL_AXES
100
AcDbLine
 62
7
  6
CONTINUOUS
 10
5.5403442649
 20
8.8223778045
 11
5.5401185069
 21
8.8226385711
  0
LINE
  5
513
100
AcDbEntity
  8
02___PRT_ALL_AXES
100
AcDbLine
 62
7
  6
CONTINUOUS
 10
5.5403442649
 20
8.8814329226
 11
5.5401185069
 21
8.8816936892
  0
LINE
  5
514
100
AcDbEntity
  8
02___PRT_ALL_AXES
100
AcDbLine
 62
7
  6
CONTINUOUS
 10
5.5403442649
 20
8.9404880407
 11
5.5401185069
 21
8.9407488073
  0
LINE
  5
515
100
AcDbEntity
  8
02___PRT_ALL_AXES
100
AcDbLine
 62
7
  6
CONTINUOUS
 10
5.5403442649
 20
8.9995431588
 11
5.5401185069
 21
8.9998039254
  0
LINE
  5
516
100
AcDbEntity
  8
02___PRT_ALL_AXES
100
AcDbLine
 62
7
  6
CONTINUOUS
 10
5.5403442649
 20
9.0585982769
 11
5.5401185069
 21
9.0588590435
  0
LINE
  5
517
100
AcDbEntity
  8
0
100
AcDbLine
 62
7
  6
CONTINUOUS
 10
5.1424807116
 20
12.8469988073
 11
5.147177708
 21
13.116089548
  0
LWPOLYLINE
  5
518
100
AcDbEntity
  8
02___PRT_ALL_AXES
100
AcDbPolyline
 62
7
  6
CONTINUOUS
 90
4
 70
0
 10
5.9007487711
 20
9.0772878021
 10
5.9406420591
 20
9.086081378
 10
5.9821892033
 20
9.0937426476
 10
6.0230353007
 20
9.0996831242
  0
LWPOLYLINE
  5
519
100
AcDbEntity
  8
02___PRT_ALL_AXES
100
AcDbPolyline
 62
7
  6
CONTINUOUS
 90
4
 70
0
 10
5.9007487711
 20
9.018232684
 10
5.9417178181
 20
9.0272443607
 10
5.9824978248
 20
9.0347384525
 10
6.0230353007
 20
9.0406280061
  0
LWPOLYLINE
  5
51A
100
AcDbEntity
  8
02___PRT_ALL_AXES
100
AcDbPolyline
 62
7
  6
CONTINUOUS
 90
10
 70
0
 10
6.0230353007
 20
9.0996831242
 10
5.9372263347
 20
9.0981631707
 10
5.8560554087
 20
9.0966372059
 10
5.7824648935
 20
9.0951213162
 10
5.7172443499
 20
9.0935910235
 10
5.6624196829
 20
9.0920469715
 10
5.6202745024
 20
9.0905105683
 10
5.5919235788
 20
9.0889947837
 10
5.5773688145
 20
9.0874616588
 10
5.5757918304
 20
9.086975747
  0
LINE
  5
51B
100
AcDbEntity
  8
0
100
AcDbLine
 62
9
  6
CONTINUOUS
 10
6.6779137825
 20
9.1462114057
 11
5.5755515778
 21
9.1462114057
  0
LINE
  5
51C
100
AcDbEntity
  8
02___PRT_ALL_AXES
100
AcDbLine
 62
7
  6
CONTINUOUS
 10
6.8550791368
 20
9.1855814845
 11
5.3983862235
 21
9.1855814845
  0
LWPOLYLINE
  5
51D
100
AcDbEntity
  8
02___PRT_ALL_AXES
100
AcDbPolyline
 62
7
  6
CONTINUOUS
 90
4
 70
0
 10
6.2304300596
 20
9.1032408875
 10
6.2709670733
 20
9.0986884321
 10
6.3117502091
 20
9.0924896517
 10
6.3527165892
 20
9.0847216235
  0
LINE
  5
51E
100
AcDbEntity
  8
0
100
AcDbLine
 62
7
  6
CONTINUOUS
 10
6.7131210954
 20
8.5645331959
 11
6.6776735299
 21
8.585007243
  0
LINE
  5
51F
100
AcDbEntity
  8
0
100
AcDbLine
 62
7
  6
CONTINUOUS
 10
6.7131210954
 20
8.623588314
 11
6.6776735299
 21
8.6440623612
  0
LINE
  5
520
100
AcDbEntity
  8
0
100
AcDbLine
 62
7
  6
CONTINUOUS
 10
6.7131210954
 20
8.6826434321
 11
6.6776735299
 21
8.7031174793
  0
LINE
  5
521
100
AcDbEntity
  8
0
100
AcDbLine
 62
7
  6
CONTINUOUS
 10
6.7131210954
 20
8.7416985503
 11
6.6776735299
 21
8.7621725974
  0
LINE
  5
522
100
AcDbEntity
  8
0
100
AcDbLine
 62
7
  6
CONTINUOUS
 10
5.1424807116
 20
11.7879436892
 11
5.1472220808
 21
11.2446366026
  0
LINE
  5
523
100
AcDbEntity
  8
02___PRT_ALL_AXES
100
AcDbLine
 62
7
  6
CONTINUOUS
 10
5.1424807116
 20
10.1855814845
 11
5.1424807116
 21
9.8745578624
  0
LINE
  5
524
100
AcDbEntity
  8
AXIS
100
AcDbLine
 62
7
  6
CONTINUOUS
 10
5.1424807116
 20
10.1855814845
 11
5.1424807116
 21
11.2446366026
  0
LINE
  5
525
100
AcDbEntity
  8
AXIS
100
AcDbLine
 62
7
  6
CONTINUOUS
 10
5.1424807116
 20
11.7879436892
 11
5.1424807116
 21
12.8469988073
  0
LINE
  5
526
100
AcDbEntity
  8
02___PRT_ALL_AXES
100
AcDbLine
 62
7
  6
CONTINUOUS
 10
5.2409059085
 20
9.7761326656
 11
5.2409059085
 21
9.3430617994
  0
LINE
  5
527
100
AcDbEntity
  8
02___PRT_ALL_AXES
100
AcDbLine
 62
9
  6
CONTINUOUS
 10
5.2409059085
 20
9.3430617994
 11
7.0125594518
 21
9.3430617994
  0
LINE
  5
528
100
AcDbEntity
  8
0
100
AcDbLine
 62
7
  6
CONTINUOUS
 10
6.7131210954
 20
8.8007536684
 11
6.6776735299
 21
8.8212277155
  0
LINE
  5
529
100
AcDbEntity
  8
0
100
AcDbLine
 62
7
  6
CONTINUOUS
 10
6.7131210954
 20
8.8598087865
 11
6.6776735299
 21
8.8802828336
  0
LINE
  5
52A
100
AcDbEntity
  8
0
100
AcDbLine
 62
7
  6
CONTINUOUS
 10
6.7131210954
 20
8.9188639046
 11
6.6776735299
 21
8.9393379517
  0
LINE
  5
52B
100
AcDbEntity
  8
0
100
AcDbLine
 62
7
  6
CONTINUOUS
 10
6.7131210954
 20
8.9779190227
 11
6.6776735299
 21
8.9983930698
  0
LINE
  5
52C
100
AcDbEntity
  8
0
100
AcDbLine
 62
7
  6
CONTINUOUS
 10
5.5401185069
 20
9.0662409333
 11
5.5401185069
 21
9.0588590435
  0
LINE
  5
52D
100
AcDbEntity
  8
0
100
AcDbLine
 62
7
  6
CONTINUOUS
 10
5.5401185069
 20
9.0071858152
 11
5.5401185069
 21
8.9998039254
  0
LINE
  5
52E
100
AcDbEntity
  8
0
100
AcDbLine
 62
7
  6
CONTINUOUS
 10
5.5401185069
 20
8.9481306971
 11
5.5401185069
 21
8.9407488073
  0
LINE
  5
52F
100
AcDbEntity
  8
0
100
AcDbLine
 62
7
  6
CONTINUOUS
 10
5.5401185069
 20
8.889075579
 11
5.5401185069
 21
8.8816936892
  0
LINE
  5
530
100
AcDbEntity
  8
0
100
AcDbLine
 62
7
  6
CONTINUOUS
 10
5.5401185069
 20
8.8300204608
 11
5.5401185069
 21
8.8226385711
  0
LINE
  5
531
100
AcDbEntity
  8
0
100
AcDbLine
 62
7
  6
CONTINUOUS
 10
5.5401185069
 20
8.7709653427
 11
5.5401185069
 21
8.763583453
  0
LINE
  5
532
100
AcDbEntity
  8
0
100
AcDbLine
 62
7
  6
CONTINUOUS
 10
5.5401185069
 20
8.7119102246
 11
5.5401185069
 21
8.7045283349
  0
LINE
  5
533
100
AcDbEntity
  8
0
100
AcDbLine
 62
7
  6
CONTINUOUS
 10
5.5401185069
 20
8.6528551065
 11
5.5401185069
 21
8.6454732167
  0
LINE
  5
534
100
AcDbEntity
  8
0
100
AcDbLine
 62
7
  6
CONTINUOUS
 10
5.5401185069
 20
8.5937999884
 11
5.5401185069
 21
8.5864180986
  0
LINE
  5
535
100
AcDbEntity
  8
0
100
AcDbLine
 62
7
  6
CONTINUOUS
 10
5.5401185069
 20
8.5347448703
 11
5.5401185069
 21
8.5273629805
  0
LINE
  5
536
100
AcDbEntity
  8
0
100
AcDbLine
 62
7
  6
CONTINUOUS
 10
6.7131210954
 20
9.0369741408
 11
6.6776735299
 21
9.0574481879
  0
LINE
  5
537
100
AcDbEntity
  8
0
100
AcDbLine
 62
7
  6
CONTINUOUS
 10
6.7131210954
 20
9.0960292589
 11
6.6776735299
 21
9.116503306
  0
LINE
  5
538
100
AcDbEntity
  8
02___PRT_ALL_AXES
100
AcDbLine
 62
7
  6
CONTINUOUS
 10
6.7133468534
 20
8.5642724293
 11
6.7131210954
 21
8.5645331959
  0
LINE
  5
539
100
AcDbEntity
  8
02___PRT_ALL_AXES
100
AcDbLine
 62
7
  6
CONTINUOUS
 10
6.7133468534
 20
8.6233275475
 11
6.7131210954
 21
8.623588314
  0
LINE
  5
53A
100
AcDbEntity
  8
02___PRT_ALL_AXES
100
AcDbLine
 62
7
  6
CONTINUOUS
 10
6.7133468534
 20
8.6823826656
 11
6.7131210954
 21
8.6826434321
  0
LINE
  5
53B
100
AcDbEntity
  8
02___PRT_ALL_AXES
100
AcDbLine
 62
7
  6
CONTINUOUS
 10
5.5755515778
 20
9.1462114057
 11
5.5755515778
 21
9.0866982263
  0
LINE
  5
53C
100
AcDbEntity
  8
02___PRT_ALL_AXES
100
AcDbLine
 62
7
  6
CONTINUOUS
 10
5.5755515778
 20
9.0384017505
 11
5.5755515778
 21
9.0276431082
  0
LINE
  5
53D
100
AcDbEntity
  8
02___PRT_ALL_AXES
100
AcDbLine
 62
7
  6
CONTINUOUS
 10
5.5755515778
 20
8.9793466324
 11
5.5755515778
 21
8.9685879901
  0
LINE
  5
53E
100
AcDbEntity
  8
02___PRT_ALL_AXES
100
AcDbLine
 62
7
  6
CONTINUOUS
 10
5.5755515778
 20
8.9202915143
 11
5.5755515778
 21
8.909532872
  0
LINE
  5
53F
100
AcDbEntity
  8
02___PRT_ALL_AXES
100
AcDbLine
 62
7
  6
CONTINUOUS
 10
5.5755515778
 20
8.8612363962
 11
5.5755515778
 21
8.8504777538
  0
LINE
  5
540
100
AcDbEntity
  8
02___PRT_ALL_AXES
100
AcDbLine
 62
7
  6
CONTINUOUS
 10
5.5755515778
 20
8.8021812781
 11
5.5755515778
 21
8.7914226357
  0
LINE
  5
541
100
AcDbEntity
  8
02___PRT_ALL_AXES
100
AcDbLine
 62
7
  6
CONTINUOUS
 10
5.5755515778
 20
8.74312616
 11
5.5755515778
 21
8.7323675176
  0
LINE
  5
542
100
AcDbEntity
  8
02___PRT_ALL_AXES
100
AcDbLine
 62
7
  6
CONTINUOUS
 10
5.5755515778
 20
8.6840710419
 11
5.5755515778
 21
8.6733123995
  0
LINE
  5
543
100
AcDbEntity
  8
02___PRT_ALL_AXES
100
AcDbLine
 62
7
  6
CONTINUOUS
 10
5.5755515778
 20
8.6250159237
 11
5.5755515778
 21
8.6142572814
  0
LINE
  5
544
100
AcDbEntity
  8
02___PRT_ALL_AXES
100
AcDbLine
 62
7
  6
CONTINUOUS
 10
5.5755515778
 20
8.5659608056
 11
5.5755515778
 21
8.5552021633
  0
LINE
  5
545
100
AcDbEntity
  8
02___PRT_ALL_AXES
100
AcDbLine
 62
7
  6
CONTINUOUS
 10
5.5755515778
 20
8.5069056875
 11
5.5755515778
 21
8.4769200671
  0
LINE
  5
546
100
AcDbEntity
  8
02___PRT_ALL_AXES
100
AcDbLine
 62
9
  6
CONTINUOUS
 10
5.2409059085
 20
9.7761326656
 11
7.0125594518
 21
9.7761326656
  0
LINE
  5
547
100
AcDbEntity
  8
02___PRT_ALL_AXES
100
AcDbLine
 62
7
  6
CONTINUOUS
 10
7.0716145699
 20
9.8351877837
 11
5.1818507904
 21
9.8351877837
  0
LINE
  5
548
100
AcDbEntity
  8
02___PRT_ALL_AXES
100
AcDbLine
 62
9
  6
CONTINUOUS
 10
7.1109846487
 20
9.8745578624
 11
5.1424807116
 21
9.8745578624
  0
LINE
  5
549
100
AcDbEntity
  8
02___PRT_ALL_AXES
100
AcDbLine
 62
7
  6
CONTINUOUS
 10
6.7133468534
 20
8.7414377837
 11
6.7131210954
 21
8.7416985503
  0
LINE
  5
54A
100
AcDbEntity
  8
02___PRT_ALL_AXES
100
AcDbLine
 62
7
  6
CONTINUOUS
 10
6.7133468534
 20
8.8004929018
 11
6.7131210954
 21
8.8007536684
  0
LINE
  5
54B
100
AcDbEntity
  8
02___PRT_ALL_AXES
100
AcDbLine
 62
7
  6
CONTINUOUS
 10
6.7133468534
 20
8.8595480199
 11
6.7131210954
 21
8.8598087865
  0
LINE
  5
54C
100
AcDbEntity
  8
02___PRT_ALL_AXES
100
AcDbLine
 62
7
  6
CONTINUOUS
 10
6.7133468534
 20
8.918603138
 11
6.7131210954
 21
8.9188639046
  0
LINE
  5
54D
100
AcDbEntity
  8
02___PRT_ALL_AXES
100
AcDbLine
 62
7
  6
CONTINUOUS
 10
6.7133468534
 20
8.9776582561
 11
6.7131210954
 21
8.9779190227
  0
LINE
  5
54E
100
AcDbEntity
  8
02___PRT_ALL_AXES
100
AcDbLine
 62
7
  6
CONTINUOUS
 10
5.9007487711
 20
8.5384098494
 11
5.9007487711
 21
8.5457917391
  0
LINE
  5
54F
100
AcDbEntity
  8
02___PRT_ALL_AXES
100
AcDbLine
 62
7
  6
CONTINUOUS
 10
5.9007487711
 20
8.5974649675
 11
5.9007487711
 21
8.6048468572
  0
LINE
  5
550
100
AcDbEntity
  8
02___PRT_ALL_AXES
100
AcDbLine
 62
7
  6
CONTINUOUS
 10
5.9007487711
 20
8.6565200856
 11
5.9007487711
 21
8.6639019753
  0
LINE
  5
551
100
AcDbEntity
  8
02___PRT_ALL_AXES
100
AcDbLine
 62
7
  6
CONTINUOUS
 10
5.9007487711
 20
8.7155752037
 11
5.9007487711
 21
8.7229570935
  0
LINE
  5
552
100
AcDbEntity
  8
02___PRT_ALL_AXES
100
AcDbLine
 62
7
  6
CONTINUOUS
 10
5.9007487711
 20
8.7746303218
 11
5.9007487711
 21
8.7820122116
  0
LINE
  5
553
100
AcDbEntity
  8
02___PRT_ALL_AXES
100
AcDbLine
 62
7
  6
CONTINUOUS
 10
5.9007487711
 20
8.8336854399
 11
5.9007487711
 21
8.8410673297
  0
LINE
  5
554
100
AcDbEntity
  8
02___PRT_ALL_AXES
100
AcDbLine
 62
7
  6
CONTINUOUS
 10
5.9007487711
 20
8.892740558
 11
5.9007487711
 21
8.9001224478
  0
LINE
  5
555
100
AcDbEntity
  8
02___PRT_ALL_AXES
100
AcDbLine
 62
7
  6
CONTINUOUS
 10
5.9007487711
 20
8.9517956761
 11
5.9007487711
 21
8.9591775659
  0
LINE
  5
556
100
AcDbEntity
  8
02___PRT_ALL_AXES
100
AcDbLine
 62
7
  6
CONTINUOUS
 10
5.9007487711
 20
9.0108507942
 11
5.9007487711
 21
9.018232684
  0
LINE
  5
557
100
AcDbEntity
  8
02___PRT_ALL_AXES
100
AcDbLine
 62
7
  6
CONTINUOUS
 10
5.9007487711
 20
9.0699059124
 11
5.9007487711
 21
9.0772878021
  0
LINE
  5
558
100
AcDbEntity
  8
02___PRT_ALL_AXES
100
AcDbLine
 62
7
  6
CONTINUOUS
 10
6.7133468534
 20
9.0367133742
 11
6.7131210954
 21
9.0369741408
  0
LINE
  5
559
100
AcDbEntity
  8
02___PRT_ALL_AXES
100
AcDbLine
 62
7
  6
CONTINUOUS
 10
6.7133468534
 20
9.0957684923
 11
6.7131210954
 21
9.0960292589
  0
LWPOLYLINE
  5
55A
100
AcDbEntity
  8
0
100
AcDbPolyline
 62
7
  6
CONTINUOUS
 90
6
 70
0
 10
6.0230353007
 20
8.4769200671
 10
6.0232193179
 20
8.4647229641
 10
6.0237542774
 20
8.4537382097
 10
6.0245912878
 20
8.4450389503
 10
6.0256535059
 20
8.4394664454
 10
6.0268420151
 20
8.4375499884
  0
LWPOLYLINE
  5
55B
100
AcDbEntity
  8
0
100
AcDbPolyline
 62
7
  6
CONTINUOUS
 90
6
 70
0
 10
6.0230353007
 20
9.1462114057
 10
6.0228517202
 20
9.15840492
 10
6.0223216538
 20
9.1693877423
 10
6.0215029273
 20
9.1780878068
 10
6.0204821191
 20
9.1836631867
 10
6.0193634664
 20
9.1855814845
  0
LINE
  5
55C
100
AcDbEntity
  8
02___PRT_ALL_AXES
100
AcDbLine
 62
7
  6
CONTINUOUS
 10
6.0192326802
 20
7.3824318782
 11
6.0192326802
 21
8.4375499884
  0
LINE
  5
55D
100
AcDbEntity
  8
0
100
AcDbLine
 62
7
  6
CONTINUOUS
 10
6.0230353007
 20
9.1462114057
 11
6.0230353007
 21
9.0996831242
  0
LINE
  5
55E
100
AcDbEntity
  8
02___PRT_ALL_AXES
100
AcDbLine
 62
7
  6
CONTINUOUS
 10
6.0230353007
 20
9.0513866484
 11
6.0230353007
 21
9.0406280061
  0
LINE
  5
55F
100
AcDbEntity
  8
02___PRT_ALL_AXES
100
AcDbLine
 62
7
  6
CONTINUOUS
 10
6.0230353007
 20
8.9923315303
 11
6.0230353007
 21
8.9815728879
  0
LINE
  5
560
100
AcDbEntity
  8
02___PRT_ALL_AXES
100
AcDbLine
 62
7
  6
CONTINUOUS
 10
6.0230353007
 20
8.9332764122
 11
6.0230353007
 21
8.9225177698
  0
LINE
  5
561
100
AcDbEntity
  8
02___PRT_ALL_AXES
100
AcDbLine
 62
7
  6
CONTINUOUS
 10
6.0230353007
 20
8.8742212941
 11
6.0230353007
 21
8.8634626517
  0
LINE
  5
562
100
AcDbEntity
  8
02___PRT_ALL_AXES
100
AcDbLine
 62
7
  6
CONTINUOUS
 10
6.0230353007
 20
8.815166176
 11
6.0230353007
 21
8.8044075336
  0
LINE
  5
563
100
AcDbEntity
  8
02___PRT_ALL_AXES
100
AcDbLine
 62
7
  6
CONTINUOUS
 10
6.0230353007
 20
8.7561110578
 11
6.0230353007
 21
8.7453524155
  0
LINE
  5
564
100
AcDbEntity
  8
02___PRT_ALL_AXES
100
AcDbLine
 62
7
  6
CONTINUOUS
 10
6.0230353007
 20
8.6970559397
 11
6.0230353007
 21
8.6862972974
  0
LINE
  5
565
100
AcDbEntity
  8
02___PRT_ALL_AXES
100
AcDbLine
 62
7
  6
CONTINUOUS
 10
6.0230353007
 20
8.6380008216
 11
6.0230353007
 21
8.6272421793
  0
LINE
  5
566
100
AcDbEntity
  8
02___PRT_ALL_AXES
100
AcDbLine
 62
7
  6
CONTINUOUS
 10
6.0230353007
 20
8.5789457035
 11
6.0230353007
 21
8.5681870612
  0
LINE
  5
567
100
AcDbEntity
  8
0
100
AcDbLine
 62
7
  6
CONTINUOUS
 10
6.0230353007
 20
8.5198905854
 11
6.0230353007
 21
8.4769200671
  0
LINE
  5
568
100
AcDbEntity
  8
02___PRT_ALL_AXES
100
AcDbLine
 62
7
  6
CONTINUOUS
 10
5.1424807116
 20
10.1855814845
 11
7.1109846487
 21
10.1855814845
  0
LINE
  5
569
100
AcDbEntity
  8
AXIS
100
AcDbLine
 62
7
  6
CONTINUOUS
 10
5.1424807116
 20
10.1855814845
 11
7.1109846487
 21
10.1855814845
  0
LINE
  5
56A
100
AcDbEntity
  8
0
100
AcDbLine
 62
7
  6
CONTINUOUS
 10
6.2304300596
 20
9.1462114057
 11
6.2304300596
 21
9.1032408875
  0
LINE
  5
56B
100
AcDbEntity
  8
02___PRT_ALL_AXES
100
AcDbLine
 62
7
  6
CONTINUOUS
 10
6.2304300596
 20
9.0549444117
 11
6.2304300596
 21
9.0441857694
  0
LINE
  5
56C
100
AcDbEntity
  8
02___PRT_ALL_AXES
100
AcDbLine
 62
7
  6
CONTINUOUS
 10
6.2304300596
 20
8.9958892936
 11
6.2304300596
 21
8.9851306512
  0
LINE
  5
56D
100
AcDbEntity
  8
02___PRT_ALL_AXES
100
AcDbLine
 62
7
  6
CONTINUOUS
 10
6.2304300596
 20
8.9368341755
 11
6.2304300596
 21
8.9260755331
  0
LINE
  5
56E
100
AcDbEntity
  8
02___PRT_ALL_AXES
100
AcDbLine
 62
7
  6
CONTINUOUS
 10
6.2304300596
 20
8.8777790574
 11
6.2304300596
 21
8.867020415
  0
LINE
  5
56F
100
AcDbEntity
  8
02___PRT_ALL_AXES
100
AcDbLine
 62
7
  6
CONTINUOUS
 10
6.2304300596
 20
8.8187239393
 11
6.2304300596
 21
8.8079652969
  0
LINE
  5
570
100
AcDbEntity
  8
02___PRT_ALL_AXES
100
AcDbLine
 62
7
  6
CONTINUOUS
 10
6.2304300596
 20
8.7596688211
 11
6.2304300596
 21
8.7489101788
  0
LINE
  5
571
100
AcDbEntity
  8
02___PRT_ALL_AXES
100
AcDbLine
 62
7
  6
CONTINUOUS
 10
6.2304300596
 20
8.700613703
 11
6.2304300596
 21
8.6898550607
  0
LINE
  5
572
100
AcDbEntity
  8
02___PRT_ALL_AXES
100
AcDbLine
 62
7
  6
CONTINUOUS
 10
6.2304300596
 20
8.6415585849
 11
6.2304300596
 21
8.6307999426
  0
LINE
  5
573
100
AcDbEntity
  8
02___PRT_ALL_AXES
100
AcDbLine
 62
7
  6
CONTINUOUS
 10
6.2304300596
 20
8.5825034668
 11
6.2304300596
 21
8.5717448245
  0
LINE
  5
574
100
AcDbEntity
  8
0
100
AcDbLine
 62
7
  6
CONTINUOUS
 10
6.2304300596
 20
8.5234483487
 11
6.2304300596
 21
8.4769200671
  0
LINE
  5
575
100
AcDbEntity
  8
02___PRT_ALL_AXES
100
AcDbLine
 62
7
  6
CONTINUOUS
 10
6.2342326802
 20
7.3824318782
 11
6.2342326802
 21
8.4375499884
  0
LINE
  5
576
100
AcDbEntity
  8
02___PRT_ALL_AXES
100
AcDbLine
 62
7
  6
CONTINUOUS
 10
6.3527165892
 20
9.0847216235
 11
6.3527165892
 21
9.0773397337
  0
LINE
  5
577
100
AcDbEntity
  8
02___PRT_ALL_AXES
100
AcDbLine
 62
7
  6
CONTINUOUS
 10
6.3527165892
 20
9.0256665054
 11
6.3527165892
 21
9.0182846156
  0
LINE
  5
578
100
AcDbEntity
  8
02___PRT_ALL_AXES
100
AcDbLine
 62
7
  6
CONTINUOUS
 10
6.3527165892
 20
8.9666113873
 11
6.3527165892
 21
8.9592294975
  0
LINE
  5
579
100
AcDbEntity
  8
02___PRT_ALL_AXES
100
AcDbLine
 62
7
  6
CONTINUOUS
 10
6.3527165892
 20
8.9075562692
 11
6.3527165892
 21
8.9001743794
  0
LINE
  5
57A
100
AcDbEntity
  8
02___PRT_ALL_AXES
100
AcDbLine
 62
7
  6
CONTINUOUS
 10
6.3527165892
 20
8.8485011511
 11
6.3527165892
 21
8.8411192613
  0
LINE
  5
57B
100
AcDbEntity
  8
02___PRT_ALL_AXES
100
AcDbLine
 62
7
  6
CONTINUOUS
 10
6.3527165892
 20
8.789446033
 11
6.3527165892
 21
8.7820641432
  0
LINE
  5
57C
100
AcDbEntity
  8
02___PRT_ALL_AXES
100
AcDbLine
 62
7
  6
CONTINUOUS
 10
6.3527165892
 20
8.7303909148
 11
6.3527165892
 21
8.7230090251
  0
LINE
  5
57D
100
AcDbEntity
  8
02___PRT_ALL_AXES
100
AcDbLine
 62
7
  6
CONTINUOUS
 10
6.3527165892
 20
8.6713357967
 11
6.3527165892
 21
8.663953907
  0
LINE
  5
57E
100
AcDbEntity
  8
02___PRT_ALL_AXES
100
AcDbLine
 62
7
  6
CONTINUOUS
 10
6.3527165892
 20
8.6122806786
 11
6.3527165892
 21
8.6048987889
  0
LINE
  5
57F
100
AcDbEntity
  8
02___PRT_ALL_AXES
100
AcDbLine
 62
7
  6
CONTINUOUS
 10
6.3527165892
 20
8.5532255605
 11
6.3527165892
 21
8.5458436707
  0
LWPOLYLINE
  5
580
100
AcDbEntity
  8
0
100
AcDbPolyline
 62
7
  6
CONTINUOUS
 90
6
 70
0
 10
6.2304300596
 20
9.1462114057
 10
6.2306136401
 20
9.15840492
 10
6.2311437065
 20
9.1693877423
 10
6.231962433
 20
9.1780878068
 10
6.2329832412
 20
9.1836631867
 10
6.2341018939
 20
9.1855814845
  0
LWPOLYLINE
  5
581
100
AcDbEntity
  8
0
100
AcDbPolyline
 62
7
  6
CONTINUOUS
 90
6
 70
0
 10
6.2304300596
 20
8.4769200671
 10
6.2302460424
 20
8.4647229641
 10
6.2297110829
 20
8.4537382097
 10
6.2288740725
 20
8.4450389503
 10
6.2278118544
 20
8.4394664454
 10
6.2266233452
 20
8.4375499884
  0
LINE
  5
582
100
AcDbEntity
  8
02___PRT_ALL_AXES
100
AcDbLine
 62
7
  6
CONTINUOUS
 10
5.5401185069
 20
9.0662409333
 11
5.5403442649
 21
9.0665016999
  0
LINE
  5
583
100
AcDbEntity
  8
02___PRT_ALL_AXES
100
AcDbLine
 62
7
  6
CONTINUOUS
 10
5.5401185069
 20
9.0071858152
 11
5.5403442649
 21
9.0074465817
  0
LINE
  5
584
100
AcDbEntity
  8
02___PRT_ALL_AXES
100
AcDbLine
 62
7
  6
CONTINUOUS
 10
5.5401185069
 20
8.9481306971
 11
5.5403442649
 21
8.9483914636
  0
LINE
  5
585
100
AcDbEntity
  8
02___PRT_ALL_AXES
100
AcDbLine
 62
7
  6
CONTINUOUS
 10
6.6779137825
 20
9.1462114057
 11
6.6779137825
 21
9.1162257853
  0
LINE
  5
586
100
AcDbEntity
  8
02___PRT_ALL_AXES
100
AcDbLine
 62
7
  6
CONTINUOUS
 10
6.6779137825
 20
9.0679293096
 11
6.6779137825
 21
9.0571706672
  0
LINE
  5
587
100
AcDbEntity
  8
02___PRT_ALL_AXES
100
AcDbLine
 62
7
  6
CONTINUOUS
 10
6.6779137825
 20
9.0088741915
 11
6.6779137825
 21
8.9981155491
  0
LINE
  5
588
100
AcDbEntity
  8
02___PRT_ALL_AXES
100
AcDbLine
 62
7
  6
CONTINUOUS
 10
6.6779137825
 20
8.9498190734
 11
6.6779137825
 21
8.939060431
  0
LINE
  5
589
100
AcDbEntity
  8
02___PRT_ALL_AXES
100
AcDbLine
 62
7
  6
CONTINUOUS
 10
6.6779137825
 20
8.8907639552
 11
6.6779137825
 21
8.8800053129
  0
LINE
  5
58A
100
AcDbEntity
  8
02___PRT_ALL_AXES
100
AcDbLine
 62
7
  6
CONTINUOUS
 10
6.6779137825
 20
8.8317088371
 11
6.6779137825
 21
8.8209501948
  0
LINE
  5
58B
100
AcDbEntity
  8
02___PRT_ALL_AXES
100
AcDbLine
 62
7
  6
CONTINUOUS
 10
6.6779137825
 20
8.772653719
 11
6.6779137825
 21
8.7618950767
  0
LINE
  5
58C
100
AcDbEntity
  8
02___PRT_ALL_AXES
100
AcDbLine
 62
7
  6
CONTINUOUS
 10
6.6779137825
 20
8.7135986009
 11
6.6779137825
 21
8.7028399586
  0
LINE
  5
58D
100
AcDbEntity
  8
02___PRT_ALL_AXES
100
AcDbLine
 62
7
  6
CONTINUOUS
 10
6.6779137825
 20
8.6545434828
 11
6.6779137825
 21
8.6437848405
  0
LINE
  5
58E
100
AcDbEntity
  8
02___PRT_ALL_AXES
100
AcDbLine
 62
7
  6
CONTINUOUS
 10
6.6779137825
 20
8.5954883647
 11
6.6779137825
 21
8.5847297224
  0
LINE
  5
58F
100
AcDbEntity
  8
02___PRT_ALL_AXES
100
AcDbLine
 62
7
  6
CONTINUOUS
 10
6.6779137825
 20
8.5364332466
 11
6.6779137825
 21
8.4769200671
  0
LINE
  5
590
100
AcDbEntity
  8
0
100
AcDbLine
 62
7
  6
CONTINUOUS
 10
6.7133468534
 20
8.5568905396
 11
6.7133468534
 21
8.5642724293
  0
LINE
  5
591
100
AcDbEntity
  8
0
100
AcDbLine
 62
7
  6
CONTINUOUS
 10
6.7133468534
 20
8.6159456577
 11
6.7133468534
 21
8.6233275475
  0
LINE
  5
592
100
AcDbEntity
  8
0
100
AcDbLine
 62
7
  6
CONTINUOUS
 10
6.7133468534
 20
8.6750007758
 11
6.7133468534
 21
8.6823826656
  0
LINE
  5
593
100
AcDbEntity
  8
0
100
AcDbLine
 62
7
  6
CONTINUOUS
 10
6.7133468534
 20
8.7340558939
 11
6.7133468534
 21
8.7414377837
  0
LINE
  5
594
100
AcDbEntity
  8
0
100
AcDbLine
 62
7
  6
CONTINUOUS
 10
6.7133468534
 20
8.793111012
 11
6.7133468534
 21
8.8004929018
  0
LINE
  5
595
100
AcDbEntity
  8
0
100
AcDbLine
 62
7
  6
CONTINUOUS
 10
6.7133468534
 20
8.8521661301
 11
6.7133468534
 21
8.8595480199
  0
LINE
  5
596
100
AcDbEntity
  8
0
100
AcDbLine
 62
7
  6
CONTINUOUS
 10
6.7133468534
 20
8.9112212482
 11
6.7133468534
 21
8.918603138
  0
LINE
  5
597
100
AcDbEntity
  8
0
100
AcDbLine
 62
7
  6
CONTINUOUS
 10
6.7133468534
 20
8.9702763664
 11
6.7133468534
 21
8.9776582561
  0
LINE
  5
598
100
AcDbEntity
  8
0
100
AcDbLine
 62
7
  6
CONTINUOUS
 10
6.7133468534
 20
9.0293314845
 11
6.7133468534
 21
9.0367133742
  0
LINE
  5
599
100
AcDbEntity
  8
0
100
AcDbLine
 62
7
  6
CONTINUOUS
 10
6.7133468534
 20
9.0883866026
 11
6.7133468534
 21
9.0957684923
  0
LINE
  5
59A
100
AcDbEntity
  8
02___PRT_ALL_AXES
100
AcDbLine
 62
7
  6
CONTINUOUS
 10
5.5401185069
 20
8.889075579
 11
5.5403442649
 21
8.8893363455
  0
LINE
  5
59B
100
AcDbEntity
  8
02___PRT_ALL_AXES
100
AcDbLine
 62
7
  6
CONTINUOUS
 10
5.5401185069
 20
8.8300204608
 11
5.5403442649
 21
8.8302812274
  0
LINE
  5
59C
100
AcDbEntity
  8
02___PRT_ALL_AXES
100
AcDbLine
 62
7
  6
CONTINUOUS
 10
5.5401185069
 20
8.7709653427
 11
5.5403442649
 21
8.7712261093
  0
LINE
  5
59D
100
AcDbEntity
  8
02___PRT_ALL_AXES
100
AcDbLine
 62
7
  6
CONTINUOUS
 10
5.5401185069
 20
8.7119102246
 11
5.5403442649
 21
8.7121709912
  0
LINE
  5
59E
100
AcDbEntity
  8
02___PRT_ALL_AXES
100
AcDbLine
 62
7
  6
CONTINUOUS
 10
5.5401185069
 20
8.6528551065
 11
5.5403442649
 21
8.6531158731
  0
LINE
  5
59F
100
AcDbEntity
  8
02___PRT_ALL_AXES
100
AcDbLine
 62
7
  6
CONTINUOUS
 10
5.5401185069
 20
8.5937999884
 11
5.5403442649
 21
8.594060755
  0
LINE
  5
5A0
100
AcDbEntity
  8
02___PRT_ALL_AXES
100
AcDbLine
 62
7
  6
CONTINUOUS
 10
5.5401185069
 20
8.5347448703
 11
5.5403442649
 21
8.5350056369
  0
LINE
  5
5A1
100
AcDbEntity
  8
0
100
AcDbLine
 62
7
  6
CONTINUOUS
 10
5.5757918304
 20
9.086975747
 11
5.5403442649
 21
9.0665016999
  0
LINE
  5
5A2
100
AcDbEntity
  8
0
100
AcDbLine
 62
7
  6
CONTINUOUS
 10
5.5757918304
 20
9.0279206289
 11
5.5403442649
 21
9.0074465817
  0
LINE
  5
5A3
100
AcDbEntity
  8
0
100
AcDbLine
 62
7
  6
CONTINUOUS
 10
7.1109846487
 20
12.8469988073
 11
7.1062876523
 21
13.116089548
  0
LINE
  5
5A4
100
AcDbEntity
  8
02___PRT_ALL_AXES
100
AcDbLine
 62
7
  6
CONTINUOUS
 10
7.0125594518
 20
9.7761326656
 11
7.0125594518
 21
9.3430617994
  0
LINE
  5
5A5
100
AcDbEntity
  8
02___PRT_ALL_AXES
100
AcDbLine
 62
7
  6
CONTINUOUS
 10
7.1109846487
 20
10.1855814845
 11
7.1109846487
 21
9.8745578624
  0
LINE
  5
5A6
100
AcDbEntity
  8
AXIS
100
AcDbLine
 62
7
  6
CONTINUOUS
 10
7.1109846487
 20
10.1855814845
 11
7.1109846487
 21
11.2446366026
  0
LINE
  5
5A7
100
AcDbEntity
  8
AXIS
100
AcDbLine
 62
7
  6
CONTINUOUS
 10
7.1109846487
 20
11.7879436892
 11
7.1109846487
 21
12.8469988073
  0
LINE
  5
5A8
100
AcDbEntity
  8
0
100
AcDbLine
 62
7
  6
CONTINUOUS
 10
7.1109846487
 20
11.7879436892
 11
7.1062432795
 21
11.2446366026
  0
LWPOLYLINE
  5
5A9
100
AcDbEntity
  8
02___PRT_ALL_AXES
100
AcDbPolyline
 62
7
  6
CONTINUOUS
 90
5
 70
0
 10
5.5755515778
 20
8.6840710322
 10
5.5761944213
 20
8.6845250257
 10
5.5874854027
 20
8.6860304372
 10
5.6121134444
 20
8.6875136701
 10
5.6493958434
 20
8.6889923017
  0
LINE
  5
5AA
100
AcDbEntity
  8
0
100
AcDbLine
 62
7
  6
CONTINUOUS
 10
5.5757918304
 20
8.9688655108
 11
5.5403442649
 21
8.9483914636
  0
LINE
  5
5AB
100
AcDbEntity
  8
0
100
AcDbLine
 62
7
  6
CONTINUOUS
 10
5.5757918304
 20
8.9098103927
 11
5.5403442649
 21
8.8893363455
  0
LINE
  5
5AC
100
AcDbEntity
  8
0
100
AcDbLine
 62
7
  6
CONTINUOUS
 10
5.5757918304
 20
8.8507552745
 11
5.5403442649
 21
8.8302812274
  0
LINE
  5
5AD
100
AcDbEntity
  8
0
100
AcDbLine
 62
7
  6
CONTINUOUS
 10
5.5757918304
 20
8.7917001564
 11
5.5403442649
 21
8.7712261093
  0
LWPOLYLINE
  5
5AE
100
AcDbEntity
  8
02___PRT_ALL_AXES
100
AcDbPolyline
 62
7
  6
CONTINUOUS
 90
8
 70
0
 10
5.5755515779
 20
8.9793464422
 10
5.5773115324
 20
8.9800979298
 10
5.5915847819
 20
8.9816191858
 10
5.6197809665
 20
8.9831375892
 10
5.6618745925
 20
8.9846781032
 10
5.7167392284
 20
8.9862265518
 10
5.7821035277
 20
8.9877618291
 10
5.8555403886
 20
8.9892755273
  0
LWPOLYLINE
  5
5AF
100
AcDbEntity
  8
02___PRT_ALL_AXES
100
AcDbPolyline
 62
7
  6
CONTINUOUS
 90
10
 70
0
 10
5.5755515778
 20
9.0384017883
 10
5.5773688145
 20
9.0391651831
 10
5.5919235788
 20
9.0406983079
 10
5.6202745024
 20
9.0422140926
 10
5.6624196829
 20
9.0437504957
 10
5.7172443499
 20
9.0452945478
 10
5.7824648935
 20
9.0468248404
 10
5.8560554087
 20
9.0483407302
 10
5.9372263347
 20
9.0498666949
 10
6.0230353007
 20
9.0513866484
  0
LWPOLYLINE
  5
5B0
100
AcDbEntity
  8
02___PRT_ALL_AXES
100
AcDbPolyline
 62
7
  6
CONTINUOUS
 90
8
 70
0
 10
5.5401185069
 20
9.0588590435
 10
5.5419183758
 20
9.0595955014
 10
5.5562511258
 20
9.0610684173
 10
5.5845653558
 20
9.0625413331
 10
5.6261671348
 20
9.064014249
 10
5.6800368778
 20
9.0654871648
 10
5.7448543339
 20
9.0669600807
 10
5.8190309436
 20
9.0684329965
  0
LWPOLYLINE
  5
5B1
100
AcDbEntity
  8
02___PRT_ALL_AXES
100
AcDbPolyline
 62
7
  6
CONTINUOUS
 90
6
 70
0
 10
5.5401185069
 20
8.9998039254
 10
5.5419183758
 20
9.0005403833
 10
5.5562511258
 20
9.0020132992
 10
5.5845653558
 20
9.003486215
 10
5.6261671348
 20
9.0049591309
 10
5.6800368778
 20
9.0064320467
  0
LWPOLYLINE
  5
5B2
100
AcDbEntity
  8
02___PRT_ALL_AXES
100
AcDbPolyline
 62
7
  6
CONTINUOUS
 90
8
 70
0
 10
5.5401185069
 20
8.9407488073
 10
5.5419183758
 20
8.9414852652
 10
5.5562511258
 20
8.9429581811
 10
5.5845653558
 20
8.9444310969
 10
5.6261671348
 20
8.9459040128
 10
5.6800368778
 20
8.9473769286
 10
5.7448543339
 20
8.9488498444
 10
5.8190309436
 20
8.9503227603
  0
LWPOLYLINE
  5
5B3
100
AcDbEntity
  8
02___PRT_ALL_AXES
100
AcDbPolyline
 62
7
  6
CONTINUOUS
 90
9
 70
0
 10
5.5403442649
 20
9.0665016999
 10
5.5419183758
 20
9.0669773912
 10
5.5562511258
 20
9.0684503071
 10
5.5845653558
 20
9.0699232229
 10
5.6261671348
 20
9.0713961387
 10
5.6800368778
 20
9.0728690546
 10
5.7448543339
 20
9.0743419704
 10
5.8190309436
 20
9.0758148863
 10
5.9007487711
 20
9.0772878021
  0
LINE
  5
5B4
100
AcDbEntity
  8
AXIS
100
AcDbLine
 62
7
  6
CONTINUOUS
 10
5.1424807116
 20
11.2446366026
 11
7.1109846487
 21
11.2446366026
  0
LINE
  5
5B5
100
AcDbEntity
  8
02___PRT_ALL_AXES
100
AcDbLine
 62
7
  6
CONTINUOUS
 10
6.7131210954
 20
9.088125836
 11
6.7133468534
 21
9.0883866026
  0
LINE
  5
5B6
100
AcDbEntity
  8
0
100
AcDbLine
 62
7
  6
CONTINUOUS
 10
5.5757918304
 20
8.7326450383
 11
5.5403442649
 21
8.7121709912
  0
LINE
  5
5B7
100
AcDbEntity
  8
0
100
AcDbLine
 62
7
  6
CONTINUOUS
 10
5.5757918304
 20
8.6735899202
 11
5.5403442649
 21
8.6531158731
  0
LINE
  5
5B8
100
AcDbEntity
  8
0
100
AcDbLine
 62
7
  6
CONTINUOUS
 10
5.5757918304
 20
8.6145348021
 11
5.5403442649
 21
8.594060755
  0
LINE
  5
5B9
100
AcDbEntity
  8
0
100
AcDbLine
 62
7
  6
CONTINUOUS
 10
5.5757918304
 20
8.555479684
 11
5.5403442649
 21
8.5350056369
  0
LWPOLYLINE
  5
5BA
100
AcDbEntity
  8
02___PRT_ALL_AXES
100
AcDbPolyline
 62
7
  6
CONTINUOUS
 90
5
 70
0
 10
5.5401185069
 20
8.7045283349
 10
5.5411830248
 20
8.7050946505
 10
5.553587185
 20
8.7065462986
 10
5.5796361939
 20
8.7079979466
 10
5.6187099039
 20
8.7094495947
  0
LWPOLYLINE
  5
5BB
100
AcDbEntity
  8
02___PRT_ALL_AXES
100
AcDbPolyline
 62
7
  6
CONTINUOUS
 90
10
 70
0
 10
5.5755515787
 20
8.7431256298
 10
5.5773383982
 20
8.743883173
 10
5.5918087262
 20
8.7454146076
 10
5.6200905108
 20
8.7469305428
 10
5.6620044556
 20
8.7484617508
 10
5.7162977806
 20
8.7499948087
 10
5.780672895
 20
8.7515100552
 10
5.8541148646
 20
8.7530271093
 10
5.9358507702
 20
8.7545661128
 10
6.0230353007
 20
8.7561110578
  0
LWPOLYLINE
  5
5BC
100
AcDbEntity
  8
02___PRT_ALL_AXES
100
AcDbPolyline
 62
7
  6
CONTINUOUS
 90
10
 70
0
 10
5.5755515778
 20
8.8612363904
 10
5.5773689636
 20
8.86199986
 10
5.5919637334
 20
8.8635357823
 10
5.6202618555
 20
8.8650481916
 10
5.6618787407
 20
8.8665679986
 10
5.7161584704
 20
8.8681014851
 10
5.7810436123
 20
8.8696284106
 10
5.8546108589
 20
8.8711470742
 10
5.9362140573
 20
8.8726829517
 10
6.0230353007
 20
8.8742212941
  0
LWPOLYLINE
  5
5BD
100
AcDbEntity
  8
02___PRT_ALL_AXES
100
AcDbPolyline
 62
7
  6
CONTINUOUS
 90
10
 70
0
 10
5.5755515778
 20
8.9202915081
 10
5.5774603308
 20
8.9210739448
 10
5.5922179576
 20
8.9226087307
 10
5.6207360104
 20
8.9241237518
 10
5.6626476997
 20
8.9256474708
 10
5.716491276
 20
8.9271651051
 10
5.7807043797
 20
8.9286760993
 10
5.8541365999
 20
8.9301928901
 10
5.935863525
 20
8.931731699
 10
6.0230353007
 20
8.9332764122
  0
LWPOLYLINE
  5
5BE
100
AcDbEntity
  8
02___PRT_ALL_AXES
100
AcDbPolyline
 62
7
  6
CONTINUOUS
 90
6
 70
0
 10
5.575551579
 20
8.8021819018
 10
5.5774581586
 20
8.802963263
 10
5.5919150405
 20
8.8044772335
 10
5.6202883627
 20
8.8059942191
 10
5.6625468941
 20
8.8075340475
 10
5.7175378346
 20
8.8090815486
  0
LWPOLYLINE
  5
5BF
100
AcDbEntity
  8
02___PRT_ALL_AXES
100
AcDbPolyline
 62
7
  6
CONTINUOUS
 90
9
 70
0
 10
5.5401185069
 20
8.8816936892
 10
5.5419183758
 20
8.8824301471
 10
5.5562511258
 20
8.883903063
 10
5.5845653558
 20
8.8853759788
 10
5.6261671348
 20
8.8868488946
 10
5.6800368778
 20
8.8883218105
 10
5.7448543339
 20
8.8897947263
 10
5.8190309436
 20
8.8912676422
 10
5.9007487711
 20
8.892740558
  0
LWPOLYLINE
  5
5C0
100
AcDbEntity
  8
02___PRT_ALL_AXES
100
AcDbPolyline
 62
7
  6
CONTINUOUS
 90
9
 70
0
 10
5.5401185069
 20
8.8226385711
 10
5.5419183758
 20
8.823375029
 10
5.5562511258
 20
8.8248479448
 10
5.5845653558
 20
8.8263208607
 10
5.6261671348
 20
8.8277937765
 10
5.6800368778
 20
8.8292666924
 10
5.7448543339
 20
8.8307396082
 10
5.8190309436
 20
8.8322125241
 10
5.9007487711
 20
8.8336854399
  0
LWPOLYLINE
  5
5C1
100
AcDbEntity
  8
02___PRT_ALL_AXES
100
AcDbPolyline
 62
7
  6
CONTINUOUS
 90
9
 70
0
 10
5.5401185069
 20
8.763583453
 10
5.5419183758
 20
8.7643199109
 10
5.5562511258
 20
8.7657928267
 10
5.5845653558
 20
8.7672657426
 10
5.6261671348
 20
8.7687386584
 10
5.6800368778
 20
8.7702115743
 10
5.7448543339
 20
8.7716844901
 10
5.8190309436
 20
8.773157406
 10
5.9007487711
 20
8.7746303218
  0
LWPOLYLINE
  5
5C2
100
AcDbEntity
  8
02___PRT_ALL_AXES
100
AcDbPolyline
 62
7
  6
CONTINUOUS
 90
9
 70
0
 10
5.5403442649
 20
9.0074465817
 10
5.5419183758
 20
9.0079222731
 10
5.5562511258
 20
9.0093951889
 10
5.5845653558
 20
9.0108681048
 10
5.6261671348
 20
9.0123410206
 10
5.6800368778
 20
9.0138139365
 10
5.7448543339
 20
9.0152868523
 10
5.8190309436
 20
9.0167597682
 10
5.9007487711
 20
9.018232684
  0
LWPOLYLINE
  5
5C3
100
AcDbEntity
  8
02___PRT_ALL_AXES
100
AcDbPolyline
 62
7
  6
CONTINUOUS
 90
9
 70
0
 10
5.5403442649
 20
8.9483914636
 10
5.5419183758
 20
8.948867155
 10
5.5562511258
 20
8.9503400708
 10
5.5845653558
 20
8.9518129867
 10
5.6261671348
 20
8.9532859025
 10
5.6800368778
 20
8.9547588184
 10
5.7448543339
 20
8.9562317342
 10
5.8190309436
 20
8.9577046501
 10
5.9007487711
 20
8.9591775659
  0
LWPOLYLINE
  5
5C4
100
AcDbEntity
  8
02___PRT_ALL_AXES
100
AcDbPolyline
 62
7
  6
CONTINUOUS
 90
9
 70
0
 10
5.5403442649
 20
8.8893363455
 10
5.5419183758
 20
8.8898120369
 10
5.5562511258
 20
8.8912849527
 10
5.5845653558
 20
8.8927578686
 10
5.6261671348
 20
8.8942307844
 10
5.6800368778
 20
8.8957037003
 10
5.7448543339
 20
8.8971766161
 10
5.8190309436
 20
8.8986495319
 10
5.9007487711
 20
8.9001224478
  0
LWPOLYLINE
  5
5C5
100
AcDbEntity
  8
02___PRT_ALL_AXES
100
AcDbPolyline
 62
7
  6
CONTINUOUS
 90
9
 70
0
 10
5.5403442649
 20
8.8302812274
 10
5.5419183758
 20
8.8307569188
 10
5.5562511258
 20
8.8322298346
 10
5.5845653558
 20
8.8337027505
 10
5.6261671348
 20
8.8351756663
 10
5.6800368778
 20
8.8366485821
 10
5.7448543339
 20
8.838121498
 10
5.8190309436
 20
8.8395944138
 10
5.9007487711
 20
8.8410673297
  0
LINE
  5
5C6
100
AcDbEntity
  8
02___PRT_ALL_AXES
100
AcDbLine
 62
7
  6
CONTINUOUS
 10
6.7131210954
 20
9.0290707179
 11
6.7133468534
 21
9.0293314845
  0
LINE
  5
5C7
100
AcDbEntity
  8
02___PRT_ALL_AXES
100
AcDbLine
 62
7
  6
CONTINUOUS
 10
6.7131210954
 20
8.9700155998
 11
6.7133468534
 21
8.9702763664
  0
LINE
  5
5C8
100
AcDbEntity
  8
02___PRT_ALL_AXES
100
AcDbLine
 62
7
  6
CONTINUOUS
 10
6.7131210954
 20
8.9109604817
 11
6.7133468534
 21
8.9112212482
  0
LINE
  5
5C9
100
AcDbEntity
  8
02___PRT_ALL_AXES
100
AcDbLine
 62
7
  6
CONTINUOUS
 10
6.7131210954
 20
8.8519053636
 11
6.7133468534
 21
8.8521661301
  0
LINE
  5
5CA
100
AcDbEntity
  8
02___PRT_ALL_AXES
100
AcDbLine
 62
7
  6
CONTINUOUS
 10
6.7131210954
 20
8.7928502455
 11
6.7133468534
 21
8.793111012
  0
LWPOLYLINE
  5
5CB
100
AcDbEntity
  8
02___PRT_ALL_AXES
100
AcDbPolyline
 62
7
  6
CONTINUOUS
 90
5
 70
0
 10
6.6779137825
 20
8.9390604399
 10
6.6772706289
 20
8.9386063377
 10
6.6659781245
 20
8.9371008847
 10
6.6413484351
 20
8.935617637
 10
6.6040695169
 20
8.9341391712
  0
LINE
  5
5CC
100
AcDbEntity
  8
0
100
AcDbLine
 62
7
  6
CONTINUOUS
 10
6.6776735299
 20
9.0676517889
 11
6.7131210954
 21
9.088125836
  0
LINE
  5
5CD
100
AcDbEntity
  8
0
100
AcDbLine
 62
7
  6
CONTINUOUS
 10
6.6776735299
 20
9.0085966708
 11
6.7131210954
 21
9.0290707179
  0
LINE
  5
5CE
100
AcDbEntity
  8
0
100
AcDbLine
 62
7
  6
CONTINUOUS
 10
6.6776735299
 20
8.9495415527
 11
6.7131210954
 21
8.9700155998
  0
LWPOLYLINE
  5
5CF
100
AcDbEntity
  8
02___PRT_ALL_AXES
100
AcDbPolyline
 62
7
  6
CONTINUOUS
 90
8
 70
0
 10
6.6779137803
 20
9.0571715164
 10
6.6762654309
 20
9.056443593
 10
6.6621569631
 20
9.0549178816
 10
6.6341822078
 20
9.0534013973
 10
6.5923608839
 20
9.0518636873
 10
6.5377868647
 20
9.0503178549
 10
6.4727212607
 20
9.0487852121
 10
6.3992311025
 20
9.0472673756
  0
LWPOLYLINE
  5
5D0
100
AcDbEntity
  8
02___PRT_ALL_AXES
100
AcDbPolyline
 62
7
  6
CONTINUOUS
 90
10
 70
0
 10
5.57555158
 20
8.5659599621
 10
5.5772037445
 20
8.5666887212
 10
5.5913188148
 20
8.5682143395
 10
5.6193032383
 20
8.5697309529
 10
5.6611358386
 20
8.5712687849
 10
5.7157251459
 20
8.572814812
 10
5.7808109447
 20
8.574347725
 10
5.8542849119
 20
8.575865091
 10
5.935916703
 20
8.5774019569
 10
6.0230353007
 20
8.5789457035
  0
LWPOLYLINE
  5
5D1
100
AcDbEntity
  8
02___PRT_ALL_AXES
100
AcDbPolyline
 62
7
  6
CONTINUOUS
 90
10
 70
0
 10
6.6779137825
 20
9.1162257787
 10
6.6760077791
 20
9.1154439189
 10
6.6612399474
 20
9.113908048
 10
6.632718352
 20
9.1123930749
 10
6.5910221997
 20
9.1108762973
 10
6.5373759199
 20
9.1093624609
 10
6.4729520562
 20
9.107845387
 10
6.3994496193
 20
9.106326781
 10
6.3176653094
 20
9.1047867545
 10
6.2304300596
 20
9.1032408875
  0
LWPOLYLINE
  5
5D2
100
AcDbEntity
  8
02___PRT_ALL_AXES
100
AcDbPolyline
 62
7
  6
CONTINUOUS
 90
10
 70
0
 10
5.5755515778
 20
8.5069056868
 10
5.5774596712
 20
8.5076879828
 10
5.5922316019
 20
8.5092238571
 10
5.6207584415
 20
8.5107388895
 10
5.6624678763
 20
8.5122559576
 10
5.7161113551
 20
8.5137695721
 10
5.7805250258
 20
8.5152863427
 10
5.8540232911
 20
8.51680484
 10
5.9358015628
 20
8.5183447459
 10
6.0230353007
 20
8.5198905854
  0
LWPOLYLINE
  5
5D3
100
AcDbEntity
  8
02___PRT_ALL_AXES
100
AcDbPolyline
 62
7
  6
CONTINUOUS
 90
9
 70
0
 10
5.5401185069
 20
8.6454732167
 10
5.5419183758
 20
8.6462096747
 10
5.5562511258
 20
8.6476825905
 10
5.5845653558
 20
8.6491555064
 10
5.6261671348
 20
8.6506284222
 10
5.6800368778
 20
8.6521013381
 10
5.7448543339
 20
8.6535742539
 10
5.8190309436
 20
8.6550471697
 10
5.9007487711
 20
8.6565200856
  0
LWPOLYLINE
  5
5D4
100
AcDbEntity
  8
02___PRT_ALL_AXES
100
AcDbPolyline
 62
7
  6
CONTINUOUS
 90
9
 70
0
 10
5.5401185069
 20
8.5864180986
 10
5.5419183758
 20
8.5871545566
 10
5.5562511258
 20
8.5886274724
 10
5.5845653558
 20
8.5901003883
 10
5.6261671348
 20
8.5915733041
 10
5.6800368778
 20
8.5930462199
 10
5.7448543339
 20
8.5945191358
 10
5.8190309436
 20
8.5959920516
 10
5.9007487711
 20
8.5974649675
  0
LWPOLYLINE
  5
5D5
100
AcDbEntity
  8
02___PRT_ALL_AXES
100
AcDbPolyline
 62
7
  6
CONTINUOUS
 90
9
 70
0
 10
5.5401185069
 20
8.5273629805
 10
5.5419183758
 20
8.5280994385
 10
5.5562511258
 20
8.5295723543
 10
5.5845653558
 20
8.5310452701
 10
5.6261671348
 20
8.532518186
 10
5.6800368778
 20
8.5339911018
 10
5.7448543339
 20
8.5354640177
 10
5.8190309436
 20
8.5369369335
 10
5.9007487711
 20
8.5384098494
  0
LWPOLYLINE
  5
5D6
100
AcDbEntity
  8
02___PRT_ALL_AXES
100
AcDbPolyline
 62
7
  6
CONTINUOUS
 90
10
 70
0
 10
5.5755515798
 20
8.6250167295
 10
5.5775089179
 20
8.6258082559
 10
5.5920798201
 20
8.6273234685
 10
5.6205045374
 20
8.6288381947
 10
5.6627830695
 20
8.6303761574
 10
5.7177544792
 20
8.6319217067
 10
5.7831251274
 20
8.6334534214
 10
5.8567785201
 20
8.6349690526
 10
5.9376048562
 20
8.636487741
 10
6.0230353007
 20
8.6380008216
  0
LWPOLYLINE
  5
5D7
100
AcDbEntity
  8
02___PRT_ALL_AXES
100
AcDbPolyline
 62
7
  6
CONTINUOUS
 90
10
 70
0
 10
6.6779137804
 20
8.9981147245
 10
6.6759515328
 20
8.9973222233
 10
6.6613793652
 20
8.9958075712
 10
6.6329491251
 20
8.9942927739
 10
6.5906636089
 20
8.9927547254
 10
6.5356882057
 20
8.9912091895
 10
6.4703172512
 20
8.9896775503
 10
6.3966670545
 20
8.9881620333
 10
6.31586143
 20
8.9866437487
 10
6.2304300596
 20
8.9851306512
  0
LWPOLYLINE
  5
5D8
100
AcDbEntity
  8
02___PRT_ALL_AXES
100
AcDbPolyline
 62
7
  6
CONTINUOUS
 90
5
 70
0
 10
5.5403442649
 20
8.7121709912
 10
5.5411830248
 20
8.7124765403
 10
5.553587185
 20
8.7139281883
 10
5.5796361939
 20
8.7153798364
 10
5.6187099039
 20
8.7168314845
  0
LWPOLYLINE
  5
5D9
100
AcDbEntity
  8
02___PRT_ALL_AXES
100
AcDbPolyline
 62
7
  6
CONTINUOUS
 90
9
 70
0
 10
5.5403442649
 20
8.7712261093
 10
5.5419183758
 20
8.7717018007
 10
5.5562511258
 20
8.7731747165
 10
5.5845653558
 20
8.7746476323
 10
5.6261671348
 20
8.7761205482
 10
5.6800368778
 20
8.777593464
 10
5.7448543339
 20
8.7790663799
 10
5.8190309436
 20
8.7805392957
 10
5.9007487711
 20
8.7820122116
  0
LWPOLYLINE
  5
5DA
100
AcDbEntity
  8
02___PRT_ALL_AXES
100
AcDbPolyline
 62
7
  6
CONTINUOUS
 90
9
 70
0
 10
5.5403442649
 20
8.6531158731
 10
5.5419183758
 20
8.6535915644
 10
5.5562511258
 20
8.6550644803
 10
5.5845653558
 20
8.6565373961
 10
5.6261671348
 20
8.658010312
 10
5.6800368778
 20
8.6594832278
 10
5.7448543339
 20
8.6609561437
 10
5.8190309436
 20
8.6624290595
 10
5.9007487711
 20
8.6639019753
  0
LWPOLYLINE
  5
5DB
100
AcDbEntity
  8
02___PRT_ALL_AXES
100
AcDbPolyline
 62
7
  6
CONTINUOUS
 90
7
 70
0
 10
5.5403442649
 20
8.594060755
 10
5.5419183758
 20
8.5945364463
 10
5.5562511258
 20
8.5960093622
 10
5.5845653558
 20
8.597482278
 10
5.6261671348
 20
8.5989551939
 10
5.6800368778
 20
8.6004281097
 10
5.7448543339
 20
8.6019010255
  0
LINE
  5
5DC
100
AcDbEntity
  8
02___PRT_ALL_AXES
100
AcDbLine
 62
7
  6
CONTINUOUS
 10
6.7131210954
 20
8.7337951273
 11
6.7133468534
 21
8.7340558939
  0
LINE
  5
5DD
100
AcDbEntity
  8
02___PRT_ALL_AXES
100
AcDbLine
 62
7
  6
CONTINUOUS
 10
6.7131210954
 20
8.6747400092
 11
6.7133468534
 21
8.6750007758
  0
LINE
  5
5DE
100
AcDbEntity
  8
02___PRT_ALL_AXES
100
AcDbLine
 62
7
  6
CONTINUOUS
 10
6.7131210954
 20
8.6156848911
 11
6.7133468534
 21
8.6159456577
  0
LINE
  5
5DF
100
AcDbEntity
  8
02___PRT_ALL_AXES
100
AcDbLine
 62
7
  6
CONTINUOUS
 10
6.7131210954
 20
8.556629773
 11
6.7133468534
 21
8.5568905396
  0
LINE
  5
5E0
100
AcDbEntity
  8
0
100
AcDbLine
 62
7
  6
CONTINUOUS
 10
6.6776735299
 20
8.8904864345
 11
6.7131210954
 21
8.9109604817
  0
LINE
  5
5E1
100
AcDbEntity
  8
0
100
AcDbLine
 62
7
  6
CONTINUOUS
 10
6.6776735299
 20
8.8314313164
 11
6.7131210954
 21
8.8519053636
  0
LINE
  5
5E2
100
AcDbEntity
  8
0
100
AcDbLine
 62
7
  6
CONTINUOUS
 10
6.6776735299
 20
8.7723761983
 11
6.7131210954
 21
8.7928502455
  0
LINE
  5
5E3
100
AcDbEntity
  8
0
100
AcDbLine
 62
7
  6
CONTINUOUS
 10
6.6776735299
 20
8.7133210802
 11
6.7131210954
 21
8.7337951273
  0
LWPOLYLINE
  5
5E4
100
AcDbEntity
  8
02___PRT_ALL_AXES
100
AcDbPolyline
 62
7
  6
CONTINUOUS
 90
10
 70
0
 10
6.6779137818
 20
8.880005798
 10
6.6761184794
 20
8.8792465041
 10
6.6616291462
 20
8.8777149218
 10
6.6333319257
 20
8.8761990719
 10
6.5914126794
 20
8.8746681929
 10
6.5371367908
 20
8.8731358776
 10
6.472786811
 20
8.8716212938
 10
6.39934638
 20
8.8701042828
 10
6.3176096004
 20
8.8685652694
 10
6.2304300596
 20
8.867020415
  0
LWPOLYLINE
  5
5E5
100
AcDbEntity
  8
02___PRT_ALL_AXES
100
AcDbPolyline
 62
7
  6
CONTINUOUS
 90
10
 70
0
 10
6.6779137825
 20
8.7618950728
 10
6.6760965032
 20
8.7611316352
 10
6.6615036898
 20
8.7595958358
 10
6.6332106367
 20
8.7580835895
 10
6.5915717581
 20
8.7565630026
 10
6.537267728
 20
8.7550289869
 10
6.4723689443
 20
8.7535019063
 10
6.3987987817
 20
8.7519833061
 10
6.3172095944
 20
8.7504477632
 10
6.2304300596
 20
8.7489101788
  0
LWPOLYLINE
  5
5E6
100
AcDbEntity
  8
02___PRT_ALL_AXES
100
AcDbPolyline
 62
7
  6
CONTINUOUS
 90
10
 70
0
 10
6.6779137814
 20
8.820949603
 10
6.6760145571
 20
8.8201697206
 10
6.6615665359
 20
8.8186553829
 10
6.6331990606
 20
8.8171382073
 10
6.5909429584
 20
8.8155981999
 10
6.5359539955
 20
8.814050598
 10
6.4705222583
 20
8.8125166676
 10
6.3968942479
 20
8.8110011231
 10
6.3163796282
 20
8.8094878037
 10
6.2304300596
 20
8.8079652969
  0
LWPOLYLINE
  5
5E7
100
AcDbEntity
  8
02___PRT_ALL_AXES
100
AcDbPolyline
 62
7
  6
CONTINUOUS
 90
9
 70
0
 10
5.5403442649
 20
8.5350056369
 10
5.5419183758
 20
8.5354813282
 10
5.5562511258
 20
8.5369542441
 10
5.5845653558
 20
8.5384271599
 10
5.6261671348
 20
8.5399000757
 10
5.6800368778
 20
8.5413729916
 10
5.7448543339
 20
8.5428459074
 10
5.8190309436
 20
8.5443188233
 10
5.9007487711
 20
8.5457917391
  0
LINE
  5
5E8
100
AcDbEntity
  8
0
100
AcDbLine
 62
7
  6
CONTINUOUS
 10
7.1109846487
 20
11.7879436892
 11
5.1424807116
 21
11.7879436892
  0
LINE
  5
5E9
100
AcDbEntity
  8
AXIS
100
AcDbLine
 62
7
  6
CONTINUOUS
 10
5.1424807116
 20
11.7879436892
 11
7.1109846487
 21
11.7879436892
  0
LINE
  5
5EA
100
AcDbEntity
  8
0
100
AcDbLine
 62
7
  6
CONTINUOUS
 10
6.6776735299
 20
8.6542659621
 11
6.7131210954
 21
8.6747400092
  0
LINE
  5
5EB
100
AcDbEntity
  8
0
100
AcDbLine
 62
7
  6
CONTINUOUS
 10
6.6776735299
 20
8.595210844
 11
6.7131210954
 21
8.6156848911
  0
LINE
  5
5EC
100
AcDbEntity
  8
0
100
AcDbLine
 62
7
  6
CONTINUOUS
 10
6.6776735299
 20
8.5361557259
 11
6.7131210954
 21
8.556629773
  0
LWPOLYLINE
  5
5ED
100
AcDbEntity
  8
02___PRT_ALL_AXES
100
AcDbPolyline
 62
7
  6
CONTINUOUS
 90
6
 70
0
 10
6.6779137824
 20
8.643785067
 10
6.6761594679
 20
8.6430347485
 10
6.6618939293
 20
8.6415132381
 10
6.6337055682
 20
8.6399948038
 10
6.5916188643
 20
8.6384542614
 10
6.5367629214
 20
8.6369058598
  0
LWPOLYLINE
  5
5EE
100
AcDbEntity
  8
02___PRT_ALL_AXES
100
AcDbPolyline
 62
7
  6
CONTINUOUS
 90
10
 70
0
 10
6.6779137825
 20
8.5847296381
 10
6.6760893505
 20
8.5839647791
 10
6.6615323386
 20
8.5824324995
 10
6.6331818064
 20
8.5809169892
 10
6.5910270319
 20
8.5793803872
 10
6.5361929849
 20
8.5778362112
 10
6.4709650492
 20
8.5763058591
 10
6.3973682677
 20
8.5747899267
 10
6.3162048002
 20
8.5732641564
 10
6.2304300596
 20
8.5717448245
  0
LWPOLYLINE
  5
5EF
100
AcDbEntity
  8
02___PRT_ALL_AXES
100
AcDbPolyline
 62
7
  6
CONTINUOUS
 90
10
 70
0
 10
6.6779137825
 20
8.7028399551
 10
6.6760046459
 20
8.7020574494
 10
6.6612460694
 20
8.700522649
 10
6.6327270215
 20
8.6990076209
 10
6.5908215692
 20
8.6974841256
 10
6.5369999436
 20
8.6959670281
 10
6.4727792779
 20
8.6944557744
 10
6.3993403032
 20
8.6929388093
 10
6.3176054834
 20
8.6913998402
 10
6.2304300596
 20
8.6898550607
  0
LINE
  5
5F0
100
AcDbEntity
  8
AXIS
100
AcDbLine
 62
7
  6
CONTINUOUS
 10
5.1424807116
 20
12.8469988073
 11
7.1109846487
 21
12.8469988073
  0
LINE
  5
5F1
100
AcDbEntity
  8
0
100
AcDbLine
 62
7
  6
CONTINUOUS
 10
5.1424807116
 20
12.8469988073
 11
7.1109846487
 21
12.8469988073
  0
LINE
  5
5F2
100
AcDbEntity
  8
0
100
AcDbLine
 62
9
  6
CONTINUOUS
 10
5.147177708
 20
13.116089548
 11
7.1062876523
 21
13.116089548
  0
LINE
  5
5F3
100
AcDbEntity
  8
0
100
AcDbLine
 62
7
  6
CONTINUOUS
 10
5.2259058733
 20
13.1934555002
 11
7.0275594873
 21
13.1934555002
  0
LWPOLYLINE
  5
5F4
100
AcDbEntity
  8
02___PRT_ALL_AXES
100
AcDbPolyline
 62
7
  6
CONTINUOUS
 90
18
 70
0
 10
17.2128258367
 20
5.1279053926
 10
17.2244175084
 20
5.1221064793
 10
17.237320626
 20
5.1173190125
 10
17.2512725193
 20
5.1136404513
 10
17.2659891679
 20
5.1111456806
 10
17.2811709834
 20
5.1098854867
 10
17.2965089078
 20
5.1098855236
 10
17.3116907052
 20
5.1111457904
 10
17.3264073179
 20
5.1136406319
 10
17.3403591581
 20
5.1173192601
 10
17.3532622067
 20
5.122106789
 10
17.3648537947
 20
5.127905758
 10
17.3748979508
 20
5.1345981171
 10
17.3831902051
 20
5.142047629
 10
17.3895617511
 20
5.1501026432
 10
17.3938828824
 20
5.1585991828
 10
17.3960656335
 20
5.1673642828
 10
17.3963384533
 20
5.1717916387
  0
LWPOLYLINE
  5
5F5
100
AcDbEntity
  8
02___PRT_ALL_AXES
100
AcDbPolyline
 62
7
  6
CONTINUOUS
 90
14
 70
0
 10
17.06585233
 20
5.8084660267
 10
17.1532656234
 20
5.7934148026
 10
17.2440015894
 20
5.7864392291
 10
17.3358364521
 20
5.7877397397
 10
17.4265195039
 20
5.7973139355
 10
17.5138282655
 20
5.8149566449
 10
17.595622956
 20
5.8402649512
 10
17.669898934
 20
5.8726480676
 10
17.7348358285
 20
5.9113418167
 10
17.7888421526
 20
5.9554273585
 10
17.8305943083
 20
6.00385371
 10
17.8590690249
 20
6.0554635027
 10
17.8735684384
 20
6.1090213476
 10
17.8754536724
 20
6.1367672739
  0
LWPOLYLINE
  5
5F6
100
AcDbEntity
  8
02___PRT_ALL_AXES
100
AcDbPolyline
 62
7
  6
CONTINUOUS
 90
13
 70
0
 10
17.06585233
 20
5.8144933576
 10
17.1532656234
 20
5.7994421334
 10
17.2440015894
 20
5.79246656
 10
17.3358364521
 20
5.7937670705
 10
17.4265195039
 20
5.8033412664
 10
17.5138282655
 20
5.8209839757
 10
17.595622956
 20
5.846292282
 10
17.669898934
 20
5.8786753985
 10
17.7348358285
 20
5.9173691475
 10
17.7888421526
 20
5.9614546893
 10
17.8305943083
 20
6.0098810408
 10
17.8590690249
 20
6.0614908335
 10
17.8735684384
 20
6.1150486784
  0
LWPOLYLINE
  5
5F7
100
AcDbEntity
  8
02___PRT_ALL_AXES
100
AcDbPolyline
 62
7
  6
CONTINUOUS
 90
11
 70
0
 10
17.06585233
 20
5.8566846734
 10
17.1532656234
 20
5.8416334493
 10
17.2440015894
 20
5.8346578758
 10
17.3358364521
 20
5.8359583863
 10
17.4265195039
 20
5.8455325822
 10
17.5138282655
 20
5.8631752916
 10
17.595622956
 20
5.8884835979
 10
17.669898934
 20
5.9208667143
 10
17.7348358285
 20
5.9595604634
 10
17.7888421526
 20
6.0036460052
 10
17.8305943083
 20
6.0520723567
  0
LWPOLYLINE
  5
5F8
100
AcDbEntity
  8
02___PRT_ALL_AXES
100
AcDbPolyline
 62
7
  6
CONTINUOUS
 90
11
 70
0
 10
17.06585233
 20
5.8627120043
 10
17.1532656234
 20
5.8476607801
 10
17.2440015894
 20
5.8406852066
 10
17.3358364521
 20
5.8419857172
 10
17.4265195039
 20
5.851559913
 10
17.5138282655
 20
5.8692026224
 10
17.595622956
 20
5.8945109287
 10
17.669898934
 20
5.9268940451
 10
17.7348358285
 20
5.9655877942
 10
17.7888421526
 20
6.009673336
 10
17.8305943083
 20
6.0580996875
  0
LWPOLYLINE
  5
5F9
100
AcDbEntity
  8
02___PRT_ALL_AXES
100
AcDbPolyline
 62
7
  6
CONTINUOUS
 90
12
 70
0
 10
17.06585233
 20
5.9049033201
 10
17.1532656234
 20
5.889852096
 10
17.2440015894
 20
5.8828765225
 10
17.3358364521
 20
5.884177033
 10
17.4265195039
 20
5.8937512289
 10
17.5138282655
 20
5.9113939383
 10
17.595622956
 20
5.9367022445
 10
17.669898934
 20
5.969085361
 10
17.7348358285
 20
6.0077791101
 10
17.7888421526
 20
6.0518646519
 10
17.8305943083
 20
6.1002910034
 10
17.8590690249
 20
6.151900796
  0
LWPOLYLINE
  5
5FA
100
AcDbEntity
  8
02___PRT_ALL_AXES
100
AcDbPolyline
 62
7
  6
CONTINUOUS
 90
12
 70
0
 10
17.06585233
 20
5.9109306509
 10
17.1532656234
 20
5.8958794268
 10
17.2440015894
 20
5.8889038533
 10
17.3358364521
 20
5.8902043638
 10
17.4265195039
 20
5.8997785597
 10
17.5138282655
 20
5.9174212691
 10
17.595622956
 20
5.9427295754
 10
17.669898934
 20
5.9751126918
 10
17.7348358285
 20
6.0138064409
 10
17.7888421526
 20
6.0578919827
 10
17.8305943083
 20
6.1063183342
 10
17.8590690249
 20
6.1579281269
  0
LINE
  5
5FB
100
AcDbEntity
  8
02___PRT_ALL_AXES
100
AcDbLine
 62
7
  6
CONTINUOUS
 10
17.1413675262
 20
5.8869649896
 11
17.0576309251
 21
5.9034709821
  0
LWPOLYLINE
  5
5FC
100
AcDbEntity
  8
02___PRT_ALL_AXES
100
AcDbPolyline
 62
7
  6
CONTINUOUS
 90
3
 70
0
 10
17.1406831021
 20
5.8388464498
 10
17.0568261678
 20
5.8554551423
 10
16.9793823357
 20
5.8795367265
  0
LWPOLYLINE
  5
5FD
100
AcDbEntity
  8
02___PRT_ALL_AXES
100
AcDbPolyline
 62
7
  6
CONTINUOUS
 90
5
 70
0
 10
17.06585233
 20
5.8084660267
 10
17.0448878986
 20
5.815127224
 10
17.022926546
 20
5.82277363
 10
17.0008488023
 20
5.8311880549
 10
16.9793823357
 20
5.8401025373
  0
LWPOLYLINE
  5
5FE
100
AcDbEntity
  8
02___PRT_ALL_AXES
100
AcDbPolyline
 62
7
  6
CONTINUOUS
 90
3
 70
0
 10
17.06585233
 20
5.8566846734
 10
17.0368780136
 20
5.8660534697
 10
17.0080416671
 20
5.8765829471
  0
LWPOLYLINE
  5
5FF
100
AcDbEntity
  8
0
100
AcDbPolyline
 62
9
  6
CONTINUOUS
 90
14
 70
0
 10
16.9793823357
 20
5.8021120829
 10
17.052786942
 20
5.7778836336
 10
17.1316989621
 20
5.7604305147
 10
17.2143120632
 20
5.7501462847
 10
17.2986948538
 20
5.7472747555
 10
17.3828459742
 20
5.75188637
 10
17.4647825033
 20
5.7638719726
 10
17.542579063
 20
5.7829490556
 10
17.6144102982
 20
5.8086699262
 10
17.6785855367
 20
5.8404296019
 10
17.7335949927
 20
5.8774810151
 10
17.7781446597
 20
5.91895245
 10
17.8111868278
 20
5.9638679902
 10
17.8268051406
 20
5.9994588336
  0
LINE
  5
600
100
AcDbEntity
  8
0
100
AcDbLine
 62
7
  6
CONTINUOUS
 10
16.9867588643
 20
5.7845378858
 11
16.9882186287
 21
5.7838372102
  0
LINE
  5
601
100
AcDbEntity
  8
0
100
AcDbLine
 62
7
  6
CONTINUOUS
 10
16.9867344441
 20
5.7845519844
 11
16.841687433
 21
5.8682930209
  0
LWPOLYLINE
  5
602
100
AcDbEntity
  8
02___PRT_ALL_AXES
100
AcDbPolyline
 62
7
  6
CONTINUOUS
 90
7
 70
0
 10
17.4406687785
 20
6.0888971297
 10
17.5260283619
 20
6.1074612608
 10
17.6057412009
 20
6.1333997781
 10
17.6779095756
 20
6.1661233822
 10
17.7408153767
 20
6.2048812417
 10
17.7929610086
 20
6.2487788676
 10
17.8331050428
 20
6.296799409
  0
LWPOLYLINE
  5
603
100
AcDbEntity
  8
02___PRT_ALL_AXES
100
AcDbPolyline
 62
7
  6
CONTINUOUS
 90
5
 70
0
 10
17.4935071473
 20
6.0959880191
 10
17.4078096393
 20
6.0794874432
 10
17.3188788003
 20
6.0712079951
 10
17.2301851293
 20
6.0713053307
 10
17.1428740194
 20
6.079621149
  0
LINE
  5
604
100
AcDbEntity
  8
02___PRT_ALL_AXES
100
AcDbLine
 62
7
  6
CONTINUOUS
 10
17.3467433595
 20
6.0837875319
 11
17.4406687785
 21
6.0949244605
  0
LWPOLYLINE
  5
605
100
AcDbEntity
  8
02___PRT_ALL_AXES
100
AcDbPolyline
 62
7
  6
CONTINUOUS
 90
5
 70
0
 10
17.06585233
 20
6.0977779068
 10
17.1568197109
 20
6.0822937552
 10
17.2512841371
 20
6.0755506069
 10
17.3467433595
 20
6.077760201
 10
17.4406687785
 20
6.0888971297
  0
LWPOLYLINE
  5
606
100
AcDbEntity
  8
02___PRT_ALL_AXES
100
AcDbPolyline
 62
7
  6
CONTINUOUS
 90
4
 70
0
 10
17.06585233
 20
6.1038052377
 10
17.1568197109
 20
6.0883210861
 10
17.2512841371
 20
6.0815779377
 10
17.3467433595
 20
6.0837875319
  0
LWPOLYLINE
  5
607
100
AcDbEntity
  8
02___PRT_ALL_AXES
100
AcDbPolyline
 62
7
  6
CONTINUOUS
 90
11
 70
0
 10
17.06585233
 20
5.9531219668
 10
17.1532656234
 20
5.9380707426
 10
17.2440015894
 20
5.9310951692
 10
17.3358364521
 20
5.9323956797
 10
17.4265195039
 20
5.9419698756
 10
17.5138282655
 20
5.959612585
 10
17.595622956
 20
5.9849208912
 10
17.669898934
 20
6.0173040077
 10
17.7348358285
 20
6.0559977567
 10
17.7888421526
 20
6.1000832986
 10
17.8305943083
 20
6.1485096501
  0
LWPOLYLINE
  5
608
100
AcDbEntity
  8
02___PRT_ALL_AXES
100
AcDbPolyline
 62
7
  6
CONTINUOUS
 90
12
 70
0
 10
17.06585233
 20
5.9591492976
 10
17.1532656234
 20
5.9440980735
 10
17.2440015894
 20
5.9371225
 10
17.3358364521
 20
5.9384230105
 10
17.4265195039
 20
5.9479972064
 10
17.5138282655
 20
5.9656399158
 10
17.595622956
 20
5.9909482221
 10
17.669898934
 20
6.0233313385
 10
17.7348358285
 20
6.0620250876
 10
17.7888421526
 20
6.1061106294
 10
17.8305943083
 20
6.1545369809
 10
17.8590690249
 20
6.2061467736
  0
LWPOLYLINE
  5
609
100
AcDbEntity
  8
02___PRT_ALL_AXES
100
AcDbPolyline
 62
7
  6
CONTINUOUS
 90
11
 70
0
 10
17.06585233
 20
6.0013406135
 10
17.1532656234
 20
5.9862893893
 10
17.2440015894
 20
5.9793138159
 10
17.3358364521
 20
5.9806143264
 10
17.4265195039
 20
5.9901885223
 10
17.5138282655
 20
6.0078312316
 10
17.595622956
 20
6.0331395379
 10
17.669898934
 20
6.0655226544
 10
17.7348358285
 20
6.1042164034
 10
17.7888421526
 20
6.1483019452
 10
17.8305943083
 20
6.1967282967
  0
LWPOLYLINE
  5
60A
100
AcDbEntity
  8
02___PRT_ALL_AXES
100
AcDbPolyline
 62
7
  6
CONTINUOUS
 90
12
 70
0
 10
17.06585233
 20
6.0073679443
 10
17.1532656234
 20
5.9923167202
 10
17.2440015894
 20
5.9853411467
 10
17.3358364521
 20
5.9866416572
 10
17.4265195039
 20
5.9962158531
 10
17.5138282655
 20
6.0138585625
 10
17.595622956
 20
6.0391668687
 10
17.669898934
 20
6.0715499852
 10
17.7348358285
 20
6.1102437343
 10
17.7888421526
 20
6.1543292761
 10
17.8305943083
 20
6.2027556276
 10
17.8590690249
 20
6.2543654202
  0
LWPOLYLINE
  5
60B
100
AcDbEntity
  8
02___PRT_ALL_AXES
100
AcDbPolyline
 62
7
  6
CONTINUOUS
 90
11
 70
0
 10
17.06585233
 20
6.0495592601
 10
17.1532656234
 20
6.034508036
 10
17.2440015894
 20
6.0275324625
 10
17.3358364521
 20
6.0288329731
 10
17.4265195039
 20
6.0384071689
 10
17.5138282655
 20
6.0560498783
 10
17.595622956
 20
6.0813581846
 10
17.669898934
 20
6.113741301
 10
17.7348358285
 20
6.1524350501
 10
17.7888421526
 20
6.1965205919
 10
17.8305943083
 20
6.2449469434
  0
LWPOLYLINE
  5
60C
100
AcDbEntity
  8
02___PRT_ALL_AXES
100
AcDbPolyline
 62
7
  6
CONTINUOUS
 90
12
 70
0
 10
17.06585233
 20
6.055586591
 10
17.1532656234
 20
6.0405353668
 10
17.2440015894
 20
6.0335597934
 10
17.3358364521
 20
6.0348603039
 10
17.4265195039
 20
6.0444344998
 10
17.5138282655
 20
6.0620772092
 10
17.595622956
 20
6.0873855154
 10
17.669898934
 20
6.1197686319
 10
17.7348358285
 20
6.1584623809
 10
17.7888421526
 20
6.2025479228
 10
17.8305943083
 20
6.2509742742
 10
17.8590690249
 20
6.3025840669
  0
LINE
  5
60D
100
AcDbEntity
  8
02___PRT_ALL_AXES
100
AcDbLine
 62
7
  6
CONTINUOUS
 10
17.1428672773
 20
5.9349661807
 11
17.058180687
 21
5.9515515996
  0
LINE
  5
60E
100
AcDbEntity
  8
02___PRT_ALL_AXES
100
AcDbLine
 62
7
  6
CONTINUOUS
 10
17.1428740194
 20
6.079621149
 11
17.0581846728
 21
6.0962065404
  0
LINE
  5
60F
100
AcDbEntity
  8
02___PRT_ALL_AXES
100
AcDbLine
 62
7
  6
CONTINUOUS
 10
17.1422667475
 20
5.9832715871
 11
17.0577975371
 21
5.9998663998
  0
LWPOLYLINE
  5
610
100
AcDbEntity
  8
02___PRT_ALL_AXES
100
AcDbPolyline
 62
7
  6
CONTINUOUS
 90
3
 70
0
 10
17.140159217
 20
6.0317980309
 10
17.0569950676
 20
6.0482870901
 10
16.9793823357
 20
6.0724113132
  0
LINE
  5
611
100
AcDbEntity
  8
02___PRT_ALL_AXES
100
AcDbLine
 62
7
  6
CONTINUOUS
 10
17.058180687
 20
5.9515515996
 11
16.9793823357
 21
5.9759740198
  0
LINE
  5
612
100
AcDbEntity
  8
02___PRT_ALL_AXES
100
AcDbLine
 62
7
  6
CONTINUOUS
 10
17.0576309251
 20
5.9034709821
 11
16.9793823357
 21
5.9277553731
  0
LINE
  5
613
100
AcDbEntity
  8
02___PRT_ALL_AXES
100
AcDbLine
 62
7
  6
CONTINUOUS
 10
17.0577975371
 20
5.9998663998
 11
16.9793823357
 21
6.0241926665
  0
LWPOLYLINE
  5
614
100
AcDbEntity
  8
02___PRT_ALL_AXES
100
AcDbPolyline
 62
7
  6
CONTINUOUS
 90
4
 70
0
 10
17.06585233
 20
6.0013406135
 10
17.0451152554
 20
6.007926293
 10
17.0234210704
 20
6.0154682313
 10
17.0013317907
 20
6.0238705006
  0
LWPOLYLINE
  5
615
100
AcDbEntity
  8
02___PRT_ALL_AXES
100
AcDbPolyline
 62
7
  6
CONTINUOUS
 90
4
 70
0
 10
16.7462614904
 20
5.9929353075
 10
16.7752311019
 20
5.9835681287
 10
16.8040670412
 20
5.9730390121
 10
16.8327314847
 20
5.961298797
  0
LWPOLYLINE
  5
616
100
AcDbEntity
  8
02___PRT_ALL_AXES
100
AcDbPolyline
 62
7
  6
CONTINUOUS
 90
3
 70
0
 10
17.06585233
 20
5.9049033201
 10
17.0368780136
 20
5.9142721164
 10
17.0080416671
 20
5.9248015938
  0
LWPOLYLINE
  5
617
100
AcDbEntity
  8
02___PRT_ALL_AXES
100
AcDbPolyline
 62
7
  6
CONTINUOUS
 90
4
 70
0
 10
16.7462614904
 20
6.0411539542
 10
16.7752311019
 20
6.0317867753
 10
16.8040670412
 20
6.0212576587
 10
16.8327314847
 20
6.0095174437
  0
LWPOLYLINE
  5
618
100
AcDbEntity
  8
02___PRT_ALL_AXES
100
AcDbPolyline
 62
7
  6
CONTINUOUS
 90
3
 70
0
 10
17.06585233
 20
5.9531219668
 10
17.0368780135
 20
5.9624907631
 10
17.0080416671
 20
5.9730202405
  0
LWPOLYLINE
  5
619
100
AcDbEntity
  8
02___PRT_ALL_AXES
100
AcDbPolyline
 62
7
  6
CONTINUOUS
 90
4
 70
0
 10
16.7462614904
 20
6.0893726009
 10
16.7752370317
 20
6.0800033834
 10
16.8040723717
 20
6.0694742426
 10
16.8327314847
 20
6.0577360903
  0
LWPOLYLINE
  5
61A
100
AcDbEntity
  8
02___PRT_ALL_AXES
100
AcDbPolyline
 62
7
  6
CONTINUOUS
 90
4
 70
0
 10
16.7462614904
 20
6.1375912476
 10
16.7752311019
 20
6.1282240687
 10
16.8040670412
 20
6.1176949521
 10
16.8327314847
 20
6.105954737
  0
LWPOLYLINE
  5
61B
100
AcDbEntity
  8
02___PRT_ALL_AXES
100
AcDbPolyline
 62
7
  6
CONTINUOUS
 90
3
 70
0
 10
17.06585233
 20
6.0495592601
 10
17.0368780135
 20
6.0589280565
 10
17.0080416671
 20
6.0694575338
  0
LWPOLYLINE
  5
61C
100
AcDbEntity
  8
02___PRT_ALL_AXES
100
AcDbPolyline
 62
7
  6
CONTINUOUS
 90
4
 70
0
 10
16.7462614904
 20
6.1858098942
 10
16.7752311019
 20
6.1764427154
 10
16.8040670412
 20
6.1659135988
 10
16.8327314847
 20
6.1541733837
  0
LINE
  5
61D
100
AcDbEntity
  8
02___PRT_ALL_AXES
100
AcDbLine
 62
7
  6
CONTINUOUS
 10
17.0080416671
 20
5.8765829471
 11
16.9793823357
 21
5.8883211839
  0
LINE
  5
61E
100
AcDbEntity
  8
02___PRT_ALL_AXES
100
AcDbLine
 62
7
  6
CONTINUOUS
 10
17.0080416671
 20
5.9248015938
 11
16.9793823357
 21
5.9365398306
  0
LINE
  5
61F
100
AcDbEntity
  8
02___PRT_ALL_AXES
100
AcDbLine
 62
7
  6
CONTINUOUS
 10
17.0080416671
 20
5.9730202405
 11
16.9793823357
 21
5.9847584773
  0
LINE
  5
620
100
AcDbEntity
  8
02___PRT_ALL_AXES
100
AcDbLine
 62
7
  6
CONTINUOUS
 10
17.0080416671
 20
6.0694575338
 11
16.9793823357
 21
6.0811957707
  0
LINE
  5
621
100
AcDbEntity
  8
02___PRT_ALL_AXES
100
AcDbLine
 62
7
  6
CONTINUOUS
 10
17.0013317907
 20
6.0238705006
 11
16.9793823357
 21
6.032977124
  0
LINE
  5
622
100
AcDbEntity
  8
0
100
AcDbLine
 62
9
  6
CONTINUOUS
 10
16.9793823357
 20
5.8021120829
 11
16.8327314847
 21
5.8867790758
  0
LINE
  5
623
100
AcDbEntity
  8
0
100
AcDbLine
 62
7
  6
CONTINUOUS
 10
16.8393229773
 20
5.8699604025
 11
16.8416651974
 21
5.8683058584
  0
LWPOLYLINE
  5
624
100
AcDbEntity
  8
02___PRT_ALL_AXES
100
AcDbPolyline
 62
7
  6
CONTINUOUS
 90
4
 70
0
 10
16.8327314847
 20
5.9218646078
 10
16.8040727161
 20
5.9421266542
 10
16.7752341084
 20
5.9638374255
 10
16.7462614904
 20
5.9869079767
  0
LWPOLYLINE
  5
625
100
AcDbEntity
  8
02___PRT_ALL_AXES
100
AcDbPolyline
 62
7
  6
CONTINUOUS
 90
4
 70
0
 10
16.8327314847
 20
5.9700832545
 10
16.8040727161
 20
5.9903453009
 10
16.7752341084
 20
6.0120560722
 10
16.7462614904
 20
6.0351266234
  0
LWPOLYLINE
  5
626
100
AcDbEntity
  8
02___PRT_ALL_AXES
100
AcDbPolyline
 62
7
  6
CONTINUOUS
 90
4
 70
0
 10
16.8327314847
 20
6.0183019011
 10
16.8040798052
 20
6.0385587708
 10
16.775241893
 20
6.060268686
 10
16.7462614904
 20
6.08334527
  0
LWPOLYLINE
  5
627
100
AcDbEntity
  8
02___PRT_ALL_AXES
100
AcDbPolyline
 62
7
  6
CONTINUOUS
 90
4
 70
0
 10
16.9793823357
 20
5.9277553731
 10
17.0080464523
 20
5.9074894213
 10
17.0368846042
 20
5.885778764
 10
17.06585233
 20
5.8627120043
  0
LWPOLYLINE
  5
628
100
AcDbEntity
  8
02___PRT_ALL_AXES
100
AcDbPolyline
 62
7
  6
CONTINUOUS
 90
4
 70
0
 10
16.9793823357
 20
5.8795367265
 10
17.0082368988
 20
5.8591316708
 10
17.0376128027
 20
5.8369953697
 10
17.06585233
 20
5.8144933576
  0
LINE
  5
629
100
AcDbEntity
  8
0
100
AcDbLine
 62
7
  6
CONTINUOUS
 10
16.8385775455
 20
5.8706392017
 11
16.8393229773
 21
5.8699604025
  0
LWPOLYLINE
  5
62A
100
AcDbEntity
  8
02___PRT_ALL_AXES
100
AcDbPolyline
 62
7
  6
CONTINUOUS
 90
8
 70
0
 10
17.4406687785
 20
6.0949244605
 10
17.5260283619
 20
6.1134885916
 10
17.6057412009
 20
6.1394271089
 10
17.6779095756
 20
6.1721507131
 10
17.7408153767
 20
6.2109085725
 10
17.7929610086
 20
6.2548061984
 10
17.8331050428
 20
6.3028267398
 10
17.8411554151
 20
6.3179369808
  0
LINE
  5
62B
100
AcDbEntity
  8
02___PRT_ALL_AXES
100
AcDbLine
 62
7
  6
CONTINUOUS
 10
17.4265195039
 20
6.1348444623
 11
17.5138282655
 21
6.1524871717
  0
LWPOLYLINE
  5
62C
100
AcDbEntity
  8
02___PRT_ALL_AXES
100
AcDbPolyline
 62
7
  6
CONTINUOUS
 90
5
 70
0
 10
17.4314978824
 20
6.1313878128
 10
17.3546996929
 20
6.1217343158
 10
17.2761974921
 20
6.1184429245
 10
17.1984353657
 20
6.1215804032
 10
17.122059004
 20
6.1310937743
  0
LWPOLYLINE
  5
62D
100
AcDbEntity
  8
02___PRT_ALL_AXES
100
AcDbPolyline
 62
7
  6
CONTINUOUS
 90
5
 70
0
 10
17.06585233
 20
6.1459965535
 10
17.1532656234
 20
6.1309453294
 10
17.2440015894
 20
6.1239697559
 10
17.3358364521
 20
6.1252702664
 10
17.4265195039
 20
6.1348444623
  0
LWPOLYLINE
  5
62E
100
AcDbEntity
  8
02___PRT_ALL_AXES
100
AcDbPolyline
 62
7
  6
CONTINUOUS
 90
6
 70
0
 10
17.06585233
 20
6.1520238843
 10
17.1532656234
 20
6.1369726602
 10
17.2440015894
 20
6.1299970867
 10
17.3358364521
 20
6.1312975973
 10
17.4265195039
 20
6.1408717931
 10
17.5138282655
 20
6.1585145025
  0
LWPOLYLINE
  5
62F
100
AcDbEntity
  8
02___PRT_ALL_AXES
100
AcDbPolyline
 62
7
  6
CONTINUOUS
 90
8
 70
0
 10
17.06585233
 20
6.1942152002
 10
17.1532656234
 20
6.179163976
 10
17.2440015894
 20
6.1721884026
 10
17.3358364521
 20
6.1734889131
 10
17.4265195039
 20
6.183063109
 10
17.5138282655
 20
6.2007058184
 10
17.595622956
 20
6.2260141246
 10
17.6167581656
 20
6.2352287317
  0
LWPOLYLINE
  5
630
100
AcDbEntity
  8
02___PRT_ALL_AXES
100
AcDbPolyline
 62
7
  6
CONTINUOUS
 90
7
 70
0
 10
17.06585233
 20
6.200242531
 10
17.1532656234
 20
6.1851913069
 10
17.2440015894
 20
6.1782157334
 10
17.3358364521
 20
6.1795162439
 10
17.4265195039
 20
6.1890904398
 10
17.5138282655
 20
6.2067331492
 10
17.5774606266
 20
6.2264218023
  0
LWPOLYLINE
  5
631
100
AcDbEntity
  8
02___PRT_ALL_AXES
100
AcDbPolyline
 62
7
  6
CONTINUOUS
 90
3
 70
0
 10
17.1399082781
 20
6.1764909642
 10
17.0564945788
 20
6.1930694945
 10
16.9793823357
 20
6.2170672532
  0
LWPOLYLINE
  5
632
100
AcDbEntity
  8
02___PRT_ALL_AXES
100
AcDbPolyline
 62
7
  6
CONTINUOUS
 90
3
 70
0
 10
17.122059004
 20
6.1310937743
 10
17.0482931651
 20
6.146973167
 10
16.9793823357
 20
6.1688486066
  0
LWPOLYLINE
  5
633
100
AcDbEntity
  8
02___PRT_ALL_AXES
100
AcDbPolyline
 62
7
  6
CONTINUOUS
 90
3
 70
0
 10
17.0272022558
 20
6.2193818623
 10
16.9088791605
 20
6.2483386325
 10
16.7974401537
 20
6.2882320351
  0
LINE
  5
634
100
AcDbEntity
  8
02___PRT_ALL_AXES
100
AcDbLine
 62
7
  6
CONTINUOUS
 10
17.0581846728
 20
6.0962065404
 11
16.9793823357
 21
6.1206299599
  0
LWPOLYLINE
  5
635
100
AcDbEntity
  8
02___PRT_ALL_AXES
100
AcDbPolyline
 62
7
  6
CONTINUOUS
 90
5
 70
0
 10
16.7462614904
 20
6.2340285409
 10
16.7669490477
 20
6.2274592991
 10
16.7886307092
 20
6.2199234774
 10
16.8107358652
 20
6.2115169996
 10
16.8327314847
 20
6.2023920304
  0
LWPOLYLINE
  5
636
100
AcDbEntity
  8
02___PRT_ALL_AXES
100
AcDbPolyline
 62
7
  6
CONTINUOUS
 90
3
 70
0
 10
17.06585233
 20
6.0977779068
 10
17.0368780135
 20
6.1071467031
 10
17.0080416671
 20
6.1176761805
  0
LWPOLYLINE
  5
637
100
AcDbEntity
  8
02___PRT_ALL_AXES
100
AcDbPolyline
 62
7
  6
CONTINUOUS
 90
3
 70
0
 10
17.06585233
 20
6.1459965535
 10
17.0368705166
 20
6.1553679272
 10
17.0080348963
 20
6.1658974474
  0
LWPOLYLINE
  5
638
100
AcDbEntity
  8
02___PRT_ALL_AXES
100
AcDbPolyline
 62
7
  6
CONTINUOUS
 90
4
 70
0
 10
16.7462614904
 20
6.2822471876
 10
16.7752311019
 20
6.2728800087
 10
16.8040670412
 20
6.2623508921
 10
16.8327314847
 20
6.2506106771
  0
LWPOLYLINE
  5
639
100
AcDbEntity
  8
02___PRT_ALL_AXES
100
AcDbPolyline
 62
7
  6
CONTINUOUS
 90
3
 70
0
 10
17.06585233
 20
6.1942152002
 10
17.0368780136
 20
6.2035839965
 10
17.0080416671
 20
6.2141134739
  0
LINE
  5
63A
100
AcDbEntity
  8
02___PRT_ALL_AXES
100
AcDbLine
 62
7
  6
CONTINUOUS
 10
17.0080416671
 20
6.1176761805
 11
16.9793823357
 21
6.1294144173
  0
LINE
  5
63B
100
AcDbEntity
  8
02___PRT_ALL_AXES
100
AcDbLine
 62
7
  6
CONTINUOUS
 10
17.0080348963
 20
6.1658974474
 11
16.9793823357
 21
6.177633064
  0
LINE
  5
63C
100
AcDbEntity
  8
02___PRT_ALL_AXES
100
AcDbLine
 62
7
  6
CONTINUOUS
 10
17.0080416671
 20
6.2141134739
 11
16.9793823357
 21
6.2258517107
  0
LINE
  5
63D
100
AcDbEntity
  8
02___PRT_ALL_AXES
100
AcDbLine
 62
7
  6
CONTINUOUS
 10
16.7974401537
 20
6.2882320351
 11
16.6950841034
 21
6.3389248013
  0
LINE
  5
63E
100
AcDbEntity
  8
02___PRT_ALL_AXES
100
AcDbLine
 62
9
  6
CONTINUOUS
 10
16.7628206487
 20
6.361158014
 11
16.6624679899
 21
6.4110171081
  0
LWPOLYLINE
  5
63F
100
AcDbEntity
  8
02___PRT_ALL_AXES
100
AcDbPolyline
 62
7
  6
CONTINUOUS
 90
7
 70
0
 10
16.6950841034
 20
6.3389248013
 10
16.6058213748
 20
6.3988795568
 10
16.5315392927
 20
6.4667889157
 10
16.474206103
 20
6.5401379516
 10
16.4342234607
 20
6.61640673
 10
16.4107502008
 20
6.6941752638
 10
16.4030127276
 20
6.772650709
  0
LWPOLYLINE
  5
640
100
AcDbEntity
  8
02___PRT_ALL_AXES
100
AcDbPolyline
 62
7
  6
CONTINUOUS
 90
5
 70
0
 10
16.8327314847
 20
6.1629578412
 10
16.8108041369
 20
6.1783405741
 10
16.7887238824
 20
6.1946145272
 10
16.7670227117
 20
6.211344776
 10
16.7462614904
 20
6.2280012101
  0
LWPOLYLINE
  5
641
100
AcDbEntity
  8
02___PRT_ALL_AXES
100
AcDbPolyline
 62
7
  6
CONTINUOUS
 90
5
 70
0
 10
16.9793823357
 20
6.0724113132
 10
17.0013528315
 20
6.0569975362
 10
17.0234522251
 20
6.0407076355
 10
17.0451441359
 20
6.0239826321
 10
17.06585233
 20
6.0073679443
  0
LWPOLYLINE
  5
642
100
AcDbEntity
  8
02___PRT_ALL_AXES
100
AcDbPolyline
 62
7
  6
CONTINUOUS
 90
4
 70
0
 10
16.8327314847
 20
6.0665205478
 10
16.8040727161
 20
6.0867825943
 10
16.7752341084
 20
6.1084933656
 10
16.7462614904
 20
6.1315639167
  0
LWPOLYLINE
  5
643
100
AcDbEntity
  8
02___PRT_ALL_AXES
100
AcDbPolyline
 62
7
  6
CONTINUOUS
 90
4
 70
0
 10
16.9793823357
 20
5.9759740198
 10
17.0080464523
 20
5.955708068
 10
17.0368846042
 20
5.9339974106
 10
17.06585233
 20
5.9109306509
  0
LWPOLYLINE
  5
644
100
AcDbEntity
  8
02___PRT_ALL_AXES
100
AcDbPolyline
 62
7
  6
CONTINUOUS
 90
4
 70
0
 10
16.8327314847
 20
6.1147391945
 10
16.8040727161
 20
6.1350012409
 10
16.7752341084
 20
6.1567120123
 10
16.7462614904
 20
6.1797825634
  0
LWPOLYLINE
  5
645
100
AcDbEntity
  8
02___PRT_ALL_AXES
100
AcDbPolyline
 62
7
  6
CONTINUOUS
 90
4
 70
0
 10
16.9793823357
 20
6.0241926665
 10
17.0080464523
 20
6.0039267147
 10
17.0368846042
 20
5.9822160573
 10
17.06585233
 20
5.9591492976
  0
LWPOLYLINE
  5
646
100
AcDbEntity
  8
02___PRT_ALL_AXES
100
AcDbPolyline
 62
7
  6
CONTINUOUS
 90
4
 70
0
 10
16.8327314847
 20
6.2111764879
 10
16.8040727161
 20
6.2314385343
 10
16.7752341084
 20
6.2531493056
 10
16.7462614904
 20
6.2762198568
  0
LWPOLYLINE
  5
647
100
AcDbEntity
  8
02___PRT_ALL_AXES
100
AcDbPolyline
 62
7
  6
CONTINUOUS
 90
4
 70
0
 10
16.9793823357
 20
6.1206299599
 10
17.0080464523
 20
6.1003640081
 10
17.0368846042
 20
6.0786533507
 10
17.06585233
 20
6.055586591
  0
LWPOLYLINE
  5
648
100
AcDbEntity
  8
02___PRT_ALL_AXES
100
AcDbPolyline
 62
7
  6
CONTINUOUS
 90
3
 70
0
 10
16.8327314847
 20
6.2593951345
 10
16.8040727161
 20
6.279657181
 10
16.7835351736
 20
6.2951186031
  0
LWPOLYLINE
  5
649
100
AcDbEntity
  8
02___PRT_ALL_AXES
100
AcDbPolyline
 62
7
  6
CONTINUOUS
 90
4
 70
0
 10
16.9793823357
 20
6.1688486066
 10
17.0080464523
 20
6.1485826547
 10
17.0368846042
 20
6.1268719974
 10
17.06585233
 20
6.1038052377
  0
LINE
  5
64A
100
AcDbEntity
  8
02___PRT_ALL_AXES
100
AcDbLine
 62
7
  6
CONTINUOUS
 10
16.8327314847
 20
6.105954737
 11
16.7985639171
 21
6.1391484687
  0
LINE
  5
64B
100
AcDbEntity
  8
02___PRT_ALL_AXES
100
AcDbLine
 62
7
  6
CONTINUOUS
 10
16.8327314847
 20
6.0577360903
 11
16.8012749208
 21
6.0888888781
  0
LINE
  5
64C
100
AcDbEntity
  8
02___PRT_ALL_AXES
100
AcDbLine
 62
7
  6
CONTINUOUS
 10
16.8327314847
 20
6.0095174437
 11
16.8017699818
 21
6.0402976647
  0
LINE
  5
64D
100
AcDbEntity
  8
02___PRT_ALL_AXES
100
AcDbLine
 62
7
  6
CONTINUOUS
 10
16.8327314847
 20
5.961298797
 11
16.8018038935
 21
5.9920533545
  0
LWPOLYLINE
  5
64E
100
AcDbEntity
  8
0
100
AcDbPolyline
 62
7
  6
CONTINUOUS
 90
4
 70
0
 10
16.8393235258
 20
5.8699600922
 10
16.7950686885
 20
5.9149446635
 10
16.7629743661
 20
5.9637470529
 10
16.7576716558
 20
5.9778221977
  0
LWPOLYLINE
  5
64F
100
AcDbEntity
  8
02___PRT_ALL_AXES
100
AcDbPolyline
 62
7
  6
CONTINUOUS
 90
4
 70
0
 10
16.9793823357
 20
6.2170672532
 10
17.0080411978
 20
6.1968051385
 10
17.0368787929
 20
6.1750951477
 10
17.06585233
 20
6.1520238843
  0
LINE
  5
650
100
AcDbEntity
  8
02___PRT_ALL_AXES
100
AcDbLine
 62
7
  6
CONTINUOUS
 10
17.045084362
 20
6.2167798916
 11
17.06585233
 21
6.200242531
  0
LINE
  5
651
100
AcDbEntity
  8
02___PRT_ALL_AXES
100
AcDbLine
 62
7
  6
CONTINUOUS
 10
16.8327314847
 20
6.2023920304
 11
16.8014195578
 21
6.2334359301
  0
LINE
  5
652
100
AcDbEntity
  8
02___PRT_ALL_AXES
100
AcDbLine
 62
7
  6
CONTINUOUS
 10
16.8327314847
 20
6.2506106771
 11
16.8016841258
 21
6.2814554001
  0
LINE
  5
653
100
AcDbEntity
  8
02___PRT_ALL_AXES
100
AcDbLine
 62
7
  6
CONTINUOUS
 10
16.8327314847
 20
6.1541733837
 11
16.8016111637
 21
6.1851161307
  0
LINE
  5
654
100
AcDbEntity
  8
02___PRT_ALL_AXES
100
AcDbLine
 62
7
  6
CONTINUOUS
 10
16.7181078427
 20
6.036172569
 11
16.7462614904
 21
5.9869079767
  0
LINE
  5
655
100
AcDbEntity
  8
02___PRT_ALL_AXES
100
AcDbLine
 62
7
  6
CONTINUOUS
 10
16.7181078427
 20
6.0843912156
 11
16.7462614904
 21
6.0351266234
  0
LINE
  5
656
100
AcDbEntity
  8
02___PRT_ALL_AXES
100
AcDbLine
 62
7
  6
CONTINUOUS
 10
16.7181078427
 20
6.0904185465
 11
16.7462614904
 21
6.0411539542
  0
LINE
  5
657
100
AcDbEntity
  8
02___PRT_ALL_AXES
100
AcDbLine
 62
7
  6
CONTINUOUS
 10
16.7181078427
 20
6.1326098623
 11
16.7462614904
 21
6.08334527
  0
LWPOLYLINE
  5
658
100
AcDbEntity
  8
0
100
AcDbPolyline
 62
9
  6
CONTINUOUS
 90
14
 70
0
 10
17.8664192177
 20
9.3965687307
 10
17.9259361784
 20
9.4237558191
 10
17.9816293501
 20
9.453521839
 10
18.033163448
 20
9.4856876016
 10
18.080230137
 20
9.5200606866
 10
18.1225474593
 20
9.5564355319
 10
18.1598603066
 20
9.5945932552
 10
18.1919439179
 20
9.634304083
 10
18.2186052235
 20
9.6753286304
 10
18.2396854919
 20
9.7174224817
 10
18.2550592121
 20
9.7603375807
 10
18.2646322678
 20
9.8038186186
 10
18.2683441339
 20
9.8476037138
 10
18.2683198592
 20
9.8603170452
  0
LWPOLYLINE
  5
659
100
AcDbEntity
  8
02___PRT_ALL_AXES
100
AcDbPolyline
 62
7
  6
CONTINUOUS
 90
3
 70
0
 10
16.9425293274
 20
6.6587119579
 10
16.8193247589
 20
6.6918160076
 10
16.704786513
 20
6.7347160681
  0
LINE
  5
65A
100
AcDbEntity
  8
02___PRT_ALL_AXES
100
AcDbLine
 62
9
  6
CONTINUOUS
 10
16.8749236994
 20
6.6740943958
 11
16.8453441433
 21
6.684824814
  0
LINE
  5
65B
100
AcDbEntity
  8
02___PRT_ALL_AXES
100
AcDbLine
 62
7
  6
CONTINUOUS
 10
16.704786513
 20
6.7347160681
 11
16.6010251839
 21
6.7867803403
  0
LWPOLYLINE
  5
65C
100
AcDbEntity
  8
02___PRT_ALL_AXES
100
AcDbPolyline
 62
7
  6
CONTINUOUS
 90
7
 70
0
 10
16.6010251839
 20
6.7867803403
 10
16.513083069
 20
6.8449266053
 10
16.4390034659
 20
6.9097569044
 10
16.3803311763
 20
6.9799373427
 10
16.3381735745
 20
7.0538266641
 10
16.3129553982
 20
7.1297980973
 10
16.3045875307
 20
7.2066185291
  0
LWPOLYLINE
  5
65D
100
AcDbEntity
  8
02___PRT_ALL_AXES
100
AcDbPolyline
 62
9
  6
CONTINUOUS
 90
5
 70
0
 10
16.5928711555
 20
6.804803417
 10
16.5009076627
 20
6.866077092
 10
16.4249841899
 20
6.9342832086
 10
16.36664632
 20
7.008033287
 10
16.3270816439
 20
7.0858259883
  0
LINE
  5
65E
100
AcDbEntity
  8
02___PRT_ALL_AXES
100
AcDbLine
 62
7
  6
CONTINUOUS
 10
16.7181078427
 20
6.2290471557
 11
16.7462614904
 21
6.1797825634
  0
LINE
  5
65F
100
AcDbEntity
  8
02___PRT_ALL_AXES
100
AcDbLine
 62
7
  6
CONTINUOUS
 10
16.7181078427
 20
6.2772658024
 11
16.7462614904
 21
6.2280012101
  0
LINE
  5
660
100
AcDbEntity
  8
02___PRT_ALL_AXES
100
AcDbLine
 62
7
  6
CONTINUOUS
 10
16.7181078427
 20
6.3254844491
 11
16.7462614904
 21
6.2762198568
  0
LINE
  5
661
100
AcDbEntity
  8
02___PRT_ALL_AXES
100
AcDbLine
 62
7
  6
CONTINUOUS
 10
16.7212879254
 20
6.3259471198
 11
16.7462614904
 21
6.2822471876
  0
LINE
  5
662
100
AcDbEntity
  8
02___PRT_ALL_AXES
100
AcDbLine
 62
7
  6
CONTINUOUS
 10
16.7172752359
 20
6.1828326748
 11
16.7462614904
 21
6.1315639167
  0
LWPOLYLINE
  5
663
100
AcDbEntity
  8
0
100
AcDbPolyline
 62
9
  6
CONTINUOUS
 90
4
 70
0
 10
16.7600963158
 20
5.9758914697
 10
16.760535265
 20
5.9747162075
 10
16.7907669887
 20
5.9291564636
 10
16.8327314847
 20
5.8867790758
  0
LWPOLYLINE
  5
664
100
AcDbEntity
  8
AXIS
100
AcDbPolyline
 62
7
  6
CONTINUOUS
 90
18
 70
0
 10
16.3045971068
 20
7.4605700723
 10
16.3070955843
 20
7.4200292165
 10
16.3270816439
 20
7.3397775275
 10
16.36664632
 20
7.2619848262
 10
16.4249841899
 20
7.1882347478
 10
16.5009076627
 20
7.1200286312
 10
16.5928711555
 20
7.0587549562
 10
16.6990025568
 20
7.0056610781
 10
16.8171413372
 20
6.9618278353
 10
16.944882532
 20
6.928147546
 10
17.0796256987
 20
6.9053058439
 10
17.2186278551
 20
6.8937677202
 10
17.3590593181
 20
6.8937680577
 10
17.4980613081
 20
6.9053068497
 10
17.6328041454
 20
6.9281491996
 10
17.7605448544
 20
6.9618301029
 10
17.8786830026
 20
7.0056639137
 10
17.9848136381
 20
7.058758302
  0
LWPOLYLINE
  5
665
100
AcDbEntity
  8
AXIS
100
AcDbPolyline
 62
7
  6
CONTINUOUS
 90
7
 70
0
 10
16.3045971068
 20
8.3252911361
 10
16.3070955843
 20
8.2847502803
 10
16.3270816439
 20
8.2044985913
 10
16.36664632
 20
8.12670589
 10
16.4249841899
 20
8.0529558116
 10
16.5009076627
 20
7.984749695
 10
16.5928711555
 20
7.92347602
  0
LINE
  5
666
100
AcDbEntity
  8
0
100
AcDbLine
 62
7
  6
CONTINUOUS
 10
16.3046062698
 20
8.765396184
 11
16.3093475486
 21
8.3218015261
  0
LINE
  5
667
100
AcDbEntity
  8
02___PRT_ALL_AXES
100
AcDbLine
 62
7
  6
CONTINUOUS
 10
16.3045875307
 20
7.4605700683
 11
16.3045875307
 21
7.2066185291
  0
LINE
  5
668
100
AcDbEntity
  8
AXIS
100
AcDbLine
 62
7
  6
CONTINUOUS
 10
16.3045875307
 20
7.4605700683
 11
16.3045875307
 21
8.3252911321
  0
LINE
  5
669
100
AcDbEntity
  8
AXIS
100
AcDbLine
 62
7
  6
CONTINUOUS
 10
16.3045875307
 20
8.7689026815
 11
16.3045875307
 21
9.6336237454
  0
LINE
  5
66A
100
AcDbEntity
  8
0
100
AcDbLine
 62
7
  6
CONTINUOUS
 10
16.3046625006
 20
9.6406372746
 11
16.3093591392
 21
9.8603170453
  0
LWPOLYLINE
  5
66B
100
AcDbEntity
  8
AXIS
100
AcDbPolyline
 62
7
  6
CONTINUOUS
 90
3
 70
0
 10
16.308803652
 20
8.3726885641
 10
16.3070949996
 20
8.3658272642
 10
16.3045971068
 20
8.3252911361
  0
LWPOLYLINE
  5
66C
100
AcDbEntity
  8
02___PRT_ALL_AXES
100
AcDbPolyline
 62
7
  6
CONTINUOUS
 90
3
 70
0
 10
16.4364543397
 20
7.1764430118
 10
16.5079824069
 20
7.1146395
 10
16.5928711555
 20
7.0587549562
  0
LINE
  5
66D
100
AcDbEntity
  8
02___PRT_ALL_AXES
100
AcDbLine
 62
7
  6
CONTINUOUS
 10
16.3795108189
 20
7.2431080162
 11
16.4364543397
 21
7.1764430118
  0
LINE
  5
66E
100
AcDbEntity
  8
02___PRT_ALL_AXES
100
AcDbLine
 62
7
  6
CONTINUOUS
 10
16.3381261639
 20
7.3134938567
 11
16.3795108189
 21
7.2431080162
  0
LINE
  5
66F
100
AcDbEntity
  8
02___PRT_ALL_AXES
100
AcDbLine
 62
7
  6
CONTINUOUS
 10
16.3130084776
 20
7.3863962119
 11
16.3381261639
 21
7.3134938567
  0
LINE
  5
670
100
AcDbEntity
  8
02___PRT_ALL_AXES
100
AcDbLine
 62
7
  6
CONTINUOUS
 10
16.7039418045
 20
6.1355741937
 11
16.7181078427
 21
6.0843912156
  0
LINE
  5
671
100
AcDbEntity
  8
02___PRT_ALL_AXES
100
AcDbLine
 62
7
  6
CONTINUOUS
 10
16.7039418045
 20
6.1416015245
 11
16.7181078427
 21
6.0904185465
  0
LINE
  5
672
100
AcDbEntity
  8
02___PRT_ALL_AXES
100
AcDbLine
 62
7
  6
CONTINUOUS
 10
16.7039418045
 20
6.1837928404
 11
16.7181078427
 21
6.1326098623
  0
LWPOLYLINE
  5
673
100
AcDbEntity
  8
02___PRT_ALL_AXES
100
AcDbPolyline
 62
7
  6
CONTINUOUS
 90
3
 70
0
 10
16.7039418045
 20
6.1898201712
 10
16.7181078427
 20
6.1386371932
 10
16.7462614904
 20
6.0893726009
  0
LINE
  5
674
100
AcDbEntity
  8
02___PRT_ALL_AXES
100
AcDbLine
 62
7
  6
CONTINUOUS
 10
16.7039418045
 20
6.2802301337
 11
16.7181078427
 21
6.2290471557
  0
LWPOLYLINE
  5
675
100
AcDbEntity
  8
02___PRT_ALL_AXES
100
AcDbPolyline
 62
7
  6
CONTINUOUS
 90
3
 70
0
 10
16.7039418045
 20
6.2862574646
 10
16.7181078427
 20
6.2350744865
 10
16.7462614904
 20
6.1858098942
  0
LINE
  5
676
100
AcDbEntity
  8
02___PRT_ALL_AXES
100
AcDbLine
 62
7
  6
CONTINUOUS
 10
16.7039418045
 20
6.3284487804
 11
16.7181078427
 21
6.2772658024
  0
LWPOLYLINE
  5
677
100
AcDbEntity
  8
02___PRT_ALL_AXES
100
AcDbPolyline
 62
7
  6
CONTINUOUS
 90
3
 70
0
 10
16.7039418045
 20
6.3344761112
 10
16.7181078427
 20
6.2832931332
 10
16.7462614904
 20
6.2340285409
  0
LINE
  5
678
100
AcDbEntity
  8
02___PRT_ALL_AXES
100
AcDbLine
 62
7
  6
CONTINUOUS
 10
16.7174542971
 20
6.3278457592
 11
16.7181078427
 21
6.3254844491
  0
LINE
  5
679
100
AcDbEntity
  8
02___PRT_ALL_AXES
100
AcDbLine
 62
7
  6
CONTINUOUS
 10
16.7034290305
 20
6.2361204968
 11
16.7172752359
 21
6.1828326748
  0
LWPOLYLINE
  5
67A
100
AcDbEntity
  8
02___PRT_ALL_AXES
100
AcDbPolyline
 62
7
  6
CONTINUOUS
 90
3
 70
0
 10
16.7034290305
 20
6.2421478276
 10
16.7172752359
 20
6.1888600056
 10
16.7462614904
 20
6.1375912476
  0
LWPOLYLINE
  5
67B
100
AcDbEntity
  8
02___PRT_ALL_AXES
100
AcDbPolyline
 62
9
  6
CONTINUOUS
 90
3
 70
0
 10
16.3270816439
 20
7.0858259883
 10
16.3070955843
 20
7.1660776773
 10
16.3045875307
 20
7.2066185291
  0
LINE
  5
67C
100
AcDbEntity
  8
02___PRT_ALL_AXES
100
AcDbLine
 62
7
  6
CONTINUOUS
 10
16.3045875307
 20
7.4605700615
 11
16.3130084776
 21
7.3863962119
  0
LINE
  5
67D
100
AcDbEntity
  8
0
100
AcDbLine
 62
7
  6
CONTINUOUS
 10
16.3070955843
 20
8.7283618298
 11
16.3046157666
 21
8.7653902956
  0
LWPOLYLINE
  5
67E
100
AcDbEntity
  8
AXIS
100
AcDbPolyline
 62
7
  6
CONTINUOUS
 90
18
 70
0
 10
16.3045971068
 20
8.7689026856
 10
16.3070955843
 20
8.7283618298
 10
16.3270816439
 20
8.6481101407
 10
16.36664632
 20
8.5703174395
 10
16.4249841899
 20
8.4965673611
 10
16.5009076627
 20
8.4283612445
 10
16.5928711555
 20
8.3670875695
 10
16.6990025568
 20
8.3139936914
 10
16.8171413372
 20
8.2701604485
 10
16.944882532
 20
8.2364801593
 10
17.0796256987
 20
8.2136384572
 10
17.2186278551
 20
8.2021003335
 10
17.3590593181
 20
8.202100671
 10
17.4980613081
 20
8.213639463
 10
17.6328041454
 20
8.2364818128
 10
17.7605448544
 20
8.2701627162
 10
17.8786830026
 20
8.313996527
 10
17.9848136381
 20
8.3670909153
  0
LWPOLYLINE
  5
67F
100
AcDbEntity
  8
AXIS
100
AcDbPolyline
 62
7
  6
CONTINUOUS
 90
7
 70
0
 10
16.3045971068
 20
9.6336237494
 10
16.3070955843
 20
9.5930828936
 10
16.3270816439
 20
9.5128312046
 10
16.36664632
 20
9.4350385033
 10
16.4249841899
 20
9.3612884249
 10
16.5009076627
 20
9.2930823083
 10
16.5928711555
 20
9.2318086333
  0
LWPOLYLINE
  5
680
100
AcDbEntity
  8
0
100
AcDbPolyline
 62
7
  6
CONTINUOUS
 90
7
 70
0
 10
16.3046717594
 20
9.640648798
 10
16.3070955843
 20
9.5930828936
 10
16.3270816439
 20
9.5128312046
 10
16.36664632
 20
9.4350385033
 10
16.4249841899
 20
9.3612884249
 10
16.5009076627
 20
9.2930823083
 10
16.5928711555
 20
9.2318086333
  0
LWPOLYLINE
  5
681
100
AcDbEntity
  8
0
100
AcDbPolyline
 62
9
  6
CONTINUOUS
 90
11
 70
0
 10
16.3093591392
 20
9.8603170452
 10
16.3115083829
 20
9.8152506442
 10
16.3195534986
 20
9.7716627948
 10
16.3334331558
 20
9.72853671
 10
16.3530758145
 20
9.6861326478
 10
16.378281995
 20
9.6448429839
 10
16.4089113702
 20
9.6048420933
 10
16.4452712439
 20
9.5658690432
 10
16.487978153
 20
9.527688939
 10
16.5379043206
 20
9.4901965211
 10
16.5961924196
 20
9.4534393948
  0
LWPOLYLINE
  5
682
100
AcDbEntity
  8
02___PRT_ALL_AXES
100
AcDbPolyline
 62
9
  6
CONTINUOUS
 90
7
 70
0
 10
16.4030127276
 20
6.772650709
 10
16.4036323199
 20
6.7535257891
 10
16.418456498
 20
6.6775687706
 10
16.452723594
 20
6.6037357254
 10
16.5056681377
 20
6.5336759618
 10
16.5761074355
 20
6.4689544992
 10
16.6624679899
 20
6.4110171081
  0
LINE
  5
683
100
AcDbEntity
  8
02___PRT_ALL_AXES
100
AcDbLine
 62
7
  6
CONTINUOUS
 10
16.4030127276
 20
6.9528069679
 11
16.4030127276
 21
6.772650709
  0
LWPOLYLINE
  5
684
100
AcDbEntity
  8
AXIS
100
AcDbPolyline
 62
7
  6
CONTINUOUS
 90
7
 70
0
 10
17.9848136381
 20
9.2318119791
 10
18.0767762472
 20
9.2930860962
 10
18.1526987363
 20
9.3612925778
 10
18.2110355425
 20
9.4350429367
 10
18.2505990966
 20
9.5128358281
 10
18.2705839988
 20
9.5930876132
 10
18.2730818916
 20
9.6336237413
  0
LWPOLYLINE
  5
685
100
AcDbEntity
  8
0
100
AcDbPolyline
 62
7
  6
CONTINUOUS
 90
3
 70
0
 10
16.8327314847
 20
5.8867790758
 10
16.8342312804
 20
5.877535766
 10
16.8385775455
 20
5.8706392017
  0
LWPOLYLINE
  5
686
100
AcDbEntity
  8
02___PRT_ALL_AXES
100
AcDbPolyline
 62
7
  6
CONTINUOUS
 90
3
 70
0
 10
16.702225326
 20
6.1126579506
 10
16.7039418045
 20
6.087355547
 10
16.7181078427
 20
6.036172569
  0
LWPOLYLINE
  5
687
100
AcDbEntity
  8
02___PRT_ALL_AXES
100
AcDbPolyline
 62
7
  6
CONTINUOUS
 90
4
 70
0
 10
16.702225326
 20
6.1186852814
 10
16.7039418045
 20
6.0933828778
 10
16.7181078427
 20
6.0421998998
 10
16.7462614904
 20
5.9929353075
  0
LINE
  5
688
100
AcDbEntity
  8
02___PRT_ALL_AXES
100
AcDbLine
 62
7
  6
CONTINUOUS
 10
16.702225326
 20
6.1608765972
 11
16.7039418045
 21
6.1355741937
  0
LINE
  5
689
100
AcDbEntity
  8
02___PRT_ALL_AXES
100
AcDbLine
 62
7
  6
CONTINUOUS
 10
16.702225326
 20
6.1669039281
 11
16.7039418045
 21
6.1416015245
  0
LINE
  5
68A
100
AcDbEntity
  8
02___PRT_ALL_AXES
100
AcDbLine
 62
7
  6
CONTINUOUS
 10
16.702225326
 20
6.2090952439
 11
16.7039418045
 21
6.1837928404
  0
LINE
  5
68B
100
AcDbEntity
  8
02___PRT_ALL_AXES
100
AcDbLine
 62
7
  6
CONTINUOUS
 10
16.702225326
 20
6.2151225748
 11
16.7039418045
 21
6.1898201712
  0
LINE
  5
68C
100
AcDbEntity
  8
02___PRT_ALL_AXES
100
AcDbLine
 62
7
  6
CONTINUOUS
 10
16.702225326
 20
6.3055325373
 11
16.7039418045
 21
6.2802301337
  0
LINE
  5
68D
100
AcDbEntity
  8
02___PRT_ALL_AXES
100
AcDbLine
 62
7
  6
CONTINUOUS
 10
16.702225326
 20
6.3115598681
 11
16.7039418045
 21
6.2862574646
  0
LINE
  5
68E
100
AcDbEntity
  8
02___PRT_ALL_AXES
100
AcDbLine
 62
7
  6
CONTINUOUS
 10
16.7035143634
 20
6.3347496383
 11
16.7039418045
 21
6.3284487804
  0
LINE
  5
68F
100
AcDbEntity
  8
02___PRT_ALL_AXES
100
AcDbLine
 62
7
  6
CONTINUOUS
 10
16.703937464
 20
6.3345400939
 11
16.7039418045
 21
6.3344761112
  0
LINE
  5
690
100
AcDbEntity
  8
02___PRT_ALL_AXES
100
AcDbLine
 62
7
  6
CONTINUOUS
 10
16.702225326
 20
6.2573138906
 11
16.7034290305
 21
6.2361204968
  0
LINE
  5
691
100
AcDbEntity
  8
02___PRT_ALL_AXES
100
AcDbLine
 62
7
  6
CONTINUOUS
 10
16.702225326
 20
6.2633412214
 11
16.7034290305
 21
6.2421478276
  0
LINE
  5
692
100
AcDbEntity
  8
0
100
AcDbLine
 62
7
  6
CONTINUOUS
 10
16.3270816439
 20
8.6481101407
 11
16.3070955843
 21
8.7283618298
  0
LWPOLYLINE
  5
693
100
AcDbEntity
  8
0
100
AcDbPolyline
 62
7
  6
CONTINUOUS
 90
4
 70
0
 10
16.9793823357
 20
5.8021120829
 10
16.9806218906
 20
5.7930190198
 10
16.9842116056
 20
5.7865592401
 10
16.9867588643
 20
5.7845378858
  0
LINE
  5
694
100
AcDbEntity
  8
02___PRT_ALL_AXES
100
AcDbLine
 62
7
  6
CONTINUOUS
 10
16.7462614904
 20
5.9869079767
 11
16.7462614904
 21
5.9929353075
  0
LINE
  5
695
100
AcDbEntity
  8
02___PRT_ALL_AXES
100
AcDbLine
 62
7
  6
CONTINUOUS
 10
16.7462614904
 20
6.0351266234
 11
16.7462614904
 21
6.0411539542
  0
LINE
  5
696
100
AcDbEntity
  8
02___PRT_ALL_AXES
100
AcDbLine
 62
7
  6
CONTINUOUS
 10
16.7462614904
 20
6.08334527
 11
16.7462614904
 21
6.0893726009
  0
LINE
  5
697
100
AcDbEntity
  8
02___PRT_ALL_AXES
100
AcDbLine
 62
7
  6
CONTINUOUS
 10
16.7462614904
 20
6.1315639167
 11
16.7462614904
 21
6.1375912476
  0
LINE
  5
698
100
AcDbEntity
  8
02___PRT_ALL_AXES
100
AcDbLine
 62
7
  6
CONTINUOUS
 10
16.7462614904
 20
6.1797825634
 11
16.7462614904
 21
6.1858098942
  0
LINE
  5
699
100
AcDbEntity
  8
02___PRT_ALL_AXES
100
AcDbLine
 62
7
  6
CONTINUOUS
 10
16.7462614904
 20
6.2280012101
 11
16.7462614904
 21
6.2340285409
  0
LINE
  5
69A
100
AcDbEntity
  8
02___PRT_ALL_AXES
100
AcDbLine
 62
7
  6
CONTINUOUS
 10
16.7462614904
 20
6.2762198568
 11
16.7462614904
 21
6.2822471876
  0
LINE
  5
69B
100
AcDbEntity
  8
02___PRT_ALL_AXES
100
AcDbLine
 62
7
  6
CONTINUOUS
 10
16.8327314847
 20
6.2593951345
 11
16.8327314847
 21
6.2506106771
  0
LINE
  5
69C
100
AcDbEntity
  8
02___PRT_ALL_AXES
100
AcDbLine
 62
7
  6
CONTINUOUS
 10
16.8327314847
 20
6.2111764879
 11
16.8327314847
 21
6.2023920304
  0
LINE
  5
69D
100
AcDbEntity
  8
02___PRT_ALL_AXES
100
AcDbLine
 62
7
  6
CONTINUOUS
 10
16.8327314847
 20
6.1629578412
 11
16.8327314847
 21
6.1541733837
  0
LINE
  5
69E
100
AcDbEntity
  8
02___PRT_ALL_AXES
100
AcDbLine
 62
7
  6
CONTINUOUS
 10
16.8327314847
 20
6.1147391945
 11
16.8327314847
 21
6.105954737
  0
LINE
  5
69F
100
AcDbEntity
  8
02___PRT_ALL_AXES
100
AcDbLine
 62
7
  6
CONTINUOUS
 10
16.8327314847
 20
6.0665205478
 11
16.8327314847
 21
6.0577360903
  0
LINE
  5
6A0
100
AcDbEntity
  8
02___PRT_ALL_AXES
100
AcDbLine
 62
7
  6
CONTINUOUS
 10
16.8327314847
 20
6.0183019011
 11
16.8327314847
 21
6.0095174437
  0
LINE
  5
6A1
100
AcDbEntity
  8
02___PRT_ALL_AXES
100
AcDbLine
 62
7
  6
CONTINUOUS
 10
16.8327314847
 20
5.9700832545
 11
16.8327314847
 21
5.961298797
  0
LINE
  5
6A2
100
AcDbEntity
  8
0
100
AcDbLine
 62
7
  6
CONTINUOUS
 10
16.8327314847
 20
5.9218646078
 11
16.8327314847
 21
5.8867790758
  0
LINE
  5
6A3
100
AcDbEntity
  8
02___PRT_ALL_AXES
100
AcDbLine
 62
7
  6
CONTINUOUS
 10
16.703690023
 20
6.3321602609
 11
16.702225326
 21
6.3115598681
  0
LINE
  5
6A4
100
AcDbEntity
  8
02___PRT_ALL_AXES
100
AcDbLine
 62
7
  6
CONTINUOUS
 10
16.7036561421
 20
6.2352464463
 11
16.702225326
 21
6.2151225748
  0
LINE
  5
6A5
100
AcDbEntity
  8
02___PRT_ALL_AXES
100
AcDbLine
 62
7
  6
CONTINUOUS
 10
16.703690023
 20
6.1875043209
 11
16.702225326
 21
6.1669039281
  0
LINE
  5
6A6
100
AcDbEntity
  8
02___PRT_ALL_AXES
100
AcDbLine
 62
7
  6
CONTINUOUS
 10
16.703690023
 20
6.1392856742
 11
16.702225326
 21
6.1186852814
  0
LINE
  5
6A7
100
AcDbEntity
  8
02___PRT_ALL_AXES
100
AcDbLine
 62
7
  6
CONTINUOUS
 10
16.7038389869
 20
6.2817457559
 11
16.702225326
 21
6.2633412214
  0
LINE
  5
6A8
100
AcDbEntity
  8
0
100
AcDbLine
 62
7
  6
CONTINUOUS
 10
16.36664632
 20
8.5703174395
 11
16.3270816439
 21
8.6481101407
  0
LWPOLYLINE
  5
6A9
100
AcDbEntity
  8
02___PRT_ALL_AXES
100
AcDbPolyline
 62
7
  6
CONTINUOUS
 90
7
 70
0
 10
17.1813405451
 20
5.1717916396
 10
17.1816134288
 20
5.1673637673
 10
17.1837963063
 20
5.1585986778
 10
17.1881175602
 20
5.150102159
 10
17.1944892223
 20
5.1420471755
 10
17.202781584
 20
5.1345977034
 10
17.2128258367
 20
5.1279053926
  0
LINE
  5
6AA
100
AcDbEntity
  8
02___PRT_ALL_AXES
100
AcDbLine
 62
7
  6
CONTINUOUS
 10
16.9793823357
 20
6.2258517107
 11
16.9793823357
 21
6.2170672532
  0
LINE
  5
6AB
100
AcDbEntity
  8
02___PRT_ALL_AXES
100
AcDbLine
 62
7
  6
CONTINUOUS
 10
16.9793823357
 20
6.177633064
 11
16.9793823357
 21
6.1688486066
  0
LINE
  5
6AC
100
AcDbEntity
  8
02___PRT_ALL_AXES
100
AcDbLine
 62
7
  6
CONTINUOUS
 10
16.9793823357
 20
6.1294144173
 11
16.9793823357
 21
6.1206299599
  0
LINE
  5
6AD
100
AcDbEntity
  8
02___PRT_ALL_AXES
100
AcDbLine
 62
7
  6
CONTINUOUS
 10
16.9793823357
 20
6.0811957707
 11
16.9793823357
 21
6.0724113132
  0
LINE
  5
6AE
100
AcDbEntity
  8
02___PRT_ALL_AXES
100
AcDbLine
 62
7
  6
CONTINUOUS
 10
16.9793823357
 20
6.032977124
 11
16.9793823357
 21
6.0241926665
  0
LINE
  5
6AF
100
AcDbEntity
  8
02___PRT_ALL_AXES
100
AcDbLine
 62
7
  6
CONTINUOUS
 10
16.9793823357
 20
5.9847584773
 11
16.9793823357
 21
5.9759740198
  0
LINE
  5
6B0
100
AcDbEntity
  8
02___PRT_ALL_AXES
100
AcDbLine
 62
7
  6
CONTINUOUS
 10
16.9793823357
 20
5.9365398306
 11
16.9793823357
 21
5.9277553731
  0
LINE
  5
6B1
100
AcDbEntity
  8
02___PRT_ALL_AXES
100
AcDbLine
 62
7
  6
CONTINUOUS
 10
16.9793823357
 20
5.8883211839
 11
16.9793823357
 21
5.8795367265
  0
LINE
  5
6B2
100
AcDbEntity
  8
0
100
AcDbLine
 62
7
  6
CONTINUOUS
 10
16.9793823357
 20
5.8401025373
 11
16.9793823357
 21
5.8021120829
  0
LINE
  5
6B3
100
AcDbEntity
  8
02___PRT_ALL_AXES
100
AcDbLine
 62
7
  6
CONTINUOUS
 10
17.06585233
 20
6.200242531
 11
17.06585233
 21
6.1942152002
  0
LINE
  5
6B4
100
AcDbEntity
  8
02___PRT_ALL_AXES
100
AcDbLine
 62
7
  6
CONTINUOUS
 10
17.06585233
 20
6.1520238843
 11
17.06585233
 21
6.1459965535
  0
LINE
  5
6B5
100
AcDbEntity
  8
02___PRT_ALL_AXES
100
AcDbLine
 62
7
  6
CONTINUOUS
 10
17.06585233
 20
6.1038052377
 11
17.06585233
 21
6.0977779068
  0
LINE
  5
6B6
100
AcDbEntity
  8
02___PRT_ALL_AXES
100
AcDbLine
 62
7
  6
CONTINUOUS
 10
17.06585233
 20
6.055586591
 11
17.06585233
 21
6.0495592601
  0
LINE
  5
6B7
100
AcDbEntity
  8
02___PRT_ALL_AXES
100
AcDbLine
 62
7
  6
CONTINUOUS
 10
17.06585233
 20
6.0073679443
 11
17.06585233
 21
6.0013406135
  0
LINE
  5
6B8
100
AcDbEntity
  8
02___PRT_ALL_AXES
100
AcDbLine
 62
7
  6
CONTINUOUS
 10
17.06585233
 20
5.9591492976
 11
17.06585233
 21
5.9531219668
  0
LINE
  5
6B9
100
AcDbEntity
  8
02___PRT_ALL_AXES
100
AcDbLine
 62
7
  6
CONTINUOUS
 10
17.06585233
 20
5.9109306509
 11
17.06585233
 21
5.9049033201
  0
LINE
  5
6BA
100
AcDbEntity
  8
02___PRT_ALL_AXES
100
AcDbLine
 62
7
  6
CONTINUOUS
 10
17.06585233
 20
5.8627120043
 11
17.06585233
 21
5.8566846734
  0
LINE
  5
6BB
100
AcDbEntity
  8
02___PRT_ALL_AXES
100
AcDbLine
 62
7
  6
CONTINUOUS
 10
17.06585233
 20
5.8144933576
 11
17.06585233
 21
5.8084660267
  0
LWPOLYLINE
  5
6BC
100
AcDbEntity
  8
0
100
AcDbPolyline
 62
7
  6
CONTINUOUS
 90
11
 70
0
 10
17.9848136381
 20
8.3670909153
 10
17.8786830026
 20
8.313996527
 10
17.7605448544
 20
8.2701627162
 10
17.6328041454
 20
8.2364818128
 10
17.4980613081
 20
8.213639463
 10
17.3590593181
 20
8.202100671
 10
17.2186278551
 20
8.2021003335
 10
17.0796256987
 20
8.2136384572
 10
16.944882532
 20
8.2364801593
 10
16.8171413372
 20
8.2701604485
 10
16.6990025568
 20
8.3139936914
  0
LWPOLYLINE
  5
6BD
100
AcDbEntity
  8
AXIS
100
AcDbPolyline
 62
7
  6
CONTINUOUS
 90
12
 70
0
 10
16.5928711555
 20
7.92347602
 10
16.6990025568
 20
7.8703821419
 10
16.8171413372
 20
7.8265488991
 10
16.944882532
 20
7.7928686098
 10
17.0796256987
 20
7.7700269077
 10
17.2186278551
 20
7.758488784
 10
17.3590593181
 20
7.7584891216
 10
17.4980613081
 20
7.7700279135
 10
17.6328041454
 20
7.7928702634
 10
17.7605448544
 20
7.8265511667
 10
17.8786830026
 20
7.8703849775
 10
17.9848136381
 20
7.9234793658
  0
LWPOLYLINE
  5
6BE
100
AcDbEntity
  8
0
100
AcDbPolyline
 62
7
  6
CONTINUOUS
 90
7
 70
0
 10
16.5962237958
 20
7.9254116562
 10
16.5047033124
 20
7.9863901618
 10
16.4291455805
 20
8.0542677138
 10
16.3710887376
 20
8.127662521
 10
16.3317146537
 20
8.2050804769
 10
16.3118248715
 20
8.284945575
 10
16.3093569997
 20
8.3217956661
  0
LINE
  5
6BF
100
AcDbEntity
  8
0
100
AcDbLine
 62
7
  6
CONTINUOUS
 10
16.4249841899
 20
8.4965673611
 11
16.36664632
 21
8.5703174395
  0
LINE
  5
6C0
100
AcDbEntity
  8
02___PRT_ALL_AXES
100
AcDbLine
 62
7
  6
CONTINUOUS
 10
17.1813394992
 20
5.1717916392
 11
17.1813394992
 21
5.7378664706
  0
LINE
  5
6C1
100
AcDbEntity
  8
0
100
AcDbLine
 62
9
  6
CONTINUOUS
 10
18.1438806852
 20
9.7528083706
 11
18.1632663904
 21
9.7915195323
  0
LINE
  5
6C2
100
AcDbEntity
  8
0
100
AcDbLine
 62
7
  6
CONTINUOUS
 10
18.0767762472
 20
8.4283650324
 11
17.9848136381
 21
8.3670909153
  0
LWPOLYLINE
  5
6C3
100
AcDbEntity
  8
AXIS
100
AcDbPolyline
 62
7
  6
CONTINUOUS
 90
6
 70
0
 10
17.9848136381
 20
8.3670909153
 10
18.0767762472
 20
8.4283650324
 10
18.1526987363
 20
8.496571514
 10
18.2110355425
 20
8.5703218729
 10
18.2505990966
 20
8.6481147643
 10
18.2705839988
 20
8.7283665494
  0
LINE
  5
6C4
100
AcDbEntity
  8
0
100
AcDbLine
 62
7
  6
CONTINUOUS
 10
16.5009076627
 20
8.4283612445
 11
16.4249841899
 21
8.4965673611
  0
LINE
  5
6C5
100
AcDbEntity
  8
02___PRT_ALL_AXES
100
AcDbLine
 62
7
  6
CONTINUOUS
 10
17.3963394992
 20
5.1717916392
 11
17.3963394992
 21
5.7378258681
  0
LWPOLYLINE
  5
6C6
100
AcDbEntity
  8
0
100
AcDbPolyline
 62
9
  6
CONTINUOUS
 90
14
 70
0
 10
18.1632663904
 20
9.7915195323
 10
18.1774040798
 20
9.8309859256
 10
18.1862072031
 20
9.8709727538
 10
18.189620103
 20
9.9112391749
 10
18.1876205338
 20
9.9515373057
 10
18.1802211797
 20
9.9916222635
 10
18.1674561229
 20
10.0312825276
 10
18.1493911708
 20
10.070278729
 10
18.1262097861
 20
10.1082500319
 10
18.0980409439
 20
10.1450361692
 10
18.0646019194
 20
10.180877178
 10
18.0253255827
 20
10.2159890545
 10
17.9794097554
 20
10.2504686214
 10
17.9258175912
 20
10.2842637502
  0
LINE
  5
6C7
100
AcDbEntity
  8
0
100
AcDbLine
 62
7
  6
CONTINUOUS
 10
18.1526987363
 20
8.496571514
 11
18.0767762472
 21
8.4283650324
  0
LINE
  5
6C8
100
AcDbEntity
  8
0
100
AcDbLine
 62
7
  6
CONTINUOUS
 10
16.6990025568
 20
8.3139936914
 11
16.5928711555
 21
8.3670875695
  0
LINE
  5
6C9
100
AcDbEntity
  8
0
100
AcDbLine
 62
7
  6
CONTINUOUS
 10
16.5928711555
 20
8.3670875695
 11
16.5009076627
 21
8.4283612445
  0
LWPOLYLINE
  5
6CA
100
AcDbEntity
  8
0
100
AcDbPolyline
 62
9
  6
CONTINUOUS
 90
8
 70
0
 10
16.4102228755
 20
9.8017304175
 10
16.4282878276
 20
9.7627342161
 10
16.4514692123
 20
9.7247629132
 10
16.4796380546
 20
9.6879767759
 10
16.513077079
 20
9.6521357671
 10
16.5523534158
 20
9.6170238906
 10
16.598269243
 20
9.5825443237
 10
16.6518614072
 20
9.5487491949
  0
LINE
  5
6CB
100
AcDbEntity
  8
0
100
AcDbLine
 62
7
  6
CONTINUOUS
 10
18.2110355425
 20
8.5703218729
 11
18.1526987363
 21
8.496571514
  0
LWPOLYLINE
  5
6CC
100
AcDbEntity
  8
AXIS
100
AcDbPolyline
 62
7
  6
CONTINUOUS
 90
6
 70
0
 10
17.9848136381
 20
7.9234793658
 10
18.0767762472
 20
7.9847534829
 10
18.1526987363
 20
8.0529599645
 10
18.2110355425
 20
8.1267103234
 10
18.2505990966
 20
8.2045032148
 10
18.2705839988
 20
8.284755
  0
LINE
  5
6CD
100
AcDbEntity
  8
02___PRT_ALL_AXES
100
AcDbLine
 62
7
  6
CONTINUOUS
 10
17.8754536724
 20
6.1427946047
 11
17.8740539481
 21
6.1643854818
  0
LINE
  5
6CE
100
AcDbEntity
  8
02___PRT_ALL_AXES
100
AcDbLine
 62
7
  6
CONTINUOUS
 10
17.8754536724
 20
6.1910132514
 11
17.8740539481
 21
6.2126041285
  0
LINE
  5
6CF
100
AcDbEntity
  8
02___PRT_ALL_AXES
100
AcDbLine
 62
7
  6
CONTINUOUS
 10
17.8754536724
 20
6.2392318981
 11
17.8740539481
 21
6.2608227752
  0
LINE
  5
6D0
100
AcDbEntity
  8
02___PRT_ALL_AXES
100
AcDbLine
 62
7
  6
CONTINUOUS
 10
17.8754536724
 20
6.2874505448
 11
17.8740539481
 21
6.3090414219
  0
LINE
  5
6D1
100
AcDbEntity
  8
0
100
AcDbLine
 62
7
  6
CONTINUOUS
 10
18.2505990966
 20
8.6481147643
 11
18.2110355425
 21
8.5703218729
  0
LINE
  5
6D2
100
AcDbEntity
  8
02___PRT_ALL_AXES
100
AcDbLine
 62
7
  6
CONTINUOUS
 10
17.8735684384
 20
6.3079232651
 11
17.8754536724
 21
6.3356691915
  0
LINE
  5
6D3
100
AcDbEntity
  8
02___PRT_ALL_AXES
100
AcDbLine
 62
7
  6
CONTINUOUS
 10
17.8735684384
 20
6.2597046185
 11
17.8754536724
 21
6.2874505448
  0
LINE
  5
6D4
100
AcDbEntity
  8
02___PRT_ALL_AXES
100
AcDbLine
 62
7
  6
CONTINUOUS
 10
17.8735684384
 20
6.2114859718
 11
17.8754536724
 21
6.2392318981
  0
LINE
  5
6D5
100
AcDbEntity
  8
02___PRT_ALL_AXES
100
AcDbLine
 62
7
  6
CONTINUOUS
 10
17.8735684384
 20
6.1632673251
 11
17.8754536724
 21
6.1910132514
  0
LINE
  5
6D6
100
AcDbEntity
  8
02___PRT_ALL_AXES
100
AcDbLine
 62
7
  6
CONTINUOUS
 10
17.8735684384
 20
6.1150486784
 11
17.8754536724
 21
6.1427946047
  0
LINE
  5
6D7
100
AcDbEntity
  8
0
100
AcDbLine
 62
7
  6
CONTINUOUS
 10
18.2705839988
 20
8.7283665494
 11
18.2505990966
 21
8.6481147643
  0
LINE
  5
6D8
100
AcDbEntity
  8
02___PRT_ALL_AXES
100
AcDbLine
 62
7
  6
CONTINUOUS
 10
18.1746662709
 20
6.9524639202
 11
18.1746662709
 21
6.772650709
  0
LINE
  5
6D9
100
AcDbEntity
  8
0
100
AcDbLine
 62
7
  6
CONTINUOUS
 10
18.2730727286
 20
8.765396184
 11
18.2683314498
 21
8.3218015261
  0
LINE
  5
6DA
100
AcDbEntity
  8
0
100
AcDbLine
 62
7
  6
CONTINUOUS
 10
18.2705839988
 20
9.5930876132
 11
18.2730072384
 21
9.6406487906
  0
LINE
  5
6DB
100
AcDbEntity
  8
AXIS
100
AcDbLine
 62
7
  6
CONTINUOUS
 10
18.2705839988
 20
8.7283665494
 11
18.2730818916
 21
8.7689026775
  0
LINE
  5
6DC
100
AcDbEntity
  8
AXIS
100
AcDbLine
 62
7
  6
CONTINUOUS
 10
18.2705839988
 20
8.284755
 11
18.2730818916
 21
8.3252911281
  0
LINE
  5
6DD
100
AcDbEntity
  8
0
100
AcDbLine
 62
7
  6
CONTINUOUS
 10
18.2730632321
 20
8.7653902877
 11
18.2705839988
 21
8.7283665494
  0
LWPOLYLINE
  5
6DE
100
AcDbEntity
  8
0
100
AcDbPolyline
 62
7
  6
CONTINUOUS
 90
18
 70
0
 10
18.268321999
 20
8.3217956583
 10
18.2658547088
 20
8.2849502719
 10
18.2459660784
 20
8.2050850781
 10
18.2065931111
 20
8.127666933
 10
18.1485373268
 20
8.0542718467
 10
18.0729805739
 20
7.9863939315
 10
17.9814609699
 20
7.9254149859
 10
17.8758415902
 20
7.8725763656
 10
17.7582725407
 20
7.8289537124
 10
17.6311471882
 20
7.7954350577
 10
17.4970534383
 20
7.7727027447
 10
17.358721053
 20
7.7612195378
 10
17.2189660808
 20
7.7612192019
 10
17.0806335299
 20
7.7727017438
 10
16.9465394522
 20
7.7954334121
 10
16.8194136162
 20
7.8289514556
 10
16.7018439376
 20
7.8725735436
 10
16.5962237958
 20
7.9254116562
  0
LINE
  5
6DF
100
AcDbEntity
  8
02___PRT_ALL_AXES
100
AcDbLine
 62
7
  6
CONTINUOUS
 10
17.8590690249
 20
6.3025840669
 11
17.8670128695
 21
6.3319269916
  0
LINE
  5
6E0
100
AcDbEntity
  8
02___PRT_ALL_AXES
100
AcDbLine
 62
7
  6
CONTINUOUS
 10
17.8590690249
 20
6.2965567361
 11
17.8685331881
 21
6.3315154043
  0
LINE
  5
6E1
100
AcDbEntity
  8
02___PRT_ALL_AXES
100
AcDbLine
 62
7
  6
CONTINUOUS
 10
17.8590690249
 20
6.2543654202
 11
17.8735684384
 21
6.3079232651
  0
LWPOLYLINE
  5
6E2
100
AcDbEntity
  8
02___PRT_ALL_AXES
100
AcDbPolyline
 62
7
  6
CONTINUOUS
 90
3
 70
0
 10
17.8590690249
 20
6.2483380894
 10
17.8735684384
 20
6.3018959343
 10
17.8754536724
 20
6.3296418606
  0
LINE
  5
6E3
100
AcDbEntity
  8
02___PRT_ALL_AXES
100
AcDbLine
 62
7
  6
CONTINUOUS
 10
17.8590690249
 20
6.2061467736
 11
17.8735684384
 21
6.2597046185
  0
LWPOLYLINE
  5
6E4
100
AcDbEntity
  8
02___PRT_ALL_AXES
100
AcDbPolyline
 62
7
  6
CONTINUOUS
 90
3
 70
0
 10
17.8590690249
 20
6.2001194427
 10
17.8735684384
 20
6.2536772876
 10
17.8754536724
 20
6.2814232139
  0
LWPOLYLINE
  5
6E5
100
AcDbEntity
  8
02___PRT_ALL_AXES
100
AcDbPolyline
 62
7
  6
CONTINUOUS
 90
13
 70
0
 10
17.9848136381
 20
7.058758302
 10
17.8880173851
 20
7.0097484608
 10
17.7809690323
 20
6.9684523023
 10
17.6655002067
 20
6.9355764152
 10
17.543586612
 20
6.9116833151
 10
17.4173142236
 20
6.8971818195
 10
17.288843597
 20
6.8923200531
 10
17.1603729004
 20
6.8971812019
 10
17.0341003028
 20
6.9116820905
 10
16.9121863635
 20
6.9355746045
 10
16.7967170638
 20
6.9684499365
 10
16.6896681154
 20
7.0097455803
 10
16.5928711555
 20
7.0587549562
  0
LWPOLYLINE
  5
6E6
100
AcDbEntity
  8
AXIS
100
AcDbPolyline
 62
7
  6
CONTINUOUS
 90
3
 70
0
 10
18.2730818916
 20
8.3252911281
 10
18.2705834142
 20
8.3658319838
 10
18.2688753666
 20
8.3726904496
  0
LINE
  5
6E7
100
AcDbEntity
  8
0
100
AcDbLine
 62
7
  6
CONTINUOUS
 10
18.2730164978
 20
9.6406372746
 11
18.2683198592
 21
9.8603170453
  0
LINE
  5
6E8
100
AcDbEntity
  8
02___PRT_ALL_AXES
100
AcDbLine
 62
7
  6
CONTINUOUS
 10
18.2730914677
 20
7.4605700683
 11
18.2730914677
 21
7.2066185291
  0
LINE
  5
6E9
100
AcDbEntity
  8
AXIS
100
AcDbLine
 62
7
  6
CONTINUOUS
 10
18.2730914677
 20
7.4605700683
 11
18.2730914677
 21
8.3252911321
  0
LINE
  5
6EA
100
AcDbEntity
  8
AXIS
100
AcDbLine
 62
7
  6
CONTINUOUS
 10
18.2730914677
 20
8.7689026815
 11
18.2730914677
 21
9.6336237454
  0
LINE
  5
6EB
100
AcDbEntity
  8
02___PRT_ALL_AXES
100
AcDbLine
 62
9
  6
CONTINUOUS
 10
18.2730914677
 20
7.2066185291
 11
18.2705839988
 21
7.166082397
  0
LWPOLYLINE
  5
6EC
100
AcDbEntity
  8
02___PRT_ALL_AXES
100
AcDbPolyline
 62
9
  6
CONTINUOUS
 90
16
 70
0
 10
18.1746662709
 20
6.772650709
 10
18.169096791
 20
6.7153913911
 10
18.1444834101
 20
6.640286232
 10
18.1007563582
 20
6.5681378765
 10
18.0388924253
 20
6.5005579998
 10
17.9602735494
 20
6.4390562246
 10
17.8666559464
 20
6.385006399
 10
17.7601308787
 20
6.3396159066
 10
17.6430779405
 20
6.3038986962
 10
17.5181119008
 20
6.2786526311
 10
17.3880242945
 20
6.2644416668
 10
17.2557210638
 20
6.2615832527
 10
17.1241576442
 20
6.2701412411
 10
16.9962729451
 20
6.2899244606
 10
16.8749236994
 20
6.3204909868
 10
16.7628206487
 20
6.361158014
  0
LWPOLYLINE
  5
6ED
100
AcDbEntity
  8
02___PRT_ALL_AXES
100
AcDbPolyline
 62
7
  6
CONTINUOUS
 90
6
 70
0
 10
18.1746662709
 20
6.772650709
 10
18.1665453117
 20
6.6922655305
 10
18.1416131902
 20
6.6119710902
 10
18.0989376677
 20
6.5332479109
 10
18.0380140868
 20
6.4582146628
 10
17.9596894486
 20
6.3895734922
  0
LWPOLYLINE
  5
6EE
100
AcDbEntity
  8
02___PRT_ALL_AXES
100
AcDbPolyline
 62
7
  6
CONTINUOUS
 90
15
 70
0
 10
18.2730914677
 20
7.2066185291
 10
18.2640589236
 20
7.1268206351
 10
18.2367538351
 20
7.0478167572
 10
18.1913017884
 20
6.9714755763
 10
18.1281516334
 20
6.8993053518
 10
18.0486354384
 20
6.8331376777
 10
17.9545281876
 20
6.7743994852
 10
17.8478974599
 20
6.7242034117
 10
17.7309565116
 20
6.6833884005
 10
17.6058709188
 20
6.6525500514
 10
17.4750289893
 20
6.6321665923
 10
17.3408300567
 20
6.6225354102
 10
17.2057036459
 20
6.6237941477
 10
17.0721403597
 20
6.6359149961
 10
16.9425293274
 20
6.6587119579
  0
LINE
  5
6EF
100
AcDbEntity
  8
02___PRT_ALL_AXES
100
AcDbLine
 62
7
  6
CONTINUOUS
 10
18.2730914677
 20
7.460570075
 11
18.2646715906
 21
7.3864009032
  0
LWPOLYLINE
  5
6F0
100
AcDbEntity
  8
02___PRT_ALL_AXES
100
AcDbPolyline
 62
9
  6
CONTINUOUS
 90
17
 70
0
 10
18.2705839988
 20
7.166082397
 10
18.2505990966
 20
7.0858306118
 10
18.2110355425
 20
7.0080377204
 10
18.1526987363
 20
6.9342873615
 10
18.0767762472
 20
6.8660808799
 10
17.9848136381
 20
6.8048067628
 10
17.8786830026
 20
6.7517123746
 10
17.7605448544
 20
6.7078785637
 10
17.6328041454
 20
6.6741976604
 10
17.4980613081
 20
6.6513553105
 10
17.3590593181
 20
6.6398165186
 10
17.2186278551
 20
6.639816181
 10
17.0796256987
 20
6.6513543047
 10
16.944882532
 20
6.6741960068
 10
16.8171413372
 20
6.7078762961
 10
16.6990025568
 20
6.7517095389
 10
16.5928711555
 20
6.804803417
  0
LINE
  5
6F1
100
AcDbEntity
  8
02___PRT_ALL_AXES
100
AcDbLine
 62
7
  6
CONTINUOUS
 10
17.8590690249
 20
6.1579281269
 11
17.8735684384
 21
6.2114859718
  0
LWPOLYLINE
  5
6F2
100
AcDbEntity
  8
02___PRT_ALL_AXES
100
AcDbPolyline
 62
7
  6
CONTINUOUS
 90
3
 70
0
 10
17.8590690249
 20
6.151900796
 10
17.8735684384
 20
6.205458641
 10
17.8754536724
 20
6.2332045673
  0
LINE
  5
6F3
100
AcDbEntity
  8
02___PRT_ALL_AXES
100
AcDbLine
 62
7
  6
CONTINUOUS
 10
17.8590690249
 20
6.1097094802
 11
17.8735684384
 21
6.1632673251
  0
LWPOLYLINE
  5
6F4
100
AcDbEntity
  8
02___PRT_ALL_AXES
100
AcDbPolyline
 62
7
  6
CONTINUOUS
 90
3
 70
0
 10
17.8590690249
 20
6.1036821494
 10
17.8735684384
 20
6.1572399943
 10
17.8754536724
 20
6.1849859206
  0
LINE
  5
6F5
100
AcDbEntity
  8
02___PRT_ALL_AXES
100
AcDbLine
 62
7
  6
CONTINUOUS
 10
18.2646715906
 20
7.3864009032
 11
18.2395549558
 21
7.3134984272
  0
LINE
  5
6F6
100
AcDbEntity
  8
02___PRT_ALL_AXES
100
AcDbLine
 62
7
  6
CONTINUOUS
 10
18.2395549558
 20
7.3134984272
 11
18.1981713159
 21
7.2431123878
  0
LINE
  5
6F7
100
AcDbEntity
  8
02___PRT_ALL_AXES
100
AcDbLine
 62
7
  6
CONTINUOUS
 10
18.1981713159
 20
7.2431123878
 11
18.1412287566
 21
7.1764471096
  0
LWPOLYLINE
  5
6F8
100
AcDbEntity
  8
02___PRT_ALL_AXES
100
AcDbPolyline
 62
7
  6
CONTINUOUS
 90
3
 70
0
 10
18.1412287566
 20
7.1764471096
 10
18.0697015807
 20
7.1146432539
 10
17.9848136381
 20
7.058758302
  0
LWPOLYLINE
  5
6F9
100
AcDbEntity
  8
AXIS
100
AcDbPolyline
 62
7
  6
CONTINUOUS
 90
7
 70
0
 10
17.9848136381
 20
7.058758302
 10
18.0767762472
 20
7.1200324191
 10
18.1526987363
 20
7.1882389007
 10
18.2110355425
 20
7.2619892596
 10
18.2505990966
 20
7.339782151
 10
18.2705839988
 20
7.4200339362
 10
18.2730818916
 20
7.4605700642
  0
LWPOLYLINE
  5
6FA
100
AcDbEntity
  8
0
100
AcDbPolyline
 62
7
  6
CONTINUOUS
 90
17
 70
0
 10
16.5928711555
 20
9.2318086333
 10
16.6990025568
 20
9.1787147552
 10
16.8171413372
 20
9.1348815123
 10
16.944882532
 20
9.1012012231
 10
17.0796256987
 20
9.078359521
 10
17.2186278551
 20
9.0668213973
 10
17.3590593181
 20
9.0668217348
 10
17.4980613081
 20
9.0783605268
 10
17.6328041454
 20
9.1012028766
 10
17.7605448544
 20
9.13488378
 10
17.8786830026
 20
9.1787175908
 10
17.9848136381
 20
9.2318119791
 10
18.0767762472
 20
9.2930860962
 10
18.1526987363
 20
9.3612925778
 10
18.2110355425
 20
9.4350429367
 10
18.2505990966
 20
9.5128358281
 10
18.2705839988
 20
9.5930876132
  0
LWPOLYLINE
  5
6FB
100
AcDbEntity
  8
AXIS
100
AcDbPolyline
 62
7
  6
CONTINUOUS
 90
12
 70
0
 10
16.5928711555
 20
9.2318086333
 10
16.6990025568
 20
9.1787147552
 10
16.8171413372
 20
9.1348815123
 10
16.944882532
 20
9.1012012231
 10
17.0796256987
 20
9.078359521
 10
17.2186278551
 20
9.0668213973
 10
17.3590593181
 20
9.0668217348
 10
17.4980613081
 20
9.0783605268
 10
17.6328041454
 20
9.1012028766
 10
17.7605448544
 20
9.13488378
 10
17.8786830026
 20
9.1787175908
 10
17.9848136381
 20
9.2318119791
  0
LWPOLYLINE
  5
6FC
100
AcDbEntity
  8
0
100
AcDbPolyline
 62
9
  6
CONTINUOUS
 90
19
 70
0
 10
16.5961924196
 20
9.4534393948
 10
16.6599338797
 20
9.4197513383
 10
16.7249520154
 20
9.3909012223
 10
16.7911508084
 20
9.366232083
 10
16.8587072441
 20
9.3452385561
 10
16.9280238873
 20
9.3275625328
 10
16.9995612852
 20
9.3130219489
 10
17.0730272074
 20
9.301694923
 10
17.1477397377
 20
9.293696644
 10
17.2232473032
 20
9.2890680497
 10
17.2991545697
 20
9.2878301004
 10
17.3749998492
 20
9.2899906991
 10
17.4503156553
 20
9.2955357349
 10
17.5246502864
 20
9.304430384
 10
17.5975593517
 20
9.3166200251
 10
17.668606013
 20
9.3320302851
 10
17.7373677266
 20
9.3505684204
 10
17.8034369463
 20
9.3721240916
 10
17.8664192177
 20
9.3965687307
  0
LWPOLYLINE
  5
6FD
100
AcDbEntity
  8
0
100
AcDbPolyline
 62
7
  6
CONTINUOUS
 90
13
 70
0
 10
17.829534339
 20
6.0026243018
 10
17.8112216209
 20
5.957181566
 10
17.7748729334
 20
5.9057972942
 10
17.7244859653
 20
5.8586439592
 10
17.6618491933
 20
5.8175579584
 10
17.5891462186
 20
5.7837146703
 10
17.508601346
 20
5.7578317206
 10
17.4224722266
 20
5.7403785303
 10
17.3329976336
 20
5.7316385925
 10
17.2424526784
 20
5.7317479516
 10
17.1531226225
 20
5.7406914831
 10
17.0672763775
 20
5.7583015678
 10
16.98821984
 20
5.7838365217
  0
LINE
  5
6FE
100
AcDbEntity
  8
02___PRT_ALL_AXES
100
AcDbLine
 62
7
  6
CONTINUOUS
 10
17.8331050428
 20
6.296799409
 11
17.8454346856
 21
6.3199416771
  0
LINE
  5
6FF
100
AcDbEntity
  8
02___PRT_ALL_AXES
100
AcDbLine
 62
7
  6
CONTINUOUS
 10
17.8305943083
 20
6.2449469434
 11
17.8590690249
 21
6.2965567361
  0
LINE
  5
700
100
AcDbEntity
  8
02___PRT_ALL_AXES
100
AcDbLine
 62
7
  6
CONTINUOUS
 10
17.8305943083
 20
6.1967282967
 11
17.8590690249
 21
6.2483380894
  0
LINE
  5
701
100
AcDbEntity
  8
02___PRT_ALL_AXES
100
AcDbLine
 62
7
  6
CONTINUOUS
 10
17.8305943083
 20
6.1485096501
 11
17.8590690249
 21
6.2001194427
  0
LINE
  5
702
100
AcDbEntity
  8
02___PRT_ALL_AXES
100
AcDbLine
 62
7
  6
CONTINUOUS
 10
17.8305943083
 20
6.0580996875
 11
17.8590690249
 21
6.1097094802
  0
LINE
  5
703
100
AcDbEntity
  8
02___PRT_ALL_AXES
100
AcDbLine
 62
7
  6
CONTINUOUS
 10
17.8305943083
 20
6.0520723567
 11
17.8590690249
 21
6.1036821494
  0
LWPOLYLINE
  5
704
100
AcDbEntity
  8
02___PRT_ALL_AXES
100
AcDbPolyline
 62
9
  6
CONTINUOUS
 90
8
 70
0
 10
17.7521192248
 20
6.6907746616
 10
17.6430779405
 20
6.6575021052
 10
17.5181119008
 20
6.6322560401
 10
17.3880242945
 20
6.6180450758
 10
17.2557210638
 20
6.6151866617
 10
17.1241576442
 20
6.6237446501
 10
16.9962729451
 20
6.6435278696
 10
16.8749236994
 20
6.6740943958
  0
LWPOLYLINE
  5
705
100
AcDbEntity
  8
0
100
AcDbPolyline
 62
9
  6
CONTINUOUS
 90
27
 70
0
 10
16.6518614072
 20
9.5487491949
 10
16.7104701214
 20
9.5177733925
 10
16.7702634208
 20
9.4912409677
 10
16.8311423505
 20
9.4685537044
 10
16.8932697082
 20
9.4492468219
 10
16.9570156943
 20
9.432990929
 10
17.0228039353
 20
9.4196185463
 10
17.0903657895
 20
9.4092014869
 10
17.1590741456
 20
9.4018456887
 10
17.2285136893
 20
9.397588806
 10
17.2983208499
 20
9.3964501166
 10
17.3680710378
 20
9.3984368901
 10
17.4373343264
 20
9.4035361514
 10
17.5056953047
 20
9.4117158761
 10
17.5727452857
 20
9.4229258329
 10
17.6380825275
 20
9.437097625
 10
17.7013184349
 20
9.4541459614
 10
17.7620782039
 20
9.4739693681
 10
17.8199990654
 20
9.4964496048
 10
17.8747330557
 20
9.5214519237
 10
17.9259504991
 20
9.5488259437
 10
17.9733430502
 20
9.5784068722
 10
18.0166271488
 20
9.6100177477
 10
18.0555434924
 20
9.6434695229
 10
18.089857472
 20
9.6785609005
 10
18.1193623877
 20
9.7150805671
 10
18.1438806852
 20
9.7528083706
  0
LWPOLYLINE
  5
706
100
AcDbEntity
  8
0
100
AcDbPolyline
 62
7
  6
CONTINUOUS
 90
7
 70
0
 10
18.2683198592
 20
9.8603170451
 10
18.2586194222
 20
9.9380852034
 10
18.2325366207
 20
10.0152830341
 10
18.1895879247
 20
10.0907484337
 10
18.1298570737
 20
10.162672589
 10
18.0544396772
 20
10.2290280078
 10
17.965187002
 20
10.2881635837
  0
LWPOLYLINE
  5
707
100
AcDbEntity
  8
02___PRT_ALL_AXES
100
AcDbPolyline
 62
7
  6
CONTINUOUS
 90
9
 70
0
 10
17.9596894486
 20
6.3895734922
 10
17.8658306226
 20
6.3294964974
 10
17.7602677717
 20
6.2800438017
 10
17.6461424903
 20
6.2418140213
 10
17.5258761075
 20
6.2148612508
 10
17.401615907
 20
6.1991666152
 10
17.2757436887
 20
6.1947258149
 10
17.150230866
 20
6.2014803449
 10
17.0272022558
 20
6.2193818623
  0
LWPOLYLINE
  5
708
100
AcDbEntity
  8
02___PRT_ALL_AXES
100
AcDbPolyline
 62
7
  6
CONTINUOUS
 90
4
 70
0
 10
17.6135705241
 20
6.1856203253
 10
17.5894765851
 20
6.1744669068
 10
17.5131389968
 20
6.1492924209
 10
17.4314978824
 20
6.1313878128
  0
LWPOLYLINE
  5
709
100
AcDbEntity
  8
02___PRT_ALL_AXES
100
AcDbPolyline
 62
7
  6
CONTINUOUS
 90
5
 70
0
 10
17.595622956
 20
6.1777954779
 10
17.669898934
 20
6.2101785944
 10
17.7348358285
 20
6.2488723435
 10
17.7888421526
 20
6.2929578853
 10
17.7895249356
 20
6.293749813
  0
LWPOLYLINE
  5
70A
100
AcDbEntity
  8
02___PRT_ALL_AXES
100
AcDbPolyline
 62
7
  6
CONTINUOUS
 90
3
 70
0
 10
17.5985314963
 20
6.1310537438
 10
17.5730321517
 20
6.1200348732
 10
17.4935071473
 20
6.0959880191
  0
LWPOLYLINE
  5
70B
100
AcDbEntity
  8
02___PRT_ALL_AXES
100
AcDbPolyline
 62
7
  6
CONTINUOUS
 90
7
 70
0
 10
17.5936895787
 20
6.0325413267
 10
17.572587355
 20
6.0234359857
 10
17.4932214621
 20
5.9994805338
 10
17.4080985578
 20
5.9830911902
 10
17.3190747
 20
5.9747796268
 10
17.2296515471
 20
5.9748936866
 10
17.1422667475
 20
5.9832715871
  0
LWPOLYLINE
  5
70C
100
AcDbEntity
  8
02___PRT_ALL_AXES
100
AcDbPolyline
 62
7
  6
CONTINUOUS
 90
7
 70
0
 10
17.6363230561
 20
6.0991027652
 10
17.5728099926
 20
6.0717354747
 10
17.4931942116
 20
6.0476924908
 10
17.4069577487
 20
6.0311483365
 10
17.3171125198
 20
6.0229107037
 10
17.2272991378
 20
6.0232290234
 10
17.140159217
 20
6.0317980309
  0
LWPOLYLINE
  5
70D
100
AcDbEntity
  8
02___PRT_ALL_AXES
100
AcDbPolyline
 62
7
  6
CONTINUOUS
 90
7
 70
0
 10
17.6163199864
 20
6.2351305319
 10
17.5721479733
 20
6.2161512726
 10
17.4926065393
 20
6.1922044013
 10
17.406451975
 20
6.1757331466
 10
17.3167164369
 20
6.1675494588
 10
17.2270385553
 20
6.1678982517
 10
17.1399082781
 20
6.1764909642
  0
LWPOLYLINE
  5
70E
100
AcDbEntity
  8
02___PRT_ALL_AXES
100
AcDbPolyline
 62
7
  6
CONTINUOUS
 90
5
 70
0
 10
17.5138282655
 20
6.1585145025
 10
17.595622956
 20
6.1838228088
 10
17.669898934
 20
6.2162059252
 10
17.7348358285
 20
6.2548996743
 10
17.7728712448
 20
6.285948111
  0
LINE
  5
70F
100
AcDbEntity
  8
02___PRT_ALL_AXES
100
AcDbLine
 62
7
  6
CONTINUOUS
 10
17.5138282655
 20
6.1524871717
 11
17.595622956
 21
6.1777954779
  0
LWPOLYLINE
  5
710
100
AcDbEntity
  8
02___PRT_ALL_AXES
100
AcDbPolyline
 62
7
  6
CONTINUOUS
 90
7
 70
0
 10
17.5941361489
 20
5.9362422077
 10
17.5739756596
 20
5.9275041665
 10
17.4943891735
 20
5.9033308235
 10
17.4081841522
 20
5.8866660735
 10
17.3183198481
 20
5.8783081653
 10
17.228428061
 20
5.878516349
 10
17.1413675262
 20
5.8869649896
  0
LWPOLYLINE
  5
711
100
AcDbEntity
  8
02___PRT_ALL_AXES
100
AcDbPolyline
 62
7
  6
CONTINUOUS
 90
7
 70
0
 10
17.5937422995
 20
5.8879016991
 10
17.5726888014
 20
5.8788168717
 10
17.4931536002
 20
5.8548079361
 10
17.4071100921
 20
5.8382952314
 10
17.3174689218
 20
5.8300517214
 10
17.2278623504
 20
5.8303259627
 10
17.1406831021
 20
5.8388464498
  0
LWPOLYLINE
  5
712
100
AcDbEntity
  8
02___PRT_ALL_AXES
100
AcDbPolyline
 62
7
  6
CONTINUOUS
 90
7
 70
0
 10
17.636788404
 20
6.002868356
 10
17.5716784189
 20
5.9748881585
 10
17.4920853945
 20
5.9509838239
 10
17.4067378902
 20
5.9346800876
 10
17.3186741376
 20
5.926542774
 10
17.2301755059
 20
5.9266498506
 10
17.1428672773
 20
5.9349661807
  0
LWPOLYLINE
  5
713
100
AcDbEntity
  8
0
100
AcDbPolyline
 62
7
  6
CONTINUOUS
 90
18
 70
0
 10
17.965187002
 20
10.2881635837
 10
17.8611342347
 20
10.3403188039
 10
17.7467329222
 20
10.3829891025
 10
17.6242043844
 20
10.4156208653
 10
17.4958542713
 20
10.4378120947
 10
17.3640986718
 20
10.4493097899
 10
17.2310829767
 20
10.450021734
 10
17.0991497777
 20
10.4399548456
 10
16.9705365161
 20
10.4192380766
 10
16.8474146697
 20
10.3880975218
 10
16.73218309
 20
10.3469591895
 10
16.6268355777
 20
10.296277286
 10
16.5335955425
 20
10.2367789502
 10
16.4548938784
 20
10.1697983736
 10
16.3923973362
 20
10.0968519918
 10
16.3472600938
 20
10.0199176933
 10
16.3196177163
 20
9.9404844745
 10
16.3093591392
 20
9.8603170451
  0
LWPOLYLINE
  5
714
100
AcDbEntity
  8
0
100
AcDbPolyline
 62
9
  6
CONTINUOUS
 90
34
 70
0
 10
17.9258175912
 20
10.2842637502
 10
17.867208877
 20
10.3152395526
 10
17.8074155776
 20
10.3417719774
 10
17.7465366479
 20
10.3644592407
 10
17.6844092902
 20
10.3837661232
 10
17.6206633041
 20
10.4000220161
 10
17.5548750631
 20
10.4133943988
 10
17.4873132089
 20
10.4238114582
 10
17.4186048528
 20
10.4311672564
 10
17.3491653091
 20
10.4354241391
 10
17.2793581486
 20
10.4365628285
 10
17.2096079606
 20
10.434576055
 10
17.140344672
 20
10.4294767937
 10
17.0719836937
 20
10.421297069
 10
17.0049337128
 20
10.4100871122
 10
16.9395964709
 20
10.3959153201
 10
16.8763605635
 20
10.3788669837
 10
16.8156007945
 20
10.359043577
 10
16.757679933
 20
10.3365633404
 10
16.7029459428
 20
10.3115610215
 10
16.6517284994
 20
10.2841870014
 10
16.6043359482
 20
10.2546060729
 10
16.5610518497
 20
10.2229951974
 10
16.522135506
 20
10.1895434222
 10
16.4878215264
 20
10.1544520446
 10
16.4583166107
 20
10.117932378
 10
16.4337983132
 20
10.0802045745
 10
16.4144126081
 20
10.0414934128
 10
16.4002749186
 20
10.0020270195
 10
16.3914717953
 20
9.9620401913
 10
16.3880588954
 20
9.9217737702
 10
16.3900584647
 20
9.8814756394
 10
16.3974578187
 20
9.8413906816
 10
16.4102228755
 20
9.8017304175
  0
LINE
  5
715
100
AcDbEntity
  8
02___PRT_ALL_AXES
100
AcDbLine
 62
7
  6
CONTINUOUS
 10
5.5419183758
 20
4.0803614834
 11
5.5419183758
 21
4.1721965026
  0
LINE
  5
716
100
AcDbEntity
  8
02___PRT_ALL_AXES
100
AcDbLine
 62
7
  6
CONTINUOUS
 10
5.5419183758
 20
4.1721965026
 11
5.5562511258
 21
4.262906166
  0
LINE
  5
717
100
AcDbEntity
  8
02___PRT_ALL_AXES
100
AcDbLine
 62
7
  6
CONTINUOUS
 10
5.5562511258
 20
4.262906166
 11
5.5845653558
 21
4.3502673424
  0
LINE
  5
718
100
AcDbEntity
  8
02___PRT_ALL_AXES
100
AcDbLine
 62
7
  6
CONTINUOUS
 10
5.5845653558
 20
4.3502673424
 11
5.6261671348
 21
4.432138966
  0
LINE
  5
719
100
AcDbEntity
  8
02___PRT_ALL_AXES
100
AcDbLine
 62
7
  6
CONTINUOUS
 10
5.6261671348
 20
4.432138966
 11
5.6800368778
 21
4.50651451
  0
LINE
  5
71A
100
AcDbEntity
  8
02___PRT_ALL_AXES
100
AcDbLine
 62
7
  6
CONTINUOUS
 10
5.6800368778
 20
4.50651451
 11
5.7448543339
 21
4.5715711633
  0
LINE
  5
71B
100
AcDbEntity
  8
02___PRT_ALL_AXES
100
AcDbLine
 62
7
  6
CONTINUOUS
 10
5.7448543339
 20
4.5715711633
 11
5.8190309436
 21
4.6257145039
  0
LINE
  5
71C
100
AcDbEntity
  8
02___PRT_ALL_AXES
100
AcDbLine
 62
7
  6
CONTINUOUS
 10
5.8190309436
 20
4.6257145039
 11
5.9007487711
 21
4.6676175757
  0
LINE
  5
71D
100
AcDbEntity
  8
0
100
AcDbLine
 62
9
  6
CONTINUOUS
 10
6.0193634664
 20
3.5455703316
 11
6.2341018939
 21
3.5455703316
  0
LINE
  5
71E
100
AcDbEntity
  8
02___PRT_ALL_AXES
100
AcDbLine
 62
7
  6
CONTINUOUS
 10
5.9007487711
 20
3.5849404103
 11
5.8190309436
 21
3.6268434821
  0
LINE
  5
71F
100
AcDbEntity
  8
02___PRT_ALL_AXES
100
AcDbLine
 62
7
  6
CONTINUOUS
 10
5.8190309436
 20
3.6268434821
 11
5.7448543339
 21
3.6809868227
  0
LINE
  5
720
100
AcDbEntity
  8
02___PRT_ALL_AXES
100
AcDbLine
 62
7
  6
CONTINUOUS
 10
5.7448543339
 20
3.6809868227
 11
5.6800368778
 21
3.746043476
  0
LINE
  5
721
100
AcDbEntity
  8
02___PRT_ALL_AXES
100
AcDbLine
 62
7
  6
CONTINUOUS
 10
5.6800368778
 20
3.746043476
 11
5.6261671348
 21
3.8204190201
  0
LINE
  5
722
100
AcDbEntity
  8
02___PRT_ALL_AXES
100
AcDbLine
 62
7
  6
CONTINUOUS
 10
5.6261671348
 20
3.8204190201
 11
5.5845653558
 21
3.9022906436
  0
LINE
  5
723
100
AcDbEntity
  8
02___PRT_ALL_AXES
100
AcDbLine
 62
7
  6
CONTINUOUS
 10
5.5845653558
 20
3.9022906436
 11
5.5562511258
 21
3.98965182
  0
LINE
  5
724
100
AcDbEntity
  8
02___PRT_ALL_AXES
100
AcDbLine
 62
7
  6
CONTINUOUS
 10
5.5562511258
 20
3.98965182
 11
5.5419183758
 21
4.0803614834
  0
LINE
  5
725
100
AcDbEntity
  8
02___PRT_ALL_AXES
100
AcDbLine
 62
7
  6
CONTINUOUS
 10
5.9007487711
 20
3.5849404103
 11
6.0230353007
 21
3.5849404103
  0
LINE
  5
726
100
AcDbEntity
  8
0
100
AcDbLine
 62
7
  6
CONTINUOUS
 10
6.0230353007
 20
3.5849404103
 11
6.2304300596
 21
3.5849404103
  0
LINE
  5
727
100
AcDbEntity
  8
02___PRT_ALL_AXES
100
AcDbLine
 62
7
  6
CONTINUOUS
 10
6.2304300596
 20
3.5849404103
 11
6.3527165892
 21
3.5849404103
  0
LINE
  5
728
100
AcDbEntity
  8
0
100
AcDbLine
 62
9
  6
CONTINUOUS
 10
6.0268420151
 20
3.6243104891
 11
6.2266233452
 21
3.6243104891
  0
LWPOLYLINE
  5
729
100
AcDbEntity
  8
0
100
AcDbPolyline
 62
7
  6
CONTINUOUS
 90
22
 70
0
 10
6.1267326802
 20
3.7463577332
 10
6.0811634413
 20
3.7467307147
 10
6.0357792998
 20
3.7525657307
 10
5.9914032927
 20
3.7637585381
 10
5.9489286714
 20
3.7799982507
 10
5.908250783
 20
3.801321012
 10
5.8685644364
 20
3.8286587863
 10
5.8297414973
 20
3.8634541806
 10
5.7923898316
 20
3.9077037539
 10
5.7591249103
 20
3.9621534375
 10
5.7339155997
 20
4.0242639584
 10
5.7191514122
 20
4.0906626675
 10
5.715623449
 20
4.1591656713
 10
5.7235719243
 20
4.2276059777
 10
5.7429150982
 20
4.2942784452
 10
5.7733465544
 20
4.3574019545
 10
5.8135323856
 20
4.4142860014
 10
5.8620674576
 20
4.4634982752
 10
5.9180997053
 20
4.5043909459
 10
5.9799225728
 20
4.5357583426
 10
6.0464666706
 20
4.5570168367
 10
6.1158175471
 20
4.5674371214
  0
LWPOLYLINE
  5
72A
100
AcDbEntity
  8
0
100
AcDbPolyline
 62
7
  6
CONTINUOUS
 90
4
 70
0
 10
6.0237542774
 20
4.6600689455
 10
6.0245912878
 20
4.6513472262
 10
6.0256535059
 20
4.6403813059
 10
6.0268420151
 20
4.6282474969
  0
LWPOLYLINE
  5
72B
100
AcDbEntity
  8
0
100
AcDbPolyline
 62
7
  6
CONTINUOUS
 90
6
 70
0
 10
6.0237542774
 20
4.6600689455
 10
6.0228517202
 20
4.669553428
 10
6.0223216538
 20
4.6751621847
 10
6.0215029273
 20
4.6838814182
 10
6.0204821191
 20
4.694848165
 10
6.0193634664
 20
4.7069876544
  0
LWPOLYLINE
  5
72C
100
AcDbEntity
  8
0
100
AcDbPolyline
 62
7
  6
CONTINUOUS
 90
4
 70
0
 10
6.0223216538
 20
3.5773958013
 10
6.0215029273
 20
3.5686765678
 10
6.0204821191
 20
3.5577098211
 10
6.0193634664
 20
3.5455703316
  0
LWPOLYLINE
  5
72D
100
AcDbEntity
  8
0
100
AcDbPolyline
 62
7
  6
CONTINUOUS
 90
6
 70
0
 10
6.0223216538
 20
3.5773958013
 10
6.0232193179
 20
3.5868774318
 10
6.0237542774
 20
3.5924890405
 10
6.0245912878
 20
3.6012107598
 10
6.0256535059
 20
3.6121766802
 10
6.0268420151
 20
3.6243104891
  0
LINE
  5
72E
100
AcDbEntity
  8
AXIS_COSMETIC_THREADS
100
AcDbLine
 62
7
  6
CONTINUOUS
 10
6.1590929486
 20
4.2413837403
 11
6.1583409361
 21
4.2400812164
  0
LINE
  5
72F
100
AcDbEntity
  8
AXIS_COSMETIC_THREADS
100
AcDbLine
 62
7
  6
CONTINUOUS
 10
6.0439811917
 20
4.0420043287
 11
6.0431223024
 21
4.0405166888
  0
LINE
  5
730
100
AcDbEntity
  8
AXIS_COSMETIC_THREADS
100
AcDbLine
 62
7
  6
CONTINUOUS
 10
6.0106147205
 20
4.096751434
 11
6.0123729357
 21
4.096751434
  0
LINE
  5
731
100
AcDbEntity
  8
AXIS_COSMETIC_THREADS
100
AcDbLine
 62
7
  6
CONTINUOUS
 10
6.2410924246
 20
4.096751434
 11
6.2428506398
 21
4.096751434
  0
LINE
  5
732
100
AcDbEntity
  8
AXIS_COSMETIC_THREADS
100
AcDbLine
 62
7
  6
CONTINUOUS
 10
6.0431223024
 20
4.2120412972
 11
6.0439811917
 21
4.2105536574
  0
LINE
  5
733
100
AcDbEntity
  8
AXIS_COSMETIC_THREADS
100
AcDbLine
 62
7
  6
CONTINUOUS
 10
6.1583409361
 20
4.0124767696
 11
6.1590929486
 21
4.0111742457
  0
LWPOLYLINE
  5
734
100
AcDbEntity
  8
0
100
AcDbPolyline
 62
7
  6
CONTINUOUS
 90
4
 70
0
 10
6.2297110829
 20
3.5924890405
 10
6.2288740725
 20
3.6012107598
 10
6.2278118544
 20
3.6121766802
 10
6.2266233452
 20
3.6243104891
  0
LWPOLYLINE
  5
735
100
AcDbEntity
  8
0
100
AcDbPolyline
 62
7
  6
CONTINUOUS
 90
6
 70
0
 10
6.2341018939
 20
3.5455703316
 10
6.2329832412
 20
3.5577098211
 10
6.231962433
 20
3.5686765678
 10
6.2311437065
 20
3.5773958013
 10
6.2306136401
 20
3.583004558
 10
6.2297110829
 20
3.5924890405
  0
LWPOLYLINE
  5
736
100
AcDbEntity
  8
0
100
AcDbPolyline
 62
7
  6
CONTINUOUS
 90
4
 70
0
 10
6.2311437065
 20
4.6751621847
 10
6.231962433
 20
4.6838814182
 10
6.2329832412
 20
4.694848165
 10
6.2341018939
 20
4.7069876544
  0
LWPOLYLINE
  5
737
100
AcDbEntity
  8
0
100
AcDbPolyline
 62
7
  6
CONTINUOUS
 90
6
 70
0
 10
6.2311437065
 20
4.6751621847
 10
6.2302460424
 20
4.6656805542
 10
6.2297110829
 20
4.6600689455
 10
6.2288740725
 20
4.6513472262
 10
6.2278118544
 20
4.6403813059
 10
6.2266233452
 20
4.6282474969
  0
LINE
  5
738
100
AcDbEntity
  8
AXIS_COSMETIC_THREADS
100
AcDbLine
 62
7
  6
CONTINUOUS
 10
6.0943724117
 20
4.0111742457
 11
6.0951244242
 21
4.0124767696
  0
LINE
  5
739
100
AcDbEntity
  8
AXIS_COSMETIC_THREADS
100
AcDbLine
 62
7
  6
CONTINUOUS
 10
6.2094841686
 20
4.2105536574
 11
6.2103430579
 21
4.2120412972
  0
LINE
  5
73A
100
AcDbEntity
  8
AXIS_COSMETIC_THREADS
100
AcDbLine
 62
7
  6
CONTINUOUS
 10
6.2428506398
 20
4.1558065521
 11
6.2410924246
 21
4.1558065521
  0
LINE
  5
73B
100
AcDbEntity
  8
AXIS_COSMETIC_THREADS
100
AcDbLine
 62
7
  6
CONTINUOUS
 10
6.0123729357
 20
4.1558065521
 11
6.0106147205
 21
4.1558065521
  0
LINE
  5
73C
100
AcDbEntity
  8
AXIS_COSMETIC_THREADS
100
AcDbLine
 62
7
  6
CONTINUOUS
 10
6.2103430579
 20
4.0405166888
 11
6.2094841686
 21
4.0420043287
  0
LINE
  5
73D
100
AcDbEntity
  8
AXIS_COSMETIC_THREADS
100
AcDbLine
 62
7
  6
CONTINUOUS
 10
6.0951244242
 20
4.2400812164
 11
6.0943724117
 21
4.2413837403
  0
LWPOLYLINE
  5
73E
100
AcDbEntity
  8
0
100
AcDbPolyline
 62
7
  6
CONTINUOUS
 90
19
 70
0
 10
6.1158175471
 20
4.5674371214
 10
6.1901210633
 20
4.5596133235
 10
6.2614746176
 20
4.5394628893
 10
6.3281809188
 20
4.5075697434
 10
6.3879554967
 20
4.4651593792
 10
6.4396368819
 20
4.4131231393
 10
6.4812359238
 20
4.3535550158
 10
6.5117786125
 20
4.288223809
 10
6.530603881
 20
4.2186729461
 10
6.5370770931
 20
4.1477880081
 10
6.5312388317
 20
4.0770428496
 10
6.5133321037
 20
4.0087622212
 10
6.4842017576
 20
3.9453460167
 10
6.4444726941
 20
3.8879257987
 10
6.3958393894
 20
3.8388232339
 10
6.339858843
 20
3.7992814819
 10
6.2779431299
 20
3.7702008286
 10
6.2127258225
 20
3.7526457949
 10
6.1455211997
 20
3.7468225987
  0
LINE
  5
73F
100
AcDbEntity
  8
0
100
AcDbLine
 62
9
  6
CONTINUOUS
 10
6.2266233452
 20
4.6282474969
 11
6.0268420151
 21
4.6282474969
  0
LINE
  5
740
100
AcDbEntity
  8
02___PRT_ALL_AXES
100
AcDbLine
 62
7
  6
CONTINUOUS
 10
6.3527165892
 20
4.6676175757
 11
6.2304300596
 21
4.6676175757
  0
LINE
  5
741
100
AcDbEntity
  8
0
100
AcDbLine
 62
7
  6
CONTINUOUS
 10
6.2304300596
 20
4.6676175757
 11
6.0230353007
 21
4.6676175757
  0
LINE
  5
742
100
AcDbEntity
  8
02___PRT_ALL_AXES
100
AcDbLine
 62
7
  6
CONTINUOUS
 10
6.0230353007
 20
4.6676175757
 11
5.9007487711
 21
4.6676175757
  0
LINE
  5
743
100
AcDbEntity
  8
02___PRT_ALL_AXES
100
AcDbLine
 62
7
  6
CONTINUOUS
 10
6.7115469845
 20
4.1721965026
 11
6.7115469845
 21
4.0803614834
  0
LINE
  5
744
100
AcDbEntity
  8
02___PRT_ALL_AXES
100
AcDbLine
 62
7
  6
CONTINUOUS
 10
6.7115469845
 20
4.0803614834
 11
6.6972142345
 21
3.98965182
  0
LINE
  5
745
100
AcDbEntity
  8
02___PRT_ALL_AXES
100
AcDbLine
 62
7
  6
CONTINUOUS
 10
6.6972142345
 20
3.98965182
 11
6.6689000045
 21
3.9022906436
  0
LINE
  5
746
100
AcDbEntity
  8
02___PRT_ALL_AXES
100
AcDbLine
 62
7
  6
CONTINUOUS
 10
6.6689000045
 20
3.9022906436
 11
6.6272982255
 21
3.8204190201
  0
LINE
  5
747
100
AcDbEntity
  8
02___PRT_ALL_AXES
100
AcDbLine
 62
7
  6
CONTINUOUS
 10
6.6272982255
 20
3.8204190201
 11
6.5734284825
 21
3.746043476
  0
LINE
  5
748
100
AcDbEntity
  8
02___PRT_ALL_AXES
100
AcDbLine
 62
7
  6
CONTINUOUS
 10
6.5734284825
 20
3.746043476
 11
6.5086110264
 21
3.6809868227
  0
LINE
  5
749
100
AcDbEntity
  8
02___PRT_ALL_AXES
100
AcDbLine
 62
7
  6
CONTINUOUS
 10
6.5086110264
 20
3.6809868227
 11
6.4344344167
 21
3.6268434821
  0
LINE
  5
74A
100
AcDbEntity
  8
02___PRT_ALL_AXES
100
AcDbLine
 62
7
  6
CONTINUOUS
 10
6.4344344167
 20
3.6268434821
 11
6.3527165892
 21
3.5849404103
  0
LINE
  5
74B
100
AcDbEntity
  8
0
100
AcDbLine
 62
9
  6
CONTINUOUS
 10
6.2341018939
 20
4.7069876544
 11
6.0193634664
 21
4.7069876544
  0
LINE
  5
74C
100
AcDbEntity
  8
02___PRT_ALL_AXES
100
AcDbLine
 62
7
  6
CONTINUOUS
 10
6.3527165892
 20
4.6676175757
 11
6.4344344167
 21
4.6257145039
  0
LINE
  5
74D
100
AcDbEntity
  8
02___PRT_ALL_AXES
100
AcDbLine
 62
7
  6
CONTINUOUS
 10
6.4344344167
 20
4.6257145039
 11
6.5086110264
 21
4.5715711633
  0
LINE
  5
74E
100
AcDbEntity
  8
02___PRT_ALL_AXES
100
AcDbLine
 62
7
  6
CONTINUOUS
 10
6.5086110264
 20
4.5715711633
 11
6.5734284825
 21
4.50651451
  0
LINE
  5
74F
100
AcDbEntity
  8
02___PRT_ALL_AXES
100
AcDbLine
 62
7
  6
CONTINUOUS
 10
6.5734284825
 20
4.50651451
 11
6.6272982255
 21
4.432138966
  0
LINE
  5
750
100
AcDbEntity
  8
02___PRT_ALL_AXES
100
AcDbLine
 62
7
  6
CONTINUOUS
 10
6.6272982255
 20
4.432138966
 11
6.6689000045
 21
4.3502673424
  0
LINE
  5
751
100
AcDbEntity
  8
02___PRT_ALL_AXES
100
AcDbLine
 62
7
  6
CONTINUOUS
 10
6.6689000045
 20
4.3502673424
 11
6.6972142345
 21
4.262906166
  0
LINE
  5
752
100
AcDbEntity
  8
02___PRT_ALL_AXES
100
AcDbLine
 62
7
  6
CONTINUOUS
 10
6.6972142345
 20
4.262906166
 11
6.7115469845
 21
4.1721965026
  0
CIRCLE
  5
753
100
AcDbEntity
  8
0
100
AcDbCircle
 62
7
  6
CONTINUOUS
 10
15.2229827477
 20
1.1139932523
 40
0.252091
  0
CIRCLE
  5
754
100
AcDbEntity
  8
0
100
AcDbCircle
 62
7
  6
CONTINUOUS
 10
15.2229827477
 20
1.1139932523
 40
0.182698
  0
ARC
  5
755
100
AcDbEntity
  8
02___PRT_ALL_AXES
100
AcDbCircle
 62
7
  6
CONTINUOUS
 10
5.3983862235
 20
9.3430617994
 40
0.157480315
100
AcDbArc
 50
180.0
 51
270.0
  0
ARC
  5
756
100
AcDbEntity
  8
02___PRT_ALL_AXES
100
AcDbCircle
 62
7
  6
CONTINUOUS
 10
6.8550791368
 20
9.3430617994
 40
0.157480315
100
AcDbArc
 50
270.0
 51
360.0
  0
ARC
  5
757
100
AcDbEntity
  8
0
100
AcDbCircle
 62
7
  6
CONTINUOUS
 10
7.0275594873
 20
13.1147153427
 40
0.0787401575
100
AcDbArc
 50
1.0000000028
 51
90.0
  0
ARC
  5
758
100
AcDbEntity
  8
0
100
AcDbCircle
 62
7
  6
CONTINUOUS
 10
5.225905873
 20
13.1147153427
 40
0.0787401575
100
AcDbArc
 50
90.0
 51
178.9999999972
  0
ARC
  5
759
100
AcDbEntity
  8
02___PRT_ALL_AXES
100
AcDbCircle
 62
7
  6
CONTINUOUS
 10
5.1818507904
 20
9.7761326656
 40
0.0590551181
100
AcDbArc
 50
0.0
 51
90.0
  0
ARC
  5
75A
100
AcDbEntity
  8
02___PRT_ALL_AXES
100
AcDbCircle
 62
7
  6
CONTINUOUS
 10
7.0716145699
 20
9.7761326656
 40
0.0590551181
100
AcDbArc
 50
90.0
 51
180.0
  0
ARC
  5
75B
100
AcDbEntity
  8
02___PRT_ALL_AXES
100
AcDbCircle
 62
7
  6
CONTINUOUS
 10
5.1818507904
 20
9.8745578624
 40
0.0393700787
100
AcDbArc
 50
180.0
 51
270.0
  0
ARC
  5
75C
100
AcDbEntity
  8
02___PRT_ALL_AXES
100
AcDbCircle
 62
7
  6
CONTINUOUS
 10
7.0716145699
 20
9.8745578624
 40
0.0393700787
100
AcDbArc
 50
270.0
 51
360.0
  0
ARC
  5
75D
100
AcDbEntity
  8
0
100
AcDbCircle
 62
7
  6
CONTINUOUS
 10
6.6385437038
 20
8.4769200671
 40
0.0393700787
100
AcDbArc
 50
270.0
 51
360.0
  0
ARC
  5
75E
100
AcDbEntity
  8
0
100
AcDbCircle
 62
7
  6
CONTINUOUS
 10
5.6149216565
 20
8.4769200671
 40
0.0393700787
100
AcDbArc
 50
180.0
 51
270.0
  0
ARC
  5
75F
100
AcDbEntity
  8
0
100
AcDbCircle
 62
7
  6
CONTINUOUS
 10
5.536181499
 20
9.1462114057
 40
0.0393700787
100
AcDbArc
 50
0.0
 51
90.0
  0
ARC
  5
760
100
AcDbEntity
  8
0
100
AcDbCircle
 62
7
  6
CONTINUOUS
 10
6.7172838613
 20
9.1462114057
 40
0.0393700787
100
AcDbArc
 50
90.0
 51
180.0
  0
CIRCLE
  5
761
100
AcDbEntity
  8
AXIS_COSMETIC_THREADS
100
AcDbCircle
 62
7
  6
CONTINUOUS
 10
5.9298822864
 20
4.126278993
 40
0.0255905512
  0
CIRCLE
  5
762
100
AcDbEntity
  8
AXIS_COSMETIC_THREADS
100
AcDbCircle
 62
7
  6
CONTINUOUS
 10
6.1267326802
 20
3.9294285993
 40
0.0255905512
  0
ARC
  5
763
100
AcDbEntity
  8
AXIS
100
AcDbCircle
 62
7
  6
CONTINUOUS
 10
6.1267326802
 20
4.126278993
 40
0.9842519685
100
AcDbArc
 50
270.0
 51
90.0
  0
CIRCLE
  5
764
100
AcDbEntity
  8
02___PRT_ALL_AXES
100
AcDbCircle
 62
7
  6
CONTINUOUS
 10
6.1267326802
 20
4.126278993
 40
0.9842519685
  0
CIRCLE
  5
765
100
AcDbEntity
  8
02___PRT_ALL_AXES
100
AcDbCircle
 62
9
  6
CONTINUOUS
 10
6.1267326802
 20
4.126278993
 40
0.9448818898
  0
CIRCLE
  5
766
100
AcDbEntity
  8
02___PRT_ALL_AXES
100
AcDbCircle
 62
7
  6
CONTINUOUS
 10
6.1267326802
 20
4.126278993
 40
0.8858267717
  0
CIRCLE
  5
767
100
AcDbEntity
  8
02___PRT_ALL_AXES
100
AcDbCircle
 62
9
  6
CONTINUOUS
 10
6.1267326802
 20
4.126278993
 40
0.7283464567
  0
ARC
  5
768
100
AcDbEntity
  8
0
100
AcDbCircle
 62
9
  6
CONTINUOUS
 10
6.1267326802
 20
4.126278993
 40
0.5905511811
100
AcDbArc
 50
100.4753138432
 51
259.5246861568
  0
ARC
  5
769
100
AcDbEntity
  8
0
100
AcDbCircle
 62
9
  6
CONTINUOUS
 10
6.1267326802
 20
4.126278993
 40
0.5905511811
100
AcDbArc
 50
280.4753138432
 51
79.5246861568
  0
ARC
  5
76A
100
AcDbEntity
  8
0
100
AcDbCircle
 62
7
  6
CONTINUOUS
 10
6.1267326802
 20
4.126278993
 40
0.5511811024
100
AcDbArc
 50
280.8440625637
 51
79.1559374363
  0
ARC
  5
76B
100
AcDbEntity
  8
0
100
AcDbCircle
 62
7
  6
CONTINUOUS
 10
6.1267326802
 20
4.126278993
 40
0.5511811024
100
AcDbArc
 50
100.8440625637
 51
259.1559374363
  0
ARC
  5
76C
100
AcDbEntity
  8
0
100
AcDbCircle
 62
9
  6
CONTINUOUS
 10
6.1267326802
 20
4.126278993
 40
0.5118110236
100
AcDbArc
 50
101.2547126182
 51
258.7452873818
  0
ARC
  5
76D
100
AcDbEntity
  8
0
100
AcDbCircle
 62
9
  6
CONTINUOUS
 10
6.1267326802
 20
4.126278993
 40
0.5118110236
100
AcDbArc
 50
281.2547126182
 51
78.7452873818
  0
CIRCLE
  5
76E
100
AcDbEntity
  8
0
100
AcDbCircle
 62
7
  6
CONTINUOUS
 10
6.1267326802
 20
4.126278993
 40
0.3799212598
  0
CIRCLE
  5
76F
100
AcDbEntity
  8
0
100
AcDbCircle
 62
7
  6
CONTINUOUS
 10
6.1267326802
 20
4.126278993
 40
0.3208224134
  0
CIRCLE
  5
770
100
AcDbEntity
  8
0
100
AcDbCircle
 62
7
  6
CONTINUOUS
 10
6.1267326802
 20
4.126278993
 40
0.3090551181
  0
CIRCLE
  5
771
100
AcDbEntity
  8
0
100
AcDbCircle
 62
7
  6
CONTINUOUS
 10
6.1267326802
 20
4.126278993
 40
0.2952755906
  0
CIRCLE
  5
772
100
AcDbEntity
  8
0
100
AcDbCircle
 62
7
  6
CONTINUOUS
 10
6.1267326802
 20
4.126278993
 40
0.292807021
  0
CIRCLE
  5
773
100
AcDbEntity
  8
0
100
AcDbCircle
 62
9
  6
CONTINUOUS
 10
6.1267326802
 20
4.126278993
 40
0.277559055
  0
CIRCLE
  5
774
100
AcDbEntity
  8
0
100
AcDbCircle
 62
7
  6
CONTINUOUS
 10
6.1267326802
 20
4.126278993
 40
0.1358267717
  0
CIRCLE
  5
775
100
AcDbEntity
  8
0
100
AcDbCircle
 62
7
  6
CONTINUOUS
 10
6.1267326802
 20
4.126278993
 40
0.1200787402
  0
ARC
  5
776
100
AcDbEntity
  8
AXIS_COSMETIC_THREADS
100
AcDbCircle
 62
7
  6
CONTINUOUS
 10
6.1267326802
 20
4.126278993
 40
0.1181102362
100
AcDbArc
 50
14.4775121859
 51
45.5224878141
  0
ARC
  5
777
100
AcDbEntity
  8
AXIS_COSMETIC_THREADS
100
AcDbCircle
 62
7
  6
CONTINUOUS
 10
6.1267326802
 20
4.126278993
 40
0.1181102362
100
AcDbArc
 50
314.4775121859
 51
345.5224878141
  0
ARC
  5
778
100
AcDbEntity
  8
AXIS_COSMETIC_THREADS
100
AcDbCircle
 62
7
  6
CONTINUOUS
 10
6.1267326802
 20
4.126278993
 40
0.1181102362
100
AcDbArc
 50
194.4775121859
 51
225.5224878141
  0
ARC
  5
779
100
AcDbEntity
  8
AXIS_COSMETIC_THREADS
100
AcDbCircle
 62
7
  6
CONTINUOUS
 10
6.1267326802
 20
4.126278993
 40
0.1181102362
100
AcDbArc
 50
134.4775121859
 51
165.5224878141
  0
ARC
  5
77A
100
AcDbEntity
  8
AXIS_COSMETIC_THREADS
100
AcDbCircle
 62
7
  6
CONTINUOUS
 10
6.1267326802
 20
4.126278993
 40
0.1181102362
100
AcDbArc
 50
74.4775121859
 51
105.5224878141
  0
ARC
  5
77B
100
AcDbEntity
  8
AXIS_COSMETIC_THREADS
100
AcDbCircle
 62
7
  6
CONTINUOUS
 10
6.1267326802
 20
4.126278993
 40
0.1181102362
100
AcDbArc
 50
254.4775121859
 51
285.5224878141
  0
CIRCLE
  5
77C
100
AcDbEntity
  8
02___PRT_ALL_AXES
100
AcDbCircle
 62
7
  6
CONTINUOUS
 10
6.1267326802
 20
4.126278993
 40
0.1075
  0
CIRCLE
  5
77D
100
AcDbEntity
  8
AXIS_COSMETIC_THREADS
100
AcDbCircle
 62
7
  6
CONTINUOUS
 10
6.1267326802
 20
4.3231293867
 40
0.0255905512
  0
CIRCLE
  5
77E
100
AcDbEntity
  8
AXIS_COSMETIC_THREADS
100
AcDbCircle
 62
7
  6
CONTINUOUS
 10
6.3235830739
 20
4.126278993
 40
0.0255905512
  0
ENDSEC
  0
SECTION
  2
OBJECTS
  0
DICTIONARY
  5
C
100
AcDbDictionary
280
0
281
1
  3
ACAD_GROUP
350
D
  3
ACAD_MLINESTYLE
350
17
  3
ACAD_LAYOUT
350
1A
  3
ACAD_PLOTSETTINGS
350
19
  3
ACAD_PLOTSTYLENAME
350
E
  0
DICTIONARY
  5
D
102
{ACAD_REACTORS
330
C
102
}
100
AcDbDictionary
280
0
281
1
  0
ACDBDICTIONARYWDFLT
  5
E
102
{ACAD_REACTORS
330
C
102
}
100
AcDbDictionary
281
1
  3
Normal
350
F
100
AcDbDictionaryWithDefault
340
F
  0
DICTIONARY
  5
17
102
{ACAD_REACTORS
330
C
102
}
100
AcDbDictionary
280
0
281
1
  3
Standard
350
18
  0
DICTIONARY
  5
19
102
{ACAD_REACTORS
330
C
102
}
100
AcDbDictionary
281
1
  0
DICTIONARY
  5
1A
102
{ACAD_REACTORS
330
C
102
}
100
AcDbDictionary
281
1
  3
Layout1
350
1E
  3
Model
350
22
  0
ACDBPLACEHOLDER
  5
F
102
{ACAD_REACTORS
330
E
102
}
  0
MLINESTYLE
  5
18
102
{ACAD_REACTORS
330
17
102
}
100
AcDbMlineStyle
  2
STANDARD
 70
0
  3

 62
256
 51
90.0
 52
90.0
 71
2
 49
0.5
 62
256
  6
BYLAYER
 49
-0.5
 62
256
  6
BYLAYER
  0
LAYOUT
  5
1E
102
{ACAD_REACTORS
330
1A
102
}
100
AcDbPlotSettings
  1

  2

  4

  6

 40
0.0
 41
0.0
 42
0.0
 43
0.0
 44
0.0
 45
0.0
 46
0.0
 47
0.0
 48
0.0
 49
0.0
140
0.0
141
0.0
142
1.0
143
1.0
 70
0
 72
0
 73
0
 74
0
  7

 75
0
147
1.0
148
0.0
149
0.0
100
AcDbLayout
  1
Layout1
 70
0
 71
0
 10
0.0
 20
0.0
 11
0.0
 21
0.0
 12
0.0
 22
0.0
 32
0.0
 14
0.0
 24
0.0
 34
0.0
 15
0.0
 25
0.0
 35
0.0
146
0.0
 13
0.0
 23
0.0
 33
0.0
 16
0.0
 26
0.0
 36
0.0
 17
0.0
 27
0.0
 37
0.0
 76
0
330
1B
331
0
345
0
346
0
  0
LAYOUT
  5
22
102
{ACAD_REACTORS
330
1A
102
}
100
AcDbPlotSettings
  1

  2

  4

  6

 40
0.0
 41
0.0
 42
0.0
 43
0.0
 44
0.0
 45
0.0
 46
0.0
 47
0.0
 48
0.0
 49
0.0
140
0.0
141
0.0
142
1.0
143
1.0
 70
0
 72
0
 73
0
 74
0
  7

 75
0
147
1.0
148
0.0
149
0.0
100
AcDbLayout
  1
Model
 70
0
 71
0
 10
0.0
 20
0.0
 11
0.0
 21
0.0
 12
0.0
 22
0.0
 32
0.0
 14
0.0
 24
0.0
 34
0.0
 15
0.0
 25
0.0
 35
0.0
146
0.0
 13
0.0
 23
0.0
 33
0.0
 16
0.0
 26
0.0
 36
0.0
 17
0.0
 27
0.0
 37
0.0
 76
0
330
1F
331
0
345
0
346
0
  0
ENDSEC
  0
EOF
