999
DXF file: 145176_1.dxf
999
Pro/ENGINEER 2006170 by Parametric Technology Corporation
  0
SECTION
  2
HEADER
  9
$ACADVER
  1
AC1015
  9
$DWGCODEPAGE
  3
ANSI_1252
  9
$EXTMAX
 10
22.0
 20
17.0
 30
0.0
  9
$EXTMIN
 10
0.0
 20
0.0
 30
0.0
  9
$LIMMIN
 10
0.0
 20
0.0
  9
$LIMMAX
 10
22.0
 20
17.0
  9
$VIEWCTR
 10
11.0
 20
8.5
  9
$VIEWSIZE
 40
17.0
  9
$CLAYER
  8
0
  9
$LTSCALE
 40
1.21
  9
$CELTYPE
  6
BYLAYER
  9
$DIMSCALE
 40
1.0
  9
$DIMASZ
 40
0.1875
  9
$DIMEXO
 40
0.1375
  9
$DIMDLI
 40
0.836
  9
$DIMEXE
 40
0.396
  9
$DIMCEN
 40
0.198
  9
$DIMLFAC
 40
1.0
  9
$DIMBLK
  1
_FILLED
  9
$DIMTXT
 40
0.1
  9
$DIMTOL
 70
1
  9
$DIMLIM
 70
0
  9
$DIMTFAC
 40
1.0
  9
$DIMTP
 40
0.005
  9
$DIMTM
 40
0.005
  9
$PDMODE
 70
3
  9
$PDSIZE
 40
0.3125
  9
$HANDSEED
  5
876
  9
$MEASUREMENT
 70
0
  9
$INSUNITS
 70
1
  0
ENDSEC
  0
SECTION
  2
CLASSES
  0
CLASS
  1
ACDBDICTIONARYWDFLT
  2
AcDbDictionaryWithDefault
  3
AutoCAD 2000
 90
0
280
0
281
0
  0
CLASS
  1
ACDBPLACEHOLDER
  2
AcDbPlaceHolder
  3
AutoCAD 2000
 90
0
280
0
281
0
  0
CLASS
  1
LAYOUT
  2
AcDbLayout
  3
AutoCAD 2000
 90
0
280
0
281
0
  0
ENDSEC
  0
SECTION
  2
TABLES
  0
TABLE
  2
VPORT
  5
8
100
AcDbSymbolTable
 70
2
  0
VPORT
  5
1F4
100
AcDbSymbolTableRecord
100
AcDbViewportTableRecord
  2
*ACTIVE
 70
0
 10
0.0
 20
0.0
 11
1.0
 21
1.0
 12
11.0
 22
8.5
 13
0.0
 23
0.0
 14
1.0
 24
1.0
 15
0.0
 25
0.0
 16
0.0
 26
0.0
 36
1.0
 17
0.0
 27
0.0
 37
0.0
 40
17.0
 41
1.2941176471
 42
50.0
 43
0.0
 44
0.0
 50
0.0
 51
0.0
 71
0
 72
100
 73
1
 74
1
 75
0
 76
0
 77
0
 78
0
  0
ENDTAB
  0
TABLE
  2
LTYPE
  5
5
100
AcDbSymbolTable
 70
6
  0
LTYPE
  5
14
100
AcDbSymbolTableRecord
100
AcDbLinetypeTableRecord
  2
BYBLOCK
 70
0
  3

 72
65
 73
0
 40
0.0
  0
LTYPE
  5
15
100
AcDbSymbolTableRecord
100
AcDbLinetypeTableRecord
  2
BYLAYER
 70
0
  3

 72
65
 73
0
 40
0.0
  0
LTYPE
  5
16
100
AcDbSymbolTableRecord
100
AcDbLinetypeTableRecord
  2
CONTINUOUS
 70
64
  3
Solid line
 72
65
 73
0
 40
0.0
  0
LTYPE
  5
1F5
100
AcDbSymbolTableRecord
100
AcDbLinetypeTableRecord
  2
CENTER
 70
64
  3
____ _ ____ _ ____ _ ____ _ ____ _ ____ _ ____
 72
65
 73
4
 40
0.6
 49
0.375
 74
0
 49
-0.075
 74
0
 49
0.075
 74
0
 49
-0.075
 74
0
  0
LTYPE
  5
1F6
100
AcDbSymbolTableRecord
100
AcDbLinetypeTableRecord
  2
HIDDEN
 70
64
  3
- - - - - - - - - - - - - - - - - - - -
 72
65
 73
2
 40
0.2
 49
0.1
 74
0
 49
-0.1
 74
0
  0
LTYPE
  5
1F7
100
AcDbSymbolTableRecord
100
AcDbLinetypeTableRecord
  2
PHANTOM
 70
64
  3
_____ _ _ _____ _ _ _____ _ _ _____
 72
65
 73
6
 40
0.8
 49
0.45
 74
0
 49
-0.05
 74
0
 49
0.1
 74
0
 49
-0.05
 74
0
 49
0.1
 74
0
 49
-0.05
 74
0
  0
LTYPE
  5
1F8
100
AcDbSymbolTableRecord
100
AcDbLinetypeTableRecord
  2
DOT
 70
64
  3
. . . . . . . . . . . . . . . . . . . .
 72
65
 73
2
 40
0.2
 49
0.1
 74
0
 49
-0.1
 74
0
  0
LTYPE
  5
1F9
100
AcDbSymbolTableRecord
100
AcDbLinetypeTableRecord
  2
DASHED
 70
64
  3
- - - - - - - - - - - - - - - - - - - -
 72
65
 73
2
 40
0.2
 49
0.1
 74
0
 49
-0.1
 74
0
  0
ENDTAB
  0
TABLE
  2
LAYER
  5
2
100
AcDbSymbolTable
 70
36
  0
LAYER
  5
10
100
AcDbSymbolTableRecord
100
AcDbLayerTableRecord
  2
0
 70
0
 62
7
  6
CONTINUOUS
370
-3
390
F
  0
LAYER
  5
1FA
100
AcDbSymbolTableRecord
100
AcDbLayerTableRecord
  2
DEFAULT_1
 70
0
 62
7
  6
CENTER
370
-3
390
F
  0
LAYER
  5
1FB
100
AcDbSymbolTableRecord
100
AcDbLayerTableRecord
  2
DEFAULT_2
 70
0
 62
8
  6
HIDDEN
370
-3
390
F
  0
LAYER
  5
1FC
100
AcDbSymbolTableRecord
100
AcDbLayerTableRecord
  2
DEFAULT_3
 70
0
 62
7
  6
PHANTOM
370
-3
390
F
  0
LAYER
  5
1FD
100
AcDbSymbolTableRecord
100
AcDbLayerTableRecord
  2
_2D_DELETED_OBJS
 70
0
 62
7
  6
CONTINUOUS
370
-3
390
F
  0
LAYER
  5
1FE
100
AcDbSymbolTableRecord
100
AcDbLayerTableRecord
  2
_BLACK_HOLE
 70
0
 62
7
  6
CONTINUOUS
370
-3
390
F
  0
LAYER
  5
1FF
100
AcDbSymbolTableRecord
100
AcDbLayerTableRecord
  2
01___PRT_ALL_DTM_PLN
 70
0
 62
7
  6
CONTINUOUS
370
-3
390
F
  0
LAYER
  5
200
100
AcDbSymbolTableRecord
100
AcDbLayerTableRecord
  2
01___PRT_DEF_DTM_PLN
 70
0
 62
7
  6
CONTINUOUS
370
-3
390
F
  0
LAYER
  5
201
100
AcDbSymbolTableRecord
100
AcDbLayerTableRecord
  2
02___PRT_ALL_AXES
 70
0
 62
7
  6
CONTINUOUS
370
-3
390
F
  0
LAYER
  5
202
100
AcDbSymbolTableRecord
100
AcDbLayerTableRecord
  2
03___PRT_ALL_CURVES
 70
0
 62
7
  6
CONTINUOUS
370
-3
390
F
  0
LAYER
  5
203
100
AcDbSymbolTableRecord
100
AcDbLayerTableRecord
  2
04___PRT_ALL_DTM_PNT
 70
0
 62
7
  6
CONTINUOUS
370
-3
390
F
  0
LAYER
  5
204
100
AcDbSymbolTableRecord
100
AcDbLayerTableRecord
  2
05___PRT_ALL_DTM_CSYS
 70
0
 62
7
  6
CONTINUOUS
370
-3
390
F
  0
LAYER
  5
205
100
AcDbSymbolTableRecord
100
AcDbLayerTableRecord
  2
05___PRT_DEF_DTM_CSYS
 70
0
 62
7
  6
CONTINUOUS
370
-3
390
F
  0
LAYER
  5
206
100
AcDbSymbolTableRecord
100
AcDbLayerTableRecord
  2
06___PRT_ALL_SURFS
 70
0
 62
7
  6
CONTINUOUS
370
-3
390
F
  0
LAYER
  5
207
100
AcDbSymbolTableRecord
100
AcDbLayerTableRecord
  2
AXIS
 70
0
 62
7
  6
CONTINUOUS
370
-3
390
F
  0
LAYER
  5
208
100
AcDbSymbolTableRecord
100
AcDbLayerTableRecord
  2
AXIS_COSMETIC_THREADS
 70
0
 62
7
  6
CONTINUOUS
370
-3
390
F
  0
LAYER
  5
209
100
AcDbSymbolTableRecord
100
AcDbLayerTableRecord
  2
DATUM_CURVES
 70
0
 62
7
  6
CONTINUOUS
370
-3
390
F
  0
LAYER
  5
20A
100
AcDbSymbolTableRecord
100
AcDbLayerTableRecord
  2
DATUM_PLANES
 70
0
 62
7
  6
CONTINUOUS
370
-3
390
F
  0
LAYER
  5
20B
100
AcDbSymbolTableRecord
100
AcDbLayerTableRecord
  2
HIDE
 70
0
 62
7
  6
CONTINUOUS
370
-3
390
F
  0
LAYER
  5
20C
100
AcDbSymbolTableRecord
100
AcDbLayerTableRecord
  2
NOTES
 70
0
 62
7
  6
CONTINUOUS
370
-3
390
F
  0
LAYER
  5
20D
100
AcDbSymbolTableRecord
100
AcDbLayerTableRecord
  2
QUILTS
 70
0
 62
7
  6
CONTINUOUS
370
-3
390
F
  0
LAYER
  5
20E
100
AcDbSymbolTableRecord
100
AcDbLayerTableRecord
  2
SCHEME_DIMS
 70
0
 62
7
  6
CONTINUOUS
370
-3
390
F
  0
LAYER
  5
20F
100
AcDbSymbolTableRecord
100
AcDbLayerTableRecord
  2
SYMBOLS
 70
0
 62
7
  6
CONTINUOUS
370
-3
390
F
  0
ENDTAB
  0
TABLE
  2
STYLE
  5
3
100
AcDbSymbolTable
 70
1
  0
STYLE
  5
11
100
AcDbSymbolTableRecord
100
AcDbTextStyleTableRecord
  2
STANDARD
 70
0
 40
0.0
 41
1.0
 50
0.0
 71
0
 42
0.2
  3
txt
  4

  0
ENDTAB
  0
TABLE
  2
VIEW
  5
6
100
AcDbSymbolTable
 70
0
  0
ENDTAB
  0
TABLE
  2
UCS
  5
7
100
AcDbSymbolTable
 70
0
  0
ENDTAB
  0
TABLE
  2
APPID
  5
9
100
AcDbSymbolTable
 70
1
  0
APPID
  5
210
100
AcDbSymbolTableRecord
100
AcDbRegAppTableRecord
  2
ACAD
 70
0
  0
ENDTAB
  0
TABLE
  2
BLOCK_RECORD
  5
1
100
AcDbSymbolTable
 70
0
  0
BLOCK_RECORD
  5
1F
100
AcDbSymbolTableRecord
100
AcDbBlockTableRecord
  2
*MODEL_SPACE
  0
BLOCK_RECORD
  5
1B
100
AcDbSymbolTableRecord
100
AcDbBlockTableRecord
  2
*PAPER_SPACE
  0
BLOCK_RECORD
  5
211
100
AcDbSymbolTableRecord
100
AcDbBlockTableRecord
  2
_FILLED
  0
BLOCK_RECORD
  5
212
100
AcDbSymbolTableRecord
100
AcDbBlockTableRecord
  2
BANNER_LOGO_TITLEBLOCK_BL0
  0
BLOCK_RECORD
  5
213
100
AcDbSymbolTableRecord
100
AcDbBlockTableRecord
  2
*D0
  0
BLOCK_RECORD
  5
214
100
AcDbSymbolTableRecord
100
AcDbBlockTableRecord
  2
*D1
  0
BLOCK_RECORD
  5
215
100
AcDbSymbolTableRecord
100
AcDbBlockTableRecord
  2
*D2
  0
BLOCK_RECORD
  5
216
100
AcDbSymbolTableRecord
100
AcDbBlockTableRecord
  2
*D3
  0
BLOCK_RECORD
  5
217
100
AcDbSymbolTableRecord
100
AcDbBlockTableRecord
  2
*D4
  0
BLOCK_RECORD
  5
218
100
AcDbSymbolTableRecord
100
AcDbBlockTableRecord
  2
*D5
  0
ENDTAB
  0
TABLE
  2
DIMSTYLE
  5
A
100
AcDbSymbolTable
 70
1
100
AcDbDimStyleTable
 71
0
  0
DIMSTYLE
105
219
100
AcDbSymbolTableRecord
100
AcDbDimStyleTableRecord
  2
STANDARD
 70
0
  3

  4

 40
1.0
 41
0.1875
 42
0.0625
 43
0.38
 44
0.18
 45
0.0
 46
0.0
 47
0.005
 48
0.005
140
0.1
141
0.09
142
0.0
143
25.4
144
1.0
145
0.0
146
1.0
147
0.09
 71
1.0
 72
0.0
 73
1
 74
1
 75
0
 76
0
 77
0
 78
4
170
0
171
2
172
0
173
0
174
0
175
0
176
0
177
0
178
0
270
2
271
3
272
3
273
2
274
2
275
0
280
0
281
0
282
0
283
1
284
4
285
0
286
0
287
3
288
0
340
11
341
211
342
211
343
211
344
211
  0
DIMSTYLE
105
21A
100
AcDbSymbolTableRecord
100
AcDbDimStyleTableRecord
  2
DIMSTYLE_1
 70
0
  3

  4

 40
1.0
 41
0.1875
 42
0.0625
 43
0.38
 44
0.18
 45
0.0
 46
0.0
 47
0.1
 48
0.1
140
0.1
141
0.09
142
0.0
143
25.4
144
1.0
145
0.0
146
1.0
147
0.09
 71
0.0
 72
0.0
 73
1
 74
1
 75
0
 76
0
 77
0
 78
4
170
0
171
2
172
0
173
0
174
0
175
0
176
0
177
0
178
0
270
2
271
1
272
1
273
2
274
2
275
0
280
0
281
0
282
0
283
1
284
4
285
0
286
0
287
3
288
0
340
11
341
211
342
211
343
211
344
211
  0
DIMSTYLE
105
21B
100
AcDbSymbolTableRecord
100
AcDbDimStyleTableRecord
  2
DIMSTYLE_2
 70
0
  3

  4

 40
1.0
 41
0.1875
 42
0.0625
 43
0.38
 44
0.18
 45
0.0
 46
0.0
 47
0.1
 48
0.1
140
0.1
141
0.09
142
0.0
143
25.4
144
1.0
145
0.0
146
1.0
147
0.09
 71
0.0
 72
0.0
 73
1
 74
1
 75
0
 76
0
 77
0
 78
4
170
0
171
2
172
0
173
0
174
0
175
0
176
0
177
0
178
0
270
2
271
1
272
1
273
2
274
2
275
0
280
0
281
0
282
0
283
1
284
4
285
0
286
0
287
3
288
0
340
11
341
211
342
211
343
211
344
211
  0
ENDTAB
  0
ENDSEC
  0
SECTION
  2
BLOCKS
  0
BLOCK
  5
20
100
AcDbEntity
  8
0
100
AcDbBlockBegin
  2
*MODEL_SPACE
 70
0
 10
0.0
 20
0.0
 30
0.0
  3
*MODEL_SPACE
  1

  0
ENDBLK
  5
21
100
AcDbEntity
  8
0
100
AcDbBlockEnd
  0
BLOCK
  5
1C
100
AcDbEntity
  8
0
100
AcDbBlockBegin
  2
*PAPER_SPACE
 70
0
 10
0.0
 20
0.0
 30
0.0
  3
*PAPER_SPACE
  1

  0
ENDBLK
  5
1D
100
AcDbEntity
  8
0
100
AcDbBlockEnd
  0
BLOCK
  5
21C
100
AcDbEntity
  8
0
100
AcDbBlockBegin
 62
2
  6
CONTINUOUS
  2
BANNER_LOGO_TITLEBLOCK_BL0
 70
64
 10
17.5737928667
 20
2.4016160592
  3
BANNER_LOGO_TITLEBLOCK_BL0
  1

  0
LWPOLYLINE
  5
21D
100
AcDbEntity
  8
0
100
AcDbPolyline
 62
2
  6
CONTINUOUS
 90
29
 70
0
 10
16.7487923615
 20
2.4016160592
 10
16.7691351996
 20
2.3618196847
 10
16.8307163685
 20
2.3232759622
 10
16.9281409297
 20
2.2893628079
 10
17.0602177432
 20
2.2604945935
 10
17.2153753953
 20
2.2392004647
 10
17.3917175036
 20
2.2257402979
 10
17.5737926282
 20
2.2212942658
 10
17.7558682297
 20
2.2257402979
 10
17.932210338
 20
2.2392004647
 10
18.0873675133
 20
2.2604945935
 10
18.2194448036
 20
2.2893628079
 10
18.316868888
 20
2.3232759622
 10
18.3784505337
 20
2.3618196847
 10
18.3987933719
 20
2.4016160592
 10
18.3784505337
 20
2.4414124337
 10
18.316868888
 20
2.4799561562
 10
18.2194448036
 20
2.5138693105
 10
18.0873675133
 20
2.5427375249
 10
17.932210338
 20
2.5640316537
 10
17.7558682297
 20
2.5774918205
 10
17.5737926282
 20
2.5819378526
 10
17.3917175036
 20
2.5774918205
 10
17.2153753953
 20
2.5640316537
 10
17.0602177432
 20
2.5427375249
 10
16.9281409297
 20
2.5138693105
 10
16.8307163685
 20
2.4799561562
 10
16.7691351996
 20
2.4414124337
 10
16.7487923615
 20
2.4016160592
  0
ARC
  5
21E
100
AcDbEntity
  8
0
100
AcDbCircle
 62
2
  6
CONTINUOUS
 10
17.0691330821
 20
2.3781140608
 40
0.0153945295
100
AcDbArc
 50
354.0454548824
 51
5.1878013979
  0
ARC
  5
21F
100
AcDbEntity
  8
0
100
AcDbCircle
 62
2
  6
CONTINUOUS
 10
17.062303393
 20
2.377925543
 40
0.0222174455
100
AcDbArc
 50
4.0793399388
 51
69.834329283
  0
LINE
  5
220
100
AcDbEntity
  8
0
100
AcDbLine
 62
2
  6
CONTINUOUS
 10
17.0699625425
 20
2.3987810533
 11
17.0599115369
 21
2.4023300553
  0
LINE
  5
221
100
AcDbEntity
  8
0
100
AcDbLine
 62
2
  6
CONTINUOUS
 10
17.0599115369
 20
2.4023300553
 11
17.0681515415
 21
2.4071060579
  0
ARC
  5
222
100
AcDbEntity
  8
0
100
AcDbCircle
 62
2
  6
CONTINUOUS
 10
17.046286159
 20
2.4439329496
 40
0.0428289026
100
AcDbArc
 50
300.6990502959
 51
319.0591802498
  0
ARC
  5
223
100
AcDbEntity
  8
0
100
AcDbCircle
 62
2
  6
CONTINUOUS
 10
17.0663147559
 20
2.4278045961
 40
0.0171568255
100
AcDbArc
 50
315.9145124245
 51
16.0049121282
  0
ARC
  5
224
100
AcDbEntity
  8
0
100
AcDbCircle
 62
2
  6
CONTINUOUS
 10
17.0613631438
 20
2.4244509317
 40
0.0229166529
100
AcDbArc
 50
20.6563876465
 51
62.3316896973
  0
ARC
  5
225
100
AcDbEntity
  8
0
100
AcDbCircle
 62
2
  6
CONTINUOUS
 10
17.0407010201
 20
2.3915223668
 40
0.061747717
100
AcDbArc
 50
59.5385584989
 51
90.0050977555
  0
LINE
  5
226
100
AcDbEntity
  8
0
100
AcDbLine
 62
2
  6
CONTINUOUS
 10
17.0406955262
 20
2.4532700835
 11
16.8746324342
 21
2.4532700835
  0
ARC
  5
227
100
AcDbEntity
  8
0
100
AcDbCircle
 62
2
  6
CONTINUOUS
 10
16.8746324323
 20
2.450795084
 40
0.0024749995
100
AcDbArc
 50
89.9999571957
 51
180.0000428043
  0
LINE
  5
228
100
AcDbEntity
  8
0
100
AcDbLine
 62
2
  6
CONTINUOUS
 10
16.8721574328
 20
2.4507950822
 11
16.8721574328
 21
2.4309950712
  0
ARC
  5
229
100
AcDbEntity
  8
0
100
AcDbCircle
 62
2
  6
CONTINUOUS
 10
16.8746324323
 20
2.4309950693
 40
0.0024749995
100
AcDbArc
 50
179.9999571957
 51
270.0000428043
  0
LINE
  5
22A
100
AcDbEntity
  8
0
100
AcDbLine
 62
2
  6
CONTINUOUS
 10
16.8746324342
 20
2.4285200698
 11
16.8985744474
 21
2.4285200698
  0
ARC
  5
22B
100
AcDbEntity
  8
0
100
AcDbCircle
 62
2
  6
CONTINUOUS
 10
16.8985744493
 20
2.4260450703
 40
0.0024749995
100
AcDbArc
 50
359.9999571957
 51
90.0000428043
  0
LINE
  5
22C
100
AcDbEntity
  8
0
100
AcDbLine
 62
2
  6
CONTINUOUS
 10
16.9010494488
 20
2.4260450684
 11
16.9010494488
 21
2.3796900427
  0
ARC
  5
22D
100
AcDbEntity
  8
0
100
AcDbCircle
 62
2
  6
CONTINUOUS
 10
16.8985744493
 20
2.3796900409
 40
0.0024749995
100
AcDbArc
 50
269.9999571957
 51
0.0000428043
  0
LINE
  5
22E
100
AcDbEntity
  8
0
100
AcDbLine
 62
2
  6
CONTINUOUS
 10
16.8985744474
 20
2.3772150414
 11
16.8746324342
 21
2.3772150414
  0
ARC
  5
22F
100
AcDbEntity
  8
0
100
AcDbCircle
 62
2
  6
CONTINUOUS
 10
16.8746324323
 20
2.3747400418
 40
0.0024749995
100
AcDbArc
 50
89.9999571957
 51
180.0000428043
  0
LINE
  5
230
100
AcDbEntity
  8
0
100
AcDbLine
 62
2
  6
CONTINUOUS
 10
16.8721574328
 20
2.37474004
 11
16.8721574328
 21
2.354940029
  0
ARC
  5
231
100
AcDbEntity
  8
0
100
AcDbCircle
 62
2
  6
CONTINUOUS
 10
16.8746324323
 20
2.3549400272
 40
0.0024749995
100
AcDbArc
 50
179.9999571957
 51
270.0000428043
  0
LINE
  5
232
100
AcDbEntity
  8
0
100
AcDbLine
 62
2
  6
CONTINUOUS
 10
16.8746324342
 20
2.3524650276
 11
17.051078532
 21
2.3524650276
  0
ARC
  5
233
100
AcDbEntity
  8
0
100
AcDbCircle
 62
2
  6
CONTINUOUS
 10
17.0483571873
 20
2.4008724794
 40
0.048483885
100
AcDbArc
 50
273.21763719
 51
303.0749121182
  0
ARC
  5
234
100
AcDbEntity
  8
0
100
AcDbCircle
 62
2
  6
CONTINUOUS
 10
17.0631965815
 20
2.3781048705
 40
0.0213072145
100
AcDbArc
 50
303.0488228549
 51
355.7263138674
  0
LINE
  5
235
100
AcDbEntity
  8
0
100
AcDbLine
 62
2
  6
CONTINUOUS
 10
16.9640374837
 20
2.4111950602
 11
17.0054005067
 21
2.4111950602
  0
ARC
  5
236
100
AcDbEntity
  8
0
100
AcDbCircle
 62
2
  6
CONTINUOUS
 10
17.0054005067
 20
2.419857565
 40
0.0086625048
100
AcDbArc
 50
270.0
 51
90.0
  0
LINE
  5
237
100
AcDbEntity
  8
0
100
AcDbLine
 62
2
  6
CONTINUOUS
 10
17.0054005067
 20
2.4285200698
 11
16.9640374837
 21
2.4285200698
  0
ARC
  5
238
100
AcDbEntity
  8
0
100
AcDbCircle
 62
2
  6
CONTINUOUS
 10
16.9640374819
 20
2.4260450703
 40
0.0024749995
100
AcDbArc
 50
89.9999571957
 51
180.0000428043
  0
LINE
  5
239
100
AcDbEntity
  8
0
100
AcDbLine
 62
2
  6
CONTINUOUS
 10
16.9615624824
 20
2.4260450684
 11
16.9615624824
 21
2.4136700616
  0
ARC
  5
23A
100
AcDbEntity
  8
0
100
AcDbCircle
 62
2
  6
CONTINUOUS
 10
16.9640374819
 20
2.4136700597
 40
0.0024749995
100
AcDbArc
 50
179.9999571957
 51
270.0000428043
  0
LINE
  5
23B
100
AcDbEntity
  8
0
100
AcDbLine
 62
2
  6
CONTINUOUS
 10
16.9615624824
 20
2.3796900427
 11
16.9615624824
 21
2.3920650496
  0
ARC
  5
23C
100
AcDbEntity
  8
0
100
AcDbCircle
 62
2
  6
CONTINUOUS
 10
16.9640374819
 20
2.3920650514
 40
0.0024749995
100
AcDbArc
 50
89.9999571957
 51
180.0000428043
  0
LINE
  5
23D
100
AcDbEntity
  8
0
100
AcDbLine
 62
2
  6
CONTINUOUS
 10
16.9640374837
 20
2.394540051
 11
17.0054005067
 21
2.394540051
  0
ARC
  5
23E
100
AcDbEntity
  8
0
100
AcDbCircle
 62
2
  6
CONTINUOUS
 10
17.0054005067
 20
2.3858775462
 40
0.0086625048
100
AcDbArc
 50
270.0
 51
90.0
  0
LINE
  5
23F
100
AcDbEntity
  8
0
100
AcDbLine
 62
2
  6
CONTINUOUS
 10
17.0054005067
 20
2.3772150414
 11
16.9640374837
 21
2.3772150414
  0
ARC
  5
240
100
AcDbEntity
  8
0
100
AcDbCircle
 62
2
  6
CONTINUOUS
 10
16.9640374819
 20
2.3796900409
 40
0.0024749995
100
AcDbArc
 50
179.9999571957
 51
270.0000428043
  0
ARC
  5
241
100
AcDbEntity
  8
0
100
AcDbCircle
 62
2
  6
CONTINUOUS
 10
18.2498075353
 20
2.3824863625
 40
0.044722495
100
AcDbArc
 50
195.531588407
 51
204.7624440448
  0
LINE
  5
242
100
AcDbEntity
  8
0
100
AcDbLine
 62
2
  6
CONTINUOUS
 10
18.2067181729
 20
2.3705110376
 11
18.2049141719
 21
2.376580041
  0
ARC
  5
243
100
AcDbEntity
  8
0
100
AcDbCircle
 62
2
  6
CONTINUOUS
 10
18.1665349746
 20
2.3667829606
 40
0.0396099176
100
AcDbArc
 50
14.3201081283
 51
22.4984722084
  0
ARC
  5
244
100
AcDbEntity
  8
0
100
AcDbCircle
 62
2
  6
CONTINUOUS
 10
18.189301283
 20
2.3757545872
 40
0.0151491919
100
AcDbArc
 50
24.098260853
 51
63.0369451818
  0
ARC
  5
245
100
AcDbEntity
  8
0
100
AcDbCircle
 62
2
  6
CONTINUOUS
 10
18.1852466282
 20
2.3674749668
 40
0.0243676582
100
AcDbArc
 50
63.3666028271
 51
90.3937697637
  0
LINE
  5
246
100
AcDbEntity
  8
0
100
AcDbLine
 62
2
  6
CONTINUOUS
 10
18.1850791609
 20
2.3918420495
 11
18.1574721456
 21
2.3918420495
  0
ARC
  5
247
100
AcDbEntity
  8
0
100
AcDbCircle
 62
2
  6
CONTINUOUS
 10
18.1574721437
 20
2.3893670499
 40
0.0024749995
100
AcDbArc
 50
89.9999571957
 51
180.0000428043
  0
LINE
  5
248
100
AcDbEntity
  8
0
100
AcDbLine
 62
2
  6
CONTINUOUS
 10
18.1549971442
 20
2.3893670481
 11
18.1549971442
 21
2.3796680427
  0
ARC
  5
249
100
AcDbEntity
  8
0
100
AcDbCircle
 62
2
  6
CONTINUOUS
 10
18.1574721437
 20
2.3796680409
 40
0.0024749995
100
AcDbArc
 50
179.9999571957
 51
270.0000428043
  0
LINE
  5
24A
100
AcDbEntity
  8
0
100
AcDbLine
 62
2
  6
CONTINUOUS
 10
18.1574721456
 20
2.3771930413
 11
18.1821311592
 21
2.3771930413
  0
ARC
  5
24B
100
AcDbEntity
  8
0
100
AcDbCircle
 62
2
  6
CONTINUOUS
 10
18.1821311611
 20
2.3747180418
 40
0.0024749995
100
AcDbArc
 50
359.9999571957
 51
90.0000428043
  0
LINE
  5
24C
100
AcDbEntity
  8
0
100
AcDbLine
 62
2
  6
CONTINUOUS
 10
18.1846061606
 20
2.37471804
 11
18.1846061606
 21
2.354940029
  0
ARC
  5
24D
100
AcDbEntity
  8
0
100
AcDbCircle
 62
2
  6
CONTINUOUS
 10
18.1821311611
 20
2.3549400272
 40
0.0024749995
100
AcDbArc
 50
269.9999571957
 51
0.0000428043
  0
LINE
  5
24E
100
AcDbEntity
  8
0
100
AcDbLine
 62
2
  6
CONTINUOUS
 10
18.1821311592
 20
2.3524650276
 11
18.0685600963
 21
2.3524650276
  0
ARC
  5
24F
100
AcDbEntity
  8
0
100
AcDbCircle
 62
2
  6
CONTINUOUS
 10
18.0685600944
 20
2.3549400272
 40
0.0024749995
100
AcDbArc
 50
179.9999571957
 51
270.0000428043
  0
LINE
  5
250
100
AcDbEntity
  8
0
100
AcDbLine
 62
2
  6
CONTINUOUS
 10
18.0660850949
 20
2.354940029
 11
18.0660850949
 21
2.37474004
  0
ARC
  5
251
100
AcDbEntity
  8
0
100
AcDbCircle
 62
2
  6
CONTINUOUS
 10
18.0685600944
 20
2.3747400418
 40
0.0024749995
100
AcDbArc
 50
89.9999571957
 51
180.0000428043
  0
LINE
  5
252
100
AcDbEntity
  8
0
100
AcDbLine
 62
2
  6
CONTINUOUS
 10
18.0685600963
 20
2.3772150414
 11
18.0913061089
 21
2.3772150414
  0
ARC
  5
253
100
AcDbEntity
  8
0
100
AcDbCircle
 62
2
  6
CONTINUOUS
 10
18.0913061107
 20
2.3796900409
 40
0.0024749995
100
AcDbArc
 50
269.9999571957
 51
0.0000428043
  0
LINE
  5
254
100
AcDbEntity
  8
0
100
AcDbLine
 62
2
  6
CONTINUOUS
 10
18.0937811102
 20
2.3796900427
 11
18.0937811102
 21
2.4260450684
  0
ARC
  5
255
100
AcDbEntity
  8
0
100
AcDbCircle
 62
2
  6
CONTINUOUS
 10
18.0913061107
 20
2.4260450703
 40
0.0024749995
100
AcDbArc
 50
359.9999571957
 51
90.0000428043
  0
LINE
  5
256
100
AcDbEntity
  8
0
100
AcDbLine
 62
2
  6
CONTINUOUS
 10
18.0913061089
 20
2.4285200698
 11
18.0685600963
 21
2.4285200698
  0
ARC
  5
257
100
AcDbEntity
  8
0
100
AcDbCircle
 62
2
  6
CONTINUOUS
 10
18.0685600944
 20
2.4309950693
 40
0.0024749995
100
AcDbArc
 50
179.9999571957
 51
270.0000428043
  0
LINE
  5
258
100
AcDbEntity
  8
0
100
AcDbLine
 62
2
  6
CONTINUOUS
 10
18.0660850949
 20
2.4309950712
 11
18.0660850949
 21
2.4507950822
  0
ARC
  5
259
100
AcDbEntity
  8
0
100
AcDbCircle
 62
2
  6
CONTINUOUS
 10
18.0685600944
 20
2.450795084
 40
0.0024749995
100
AcDbArc
 50
89.9999571957
 51
180.0000428043
  0
LINE
  5
25A
100
AcDbEntity
  8
0
100
AcDbLine
 62
2
  6
CONTINUOUS
 10
18.0685600963
 20
2.4532700835
 11
18.2181411792
 21
2.4532700835
  0
ARC
  5
25B
100
AcDbEntity
  8
0
100
AcDbCircle
 62
2
  6
CONTINUOUS
 10
18.2154778759
 20
2.270731173
 40
0.1825583387
100
AcDbArc
 50
79.8618509324
 51
89.1640948679
  0
ARC
  5
25C
100
AcDbEntity
  8
0
100
AcDbCircle
 62
2
  6
CONTINUOUS
 10
18.2417821663
 20
2.4115546891
 40
0.039319019
100
AcDbArc
 50
59.1202086415
 51
81.4730239328
  0
ARC
  5
25D
100
AcDbEntity
  8
0
100
AcDbCircle
 62
2
  6
CONTINUOUS
 10
18.2474415625
 20
2.4178893582
 40
0.0310192946
100
AcDbArc
 50
34.7540871
 51
62.0879016178
  0
ARC
  5
25E
100
AcDbEntity
  8
0
100
AcDbCircle
 62
2
  6
CONTINUOUS
 10
18.2591303136
 20
2.4264389594
 40
0.0165459396
100
AcDbArc
 50
1.548452892
 51
33.5033152417
  0
ARC
  5
25F
100
AcDbEntity
  8
0
100
AcDbCircle
 62
2
  6
CONTINUOUS
 10
18.2624269088
 20
2.4266074116
 40
0.0132462337
100
AcDbArc
 50
331.1510006998
 51
1.205404301
  0
ARC
  5
260
100
AcDbEntity
  8
0
100
AcDbCircle
 62
2
  6
CONTINUOUS
 10
18.2514162524
 20
2.4332859993
 40
0.0261183659
100
AcDbArc
 50
305.6373831893
 51
329.9727629745
  0
ARC
  5
261
100
AcDbEntity
  8
0
100
AcDbCircle
 62
2
  6
CONTINUOUS
 10
18.2210843148
 20
2.4764928489
 40
0.0789082104
100
AcDbArc
 50
292.906155071
 51
305.2574666259
  0
ARC
  5
262
100
AcDbEntity
  8
0
100
AcDbCircle
 62
2
  6
CONTINUOUS
 10
18.1973831488
 20
2.2998387438
 40
0.117346916
100
AcDbArc
 50
58.614769177
 51
62.3737227606
  0
ARC
  5
263
100
AcDbEntity
  8
0
100
AcDbCircle
 62
2
  6
CONTINUOUS
 10
18.2452661015
 20
2.377966004
 40
0.0257145923
100
AcDbArc
 50
39.3804255939
 51
59.0361096173
  0
ARC
  5
264
100
AcDbEntity
  8
0
100
AcDbCircle
 62
2
  6
CONTINUOUS
 10
18.244145746
 20
2.3778929208
 40
0.0266349791
100
AcDbArc
 50
20.3630922153
 51
37.9727053099
  0
ARC
  5
265
100
AcDbEntity
  8
0
100
AcDbCircle
 62
2
  6
CONTINUOUS
 10
18.2262452042
 20
2.3707115124
 40
0.0459185159
100
AcDbArc
 50
15.6740290068
 51
20.9917271228
  0
ARC
  5
266
100
AcDbEntity
  8
0
100
AcDbCircle
 62
2
  6
CONTINUOUS
 10
18.2848155393
 20
2.3863544954
 40
0.0147197649
100
AcDbArc
 50
192.7054516566
 51
206.0594861022
  0
ARC
  5
267
100
AcDbEntity
  8
0
100
AcDbCircle
 62
2
  6
CONTINUOUS
 10
18.2763212023
 20
2.3821460089
 40
0.0052403997
100
AcDbArc
 50
205.5232099488
 51
227.5054868079
  0
ARC
  5
268
100
AcDbEntity
  8
0
100
AcDbCircle
 62
2
  6
CONTINUOUS
 10
18.274592903
 20
2.3803306362
 40
0.0027347709
100
AcDbArc
 50
228.5117626737
 51
266.1485845754
  0
LINE
  5
269
100
AcDbEntity
  8
0
100
AcDbLine
 62
2
  6
CONTINUOUS
 10
18.2744092104
 20
2.3776020416
 11
18.275518211
 21
2.3776020416
  0
ARC
  5
26A
100
AcDbEntity
  8
0
100
AcDbCircle
 62
2
  6
CONTINUOUS
 10
18.2754566564
 20
2.3908507008
 40
0.0132488022
100
AcDbArc
 50
270.266200055
 51
281.2404888597
  0
ARC
  5
26B
100
AcDbEntity
  8
0
100
AcDbCircle
 62
2
  6
CONTINUOUS
 10
18.2766508974
 20
2.3851140072
 40
0.0073895522
100
AcDbArc
 50
280.8288201977
 51
305.0837508495
  0
ARC
  5
26C
100
AcDbEntity
  8
0
100
AcDbCircle
 62
2
  6
CONTINUOUS
 10
18.2770520791
 20
2.3842631608
 40
0.0064647042
100
AcDbArc
 50
306.5086174083
 51
340.2162360092
  0
ARC
  5
26D
100
AcDbEntity
  8
0
100
AcDbCircle
 62
2
  6
CONTINUOUS
 10
18.2718509025
 20
2.3860072224
 40
0.0119498009
100
AcDbArc
 50
340.7883861657
 51
1.1691452593
  0
LINE
  5
26E
100
AcDbEntity
  8
0
100
AcDbLine
 62
2
  6
CONTINUOUS
 10
18.2837982156
 20
2.3862510464
 11
18.2837982156
 21
2.3888770478
  0
ARC
  5
26F
100
AcDbEntity
  8
0
100
AcDbCircle
 62
2
  6
CONTINUOUS
 10
18.2862732151
 20
2.3888770497
 40
0.0024749995
100
AcDbArc
 50
89.9999571957
 51
180.0000428043
  0
LINE
  5
270
100
AcDbEntity
  8
0
100
AcDbLine
 62
2
  6
CONTINUOUS
 10
18.286273217
 20
2.3913520492
 11
18.2983832237
 21
2.3913520492
  0
ARC
  5
271
100
AcDbEntity
  8
0
100
AcDbCircle
 62
2
  6
CONTINUOUS
 10
18.2983832256
 20
2.3888770497
 40
0.0024749995
100
AcDbArc
 50
359.9999571957
 51
90.0000428043
  0
LINE
  5
272
100
AcDbEntity
  8
0
100
AcDbLine
 62
2
  6
CONTINUOUS
 10
18.3008582251
 20
2.3888770478
 11
18.3008582251
 21
2.3773250414
  0
ARC
  5
273
100
AcDbEntity
  8
0
100
AcDbCircle
 62
2
  6
CONTINUOUS
 10
18.2833025285
 20
2.3774293591
 40
0.0175560065
100
AcDbArc
 50
332.2279060967
 51
359.6595469939
  0
ARC
  5
274
100
AcDbEntity
  8
0
100
AcDbCircle
 62
2
  6
CONTINUOUS
 10
18.2739955177
 20
2.3823238645
 40
0.0280715479
100
AcDbArc
 50
308.5071794988
 51
332.2400656899
  0
ARC
  5
275
100
AcDbEntity
  8
0
100
AcDbCircle
 62
2
  6
CONTINUOUS
 10
18.2670033323
 20
2.3899250823
 40
0.0383802683
100
AcDbArc
 50
288.7656836787
 51
309.6104317088
  0
ARC
  5
276
100
AcDbEntity
  8
0
100
AcDbCircle
 62
2
  6
CONTINUOUS
 10
18.2727412998
 20
2.372338333
 40
0.0198837666
100
AcDbArc
 50
271.8586572978
 51
289.4131338543
  0
LINE
  5
277
100
AcDbEntity
  8
0
100
AcDbLine
 62
2
  6
CONTINUOUS
 10
18.2733862098
 20
2.3524650276
 11
18.2260221836
 21
2.3524650276
  0
ARC
  5
278
100
AcDbEntity
  8
0
100
AcDbCircle
 62
2
  6
CONTINUOUS
 10
18.2268275043
 20
2.3697871793
 40
0.0173408616
100
AcDbArc
 50
232.4713476722
 51
267.338189944
  0
ARC
  5
279
100
AcDbEntity
  8
0
100
AcDbCircle
 62
2
  6
CONTINUOUS
 10
18.2299260692
 20
2.3756374832
 40
0.0238935861
100
AcDbArc
 50
209.8247607259
 51
235.1255079367
  0
ARC
  5
27A
100
AcDbEntity
  8
0
100
AcDbCircle
 62
2
  6
CONTINUOUS
 10
18.1986405119
 20
2.4241492153
 40
0.0110815393
100
AcDbArc
 50
306.758405961
 51
320.4502234234
  0
ARC
  5
27B
100
AcDbEntity
  8
0
100
AcDbCircle
 62
2
  6
CONTINUOUS
 10
18.1930113209
 20
2.4318900438
 40
0.0206523367
100
AcDbArc
 50
289.6883413472
 51
306.4184925496
  0
ARC
  5
27C
100
AcDbEntity
  8
0
100
AcDbCircle
 62
2
  6
CONTINUOUS
 10
18.1910838152
 20
2.4362836911
 40
0.0254407115
100
AcDbArc
 50
270.7327484175
 51
290.441894219
  0
LINE
  5
27D
100
AcDbEntity
  8
0
100
AcDbLine
 62
2
  6
CONTINUOUS
 10
18.1914091644
 20
2.41084506
 11
18.1574721456
 21
2.41084506
  0
ARC
  5
27E
100
AcDbEntity
  8
0
100
AcDbCircle
 62
2
  6
CONTINUOUS
 10
18.1574721437
 20
2.4133200595
 40
0.0024749995
100
AcDbArc
 50
179.9999571957
 51
270.0000428043
  0
LINE
  5
27F
100
AcDbEntity
  8
0
100
AcDbLine
 62
2
  6
CONTINUOUS
 10
18.1549971442
 20
2.4133200614
 11
18.1549971442
 21
2.4260450684
  0
ARC
  5
280
100
AcDbEntity
  8
0
100
AcDbCircle
 62
2
  6
CONTINUOUS
 10
18.1574721437
 20
2.4260450703
 40
0.0024749995
100
AcDbArc
 50
89.9999571957
 51
180.0000428043
  0
LINE
  5
281
100
AcDbEntity
  8
0
100
AcDbLine
 62
2
  6
CONTINUOUS
 10
18.1574721456
 20
2.4285200698
 11
18.194273166
 21
2.4285200698
  0
ARC
  5
282
100
AcDbEntity
  8
0
100
AcDbCircle
 62
2
  6
CONTINUOUS
 10
18.1927282785
 20
2.4000655908
 40
0.0284963867
100
AcDbArc
 50
70.3834917948
 51
86.8922743861
  0
ARC
  5
283
100
AcDbEntity
  8
0
100
AcDbCircle
 62
2
  6
CONTINUOUS
 10
18.1975878885
 20
2.4131073238
 40
0.0145814632
100
AcDbArc
 50
54.6746025112
 51
71.1660573124
  0
ARC
  5
284
100
AcDbEntity
  8
0
100
AcDbCircle
 62
2
  6
CONTINUOUS
 10
18.2027173795
 20
2.419961249
 40
0.0060275915
100
AcDbArc
 50
20.9055592135
 51
56.7851676243
  0
ARC
  5
285
100
AcDbEntity
  8
0
100
AcDbCircle
 62
2
  6
CONTINUOUS
 10
18.2040179384
 20
2.4206215312
 40
0.0045795888
100
AcDbArc
 50
355.6235353944
 51
18.9942678268
  0
ARC
  5
286
100
AcDbEntity
  8
0
100
AcDbCircle
 62
2
  6
CONTINUOUS
 10
18.202811128
 20
2.4209153074
 40
0.0058087709
100
AcDbArc
 50
318.8515287446
 51
353.6422345323
  0
LINE
  5
287
100
AcDbEntity
  8
0
100
AcDbLine
 62
2
  6
CONTINUOUS
 10
17.341467693
 20
2.4532700835
 11
17.4419257488
 21
2.4532700835
  0
ARC
  5
288
100
AcDbEntity
  8
0
100
AcDbCircle
 62
2
  6
CONTINUOUS
 10
17.4419258835
 20
2.4507959157
 40
0.0024741678
100
AcDbArc
 50
46.3477981898
 51
90.0031206038
  0
LINE
  5
289
100
AcDbEntity
  8
0
100
AcDbLine
 62
2
  6
CONTINUOUS
 10
17.4436337497
 20
2.4525860832
 11
17.503666783
 21
2.3953060514
  0
ARC
  5
28A
100
AcDbEntity
  8
0
100
AcDbCircle
 62
2
  6
CONTINUOUS
 10
17.5053754839
 20
2.3970969891
 40
0.0024753014
100
AcDbArc
 50
226.3461263059
 51
0.0014637322
  0
LINE
  5
28B
100
AcDbEntity
  8
0
100
AcDbLine
 62
2
  6
CONTINUOUS
 10
17.5078507853
 20
2.3970970524
 11
17.5078507853
 21
2.4260450684
  0
ARC
  5
28C
100
AcDbEntity
  8
0
100
AcDbCircle
 62
2
  6
CONTINUOUS
 10
17.5053757858
 20
2.4260450703
 40
0.0024749995
100
AcDbArc
 50
359.9999571957
 51
90.0000428043
  0
LINE
  5
28D
100
AcDbEntity
  8
0
100
AcDbLine
 62
2
  6
CONTINUOUS
 10
17.5053757839
 20
2.4285200698
 11
17.4865997735
 21
2.4285200698
  0
ARC
  5
28E
100
AcDbEntity
  8
0
100
AcDbCircle
 62
2
  6
CONTINUOUS
 10
17.4865997717
 20
2.4309950693
 40
0.0024749995
100
AcDbArc
 50
179.9999571957
 51
270.0000428043
  0
LINE
  5
28F
100
AcDbEntity
  8
0
100
AcDbLine
 62
2
  6
CONTINUOUS
 10
17.4841247722
 20
2.4309950712
 11
17.4841247722
 21
2.4507950822
  0
ARC
  5
290
100
AcDbEntity
  8
0
100
AcDbCircle
 62
2
  6
CONTINUOUS
 10
17.4865997717
 20
2.450795084
 40
0.0024749995
100
AcDbArc
 50
89.9999571957
 51
180.0000428043
  0
LINE
  5
291
100
AcDbEntity
  8
0
100
AcDbLine
 62
2
  6
CONTINUOUS
 10
17.4865997735
 20
2.4532700835
 11
17.5606008146
 21
2.4532700835
  0
ARC
  5
292
100
AcDbEntity
  8
0
100
AcDbCircle
 62
2
  6
CONTINUOUS
 10
17.5606008164
 20
2.450795084
 40
0.0024749995
100
AcDbArc
 50
359.9999571957
 51
90.0000428043
  0
LINE
  5
293
100
AcDbEntity
  8
0
100
AcDbLine
 62
2
  6
CONTINUOUS
 10
17.5630758159
 20
2.4507950822
 11
17.5630758159
 21
2.4309950712
  0
ARC
  5
294
100
AcDbEntity
  8
0
100
AcDbCircle
 62
2
  6
CONTINUOUS
 10
17.5606008164
 20
2.4309950693
 40
0.0024749995
100
AcDbArc
 50
269.9999571957
 51
0.0000428043
  0
LINE
  5
295
100
AcDbEntity
  8
0
100
AcDbLine
 62
2
  6
CONTINUOUS
 10
17.5606008146
 20
2.4285200698
 11
17.5426678046
 21
2.4285200698
  0
ARC
  5
296
100
AcDbEntity
  8
0
100
AcDbCircle
 62
2
  6
CONTINUOUS
 10
17.5426678028
 20
2.4260450703
 40
0.0024749995
100
AcDbArc
 50
89.9999571957
 51
180.0000428043
  0
LINE
  5
297
100
AcDbEntity
  8
0
100
AcDbLine
 62
2
  6
CONTINUOUS
 10
17.5401928032
 20
2.4260450684
 11
17.5401928032
 21
2.354940029
  0
ARC
  5
298
100
AcDbEntity
  8
0
100
AcDbCircle
 62
2
  6
CONTINUOUS
 10
17.5377178037
 20
2.3549400272
 40
0.0024749995
100
AcDbArc
 50
269.9999571957
 51
0.0000428043
  0
LINE
  5
299
100
AcDbEntity
  8
0
100
AcDbLine
 62
2
  6
CONTINUOUS
 10
17.5377178019
 20
2.3524650276
 11
17.4635127607
 21
2.3524650276
  0
ARC
  5
29A
100
AcDbEntity
  8
0
100
AcDbCircle
 62
2
  6
CONTINUOUS
 10
17.463512126
 20
2.3549404438
 40
0.0024754162
100
AcDbArc
 50
226.3593695813
 51
270.0146919953
  0
LINE
  5
29B
100
AcDbEntity
  8
0
100
AcDbLine
 62
2
  6
CONTINUOUS
 10
17.4618037598
 20
2.353149028
 11
17.3985237247
 21
2.4135270615
  0
ARC
  5
29C
100
AcDbEntity
  8
0
100
AcDbCircle
 62
2
  6
CONTINUOUS
 10
17.3968150237
 20
2.4117361237
 40
0.0024753014
100
AcDbArc
 50
46.3461263059
 51
180.0014637321
  0
LINE
  5
29D
100
AcDbEntity
  8
0
100
AcDbLine
 62
2
  6
CONTINUOUS
 10
17.3943397224
 20
2.4117360605
 11
17.3943397224
 21
2.3796900427
  0
ARC
  5
29E
100
AcDbEntity
  8
0
100
AcDbCircle
 62
2
  6
CONTINUOUS
 10
17.3968147219
 20
2.3796900409
 40
0.0024749995
100
AcDbArc
 50
179.9999571957
 51
270.0000428043
  0
LINE
  5
29F
100
AcDbEntity
  8
0
100
AcDbLine
 62
2
  6
CONTINUOUS
 10
17.3968147237
 20
2.3772150414
 11
17.417131735
 21
2.3772150414
  0
ARC
  5
2A0
100
AcDbEntity
  8
0
100
AcDbCircle
 62
2
  6
CONTINUOUS
 10
17.4171317369
 20
2.3747400418
 40
0.0024749995
100
AcDbArc
 50
359.9999571957
 51
90.0000428043
  0
LINE
  5
2A1
100
AcDbEntity
  8
0
100
AcDbLine
 62
2
  6
CONTINUOUS
 10
17.4196067364
 20
2.37474004
 11
17.4196067364
 21
2.354940029
  0
ARC
  5
2A2
100
AcDbEntity
  8
0
100
AcDbCircle
 62
2
  6
CONTINUOUS
 10
17.4171317369
 20
2.3549400272
 40
0.0024749995
100
AcDbArc
 50
269.9999571957
 51
0.0000428043
  0
LINE
  5
2A3
100
AcDbEntity
  8
0
100
AcDbLine
 62
2
  6
CONTINUOUS
 10
17.417131735
 20
2.3524650276
 11
17.341467693
 21
2.3524650276
  0
ARC
  5
2A4
100
AcDbEntity
  8
0
100
AcDbCircle
 62
2
  6
CONTINUOUS
 10
17.3414676912
 20
2.3549400272
 40
0.0024749995
100
AcDbArc
 50
179.9999571957
 51
270.0000428043
  0
LINE
  5
2A5
100
AcDbEntity
  8
0
100
AcDbLine
 62
2
  6
CONTINUOUS
 10
17.3389926917
 20
2.354940029
 11
17.3389926917
 21
2.37474004
  0
ARC
  5
2A6
100
AcDbEntity
  8
0
100
AcDbCircle
 62
2
  6
CONTINUOUS
 10
17.3414676912
 20
2.3747400418
 40
0.0024749995
100
AcDbArc
 50
89.9999571957
 51
180.0000428043
  0
LINE
  5
2A7
100
AcDbEntity
  8
0
100
AcDbLine
 62
2
  6
CONTINUOUS
 10
17.341467693
 20
2.3772150414
 11
17.3601147034
 21
2.3772150414
  0
ARC
  5
2A8
100
AcDbEntity
  8
0
100
AcDbCircle
 62
2
  6
CONTINUOUS
 10
17.3601147052
 20
2.3796900409
 40
0.0024749995
100
AcDbArc
 50
269.9999571957
 51
0.0000428043
  0
LINE
  5
2A9
100
AcDbEntity
  8
0
100
AcDbLine
 62
2
  6
CONTINUOUS
 10
17.3625897048
 20
2.3796900427
 11
17.3625897048
 21
2.4260450684
  0
ARC
  5
2AA
100
AcDbEntity
  8
0
100
AcDbCircle
 62
2
  6
CONTINUOUS
 10
17.3601147052
 20
2.4260450703
 40
0.0024749995
100
AcDbArc
 50
359.9999571957
 51
90.0000428043
  0
LINE
  5
2AB
100
AcDbEntity
  8
0
100
AcDbLine
 62
2
  6
CONTINUOUS
 10
17.3601147034
 20
2.4285200698
 11
17.341467693
 21
2.4285200698
  0
ARC
  5
2AC
100
AcDbEntity
  8
0
100
AcDbCircle
 62
2
  6
CONTINUOUS
 10
17.3414676912
 20
2.4309950693
 40
0.0024749995
100
AcDbArc
 50
179.9999571957
 51
270.0000428043
  0
LINE
  5
2AD
100
AcDbEntity
  8
0
100
AcDbLine
 62
2
  6
CONTINUOUS
 10
17.3389926917
 20
2.4309950712
 11
17.3389926917
 21
2.4507950822
  0
ARC
  5
2AE
100
AcDbEntity
  8
0
100
AcDbCircle
 62
2
  6
CONTINUOUS
 10
17.3414676912
 20
2.450795084
 40
0.0024749995
100
AcDbArc
 50
89.9999571957
 51
180.0000428043
  0
LINE
  5
2AF
100
AcDbEntity
  8
0
100
AcDbLine
 62
2
  6
CONTINUOUS
 10
17.1937676111
 20
2.4268270689
 11
17.1866506072
 21
2.4156100627
  0
ARC
  5
2B0
100
AcDbEntity
  8
0
100
AcDbCircle
 62
2
  6
CONTINUOUS
 10
17.188740499
 20
2.4142841006
 40
0.0024750401
100
AcDbArc
 50
147.6063258012
 51
270.0025305754
  0
LINE
  5
2B1
100
AcDbEntity
  8
0
100
AcDbLine
 62
2
  6
CONTINUOUS
 10
17.1887406083
 20
2.4118090605
 11
17.2092976197
 21
2.4118090605
  0
ARC
  5
2B2
100
AcDbEntity
  8
0
100
AcDbCircle
 62
2
  6
CONTINUOUS
 10
17.2092975986
 20
2.4142842677
 40
0.0024752071
100
AcDbArc
 50
270.0004896793
 51
32.9089806818
  0
LINE
  5
2B3
100
AcDbEntity
  8
0
100
AcDbLine
 62
2
  6
CONTINUOUS
 10
17.2113756209
 20
2.4156290627
 11
17.2041166169
 21
2.4268450689
  0
ARC
  5
2B4
100
AcDbEntity
  8
0
100
AcDbCircle
 62
2
  6
CONTINUOUS
 10
17.2020380761
 20
2.4255006094
 40
0.0024754602
100
AcDbArc
 50
32.8959418573
 51
89.9875097202
  0
LINE
  5
2B5
100
AcDbEntity
  8
0
100
AcDbLine
 62
2
  6
CONTINUOUS
 10
17.2020386157
 20
2.4279760695
 11
17.1958576123
 21
2.4279760695
  0
ARC
  5
2B6
100
AcDbEntity
  8
0
100
AcDbCircle
 62
2
  6
CONTINUOUS
 10
17.195857542
 20
2.4255008692
 40
0.0024752003
100
AcDbArc
 50
89.998372645
 51
147.602165307
  0
LINE
  5
2B7
100
AcDbEntity
  8
0
100
AcDbLine
 62
2
  6
CONTINUOUS
 10
17.2171806241
 20
2.3897280483
 11
17.2228066272
 21
2.3810350435
  0
ARC
  5
2B8
100
AcDbEntity
  8
0
100
AcDbCircle
 62
2
  6
CONTINUOUS
 10
17.2207286049
 20
2.3796902485
 40
0.0024752071
100
AcDbArc
 50
270.0004896793
 51
32.9089806818
  0
LINE
  5
2B9
100
AcDbEntity
  8
0
100
AcDbLine
 62
2
  6
CONTINUOUS
 10
17.2207286261
 20
2.3772150414
 11
17.2062776181
 21
2.3772150414
  0
ARC
  5
2BA
100
AcDbEntity
  8
0
100
AcDbCircle
 62
2
  6
CONTINUOUS
 10
17.2062776162
 20
2.3747400418
 40
0.0024749995
100
AcDbArc
 50
89.9999571957
 51
180.0000428043
  0
LINE
  5
2BB
100
AcDbEntity
  8
0
100
AcDbLine
 62
2
  6
CONTINUOUS
 10
17.2038026167
 20
2.37474004
 11
17.2038026167
 21
2.354940029
  0
ARC
  5
2BC
100
AcDbEntity
  8
0
100
AcDbCircle
 62
2
  6
CONTINUOUS
 10
17.2062776162
 20
2.3549400272
 40
0.0024749995
100
AcDbArc
 50
179.9999571957
 51
270.0000428043
  0
LINE
  5
2BD
100
AcDbEntity
  8
0
100
AcDbLine
 62
2
  6
CONTINUOUS
 10
17.2062776181
 20
2.3524650276
 11
17.3115586765
 21
2.3524650276
  0
ARC
  5
2BE
100
AcDbEntity
  8
0
100
AcDbCircle
 62
2
  6
CONTINUOUS
 10
17.3115586783
 20
2.3549400272
 40
0.0024749995
100
AcDbArc
 50
269.9999571957
 51
0.0000428043
  0
LINE
  5
2BF
100
AcDbEntity
  8
0
100
AcDbLine
 62
2
  6
CONTINUOUS
 10
17.3140336778
 20
2.354940029
 11
17.3140336778
 21
2.37474004
  0
ARC
  5
2C0
100
AcDbEntity
  8
0
100
AcDbCircle
 62
2
  6
CONTINUOUS
 10
17.3115586783
 20
2.3747400418
 40
0.0024749995
100
AcDbArc
 50
359.9999571957
 51
90.0000428043
  0
LINE
  5
2C1
100
AcDbEntity
  8
0
100
AcDbLine
 62
2
  6
CONTINUOUS
 10
17.3115586765
 20
2.3772150414
 11
17.2915426654
 21
2.3772150414
  0
ARC
  5
2C2
100
AcDbEntity
  8
0
100
AcDbCircle
 62
2
  6
CONTINUOUS
 10
17.2915427859
 20
2.3796890824
 40
0.002474041
100
AcDbArc
 50
212.9056413127
 51
269.9972091756
  0
LINE
  5
2C3
100
AcDbEntity
  8
0
100
AcDbLine
 62
2
  6
CONTINUOUS
 10
17.2894656642
 20
2.378345042
 11
17.2417096377
 21
2.4521400829
  0
ARC
  5
2C4
100
AcDbEntity
  8
0
100
AcDbCircle
 62
2
  6
CONTINUOUS
 10
17.2396320161
 20
2.4507951234
 40
0.0024749602
100
AcDbArc
 50
32.9172174468
 51
90.0087853097
  0
LINE
  5
2C5
100
AcDbEntity
  8
0
100
AcDbLine
 62
2
  6
CONTINUOUS
 10
17.2396316366
 20
2.4532700835
 11
17.1824566049
 21
2.4532700835
  0
ARC
  5
2C6
100
AcDbEntity
  8
0
100
AcDbCircle
 62
2
  6
CONTINUOUS
 10
17.1824565346
 20
2.4507948832
 40
0.0024752003
100
AcDbArc
 50
89.998372645
 51
147.602165307
  0
LINE
  5
2C7
100
AcDbEntity
  8
0
100
AcDbLine
 62
2
  6
CONTINUOUS
 10
17.1803666037
 20
2.4521210829
 11
17.1335665777
 21
2.378364042
  0
ARC
  5
2C8
100
AcDbEntity
  8
0
100
AcDbCircle
 62
2
  6
CONTINUOUS
 10
17.1314766469
 20
2.3796902417
 40
0.0024752003
100
AcDbArc
 50
269.998372645
 51
327.602165307
  0
LINE
  5
2C9
100
AcDbEntity
  8
0
100
AcDbLine
 62
2
  6
CONTINUOUS
 10
17.1314765766
 20
2.3772150414
 11
17.1086155639
 21
2.3772150414
  0
ARC
  5
2CA
100
AcDbEntity
  8
0
100
AcDbCircle
 62
2
  6
CONTINUOUS
 10
17.1086155621
 20
2.3747400418
 40
0.0024749995
100
AcDbArc
 50
89.9999571957
 51
180.0000428043
  0
LINE
  5
2CB
100
AcDbEntity
  8
0
100
AcDbLine
 62
2
  6
CONTINUOUS
 10
17.1061405625
 20
2.37474004
 11
17.1061405625
 21
2.354940029
  0
ARC
  5
2CC
100
AcDbEntity
  8
0
100
AcDbCircle
 62
2
  6
CONTINUOUS
 10
17.1086155621
 20
2.3549400272
 40
0.0024749995
100
AcDbArc
 50
179.9999571957
 51
270.0000428043
  0
LINE
  5
2CD
100
AcDbEntity
  8
0
100
AcDbLine
 62
2
  6
CONTINUOUS
 10
17.1086155639
 20
2.3524650276
 11
17.1859916068
 21
2.3524650276
  0
ARC
  5
2CE
100
AcDbEntity
  8
0
100
AcDbCircle
 62
2
  6
CONTINUOUS
 10
17.1859916087
 20
2.3549400272
 40
0.0024749995
100
AcDbArc
 50
269.9999571957
 51
0.0000428043
  0
LINE
  5
2CF
100
AcDbEntity
  8
0
100
AcDbLine
 62
2
  6
CONTINUOUS
 10
17.1884666082
 20
2.354940029
 11
17.1884666082
 21
2.37474004
  0
ARC
  5
2D0
100
AcDbEntity
  8
0
100
AcDbCircle
 62
2
  6
CONTINUOUS
 10
17.1859916087
 20
2.3747400418
 40
0.0024749995
100
AcDbArc
 50
359.9999571957
 51
90.0000428043
  0
LINE
  5
2D1
100
AcDbEntity
  8
0
100
AcDbLine
 62
2
  6
CONTINUOUS
 10
17.1859916068
 20
2.3772150414
 11
17.1747086006
 21
2.3772150414
  0
ARC
  5
2D2
100
AcDbEntity
  8
0
100
AcDbCircle
 62
2
  6
CONTINUOUS
 10
17.1747084912
 20
2.3796900814
 40
0.0024750401
100
AcDbArc
 50
147.6063258011
 51
270.0025305754
  0
LINE
  5
2D3
100
AcDbEntity
  8
0
100
AcDbLine
 62
2
  6
CONTINUOUS
 10
17.1726185994
 20
2.3810160435
 11
17.1781346025
 21
2.3897100483
  0
ARC
  5
2D4
100
AcDbEntity
  8
0
100
AcDbCircle
 62
2
  6
CONTINUOUS
 10
17.1802245333
 20
2.3883838486
 40
0.0024752003
100
AcDbArc
 50
89.998372645
 51
147.602165307
  0
LINE
  5
2D5
100
AcDbEntity
  8
0
100
AcDbLine
 62
2
  6
CONTINUOUS
 10
17.1802246036
 20
2.3908590489
 11
17.215102623
 21
2.3908590489
  0
ARC
  5
2D6
100
AcDbEntity
  8
0
100
AcDbCircle
 62
2
  6
CONTINUOUS
 10
17.2151020833
 20
2.3883835888
 40
0.0024754602
100
AcDbArc
 50
32.8959418573
 51
89.9875097202
  0
LINE
  5
2D7
100
AcDbEntity
  8
0
100
AcDbLine
 62
2
  6
CONTINUOUS
 10
17.5897208307
 20
2.4532700835
 11
17.6901788864
 21
2.4532700835
  0
ARC
  5
2D8
100
AcDbEntity
  8
0
100
AcDbCircle
 62
2
  6
CONTINUOUS
 10
17.6901790212
 20
2.4507959157
 40
0.0024741678
100
AcDbArc
 50
46.3477981899
 51
90.0031206038
  0
LINE
  5
2D9
100
AcDbEntity
  8
0
100
AcDbLine
 62
2
  6
CONTINUOUS
 10
17.6918868874
 20
2.4525860832
 11
17.7519199207
 21
2.3953060514
  0
ARC
  5
2DA
100
AcDbEntity
  8
0
100
AcDbCircle
 62
2
  6
CONTINUOUS
 10
17.7536286216
 20
2.3970969891
 40
0.0024753014
100
AcDbArc
 50
226.3461263059
 51
0.0014637321
  0
LINE
  5
2DB
100
AcDbEntity
  8
0
100
AcDbLine
 62
2
  6
CONTINUOUS
 10
17.756103923
 20
2.3970970524
 11
17.756103923
 21
2.4260450684
  0
ARC
  5
2DC
100
AcDbEntity
  8
0
100
AcDbCircle
 62
2
  6
CONTINUOUS
 10
17.7536289235
 20
2.4260450703
 40
0.0024749995
100
AcDbArc
 50
359.9999571957
 51
90.0000428043
  0
LINE
  5
2DD
100
AcDbEntity
  8
0
100
AcDbLine
 62
2
  6
CONTINUOUS
 10
17.7536289216
 20
2.4285200698
 11
17.7348529112
 21
2.4285200698
  0
ARC
  5
2DE
100
AcDbEntity
  8
0
100
AcDbCircle
 62
2
  6
CONTINUOUS
 10
17.7348529093
 20
2.4309950693
 40
0.0024749995
100
AcDbArc
 50
179.9999571957
 51
270.0000428043
  0
LINE
  5
2DF
100
AcDbEntity
  8
0
100
AcDbLine
 62
2
  6
CONTINUOUS
 10
17.7323779098
 20
2.4309950712
 11
17.7323779098
 21
2.4507950822
  0
ARC
  5
2E0
100
AcDbEntity
  8
0
100
AcDbCircle
 62
2
  6
CONTINUOUS
 10
17.7348529093
 20
2.450795084
 40
0.0024749995
100
AcDbArc
 50
89.9999571957
 51
180.0000428043
  0
LINE
  5
2E1
100
AcDbEntity
  8
0
100
AcDbLine
 62
2
  6
CONTINUOUS
 10
17.7348529112
 20
2.4532700835
 11
17.8088539522
 21
2.4532700835
  0
ARC
  5
2E2
100
AcDbEntity
  8
0
100
AcDbCircle
 62
2
  6
CONTINUOUS
 10
17.8088539541
 20
2.450795084
 40
0.0024749995
100
AcDbArc
 50
359.9999571957
 51
90.0000428043
  0
LINE
  5
2E3
100
AcDbEntity
  8
0
100
AcDbLine
 62
2
  6
CONTINUOUS
 10
17.8113289536
 20
2.4507950822
 11
17.8113289536
 21
2.4309950712
  0
ARC
  5
2E4
100
AcDbEntity
  8
0
100
AcDbCircle
 62
2
  6
CONTINUOUS
 10
17.8088539541
 20
2.4309950693
 40
0.0024749995
100
AcDbArc
 50
269.9999571957
 51
0.0000428043
  0
LINE
  5
2E5
100
AcDbEntity
  8
0
100
AcDbLine
 62
2
  6
CONTINUOUS
 10
17.8088539522
 20
2.4285200698
 11
17.7909209423
 21
2.4285200698
  0
ARC
  5
2E6
100
AcDbEntity
  8
0
100
AcDbCircle
 62
2
  6
CONTINUOUS
 10
17.7909209404
 20
2.4260450703
 40
0.0024749995
100
AcDbArc
 50
89.9999571957
 51
180.0000428043
  0
LINE
  5
2E7
100
AcDbEntity
  8
0
100
AcDbLine
 62
2
  6
CONTINUOUS
 10
17.7884459409
 20
2.4260450684
 11
17.7884459409
 21
2.354940029
  0
ARC
  5
2E8
100
AcDbEntity
  8
0
100
AcDbCircle
 62
2
  6
CONTINUOUS
 10
17.7859709414
 20
2.3549400272
 40
0.0024749995
100
AcDbArc
 50
269.9999571957
 51
0.0000428043
  0
LINE
  5
2E9
100
AcDbEntity
  8
0
100
AcDbLine
 62
2
  6
CONTINUOUS
 10
17.7859709395
 20
2.3524650276
 11
17.7117648984
 21
2.3524650276
  0
ARC
  5
2EA
100
AcDbEntity
  8
0
100
AcDbCircle
 62
2
  6
CONTINUOUS
 10
17.7117647636
 20
2.3549391954
 40
0.0024741678
100
AcDbArc
 50
226.3477981898
 51
270.0031206038
  0
LINE
  5
2EB
100
AcDbEntity
  8
0
100
AcDbLine
 62
2
  6
CONTINUOUS
 10
17.7100568974
 20
2.353149028
 11
17.6467768624
 21
2.4135270615
  0
ARC
  5
2EC
100
AcDbEntity
  8
0
100
AcDbCircle
 62
2
  6
CONTINUOUS
 10
17.6450681614
 20
2.4117361237
 40
0.0024753014
100
AcDbArc
 50
46.3461263059
 51
180.0014637321
  0
LINE
  5
2ED
100
AcDbEntity
  8
0
100
AcDbLine
 62
2
  6
CONTINUOUS
 10
17.64259286
 20
2.4117360605
 11
17.64259286
 21
2.3796900427
  0
ARC
  5
2EE
100
AcDbEntity
  8
0
100
AcDbCircle
 62
2
  6
CONTINUOUS
 10
17.6450678596
 20
2.3796900409
 40
0.0024749995
100
AcDbArc
 50
179.9999571957
 51
270.0000428043
  0
LINE
  5
2EF
100
AcDbEntity
  8
0
100
AcDbLine
 62
2
  6
CONTINUOUS
 10
17.6450678614
 20
2.3772150414
 11
17.6653848727
 21
2.3772150414
  0
ARC
  5
2F0
100
AcDbEntity
  8
0
100
AcDbCircle
 62
2
  6
CONTINUOUS
 10
17.6653848745
 20
2.3747400418
 40
0.0024749995
100
AcDbArc
 50
359.9999571957
 51
90.0000428043
  0
LINE
  5
2F1
100
AcDbEntity
  8
0
100
AcDbLine
 62
2
  6
CONTINUOUS
 10
17.667859874
 20
2.37474004
 11
17.667859874
 21
2.354940029
  0
ARC
  5
2F2
100
AcDbEntity
  8
0
100
AcDbCircle
 62
2
  6
CONTINUOUS
 10
17.6653848745
 20
2.3549400272
 40
0.0024749995
100
AcDbArc
 50
269.9999571957
 51
0.0000428043
  0
LINE
  5
2F3
100
AcDbEntity
  8
0
100
AcDbLine
 62
2
  6
CONTINUOUS
 10
17.6653848727
 20
2.3524650276
 11
17.5897208307
 21
2.3524650276
  0
ARC
  5
2F4
100
AcDbEntity
  8
0
100
AcDbCircle
 62
2
  6
CONTINUOUS
 10
17.5897208289
 20
2.3549400272
 40
0.0024749995
100
AcDbArc
 50
179.9999571957
 51
270.0000428043
  0
LINE
  5
2F5
100
AcDbEntity
  8
0
100
AcDbLine
 62
2
  6
CONTINUOUS
 10
17.5872458293
 20
2.354940029
 11
17.5872458293
 21
2.37474004
  0
ARC
  5
2F6
100
AcDbEntity
  8
0
100
AcDbCircle
 62
2
  6
CONTINUOUS
 10
17.5897208289
 20
2.3747400418
 40
0.0024749995
100
AcDbArc
 50
89.9999571957
 51
180.0000428043
  0
LINE
  5
2F7
100
AcDbEntity
  8
0
100
AcDbLine
 62
2
  6
CONTINUOUS
 10
17.5897208307
 20
2.3772150414
 11
17.6083668411
 21
2.3772150414
  0
ARC
  5
2F8
100
AcDbEntity
  8
0
100
AcDbCircle
 62
2
  6
CONTINUOUS
 10
17.6083668429
 20
2.3796900409
 40
0.0024749995
100
AcDbArc
 50
269.9999571957
 51
0.0000428043
  0
LINE
  5
2F9
100
AcDbEntity
  8
0
100
AcDbLine
 62
2
  6
CONTINUOUS
 10
17.6108418424
 20
2.3796900427
 11
17.6108418424
 21
2.4260450684
  0
ARC
  5
2FA
100
AcDbEntity
  8
0
100
AcDbCircle
 62
2
  6
CONTINUOUS
 10
17.6083668429
 20
2.4260450703
 40
0.0024749995
100
AcDbArc
 50
359.9999571957
 51
90.0000428043
  0
LINE
  5
2FB
100
AcDbEntity
  8
0
100
AcDbLine
 62
2
  6
CONTINUOUS
 10
17.6083668411
 20
2.4285200698
 11
17.5897208307
 21
2.4285200698
  0
ARC
  5
2FC
100
AcDbEntity
  8
0
100
AcDbCircle
 62
2
  6
CONTINUOUS
 10
17.5897208289
 20
2.4309950693
 40
0.0024749995
100
AcDbArc
 50
179.9999571957
 51
270.0000428043
  0
LINE
  5
2FD
100
AcDbEntity
  8
0
100
AcDbLine
 62
2
  6
CONTINUOUS
 10
17.5872458293
 20
2.4309950712
 11
17.5872458293
 21
2.4507950822
  0
ARC
  5
2FE
100
AcDbEntity
  8
0
100
AcDbCircle
 62
2
  6
CONTINUOUS
 10
17.5897208289
 20
2.450795084
 40
0.0024749995
100
AcDbArc
 50
89.9999571957
 51
180.0000428043
  0
LINE
  5
2FF
100
AcDbEntity
  8
0
100
AcDbLine
 62
2
  6
CONTINUOUS
 10
17.9625500375
 20
2.3937150505
 11
17.927383018
 21
2.3937150505
  0
ARC
  5
300
100
AcDbEntity
  8
0
100
AcDbCircle
 62
2
  6
CONTINUOUS
 10
17.9273830161
 20
2.391240051
 40
0.0024749995
100
AcDbArc
 50
89.9999571957
 51
180.0000428043
  0
LINE
  5
301
100
AcDbEntity
  8
0
100
AcDbLine
 62
2
  6
CONTINUOUS
 10
17.9249080166
 20
2.3912400491
 11
17.9249080166
 21
2.3796900427
  0
ARC
  5
302
100
AcDbEntity
  8
0
100
AcDbCircle
 62
2
  6
CONTINUOUS
 10
17.9273830161
 20
2.3796900409
 40
0.0024749995
100
AcDbArc
 50
179.9999571957
 51
270.0000428043
  0
LINE
  5
303
100
AcDbEntity
  8
0
100
AcDbLine
 62
2
  6
CONTINUOUS
 10
17.927383018
 20
2.3772150414
 11
17.992387054
 21
2.3772150414
  0
ARC
  5
304
100
AcDbEntity
  8
0
100
AcDbCircle
 62
2
  6
CONTINUOUS
 10
17.9923870559
 20
2.3796900409
 40
0.0024749995
100
AcDbArc
 50
269.9999571957
 51
0.0000428043
  0
LINE
  5
305
100
AcDbEntity
  8
0
100
AcDbLine
 62
2
  6
CONTINUOUS
 10
17.9948620554
 20
2.3796900427
 11
17.9948620554
 21
2.3879400473
  0
ARC
  5
306
100
AcDbEntity
  8
0
100
AcDbCircle
 62
2
  6
CONTINUOUS
 10
17.9973370549
 20
2.3879400492
 40
0.0024749995
100
AcDbArc
 50
89.9999571957
 51
180.0000428043
  0
LINE
  5
307
100
AcDbEntity
  8
0
100
AcDbLine
 62
2
  6
CONTINUOUS
 10
17.9973370568
 20
2.3904150487
 11
18.0396560802
 21
2.3904150487
  0
ARC
  5
308
100
AcDbEntity
  8
0
100
AcDbCircle
 62
2
  6
CONTINUOUS
 10
18.0396560821
 20
2.3879400492
 40
0.0024749995
100
AcDbArc
 50
359.9999571957
 51
90.0000428043
  0
LINE
  5
309
100
AcDbEntity
  8
0
100
AcDbLine
 62
2
  6
CONTINUOUS
 10
18.0421310816
 20
2.3879400473
 11
18.0421310816
 21
2.354940029
  0
ARC
  5
30A
100
AcDbEntity
  8
0
100
AcDbCircle
 62
2
  6
CONTINUOUS
 10
18.0396560821
 20
2.3549400272
 40
0.0024749995
100
AcDbArc
 50
269.9999571957
 51
0.0000428043
  0
LINE
  5
30B
100
AcDbEntity
  8
0
100
AcDbLine
 62
2
  6
CONTINUOUS
 10
18.0396560802
 20
2.3524650276
 11
17.8364439675
 21
2.3524650276
  0
ARC
  5
30C
100
AcDbEntity
  8
0
100
AcDbCircle
 62
2
  6
CONTINUOUS
 10
17.8364439657
 20
2.3549400272
 40
0.0024749995
100
AcDbArc
 50
179.9999571957
 51
270.0000428043
  0
LINE
  5
30D
100
AcDbEntity
  8
0
100
AcDbLine
 62
2
  6
CONTINUOUS
 10
17.8339689662
 20
2.354940029
 11
17.8339689662
 21
2.37474004
  0
ARC
  5
30E
100
AcDbEntity
  8
0
100
AcDbCircle
 62
2
  6
CONTINUOUS
 10
17.8364439657
 20
2.3747400418
 40
0.0024749995
100
AcDbArc
 50
89.9999571957
 51
180.0000428043
  0
LINE
  5
30F
100
AcDbEntity
  8
0
100
AcDbLine
 62
2
  6
CONTINUOUS
 10
17.8364439675
 20
2.3772150414
 11
17.8603669808
 21
2.3772150414
  0
ARC
  5
310
100
AcDbEntity
  8
0
100
AcDbCircle
 62
2
  6
CONTINUOUS
 10
17.8603669827
 20
2.3796900409
 40
0.0024749995
100
AcDbArc
 50
269.9999571956
 51
0.0000428042
  0
LINE
  5
311
100
AcDbEntity
  8
0
100
AcDbLine
 62
2
  6
CONTINUOUS
 10
17.8628419822
 20
2.3796900427
 11
17.8628419822
 21
2.4260450684
  0
ARC
  5
312
100
AcDbEntity
  8
0
100
AcDbCircle
 62
2
  6
CONTINUOUS
 10
17.8603669827
 20
2.4260450703
 40
0.0024749995
100
AcDbArc
 50
359.9999571957
 51
90.0000428043
  0
LINE
  5
313
100
AcDbEntity
  8
0
100
AcDbLine
 62
2
  6
CONTINUOUS
 10
17.8603669808
 20
2.4285200698
 11
17.8364439675
 21
2.4285200698
  0
ARC
  5
314
100
AcDbEntity
  8
0
100
AcDbCircle
 62
2
  6
CONTINUOUS
 10
17.8364439657
 20
2.4309950693
 40
0.0024749995
100
AcDbArc
 50
179.9999571957
 51
270.0000428043
  0
LINE
  5
315
100
AcDbEntity
  8
0
100
AcDbLine
 62
2
  6
CONTINUOUS
 10
17.8339689662
 20
2.4309950712
 11
17.8339689662
 21
2.4507950822
  0
ARC
  5
316
100
AcDbEntity
  8
0
100
AcDbCircle
 62
2
  6
CONTINUOUS
 10
17.8364439657
 20
2.450795084
 40
0.0024749995
100
AcDbArc
 50
89.9999571957
 51
180.0000428043
  0
LINE
  5
317
100
AcDbEntity
  8
0
100
AcDbLine
 62
2
  6
CONTINUOUS
 10
17.8364439675
 20
2.4532700835
 11
18.0382370794
 21
2.4532700835
  0
ARC
  5
318
100
AcDbEntity
  8
0
100
AcDbCircle
 62
2
  6
CONTINUOUS
 10
18.0382370813
 20
2.450795084
 40
0.0024749995
100
AcDbArc
 50
359.9999571957
 51
90.0000428043
  0
LINE
  5
319
100
AcDbEntity
  8
0
100
AcDbLine
 62
2
  6
CONTINUOUS
 10
18.0407120808
 20
2.4507950822
 11
18.0407120808
 21
2.4177950639
  0
ARC
  5
31A
100
AcDbEntity
  8
0
100
AcDbCircle
 62
2
  6
CONTINUOUS
 10
18.0382370813
 20
2.417795062
 40
0.0024749995
100
AcDbArc
 50
269.9999571957
 51
0.0000428043
  0
LINE
  5
31B
100
AcDbEntity
  8
0
100
AcDbLine
 62
2
  6
CONTINUOUS
 10
18.0382370794
 20
2.4153200625
 11
17.9963730562
 21
2.4153200625
  0
ARC
  5
31C
100
AcDbEntity
  8
0
100
AcDbCircle
 62
2
  6
CONTINUOUS
 10
17.9963730544
 20
2.417795062
 40
0.0024749995
100
AcDbArc
 50
179.9999571957
 51
270.0000428043
  0
LINE
  5
31D
100
AcDbEntity
  8
0
100
AcDbLine
 62
2
  6
CONTINUOUS
 10
17.9938980549
 20
2.4177950639
 11
17.9938980549
 21
2.4260450684
  0
ARC
  5
31E
100
AcDbEntity
  8
0
100
AcDbCircle
 62
2
  6
CONTINUOUS
 10
17.9914230553
 20
2.4260450703
 40
0.0024749995
100
AcDbArc
 50
359.9999571957
 51
90.0000428043
  0
LINE
  5
31F
100
AcDbEntity
  8
0
100
AcDbLine
 62
2
  6
CONTINUOUS
 10
17.9914230535
 20
2.4285200698
 11
17.927383018
 21
2.4285200698
  0
ARC
  5
320
100
AcDbEntity
  8
0
100
AcDbCircle
 62
2
  6
CONTINUOUS
 10
17.9273830161
 20
2.4260450703
 40
0.0024749995
100
AcDbArc
 50
89.9999571957
 51
180.0000428043
  0
LINE
  5
321
100
AcDbEntity
  8
0
100
AcDbLine
 62
2
  6
CONTINUOUS
 10
17.9249080166
 20
2.4260450684
 11
17.9249080166
 21
2.414495062
  0
ARC
  5
322
100
AcDbEntity
  8
0
100
AcDbCircle
 62
2
  6
CONTINUOUS
 10
17.9273830161
 20
2.4144950602
 40
0.0024749995
100
AcDbArc
 50
179.9999571957
 51
270.0000428043
  0
LINE
  5
323
100
AcDbEntity
  8
0
100
AcDbLine
 62
2
  6
CONTINUOUS
 10
17.927383018
 20
2.4120200607
 11
17.9625500375
 21
2.4120200607
  0
ARC
  5
324
100
AcDbEntity
  8
0
100
AcDbCircle
 62
2
  6
CONTINUOUS
 10
17.9625500393
 20
2.4095450611
 40
0.0024749995
100
AcDbArc
 50
359.9999571957
 51
90.0000428043
  0
LINE
  5
325
100
AcDbEntity
  8
0
100
AcDbLine
 62
2
  6
CONTINUOUS
 10
17.9650250388
 20
2.4095450593
 11
17.9650250388
 21
2.3961900519
  0
ARC
  5
326
100
AcDbEntity
  8
0
100
AcDbCircle
 62
2
  6
CONTINUOUS
 10
17.9625500393
 20
2.39619005
 40
0.0024749995
100
AcDbArc
 50
269.9999571956
 51
0.0000428042
  0
LINE
  5
327
100
AcDbEntity
  8
0
100
AcDbLine
 62
2
  6
CONTINUOUS
 10
18.39781452
 20
2.3963074516
 11
18.39781452
 21
2.4069246582
  0
LINE
  5
328
100
AcDbEntity
  8
0
100
AcDbLine
 62
2
  6
CONTINUOUS
 10
18.3778145089
 20
2.3616679219
 11
18.3778145089
 21
2.4415641879
  0
LINE
  5
329
100
AcDbEntity
  8
0
100
AcDbLine
 62
2
  6
CONTINUOUS
 10
18.3578144978
 20
2.345629656
 11
18.3578144978
 21
2.4576024538
  0
LINE
  5
32A
100
AcDbEntity
  8
0
100
AcDbLine
 62
2
  6
CONTINUOUS
 10
18.3378144867
 20
2.3338395042
 11
18.3378144867
 21
2.4693926055
  0
LINE
  5
32B
100
AcDbEntity
  8
0
100
AcDbLine
 62
2
  6
CONTINUOUS
 10
18.3178144756
 20
2.3240439832
 11
18.3178144756
 21
2.4791881266
  0
LINE
  5
32C
100
AcDbEntity
  8
0
100
AcDbLine
 62
2
  6
CONTINUOUS
 10
18.2978144645
 20
2.3153630651
 11
18.2978144645
 21
2.36748602
  0
LINE
  5
32D
100
AcDbEntity
  8
0
100
AcDbLine
 62
2
  6
CONTINUOUS
 10
18.2978144645
 20
2.3913520492
 11
18.2978144645
 21
2.4878690447
  0
LINE
  5
32E
100
AcDbEntity
  8
0
100
AcDbLine
 62
2
  6
CONTINUOUS
 10
18.2778144535
 20
2.3077915047
 11
18.2778144535
 21
2.3531152062
  0
LINE
  5
32F
100
AcDbEntity
  8
0
100
AcDbLine
 62
2
  6
CONTINUOUS
 10
18.2778144535
 20
2.3778158317
 11
18.2778144535
 21
2.4954406051
  0
LINE
  5
330
100
AcDbEntity
  8
0
100
AcDbLine
 62
2
  6
CONTINUOUS
 10
18.2578144424
 20
2.301041061
 11
18.2578144424
 21
2.3524650276
  0
LINE
  5
331
100
AcDbEntity
  8
0
100
AcDbLine
 62
2
  6
CONTINUOUS
 10
18.2578144424
 20
2.4004217989
 11
18.2578144424
 21
2.4066675471
  0
LINE
  5
332
100
AcDbEntity
  8
0
100
AcDbLine
 62
2
  6
CONTINUOUS
 10
18.2578144424
 20
2.4474440616
 11
18.2578144424
 21
2.5021910487
  0
LINE
  5
333
100
AcDbEntity
  8
0
100
AcDbLine
 62
2
  6
CONTINUOUS
 10
18.2378144313
 20
2.2947079333
 11
18.2378144313
 21
2.3524650276
  0
LINE
  5
334
100
AcDbEntity
  8
0
100
AcDbLine
 62
2
  6
CONTINUOUS
 10
18.2378144313
 20
2.4518964909
 11
18.2378144313
 21
2.5085241764
  0
LINE
  5
335
100
AcDbEntity
  8
0
100
AcDbLine
 62
2
  6
CONTINUOUS
 10
18.2178144202
 20
2.2891345268
 11
18.2178144202
 21
2.354983815
  0
LINE
  5
336
100
AcDbEntity
  8
0
100
AcDbLine
 62
2
  6
CONTINUOUS
 10
18.2178144202
 20
2.4532700835
 11
18.2178144202
 21
2.514097583
  0
LINE
  5
337
100
AcDbEntity
  8
0
100
AcDbLine
 62
2
  6
CONTINUOUS
 10
18.1978144091
 20
2.2837804818
 11
18.1978144091
 21
2.3882804137
  0
LINE
  5
338
100
AcDbEntity
  8
0
100
AcDbLine
 62
2
  6
CONTINUOUS
 10
18.1978144091
 20
2.4117543403
 11
18.1978144091
 21
2.4281034235
  0
LINE
  5
339
100
AcDbEntity
  8
0
100
AcDbLine
 62
2
  6
CONTINUOUS
 10
18.1978144091
 20
2.4532700835
 11
18.1978144091
 21
2.519451628
  0
LINE
  5
33A
100
AcDbEntity
  8
0
100
AcDbLine
 62
2
  6
CONTINUOUS
 10
18.177814398
 20
2.2789683935
 11
18.177814398
 21
2.3524650276
  0
LINE
  5
33B
100
AcDbEntity
  8
0
100
AcDbLine
 62
2
  6
CONTINUOUS
 10
18.177814398
 20
2.3771930413
 11
18.177814398
 21
2.3918420495
  0
LINE
  5
33C
100
AcDbEntity
  8
0
100
AcDbLine
 62
2
  6
CONTINUOUS
 10
18.177814398
 20
2.41084506
 11
18.177814398
 21
2.4285200698
  0
LINE
  5
33D
100
AcDbEntity
  8
0
100
AcDbLine
 62
2
  6
CONTINUOUS
 10
18.177814398
 20
2.4532700835
 11
18.177814398
 21
2.5242637163
  0
LINE
  5
33E
100
AcDbEntity
  8
0
100
AcDbLine
 62
2
  6
CONTINUOUS
 10
18.1578143869
 20
2.2744172398
 11
18.1578143869
 21
2.3524650276
  0
LINE
  5
33F
100
AcDbEntity
  8
0
100
AcDbLine
 62
2
  6
CONTINUOUS
 10
18.1578143869
 20
2.3771930413
 11
18.1578143869
 21
2.3918420495
  0
LINE
  5
340
100
AcDbEntity
  8
0
100
AcDbLine
 62
2
  6
CONTINUOUS
 10
18.1578143869
 20
2.41084506
 11
18.1578143869
 21
2.4285200698
  0
LINE
  5
341
100
AcDbEntity
  8
0
100
AcDbLine
 62
2
  6
CONTINUOUS
 10
18.1578143869
 20
2.4532700835
 11
18.1578143869
 21
2.5288148699
  0
LINE
  5
342
100
AcDbEntity
  8
0
100
AcDbLine
 62
2
  6
CONTINUOUS
 10
18.1378143758
 20
2.2701196816
 11
18.1378143758
 21
2.3524650276
  0
LINE
  5
343
100
AcDbEntity
  8
0
100
AcDbLine
 62
2
  6
CONTINUOUS
 10
18.1378143758
 20
2.4532700835
 11
18.1378143758
 21
2.5331124282
  0
LINE
  5
344
100
AcDbEntity
  8
0
100
AcDbLine
 62
2
  6
CONTINUOUS
 10
18.1178143647
 20
2.2662469216
 11
18.1178143647
 21
2.3524650276
  0
LINE
  5
345
100
AcDbEntity
  8
0
100
AcDbLine
 62
2
  6
CONTINUOUS
 10
18.1178143647
 20
2.4532700835
 11
18.1178143647
 21
2.5369851882
  0
LINE
  5
346
100
AcDbEntity
  8
0
100
AcDbLine
 62
2
  6
CONTINUOUS
 10
18.0978143536
 20
2.2623741615
 11
18.0978143536
 21
2.3524650276
  0
LINE
  5
347
100
AcDbEntity
  8
0
100
AcDbLine
 62
2
  6
CONTINUOUS
 10
18.0978143536
 20
2.4532700835
 11
18.0978143536
 21
2.5408579483
  0
LINE
  5
348
100
AcDbEntity
  8
0
100
AcDbLine
 62
2
  6
CONTINUOUS
 10
18.0778143425
 20
2.2592603806
 11
18.0778143425
 21
2.3524650276
  0
LINE
  5
349
100
AcDbEntity
  8
0
100
AcDbLine
 62
2
  6
CONTINUOUS
 10
18.0778143425
 20
2.3772150414
 11
18.0778143425
 21
2.4285200698
  0
LINE
  5
34A
100
AcDbEntity
  8
0
100
AcDbLine
 62
2
  6
CONTINUOUS
 10
18.0778143425
 20
2.4532700835
 11
18.0778143425
 21
2.5439717292
  0
LINE
  5
34B
100
AcDbEntity
  8
0
100
AcDbLine
 62
2
  6
CONTINUOUS
 10
18.0578143315
 20
2.2562429918
 11
18.0578143315
 21
2.546989118
  0
LINE
  5
34C
100
AcDbEntity
  8
0
100
AcDbLine
 62
2
  6
CONTINUOUS
 10
18.0378143204
 20
2.2532256029
 11
18.0378143204
 21
2.3524650276
  0
LINE
  5
34D
100
AcDbEntity
  8
0
100
AcDbLine
 62
2
  6
CONTINUOUS
 10
18.0378143204
 20
2.3904150487
 11
18.0378143204
 21
2.4153200625
  0
LINE
  5
34E
100
AcDbEntity
  8
0
100
AcDbLine
 62
2
  6
CONTINUOUS
 10
18.0378143204
 20
2.4532700835
 11
18.0378143204
 21
2.5500065068
  0
LINE
  5
34F
100
AcDbEntity
  8
0
100
AcDbLine
 62
2
  6
CONTINUOUS
 10
18.0178143093
 20
2.2502082141
 11
18.0178143093
 21
2.3524650276
  0
LINE
  5
350
100
AcDbEntity
  8
0
100
AcDbLine
 62
2
  6
CONTINUOUS
 10
18.0178143093
 20
2.3904150487
 11
18.0178143093
 21
2.4153200625
  0
LINE
  5
351
100
AcDbEntity
  8
0
100
AcDbLine
 62
2
  6
CONTINUOUS
 10
18.0178143093
 20
2.4532700835
 11
18.0178143093
 21
2.5530238957
  0
LINE
  5
352
100
AcDbEntity
  8
0
100
AcDbLine
 62
2
  6
CONTINUOUS
 10
17.9978142982
 20
2.2471908253
 11
17.9978142982
 21
2.3524650276
  0
LINE
  5
353
100
AcDbEntity
  8
0
100
AcDbLine
 62
2
  6
CONTINUOUS
 10
17.9978142982
 20
2.3904150487
 11
17.9978142982
 21
2.4153200625
  0
LINE
  5
354
100
AcDbEntity
  8
0
100
AcDbLine
 62
2
  6
CONTINUOUS
 10
17.9978142982
 20
2.4532700835
 11
17.9978142982
 21
2.5560412845
  0
LINE
  5
355
100
AcDbEntity
  8
0
100
AcDbLine
 62
2
  6
CONTINUOUS
 10
17.9778142871
 20
2.2445732581
 11
17.9778142871
 21
2.3524650276
  0
LINE
  5
356
100
AcDbEntity
  8
0
100
AcDbLine
 62
2
  6
CONTINUOUS
 10
17.9778142871
 20
2.3772150414
 11
17.9778142871
 21
2.4285200698
  0
LINE
  5
357
100
AcDbEntity
  8
0
100
AcDbLine
 62
2
  6
CONTINUOUS
 10
17.9778142871
 20
2.4532700835
 11
17.9778142871
 21
2.5586588517
  0
LINE
  5
358
100
AcDbEntity
  8
0
100
AcDbLine
 62
2
  6
CONTINUOUS
 10
17.957814276
 20
2.2424989828
 11
17.957814276
 21
2.3524650276
  0
LINE
  5
359
100
AcDbEntity
  8
0
100
AcDbLine
 62
2
  6
CONTINUOUS
 10
17.957814276
 20
2.3772150414
 11
17.957814276
 21
2.3937150505
  0
LINE
  5
35A
100
AcDbEntity
  8
0
100
AcDbLine
 62
2
  6
CONTINUOUS
 10
17.957814276
 20
2.4120200607
 11
17.957814276
 21
2.4285200698
  0
LINE
  5
35B
100
AcDbEntity
  8
0
100
AcDbLine
 62
2
  6
CONTINUOUS
 10
17.957814276
 20
2.4532700835
 11
17.957814276
 21
2.5607331269
  0
LINE
  5
35C
100
AcDbEntity
  8
0
100
AcDbLine
 62
2
  6
CONTINUOUS
 10
17.9378142649
 20
2.2404247076
 11
17.9378142649
 21
2.3524650276
  0
LINE
  5
35D
100
AcDbEntity
  8
0
100
AcDbLine
 62
2
  6
CONTINUOUS
 10
17.9378142649
 20
2.3772150414
 11
17.9378142649
 21
2.3937150505
  0
LINE
  5
35E
100
AcDbEntity
  8
0
100
AcDbLine
 62
2
  6
CONTINUOUS
 10
17.9378142649
 20
2.4120200607
 11
17.9378142649
 21
2.4285200698
  0
LINE
  5
35F
100
AcDbEntity
  8
0
100
AcDbLine
 62
2
  6
CONTINUOUS
 10
17.9378142649
 20
2.4532700835
 11
17.9378142649
 21
2.5628074022
  0
LINE
  5
360
100
AcDbEntity
  8
0
100
AcDbLine
 62
2
  6
CONTINUOUS
 10
17.9178142538
 20
2.2383504324
 11
17.9178142538
 21
2.3524650276
  0
LINE
  5
361
100
AcDbEntity
  8
0
100
AcDbLine
 62
2
  6
CONTINUOUS
 10
17.9178142538
 20
2.4532700835
 11
17.9178142538
 21
2.5648816774
  0
LINE
  5
362
100
AcDbEntity
  8
0
100
AcDbLine
 62
2
  6
CONTINUOUS
 10
17.8978142427
 20
2.2362761572
 11
17.8978142427
 21
2.3524650276
  0
LINE
  5
363
100
AcDbEntity
  8
0
100
AcDbLine
 62
2
  6
CONTINUOUS
 10
17.8978142427
 20
2.4532700835
 11
17.8978142427
 21
2.5669559526
  0
LINE
  5
364
100
AcDbEntity
  8
0
100
AcDbLine
 62
2
  6
CONTINUOUS
 10
17.8778142316
 20
2.234201882
 11
17.8778142316
 21
2.3524650276
  0
LINE
  5
365
100
AcDbEntity
  8
0
100
AcDbLine
 62
2
  6
CONTINUOUS
 10
17.8778142316
 20
2.4532700835
 11
17.8778142316
 21
2.5690302278
  0
LINE
  5
366
100
AcDbEntity
  8
0
100
AcDbLine
 62
2
  6
CONTINUOUS
 10
17.8578142205
 20
2.23247216
 11
17.8578142205
 21
2.3524650276
  0
LINE
  5
367
100
AcDbEntity
  8
0
100
AcDbLine
 62
2
  6
CONTINUOUS
 10
17.8578142205
 20
2.3772150414
 11
17.8578142205
 21
2.4285200698
  0
LINE
  5
368
100
AcDbEntity
  8
0
100
AcDbLine
 62
2
  6
CONTINUOUS
 10
17.8578142205
 20
2.4532700835
 11
17.8578142205
 21
2.5707599498
  0
LINE
  5
369
100
AcDbEntity
  8
0
100
AcDbLine
 62
2
  6
CONTINUOUS
 10
17.8378142094
 20
2.2312059562
 11
17.8378142094
 21
2.3524650276
  0
LINE
  5
36A
100
AcDbEntity
  8
0
100
AcDbLine
 62
2
  6
CONTINUOUS
 10
17.8378142094
 20
2.3772150414
 11
17.8378142094
 21
2.4285200698
  0
LINE
  5
36B
100
AcDbEntity
  8
0
100
AcDbLine
 62
2
  6
CONTINUOUS
 10
17.8378142094
 20
2.4532700835
 11
17.8378142094
 21
2.5720261536
  0
LINE
  5
36C
100
AcDbEntity
  8
0
100
AcDbLine
 62
2
  6
CONTINUOUS
 10
17.8178141984
 20
2.2299397525
 11
17.8178141984
 21
2.5732923573
  0
LINE
  5
36D
100
AcDbEntity
  8
0
100
AcDbLine
 62
2
  6
CONTINUOUS
 10
17.7978141873
 20
2.2286735487
 11
17.7978141873
 21
2.4285200698
  0
LINE
  5
36E
100
AcDbEntity
  8
0
100
AcDbLine
 62
2
  6
CONTINUOUS
 10
17.7978141873
 20
2.4532700835
 11
17.7978141873
 21
2.574558561
  0
LINE
  5
36F
100
AcDbEntity
  8
0
100
AcDbLine
 62
2
  6
CONTINUOUS
 10
17.7778141762
 20
2.227407345
 11
17.7778141762
 21
2.3524650276
  0
LINE
  5
370
100
AcDbEntity
  8
0
100
AcDbLine
 62
2
  6
CONTINUOUS
 10
17.7778141762
 20
2.4532700835
 11
17.7778141762
 21
2.5758247648
  0
LINE
  5
371
100
AcDbEntity
  8
0
100
AcDbLine
 62
2
  6
CONTINUOUS
 10
17.7578141651
 20
2.2261411413
 11
17.7578141651
 21
2.3524650276
  0
LINE
  5
372
100
AcDbEntity
  8
0
100
AcDbLine
 62
2
  6
CONTINUOUS
 10
17.7578141651
 20
2.4532700835
 11
17.7578141651
 21
2.5770909685
  0
LINE
  5
373
100
AcDbEntity
  8
0
100
AcDbLine
 62
2
  6
CONTINUOUS
 10
17.737814154
 20
2.2249117066
 11
17.737814154
 21
2.3524650276
  0
LINE
  5
374
100
AcDbEntity
  8
0
100
AcDbLine
 62
2
  6
CONTINUOUS
 10
17.737814154
 20
2.4087649542
 11
17.737814154
 21
2.4285200698
  0
LINE
  5
375
100
AcDbEntity
  8
0
100
AcDbLine
 62
2
  6
CONTINUOUS
 10
17.737814154
 20
2.4532700835
 11
17.737814154
 21
2.5783204031
  0
LINE
  5
376
100
AcDbEntity
  8
0
100
AcDbLine
 62
2
  6
CONTINUOUS
 10
17.7178141429
 20
2.2243809174
 11
17.7178141429
 21
2.3524650276
  0
LINE
  5
377
100
AcDbEntity
  8
0
100
AcDbLine
 62
2
  6
CONTINUOUS
 10
17.7178141429
 20
2.4278478026
 11
17.7178141429
 21
2.5788511924
  0
LINE
  5
378
100
AcDbEntity
  8
0
100
AcDbLine
 62
2
  6
CONTINUOUS
 10
17.6978141318
 20
2.2238501282
 11
17.6978141318
 21
2.3648303444
  0
LINE
  5
379
100
AcDbEntity
  8
0
100
AcDbLine
 62
2
  6
CONTINUOUS
 10
17.6978141318
 20
2.446930651
 11
17.6978141318
 21
2.5793819816
  0
LINE
  5
37A
100
AcDbEntity
  8
0
100
AcDbLine
 62
2
  6
CONTINUOUS
 10
17.6778141207
 20
2.223319339
 11
17.6778141207
 21
2.3839131616
  0
LINE
  5
37B
100
AcDbEntity
  8
0
100
AcDbLine
 62
2
  6
CONTINUOUS
 10
17.6778141207
 20
2.4532700835
 11
17.6778141207
 21
2.5799127708
  0
LINE
  5
37C
100
AcDbEntity
  8
0
100
AcDbLine
 62
2
  6
CONTINUOUS
 10
17.6578141096
 20
2.2227885498
 11
17.6578141096
 21
2.3524650276
  0
LINE
  5
37D
100
AcDbEntity
  8
0
100
AcDbLine
 62
2
  6
CONTINUOUS
 10
17.6578141096
 20
2.3772150414
 11
17.6578141096
 21
2.4029959788
  0
LINE
  5
37E
100
AcDbEntity
  8
0
100
AcDbLine
 62
2
  6
CONTINUOUS
 10
17.6578141096
 20
2.4532700835
 11
17.6578141096
 21
2.58044356
  0
LINE
  5
37F
100
AcDbEntity
  8
0
100
AcDbLine
 62
2
  6
CONTINUOUS
 10
17.6378140985
 20
2.2222577606
 11
17.6378140985
 21
2.3524650276
  0
LINE
  5
380
100
AcDbEntity
  8
0
100
AcDbLine
 62
2
  6
CONTINUOUS
 10
17.6378140985
 20
2.4532700835
 11
17.6378140985
 21
2.5809743492
  0
LINE
  5
381
100
AcDbEntity
  8
0
100
AcDbLine
 62
2
  6
CONTINUOUS
 10
17.6178140874
 20
2.2217269714
 11
17.6178140874
 21
2.3524650276
  0
LINE
  5
382
100
AcDbEntity
  8
0
100
AcDbLine
 62
2
  6
CONTINUOUS
 10
17.6178140874
 20
2.4532700835
 11
17.6178140874
 21
2.5815051384
  0
LINE
  5
383
100
AcDbEntity
  8
0
100
AcDbLine
 62
2
  6
CONTINUOUS
 10
17.5978140764
 20
2.2215213152
 11
17.5978140764
 21
2.3524650276
  0
LINE
  5
384
100
AcDbEntity
  8
0
100
AcDbLine
 62
2
  6
CONTINUOUS
 10
17.5978140764
 20
2.3772150414
 11
17.5978140764
 21
2.4285200698
  0
LINE
  5
385
100
AcDbEntity
  8
0
100
AcDbLine
 62
2
  6
CONTINUOUS
 10
17.5978140764
 20
2.4532700835
 11
17.5978140764
 21
2.5817107946
  0
LINE
  5
386
100
AcDbEntity
  8
0
100
AcDbLine
 62
2
  6
CONTINUOUS
 10
17.5778140653
 20
2.2216974783
 11
17.5778140653
 21
2.5815346315
  0
LINE
  5
387
100
AcDbEntity
  8
0
100
AcDbLine
 62
2
  6
CONTINUOUS
 10
17.5578140542
 20
2.2218736414
 11
17.5578140542
 21
2.4285200698
  0
LINE
  5
388
100
AcDbEntity
  8
0
100
AcDbLine
 62
2
  6
CONTINUOUS
 10
17.5578140542
 20
2.4532700835
 11
17.5578140542
 21
2.5813584684
  0
LINE
  5
389
100
AcDbEntity
  8
0
100
AcDbLine
 62
2
  6
CONTINUOUS
 10
17.5378140431
 20
2.2220498045
 11
17.5378140431
 21
2.3524700714
  0
LINE
  5
38A
100
AcDbEntity
  8
0
100
AcDbLine
 62
2
  6
CONTINUOUS
 10
17.5378140431
 20
2.4532700835
 11
17.5378140431
 21
2.5811823053
  0
LINE
  5
38B
100
AcDbEntity
  8
0
100
AcDbLine
 62
2
  6
CONTINUOUS
 10
17.517814032
 20
2.2222259676
 11
17.517814032
 21
2.3524650276
  0
LINE
  5
38C
100
AcDbEntity
  8
0
100
AcDbLine
 62
2
  6
CONTINUOUS
 10
17.517814032
 20
2.4532700835
 11
17.517814032
 21
2.5810061422
  0
LINE
  5
38D
100
AcDbEntity
  8
0
100
AcDbLine
 62
2
  6
CONTINUOUS
 10
17.4978140209
 20
2.2224021307
 11
17.4978140209
 21
2.3524650276
  0
LINE
  5
38E
100
AcDbEntity
  8
0
100
AcDbLine
 62
2
  6
CONTINUOUS
 10
17.4978140209
 20
2.4008904169
 11
17.4978140209
 21
2.4285200698
  0
LINE
  5
38F
100
AcDbEntity
  8
0
100
AcDbLine
 62
2
  6
CONTINUOUS
 10
17.4978140209
 20
2.4532700835
 11
17.4978140209
 21
2.5808299791
  0
LINE
  5
390
100
AcDbEntity
  8
0
100
AcDbLine
 62
2
  6
CONTINUOUS
 10
17.4778140098
 20
2.2225782938
 11
17.4778140098
 21
2.3524650276
  0
LINE
  5
391
100
AcDbEntity
  8
0
100
AcDbLine
 62
2
  6
CONTINUOUS
 10
17.4778140098
 20
2.4199732652
 11
17.4778140098
 21
2.580653816
  0
LINE
  5
392
100
AcDbEntity
  8
0
100
AcDbLine
 62
2
  6
CONTINUOUS
 10
17.4578139987
 20
2.2233466716
 11
17.4578139987
 21
2.3569558199
  0
LINE
  5
393
100
AcDbEntity
  8
0
100
AcDbLine
 62
2
  6
CONTINUOUS
 10
17.4578139987
 20
2.4390561136
 11
17.4578139987
 21
2.5798854382
  0
LINE
  5
394
100
AcDbEntity
  8
0
100
AcDbLine
 62
2
  6
CONTINUOUS
 10
17.4378139876
 20
2.2242391079
 11
17.4378139876
 21
2.3760386371
  0
LINE
  5
395
100
AcDbEntity
  8
0
100
AcDbLine
 62
2
  6
CONTINUOUS
 10
17.4378139876
 20
2.4532700835
 11
17.4378139876
 21
2.5789930018
  0
LINE
  5
396
100
AcDbEntity
  8
0
100
AcDbLine
 62
2
  6
CONTINUOUS
 10
17.4178139765
 20
2.2251315443
 11
17.4178139765
 21
2.3525640362
  0
LINE
  5
397
100
AcDbEntity
  8
0
100
AcDbLine
 62
2
  6
CONTINUOUS
 10
17.4178139765
 20
2.3771160328
 11
17.4178139765
 21
2.3951214543
  0
LINE
  5
398
100
AcDbEntity
  8
0
100
AcDbLine
 62
2
  6
CONTINUOUS
 10
17.4178139765
 20
2.4532700835
 11
17.4178139765
 21
2.5781005655
  0
LINE
  5
399
100
AcDbEntity
  8
0
100
AcDbLine
 62
2
  6
CONTINUOUS
 10
17.3978139654
 20
2.2260239807
 11
17.3978139654
 21
2.3524650276
  0
LINE
  5
39A
100
AcDbEntity
  8
0
100
AcDbLine
 62
2
  6
CONTINUOUS
 10
17.3978139654
 20
2.3772150414
 11
17.3978139654
 21
2.4139978698
  0
LINE
  5
39B
100
AcDbEntity
  8
0
100
AcDbLine
 62
2
  6
CONTINUOUS
 10
17.3978139654
 20
2.4532700835
 11
17.3978139654
 21
2.5772081291
  0
LINE
  5
39C
100
AcDbEntity
  8
0
100
AcDbLine
 62
2
  6
CONTINUOUS
 10
17.3778139543
 20
2.226916417
 11
17.3778139543
 21
2.3524650276
  0
LINE
  5
39D
100
AcDbEntity
  8
0
100
AcDbLine
 62
2
  6
CONTINUOUS
 10
17.3778139543
 20
2.4532700835
 11
17.3778139543
 21
2.5763156928
  0
LINE
  5
39E
100
AcDbEntity
  8
0
100
AcDbLine
 62
2
  6
CONTINUOUS
 10
17.3578139433
 20
2.2278088534
 11
17.3578139433
 21
2.3524650276
  0
LINE
  5
39F
100
AcDbEntity
  8
0
100
AcDbLine
 62
2
  6
CONTINUOUS
 10
17.3578139433
 20
2.3772150414
 11
17.3578139433
 21
2.4285200698
  0
LINE
  5
3A0
100
AcDbEntity
  8
0
100
AcDbLine
 62
2
  6
CONTINUOUS
 10
17.3578139433
 20
2.4532700835
 11
17.3578139433
 21
2.5754232564
  0
LINE
  5
3A1
100
AcDbEntity
  8
0
100
AcDbLine
 62
2
  6
CONTINUOUS
 10
17.3378139322
 20
2.2289481171
 11
17.3378139322
 21
2.5742839927
  0
LINE
  5
3A2
100
AcDbEntity
  8
0
100
AcDbLine
 62
2
  6
CONTINUOUS
 10
17.3178139211
 20
2.2306059865
 11
17.3178139211
 21
2.5726261233
  0
LINE
  5
3A3
100
AcDbEntity
  8
0
100
AcDbLine
 62
2
  6
CONTINUOUS
 10
17.29781391
 20
2.2322638559
 11
17.29781391
 21
2.3524650276
  0
LINE
  5
3A4
100
AcDbEntity
  8
0
100
AcDbLine
 62
2
  6
CONTINUOUS
 10
17.29781391
 20
2.3772150414
 11
17.29781391
 21
2.5709682538
  0
LINE
  5
3A5
100
AcDbEntity
  8
0
100
AcDbLine
 62
2
  6
CONTINUOUS
 10
17.2778138989
 20
2.2339217254
 11
17.2778138989
 21
2.3524650276
  0
LINE
  5
3A6
100
AcDbEntity
  8
0
100
AcDbLine
 62
2
  6
CONTINUOUS
 10
17.2778138989
 20
2.3963499423
 11
17.2778138989
 21
2.5693103844
  0
LINE
  5
3A7
100
AcDbEntity
  8
0
100
AcDbLine
 62
2
  6
CONTINUOUS
 10
17.2578138878
 20
2.2355795948
 11
17.2578138878
 21
2.3524650276
  0
LINE
  5
3A8
100
AcDbEntity
  8
0
100
AcDbLine
 62
2
  6
CONTINUOUS
 10
17.2578138878
 20
2.4272549766
 11
17.2578138878
 21
2.567652515
  0
LINE
  5
3A9
100
AcDbEntity
  8
0
100
AcDbLine
 62
2
  6
CONTINUOUS
 10
17.2378138767
 20
2.2372374642
 11
17.2378138767
 21
2.3524650276
  0
LINE
  5
3AA
100
AcDbEntity
  8
0
100
AcDbLine
 62
2
  6
CONTINUOUS
 10
17.2378138767
 20
2.4532700835
 11
17.2378138767
 21
2.5659946456
  0
LINE
  5
3AB
100
AcDbEntity
  8
0
100
AcDbLine
 62
2
  6
CONTINUOUS
 10
17.2178138656
 20
2.2389952421
 11
17.2178138656
 21
2.3524650276
  0
LINE
  5
3AC
100
AcDbEntity
  8
0
100
AcDbLine
 62
2
  6
CONTINUOUS
 10
17.2178138656
 20
2.3772150414
 11
17.2178138656
 21
2.3887495968
  0
LINE
  5
3AD
100
AcDbEntity
  8
0
100
AcDbLine
 62
2
  6
CONTINUOUS
 10
17.2178138656
 20
2.4532700835
 11
17.2178138656
 21
2.5642368677
  0
LINE
  5
3AE
100
AcDbEntity
  8
0
100
AcDbLine
 62
2
  6
CONTINUOUS
 10
17.1978138545
 20
2.2415190955
 11
17.1978138545
 21
2.3908590489
  0
LINE
  5
3AF
100
AcDbEntity
  8
0
100
AcDbLine
 62
2
  6
CONTINUOUS
 10
17.1978138545
 20
2.4118090605
 11
17.1978138545
 21
2.4279760695
  0
LINE
  5
3B0
100
AcDbEntity
  8
0
100
AcDbLine
 62
2
  6
CONTINUOUS
 10
17.1978138545
 20
2.4532700835
 11
17.1978138545
 21
2.5617130143
  0
LINE
  5
3B1
100
AcDbEntity
  8
0
100
AcDbLine
 62
2
  6
CONTINUOUS
 10
17.1778138434
 20
2.244042949
 11
17.1778138434
 21
2.3524650276
  0
LINE
  5
3B2
100
AcDbEntity
  8
0
100
AcDbLine
 62
2
  6
CONTINUOUS
 10
17.1778138434
 20
2.3772150414
 11
17.1778138434
 21
2.3892044865
  0
LINE
  5
3B3
100
AcDbEntity
  8
0
100
AcDbLine
 62
2
  6
CONTINUOUS
 10
17.1778138434
 20
2.4480979218
 11
17.1778138434
 21
2.5591891608
  0
LINE
  5
3B4
100
AcDbEntity
  8
0
100
AcDbLine
 62
2
  6
CONTINUOUS
 10
17.1578138323
 20
2.2465668024
 11
17.1578138323
 21
2.3524650276
  0
LINE
  5
3B5
100
AcDbEntity
  8
0
100
AcDbLine
 62
2
  6
CONTINUOUS
 10
17.1578138323
 20
2.4165778189
 11
17.1578138323
 21
2.5566653073
  0
LINE
  5
3B6
100
AcDbEntity
  8
0
100
AcDbLine
 62
2
  6
CONTINUOUS
 10
17.1378138213
 20
2.2490906559
 11
17.1378138213
 21
2.3524650276
  0
LINE
  5
3B7
100
AcDbEntity
  8
0
100
AcDbLine
 62
2
  6
CONTINUOUS
 10
17.1378138213
 20
2.3850577159
 11
17.1378138213
 21
2.5541414539
  0
LINE
  5
3B8
100
AcDbEntity
  8
0
100
AcDbLine
 62
2
  6
CONTINUOUS
 10
17.1178138102
 20
2.2516145094
 11
17.1178138102
 21
2.3524650276
  0
LINE
  5
3B9
100
AcDbEntity
  8
0
100
AcDbLine
 62
2
  6
CONTINUOUS
 10
17.1178138102
 20
2.3772150414
 11
17.1178138102
 21
2.5516176004
  0
LINE
  5
3BA
100
AcDbEntity
  8
0
100
AcDbLine
 62
2
  6
CONTINUOUS
 10
17.0978137991
 20
2.2544171186
 11
17.0978137991
 21
2.5488149912
  0
LINE
  5
3BB
100
AcDbEntity
  8
0
100
AcDbLine
 62
2
  6
CONTINUOUS
 10
17.077813788
 20
2.2577020445
 11
17.077813788
 21
2.362615113
  0
LINE
  5
3BC
100
AcDbEntity
  8
0
100
AcDbLine
 62
2
  6
CONTINUOUS
 10
17.077813788
 20
2.3938117115
 11
17.077813788
 21
2.4149601455
  0
LINE
  5
3BD
100
AcDbEntity
  8
0
100
AcDbLine
 62
2
  6
CONTINUOUS
 10
17.077813788
 20
2.4403850542
 11
17.077813788
 21
2.5455300653
  0
LINE
  5
3BE
100
AcDbEntity
  8
0
100
AcDbLine
 62
2
  6
CONTINUOUS
 10
17.0578137769
 20
2.2609869704
 11
17.0578137769
 21
2.3533399802
  0
LINE
  5
3BF
100
AcDbEntity
  8
0
100
AcDbLine
 62
2
  6
CONTINUOUS
 10
17.0578137769
 20
2.4508307102
 11
17.0578137769
 21
2.5422451394
  0
LINE
  5
3C0
100
AcDbEntity
  8
0
100
AcDbLine
 62
2
  6
CONTINUOUS
 10
17.0378137658
 20
2.2646895914
 11
17.0378137658
 21
2.3524650276
  0
LINE
  5
3C1
100
AcDbEntity
  8
0
100
AcDbLine
 62
2
  6
CONTINUOUS
 10
17.0378137658
 20
2.4532700835
 11
17.0378137658
 21
2.5385425184
  0
LINE
  5
3C2
100
AcDbEntity
  8
0
100
AcDbLine
 62
2
  6
CONTINUOUS
 10
17.0178137547
 20
2.2685623514
 11
17.0178137547
 21
2.3524650276
  0
LINE
  5
3C3
100
AcDbEntity
  8
0
100
AcDbLine
 62
2
  6
CONTINUOUS
 10
17.0178137547
 20
2.4532700835
 11
17.0178137547
 21
2.5346697584
  0
LINE
  5
3C4
100
AcDbEntity
  8
0
100
AcDbLine
 62
2
  6
CONTINUOUS
 10
16.9978137436
 20
2.2725871112
 11
16.9978137436
 21
2.3524650276
  0
LINE
  5
3C5
100
AcDbEntity
  8
0
100
AcDbLine
 62
2
  6
CONTINUOUS
 10
16.9978137436
 20
2.3772150414
 11
16.9978137436
 21
2.394540051
  0
LINE
  5
3C6
100
AcDbEntity
  8
0
100
AcDbLine
 62
2
  6
CONTINUOUS
 10
16.9978137436
 20
2.4111950602
 11
16.9978137436
 21
2.4285200698
  0
LINE
  5
3C7
100
AcDbEntity
  8
0
100
AcDbLine
 62
2
  6
CONTINUOUS
 10
16.9978137436
 20
2.4532700835
 11
16.9978137436
 21
2.5306449986
  0
LINE
  5
3C8
100
AcDbEntity
  8
0
100
AcDbLine
 62
2
  6
CONTINUOUS
 10
16.9778137325
 20
2.2771382649
 11
16.9778137325
 21
2.3524650276
  0
LINE
  5
3C9
100
AcDbEntity
  8
0
100
AcDbLine
 62
2
  6
CONTINUOUS
 10
16.9778137325
 20
2.3772150414
 11
16.9778137325
 21
2.394540051
  0
LINE
  5
3CA
100
AcDbEntity
  8
0
100
AcDbLine
 62
2
  6
CONTINUOUS
 10
16.9778137325
 20
2.4111950602
 11
16.9778137325
 21
2.4285200698
  0
LINE
  5
3CB
100
AcDbEntity
  8
0
100
AcDbLine
 62
2
  6
CONTINUOUS
 10
16.9778137325
 20
2.4532700835
 11
16.9778137325
 21
2.5260938449
  0
LINE
  5
3CC
100
AcDbEntity
  8
0
100
AcDbLine
 62
2
  6
CONTINUOUS
 10
16.9578137214
 20
2.2816894185
 11
16.9578137214
 21
2.3524650276
  0
LINE
  5
3CD
100
AcDbEntity
  8
0
100
AcDbLine
 62
2
  6
CONTINUOUS
 10
16.9578137214
 20
2.4532700835
 11
16.9578137214
 21
2.5215426913
  0
LINE
  5
3CE
100
AcDbEntity
  8
0
100
AcDbLine
 62
2
  6
CONTINUOUS
 10
16.9378137103
 20
2.2869815362
 11
16.9378137103
 21
2.3524650276
  0
LINE
  5
3CF
100
AcDbEntity
  8
0
100
AcDbLine
 62
2
  6
CONTINUOUS
 10
16.9378137103
 20
2.4532700835
 11
16.9378137103
 21
2.5162505736
  0
LINE
  5
3D0
100
AcDbEntity
  8
0
100
AcDbLine
 62
2
  6
CONTINUOUS
 10
16.9178136992
 20
2.2923355811
 11
16.9178136992
 21
2.3524650276
  0
LINE
  5
3D1
100
AcDbEntity
  8
0
100
AcDbLine
 62
2
  6
CONTINUOUS
 10
16.9178136992
 20
2.4532700835
 11
16.9178136992
 21
2.5108965286
  0
LINE
  5
3D2
100
AcDbEntity
  8
0
100
AcDbLine
 62
2
  6
CONTINUOUS
 10
16.8978136882
 20
2.2984943577
 11
16.8978136882
 21
2.3524650276
  0
LINE
  5
3D3
100
AcDbEntity
  8
0
100
AcDbLine
 62
2
  6
CONTINUOUS
 10
16.8978136882
 20
2.3772150414
 11
16.8978136882
 21
2.4285200698
  0
LINE
  5
3D4
100
AcDbEntity
  8
0
100
AcDbLine
 62
2
  6
CONTINUOUS
 10
16.8978136882
 20
2.4532700835
 11
16.8978136882
 21
2.5047377521
  0
LINE
  5
3D5
100
AcDbEntity
  8
0
100
AcDbLine
 62
2
  6
CONTINUOUS
 10
16.8778136771
 20
2.3048274854
 11
16.8778136771
 21
2.3524650276
  0
LINE
  5
3D6
100
AcDbEntity
  8
0
100
AcDbLine
 62
2
  6
CONTINUOUS
 10
16.8778136771
 20
2.3772150414
 11
16.8778136771
 21
2.4285200698
  0
LINE
  5
3D7
100
AcDbEntity
  8
0
100
AcDbLine
 62
2
  6
CONTINUOUS
 10
16.8778136771
 20
2.4532700835
 11
16.8778136771
 21
2.4984046244
  0
LINE
  5
3D8
100
AcDbEntity
  8
0
100
AcDbLine
 62
2
  6
CONTINUOUS
 10
16.857813666
 20
2.312318358
 11
16.857813666
 21
2.4909137517
  0
LINE
  5
3D9
100
AcDbEntity
  8
0
100
AcDbLine
 62
2
  6
CONTINUOUS
 10
16.8378136549
 20
2.3203393667
 11
16.8378136549
 21
2.4828927431
  0
LINE
  5
3DA
100
AcDbEntity
  8
0
100
AcDbLine
 62
2
  6
CONTINUOUS
 10
16.8178136438
 20
2.3295519864
 11
16.8178136438
 21
2.4736801234
  0
LINE
  5
3DB
100
AcDbEntity
  8
0
100
AcDbLine
 62
2
  6
CONTINUOUS
 10
16.7978136327
 20
2.3407309483
 11
16.7978136327
 21
2.4625011614
  0
LINE
  5
3DC
100
AcDbEntity
  8
0
100
AcDbLine
 62
2
  6
CONTINUOUS
 10
16.7778136216
 20
2.3546527809
 11
16.7778136216
 21
2.4485793288
  0
LINE
  5
3DD
100
AcDbEntity
  8
0
100
AcDbLine
 62
2
  6
CONTINUOUS
 10
16.7578136105
 20
2.3756826696
 11
16.7578136105
 21
2.4275494401
  0
ENDBLK
  5
3DE
100
AcDbEntity
  8
0
  6
BYBLOCK
 62
0
100
AcDbBlockEnd
  0
BLOCK
  5
3DF
100
AcDbEntity
  8
SCHEME_DIMS
100
AcDbBlockBegin
 62
2
  6
CONTINUOUS
  2
*D0
 70
65
 10
0.0
 20
0.0
  3
*D0
  1

  0
TEXT
  5
3E0
100
AcDbEntity
  8
SCHEME_DIMS
100
AcDbText
 62
2
  6
CONTINUOUS
 10
7.5996546238
 20
6.0732905681
  7
STANDARD
 40
0.1
  1
8,4
 41
1.0
 72
0
100
AcDbText
  0
TEXT
  5
3E1
100
AcDbEntity
  8
SCHEME_DIMS
100
AcDbText
 62
2
  6
CONTINUOUS
 10
7.6996546238
 20
5.9232905681
  7
STANDARD
 40
0.1
  1
.33
 41
1.0
 72
0
100
AcDbText
  0
TEXT
  5
3E2
100
AcDbEntity
  8
SCHEME_DIMS
100
AcDbText
 62
2
  6
CONTINUOUS
 10
7.5996546238
 20
5.9232905681
  7
STANDARD
 40
0.1
  1
[
 41
1.0
 72
0
100
AcDbText
  0
TEXT
  5
3E3
100
AcDbEntity
  8
SCHEME_DIMS
100
AcDbText
 62
2
  6
CONTINUOUS
 10
7.9996546238
 20
5.9232905681
  7
STANDARD
 40
0.1
  1
]
 41
1.0
 72
0
100
AcDbText
  0
LINE
  5
3E4
100
AcDbEntity
  8
SCHEME_DIMS
100
AcDbLine
 62
2
  6
CONTINUOUS
 10
6.1316428128
 20
6.5266956745
 11
7.4746546238
 21
6.5266956745
  0
LINE
  5
3E5
100
AcDbEntity
  8
SCHEME_DIMS
100
AcDbLine
 62
2
  6
CONTINUOUS
 10
6.4397136789
 20
6.855435832
 11
7.4746546238
 21
6.855435832
  0
LINE
  5
3E6
100
AcDbEntity
  8
SCHEME_DIMS
100
AcDbLine
 62
2
  6
CONTINUOUS
 10
7.3496546238
 20
6.5266956745
 11
7.3496546238
 21
6.1232905681
  0
LINE
  5
3E7
100
AcDbEntity
  8
SCHEME_DIMS
100
AcDbLine
 62
2
  6
CONTINUOUS
 10
7.3496546238
 20
6.1232905681
 11
7.4996546238
 21
6.1232905681
  0
LINE
  5
3E8
100
AcDbEntity
  8
SCHEME_DIMS
100
AcDbLine
 62
2
  6
CONTINUOUS
 10
7.3496546238
 20
6.855435832
 11
7.3496546238
 21
7.255435832
  0
INSERT
  5
3E9
100
AcDbEntity
  8
SCHEME_DIMS
100
AcDbBlockReference
 62
2
  6
CONTINUOUS
  2
_FILLED
 10
7.3496546238
 20
6.5266956745
 41
0.1875
 42
0.1875
 43
0.1875
 50
90.0
  0
INSERT
  5
3EA
100
AcDbEntity
  8
SCHEME_DIMS
100
AcDbBlockReference
 62
2
  6
CONTINUOUS
  2
_FILLED
 10
7.3496546238
 20
6.855435832
 41
0.1875
 42
0.1875
 43
0.1875
 50
270.0
  0
ENDBLK
  5
3EB
100
AcDbEntity
  8
0
  6
BYBLOCK
 62
0
100
AcDbBlockEnd
  0
BLOCK
  5
3EC
100
AcDbEntity
  8
SCHEME_DIMS
100
AcDbBlockBegin
 62
2
  6
CONTINUOUS
  2
*D1
 70
65
 10
0.0
 20
0.0
  3
*D1
  1

  0
TEXT
  5
3ED
100
AcDbEntity
  8
SCHEME_DIMS
100
AcDbText
 62
2
  6
CONTINUOUS
 10
7.6216851078
 20
7.0902188639
  7
STANDARD
 40
0.1
  1
27,4
 41
1.0
 72
0
100
AcDbText
  0
TEXT
  5
3EE
100
AcDbEntity
  8
SCHEME_DIMS
100
AcDbText
 62
2
  6
CONTINUOUS
 10
7.7216851078
 20
6.9402188639
  7
STANDARD
 40
0.1
  1
1.08
 41
1.0
 72
0
100
AcDbText
  0
TEXT
  5
3EF
100
AcDbEntity
  8
SCHEME_DIMS
100
AcDbText
 62
2
  6
CONTINUOUS
 10
7.6216851078
 20
6.9402188639
  7
STANDARD
 40
0.1
  1
[
 41
1.0
 72
0
100
AcDbText
  0
TEXT
  5
3F0
100
AcDbEntity
  8
SCHEME_DIMS
100
AcDbText
 62
2
  6
CONTINUOUS
 10
8.1216851078
 20
6.9402188639
  7
STANDARD
 40
0.1
  1
]
 41
1.0
 72
0
100
AcDbText
  0
LINE
  5
3F1
100
AcDbEntity
  8
SCHEME_DIMS
100
AcDbLine
 62
2
  6
CONTINUOUS
 10
6.1316428128
 20
6.5266956745
 11
8.0466851078
 21
6.5266956745
  0
LINE
  5
3F2
100
AcDbEntity
  8
SCHEME_DIMS
100
AcDbLine
 62
2
  6
CONTINUOUS
 10
6.7029667316
 20
7.6034673281
 11
6.7282320875
 21
7.6034673281
  0
LINE
  5
3F3
100
AcDbEntity
  8
SCHEME_DIMS
100
AcDbLine
 62
2
  6
CONTINUOUS
 10
6.7708291245
 20
7.6034673281
 11
8.0466851078
 21
7.6034673281
  0
LINE
  5
3F4
100
AcDbEntity
  8
SCHEME_DIMS
100
AcDbLine
 62
2
  6
CONTINUOUS
 10
7.9216851078
 20
6.5266956745
 11
7.9216851078
 21
6.8402188639
  0
LINE
  5
3F5
100
AcDbEntity
  8
SCHEME_DIMS
100
AcDbLine
 62
2
  6
CONTINUOUS
 10
7.9216851078
 20
7.6034673281
 11
7.9216851078
 21
7.2902188639
  0
INSERT
  5
3F6
100
AcDbEntity
  8
SCHEME_DIMS
100
AcDbBlockReference
 62
2
  6
CONTINUOUS
  2
_FILLED
 10
7.9216851078
 20
6.5266956745
 41
0.1875
 42
0.1875
 43
0.1875
 50
270.0
  0
INSERT
  5
3F7
100
AcDbEntity
  8
SCHEME_DIMS
100
AcDbBlockReference
 62
2
  6
CONTINUOUS
  2
_FILLED
 10
7.9216851078
 20
7.6034673281
 41
0.1875
 42
0.1875
 43
0.1875
 50
90.0
  0
ENDBLK
  5
3F8
100
AcDbEntity
  8
0
  6
BYBLOCK
 62
0
100
AcDbBlockEnd
  0
BLOCK
  5
3F9
100
AcDbEntity
  8
SCHEME_DIMS
100
AcDbBlockBegin
 62
2
  6
CONTINUOUS
  2
*D2
 70
65
 10
0.0
 20
0.0
  3
*D2
  1

  0
TEXT
  5
3FA
100
AcDbEntity
  8
SCHEME_DIMS
100
AcDbText
 62
2
  6
CONTINUOUS
 10
8.1127350983
 20
10.8000147637
  7
STANDARD
 40
0.1
  1
210,6
 41
1.0
 72
0
100
AcDbText
  0
TEXT
  5
3FB
100
AcDbEntity
  8
SCHEME_DIMS
100
AcDbText
 62
2
  6
CONTINUOUS
 10
8.2127350983
 20
10.6500147637
  7
STANDARD
 40
0.1
  1
8.29
 41
1.0
 72
0
100
AcDbText
  0
TEXT
  5
3FC
100
AcDbEntity
  8
SCHEME_DIMS
100
AcDbText
 62
2
  6
CONTINUOUS
 10
8.1127350983
 20
10.6500147637
  7
STANDARD
 40
0.1
  1
[
 41
1.0
 72
0
100
AcDbText
  0
TEXT
  5
3FD
100
AcDbEntity
  8
SCHEME_DIMS
100
AcDbText
 62
2
  6
CONTINUOUS
 10
8.6127350983
 20
10.6500147637
  7
STANDARD
 40
0.1
  1
]
 41
1.0
 72
0
100
AcDbText
  0
LINE
  5
3FE
100
AcDbEntity
  8
SCHEME_DIMS
100
AcDbLine
 62
2
  6
CONTINUOUS
 10
6.1316428128
 20
6.5266956745
 11
8.5377350983
 21
6.5266956745
  0
LINE
  5
3FF
100
AcDbEntity
  8
SCHEME_DIMS
100
AcDbLine
 62
2
  6
CONTINUOUS
 10
6.8733790044
 20
14.8160657532
 11
8.5377350983
 21
14.8160657532
  0
LINE
  5
400
100
AcDbEntity
  8
SCHEME_DIMS
100
AcDbLine
 62
2
  6
CONTINUOUS
 10
8.4127350983
 20
6.5266956745
 11
8.4127350983
 21
10.5500147637
  0
LINE
  5
401
100
AcDbEntity
  8
SCHEME_DIMS
100
AcDbLine
 62
2
  6
CONTINUOUS
 10
8.4127350983
 20
14.8160657532
 11
8.4127350983
 21
11.0000147637
  0
INSERT
  5
402
100
AcDbEntity
  8
SCHEME_DIMS
100
AcDbBlockReference
 62
2
  6
CONTINUOUS
  2
_FILLED
 10
8.4127350983
 20
6.5266956745
 41
0.1875
 42
0.1875
 43
0.1875
 50
270.0
  0
INSERT
  5
403
100
AcDbEntity
  8
SCHEME_DIMS
100
AcDbBlockReference
 62
2
  6
CONTINUOUS
  2
_FILLED
 10
8.4127350983
 20
14.8160657532
 41
0.1875
 42
0.1875
 43
0.1875
 50
90.0
  0
ENDBLK
  5
404
100
AcDbEntity
  8
0
  6
BYBLOCK
 62
0
100
AcDbBlockEnd
  0
BLOCK
  5
405
100
AcDbEntity
  8
SCHEME_DIMS
100
AcDbBlockBegin
 62
2
  6
CONTINUOUS
  2
*D3
 70
65
 10
0.0
 20
0.0
  3
*D3
  1

  0
TEXT
  5
406
100
AcDbEntity
  8
SCHEME_DIMS
100
AcDbText
 62
2
  6
CONTINUOUS
 10
5.5654026553
 20
5.9766956745
  7
STANDARD
 40
0.1
  1
45
 41
1.0
 72
0
100
AcDbText
  0
TEXT
  5
407
100
AcDbEntity
  8
SCHEME_DIMS
100
AcDbText
 62
2
  6
CONTINUOUS
 10
5.6654026553
 20
5.8266956745
  7
STANDARD
 40
0.1
  1
1.77
 41
1.0
 72
0
100
AcDbText
  0
TEXT
  5
408
100
AcDbEntity
  8
SCHEME_DIMS
100
AcDbText
 62
2
  6
CONTINUOUS
 10
5.5654026553
 20
5.8266956745
  7
STANDARD
 40
0.1
  1
[
 41
1.0
 72
0
100
AcDbText
  0
TEXT
  5
409
100
AcDbEntity
  8
SCHEME_DIMS
100
AcDbText
 62
2
  6
CONTINUOUS
 10
6.0654026553
 20
5.8266956745
  7
STANDARD
 40
0.1
  1
]
 41
1.0
 72
0
100
AcDbText
  0
LINE
  5
40A
100
AcDbEntity
  8
SCHEME_DIMS
100
AcDbLine
 62
2
  6
CONTINUOUS
 10
4.9795758837
 20
7.6348175232
 11
4.9795758837
 21
6.9656752642
  0
LINE
  5
40B
100
AcDbEntity
  8
SCHEME_DIMS
100
AcDbLine
 62
2
  6
CONTINUOUS
 10
4.9795758837
 20
6.8598531259
 11
4.9795758837
 21
6.3537238705
  0
LINE
  5
40C
100
AcDbEntity
  8
SCHEME_DIMS
100
AcDbLine
 62
2
  6
CONTINUOUS
 10
4.9795758837
 20
6.2843004958
 11
4.9795758837
 21
5.9016956745
  0
LINE
  5
40D
100
AcDbEntity
  8
SCHEME_DIMS
100
AcDbLine
 62
2
  6
CONTINUOUS
 10
6.751229427
 20
7.6278700782
 11
6.751229427
 21
6.8948670668
  0
LINE
  5
40E
100
AcDbEntity
  8
SCHEME_DIMS
100
AcDbLine
 62
2
  6
CONTINUOUS
 10
6.751229427
 20
6.8184045225
 11
6.751229427
 21
6.558991701
  0
LINE
  5
40F
100
AcDbEntity
  8
SCHEME_DIMS
100
AcDbLine
 62
2
  6
CONTINUOUS
 10
6.751229427
 20
6.4971916732
 11
6.751229427
 21
5.9016956745
  0
LINE
  5
410
100
AcDbEntity
  8
SCHEME_DIMS
100
AcDbLine
 62
2
  6
CONTINUOUS
 10
4.9795758837
 20
6.0266956745
 11
5.4654026553
 21
6.0266956745
  0
LINE
  5
411
100
AcDbEntity
  8
SCHEME_DIMS
100
AcDbLine
 62
2
  6
CONTINUOUS
 10
6.751229427
 20
6.0266956745
 11
6.2654026553
 21
6.0266956745
  0
INSERT
  5
412
100
AcDbEntity
  8
SCHEME_DIMS
100
AcDbBlockReference
 62
2
  6
CONTINUOUS
  2
_FILLED
 10
4.9795758837
 20
6.0266956745
 41
0.1875
 42
0.1875
 43
0.1875
 50
180.0
  0
INSERT
  5
413
100
AcDbEntity
  8
SCHEME_DIMS
100
AcDbBlockReference
 62
2
  6
CONTINUOUS
  2
_FILLED
 10
6.751229427
 20
6.0266956745
 41
0.1875
 42
0.1875
 43
0.1875
  0
ENDBLK
  5
414
100
AcDbEntity
  8
0
  6
BYBLOCK
 62
0
100
AcDbBlockEnd
  0
BLOCK
  5
415
100
AcDbEntity
  8
SCHEME_DIMS
100
AcDbBlockBegin
 62
2
  6
CONTINUOUS
  2
*D4
 70
65
 10
0.0
 20
0.0
  3
*D4
  1

  0
TEXT
  5
416
100
AcDbEntity
  8
SCHEME_DIMS
100
AcDbText
 62
2
  6
CONTINUOUS
 10
7.2034647401
 20
4.8229177752
  7
STANDARD
 40
0.1
  1
%%c
 41
1.3333333333
 72
0
100
AcDbText
  0
TEXT
  5
417
100
AcDbEntity
  8
SCHEME_DIMS
100
AcDbText
 62
2
  6
CONTINUOUS
 10
7.3367980734
 20
4.8229177752
  7
STANDARD
 40
0.1
  1
50
 41
1.0
 72
0
100
AcDbText
  0
TEXT
  5
418
100
AcDbEntity
  8
SCHEME_DIMS
100
AcDbText
 62
2
  6
CONTINUOUS
 10
7.4367980734
 20
4.6729177752
  7
STANDARD
 40
0.1
  1
1.97
 41
1.0
 72
0
100
AcDbText
  0
TEXT
  5
419
100
AcDbEntity
  8
SCHEME_DIMS
100
AcDbText
 62
2
  6
CONTINUOUS
 10
7.3367980734
 20
4.6729177752
  7
STANDARD
 40
0.1
  1
[
 41
1.0
 72
0
100
AcDbText
  0
TEXT
  5
41A
100
AcDbEntity
  8
SCHEME_DIMS
100
AcDbText
 62
2
  6
CONTINUOUS
 10
7.8367980734
 20
4.6729177752
  7
STANDARD
 40
0.1
  1
]
 41
1.0
 72
0
100
AcDbText
  0
LINE
  5
41B
100
AcDbEntity
  8
SCHEME_DIMS
100
AcDbLine
 62
2
  6
CONTINUOUS
 10
6.6581237008
 20
4.655565957
 11
5.8654026553
 21
4.0721747662
  0
LINE
  5
41C
100
AcDbEntity
  8
SCHEME_DIMS
100
AcDbLine
 62
2
  6
CONTINUOUS
 10
5.8654026553
 20
4.0721747662
 11
6.9534647401
 21
4.8729177752
  0
LINE
  5
41D
100
AcDbEntity
  8
SCHEME_DIMS
100
AcDbLine
 62
2
  6
CONTINUOUS
 10
6.9534647401
 20
4.8729177752
 11
7.1034647401
 21
4.8729177752
  0
LINE
  5
41E
100
AcDbEntity
  8
SCHEME_DIMS
100
AcDbLine
 62
2
  6
CONTINUOUS
 10
5.0726816098
 20
3.4887835754
 11
5.8654026553
 21
4.0721747662
  0
INSERT
  5
41F
100
AcDbEntity
  8
SCHEME_DIMS
100
AcDbBlockReference
 62
2
  6
CONTINUOUS
  2
_FILLED
 10
6.6581237008
 20
4.655565957
 41
0.1875
 42
0.1875
 43
0.1875
 50
36.3506538711
  0
INSERT
  5
420
100
AcDbEntity
  8
SCHEME_DIMS
100
AcDbBlockReference
 62
2
  6
CONTINUOUS
  2
_FILLED
 10
5.0726816098
 20
3.4887835754
 41
0.1875
 42
0.1875
 43
0.1875
 50
216.3506538711
  0
ENDBLK
  5
421
100
AcDbEntity
  8
0
  6
BYBLOCK
 62
0
100
AcDbBlockEnd
  0
BLOCK
  5
422
100
AcDbEntity
  8
SCHEME_DIMS
100
AcDbBlockBegin
 62
2
  6
CONTINUOUS
  2
*D5
 70
65
 10
0.0
 20
0.0
  3
*D5
  1

  0
TEXT
  5
423
100
AcDbEntity
  8
SCHEME_DIMS
100
AcDbText
 62
2
  6
CONTINUOUS
 10
6.8996546238
 20
9.0829948871
  7
STANDARD
 40
0.1
  1
4X 
 41
1.0
 72
0
100
AcDbText
  0
TEXT
  5
424
100
AcDbEntity
  8
SCHEME_DIMS
100
AcDbText
 62
2
  6
CONTINUOUS
 10
7.1996546238
 20
9.0829948871
  7
STANDARD
 40
0.1
  1
26,9
 41
1.0
 72
0
100
AcDbText
  0
TEXT
  5
425
100
AcDbEntity
  8
SCHEME_DIMS
100
AcDbText
 62
2
  6
CONTINUOUS
 10
7.2996546238
 20
8.9329948871
  7
STANDARD
 40
0.1
  1
1.06
 41
1.0
 72
0
100
AcDbText
  0
TEXT
  5
426
100
AcDbEntity
  8
SCHEME_DIMS
100
AcDbText
 62
2
  6
CONTINUOUS
 10
7.1996546238
 20
8.9329948871
  7
STANDARD
 40
0.1
  1
[
 41
1.0
 72
0
100
AcDbText
  0
TEXT
  5
427
100
AcDbEntity
  8
SCHEME_DIMS
100
AcDbText
 62
2
  6
CONTINUOUS
 10
7.6996546238
 20
8.9329948871
  7
STANDARD
 40
0.1
  1
]
 41
1.0
 72
0
100
AcDbText
  0
LINE
  5
428
100
AcDbEntity
  8
SCHEME_DIMS
100
AcDbLine
 62
2
  6
CONTINUOUS
 10
6.9121546238
 20
8.6034673281
 11
7.4746546238
 21
8.6034673281
  0
LINE
  5
429
100
AcDbEntity
  8
SCHEME_DIMS
100
AcDbLine
 62
2
  6
CONTINUOUS
 10
6.9121546238
 20
9.6625224462
 11
7.4746546238
 21
9.6625224462
  0
LINE
  5
42A
100
AcDbEntity
  8
SCHEME_DIMS
100
AcDbLine
 62
2
  6
CONTINUOUS
 10
7.3496546238
 20
8.6034673281
 11
7.3496546238
 21
8.8329948871
  0
LINE
  5
42B
100
AcDbEntity
  8
SCHEME_DIMS
100
AcDbLine
 62
2
  6
CONTINUOUS
 10
7.3496546238
 20
9.6625224462
 11
7.3496546238
 21
9.2829948871
  0
INSERT
  5
42C
100
AcDbEntity
  8
SCHEME_DIMS
100
AcDbBlockReference
 62
2
  6
CONTINUOUS
  2
_FILLED
 10
7.3496546238
 20
8.6034673281
 41
0.1875
 42
0.1875
 43
0.1875
 50
270.0
  0
INSERT
  5
42D
100
AcDbEntity
  8
SCHEME_DIMS
100
AcDbBlockReference
 62
2
  6
CONTINUOUS
  2
_FILLED
 10
7.3496546238
 20
9.6625224462
 41
0.1875
 42
0.1875
 43
0.1875
 50
90.0
  0
ENDBLK
  5
42E
100
AcDbEntity
  8
0
  6
BYBLOCK
 62
0
100
AcDbBlockEnd
  0
BLOCK
  5
42F
100
AcDbEntity
  8
0
100
AcDbBlockBegin
  2
_FILLED
 70
64
 10
0.0
 20
0.0
  3
_FILLED
  1

  0
SOLID
  5
430
100
AcDbEntity
  8
0
  6
BYBLOCK
 62
0
100
AcDbTrace
 10
0.0
 20
0.0
 11
-1.0
 21
0.1666666667
 12
-1.0
 22
-0.1666666667
 13
-1.0
 23
-0.1666666667
  0
ENDBLK
  5
431
100
AcDbEntity
  8
0
  6
BYBLOCK
 62
0
100
AcDbBlockEnd
  0
ENDSEC
  0
SECTION
  2
ENTITIES
  0
TEXT
  5
432
100
AcDbEntity
  8
0
100
AcDbText
 62
2
  6
CONTINUOUS
 10
14.8374677477
 20
1.5655662523
  7
STANDARD
 40
0.1
  1
%%uTHIRD ANGLE PROJECTION
 41
0.8
 72
1
 11
15.7174677477
 21
1.5655662523
100
AcDbText
  0
TEXT
  5
433
100
AcDbEntity
  8
0
100
AcDbText
 62
2
  6
CONTINUOUS
 10
17.55
 20
1.24
  7
STANDARD
 40
0.08
  1
DRAWING NO.
 41
1.0
 72
0
100
AcDbText
  0
TEXT
  5
434
100
AcDbEntity
  8
0
100
AcDbText
 62
2
  6
CONTINUOUS
 10
14.714
 20
2.299432
  7
STANDARD
 40
0.08
  1
and is proprietary in general
 41
0.85
 72
1
 11
15.7
 21
2.299432
100
AcDbText
  0
TEXT
  5
435
100
AcDbEntity
  8
0
100
AcDbText
 62
2
  6
CONTINUOUS
 10
14.748
 20
2.179432
  7
STANDARD
 40
0.08
  1
and in detail.  Its contents
 41
0.85
 72
1
 11
15.7
 21
2.179432
100
AcDbText
  0
TEXT
  5
436
100
AcDbEntity
  8
0
100
AcDbText
 62
2
  6
CONTINUOUS
 10
14.884
 20
2.059432
  7
STANDARD
 40
0.08
  1
shall not be revealed to
 41
0.85
 72
1
 11
15.7
 21
2.059432
100
AcDbText
  0
TEXT
  5
437
100
AcDbEntity
  8
0
100
AcDbText
 62
2
  6
CONTINUOUS
 10
14.918
 20
1.939432
  7
STANDARD
 40
0.08
  1
outside parties without
 41
0.85
 72
1
 11
15.7
 21
1.939432
100
AcDbText
  0
TEXT
  5
438
100
AcDbEntity
  8
0
100
AcDbText
 62
2
  6
CONTINUOUS
 10
14.816
 20
1.819432
  7
STANDARD
 40
0.08
  1
written consent of BANNER.
 41
0.85
 72
1
 11
15.7
 21
1.819432
100
AcDbText
  0
TEXT
  5
439
100
AcDbEntity
  8
0
100
AcDbText
 62
2
  6
CONTINUOUS
 10
16.75
 20
1.98
  7
STANDARD
 40
0.1
  1
TITLE
 41
0.8
 72
0
100
AcDbText
  0
TEXT
  5
43A
100
AcDbEntity
  8
0
100
AcDbText
 62
2
  6
CONTINUOUS
 10
16.75
 20
1.24
  7
STANDARD
 40
0.08
  1
SIZE
 41
1.0
 72
0
100
AcDbText
  0
TEXT
  5
43B
100
AcDbEntity
  8
0
100
AcDbText
 62
2
  6
CONTINUOUS
 10
16.75
 20
0.87
  7
STANDARD
 40
0.08
  1
SCALE
 41
1.0
 72
0
100
AcDbText
  0
TEXT
  5
43C
100
AcDbEntity
  8
0
100
AcDbText
 62
2
  6
CONTINUOUS
 10
17.13
 20
1.1
  7
STANDARD
 40
0.1
  1
C
 41
0.8
 72
1
 11
17.17
 21
1.1
100
AcDbText
  0
TEXT
  5
43D
100
AcDbEntity
  8
0
100
AcDbText
 62
2
  6
CONTINUOUS
 10
14.782
 20
2.419432
  7
STANDARD
 40
0.08
  1
of BANNER ENGINEERING CORP.
 41
0.85
 72
1
 11
15.7
 21
2.419432
100
AcDbText
  0
TEXT
  5
43E
100
AcDbEntity
  8
0
100
AcDbText
 62
2
  6
CONTINUOUS
 10
14.748
 20
2.539432
  7
STANDARD
 40
0.08
  1
This drawing is the property
 41
0.85
 72
1
 11
15.7
 21
2.539432
100
AcDbText
  0
TEXT
  5
43F
100
AcDbEntity
  8
0
100
AcDbText
 62
2
  6
CONTINUOUS
 10
18.86
 20
2.1764
  7
STANDARD
 40
0.1
  1
MINNEAPOLIS, MN 55440
 41
0.8
 72
1
 11
19.7
 21
2.1764
100
AcDbText
  0
TEXT
  5
440
100
AcDbEntity
  8
0
100
AcDbText
 62
2
  6
CONTINUOUS
 10
18.925
 20
0.87
  7
STANDARD
 40
0.08
  1
SHEET
 41
1.0
 72
0
100
AcDbText
  0
TEXT
  5
441
100
AcDbEntity
  8
0
100
AcDbText
 62
2
  6
CONTINUOUS
 10
20.3
 20
1.24
  7
STANDARD
 40
0.08
  1
REV.
 41
1.0
 72
0
100
AcDbText
  0
TEXT
  5
442
100
AcDbEntity
  8
0
100
AcDbText
 62
2
  6
CONTINUOUS
 10
20.7
 20
0.628443
  7
STANDARD
 40
0.07
  1
PRO/E
 41
1.0
 72
2
 11
21.05
 21
0.628443
100
AcDbText
  0
TEXT
  5
443
100
AcDbEntity
  8
0
100
AcDbText
 62
2
  6
CONTINUOUS
 10
18.3752
 20
2.494049
  7
STANDARD
 40
0.12
  1
BANNER ENGINEERING CORP.
 41
0.92
 72
1
 11
19.7
 21
2.494049
100
AcDbText
  0
TEXT
  5
444
100
AcDbEntity
  8
0
100
AcDbText
 62
2
  6
CONTINUOUS
 10
19.18
 20
2.3354
  7
STANDARD
 40
0.1
  1
P.O. BOX 9414
 41
0.8
 72
1
 11
19.7
 21
2.3354
100
AcDbText
  0
TEXT
  5
445
100
AcDbEntity
  8
0
100
AcDbText
 62
2
  6
CONTINUOUS
 10
12.217
 20
15.85
  7
STANDARD
 40
0.1
  1
4
 41
0.8
 72
1
 11
12.257
 21
15.85
100
AcDbText
  0
TEXT
  5
446
100
AcDbEntity
  8
0
100
AcDbText
 62
2
  6
CONTINUOUS
 10
12.217
 20
0.55
  7
STANDARD
 40
0.1
  1
4
 41
0.8
 72
1
 11
12.257
 21
0.55
100
AcDbText
  0
TEXT
  5
447
100
AcDbEntity
  8
0
100
AcDbText
 62
2
  6
CONTINUOUS
 10
0.784
 20
6.275
  7
STANDARD
 40
0.1
  1
B
 41
0.8
 72
2
 11
0.864
 21
6.275
100
AcDbText
  0
TEXT
  5
448
100
AcDbEntity
  8
0
100
AcDbText
 62
2
  6
CONTINUOUS
 10
21.15
 20
6.275
  7
STANDARD
 40
0.1
  1
B
 41
0.8
 72
0
100
AcDbText
  0
TEXT
  5
449
100
AcDbEntity
  8
0
100
AcDbText
 62
2
  6
CONTINUOUS
 10
0.784
 20
2.425
  7
STANDARD
 40
0.1
  1
A
 41
0.8
 72
2
 11
0.864
 21
2.425
100
AcDbText
  0
TEXT
  5
44A
100
AcDbEntity
  8
0
100
AcDbText
 62
2
  6
CONTINUOUS
 10
21.15
 20
2.425
  7
STANDARD
 40
0.1
  1
A
 41
0.8
 72
0
100
AcDbText
  0
TEXT
  5
44B
100
AcDbEntity
  8
0
100
AcDbText
 62
2
  6
CONTINUOUS
 10
0.784
 20
13.975
  7
STANDARD
 40
0.1
  1
D
 41
0.8
 72
2
 11
0.864
 21
13.975
100
AcDbText
  0
TEXT
  5
44C
100
AcDbEntity
  8
0
100
AcDbText
 62
2
  6
CONTINUOUS
 10
21.15
 20
13.975
  7
STANDARD
 40
0.1
  1
D
 41
0.8
 72
0
100
AcDbText
  0
TEXT
  5
44D
100
AcDbEntity
  8
0
100
AcDbText
 62
2
  6
CONTINUOUS
 10
0.784
 20
10.125
  7
STANDARD
 40
0.1
  1
C
 41
0.8
 72
2
 11
0.864
 21
10.125
100
AcDbText
  0
TEXT
  5
44E
100
AcDbEntity
  8
0
100
AcDbText
 62
2
  6
CONTINUOUS
 10
21.15
 20
10.125
  7
STANDARD
 40
0.1
  1
C
 41
0.8
 72
0
100
AcDbText
  0
TEXT
  5
44F
100
AcDbEntity
  8
0
100
AcDbText
 62
2
  6
CONTINUOUS
 10
14.717
 20
0.55
  7
STANDARD
 40
0.1
  1
3
 41
0.8
 72
1
 11
14.757
 21
0.55
100
AcDbText
  0
TEXT
  5
450
100
AcDbEntity
  8
0
100
AcDbText
 62
2
  6
CONTINUOUS
 10
14.717
 20
15.85
  7
STANDARD
 40
0.1
  1
3
 41
0.8
 72
1
 11
14.757
 21
15.85
100
AcDbText
  0
TEXT
  5
451
100
AcDbEntity
  8
0
100
AcDbText
 62
2
  6
CONTINUOUS
 10
17.217
 20
15.85
  7
STANDARD
 40
0.1
  1
2
 41
0.8
 72
1
 11
17.257
 21
15.85
100
AcDbText
  0
TEXT
  5
452
100
AcDbEntity
  8
0
100
AcDbText
 62
2
  6
CONTINUOUS
 10
17.217
 20
0.55
  7
STANDARD
 40
0.1
  1
2
 41
0.8
 72
1
 11
17.257
 21
0.55
100
AcDbText
  0
TEXT
  5
453
100
AcDbEntity
  8
0
100
AcDbText
 62
2
  6
CONTINUOUS
 10
19.717
 20
0.55
  7
STANDARD
 40
0.1
  1
1
 41
0.8
 72
1
 11
19.757
 21
0.55
100
AcDbText
  0
TEXT
  5
454
100
AcDbEntity
  8
0
100
AcDbText
 62
2
  6
CONTINUOUS
 10
19.717
 20
15.85
  7
STANDARD
 40
0.1
  1
1
 41
0.8
 72
1
 11
19.757
 21
15.85
100
AcDbText
  0
TEXT
  5
455
100
AcDbEntity
  8
0
100
AcDbText
 62
2
  6
CONTINUOUS
 10
2.217
 20
0.55
  7
STANDARD
 40
0.1
  1
8
 41
0.8
 72
1
 11
2.257
 21
0.55
100
AcDbText
  0
TEXT
  5
456
100
AcDbEntity
  8
0
100
AcDbText
 62
2
  6
CONTINUOUS
 10
4.717
 20
0.55
  7
STANDARD
 40
0.1
  1
7
 41
0.8
 72
1
 11
4.757
 21
0.55
100
AcDbText
  0
TEXT
  5
457
100
AcDbEntity
  8
0
100
AcDbText
 62
2
  6
CONTINUOUS
 10
7.217
 20
0.55
  7
STANDARD
 40
0.1
  1
6
 41
0.8
 72
1
 11
7.257
 21
0.55
100
AcDbText
  0
TEXT
  5
458
100
AcDbEntity
  8
0
100
AcDbText
 62
2
  6
CONTINUOUS
 10
9.717
 20
0.55
  7
STANDARD
 40
0.1
  1
5
 41
0.8
 72
1
 11
9.757
 21
0.55
100
AcDbText
  0
TEXT
  5
459
100
AcDbEntity
  8
0
100
AcDbText
 62
2
  6
CONTINUOUS
 10
9.717
 20
15.85
  7
STANDARD
 40
0.1
  1
5
 41
0.8
 72
1
 11
9.757
 21
15.85
100
AcDbText
  0
TEXT
  5
45A
100
AcDbEntity
  8
0
100
AcDbText
 62
2
  6
CONTINUOUS
 10
7.217
 20
15.85
  7
STANDARD
 40
0.1
  1
6
 41
0.8
 72
1
 11
7.257
 21
15.85
100
AcDbText
  0
TEXT
  5
45B
100
AcDbEntity
  8
0
100
AcDbText
 62
2
  6
CONTINUOUS
 10
4.717
 20
15.85
  7
STANDARD
 40
0.1
  1
7
 41
0.8
 72
1
 11
4.757
 21
15.85
100
AcDbText
  0
TEXT
  5
45C
100
AcDbEntity
  8
0
100
AcDbText
 62
2
  6
CONTINUOUS
 10
2.217
 20
15.85
  7
STANDARD
 40
0.1
  1
8
 41
0.8
 72
1
 11
2.257
 21
15.85
100
AcDbText
  0
TEXT
  5
45D
100
AcDbEntity
  8
0
100
AcDbText
 62
2
  6
CONTINUOUS
 10
17.2749123633
 20
0.8184107931
  7
STANDARD
 40
0.1
  1
1:1
 41
1.0
 72
0
100
AcDbText
  0
MTEXT
  5
45E
100
AcDbEntity
  8
0
100
AcDbMText
 62
2
  6
CONTINUOUS
  7
STANDARD
 71
1
 72
1
 10
19.4499123633
 20
0.9184107931
 30
0.0
 11
1.0
 21
0.0
 31
0.0
  1
1 OF 1
 40
0.1
 41
0.6
  0
TEXT
  5
45F
100
AcDbEntity
  8
0
100
AcDbText
 62
7
  6
CONTINUOUS
 10
18.5204017884
 20
1.1200373234
  7
STANDARD
 40
0.12
  1
145176
 41
1.0
 72
0
100
AcDbText
  0
MTEXT
  5
460
100
AcDbEntity
  8
0
100
AcDbMText
 62
2
  6
CONTINUOUS
  7
STANDARD
 71
1
 72
1
 10
1.7464424763
 20
1.7731130192
 30
0.0
 11
1.0
 21
0.0
 31
0.0
  1
NOTES:\P1. ALL DIMENSIONS ARE MILLIMETERS [INCHES] UNLESS OTHERWISE NOTED.
 40
0.1
 41
6.6
  0
INSERT
  5
461
100
AcDbEntity
  8
0
100
AcDbBlockReference
 62
2
  6
CONTINUOUS
  2
BANNER_LOGO_TITLEBLOCK_BL0
 10
17.5737928667
 20
2.4016160592
  0
DIMENSION
  5
462
100
AcDbEntity
  8
SCHEME_DIMS
100
AcDbDimension
 62
2
  6
CONTINUOUS
  2
*D0
 10
7.3496546238
 20
6.855435832
 11
7.8496546238
 21
6.0482905681
 70
160
 42
8.35
  3
DIMSTYLE_1
100
AcDbAlignedDimension
 13
6.1316428128
 23
6.5266956745
 14
6.4397136789
 24
6.855435832
 50
90.0
100
AcDbRotatedDimension
  0
DIMENSION
  5
463
100
AcDbEntity
  8
SCHEME_DIMS
100
AcDbDimension
 62
2
  6
CONTINUOUS
  2
*D1
 10
7.9216851078
 20
7.6034673281
 11
7.9216851078
 21
7.0652188639
 70
160
 42
27.35
  3
DIMSTYLE_1
100
AcDbAlignedDimension
 13
6.1316428128
 23
6.5266956745
 14
6.7029667316
 24
7.6034673281
 50
90.0
100
AcDbRotatedDimension
  0
DIMENSION
  5
464
100
AcDbEntity
  8
SCHEME_DIMS
100
AcDbDimension
 62
2
  6
CONTINUOUS
  2
*D2
 10
8.4127350983
 20
14.8160657532
 11
8.4127350983
 21
10.7750147637
 70
160
 42
210.55
  3
DIMSTYLE_1
100
AcDbAlignedDimension
 13
6.1316428128
 23
6.5266956745
 14
6.8733790044
 24
14.8160657532
 50
90.0
100
AcDbRotatedDimension
  0
DIMENSION
  5
465
100
AcDbEntity
  8
SCHEME_DIMS
100
AcDbDimension
 62
2
  6
CONTINUOUS
  2
*D3
 10
6.751229427
 20
6.0266956745
 11
5.8654026553
 21
5.9516956745
 70
160
 42
45.0
  3
DIMSTYLE_1
100
AcDbAlignedDimension
 13
4.9795758837
 23
7.6348175232
 14
6.751229427
 24
7.6278700782
100
AcDbRotatedDimension
  0
DIMENSION
  5
466
100
AcDbEntity
  8
SCHEME_DIMS
100
AcDbDimension
 62
2
  6
CONTINUOUS
  2
*D4
 10
6.6581237008
 20
4.655565957
 11
7.5701314067
 21
4.7979177752
 70
163
 42
50.0
  1
<>
  3
DIMSTYLE_2
100
AcDbDiametricDimension
 15
5.0726816098
 25
3.4887835754
  0
DIMENSION
  5
467
100
AcDbEntity
  8
SCHEME_DIMS
100
AcDbDimension
 62
2
  6
CONTINUOUS
  2
*D5
 10
7.3496546238
 20
9.6625224462
 11
7.3496546238
 21
9.0579948871
 70
160
 42
26.9
  1
4X <>
  3
DIMSTYLE_1
100
AcDbAlignedDimension
 13
6.9121546238
 23
8.6034673281
 14
6.9121546238
 24
9.6625224462
 50
90.0
100
AcDbRotatedDimension
  0
LINE
  5
468
100
AcDbEntity
  8
0
100
AcDbLine
 62
2
  6
CONTINUOUS
 10
21.05
 20
0.75
 11
16.7
 21
0.75
  0
LINE
  5
469
100
AcDbEntity
  8
0
100
AcDbLine
 62
2
  6
CONTINUOUS
 10
21.05
 20
0.75
 11
21.05
 21
2.67
  0
LINE
  5
46A
100
AcDbEntity
  8
0
100
AcDbLine
 62
2
  6
CONTINUOUS
 10
21.05
 20
2.67
 11
16.7
 21
2.67
  0
LINE
  5
46B
100
AcDbEntity
  8
0
100
AcDbLine
 62
2
  6
CONTINUOUS
 10
16.7
 20
0.75
 11
16.7
 21
2.67
  0
TEXT
  5
46C
100
AcDbEntity
  8
0
100
AcDbText
 62
7
  6
CONTINUOUS
 10
20.775
 20
1.13
  7
STANDARD
 40
0.1
  1
A
 41
1.0
 72
1
 11
20.825
 21
1.13
100
AcDbText
  0
MTEXT
  5
46D
100
AcDbEntity
  8
0
100
AcDbMText
 62
7
  6
CONTINUOUS
  7
STANDARD
 71
2
 72
1
 10
18.875
 20
1.83
 30
0.0
 11
1.0
 21
0.0
 31
0.0
  1
TL50 4-STACK QD\PWEB CAD DRAWINGS 2D/3D
 40
0.1
 41
2.2
  0
TEXT
  5
46E
100
AcDbEntity
  8
NOTES
100
AcDbText
 62
2
  6
CONTINUOUS
 10
3.1810848832
 20
6.8208261239
  7
STANDARD
 40
0.1
  1
M30 X 1.5-6g
 41
1.0
 72
0
100
AcDbText
  0
LINE
  5
46F
100
AcDbEntity
  8
NOTES
100
AcDbLine
 62
2
  6
CONTINUOUS
 10
5.3236114953
 20
7.0080019844
 11
4.6310848832
 21
6.8708261239
  0
LINE
  5
470
100
AcDbEntity
  8
NOTES
100
AcDbLine
 62
2
  6
CONTINUOUS
 10
4.6310848832
 20
6.8708261239
 11
4.3810848832
 21
6.8708261239
  0
SOLID
  5
471
100
AcDbEntity
  8
NOTES
100
AcDbTrace
 62
2
  6
CONTINUOUS
 10
5.1457570645
 20
6.9409153691
 11
5.3236114953
 21
7.0080019844
 12
5.1336129963
 22
7.0022241908
 13
5.1336129963
 23
7.0022241908
  0
TEXT
  5
472
100
AcDbEntity
  8
NOTES
100
AcDbText
 62
2
  6
CONTINUOUS
 10
3.3524110131
 20
6.1009711727
  7
STANDARD
 40
0.1
  1
M12 X 1-6g
 41
1.0
 72
0
100
AcDbText
  0
LINE
  5
473
100
AcDbEntity
  8
NOTES
100
AcDbLine
 62
2
  6
CONTINUOUS
 10
5.6980511246
 20
6.6201876547
 11
4.6024110131
 21
6.1509711727
  0
LINE
  5
474
100
AcDbEntity
  8
NOTES
100
AcDbLine
 62
2
  6
CONTINUOUS
 10
4.6024110131
 20
6.1509711727
 11
4.3524110131
 21
6.1509711727
  0
SOLID
  5
475
100
AcDbEntity
  8
NOTES
100
AcDbTrace
 62
2
  6
CONTINUOUS
 10
5.5379942361
 20
6.517646907
 11
5.6980511246
 21
6.6201876547
 12
5.5133895011
 22
6.5750999924
 13
5.5133895011
 23
6.5750999924
  0
MTEXT
  5
476
100
AcDbEntity
  8
NOTES
100
AcDbMText
 62
2
  6
CONTINUOUS
  7
STANDARD
 71
2
 72
1
 10
17.1407532353
 20
4.3893451941
 30
0.0
 11
1.0
 21
0.0
 31
0.0
  1
ISOMETRIC VIEW\P\H0.1;SCALE  1:1
 40
0.125
 41
1.75
  0
TEXT
  5
477
100
AcDbEntity
  8
NOTES
100
AcDbText
 62
2
  6
CONTINUOUS
 10
3.1488830848
 20
4.7479653263
  7
STANDARD
 40
0.1
  1
1/2-14 NPSM
 41
1.0
 72
0
100
AcDbText
  0
LINE
  5
478
100
AcDbEntity
  8
NOTES
100
AcDbLine
 62
2
  6
CONTINUOUS
 10
5.5059594988
 20
4.1952226469
 11
4.4988830848
 21
4.7979653263
  0
LINE
  5
479
100
AcDbEntity
  8
NOTES
100
AcDbLine
 62
2
  6
CONTINUOUS
 10
4.4988830848
 20
4.7979653263
 11
4.2488830848
 21
4.7979653263
  0
SOLID
  5
47A
100
AcDbEntity
  8
NOTES
100
AcDbTrace
 62
2
  6
CONTINUOUS
 10
5.3290251746
 20
4.2646996749
 11
5.5059594988
 21
4.1952226469
 12
5.3611222823
 22
4.318328265
 13
5.3611222823
 23
4.318328265
  0
LINE
  5
47B
100
AcDbEntity
  8
0
100
AcDbLine
 62
2
  6
CONTINUOUS
 10
0.814
 20
8.336603
 11
0.814
 21
8.163397
  0
LINE
  5
47C
100
AcDbEntity
  8
0
100
AcDbLine
 62
2
  6
CONTINUOUS
 10
0.964
 20
15.75
 11
0.964
 21
0.75
  0
LINE
  5
47D
100
AcDbEntity
  8
0
100
AcDbLine
 62
7
  6
CONTINUOUS
 10
15.8276527477
 20
1.2966912523
 11
16.4340437477
 21
1.3660842523
  0
LINE
  5
47E
100
AcDbEntity
  8
0
100
AcDbLine
 62
2
  6
CONTINUOUS
 10
10.920397
 20
0.6
 11
11.093603
 21
0.6
  0
LINE
  5
47F
100
AcDbEntity
  8
0
100
AcDbLine
 62
2
  6
CONTINUOUS
 10
0.964
 20
0.75
 11
21.05
 21
0.75
  0
LINE
  5
480
100
AcDbEntity
  8
0
100
AcDbLine
 62
2
  6
CONTINUOUS
 10
3.507
 20
0.75
 11
3.507
 21
0.5
  0
LINE
  5
481
100
AcDbEntity
  8
0
100
AcDbLine
 62
2
  6
CONTINUOUS
 10
3.507
 20
15.75
 11
3.507
 21
16.0
  0
LINE
  5
482
100
AcDbEntity
  8
0
100
AcDbLine
 62
2
  6
CONTINUOUS
 10
16.7
 20
1.0
 11
21.05
 21
1.0
  0
LINE
  5
483
100
AcDbEntity
  8
0
100
AcDbLine
 62
7
  6
CONTINUOUS
 10
14.9008917477
 20
1.1139932523
 11
15.1229827477
 21
1.1139932523
  0
LINE
  5
484
100
AcDbEntity
  8
0
100
AcDbLine
 62
7
  6
CONTINUOUS
 10
15.1729827477
 20
1.1139932523
 11
15.2729827477
 21
1.1139932523
  0
LINE
  5
485
100
AcDbEntity
  8
0
100
AcDbLine
 62
7
  6
CONTINUOUS
 10
15.3229827477
 20
1.1139932523
 11
15.5450737477
 21
1.1139932523
  0
LINE
  5
486
100
AcDbEntity
  8
0
100
AcDbLine
 62
7
  6
CONTINUOUS
 10
15.7276527477
 20
1.1139932523
 11
16.0058047477
 21
1.1139932523
  0
LINE
  5
487
100
AcDbEntity
  8
0
100
AcDbLine
 62
7
  6
CONTINUOUS
 10
16.0558047477
 20
1.1139932523
 11
16.2058907477
 21
1.1139932523
  0
LINE
  5
488
100
AcDbEntity
  8
0
100
AcDbLine
 62
7
  6
CONTINUOUS
 10
16.2558907477
 20
1.1139932523
 11
16.5340437477
 21
1.1139932523
  0
LINE
  5
489
100
AcDbEntity
  8
0
100
AcDbLine
 62
2
  6
CONTINUOUS
 10
16.7
 20
1.37
 11
21.05
 21
1.37
  0
LINE
  5
48A
100
AcDbEntity
  8
0
100
AcDbLine
 62
7
  6
CONTINUOUS
 10
16.4340437477
 20
0.8619022523
 11
15.8276527477
 21
0.9312952523
  0
LINE
  5
48B
100
AcDbEntity
  8
0
100
AcDbLine
 62
2
  6
CONTINUOUS
 10
14.7
 20
1.77
 11
16.7
 21
1.77
  0
LINE
  5
48C
100
AcDbEntity
  8
0
100
AcDbLine
 62
2
  6
CONTINUOUS
 10
16.7
 20
2.13
 11
21.05
 21
2.13
  0
LINE
  5
48D
100
AcDbEntity
  8
0
100
AcDbLine
 62
2
  6
CONTINUOUS
 10
21.05
 20
2.67
 11
14.7
 21
2.67
  0
LINE
  5
48E
100
AcDbEntity
  8
0
100
AcDbLine
 62
2
  6
CONTINUOUS
 10
6.007
 20
0.75
 11
6.007
 21
0.5
  0
LINE
  5
48F
100
AcDbEntity
  8
0
100
AcDbLine
 62
2
  6
CONTINUOUS
 10
6.007
 20
15.75
 11
6.007
 21
16.0
  0
LINE
  5
490
100
AcDbEntity
  8
0
100
AcDbLine
 62
2
  6
CONTINUOUS
 10
0.814
 20
8.163397
 11
0.964
 21
8.25
  0
LINE
  5
491
100
AcDbEntity
  8
0
100
AcDbLine
 62
2
  6
CONTINUOUS
 10
0.964
 20
8.25
 11
0.814
 21
8.336603
  0
LINE
  5
492
100
AcDbEntity
  8
0
100
AcDbLine
 62
2
  6
CONTINUOUS
 10
0.964
 20
4.4
 11
0.714
 21
4.4
  0
LINE
  5
493
100
AcDbEntity
  8
0
100
AcDbLine
 62
2
  6
CONTINUOUS
 10
21.05
 20
4.4
 11
21.3
 21
4.4
  0
LINE
  5
494
100
AcDbEntity
  8
0
100
AcDbLine
 62
2
  6
CONTINUOUS
 10
11.093603
 20
0.6
 11
11.007
 21
0.75
  0
LINE
  5
495
100
AcDbEntity
  8
0
100
AcDbLine
 62
2
  6
CONTINUOUS
 10
11.007
 20
15.75
 11
11.093603
 21
15.9
  0
LINE
  5
496
100
AcDbEntity
  8
0
100
AcDbLine
 62
2
  6
CONTINUOUS
 10
8.507
 20
0.75
 11
8.507
 21
0.5
  0
LINE
  5
497
100
AcDbEntity
  8
0
100
AcDbLine
 62
2
  6
CONTINUOUS
 10
8.507
 20
15.75
 11
8.507
 21
16.0
  0
LINE
  5
498
100
AcDbEntity
  8
0
100
AcDbLine
 62
2
  6
CONTINUOUS
 10
11.007
 20
0.75
 11
11.007
 21
0.5
  0
LINE
  5
499
100
AcDbEntity
  8
0
100
AcDbLine
 62
2
  6
CONTINUOUS
 10
11.007
 20
15.75
 11
11.007
 21
16.0
  0
LINE
  5
49A
100
AcDbEntity
  8
0
100
AcDbLine
 62
2
  6
CONTINUOUS
 10
0.964
 20
8.25
 11
0.714
 21
8.25
  0
LINE
  5
49B
100
AcDbEntity
  8
0
100
AcDbLine
 62
2
  6
CONTINUOUS
 10
21.05
 20
8.25
 11
21.3
 21
8.25
  0
LINE
  5
49C
100
AcDbEntity
  8
0
100
AcDbLine
 62
2
  6
CONTINUOUS
 10
13.507
 20
0.75
 11
13.507
 21
0.5
  0
LINE
  5
49D
100
AcDbEntity
  8
0
100
AcDbLine
 62
2
  6
CONTINUOUS
 10
13.507
 20
15.75
 11
13.507
 21
16.0
  0
LINE
  5
49E
100
AcDbEntity
  8
0
100
AcDbLine
 62
2
  6
CONTINUOUS
 10
14.7
 20
2.67
 11
14.7
 21
0.75
  0
LINE
  5
49F
100
AcDbEntity
  8
0
100
AcDbLine
 62
2
  6
CONTINUOUS
 10
11.007
 20
0.75
 11
10.920397
 21
0.6
  0
LINE
  5
4A0
100
AcDbEntity
  8
0
100
AcDbLine
 62
2
  6
CONTINUOUS
 10
0.964
 20
12.1
 11
0.714
 21
12.1
  0
LINE
  5
4A1
100
AcDbEntity
  8
0
100
AcDbLine
 62
2
  6
CONTINUOUS
 10
21.05
 20
12.1
 11
21.3
 21
12.1
  0
LINE
  5
4A2
100
AcDbEntity
  8
0
100
AcDbLine
 62
2
  6
CONTINUOUS
 10
10.920397
 20
15.9
 11
11.007
 21
15.75
  0
LINE
  5
4A3
100
AcDbEntity
  8
0
100
AcDbLine
 62
7
  6
CONTINUOUS
 10
15.2229827477
 20
1.0139932523
 11
15.2229827477
 21
0.7919022523
  0
LINE
  5
4A4
100
AcDbEntity
  8
0
100
AcDbLine
 62
7
  6
CONTINUOUS
 10
15.2229827477
 20
1.0639932523
 11
15.2229827477
 21
1.1639932523
  0
LINE
  5
4A5
100
AcDbEntity
  8
0
100
AcDbLine
 62
7
  6
CONTINUOUS
 10
15.2229827477
 20
1.2139932523
 11
15.2229827477
 21
1.4360842523
  0
LINE
  5
4A6
100
AcDbEntity
  8
0
100
AcDbLine
 62
7
  6
CONTINUOUS
 10
15.8276527477
 20
0.9312952523
 11
15.8276527477
 21
1.2966912523
  0
LINE
  5
4A7
100
AcDbEntity
  8
0
100
AcDbLine
 62
2
  6
CONTINUOUS
 10
16.007
 20
0.75
 11
16.007
 21
0.5
  0
LINE
  5
4A8
100
AcDbEntity
  8
0
100
AcDbLine
 62
2
  6
CONTINUOUS
 10
16.007
 20
15.75
 11
16.007
 21
16.0
  0
LINE
  5
4A9
100
AcDbEntity
  8
0
100
AcDbLine
 62
7
  6
CONTINUOUS
 10
16.4340437477
 20
1.3660842523
 11
16.4340437477
 21
0.8619022523
  0
LINE
  5
4AA
100
AcDbEntity
  8
0
100
AcDbLine
 62
2
  6
CONTINUOUS
 10
21.2
 20
8.336603
 11
21.05
 21
8.25
  0
LINE
  5
4AB
100
AcDbEntity
  8
0
100
AcDbLine
 62
2
  6
CONTINUOUS
 10
21.05
 20
8.25
 11
21.2
 21
8.163397
  0
LINE
  5
4AC
100
AcDbEntity
  8
0
100
AcDbLine
 62
7
  6
CONTINUOUS
 10
16.7
 20
2.67
 11
16.7
 21
0.75
  0
LINE
  5
4AD
100
AcDbEntity
  8
0
100
AcDbLine
 62
2
  6
CONTINUOUS
 10
17.5
 20
1.37
 11
17.5
 21
1.0
  0
LINE
  5
4AE
100
AcDbEntity
  8
0
100
AcDbLine
 62
2
  6
CONTINUOUS
 10
18.507
 20
0.75
 11
18.507
 21
0.5
  0
LINE
  5
4AF
100
AcDbEntity
  8
0
100
AcDbLine
 62
2
  6
CONTINUOUS
 10
18.507
 20
15.75
 11
18.507
 21
16.0
  0
LINE
  5
4B0
100
AcDbEntity
  8
0
100
AcDbLine
 62
2
  6
CONTINUOUS
 10
21.05
 20
15.75
 11
0.964
 21
15.75
  0
LINE
  5
4B1
100
AcDbEntity
  8
0
100
AcDbLine
 62
2
  6
CONTINUOUS
 10
11.093603
 20
15.9
 11
10.920397
 21
15.9
  0
LINE
  5
4B2
100
AcDbEntity
  8
0
100
AcDbLine
 62
2
  6
CONTINUOUS
 10
18.875
 20
1.0
 11
18.875
 21
0.75
  0
LINE
  5
4B3
100
AcDbEntity
  8
0
100
AcDbLine
 62
2
  6
CONTINUOUS
 10
20.25
 20
1.37
 11
20.25
 21
1.0
  0
LINE
  5
4B4
100
AcDbEntity
  8
0
100
AcDbLine
 62
2
  6
CONTINUOUS
 10
21.05
 20
0.75
 11
21.05
 21
15.75
  0
LINE
  5
4B5
100
AcDbEntity
  8
0
100
AcDbLine
 62
2
  6
CONTINUOUS
 10
21.2
 20
8.163397
 11
21.2
 21
8.336603
  0
LWPOLYLINE
  5
4B6
100
AcDbEntity
  8
0
100
AcDbPolyline
 62
7
  6
CONTINUOUS
 90
4
 70
0
 10
6.1014224566
 20
6.6760436788
 10
6.0967343693
 20
6.6750249652
 10
6.0861482729
 20
6.6740213385
 10
6.0699755853
 20
6.6730211338
  0
LWPOLYLINE
  5
4B7
100
AcDbEntity
  8
0
100
AcDbPolyline
 62
7
  6
CONTINUOUS
 90
8
 70
0
 10
6.098705243
 20
6.5965759346
 10
6.0901254325
 20
6.5955987926
 10
6.0759620665
 20
6.5946140557
 10
6.0563343022
 20
6.5936169299
 10
6.0318778025
 20
6.5926196607
 10
6.0035945711
 20
6.5916348553
 10
5.9720823145
 20
6.590655327
 10
5.937934377
 20
6.5896748518
  0
LWPOLYLINE
  5
4B8
100
AcDbEntity
  8
0
100
AcDbPolyline
 62
7
  6
CONTINUOUS
 90
8
 70
0
 10
5.632117266
 20
6.6556372193
 10
5.6407627181
 20
6.6566185717
 10
5.6547540724
 20
6.6575909684
 10
5.6740476012
 20
6.658574202
 10
5.698157791
 20
6.6595617412
 10
5.7261688318
 20
6.6605412469
 10
5.7576176939
 20
6.6615220148
 10
5.7921455474
 20
6.6625151662
  0
LWPOLYLINE
  5
4B9
100
AcDbEntity
  8
0
100
AcDbPolyline
 62
7
  6
CONTINUOUS
 90
8
 70
0
 10
6.0986402442
 20
6.6359350701
 10
6.0899983719
 20
6.6349579644
 10
6.0758597258
 20
6.6339781511
 10
6.0563157812
 20
6.6329861743
 10
6.0319934598
 20
6.6319940652
 10
6.0038809368
 20
6.6310143051
 10
5.9724337597
 20
6.6300358588
 10
5.9380471069
 20
6.6290480728
  0
LWPOLYLINE
  5
4BA
100
AcDbEntity
  8
0
100
AcDbPolyline
 62
7
  6
CONTINUOUS
 90
8
 70
0
 10
5.6321594949
 20
6.6162742432
 10
5.6408638885
 20
6.617257152
 10
5.6549795156
 20
6.6182340768
 10
5.6741995346
 20
6.6192109915
 10
5.6980511246
 20
6.6201876547
 10
5.7259635794
 20
6.6211644258
 10
5.7574429314
 20
6.6221467253
 10
5.7920202964
 20
6.6231415924
  0
LWPOLYLINE
  5
4BB
100
AcDbEntity
  8
0
100
AcDbPolyline
 62
7
  6
CONTINUOUS
 90
8
 70
0
 10
6.0986342298
 20
6.714674221
 10
6.0899306063
 20
6.7136923286
 10
6.0757884333
 20
6.7127141471
 10
6.0564324441
 20
6.7117315896
 10
6.0325695223
 20
6.7107558127
 10
6.0047273397
 20
6.7097822201
 10
5.9732656874
 20
6.7088007956
 10
5.9387137398
 20
6.7078068228
  0
LWPOLYLINE
  5
4BC
100
AcDbEntity
  8
0
100
AcDbPolyline
 62
7
  6
CONTINUOUS
 90
3
 70
0
 10
6.0755766296
 20
6.5680342572
 10
6.0819735811
 20
6.5686974495
 10
6.0829035135
 20
6.5689996122
  0
LWPOLYLINE
  5
4BD
100
AcDbEntity
  8
0
100
AcDbPolyline
 62
7
  6
CONTINUOUS
 90
4
 70
0
 10
6.0419244042
 20
6.6917219212
 10
6.0565795895
 20
6.6927833694
 10
6.0657618248
 20
6.6938448176
 10
6.068944095
 20
6.6946694457
  0
LWPOLYLINE
  5
4BE
100
AcDbEntity
  8
0
100
AcDbPolyline
 62
7
  6
CONTINUOUS
 90
9
 70
0
 10
5.9383960653
 20
6.5877192204
 10
5.8704072291
 20
6.5833818592
 10
5.8367063885
 20
6.5812049411
 10
5.8041804254
 20
6.5790228719
 10
5.7735254206
 20
6.576835656
 10
5.7453909601
 20
6.5746432769
 10
5.72036543
 20
6.5724456626
 10
5.6989633886
 20
6.5702426838
 10
5.6816154526
 20
6.5680342572
  0
LWPOLYLINE
  5
4BF
100
AcDbEntity
  8
0
100
AcDbPolyline
 62
7
  6
CONTINUOUS
 90
4
 70
0
 10
6.0699755853
 20
6.7104227086
 10
6.0861482729
 20
6.7114229133
 10
6.0967343693
 20
6.71242654
 10
6.1013742086
 20
6.7134158683
  0
LWPOLYLINE
  5
4C0
100
AcDbEntity
  8
0
100
AcDbPolyline
 62
7
  6
CONTINUOUS
 90
6
 70
0
 10
6.0699755853
 20
6.6730211338
 10
6.0502291051
 20
6.6720897894
 10
6.0262888311
 20
6.6711541688
 10
5.9989463288
 20
6.6702242779
 10
5.968439842
 20
6.669287657
 10
5.9352669929
 20
6.6683408033
  0
LWPOLYLINE
  5
4C1
100
AcDbEntity
  8
0
100
AcDbPolyline
 62
7
  6
CONTINUOUS
 90
9
 70
0
 10
5.9227246901
 20
6.608206319
 10
5.9547557403
 20
6.6092634785
 10
5.9842493998
 20
6.6103206381
 10
6.0103681268
 20
6.6113777976
 10
6.0323702187
 20
6.6124349571
 10
6.0496308744
 20
6.6134921166
 10
6.061659937
 20
6.6145492761
 10
6.0681158131
 20
6.6156064357
 10
6.068944095
 20
6.6159292883
  0
LWPOLYLINE
  5
4C2
100
AcDbEntity
  8
0
100
AcDbPolyline
 62
7
  6
CONTINUOUS
 90
9
 70
0
 10
5.9147135369
 20
6.6473212213
 10
5.9472229774
 20
6.6483783808
 10
5.9774089376
 20
6.6494355404
 10
6.0044142164
 20
6.6504926999
 10
6.0274719353
 20
6.6515498594
 10
6.0459273162
 20
6.6526070189
 10
6.0592562754
 20
6.6536641784
 10
6.0670803056
 20
6.654721338
 10
6.068944095
 20
6.655299367
  0
LWPOLYLINE
  5
4C3
100
AcDbEntity
  8
0
100
AcDbPolyline
 62
7
  6
CONTINUOUS
 90
6
 70
0
 10
5.9066206142
 20
6.6864361236
 10
5.9395545364
 20
6.6874932831
 10
5.9703827417
 20
6.6885504427
 10
5.9982297909
 20
6.6896076022
 10
6.0223049015
 20
6.6906647617
 10
6.0419244042
 20
6.6917219212
  0
LWPOLYLINE
  5
4C4
100
AcDbEntity
  8
0
100
AcDbPolyline
 62
7
  6
CONTINUOUS
 90
9
 70
0
 10
5.9028562752
 20
6.7256882637
 10
5.9360988383
 20
6.7267497119
 10
5.9673175346
 20
6.7278111601
 10
5.9956186454
 20
6.7288726083
 10
6.0201919761
 20
6.7299340565
 10
6.0403340494
 20
6.7309955047
 10
6.0554682447
 20
6.7320569529
 10
6.0651613052
 20
6.7331184011
 10
6.068944095
 20
6.7340395245
  0
LWPOLYLINE
  5
4C5
100
AcDbEntity
  8
0
100
AcDbPolyline
 62
7
  6
CONTINUOUS
 90
9
 70
0
 10
5.8972886545
 20
6.5680342572
 10
5.9306407893
 20
6.5690914167
 10
5.9621403341
 20
6.5701485762
 10
5.9908927852
 20
6.5712057358
 10
6.0160816492
 20
6.5722628953
 10
6.0369916293
 20
6.5733200548
 10
6.0530289373
 20
6.5743772143
 10
6.0637381563
 20
6.5754343738
 10
6.068944095
 20
6.5765592095
  0
LINE
  5
4C6
100
AcDbEntity
  8
0
100
AcDbLine
 62
7
  6
CONTINUOUS
 10
5.8207071463
 20
6.6050348404
 11
5.9227246901
 21
6.608206319
  0
LINE
  5
4C7
100
AcDbEntity
  8
0
100
AcDbLine
 62
7
  6
CONTINUOUS
 10
5.8126476318
 20
6.6441497428
 11
5.9147135369
 21
6.6473212213
  0
LINE
  5
4C8
100
AcDbEntity
  8
0
100
AcDbLine
 62
7
  6
CONTINUOUS
 10
5.8046755981
 20
6.6832646451
 11
5.9066206142
 21
6.6864361236
  0
LWPOLYLINE
  5
4C9
100
AcDbEntity
  8
0
100
AcDbPolyline
 62
7
  6
CONTINUOUS
 90
9
 70
0
 10
5.7921455474
 20
6.6251135914
 10
5.7576176939
 20
6.62412044
 10
5.7261688318
 20
6.6231396721
 10
5.698157791
 20
6.6221601664
 10
5.6740476012
 20
6.6211726272
 10
5.6547540724
 20
6.6201893936
 10
5.6407627181
 20
6.6192169969
 10
5.632117266
 20
6.6182356445
 10
5.629431102
 20
6.6175345358
  0
LWPOLYLINE
  5
4CA
100
AcDbEntity
  8
0
100
AcDbPolyline
 62
7
  6
CONTINUOUS
 90
9
 70
0
 10
5.9383960653
 20
6.5877192204
 10
5.9726099496
 20
6.5887025198
 10
6.0039288673
 20
6.5896772919
 10
6.0321573672
 20
6.590661618
 10
6.0565508465
 20
6.5916581918
 10
6.0761147979
 20
6.5926545021
 10
6.0902187991
 20
6.5936383408
 10
6.0987736242
 20
6.5946190749
 10
6.1013742086
 20
6.5953056321
  0
LWPOLYLINE
  5
4CB
100
AcDbEntity
  8
0
100
AcDbPolyline
 62
7
  6
CONTINUOUS
 90
9
 70
0
 10
5.937934377
 20
6.6270764266
 10
5.9720823145
 20
6.6280569018
 10
6.0035945711
 20
6.6290364301
 10
6.0318778025
 20
6.6300212355
 10
6.0563343022
 20
6.6310185047
 10
6.0759620665
 20
6.6320156305
 10
6.0901254325
 20
6.6330003674
 10
6.098705243
 20
6.6339775094
 10
6.1013742086
 20
6.6346757109
  0
LWPOLYLINE
  5
4CC
100
AcDbEntity
  8
0
100
AcDbPolyline
 62
7
  6
CONTINUOUS
 90
9
 70
0
 10
5.9380471069
 20
6.6664496476
 10
5.9724337597
 20
6.6674374336
 10
6.0038809368
 20
6.6684158799
 10
6.0319934598
 20
6.66939564
 10
6.0563157812
 20
6.6703877491
 10
6.0758597258
 20
6.6713797259
 10
6.0899983719
 20
6.6723595392
 10
6.0986402442
 20
6.6733366449
 10
6.1013742086
 20
6.6740457896
  0
LWPOLYLINE
  5
4CD
100
AcDbEntity
  8
0
100
AcDbPolyline
 62
7
  6
CONTINUOUS
 90
9
 70
0
 10
5.7929834066
 20
6.6645070334
 10
5.7586746281
 20
6.6635219855
 10
5.7271748132
 20
6.6625427202
 10
5.6989665155
 20
6.6615605482
 10
5.6745623451
 20
6.6605659336
 10
5.6549591394
 20
6.6595714698
 10
5.6407883364
 20
6.6585892718
 10
5.6321792666
 20
6.6576161341
 10
5.629431102
 20
6.6569046145
  0
LWPOLYLINE
  5
4CE
100
AcDbEntity
  8
0
100
AcDbPolyline
 62
7
  6
CONTINUOUS
 90
9
 70
0
 10
5.7925415885
 20
6.7038647958
 10
5.7585125638
 20
6.7028872445
 10
5.7270747659
 20
6.7019095257
 10
5.6987931582
 20
6.7009241435
 10
5.6743490692
 20
6.6999264027
 10
5.6547435294
 20
6.698928933
 10
5.6406090374
 20
6.6979439302
 10
5.6320485161
 20
6.6969641291
 10
5.629431102
 20
6.6962746932
  0
LWPOLYLINE
  5
4CF
100
AcDbEntity
  8
0
100
AcDbPolyline
 62
7
  6
CONTINUOUS
 90
6
 70
0
 10
5.9352669929
 20
6.7057423781
 10
5.968439842
 20
6.7066892318
 10
5.9989463288
 20
6.7076258527
 10
6.0262888311
 20
6.7085557437
 10
6.0502291051
 20
6.7094913642
 10
6.0699755853
 20
6.7104227086
  0
LINE
  5
4D0
100
AcDbEntity
  8
0
100
AcDbLine
 62
7
  6
CONTINUOUS
 10
5.937934377
 20
6.5896748518
 11
5.8654026553
 21
6.5877192966
  0
LINE
  5
4D1
100
AcDbEntity
  8
0
100
AcDbLine
 62
7
  6
CONTINUOUS
 10
5.7920202964
 20
6.6231415924
 11
5.937934377
 21
6.6270764266
  0
LINE
  5
4D2
100
AcDbEntity
  8
0
100
AcDbLine
 62
7
  6
CONTINUOUS
 10
5.9380471069
 20
6.6290480728
 11
5.7921455474
 21
6.6251135914
  0
LINE
  5
4D3
100
AcDbEntity
  8
0
100
AcDbLine
 62
7
  6
CONTINUOUS
 10
5.7921455474
 20
6.6625151662
 11
5.9380471069
 21
6.6664496476
  0
LINE
  5
4D4
100
AcDbEntity
  8
0
100
AcDbLine
 62
7
  6
CONTINUOUS
 10
5.9352669929
 20
6.6683408033
 11
5.7929834066
 21
6.6645070334
  0
LINE
  5
4D5
100
AcDbEntity
  8
0
100
AcDbLine
 62
7
  6
CONTINUOUS
 10
5.7929834066
 20
6.7019086082
 11
5.9352669929
 21
6.7057423781
  0
LINE
  5
4D6
100
AcDbEntity
  8
0
100
AcDbLine
 62
7
  6
CONTINUOUS
 10
5.9387137398
 20
6.7078068228
 11
5.7925415885
 21
6.7038647958
  0
LINE
  5
4D7
100
AcDbEntity
  8
0
100
AcDbLine
 62
7
  6
CONTINUOUS
 10
5.7899253147
 20
6.5864199238
 11
5.8654020487
 21
6.5877192585
  0
LINE
  5
4D8
100
AcDbEntity
  8
0
100
AcDbLine
 62
7
  6
CONTINUOUS
 10
5.6616624978
 20
6.5266956745
 11
6.0691428128
 21
6.5266956745
  0
LINE
  5
4D9
100
AcDbEntity
  8
0
100
AcDbLine
 62
7
  6
CONTINUOUS
 10
5.6616624978
 20
6.5660657532
 11
6.0691428128
 21
6.5660657532
  0
LINE
  5
4DA
100
AcDbEntity
  8
0
100
AcDbLine
 62
7
  6
CONTINUOUS
 10
6.0819344822
 20
6.5680342572
 11
5.6488705084
 21
6.5680342572
  0
LINE
  5
4DB
100
AcDbEntity
  8
0
100
AcDbLine
 62
7
  6
CONTINUOUS
 10
5.8654026553
 20
6.5877192966
 11
5.9383960653
 21
6.5877192204
  0
LWPOLYLINE
  5
4DC
100
AcDbEntity
  8
0
100
AcDbPolyline
 62
7
  6
CONTINUOUS
 90
9
 70
0
 10
5.6618612157
 20
6.5969108797
 10
5.6644670092
 20
6.5976347238
 10
5.6730671613
 20
6.5986918833
 10
5.6871291316
 20
6.5997490428
 10
5.7062535974
 20
6.6008062024
 10
5.7298974746
 20
6.6018633619
 10
5.7573893396
 20
6.6029205214
 10
5.7879484966
 20
6.6039776809
 10
5.8207071463
 20
6.6050348404
  0
LWPOLYLINE
  5
4DD
100
AcDbEntity
  8
0
100
AcDbPolyline
 62
7
  6
CONTINUOUS
 90
4
 70
0
 10
5.6618612157
 20
6.8331313521
 10
5.6650434858
 20
6.8339559802
 10
5.6742257211
 20
6.8350174284
 10
5.6888809064
 20
6.8360788766
  0
LWPOLYLINE
  5
4DE
100
AcDbEntity
  8
0
100
AcDbPolyline
 62
7
  6
CONTINUOUS
 90
9
 70
0
 10
5.6618612157
 20
6.7937612734
 10
5.6656440054
 20
6.7946823968
 10
5.675337066
 20
6.795743845
 10
5.6904712613
 20
6.7968052932
 10
5.7106133345
 20
6.7978667414
 10
5.7351866652
 20
6.7989281896
 10
5.763487776
 20
6.7999896378
 10
5.7947064723
 20
6.801051086
 10
5.8279490355
 20
6.8021125342
  0
LWPOLYLINE
  5
4DF
100
AcDbEntity
  8
0
100
AcDbPolyline
 62
7
  6
CONTINUOUS
 90
9
 70
0
 10
5.6618612157
 20
6.7543911946
 10
5.6662918986
 20
6.7554088133
 10
5.6764934857
 20
6.7564702615
 10
5.6921031018
 20
6.7575317097
 10
5.7126738802
 20
6.7585931579
 10
5.7376169273
 20
6.7596546061
 10
5.7662181819
 20
6.7607160543
 10
5.7976588568
 20
6.7617775025
 10
5.8310388786
 20
6.7628389507
  0
LWPOLYLINE
  5
4E0
100
AcDbEntity
  8
02___PRT_ALL_AXES
100
AcDbPolyline
 62
7
  6
CONTINUOUS
 90
5
 70
0
 10
6.0913865643
 20
6.9637295143
 10
6.0617385046
 20
6.957064073
 10
6.0306805912
 20
6.9509003435
 10
5.9994580766
 20
6.945594936
 10
5.9691000348
 20
6.9413341923
  0
LWPOLYLINE
  5
4E1
100
AcDbEntity
  8
0
100
AcDbPolyline
 62
7
  6
CONTINUOUS
 90
10
 70
0
 10
5.6618612157
 20
6.7150211159
 10
5.6669870118
 20
6.7161352299
 10
5.677694706
 20
6.7171966781
 10
5.6937760411
 20
6.7182581263
 10
5.7147706462
 20
6.7193195745
 10
5.7400774944
 20
6.7203810227
 10
5.7689721099
 20
6.7214424709
 10
5.800627307
 20
6.7225039191
 10
5.8341368713
 20
6.7235653673
 10
5.9028562752
 20
6.7256882637
  0
LWPOLYLINE
  5
4E2
100
AcDbEntity
  8
0
100
AcDbPolyline
 62
7
  6
CONTINUOUS
 90
4
 70
0
 10
5.6293825074
 20
6.8517568959
 10
5.6340693768
 20
6.8527756276
 10
5.6446548212
 20
6.8537792942
 10
5.6608297253
 20
6.854779664
  0
LWPOLYLINE
  5
4E3
100
AcDbEntity
  8
0
100
AcDbPolyline
 62
7
  6
CONTINUOUS
 90
8
 70
0
 10
6.0987816497
 20
6.7540692695
 10
6.0902473667
 20
6.7530896298
 10
6.0762178351
 20
6.7521093735
 10
6.0567649447
 20
6.751116687
 10
6.0325090029
 20
6.7501236198
 10
6.0044339105
 20
6.7491426658
 10
5.9730388311
 20
6.7481641124
 10
5.9385701954
 20
6.7471728965
  0
LWPOLYLINE
  5
4E4
100
AcDbEntity
  8
0
100
AcDbPolyline
 62
7
  6
CONTINUOUS
 90
8
 70
0
 10
5.6320227842
 20
6.7737313779
 10
5.6405574626
 20
6.7747111264
 10
5.6545895219
 20
6.7756915446
 10
5.6740466107
 20
6.7766843934
 10
5.6983096478
 20
6.7776776787
 10
5.7263935956
 20
6.7786588603
 10
5.7577767096
 20
6.7796369903
 10
5.7922335204
 20
6.7806278568
  0
LWPOLYLINE
  5
4E5
100
AcDbEntity
  8
0
100
AcDbPolyline
 62
7
  6
CONTINUOUS
 90
8
 70
0
 10
5.6320485161
 20
6.7343657039
 10
5.6406090374
 20
6.735345505
 10
5.6547435294
 20
6.7363305078
 10
5.6743490692
 20
6.7373279775
 10
5.6987931582
 20
6.7383257183
 10
5.7270747659
 20
6.7393111005
 10
5.7585125638
 20
6.7402888193
 10
5.7925415885
 20
6.7412663706
  0
LWPOLYLINE
  5
4E6
100
AcDbEntity
  8
0
100
AcDbPolyline
 62
7
  6
CONTINUOUS
 90
8
 70
0
 10
6.0987584695
 20
6.7934353801
 10
6.0901985898
 20
6.7924554928
 10
6.0760650029
 20
6.7914704789
 10
6.0564603448
 20
6.7904730054
 10
6.0320185238
 20
6.789475318
 10
6.0037399714
 20
6.7884900058
 10
5.9723081547
 20
6.7875124369
 10
5.938276166
 20
6.7865347742
  0
LWPOLYLINE
  5
4E7
100
AcDbEntity
  8
0
100
AcDbPolyline
 62
7
  6
CONTINUOUS
 90
8
 70
0
 10
5.6321792666
 20
6.6950177089
 10
5.6407883364
 20
6.6959908466
 10
5.6549591394
 20
6.6969730446
 10
5.6745623451
 20
6.6979675084
 10
5.6989665155
 20
6.698962123
 10
5.7271748132
 20
6.699944295
 10
5.7586746281
 20
6.7009235603
 10
5.7929834066
 20
6.7019086082
  0
LWPOLYLINE
  5
4E8
100
AcDbEntity
  8
0
100
AcDbPolyline
 62
7
  6
CONTINUOUS
 90
8
 70
0
 10
6.0986287694
 20
6.8327835443
 10
6.0900218479
 20
6.8318103689
 10
6.0758499028
 20
6.8308279711
 10
6.0562436445
 20
6.82983332
 10
6.0318361618
 20
6.8288385764
 10
6.0036239916
 20
6.82785629
 10
5.9721213547
 20
6.8268769602
 10
5.9378167029
 20
6.8258920447
  0
LWPOLYLINE
  5
4E9
100
AcDbEntity
  8
0
100
AcDbPolyline
 62
7
  6
CONTINUOUS
 90
3
 70
0
 10
5.6407568416
 20
6.855435832
 10
5.6321571128
 20
6.8544628203
 10
5.629431102
 20
6.8537550082
  0
LWPOLYLINE
  5
4EA
100
AcDbEntity
  8
0
100
AcDbPolyline
 62
7
  6
CONTINUOUS
 90
8
 70
0
 10
5.6321710743
 20
6.8131265757
 10
5.6408742975
 20
6.8141084345
 10
5.6550167248
 20
6.8150866418
 10
5.6743776719
 20
6.8160694249
 10
5.6982481551
 20
6.8170454494
 10
5.7260866504
 20
6.8180188629
 10
5.7575452045
 20
6.8190001686
 10
5.7920936934
 20
6.8199940343
  0
LWPOLYLINE
  5
4EB
100
AcDbEntity
  8
0
100
AcDbPolyline
 62
7
  6
CONTINUOUS
 90
4
 70
0
 10
5.6608297253
 20
6.8173780892
 10
5.6446548212
 20
6.8163777194
 10
5.6340693768
 20
6.8153740528
 10
5.629431102
 20
6.8143849295
  0
LWPOLYLINE
  5
4EC
100
AcDbEntity
  8
0
100
AcDbPolyline
 62
7
  6
CONTINUOUS
 90
6
 70
0
 10
5.6888809064
 20
6.8360788766
 10
5.7085894978
 20
6.8371403248
 10
5.7327872843
 20
6.838201773
 10
5.7607815397
 20
6.8392632212
 10
5.7917708537
 20
6.8403246694
 10
5.8248680746
 20
6.8413861176
  0
LINE
  5
4ED
100
AcDbEntity
  8
0
100
AcDbLine
 62
7
  6
CONTINUOUS
 10
5.6608297253
 20
6.854779664
 11
5.6747415336
 21
6.855435832
  0
LWPOLYLINE
  5
4EE
100
AcDbEntity
  8
0
100
AcDbPolyline
 62
7
  6
CONTINUOUS
 90
9
 70
0
 10
5.9271941917
 20
6.8445704622
 10
5.9590564039
 20
6.8456319104
 10
5.9882375277
 20
6.8466933586
 10
6.0139021755
 20
6.8477548068
 10
6.0353156282
 20
6.848816255
 10
6.0518648686
 20
6.8498777032
 10
6.0630761306
 20
6.8509391514
 10
6.0686284618
 20
6.8520005996
 10
6.068944095
 20
6.8521497607
  0
LWPOLYLINE
  5
4EF
100
AcDbEntity
  8
0
100
AcDbPolyline
 62
7
  6
CONTINUOUS
 90
10
 70
0
 10
5.8310388786
 20
6.7628389507
 10
5.899766432
 20
6.7649618471
 10
5.9331464538
 20
6.7660232953
 10
5.9645871287
 20
6.7670847435
 10
5.9931883833
 20
6.7681461917
 10
6.0181314304
 20
6.7692076399
 10
6.0387022088
 20
6.7702690881
 10
6.054311825
 20
6.7713305363
 10
6.064513412
 20
6.7723919845
 10
6.068944095
 20
6.7734096032
  0
LWPOLYLINE
  5
4F0
100
AcDbEntity
  8
0
100
AcDbPolyline
 62
7
  6
CONTINUOUS
 90
10
 70
0
 10
5.8279490355
 20
6.8021125342
 10
5.8966684393
 20
6.8042354306
 10
5.9301780036
 20
6.8052968788
 10
5.9618332008
 20
6.806358327
 10
5.9907278162
 20
6.8074197752
 10
6.0160346644
 20
6.8084812234
 10
6.0370292695
 20
6.8095426716
 10
6.0531106047
 20
6.8106041198
 10
6.0638182989
 20
6.811665568
 10
6.068944095
 20
6.812779682
  0
LINE
  5
4F1
100
AcDbEntity
  8
0
100
AcDbLine
 62
7
  6
CONTINUOUS
 10
5.8248680746
 20
6.8413861176
 11
5.9271941917
 21
6.8445704622
  0
LWPOLYLINE
  5
4F2
100
AcDbEntity
  8
0
100
AcDbPolyline
 62
7
  6
CONTINUOUS
 90
9
 70
0
 10
5.9387137398
 20
6.7452083976
 10
5.9732656874
 20
6.7462023704
 10
6.0047273397
 20
6.7471837949
 10
6.0325695223
 20
6.7481573875
 10
6.0564324441
 20
6.7491331644
 10
6.0757884333
 20
6.7501157219
 10
6.0899306063
 20
6.7510939034
 10
6.0986342298
 20
6.7520757958
 10
6.1013742086
 20
6.7527859471
  0
LWPOLYLINE
  5
4F3
100
AcDbEntity
  8
0
100
AcDbPolyline
 62
7
  6
CONTINUOUS
 90
9
 70
0
 10
5.7920936934
 20
6.7825924595
 10
5.7575452045
 20
6.7815985938
 10
5.7260866504
 20
6.7806172881
 10
5.6982481551
 20
6.7796438746
 10
5.6743776719
 20
6.7786678501
 10
5.6550167248
 20
6.777685067
 10
5.6408742975
 20
6.7767068597
 10
5.6321710743
 20
6.7757250009
 10
5.629431102
 20
6.7750148507
  0
LWPOLYLINE
  5
4F4
100
AcDbEntity
  8
0
100
AcDbPolyline
 62
7
  6
CONTINUOUS
 90
9
 70
0
 10
5.7922335204
 20
6.743226282
 10
5.7577767096
 20
6.7422354155
 10
5.7263935956
 20
6.7412572855
 10
5.6983096478
 20
6.7402761039
 10
5.6740466107
 20
6.7392828186
 10
5.6545895219
 20
6.7382899698
 10
5.6405574626
 20
6.7373095516
 10
5.6320227842
 20
6.7363298031
 10
5.629431102
 20
6.735644772
  0
LWPOLYLINE
  5
4F5
100
AcDbEntity
  8
0
100
AcDbPolyline
 62
7
  6
CONTINUOUS
 90
9
 70
0
 10
5.9385701954
 20
6.7845744713
 10
5.9730388311
 20
6.7855656872
 10
6.0044339105
 20
6.7865442406
 10
6.0325090029
 20
6.7875251946
 10
6.0567649447
 20
6.7885182618
 10
6.0762178351
 20
6.7895109483
 10
6.0902473667
 20
6.7904912046
 10
6.0987816497
 20
6.7914708443
 10
6.1013742086
 20
6.7921560258
  0
LWPOLYLINE
  5
4F6
100
AcDbEntity
  8
0
100
AcDbPolyline
 62
7
  6
CONTINUOUS
 90
9
 70
0
 10
5.938276166
 20
6.823936349
 10
5.9723081547
 20
6.8249140117
 10
6.0037399714
 20
6.8258915806
 10
6.0320185238
 20
6.8268768928
 10
6.0564603448
 20
6.8278745802
 10
6.0760650029
 20
6.8288720537
 10
6.0901985898
 20
6.8298570676
 10
6.0987584695
 20
6.8308369549
 10
6.1013742086
 20
6.8315261046
  0
LWPOLYLINE
  5
4F7
100
AcDbEntity
  8
0
100
AcDbPolyline
 62
7
  6
CONTINUOUS
 90
6
 70
0
 10
5.79552916
 20
6.8220581654
 10
5.7623550695
 20
6.8211112595
 10
5.7318440578
 20
6.8201744652
 10
5.7045070164
 20
6.8192447114
 10
5.6805711196
 20
6.818309217
 10
5.6608297253
 20
6.8173780892
  0
LINE
  5
4F8
100
AcDbEntity
  8
0
100
AcDbLine
 62
7
  6
CONTINUOUS
 10
5.7925415885
 20
6.7412663706
 11
5.9387137398
 21
6.7452083976
  0
LINE
  5
4F9
100
AcDbEntity
  8
0
100
AcDbLine
 62
7
  6
CONTINUOUS
 10
5.9385701954
 20
6.7471728965
 11
5.7922335204
 21
6.743226282
  0
LINE
  5
4FA
100
AcDbEntity
  8
0
100
AcDbLine
 62
7
  6
CONTINUOUS
 10
5.7922335204
 20
6.7806278568
 11
5.9385701954
 21
6.7845744713
  0
LINE
  5
4FB
100
AcDbEntity
  8
0
100
AcDbLine
 62
7
  6
CONTINUOUS
 10
5.938276166
 20
6.7865347742
 11
5.7920936934
 21
6.7825924595
  0
LINE
  5
4FC
100
AcDbEntity
  8
0
100
AcDbLine
 62
7
  6
CONTINUOUS
 10
5.7920936934
 20
6.8199940343
 11
5.938276166
 21
6.823936349
  0
LINE
  5
4FD
100
AcDbEntity
  8
0
100
AcDbLine
 62
7
  6
CONTINUOUS
 10
5.9378167029
 20
6.8258920447
 11
5.79552916
 21
6.8220581654
  0
LWPOLYLINE
  5
4FE
100
AcDbEntity
  8
02___PRT_ALL_AXES
100
AcDbPolyline
 62
7
  6
CONTINUOUS
 90
9
 70
0
 10
6.0913865643
 20
6.9637295143
 10
6.1731043919
 20
6.9652024302
 10
6.2472810015
 20
6.966675346
 10
6.3120984577
 20
6.9681482619
 10
6.3659682006
 20
6.9696211777
 10
6.4075699796
 20
6.9710940936
 10
6.4358842096
 20
6.9725670094
 10
6.4502169596
 20
6.9740399252
 10
6.4517910705
 20
6.9745156166
  0
LWPOLYLINE
  5
4FF
100
AcDbEntity
  8
02___PRT_ALL_AXES
100
AcDbPolyline
 62
7
  6
CONTINUOUS
 90
9
 70
0
 10
6.0913865643
 20
6.9711114041
 10
6.1731043919
 20
6.9725843199
 10
6.2472810015
 20
6.9740572358
 10
6.3120984577
 20
6.9755301516
 10
6.3659682006
 20
6.9770030675
 10
6.4075699796
 20
6.9784759833
 10
6.4358842096
 20
6.9799488992
 10
6.4502169596
 20
6.981421815
 10
6.4520168285
 20
6.9821582729
  0
LWPOLYLINE
  5
500
100
AcDbEntity
  8
02___PRT_ALL_AXES
100
AcDbPolyline
 62
7
  6
CONTINUOUS
 90
10
 70
0
 10
5.9691000348
 20
6.9413341923
 10
6.0548747753
 20
6.9428535242
 10
6.1360382429
 20
6.9443792946
 10
6.2096350244
 20
6.9458952269
 10
6.2748629601
 20
6.947425579
 10
6.329697007
 20
6.948969755
 10
6.3718517816
 20
6.950506357
 10
6.4002023137
 20
6.9520218673
 10
6.4147593256
 20
6.9535541469
 10
6.416343505
 20
6.9540415695
  0
LWPOLYLINE
  5
501
100
AcDbEntity
  8
02___PRT_ALL_AXES
100
AcDbPolyline
 62
7
  6
CONTINUOUS
 90
10
 70
0
 10
5.7617052759
 20
6.9860729048
 10
5.674471538
 20
6.9845270652
 10
5.5926932663
 20
6.9829871594
 10
5.5191950009
 20
6.9814686621
 10
5.4547813302
 20
6.9799518915
 10
5.4011378514
 20
6.9784382769
 10
5.3594284166
 20
6.9769212089
 10
5.3309015771
 20
6.9754061765
 10
5.3161296464
 20
6.9738703021
 10
5.3144618056
 20
6.9733655276
  0
LWPOLYLINE
  5
502
100
AcDbEntity
  8
02___PRT_ALL_AXES
100
AcDbPolyline
 62
7
  6
CONTINUOUS
 90
10
 70
0
 10
5.9691000348
 20
7.0003893104
 10
6.0557073395
 20
7.0019237653
 10
6.1366569275
 20
7.0034465275
 10
6.2100793618
 20
7.0049600507
 10
6.2754328966
 20
7.0064952276
 10
6.3302888395
 20
7.0080436292
 10
6.3723755434
 20
7.0095841716
 10
6.4005639044
 20
7.0111026059
 10
6.4148294431
 20
7.0126241163
 10
6.416343505
 20
7.0130966876
  0
LINE
  5
503
100
AcDbEntity
  8
0
100
AcDbLine
 62
7
  6
CONTINUOUS
 10
6.3772136789
 20
6.855435832
 11
5.3535916317
 21
6.855435832
  0
LINE
  5
504
100
AcDbEntity
  8
0
100
AcDbLine
 62
9
  6
CONTINUOUS
 10
5.3142215529
 20
6.8948059107
 11
6.4165837577
 21
6.8948059107
  0
LWPOLYLINE
  5
505
100
AcDbEntity
  8
02___PRT_ALL_AXES
100
AcDbPolyline
 62
7
  6
CONTINUOUS
 90
4
 70
0
 10
5.7617052759
 20
6.937776429
 10
5.7211758254
 20
6.9423278827
 10
5.680392045
 20
6.9485264805
 10
5.6394187463
 20
6.956295693
  0
LWPOLYLINE
  5
506
100
AcDbEntity
  8
02___PRT_ALL_AXES
100
AcDbPolyline
 62
7
  6
CONTINUOUS
 90
4
 70
0
 10
5.7617052759
 20
6.9968315471
 10
5.7211758254
 20
7.0013830008
 10
5.680392045
 20
7.0075815986
 10
5.6394187463
 20
7.0153508111
  0
LWPOLYLINE
  5
507
100
AcDbEntity
  8
02___PRT_ALL_AXES
100
AcDbPolyline
 62
7
  6
CONTINUOUS
 90
5
 70
0
 10
6.0913865643
 20
7.1999499868
 10
6.0620600343
 20
7.1933528168
 10
6.0313799513
 20
7.1872500524
 10
6.0001411225
 20
7.1819216007
 10
5.9691000348
 20
7.1775546647
  0
LWPOLYLINE
  5
508
100
AcDbEntity
  8
02___PRT_ALL_AXES
100
AcDbPolyline
 62
7
  6
CONTINUOUS
 90
4
 70
0
 10
6.0913865643
 20
7.0227846324
 10
6.0504108637
 20
7.01377161
 10
6.0096302813
 20
7.0062776721
 10
5.9691000348
 20
7.0003893104
  0
LWPOLYLINE
  5
509
100
AcDbEntity
  8
02___PRT_ALL_AXES
100
AcDbPolyline
 62
7
  6
CONTINUOUS
 90
4
 70
0
 10
5.6394187463
 20
6.9636775827
 10
5.6803877933
 20
6.9726892594
 10
5.7211678
 20
6.9801833512
 10
5.7617052759
 20
6.9860729048
  0
LWPOLYLINE
  5
50A
100
AcDbEntity
  8
02___PRT_ALL_AXES
100
AcDbPolyline
 62
7
  6
CONTINUOUS
 90
4
 70
0
 10
6.0913865643
 20
7.0818397506
 10
6.0504108637
 20
7.0728267281
 10
6.0096302813
 20
7.0653327902
 10
5.9691000348
 20
7.0594444285
  0
LWPOLYLINE
  5
50B
100
AcDbEntity
  8
02___PRT_ALL_AXES
100
AcDbPolyline
 62
7
  6
CONTINUOUS
 90
4
 70
0
 10
5.6394187463
 20
7.0227327008
 10
5.6803877933
 20
7.0317443775
 10
5.7211678
 20
7.0392384693
 10
5.7617052759
 20
7.0451280229
  0
LWPOLYLINE
  5
50C
100
AcDbEntity
  8
02___PRT_ALL_AXES
100
AcDbPolyline
 62
7
  6
CONTINUOUS
 90
4
 70
0
 10
6.0913865643
 20
7.1408948687
 10
6.0504108637
 20
7.1318818462
 10
6.0096302813
 20
7.1243879084
 10
5.9691000348
 20
7.1184995466
  0
LWPOLYLINE
  5
50D
100
AcDbEntity
  8
02___PRT_ALL_AXES
100
AcDbPolyline
 62
7
  6
CONTINUOUS
 90
4
 70
0
 10
5.6394187463
 20
7.0817878189
 10
5.6803961793
 20
7.0908011918
 10
5.7211753383
 20
7.0982948302
 10
5.7617052759
 20
7.104183141
  0
LWPOLYLINE
  5
50E
100
AcDbEntity
  8
02___PRT_ALL_AXES
100
AcDbPolyline
 62
7
  6
CONTINUOUS
 90
4
 70
0
 10
5.6394187463
 20
7.140842937
 10
5.6803877933
 20
7.1498546137
 10
5.7211678
 20
7.1573487056
 10
5.7617052759
 20
7.1632382591
  0
LWPOLYLINE
  5
50F
100
AcDbEntity
  8
02___PRT_ALL_AXES
100
AcDbPolyline
 62
7
  6
CONTINUOUS
 90
4
 70
0
 10
6.0913865643
 20
7.2590051049
 10
6.0504108637
 20
7.2499920824
 10
6.0096302812
 20
7.2424981446
 10
5.9691000348
 20
7.2366097828
  0
LWPOLYLINE
  5
510
100
AcDbEntity
  8
02___PRT_ALL_AXES
100
AcDbPolyline
 62
7
  6
CONTINUOUS
 90
5
 70
0
 10
5.3880658186
 20
7.1551746211
 10
5.3507834196
 20
7.1536959895
 10
5.3261553778
 20
7.1522127565
 10
5.3148643964
 20
7.150707345
 10
5.3144618056
 20
7.1505308819
  0
LWPOLYLINE
  5
511
100
AcDbEntity
  8
02___PRT_ALL_AXES
100
AcDbPolyline
 62
7
  6
CONTINUOUS
 90
5
 70
0
 10
6.342739492
 20
7.303728539
 10
6.3800184103
 20
7.3052070048
 10
6.4046480997
 20
7.3066902525
 10
6.415940604
 20
7.3081957055
 10
6.416343505
 20
7.3083722781
  0
LWPOLYLINE
  5
512
100
AcDbEntity
  8
02___PRT_ALL_AXES
100
AcDbPolyline
 62
7
  6
CONTINUOUS
 90
7
 70
0
 10
5.3880658186
 20
7.1068781453
 10
5.4318730795
 20
7.1082128009
 10
5.4846857923
 20
7.1095540219
 10
5.5448380423
 20
7.1108868623
 10
5.6118469943
 20
7.112227792
 10
5.6848177684
 20
7.1135833379
 10
5.7617052759
 20
7.1149417833
  0
LWPOLYLINE
  5
513
100
AcDbEntity
  8
02___PRT_ALL_AXES
100
AcDbPolyline
 62
7
  6
CONTINUOUS
 90
5
 70
0
 10
5.3573798791
 20
7.1273354383
 10
5.4116868505
 20
7.1288668405
 10
5.4780122072
 20
7.1303982428
 10
5.5545990704
 20
7.131929645
 10
5.6394187463
 20
7.1334610473
  0
LWPOLYLINE
  5
514
100
AcDbEntity
  8
02___PRT_ALL_AXES
100
AcDbPolyline
 62
7
  6
CONTINUOUS
 90
5
 70
0
 10
5.3573798791
 20
7.1347173281
 10
5.4116868505
 20
7.1362487303
 10
5.4780122072
 20
7.1377801325
 10
5.5545990704
 20
7.1393115348
 10
5.6394187463
 20
7.140842937
  0
LWPOLYLINE
  5
515
100
AcDbEntity
  8
02___PRT_ALL_AXES
100
AcDbPolyline
 62
7
  6
CONTINUOUS
 90
7
 70
0
 10
6.2110389195
 20
7.1230912741
 10
6.2759377032
 20
7.1246183547
 10
6.3302417332
 20
7.1261523704
 10
6.3718806119
 20
7.1276729573
 10
6.4001736649
 20
7.1291852037
 10
6.4147664783
 20
7.130721003
 10
6.416343505
 20
7.1312069238
  0
LWPOLYLINE
  5
516
100
AcDbEntity
  8
02___PRT_ALL_AXES
100
AcDbPolyline
 62
7
  6
CONTINUOUS
 90
5
 70
0
 10
6.2754328966
 20
7.0547917034
 10
6.2100793618
 20
7.0532565265
 10
6.1366569275
 20
7.0517430032
 10
6.0557073395
 20
7.0502202411
 10
5.9691000348
 20
7.0486857862
  0
LWPOLYLINE
  5
517
100
AcDbEntity
  8
02___PRT_ALL_AXES
100
AcDbPolyline
 62
7
  6
CONTINUOUS
 90
5
 70
0
 10
5.4562078097
 20
7.2269673922
 10
5.5216416434
 20
7.2285012721
 10
5.5952753125
 20
7.2300168629
 10
5.6757864907
 20
7.2315300718
 10
5.7617052759
 20
7.2330520195
  0
LINE
  5
518
100
AcDbEntity
  8
02___PRT_ALL_AXES
100
AcDbLine
 62
7
  6
CONTINUOUS
 10
5.4187068529
 20
7.0183139533
 11
5.4859291427
 21
7.0198346216
  0
LWPOLYLINE
  5
519
100
AcDbEntity
  8
02___PRT_ALL_AXES
100
AcDbPolyline
 62
7
  6
CONTINUOUS
 90
3
 70
0
 10
5.4859291427
 20
7.0198346216
 10
5.5577009188
 20
7.021259785
 10
5.6394187463
 20
7.0227327008
  0
LWPOLYLINE
  5
51A
100
AcDbEntity
  8
02___PRT_ALL_AXES
100
AcDbPolyline
 62
7
  6
CONTINUOUS
 90
9
 70
0
 10
6.0913865643
 20
7.0227846324
 10
6.1731043919
 20
7.0242575483
 10
6.2472810015
 20
7.0257304641
 10
6.3120984577
 20
7.02720338
 10
6.3659682006
 20
7.0286762958
 10
6.4075699796
 20
7.0301492117
 10
6.4358842096
 20
7.0316221275
 10
6.4502169596
 20
7.0330950434
 10
6.4517910705
 20
7.0335707347
  0
LWPOLYLINE
  5
51B
100
AcDbEntity
  8
02___PRT_ALL_AXES
100
AcDbPolyline
 62
7
  6
CONTINUOUS
 90
9
 70
0
 10
6.0913865643
 20
7.0301665222
 10
6.1731043919
 20
7.0316394381
 10
6.2472810015
 20
7.0331123539
 10
6.3120984577
 20
7.0345852697
 10
6.3659682006
 20
7.0360581856
 10
6.4075699796
 20
7.0375311014
 10
6.4358842096
 20
7.0390040173
 10
6.4502169596
 20
7.0404769331
 10
6.4520168285
 20
7.041213391
  0
LWPOLYLINE
  5
51C
100
AcDbEntity
  8
02___PRT_ALL_AXES
100
AcDbPolyline
 62
7
  6
CONTINUOUS
 90
9
 70
0
 10
6.0913865643
 20
7.0818397506
 10
6.1731043919
 20
7.0833126664
 10
6.2472810015
 20
7.0847855822
 10
6.3120984577
 20
7.0862584981
 10
6.3659682006
 20
7.0877314139
 10
6.4075699796
 20
7.0892043298
 10
6.4358842096
 20
7.0906772456
 10
6.4502169596
 20
7.0921501615
 10
6.4517910705
 20
7.0926258528
  0
LWPOLYLINE
  5
51D
100
AcDbEntity
  8
02___PRT_ALL_AXES
100
AcDbPolyline
 62
7
  6
CONTINUOUS
 90
9
 70
0
 10
6.0913865643
 20
7.0892216403
 10
6.1731043919
 20
7.0906945562
 10
6.2472810015
 20
7.092167472
 10
6.3120984577
 20
7.0936403879
 10
6.3659682006
 20
7.0951133037
 10
6.4075699796
 20
7.0965862195
 10
6.4358842096
 20
7.0980591354
 10
6.4502169596
 20
7.0995320512
 10
6.4520168285
 20
7.1002685092
  0
LWPOLYLINE
  5
51E
100
AcDbEntity
  8
02___PRT_ALL_AXES
100
AcDbPolyline
 62
7
  6
CONTINUOUS
 90
9
 70
0
 10
6.0913865643
 20
7.1408948687
 10
6.1731043919
 20
7.1423677845
 10
6.2472810015
 20
7.1438407004
 10
6.3120984577
 20
7.1453136162
 10
6.3659682006
 20
7.146786532
 10
6.4075699796
 20
7.1482594479
 10
6.4358842096
 20
7.1497323637
 10
6.4502169596
 20
7.1512052796
 10
6.4517910705
 20
7.1516809709
  0
LWPOLYLINE
  5
51F
100
AcDbEntity
  8
02___PRT_ALL_AXES
100
AcDbPolyline
 62
7
  6
CONTINUOUS
 90
9
 70
0
 10
6.0913865643
 20
7.1482767584
 10
6.1731043919
 20
7.1497496743
 10
6.2472810015
 20
7.1512225901
 10
6.3120984577
 20
7.152695506
 10
6.3659682006
 20
7.1541684218
 10
6.4075699796
 20
7.1556413377
 10
6.4358842096
 20
7.1571142535
 10
6.4502169596
 20
7.1585871693
 10
6.4520168285
 20
7.1593236273
  0
LWPOLYLINE
  5
520
100
AcDbEntity
  8
02___PRT_ALL_AXES
100
AcDbPolyline
 62
7
  6
CONTINUOUS
 90
9
 70
0
 10
6.0913865643
 20
7.1999499868
 10
6.1731043919
 20
7.2014229026
 10
6.2472810015
 20
7.2028958185
 10
6.3120984577
 20
7.2043687343
 10
6.3659682006
 20
7.2058416502
 10
6.4075699796
 20
7.207314566
 10
6.4358842096
 20
7.2087874818
 10
6.4502169596
 20
7.2102603977
 10
6.4517910705
 20
7.210736089
  0
LWPOLYLINE
  5
521
100
AcDbEntity
  8
02___PRT_ALL_AXES
100
AcDbPolyline
 62
7
  6
CONTINUOUS
 90
9
 70
0
 10
6.0913865643
 20
7.2073318765
 10
6.1731043919
 20
7.2088047924
 10
6.2472810015
 20
7.2102777082
 10
6.3120984577
 20
7.2117506241
 10
6.3659682006
 20
7.2132235399
 10
6.4075699796
 20
7.2146964558
 10
6.4358842096
 20
7.2161693716
 10
6.4502169596
 20
7.2176422875
 10
6.4520168285
 20
7.2183787454
  0
LWPOLYLINE
  5
522
100
AcDbEntity
  8
02___PRT_ALL_AXES
100
AcDbPolyline
 62
7
  6
CONTINUOUS
 90
9
 70
0
 10
6.0913865643
 20
7.2590051049
 10
6.1731043919
 20
7.2604780207
 10
6.2472810015
 20
7.2619509366
 10
6.3120984577
 20
7.2634238524
 10
6.3659682006
 20
7.2648967683
 10
6.4075699796
 20
7.2663696841
 10
6.4358842096
 20
7.2678426
 10
6.4502169596
 20
7.2693155158
 10
6.4517910705
 20
7.2697912071
  0
LWPOLYLINE
  5
523
100
AcDbEntity
  8
02___PRT_ALL_AXES
100
AcDbPolyline
 62
7
  6
CONTINUOUS
 90
9
 70
0
 10
6.0913865643
 20
7.2663869946
 10
6.1731043919
 20
7.2678599105
 10
6.2472810015
 20
7.2693328263
 10
6.3120984577
 20
7.2708057422
 10
6.3659682006
 20
7.272278658
 10
6.4075699796
 20
7.2737515739
 10
6.4358842096
 20
7.2752244897
 10
6.4502169596
 20
7.2766974056
 10
6.4520168285
 20
7.2774338635
  0
LWPOLYLINE
  5
524
100
AcDbEntity
  8
02___PRT_ALL_AXES
100
AcDbPolyline
 62
7
  6
CONTINUOUS
 90
10
 70
0
 10
5.7617052759
 20
7.0451280229
 10
5.6745866781
 20
7.0435842763
 10
5.5929548871
 20
7.0420474103
 10
5.5194809198
 20
7.0405300444
 10
5.4543951211
 20
7.0389971313
 10
5.3998058138
 20
7.0374511042
 10
5.3579732135
 20
7.0359132723
 10
5.32998879
 20
7.0343966588
 10
5.3158737197
 20
7.0328710405
 10
5.3144618056
 20
7.0324206457
  0
LWPOLYLINE
  5
525
100
AcDbEntity
  8
02___PRT_ALL_AXES
100
AcDbPolyline
 62
7
  6
CONTINUOUS
 90
10
 70
0
 10
5.9691000348
 20
7.0594444285
 10
6.0562754585
 20
7.060989208
 10
6.1380102784
 20
7.0625281771
 10
6.2114492531
 20
7.0640451422
 10
6.2756699188
 20
7.0655563959
 10
6.3294915444
 20
7.0670734934
 10
6.3713969967
 20
7.0685969887
 10
6.3999160445
 20
7.0701120168
 10
6.4146746211
 20
7.0716468172
 10
6.416343505
 20
7.0721518057
  0
LWPOLYLINE
  5
526
100
AcDbEntity
  8
02___PRT_ALL_AXES
100
AcDbPolyline
 62
7
  6
CONTINUOUS
 90
10
 70
0
 10
5.7617052759
 20
7.104183141
 10
5.6762748314
 20
7.1026700603
 10
5.5954484953
 20
7.1011513719
 10
5.5217951026
 20
7.0996357407
 10
5.4564244544
 20
7.098104026
 10
5.4014530447
 20
7.0965584768
 10
5.3591745126
 20
7.0950205141
 10
5.3307497952
 20
7.0935057878
 10
5.3161788931
 20
7.0919905752
 10
5.3144618056
 20
7.0914757638
  0
LWPOLYLINE
  5
527
100
AcDbEntity
  8
02___PRT_ALL_AXES
100
AcDbPolyline
 62
7
  6
CONTINUOUS
 90
4
 70
0
 10
5.9691000348
 20
7.1184995466
 10
6.0558795695
 20
7.1200371311
 10
6.1374687569
 20
7.1215726739
 10
6.2110389195
 20
7.1230912741
  0
LWPOLYLINE
  5
528
100
AcDbEntity
  8
02___PRT_ALL_AXES
100
AcDbPolyline
 62
7
  6
CONTINUOUS
 90
7
 70
0
 10
5.7617052759
 20
7.1632382591
 10
5.6848177684
 20
7.1618798137
 10
5.6118469943
 20
7.1605242677
 10
5.5448380423
 20
7.1591833381
 10
5.4846857923
 20
7.1578504976
 10
5.4318730795
 20
7.1565092767
 10
5.3880658186
 20
7.1551746211
  0
LWPOLYLINE
  5
529
100
AcDbEntity
  8
02___PRT_ALL_AXES
100
AcDbPolyline
 62
7
  6
CONTINUOUS
 90
10
 70
0
 10
5.9691000348
 20
7.1775546647
 10
6.0550496033
 20
7.1790771716
 10
6.1355642231
 20
7.1805904909
 10
6.2091922334
 20
7.1821060354
 10
6.2746239706
 20
7.1836399659
 10
6.3296129336
 20
7.1851875678
 10
6.3718690358
 20
7.1867275751
 10
6.400236511
 20
7.1882447508
 10
6.4146845322
 20
7.1897590884
 10
6.416343505
 20
7.1902620419
  0
LWPOLYLINE
  5
52A
100
AcDbEntity
  8
02___PRT_ALL_AXES
100
AcDbPolyline
 62
7
  6
CONTINUOUS
 90
10
 70
0
 10
5.7617052759
 20
7.2222933772
 10
5.6745207453
 20
7.2207484322
 10
5.5927848397
 20
7.2192094286
 10
5.5193428702
 20
7.2176923746
 10
5.4549677557
 20
7.2161771281
 10
5.4006744308
 20
7.2146440701
 10
5.358760486
 20
7.2131128621
 10
5.3304787014
 20
7.211596927
 10
5.3160083734
 20
7.2100654924
 10
5.3144618056
 20
7.209586
  0
LWPOLYLINE
  5
52B
100
AcDbEntity
  8
02___PRT_ALL_AXES
100
AcDbPolyline
 62
7
  6
CONTINUOUS
 90
10
 70
0
 10
5.9691000348
 20
7.2366097828
 10
6.0562795756
 20
7.2381546372
 10
6.1380163551
 20
7.2396936507
 10
6.2114567862
 20
7.2412106616
 10
6.2758067659
 20
7.2427252454
 10
6.3300826545
 20
7.2442575607
 10
6.3720019009
 20
7.2457884397
 10
6.4002991214
 20
7.2473042896
 10
6.4147884545
 20
7.2488358719
 10
6.416343505
 20
7.24931716
  0
LWPOLYLINE
  5
52C
100
AcDbEntity
  8
02___PRT_ALL_AXES
100
AcDbPolyline
 62
7
  6
CONTINUOUS
 90
10
 70
0
 10
5.7617052759
 20
7.2813484953
 10
5.6757864907
 20
7.2798265475
 10
5.5952753125
 20
7.2783133387
 10
5.5216416434
 20
7.2767977478
 10
5.4562078097
 20
7.2752638679
 10
5.4012168692
 20
7.2737163669
 10
5.3589583378
 20
7.2721765384
 10
5.3305850157
 20
7.2706595529
 10
5.3161281338
 20
7.2691455824
 10
5.3144618056
 20
7.2686411181
  0
LWPOLYLINE
  5
52D
100
AcDbEntity
  8
02___PRT_ALL_AXES
100
AcDbPolyline
 62
7
  6
CONTINUOUS
 90
7
 70
0
 10
5.9691000348
 20
7.295664901
 10
6.0459779521
 20
7.2970231732
 10
6.1189423314
 20
7.2983785853
 10
6.185941081
 20
7.299719273
 10
6.2461031123
 20
7.3010522755
 10
6.2989230026
 20
7.3023936285
 10
6.342739492
 20
7.303728539
  0
LWPOLYLINE
  5
52E
100
AcDbEntity
  8
02___PRT_ALL_AXES
100
AcDbPolyline
 62
7
  6
CONTINUOUS
 90
5
 70
0
 10
5.7617052759
 20
7.2330520195
 10
5.7306954524
 20
7.2363872934
 10
5.6994693869
 20
7.2407059586
 10
5.6687794248
 20
7.2458515104
 10
5.6394187463
 20
7.2515712835
  0
LWPOLYLINE
  5
52F
100
AcDbEntity
  8
02___PRT_ALL_AXES
100
AcDbPolyline
 62
7
  6
CONTINUOUS
 90
5
 70
0
 10
5.9691000348
 20
7.2258511405
 10
6.0001708786
 20
7.2225083553
 10
6.0314240106
 20
7.2181836914
 10
6.0621008773
 20
7.2130380163
 10
6.0913865643
 20
7.2073318765
  0
LWPOLYLINE
  5
530
100
AcDbEntity
  8
02___PRT_ALL_AXES
100
AcDbPolyline
 62
7
  6
CONTINUOUS
 90
4
 70
0
 10
5.7617052759
 20
7.0558866652
 10
5.7211858508
 20
7.0604367914
 10
5.6804030541
 20
7.0666348324
 10
5.6394187463
 20
7.0744059292
  0
LWPOLYLINE
  5
531
100
AcDbEntity
  8
02___PRT_ALL_AXES
100
AcDbPolyline
 62
7
  6
CONTINUOUS
 90
4
 70
0
 10
5.9691000348
 20
7.0486857862
 10
6.0096370484
 20
7.0441333309
 10
6.0504201842
 20
7.0379345504
 10
6.0913865643
 20
7.0301665222
  0
LWPOLYLINE
  5
532
100
AcDbEntity
  8
02___PRT_ALL_AXES
100
AcDbPolyline
 62
7
  6
CONTINUOUS
 90
4
 70
0
 10
5.7617052759
 20
7.1149417833
 10
5.7211758254
 20
7.1194932371
 10
5.680392045
 20
7.1256918348
 10
5.6394187463
 20
7.1334610473
  0
LWPOLYLINE
  5
533
100
AcDbEntity
  8
02___PRT_ALL_AXES
100
AcDbPolyline
 62
7
  6
CONTINUOUS
 90
4
 70
0
 10
5.9691000348
 20
7.1077409043
 10
6.0096370484
 20
7.103188449
 10
6.0504201842
 20
7.0969896685
 10
6.0913865643
 20
7.0892216403
  0
LWPOLYLINE
  5
534
100
AcDbEntity
  8
02___PRT_ALL_AXES
100
AcDbPolyline
 62
7
  6
CONTINUOUS
 90
4
 70
0
 10
5.7617052759
 20
7.1739969014
 10
5.7211758254
 20
7.1785483552
 10
5.680392045
 20
7.1847469529
 10
5.6394187463
 20
7.1925161654
  0
LWPOLYLINE
  5
535
100
AcDbEntity
  8
02___PRT_ALL_AXES
100
AcDbPolyline
 62
7
  6
CONTINUOUS
 90
4
 70
0
 10
5.9691000348
 20
7.1667960224
 10
6.0096370484
 20
7.1622435671
 10
6.0504201842
 20
7.1560447866
 10
6.0913865643
 20
7.1482767584
  0
LWPOLYLINE
  5
536
100
AcDbEntity
  8
02___PRT_ALL_AXES
100
AcDbPolyline
 62
7
  6
CONTINUOUS
 90
4
 70
0
 10
5.9691000348
 20
6.9896306681
 10
6.0099063794
 20
6.9850425092
 10
6.0514500081
 20
6.9787026643
 10
6.0913865643
 20
6.9711114041
  0
LINE
  5
537
100
AcDbEntity
  8
0
100
AcDbLine
 62
7
  6
CONTINUOUS
 10
5.2790142401
 20
6.9449880575
 11
5.3144618056
 21
6.9245140104
  0
LINE
  5
538
100
AcDbEntity
  8
0
100
AcDbLine
 62
7
  6
CONTINUOUS
 10
5.2790142401
 20
7.0040431757
 11
5.3144618056
 21
6.9835691285
  0
LINE
  5
539
100
AcDbEntity
  8
0
100
AcDbLine
 62
7
  6
CONTINUOUS
 10
5.2790142401
 20
7.0630982938
 11
5.3144618056
 21
7.0426242466
  0
LINE
  5
53A
100
AcDbEntity
  8
0
100
AcDbLine
 62
7
  6
CONTINUOUS
 10
5.629431102
 20
6.6149906715
 11
5.6612846767
 21
6.5965775644
  0
LINE
  5
53B
100
AcDbEntity
  8
0
100
AcDbLine
 62
7
  6
CONTINUOUS
 10
5.629431102
 20
6.6543607502
 11
5.6612846767
 21
6.6359476432
  0
LINE
  5
53C
100
AcDbEntity
  8
0
100
AcDbLine
 62
7
  6
CONTINUOUS
 10
5.629431102
 20
6.693730829
 11
5.6612846767
 21
6.6753177219
  0
LINE
  5
53D
100
AcDbEntity
  8
0
100
AcDbLine
 62
7
  6
CONTINUOUS
 10
5.629431102
 20
6.7331009077
 11
5.6612846767
 21
6.7146878007
  0
LINE
  5
53E
100
AcDbEntity
  8
0
100
AcDbLine
 62
7
  6
CONTINUOUS
 10
5.629431102
 20
6.7724709865
 11
5.6612846767
 21
6.7540578794
  0
LINE
  5
53F
100
AcDbEntity
  8
0
100
AcDbLine
 62
7
  6
CONTINUOUS
 10
5.629431102
 20
6.8118410652
 11
5.6612846767
 21
6.7934279581
  0
LINE
  5
540
100
AcDbEntity
  8
0
100
AcDbLine
 62
7
  6
CONTINUOUS
 10
5.629431102
 20
6.8512111439
 11
5.6612846767
 21
6.8327980369
  0
LINE
  5
541
100
AcDbEntity
  8
0
100
AcDbLine
 62
7
  6
CONTINUOUS
 10
6.1013742086
 20
6.5978494964
 11
6.0695206339
 21
6.6162626038
  0
LINE
  5
542
100
AcDbEntity
  8
0
100
AcDbLine
 62
7
  6
CONTINUOUS
 10
6.1013742086
 20
6.6372195751
 11
6.0695206339
 21
6.6556326825
  0
LINE
  5
543
100
AcDbEntity
  8
0
100
AcDbLine
 62
7
  6
CONTINUOUS
 10
6.0828313018
 20
6.5691974234
 11
6.0695206339
 21
6.5768925251
  0
LWPOLYLINE
  5
544
100
AcDbEntity
  8
02___PRT_ALL_AXES
100
AcDbPolyline
 62
7
  6
CONTINUOUS
 90
5
 70
0
 10
5.6394187463
 20
7.2589531733
 10
5.6686752486
 20
7.2655354621
 10
5.6993376207
 20
7.2716368626
 10
5.730598902
 20
7.276971386
 10
5.7617052759
 20
7.2813484953
  0
LWPOLYLINE
  5
545
100
AcDbEntity
  8
02___PRT_ALL_AXES
100
AcDbPolyline
 62
7
  6
CONTINUOUS
 90
4
 70
0
 10
5.6394187463
 20
7.1998980552
 10
5.6803877933
 20
7.2089097318
 10
5.7211677999
 20
7.2164038237
 10
5.7617052759
 20
7.2222933772
  0
LWPOLYLINE
  5
546
100
AcDbEntity
  8
02___PRT_ALL_AXES
100
AcDbPolyline
 62
7
  6
CONTINUOUS
 90
4
 70
0
 10
6.0913865643
 20
7.318060223
 10
6.0504108637
 20
7.3090472005
 10
6.0096302813
 20
7.3015532627
 10
5.9691000348
 20
7.295664901
  0
LWPOLYLINE
  5
547
100
AcDbEntity
  8
02___PRT_ALL_AXES
100
AcDbPolyline
 62
7
  6
CONTINUOUS
 90
4
 70
0
 10
6.0913865643
 20
7.3771153411
 10
6.0504002615
 20
7.3681001743
 10
6.009620706
 20
7.3606068024
 10
5.9691000348
 20
7.3547200191
  0
LWPOLYLINE
  5
548
100
AcDbEntity
  8
02___PRT_ALL_AXES
100
AcDbPolyline
 62
7
  6
CONTINUOUS
 90
4
 70
0
 10
5.6394187463
 20
7.3180082914
 10
5.6803877933
 20
7.3270199681
 10
5.7211678
 20
7.3345140599
 10
5.7617052759
 20
7.3404036134
  0
LWPOLYLINE
  5
549
100
AcDbEntity
  8
02___PRT_ALL_AXES
100
AcDbPolyline
 62
7
  6
CONTINUOUS
 90
4
 70
0
 10
6.0913865643
 20
7.4361704592
 10
6.0504108637
 20
7.4271574367
 10
6.0096302813
 20
7.4196634989
 10
5.9691000348
 20
7.4137751372
  0
LWPOLYLINE
  5
54A
100
AcDbEntity
  8
02___PRT_ALL_AXES
100
AcDbPolyline
 62
7
  6
CONTINUOUS
 90
4
 70
0
 10
5.6394187463
 20
7.3770634095
 10
5.6803877933
 20
7.3860750862
 10
5.7211678
 20
7.393569178
 10
5.7617052759
 20
7.3994587315
  0
LWPOLYLINE
  5
54B
100
AcDbEntity
  8
02___PRT_ALL_AXES
100
AcDbPolyline
 62
7
  6
CONTINUOUS
 90
4
 70
0
 10
6.0913865643
 20
7.4952255773
 10
6.0504108637
 20
7.4862125549
 10
6.0096302813
 20
7.478718617
 10
5.9691000348
 20
7.4728302553
  0
LWPOLYLINE
  5
54C
100
AcDbEntity
  8
02___PRT_ALL_AXES
100
AcDbPolyline
 62
7
  6
CONTINUOUS
 90
4
 70
0
 10
5.6394187463
 20
7.4361185276
 10
5.6803877933
 20
7.4451302043
 10
5.7211678
 20
7.4526242961
 10
5.7617052759
 20
7.4585138496
  0
LWPOLYLINE
  5
54D
100
AcDbEntity
  8
02___PRT_ALL_AXES
100
AcDbPolyline
 62
7
  6
CONTINUOUS
 90
5
 70
0
 10
6.3734254315
 20
7.324185832
 10
6.4124991415
 20
7.3256374801
 10
6.4385481504
 20
7.3270891281
 10
6.4509523107
 20
7.3285407762
 10
6.4517910705
 20
7.3288463253
  0
LWPOLYLINE
  5
54E
100
AcDbEntity
  8
02___PRT_ALL_AXES
100
AcDbPolyline
 62
7
  6
CONTINUOUS
 90
5
 70
0
 10
6.3734254315
 20
7.3315677218
 10
6.4124991415
 20
7.3330193698
 10
6.4385481504
 20
7.3344710179
 10
6.4509523107
 20
7.3359226659
 10
6.4520168285
 20
7.3364889816
  0
LWPOLYLINE
  5
54F
100
AcDbEntity
  8
02___PRT_ALL_AXES
100
AcDbPolyline
 62
7
  6
CONTINUOUS
 90
7
 70
0
 10
6.342739492
 20
7.3520250148
 10
6.2989230026
 20
7.3506901043
 10
6.2461031123
 20
7.3493487513
 10
6.185941081
 20
7.3480157488
 10
6.1189423314
 20
7.3466750611
 10
6.0459779521
 20
7.345319649
 10
5.9691000348
 20
7.3439613767
  0
LWPOLYLINE
  5
550
100
AcDbEntity
  8
02___PRT_ALL_AXES
100
AcDbPolyline
 62
7
  6
CONTINUOUS
 90
7
 70
0
 10
6.2089872264
 20
7.3592669181
 10
6.2743581809
 20
7.3607985573
 10
6.3293335841
 20
7.3623440932
 10
6.3716191003
 20
7.3638821417
 10
6.4000493404
 20
7.365396939
 10
6.414621508
 20
7.3669115911
 10
6.416343505
 20
7.3674273962
  0
LWPOLYLINE
  5
551
100
AcDbEntity
  8
02___PRT_ALL_AXES
100
AcDbPolyline
 62
7
  6
CONTINUOUS
 90
4
 70
0
 10
5.4187068529
 20
7.4243178903
 10
5.4835243091
 20
7.4257908061
 10
5.5577009188
 20
7.427263722
 10
5.6394187463
 20
7.4287366378
  0
LWPOLYLINE
  5
552
100
AcDbEntity
  8
02___PRT_ALL_AXES
100
AcDbPolyline
 62
7
  6
CONTINUOUS
 90
8
 70
0
 10
6.1731043919
 20
7.5040803829
 10
6.2472810015
 20
7.5055532988
 10
6.3120984577
 20
7.5070262146
 10
6.3659682006
 20
7.5084991305
 10
6.4075699796
 20
7.5099720463
 10
6.4358842096
 20
7.5114449622
 10
6.4502169596
 20
7.512917878
 10
6.4520168285
 20
7.5136543359
  0
LWPOLYLINE
  5
553
100
AcDbEntity
  8
02___PRT_ALL_AXES
100
AcDbPolyline
 62
7
  6
CONTINUOUS
 90
3
 70
0
 10
5.5942103638
 20
7.4071613709
 10
5.6751255716
 20
7.4086834205
 10
5.7617052759
 20
7.4102173739
  0
LWPOLYLINE
  5
554
100
AcDbEntity
  8
02___PRT_ALL_AXES
100
AcDbPolyline
 62
7
  6
CONTINUOUS
 90
3
 70
0
 10
6.1379010776
 20
7.4651532191
 10
6.0562363129
 20
7.4636156809
 10
5.9691000348
 20
7.4620716129
  0
LINE
  5
555
100
AcDbEntity
  8
02___PRT_ALL_AXES
100
AcDbLine
 62
7
  6
CONTINUOUS
 10
6.1280969679
 20
7.3576153651
 11
6.2089872264
 21
7.3592669181
  0
LWPOLYLINE
  5
556
100
AcDbEntity
  8
02___PRT_ALL_AXES
100
AcDbPolyline
 62
7
  6
CONTINUOUS
 90
5
 70
0
 10
6.0913865643
 20
7.318060223
 10
6.1762062402
 20
7.3195916252
 10
6.2527931034
 20
7.3211230275
 10
6.3191184601
 20
7.3226544297
 10
6.3734254315
 20
7.324185832
  0
LWPOLYLINE
  5
557
100
AcDbEntity
  8
02___PRT_ALL_AXES
100
AcDbPolyline
 62
7
  6
CONTINUOUS
 90
5
 70
0
 10
6.0913865643
 20
7.3254421128
 10
6.1762062402
 20
7.326973515
 10
6.2527931034
 20
7.3285049173
 10
6.3191184601
 20
7.3300363195
 10
6.3734254315
 20
7.3315677218
  0
LWPOLYLINE
  5
558
100
AcDbEntity
  8
02___PRT_ALL_AXES
100
AcDbPolyline
 62
7
  6
CONTINUOUS
 90
9
 70
0
 10
6.0913865643
 20
7.3771153411
 10
6.1731043919
 20
7.378588257
 10
6.2472810015
 20
7.3800611728
 10
6.3120984577
 20
7.3815340886
 10
6.3659682006
 20
7.3830070045
 10
6.4075699796
 20
7.3844799203
 10
6.4358842096
 20
7.3859528362
 10
6.4502169596
 20
7.387425752
 10
6.4517910705
 20
7.3879014434
  0
LINE
  5
559
100
AcDbEntity
  8
02___PRT_ALL_AXES
100
AcDbLine
 62
7
  6
CONTINUOUS
 10
5.5577009188
 20
7.3682086039
 11
5.6394187463
 21
7.3696815197
  0
LWPOLYLINE
  5
55A
100
AcDbEntity
  8
02___PRT_ALL_AXES
100
AcDbPolyline
 62
7
  6
CONTINUOUS
 90
9
 70
0
 10
6.0913865643
 20
7.3844972309
 10
6.1731043919
 20
7.3859701467
 10
6.2472810015
 20
7.3874430626
 10
6.3120984577
 20
7.3889159784
 10
6.3659682006
 20
7.3903888942
 10
6.4075699796
 20
7.3918618101
 10
6.4358842096
 20
7.3933347259
 10
6.4502169596
 20
7.3948076418
 10
6.4520168285
 20
7.3955440997
  0
LWPOLYLINE
  5
55B
100
AcDbEntity
  8
02___PRT_ALL_AXES
100
AcDbPolyline
 62
7
  6
CONTINUOUS
 90
9
 70
0
 10
6.0913865643
 20
7.4361704592
 10
6.1731043919
 20
7.4376433751
 10
6.2472810015
 20
7.4391162909
 10
6.3120984577
 20
7.4405892068
 10
6.3659682006
 20
7.4420621226
 10
6.4075699796
 20
7.4435350384
 10
6.4358842096
 20
7.4450079543
 10
6.4502169596
 20
7.4464808701
 10
6.4517910705
 20
7.4469565615
  0
LWPOLYLINE
  5
55C
100
AcDbEntity
  8
02___PRT_ALL_AXES
100
AcDbPolyline
 62
7
  6
CONTINUOUS
 90
9
 70
0
 10
6.0913865643
 20
7.443552349
 10
6.1731043919
 20
7.4450252648
 10
6.2472810015
 20
7.4464981807
 10
6.3120984577
 20
7.4479710965
 10
6.3659682006
 20
7.4494440124
 10
6.4075699796
 20
7.4509169282
 10
6.4358842096
 20
7.452389844
 10
6.4502169596
 20
7.4538627599
 10
6.4520168285
 20
7.4545992178
  0
LWPOLYLINE
  5
55D
100
AcDbEntity
  8
02___PRT_ALL_AXES
100
AcDbPolyline
 62
7
  6
CONTINUOUS
 90
9
 70
0
 10
6.0913865643
 20
7.4952255773
 10
6.1731043919
 20
7.4966984932
 10
6.2472810015
 20
7.498171409
 10
6.3120984577
 20
7.4996443249
 10
6.3659682006
 20
7.5011172407
 10
6.4075699796
 20
7.5025901566
 10
6.4358842096
 20
7.5040630724
 10
6.4502169596
 20
7.5055359882
 10
6.4517910705
 20
7.5060116796
  0
LINE
  5
55E
100
AcDbEntity
  8
02___PRT_ALL_AXES
100
AcDbLine
 62
7
  6
CONTINUOUS
 10
5.5577009188
 20
7.4863188401
 11
5.6394187463
 21
7.4877917559
  0
LINE
  5
55F
100
AcDbEntity
  8
02___PRT_ALL_AXES
100
AcDbLine
 62
7
  6
CONTINUOUS
 10
6.0913865643
 20
7.5026074671
 11
6.1731043919
 21
7.5040803829
  0
LWPOLYLINE
  5
560
100
AcDbEntity
  8
02___PRT_ALL_AXES
100
AcDbPolyline
 62
7
  6
CONTINUOUS
 90
10
 70
0
 10
5.7617052759
 20
7.3404036134
 10
5.6748840325
 20
7.338865271
 10
5.5932808341
 20
7.3373293935
 10
5.5197135875
 20
7.3358107299
 10
5.4548284456
 20
7.3342838045
 10
5.4005487158
 20
7.332750318
 10
5.3589318306
 20
7.331230511
 10
5.3306337086
 20
7.3297181016
 10
5.3160389387
 20
7.3281821794
 10
5.3144618056
 20
7.3276962362
  0
LINE
  5
561
100
AcDbEntity
  8
02___PRT_ALL_AXES
100
AcDbLine
 62
7
  6
CONTINUOUS
 10
5.9691000348
 20
7.3547200191
 11
6.0449966478
 21
7.3560642439
  0
LINE
  5
562
100
AcDbEntity
  8
02___PRT_ALL_AXES
100
AcDbLine
 62
7
  6
CONTINUOUS
 10
6.0449966478
 20
7.3560642439
 11
6.1280969679
 21
7.3576153651
  0
LWPOLYLINE
  5
563
100
AcDbEntity
  8
02___PRT_ALL_AXES
100
AcDbPolyline
 62
7
  6
CONTINUOUS
 90
10
 70
0
 10
5.7617052759
 20
7.3994587315
 10
5.6745335002
 20
7.3979140183
 10
5.5928065751
 20
7.3963752094
 10
5.5193743549
 20
7.3948584187
 10
5.4551612512
 20
7.3933474244
 10
5.4013176749
 20
7.3918297901
 10
5.3594059856
 20
7.3903060712
 10
5.3308879328
 20
7.3887910501
 10
5.316130306
 20
7.3872562642
 10
5.3144618056
 20
7.3867513543
  0
LWPOLYLINE
  5
564
100
AcDbEntity
  8
02___PRT_ALL_AXES
100
AcDbPolyline
 62
7
  6
CONTINUOUS
 90
10
 70
0
 10
5.9691000348
 20
7.4137751372
 10
6.0562363129
 20
7.4153192051
 10
6.1379010776
 20
7.4168567434
 10
6.2113912359
 20
7.4183745799
 10
6.2764568399
 20
7.4199072227
 10
6.3310308591
 20
7.4214530552
 10
6.372852183
 20
7.4229907651
 10
6.4008269383
 20
7.4245072494
 10
6.4149354061
 20
7.4260329609
 10
6.416343505
 20
7.4264825144
  0
LWPOLYLINE
  5
565
100
AcDbEntity
  8
02___PRT_ALL_AXES
100
AcDbPolyline
 62
7
  6
CONTINUOUS
 90
10
 70
0
 10
5.7617052759
 20
7.4585138496
 10
5.6751255716
 20
7.4569798962
 10
5.5942103638
 20
7.4554578467
 10
5.5207735029
 20
7.4539441484
 10
5.4554092036
 20
7.4524088712
 10
5.4005445677
 20
7.4508604226
 10
5.3584509416
 20
7.4493199085
 10
5.330254757
 20
7.4478015051
 10
5.3159815075
 20
7.4462802491
 10
5.3144618056
 20
7.4458064725
  0
LWPOLYLINE
  5
566
100
AcDbEntity
  8
02___PRT_ALL_AXES
100
AcDbPolyline
 62
7
  6
CONTINUOUS
 90
10
 70
0
 10
5.9691000348
 20
7.4728302553
 10
6.0563352845
 20
7.4743761223
 10
6.1381195945
 20
7.4759161488
 10
6.2116220313
 20
7.4774347549
 10
6.276045895
 20
7.4789518288
 10
6.3296921749
 20
7.4804656651
 10
6.3713883272
 20
7.4819824427
 10
6.3999099226
 20
7.4834974159
 10
6.4146777542
 20
7.4850332867
 10
6.416343505
 20
7.4855376325
  0
LWPOLYLINE
  5
567
100
AcDbEntity
  8
02___PRT_ALL_AXES
100
AcDbPolyline
 62
7
  6
CONTINUOUS
 90
10
 70
0
 10
5.7617052759
 20
7.5175689677
 10
5.6758963099
 20
7.5160490143
 10
5.5947253839
 20
7.5145230495
 10
5.5211348687
 20
7.5130071598
 10
5.4559143251
 20
7.5114768671
 10
5.4010896581
 20
7.509932815
 10
5.3589444776
 20
7.5083964119
 10
5.330593554
 20
7.5068806273
 10
5.3160387897
 20
7.5053475024
 10
5.3144618056
 20
7.5048615906
  0
LINE
  5
568
100
AcDbEntity
  8
0
100
AcDbLine
 62
9
  6
CONTINUOUS
 10
6.4165837577
 20
7.5640972493
 11
5.3142215529
 21
7.5640972493
  0
LWPOLYLINE
  5
569
100
AcDbEntity
  8
02___PRT_ALL_AXES
100
AcDbPolyline
 62
7
  6
CONTINUOUS
 90
5
 70
0
 10
5.7617052759
 20
7.469272492
 10
5.7313740341
 20
7.4725244826
 10
5.7001582
 20
7.4768210404
 10
5.6690891822
 20
7.482015723
 10
5.6394187463
 20
7.4877917559
  0
LWPOLYLINE
  5
56A
100
AcDbEntity
  8
02___PRT_ALL_AXES
100
AcDbPolyline
 62
7
  6
CONTINUOUS
 90
4
 70
0
 10
5.7617052759
 20
7.2921071376
 10
5.7211758254
 20
7.2966585914
 10
5.680392045
 20
7.3028571892
 10
5.6394187463
 20
7.3106264016
  0
LWPOLYLINE
  5
56B
100
AcDbEntity
  8
02___PRT_ALL_AXES
100
AcDbPolyline
 62
7
  6
CONTINUOUS
 90
4
 70
0
 10
5.9691000348
 20
7.2849062586
 10
6.0096370484
 20
7.2803538033
 10
6.0504201842
 20
7.2741550228
 10
6.0913865643
 20
7.2663869946
  0
LWPOLYLINE
  5
56C
100
AcDbEntity
  8
02___PRT_ALL_AXES
100
AcDbPolyline
 62
7
  6
CONTINUOUS
 90
4
 70
0
 10
5.7617052759
 20
7.3511622558
 10
5.7211758254
 20
7.3557137095
 10
5.680392045
 20
7.3619123073
 10
5.6394187463
 20
7.3696815197
  0
LWPOLYLINE
  5
56D
100
AcDbEntity
  8
02___PRT_ALL_AXES
100
AcDbPolyline
 62
7
  6
CONTINUOUS
 90
4
 70
0
 10
5.9691000348
 20
7.3439613767
 10
6.0096370484
 20
7.3394089214
 10
6.0504201842
 20
7.3332101409
 10
6.0913865643
 20
7.3254421128
  0
LWPOLYLINE
  5
56E
100
AcDbEntity
  8
02___PRT_ALL_AXES
100
AcDbPolyline
 62
7
  6
CONTINUOUS
 90
4
 70
0
 10
5.7617052759
 20
7.4102173739
 10
5.7211758254
 20
7.4147688276
 10
5.680392045
 20
7.4209674254
 10
5.6394187463
 20
7.4287366378
  0
LWPOLYLINE
  5
56F
100
AcDbEntity
  8
02___PRT_ALL_AXES
100
AcDbPolyline
 62
7
  6
CONTINUOUS
 90
4
 70
0
 10
5.9691000348
 20
7.4030164948
 10
6.0096296175
 20
7.3984650236
 10
6.0504119659
 20
7.3922666658
 10
6.0913865643
 20
7.3844972309
  0
LWPOLYLINE
  5
570
100
AcDbEntity
  8
02___PRT_ALL_AXES
100
AcDbPolyline
 62
7
  6
CONTINUOUS
 90
4
 70
0
 10
5.9691000348
 20
7.4620716129
 10
6.0096370484
 20
7.4575191576
 10
6.0504201842
 20
7.4513203772
 10
6.0913865643
 20
7.443552349
  0
LWPOLYLINE
  5
571
100
AcDbEntity
  8
02___PRT_ALL_AXES
100
AcDbPolyline
 62
7
  6
CONTINUOUS
 90
4
 70
0
 10
5.9691000348
 20
7.5211267311
 10
6.0096370484
 20
7.5165742757
 10
6.0504201842
 20
7.5103754953
 10
6.0913865643
 20
7.5026074671
  0
LINE
  5
572
100
AcDbEntity
  8
0
100
AcDbLine
 62
7
  6
CONTINUOUS
 10
5.2790142401
 20
7.1221534119
 11
5.3144618056
 21
7.1016793647
  0
LINE
  5
573
100
AcDbEntity
  8
0
100
AcDbLine
 62
7
  6
CONTINUOUS
 10
5.2790142401
 20
7.18120853
 11
5.3144618056
 21
7.1607344829
  0
LINE
  5
574
100
AcDbEntity
  8
0
100
AcDbLine
 62
7
  6
CONTINUOUS
 10
5.2790142401
 20
7.2402636481
 11
5.3144618056
 21
7.219789601
  0
LINE
  5
575
100
AcDbEntity
  8
0
100
AcDbLine
 62
7
  6
CONTINUOUS
 10
5.2790142401
 20
7.2993187662
 11
5.3144618056
 21
7.2788447191
  0
LINE
  5
576
100
AcDbEntity
  8
0
100
AcDbLine
 62
7
  6
CONTINUOUS
 10
5.2790142401
 20
7.3583738843
 11
5.3144618056
 21
7.3378998372
  0
LINE
  5
577
100
AcDbEntity
  8
0
100
AcDbLine
 62
7
  6
CONTINUOUS
 10
5.2790142401
 20
7.4174290024
 11
5.3144618056
 21
7.3969549553
  0
LINE
  5
578
100
AcDbEntity
  8
0
100
AcDbLine
 62
7
  6
CONTINUOUS
 10
6.1013742086
 20
6.6765896539
 11
6.0695206339
 21
6.6950027613
  0
LINE
  5
579
100
AcDbEntity
  8
0
100
AcDbLine
 62
7
  6
CONTINUOUS
 10
6.1013742086
 20
6.7159597326
 11
6.0695206339
 21
6.73437284
  0
LINE
  5
57A
100
AcDbEntity
  8
0
100
AcDbLine
 62
7
  6
CONTINUOUS
 10
6.1013742086
 20
6.7553298114
 11
6.0695206339
 21
6.7737429188
  0
LINE
  5
57B
100
AcDbEntity
  8
0
100
AcDbLine
 62
7
  6
CONTINUOUS
 10
6.1013742086
 20
6.7946998901
 11
6.0695206339
 21
6.8131129975
  0
LINE
  5
57C
100
AcDbEntity
  8
0
100
AcDbLine
 62
7
  6
CONTINUOUS
 10
6.1013742086
 20
6.8340699688
 11
6.0695206339
 21
6.8524830762
  0
LWPOLYLINE
  5
57D
100
AcDbEntity
  8
02___PRT_ALL_AXES
100
AcDbPolyline
 62
7
  6
CONTINUOUS
 90
4
 70
0
 10
5.6394187463
 20
7.4951736457
 10
5.6793120342
 20
7.5039672216
 10
5.7208591785
 20
7.5116284911
 10
5.7617052759
 20
7.5175689677
  0
LINE
  5
57E
100
AcDbEntity
  8
02___PRT_ALL_AXES
100
AcDbLine
 62
7
  6
CONTINUOUS
 10
6.5937405778
 20
7.6034673281
 11
5.1370647328
 21
7.6034673281
  0
LINE
  5
57F
100
AcDbEntity
  8
02___PRT_ALL_AXES
100
AcDbLine
 62
9
  6
CONTINUOUS
 10
4.9795758837
 20
7.760947643
 11
6.751229427
 21
7.760947643
  0
LINE
  5
580
100
AcDbEntity
  8
0
100
AcDbLine
 62
7
  6
CONTINUOUS
 10
5.2790142401
 20
7.4764841205
 11
5.3144618056
 21
7.4560100734
  0
LINE
  5
581
100
AcDbEntity
  8
0
100
AcDbLine
 62
7
  6
CONTINUOUS
 10
6.4517910705
 20
6.9824190395
 11
6.416343505
 21
7.0028930866
  0
LINE
  5
582
100
AcDbEntity
  8
0
100
AcDbLine
 62
7
  6
CONTINUOUS
 10
6.4517910705
 20
7.0414741576
 11
6.416343505
 21
7.0619482047
  0
LINE
  5
583
100
AcDbEntity
  8
0
100
AcDbLine
 62
7
  6
CONTINUOUS
 10
5.6488671524
 20
6.5680342572
 11
5.6354220433
 21
6.581479362
  0
LINE
  5
584
100
AcDbEntity
  8
02___PRT_ALL_AXES
100
AcDbLine
 62
7
  6
CONTINUOUS
 10
5.2790142401
 20
6.9449880575
 11
5.2787884821
 21
6.9452488241
  0
LINE
  5
585
100
AcDbEntity
  8
02___PRT_ALL_AXES
100
AcDbLine
 62
7
  6
CONTINUOUS
 10
5.2790142401
 20
7.0040431757
 11
5.2787884821
 21
7.0043039422
  0
LINE
  5
586
100
AcDbEntity
  8
02___PRT_ALL_AXES
100
AcDbLine
 62
7
  6
CONTINUOUS
 10
5.2790142401
 20
7.0630982938
 11
5.2787884821
 21
7.0633590603
  0
LINE
  5
587
100
AcDbEntity
  8
0
100
AcDbLine
 62
7
  6
CONTINUOUS
 10
5.629431102
 20
6.6149906715
 11
5.6291821829
 21
6.6152783517
  0
LINE
  5
588
100
AcDbEntity
  8
0
100
AcDbLine
 62
7
  6
CONTINUOUS
 10
5.629431102
 20
6.6543607502
 11
5.6291821829
 21
6.6546484303
  0
LINE
  5
589
100
AcDbEntity
  8
0
100
AcDbLine
 62
7
  6
CONTINUOUS
 10
6.4517910705
 20
7.1005292757
 11
6.416343505
 21
7.1210033229
  0
LINE
  5
58A
100
AcDbEntity
  8
0
100
AcDbLine
 62
7
  6
CONTINUOUS
 10
6.4517910705
 20
7.1595843938
 11
6.416343505
 21
7.180058441
  0
LINE
  5
58B
100
AcDbEntity
  8
0
100
AcDbLine
 62
7
  6
CONTINUOUS
 10
6.4517910705
 20
7.2186395119
 11
6.416343505
 21
7.2391135591
  0
LINE
  5
58C
100
AcDbEntity
  8
0
100
AcDbLine
 62
7
  6
CONTINUOUS
 10
6.4517910705
 20
7.2776946301
 11
6.416343505
 21
7.2981686772
  0
LINE
  5
58D
100
AcDbEntity
  8
0
100
AcDbLine
 62
7
  6
CONTINUOUS
 10
6.4517910705
 20
7.3367497482
 11
6.416343505
 21
7.3572237953
  0
LINE
  5
58E
100
AcDbEntity
  8
0
100
AcDbLine
 62
7
  6
CONTINUOUS
 10
6.4517910705
 20
7.3958048663
 11
6.416343505
 21
7.4162789134
  0
LINE
  5
58F
100
AcDbEntity
  8
02___PRT_ALL_AXES
100
AcDbLine
 62
7
  6
CONTINUOUS
 10
5.2790142401
 20
7.1221534119
 11
5.2787884821
 21
7.1224141784
  0
LINE
  5
590
100
AcDbEntity
  8
02___PRT_ALL_AXES
100
AcDbLine
 62
7
  6
CONTINUOUS
 10
5.2790142401
 20
7.18120853
 11
5.2787884821
 21
7.1814692966
  0
LINE
  5
591
100
AcDbEntity
  8
02___PRT_ALL_AXES
100
AcDbLine
 62
7
  6
CONTINUOUS
 10
5.2790142401
 20
7.2402636481
 11
5.2787884821
 21
7.2405244147
  0
LINE
  5
592
100
AcDbEntity
  8
02___PRT_ALL_AXES
100
AcDbLine
 62
7
  6
CONTINUOUS
 10
5.2790142401
 20
7.2993187662
 11
5.2787884821
 21
7.2995795328
  0
LINE
  5
593
100
AcDbEntity
  8
02___PRT_ALL_AXES
100
AcDbLine
 62
7
  6
CONTINUOUS
 10
5.2790142401
 20
7.3583738843
 11
5.2787884821
 21
7.3586346509
  0
LINE
  5
594
100
AcDbEntity
  8
02___PRT_ALL_AXES
100
AcDbLine
 62
7
  6
CONTINUOUS
 10
5.2790142401
 20
7.4174290024
 11
5.2787884821
 21
7.417689769
  0
LINE
  5
595
100
AcDbEntity
  8
02___PRT_ALL_AXES
100
AcDbLine
 62
7
  6
CONTINUOUS
 10
5.2790142401
 20
7.4764841205
 11
5.2787884821
 21
7.4767448871
  0
LINE
  5
596
100
AcDbEntity
  8
0
100
AcDbLine
 62
7
  6
CONTINUOUS
 10
5.629431102
 20
6.7331009077
 11
5.6291821829
 21
6.7333885816
  0
LINE
  5
597
100
AcDbEntity
  8
0
100
AcDbLine
 62
7
  6
CONTINUOUS
 10
5.629431102
 20
6.7724709865
 11
5.6291821829
 21
6.772758645
  0
LINE
  5
598
100
AcDbEntity
  8
0
100
AcDbLine
 62
7
  6
CONTINUOUS
 10
5.629431102
 20
6.8118410652
 11
5.6291821829
 21
6.8121287453
  0
LINE
  5
599
100
AcDbEntity
  8
0
100
AcDbLine
 62
7
  6
CONTINUOUS
 10
5.629431102
 20
6.8512111439
 11
5.6291821829
 21
6.8514988303
  0
LINE
  5
59A
100
AcDbEntity
  8
0
100
AcDbLine
 62
7
  6
CONTINUOUS
 10
5.629431102
 20
6.693730829
 11
5.6291821829
 21
6.6940185424
  0
LINE
  5
59B
100
AcDbEntity
  8
02___PRT_ALL_AXES
100
AcDbLine
 62
9
  6
CONTINUOUS
 10
4.9795758837
 20
8.1940185092
 11
6.751229427
 21
8.1940185092
  0
LINE
  5
59C
100
AcDbEntity
  8
02___PRT_ALL_AXES
100
AcDbLine
 62
7
  6
CONTINUOUS
 10
6.8102845451
 20
8.2530736273
 11
4.9205207655
 21
8.2530736273
  0
LINE
  5
59D
100
AcDbEntity
  8
02___PRT_ALL_AXES
100
AcDbLine
 62
9
  6
CONTINUOUS
 10
6.8496546238
 20
8.292443706
 11
4.8811506868
 21
8.292443706
  0
LINE
  5
59E
100
AcDbEntity
  8
0
100
AcDbLine
 62
7
  6
CONTINUOUS
 10
6.4517910705
 20
7.4548599844
 11
6.416343505
 21
7.4753340315
  0
LINE
  5
59F
100
AcDbEntity
  8
0
100
AcDbLine
 62
7
  6
CONTINUOUS
 10
6.4517910705
 20
7.5139151025
 11
6.416343505
 21
7.5343891496
  0
LINE
  5
5A0
100
AcDbEntity
  8
0
100
AcDbLine
 62
7
  6
CONTINUOUS
 10
6.1013742086
 20
6.6372195751
 11
6.1016231277
 21
6.6369318922
  0
LINE
  5
5A1
100
AcDbEntity
  8
0
100
AcDbLine
 62
7
  6
CONTINUOUS
 10
6.1013742086
 20
6.6765896539
 11
6.1016231277
 21
6.6763019674
  0
LINE
  5
5A2
100
AcDbEntity
  8
0
100
AcDbLine
 62
7
  6
CONTINUOUS
 10
6.1013742086
 20
6.7159597326
 11
6.1016231277
 21
6.7156720524
  0
LINE
  5
5A3
100
AcDbEntity
  8
0
100
AcDbLine
 62
7
  6
CONTINUOUS
 10
6.1013742086
 20
6.7553298114
 11
6.1016231277
 21
6.7550421507
  0
LINE
  5
5A4
100
AcDbEntity
  8
0
100
AcDbLine
 62
7
  6
CONTINUOUS
 10
6.1013742086
 20
6.7946998901
 11
6.1016231277
 21
6.7944122181
  0
LINE
  5
5A5
100
AcDbEntity
  8
0
100
AcDbLine
 62
7
  6
CONTINUOUS
 10
6.1013742086
 20
6.5978494964
 11
6.1016231277
 21
6.5975617895
  0
LINE
  5
5A6
100
AcDbEntity
  8
0
100
AcDbLine
 62
7
  6
CONTINUOUS
 10
6.1013742086
 20
6.8340699688
 11
6.1016231277
 21
6.8337822537
  0
LINE
  5
5A7
100
AcDbEntity
  8
02___PRT_ALL_AXES
100
AcDbLine
 62
7
  6
CONTINUOUS
 10
4.8811506868
 20
8.6034673281
 11
6.8496546238
 21
8.6034673281
  0
LINE
  5
5A8
100
AcDbEntity
  8
AXIS
100
AcDbLine
 62
7
  6
CONTINUOUS
 10
4.8811506868
 20
8.6034673281
 11
6.8496546238
 21
8.6034673281
  0
LINE
  5
5A9
100
AcDbEntity
  8
02___PRT_ALL_AXES
100
AcDbLine
 62
7
  6
CONTINUOUS
 10
6.4520168285
 20
6.9821582729
 11
6.4517910705
 21
6.9824190395
  0
LINE
  5
5AA
100
AcDbEntity
  8
02___PRT_ALL_AXES
100
AcDbLine
 62
7
  6
CONTINUOUS
 10
6.4520168285
 20
7.041213391
 11
6.4517910705
 21
7.0414741576
  0
LINE
  5
5AB
100
AcDbEntity
  8
02___PRT_ALL_AXES
100
AcDbLine
 62
7
  6
CONTINUOUS
 10
6.4520168285
 20
7.1002685092
 11
6.4517910705
 21
7.1005292757
  0
LINE
  5
5AC
100
AcDbEntity
  8
02___PRT_ALL_AXES
100
AcDbLine
 62
7
  6
CONTINUOUS
 10
6.4520168285
 20
7.1593236273
 11
6.4517910705
 21
7.1595843938
  0
LINE
  5
5AD
100
AcDbEntity
  8
02___PRT_ALL_AXES
100
AcDbLine
 62
7
  6
CONTINUOUS
 10
6.4520168285
 20
7.2183787454
 11
6.4517910705
 21
7.2186395119
  0
LINE
  5
5AE
100
AcDbEntity
  8
02___PRT_ALL_AXES
100
AcDbLine
 62
7
  6
CONTINUOUS
 10
6.4520168285
 20
7.2774338635
 11
6.4517910705
 21
7.2776946301
  0
LINE
  5
5AF
100
AcDbEntity
  8
02___PRT_ALL_AXES
100
AcDbLine
 62
7
  6
CONTINUOUS
 10
6.4520168285
 20
7.3364889816
 11
6.4517910705
 21
7.3367497482
  0
LINE
  5
5B0
100
AcDbEntity
  8
02___PRT_ALL_AXES
100
AcDbLine
 62
7
  6
CONTINUOUS
 10
6.4520168285
 20
7.3955440997
 11
6.4517910705
 21
7.3958048663
  0
LINE
  5
5B1
100
AcDbEntity
  8
02___PRT_ALL_AXES
100
AcDbLine
 62
7
  6
CONTINUOUS
 10
6.4520168285
 20
7.4545992178
 11
6.4517910705
 21
7.4548599844
  0
LINE
  5
5B2
100
AcDbEntity
  8
02___PRT_ALL_AXES
100
AcDbLine
 62
7
  6
CONTINUOUS
 10
6.4520168285
 20
7.5136543359
 11
6.4517910705
 21
7.5139151025
  0
LINE
  5
5B3
100
AcDbEntity
  8
0
100
AcDbLine
 62
7
  6
CONTINUOUS
 10
6.0829035135
 20
6.5689996122
 11
6.0828313018
 21
6.5691974234
  0
LINE
  5
5B4
100
AcDbEntity
  8
0
100
AcDbLine
 62
7
  6
CONTINUOUS
 10
4.8811506868
 20
10.2058295328
 11
4.8858920559
 21
9.6625224462
  0
LINE
  5
5B5
100
AcDbEntity
  8
0
100
AcDbLine
 62
7
  6
CONTINUOUS
 10
4.8811506868
 20
11.8081917375
 11
4.8858920559
 21
11.2648846509
  0
LINE
  5
5B6
100
AcDbEntity
  8
0
100
AcDbLine
 62
7
  6
CONTINUOUS
 10
4.8811506868
 20
13.4105539422
 11
4.8858920559
 21
12.8672468556
  0
LINE
  5
5B7
100
AcDbEntity
  8
02___PRT_ALL_AXES
100
AcDbLine
 62
7
  6
CONTINUOUS
 10
4.8811506868
 20
8.6034673281
 11
4.8811506868
 21
8.292443706
  0
LINE
  5
5B8
100
AcDbEntity
  8
AXIS
100
AcDbLine
 62
7
  6
CONTINUOUS
 10
4.8811506868
 20
8.6034673281
 11
4.8811506868
 21
9.6625224462
  0
LINE
  5
5B9
100
AcDbEntity
  8
AXIS
100
AcDbLine
 62
7
  6
CONTINUOUS
 10
4.8811506868
 20
10.2058295328
 11
4.8811506868
 21
11.2648846509
  0
LINE
  5
5BA
100
AcDbEntity
  8
AXIS
100
AcDbLine
 62
7
  6
CONTINUOUS
 10
4.8811506868
 20
11.8081917375
 11
4.8811506868
 21
12.8672468556
  0
LINE
  5
5BB
100
AcDbEntity
  8
AXIS
100
AcDbLine
 62
7
  6
CONTINUOUS
 10
4.8811506868
 20
13.4105539422
 11
4.8811506868
 21
14.4696090603
  0
LINE
  5
5BC
100
AcDbEntity
  8
02___PRT_ALL_AXES
100
AcDbLine
 62
7
  6
CONTINUOUS
 10
4.9795758837
 20
8.1940185092
 11
4.9795758837
 21
7.760947643
  0
LINE
  5
5BD
100
AcDbEntity
  8
0
100
AcDbLine
 62
7
  6
CONTINUOUS
 10
4.8811506868
 20
14.4696090603
 11
4.8858476832
 21
14.738699801
  0
LINE
  5
5BE
100
AcDbEntity
  8
AXIS
100
AcDbLine
 62
7
  6
CONTINUOUS
 10
4.8811506868
 20
9.6625224462
 11
6.8496546238
 21
9.6625224462
  0
LINE
  5
5BF
100
AcDbEntity
  8
0
100
AcDbLine
 62
7
  6
CONTINUOUS
 10
5.2787884821
 20
7.4841267769
 11
5.2787884821
 21
7.4767448871
  0
LINE
  5
5C0
100
AcDbEntity
  8
0
100
AcDbLine
 62
7
  6
CONTINUOUS
 10
5.2787884821
 20
7.4250716588
 11
5.2787884821
 21
7.417689769
  0
LINE
  5
5C1
100
AcDbEntity
  8
0
100
AcDbLine
 62
7
  6
CONTINUOUS
 10
5.2787884821
 20
7.3660165407
 11
5.2787884821
 21
7.3586346509
  0
LINE
  5
5C2
100
AcDbEntity
  8
0
100
AcDbLine
 62
7
  6
CONTINUOUS
 10
5.2787884821
 20
7.3069614225
 11
5.2787884821
 21
7.2995795328
  0
LINE
  5
5C3
100
AcDbEntity
  8
0
100
AcDbLine
 62
7
  6
CONTINUOUS
 10
5.2787884821
 20
7.2479063044
 11
5.2787884821
 21
7.2405244147
  0
LINE
  5
5C4
100
AcDbEntity
  8
0
100
AcDbLine
 62
7
  6
CONTINUOUS
 10
5.2787884821
 20
7.1888511863
 11
5.2787884821
 21
7.1814692966
  0
LINE
  5
5C5
100
AcDbEntity
  8
0
100
AcDbLine
 62
7
  6
CONTINUOUS
 10
5.2787884821
 20
7.1297960682
 11
5.2787884821
 21
7.1224141784
  0
LINE
  5
5C6
100
AcDbEntity
  8
0
100
AcDbLine
 62
7
  6
CONTINUOUS
 10
5.2787884821
 20
7.0707409501
 11
5.2787884821
 21
7.0633590603
  0
LINE
  5
5C7
100
AcDbEntity
  8
0
100
AcDbLine
 62
7
  6
CONTINUOUS
 10
5.2787884821
 20
7.011685832
 11
5.2787884821
 21
7.0043039422
  0
LINE
  5
5C8
100
AcDbEntity
  8
0
100
AcDbLine
 62
7
  6
CONTINUOUS
 10
5.2787884821
 20
6.9526307139
 11
5.2787884821
 21
6.9452488241
  0
LINE
  5
5C9
100
AcDbEntity
  8
02___PRT_ALL_AXES
100
AcDbLine
 62
7
  6
CONTINUOUS
 10
5.3142215529
 20
7.5640972493
 11
5.3142215529
 21
7.5045840699
  0
LINE
  5
5CA
100
AcDbEntity
  8
02___PRT_ALL_AXES
100
AcDbLine
 62
7
  6
CONTINUOUS
 10
5.3142215529
 20
7.4562875941
 11
5.3142215529
 21
7.4455289518
  0
LINE
  5
5CB
100
AcDbEntity
  8
02___PRT_ALL_AXES
100
AcDbLine
 62
7
  6
CONTINUOUS
 10
5.3142215529
 20
7.397232476
 11
5.3142215529
 21
7.3864738337
  0
LINE
  5
5CC
100
AcDbEntity
  8
02___PRT_ALL_AXES
100
AcDbLine
 62
7
  6
CONTINUOUS
 10
5.3142215529
 20
7.3381773579
 11
5.3142215529
 21
7.3274187155
  0
LINE
  5
5CD
100
AcDbEntity
  8
02___PRT_ALL_AXES
100
AcDbLine
 62
7
  6
CONTINUOUS
 10
5.3142215529
 20
7.2791222398
 11
5.3142215529
 21
7.2683635974
  0
LINE
  5
5CE
100
AcDbEntity
  8
02___PRT_ALL_AXES
100
AcDbLine
 62
7
  6
CONTINUOUS
 10
5.3142215529
 20
7.2200671217
 11
5.3142215529
 21
7.2093084793
  0
LINE
  5
5CF
100
AcDbEntity
  8
02___PRT_ALL_AXES
100
AcDbLine
 62
7
  6
CONTINUOUS
 10
5.3142215529
 20
7.1610120036
 11
5.3142215529
 21
7.1502533612
  0
LINE
  5
5D0
100
AcDbEntity
  8
02___PRT_ALL_AXES
100
AcDbLine
 62
7
  6
CONTINUOUS
 10
5.3142215529
 20
7.1019568854
 11
5.3142215529
 21
7.0911982431
  0
LINE
  5
5D1
100
AcDbEntity
  8
02___PRT_ALL_AXES
100
AcDbLine
 62
7
  6
CONTINUOUS
 10
5.3142215529
 20
7.0429017673
 11
5.3142215529
 21
7.032143125
  0
LINE
  5
5D2
100
AcDbEntity
  8
02___PRT_ALL_AXES
100
AcDbLine
 62
7
  6
CONTINUOUS
 10
5.3142215529
 20
6.9838466492
 11
5.3142215529
 21
6.9730880069
  0
LINE
  5
5D3
100
AcDbEntity
  8
02___PRT_ALL_AXES
100
AcDbLine
 62
7
  6
CONTINUOUS
 10
5.3142215529
 20
6.9247915311
 11
5.3142215529
 21
6.8948059107
  0
LINE
  5
5D4
100
AcDbEntity
  8
0
100
AcDbLine
 62
7
  6
CONTINUOUS
 10
6.8496546238
 20
10.2058295328
 11
4.8811506868
 21
10.2058295328
  0
LINE
  5
5D5
100
AcDbEntity
  8
AXIS
100
AcDbLine
 62
7
  6
CONTINUOUS
 10
4.8811506868
 20
10.2058295328
 11
6.8496546238
 21
10.2058295328
  0
LWPOLYLINE
  5
5D6
100
AcDbEntity
  8
0
100
AcDbPolyline
 62
7
  6
CONTINUOUS
 90
6
 70
0
 10
5.7617052759
 20
6.8948059107
 10
5.7618892931
 20
6.8826088077
 10
5.7624242526
 20
6.8716240533
 10
5.7632612629
 20
6.8629247939
 10
5.7643234811
 20
6.857352289
 10
5.7655119903
 20
6.855435832
  0
LWPOLYLINE
  5
5D7
100
AcDbEntity
  8
0
100
AcDbPolyline
 62
7
  6
CONTINUOUS
 90
6
 70
0
 10
5.7617052759
 20
7.5640972493
 10
5.7615216954
 20
7.5762907636
 10
5.7609916289
 20
7.5872735859
 10
5.7601729024
 20
7.5959736504
 10
5.7591520942
 20
7.6015490303
 10
5.7580334416
 20
7.6034673281
  0
LINE
  5
5D8
100
AcDbEntity
  8
AXIS
100
AcDbLine
 62
7
  6
CONTINUOUS
 10
5.6291821829
 20
6.8534673281
 11
5.6291821829
 21
6.8514988241
  0
LINE
  5
5D9
100
AcDbEntity
  8
AXIS
100
AcDbLine
 62
7
  6
CONTINUOUS
 10
5.6291821829
 20
6.8140972493
 11
5.6291821829
 21
6.8121287454
  0
LINE
  5
5DA
100
AcDbEntity
  8
AXIS
100
AcDbLine
 62
7
  6
CONTINUOUS
 10
5.6291821829
 20
6.7747271706
 11
5.6291821829
 21
6.7727586666
  0
LINE
  5
5DB
100
AcDbEntity
  8
AXIS
100
AcDbLine
 62
7
  6
CONTINUOUS
 10
5.6291821829
 20
6.7353570918
 11
5.6291821829
 21
6.7333885879
  0
LINE
  5
5DC
100
AcDbEntity
  8
AXIS
100
AcDbLine
 62
7
  6
CONTINUOUS
 10
5.6291821829
 20
6.6959870131
 11
5.6291821829
 21
6.6940185092
  0
LINE
  5
5DD
100
AcDbEntity
  8
AXIS
100
AcDbLine
 62
7
  6
CONTINUOUS
 10
5.6291821829
 20
6.6566169344
 11
5.6291821829
 21
6.6546484304
  0
LINE
  5
5DE
100
AcDbEntity
  8
AXIS
100
AcDbLine
 62
7
  6
CONTINUOUS
 10
5.6291821829
 20
6.6172468556
 11
5.6291821829
 21
6.6152783517
  0
LINE
  5
5DF
100
AcDbEntity
  8
02___PRT_ALL_AXES
100
AcDbLine
 62
7
  6
CONTINUOUS
 10
5.6394187463
 20
6.956295693
 11
5.6394187463
 21
6.9636775827
  0
LINE
  5
5E0
100
AcDbEntity
  8
02___PRT_ALL_AXES
100
AcDbLine
 62
7
  6
CONTINUOUS
 10
5.6394187463
 20
7.0153508111
 11
5.6394187463
 21
7.0227327008
  0
LINE
  5
5E1
100
AcDbEntity
  8
02___PRT_ALL_AXES
100
AcDbLine
 62
7
  6
CONTINUOUS
 10
5.6394187463
 20
7.0744059292
 11
5.6394187463
 21
7.0817878189
  0
LINE
  5
5E2
100
AcDbEntity
  8
02___PRT_ALL_AXES
100
AcDbLine
 62
7
  6
CONTINUOUS
 10
5.6394187463
 20
7.1334610473
 11
5.6394187463
 21
7.140842937
  0
LINE
  5
5E3
100
AcDbEntity
  8
02___PRT_ALL_AXES
100
AcDbLine
 62
7
  6
CONTINUOUS
 10
5.6394187463
 20
7.1925161654
 11
5.6394187463
 21
7.1998980552
  0
LINE
  5
5E4
100
AcDbEntity
  8
02___PRT_ALL_AXES
100
AcDbLine
 62
7
  6
CONTINUOUS
 10
5.6394187463
 20
7.2515712835
 11
5.6394187463
 21
7.2589531733
  0
LINE
  5
5E5
100
AcDbEntity
  8
02___PRT_ALL_AXES
100
AcDbLine
 62
7
  6
CONTINUOUS
 10
5.6394187463
 20
7.3106264016
 11
5.6394187463
 21
7.3180082914
  0
LINE
  5
5E6
100
AcDbEntity
  8
02___PRT_ALL_AXES
100
AcDbLine
 62
7
  6
CONTINUOUS
 10
5.6394187463
 20
7.3696815197
 11
5.6394187463
 21
7.3770634095
  0
LINE
  5
5E7
100
AcDbEntity
  8
02___PRT_ALL_AXES
100
AcDbLine
 62
7
  6
CONTINUOUS
 10
5.6394187463
 20
7.4287366378
 11
5.6394187463
 21
7.4361185276
  0
LINE
  5
5E8
100
AcDbEntity
  8
02___PRT_ALL_AXES
100
AcDbLine
 62
7
  6
CONTINUOUS
 10
5.6394187463
 20
7.4877917559
 11
5.6394187463
 21
7.4951736457
  0
LINE
  5
5E9
100
AcDbEntity
  8
0
100
AcDbLine
 62
7
  6
CONTINUOUS
 10
5.6616624978
 20
6.5660657532
 11
5.6616624978
 21
6.5266956745
  0
LINE
  5
5EA
100
AcDbEntity
  8
0
100
AcDbLine
 62
7
  6
CONTINUOUS
 10
5.6803632852
 20
6.5680342572
 11
5.6803632852
 21
6.5660657532
  0
LINE
  5
5EB
100
AcDbEntity
  8
0
100
AcDbLine
 62
7
  6
CONTINUOUS
 10
5.7617052759
 20
7.5640972493
 11
5.7617052759
 21
7.5175689677
  0
LINE
  5
5EC
100
AcDbEntity
  8
02___PRT_ALL_AXES
100
AcDbLine
 62
7
  6
CONTINUOUS
 10
5.7617052759
 20
7.469272492
 11
5.7617052759
 21
7.4585138496
  0
LINE
  5
5ED
100
AcDbEntity
  8
02___PRT_ALL_AXES
100
AcDbLine
 62
7
  6
CONTINUOUS
 10
5.7617052759
 20
7.4102173739
 11
5.7617052759
 21
7.3994587315
  0
LINE
  5
5EE
100
AcDbEntity
  8
02___PRT_ALL_AXES
100
AcDbLine
 62
7
  6
CONTINUOUS
 10
5.7617052759
 20
7.3511622558
 11
5.7617052759
 21
7.3404036134
  0
LINE
  5
5EF
100
AcDbEntity
  8
02___PRT_ALL_AXES
100
AcDbLine
 62
7
  6
CONTINUOUS
 10
5.7617052759
 20
7.2921071376
 11
5.7617052759
 21
7.2813484953
  0
LINE
  5
5F0
100
AcDbEntity
  8
02___PRT_ALL_AXES
100
AcDbLine
 62
7
  6
CONTINUOUS
 10
5.7617052759
 20
7.2330520195
 11
5.7617052759
 21
7.2222933772
  0
LINE
  5
5F1
100
AcDbEntity
  8
02___PRT_ALL_AXES
100
AcDbLine
 62
7
  6
CONTINUOUS
 10
5.7617052759
 20
7.1739969014
 11
5.7617052759
 21
7.1632382591
  0
LINE
  5
5F2
100
AcDbEntity
  8
02___PRT_ALL_AXES
100
AcDbLine
 62
7
  6
CONTINUOUS
 10
5.7617052759
 20
7.1149417833
 11
5.7617052759
 21
7.104183141
  0
LINE
  5
5F3
100
AcDbEntity
  8
02___PRT_ALL_AXES
100
AcDbLine
 62
7
  6
CONTINUOUS
 10
5.7617052759
 20
7.0558866652
 11
5.7617052759
 21
7.0451280229
  0
LINE
  5
5F4
100
AcDbEntity
  8
02___PRT_ALL_AXES
100
AcDbLine
 62
7
  6
CONTINUOUS
 10
5.7617052759
 20
6.9968315471
 11
5.7617052759
 21
6.9860729048
  0
LINE
  5
5F5
100
AcDbEntity
  8
0
100
AcDbLine
 62
7
  6
CONTINUOUS
 10
5.7617052759
 20
6.937776429
 11
5.7617052759
 21
6.8948059107
  0
LINE
  5
5F6
100
AcDbEntity
  8
0
100
AcDbLine
 62
7
  6
CONTINUOUS
 10
5.9691000348
 20
7.5640972493
 11
5.9691000348
 21
7.5211267311
  0
LINE
  5
5F7
100
AcDbEntity
  8
02___PRT_ALL_AXES
100
AcDbLine
 62
7
  6
CONTINUOUS
 10
5.9691000348
 20
7.4728302553
 11
5.9691000348
 21
7.4620716129
  0
LINE
  5
5F8
100
AcDbEntity
  8
02___PRT_ALL_AXES
100
AcDbLine
 62
7
  6
CONTINUOUS
 10
5.9691000348
 20
7.4137751372
 11
5.9691000348
 21
7.4030164948
  0
LINE
  5
5F9
100
AcDbEntity
  8
02___PRT_ALL_AXES
100
AcDbLine
 62
7
  6
CONTINUOUS
 10
5.9691000348
 20
7.3547200191
 11
5.9691000348
 21
7.3439613767
  0
LINE
  5
5FA
100
AcDbEntity
  8
02___PRT_ALL_AXES
100
AcDbLine
 62
7
  6
CONTINUOUS
 10
5.9691000348
 20
7.295664901
 11
5.9691000348
 21
7.2849062586
  0
LINE
  5
5FB
100
AcDbEntity
  8
02___PRT_ALL_AXES
100
AcDbLine
 62
7
  6
CONTINUOUS
 10
5.9691000348
 20
7.2366097828
 11
5.9691000348
 21
7.2258511405
  0
LINE
  5
5FC
100
AcDbEntity
  8
02___PRT_ALL_AXES
100
AcDbLine
 62
7
  6
CONTINUOUS
 10
5.9691000348
 20
7.1775546647
 11
5.9691000348
 21
7.1667960224
  0
LINE
  5
5FD
100
AcDbEntity
  8
02___PRT_ALL_AXES
100
AcDbLine
 62
7
  6
CONTINUOUS
 10
5.9691000348
 20
7.1184995466
 11
5.9691000348
 21
7.1077409043
  0
LINE
  5
5FE
100
AcDbEntity
  8
02___PRT_ALL_AXES
100
AcDbLine
 62
7
  6
CONTINUOUS
 10
5.9691000348
 20
7.0594444285
 11
5.9691000348
 21
7.0486857862
  0
LINE
  5
5FF
100
AcDbEntity
  8
02___PRT_ALL_AXES
100
AcDbLine
 62
7
  6
CONTINUOUS
 10
5.9691000348
 20
7.0003893104
 11
5.9691000348
 21
6.9896306681
  0
LINE
  5
600
100
AcDbEntity
  8
0
100
AcDbLine
 62
7
  6
CONTINUOUS
 10
5.9691000348
 20
6.9413341923
 11
5.9691000348
 21
6.8948059107
  0
LINE
  5
601
100
AcDbEntity
  8
0
100
AcDbLine
 62
7
  6
CONTINUOUS
 10
6.0504420254
 20
6.5680342572
 11
6.0504420254
 21
6.5660657532
  0
LINE
  5
602
100
AcDbEntity
  8
0
100
AcDbLine
 62
7
  6
CONTINUOUS
 10
6.0691428128
 20
6.5660657532
 11
6.0691428128
 21
6.5266956745
  0
LINE
  5
603
100
AcDbEntity
  8
02___PRT_ALL_AXES
100
AcDbLine
 62
7
  6
CONTINUOUS
 10
6.0913865643
 20
7.5026074671
 11
6.0913865643
 21
7.4952255773
  0
LINE
  5
604
100
AcDbEntity
  8
02___PRT_ALL_AXES
100
AcDbLine
 62
7
  6
CONTINUOUS
 10
6.0913865643
 20
7.443552349
 11
6.0913865643
 21
7.4361704592
  0
LINE
  5
605
100
AcDbEntity
  8
02___PRT_ALL_AXES
100
AcDbLine
 62
7
  6
CONTINUOUS
 10
6.0913865643
 20
7.3844972309
 11
6.0913865643
 21
7.3771153411
  0
LINE
  5
606
100
AcDbEntity
  8
02___PRT_ALL_AXES
100
AcDbLine
 62
7
  6
CONTINUOUS
 10
6.0913865643
 20
7.3254421128
 11
6.0913865643
 21
7.318060223
  0
LINE
  5
607
100
AcDbEntity
  8
02___PRT_ALL_AXES
100
AcDbLine
 62
7
  6
CONTINUOUS
 10
6.0913865643
 20
7.2663869946
 11
6.0913865643
 21
7.2590051049
  0
LINE
  5
608
100
AcDbEntity
  8
02___PRT_ALL_AXES
100
AcDbLine
 62
7
  6
CONTINUOUS
 10
6.0913865643
 20
7.2073318765
 11
6.0913865643
 21
7.1999499868
  0
LINE
  5
609
100
AcDbEntity
  8
02___PRT_ALL_AXES
100
AcDbLine
 62
7
  6
CONTINUOUS
 10
6.0913865643
 20
7.1482767584
 11
6.0913865643
 21
7.1408948687
  0
LINE
  5
60A
100
AcDbEntity
  8
02___PRT_ALL_AXES
100
AcDbLine
 62
7
  6
CONTINUOUS
 10
6.0913865643
 20
7.0892216403
 11
6.0913865643
 21
7.0818397506
  0
LINE
  5
60B
100
AcDbEntity
  8
02___PRT_ALL_AXES
100
AcDbLine
 62
7
  6
CONTINUOUS
 10
6.0913865643
 20
7.0301665222
 11
6.0913865643
 21
7.0227846324
  0
LINE
  5
60C
100
AcDbEntity
  8
02___PRT_ALL_AXES
100
AcDbLine
 62
7
  6
CONTINUOUS
 10
6.0913865643
 20
6.9711114041
 11
6.0913865643
 21
6.9637295143
  0
LINE
  5
60D
100
AcDbEntity
  8
AXIS
100
AcDbLine
 62
7
  6
CONTINUOUS
 10
6.1016231277
 20
6.8337822887
 11
6.1016231277
 21
6.8318137847
  0
LINE
  5
60E
100
AcDbEntity
  8
AXIS
100
AcDbLine
 62
7
  6
CONTINUOUS
 10
6.1016231277
 20
6.7944122099
 11
6.1016231277
 21
6.792443706
  0
LINE
  5
60F
100
AcDbEntity
  8
AXIS
100
AcDbLine
 62
7
  6
CONTINUOUS
 10
6.1016231277
 20
6.7550421312
 11
6.1016231277
 21
6.7530736273
  0
LINE
  5
610
100
AcDbEntity
  8
AXIS
100
AcDbLine
 62
7
  6
CONTINUOUS
 10
6.1016231277
 20
6.7156720525
 11
6.1016231277
 21
6.7137035485
  0
LINE
  5
611
100
AcDbEntity
  8
AXIS
100
AcDbLine
 62
7
  6
CONTINUOUS
 10
6.1016231277
 20
6.6763019737
 11
6.1016231277
 21
6.6743334698
  0
LINE
  5
612
100
AcDbEntity
  8
AXIS
100
AcDbLine
 62
7
  6
CONTINUOUS
 10
6.1016231277
 20
6.636931895
 11
6.1016231277
 21
6.634963391
  0
LINE
  5
613
100
AcDbEntity
  8
AXIS
100
AcDbLine
 62
7
  6
CONTINUOUS
 10
6.1016231277
 20
6.5975618162
 11
6.1016231277
 21
6.5955933123
  0
LWPOLYLINE
  5
614
100
AcDbEntity
  8
0
100
AcDbPolyline
 62
7
  6
CONTINUOUS
 90
6
 70
0
 10
5.9691000348
 20
7.5640972493
 10
5.9692836152
 20
7.5762907636
 10
5.9698136817
 20
7.5872735859
 10
5.9706324082
 20
7.5959736504
 10
5.9716532164
 20
7.6015490303
 10
5.972771869
 20
7.6034673281
  0
LWPOLYLINE
  5
615
100
AcDbEntity
  8
0
100
AcDbPolyline
 62
7
  6
CONTINUOUS
 90
6
 70
0
 10
5.9691000348
 20
6.8948059107
 10
5.9689160176
 20
6.8826088077
 10
5.968381058
 20
6.8716240533
 10
5.9675440477
 20
6.8629247939
 10
5.9664818295
 20
6.857352289
 10
5.9652933203
 20
6.855435832
  0
LINE
  5
616
100
AcDbEntity
  8
02___PRT_ALL_AXES
100
AcDbLine
 62
7
  6
CONTINUOUS
 10
6.4165837577
 20
7.5640972493
 11
6.4165837577
 21
7.5341116289
  0
LINE
  5
617
100
AcDbEntity
  8
02___PRT_ALL_AXES
100
AcDbLine
 62
7
  6
CONTINUOUS
 10
6.4165837577
 20
7.4858151532
 11
6.4165837577
 21
7.4750565108
  0
LINE
  5
618
100
AcDbEntity
  8
02___PRT_ALL_AXES
100
AcDbLine
 62
7
  6
CONTINUOUS
 10
6.4165837577
 20
7.426760035
 11
6.4165837577
 21
7.4160013927
  0
LINE
  5
619
100
AcDbEntity
  8
02___PRT_ALL_AXES
100
AcDbLine
 62
7
  6
CONTINUOUS
 10
6.4165837577
 20
7.3677049169
 11
6.4165837577
 21
7.3569462746
  0
LINE
  5
61A
100
AcDbEntity
  8
02___PRT_ALL_AXES
100
AcDbLine
 62
7
  6
CONTINUOUS
 10
6.4165837577
 20
7.3086497988
 11
6.4165837577
 21
7.2978911565
  0
LINE
  5
61B
100
AcDbEntity
  8
02___PRT_ALL_AXES
100
AcDbLine
 62
7
  6
CONTINUOUS
 10
6.4165837577
 20
7.2495946807
 11
6.4165837577
 21
7.2388360384
  0
LINE
  5
61C
100
AcDbEntity
  8
02___PRT_ALL_AXES
100
AcDbLine
 62
7
  6
CONTINUOUS
 10
6.4165837577
 20
7.1905395626
 11
6.4165837577
 21
7.1797809203
  0
LINE
  5
61D
100
AcDbEntity
  8
02___PRT_ALL_AXES
100
AcDbLine
 62
7
  6
CONTINUOUS
 10
6.4165837577
 20
7.1314844445
 11
6.4165837577
 21
7.1207258022
  0
LINE
  5
61E
100
AcDbEntity
  8
02___PRT_ALL_AXES
100
AcDbLine
 62
7
  6
CONTINUOUS
 10
6.4165837577
 20
7.0724293264
 11
6.4165837577
 21
7.061670684
  0
LINE
  5
61F
100
AcDbEntity
  8
02___PRT_ALL_AXES
100
AcDbLine
 62
7
  6
CONTINUOUS
 10
6.4165837577
 20
7.0133742083
 11
6.4165837577
 21
7.0026155659
  0
LINE
  5
620
100
AcDbEntity
  8
02___PRT_ALL_AXES
100
AcDbLine
 62
7
  6
CONTINUOUS
 10
6.4165837577
 20
6.9543190902
 11
6.4165837577
 21
6.8948059107
  0
LINE
  5
621
100
AcDbEntity
  8
0
100
AcDbLine
 62
7
  6
CONTINUOUS
 10
6.4520168285
 20
6.9747763832
 11
6.4520168285
 21
6.9821582729
  0
LINE
  5
622
100
AcDbEntity
  8
0
100
AcDbLine
 62
7
  6
CONTINUOUS
 10
6.4520168285
 20
7.0338315013
 11
6.4520168285
 21
7.041213391
  0
LINE
  5
623
100
AcDbEntity
  8
0
100
AcDbLine
 62
7
  6
CONTINUOUS
 10
6.4520168285
 20
7.0928866194
 11
6.4520168285
 21
7.1002685092
  0
LINE
  5
624
100
AcDbEntity
  8
0
100
AcDbLine
 62
7
  6
CONTINUOUS
 10
6.4520168285
 20
7.1519417375
 11
6.4520168285
 21
7.1593236273
  0
LINE
  5
625
100
AcDbEntity
  8
0
100
AcDbLine
 62
7
  6
CONTINUOUS
 10
6.4520168285
 20
7.2109968556
 11
6.4520168285
 21
7.2183787454
  0
LINE
  5
626
100
AcDbEntity
  8
0
100
AcDbLine
 62
7
  6
CONTINUOUS
 10
6.4520168285
 20
7.2700519737
 11
6.4520168285
 21
7.2774338635
  0
LINE
  5
627
100
AcDbEntity
  8
0
100
AcDbLine
 62
7
  6
CONTINUOUS
 10
6.4520168285
 20
7.3291070918
 11
6.4520168285
 21
7.3364889816
  0
LINE
  5
628
100
AcDbEntity
  8
0
100
AcDbLine
 62
7
  6
CONTINUOUS
 10
6.4520168285
 20
7.3881622099
 11
6.4520168285
 21
7.3955440997
  0
LINE
  5
629
100
AcDbEntity
  8
0
100
AcDbLine
 62
7
  6
CONTINUOUS
 10
6.4520168285
 20
7.4472173281
 11
6.4520168285
 21
7.4545992178
  0
LINE
  5
62A
100
AcDbEntity
  8
0
100
AcDbLine
 62
7
  6
CONTINUOUS
 10
6.4520168285
 20
7.5062724462
 11
6.4520168285
 21
7.5136543359
  0
LINE
  5
62B
100
AcDbEntity
  8
AXIS
100
AcDbLine
 62
7
  6
CONTINUOUS
 10
4.8811506868
 20
11.2648846509
 11
6.8496546238
 21
11.2648846509
  0
LINE
  5
62C
100
AcDbEntity
  8
02___PRT_ALL_AXES
100
AcDbLine
 62
7
  6
CONTINUOUS
 10
6.751229427
 20
8.1940185092
 11
6.751229427
 21
7.760947643
  0
LINE
  5
62D
100
AcDbEntity
  8
0
100
AcDbLine
 62
7
  6
CONTINUOUS
 10
6.8496546238
 20
14.4696090603
 11
6.8449576275
 21
14.738699801
  0
LINE
  5
62E
100
AcDbEntity
  8
02___PRT_ALL_AXES
100
AcDbLine
 62
7
  6
CONTINUOUS
 10
6.8496546238
 20
8.6034673281
 11
6.8496546238
 21
8.292443706
  0
LINE
  5
62F
100
AcDbEntity
  8
AXIS
100
AcDbLine
 62
7
  6
CONTINUOUS
 10
6.8496546238
 20
8.6034673281
 11
6.8496546238
 21
9.6625224462
  0
LINE
  5
630
100
AcDbEntity
  8
AXIS
100
AcDbLine
 62
7
  6
CONTINUOUS
 10
6.8496546238
 20
10.2058295328
 11
6.8496546238
 21
11.2648846509
  0
LINE
  5
631
100
AcDbEntity
  8
AXIS
100
AcDbLine
 62
7
  6
CONTINUOUS
 10
6.8496546238
 20
11.8081917375
 11
6.8496546238
 21
12.8672468556
  0
LINE
  5
632
100
AcDbEntity
  8
AXIS
100
AcDbLine
 62
7
  6
CONTINUOUS
 10
6.8496546238
 20
13.4105539422
 11
6.8496546238
 21
14.4696090603
  0
LINE
  5
633
100
AcDbEntity
  8
0
100
AcDbLine
 62
7
  6
CONTINUOUS
 10
6.8496546238
 20
13.4105539422
 11
6.8449132547
 21
12.8672468556
  0
LINE
  5
634
100
AcDbEntity
  8
0
100
AcDbLine
 62
7
  6
CONTINUOUS
 10
6.8496546238
 20
11.8081917375
 11
6.8449132547
 21
11.2648846509
  0
LINE
  5
635
100
AcDbEntity
  8
0
100
AcDbLine
 62
7
  6
CONTINUOUS
 10
6.8496546238
 20
10.2058295328
 11
6.8449132547
 21
9.6625224462
  0
LINE
  5
636
100
AcDbEntity
  8
0
100
AcDbLine
 62
7
  6
CONTINUOUS
 10
6.8496546238
 20
11.8081917375
 11
4.8811506868
 21
11.8081917375
  0
LINE
  5
637
100
AcDbEntity
  8
AXIS
100
AcDbLine
 62
7
  6
CONTINUOUS
 10
4.8811506868
 20
11.8081917375
 11
6.8496546238
 21
11.8081917375
  0
LINE
  5
638
100
AcDbEntity
  8
0
100
AcDbLine
 62
7
  6
CONTINUOUS
 10
5.635421987
 20
6.5814794183
 11
5.6354903156
 21
6.5816665329
  0
LINE
  5
639
100
AcDbEntity
  8
02___PRT_ALL_AXES
100
AcDbLine
 62
7
  6
CONTINUOUS
 10
5.2787884821
 20
7.4841267769
 11
5.2790142401
 21
7.4843875434
  0
LINE
  5
63A
100
AcDbEntity
  8
02___PRT_ALL_AXES
100
AcDbLine
 62
7
  6
CONTINUOUS
 10
5.2787884821
 20
7.4250716588
 11
5.2790142401
 21
7.4253324253
  0
LINE
  5
63B
100
AcDbEntity
  8
02___PRT_ALL_AXES
100
AcDbLine
 62
7
  6
CONTINUOUS
 10
5.2787884821
 20
7.3660165407
 11
5.2790142401
 21
7.3662773072
  0
LINE
  5
63C
100
AcDbEntity
  8
02___PRT_ALL_AXES
100
AcDbLine
 62
7
  6
CONTINUOUS
 10
5.2787884821
 20
7.3069614225
 11
5.2790142401
 21
7.3072221891
  0
LINE
  5
63D
100
AcDbEntity
  8
02___PRT_ALL_AXES
100
AcDbLine
 62
7
  6
CONTINUOUS
 10
5.2787884821
 20
7.2479063044
 11
5.2790142401
 21
7.248167071
  0
LINE
  5
63E
100
AcDbEntity
  8
02___PRT_ALL_AXES
100
AcDbLine
 62
7
  6
CONTINUOUS
 10
5.2787884821
 20
7.1888511863
 11
5.2790142401
 21
7.1891119529
  0
LINE
  5
63F
100
AcDbEntity
  8
02___PRT_ALL_AXES
100
AcDbLine
 62
7
  6
CONTINUOUS
 10
5.2787884821
 20
7.1297960682
 11
5.2790142401
 21
7.1300568348
  0
LINE
  5
640
100
AcDbEntity
  8
02___PRT_ALL_AXES
100
AcDbLine
 62
7
  6
CONTINUOUS
 10
5.2787884821
 20
7.0707409501
 11
5.2790142401
 21
7.0710017167
  0
LINE
  5
641
100
AcDbEntity
  8
02___PRT_ALL_AXES
100
AcDbLine
 62
7
  6
CONTINUOUS
 10
5.2787884821
 20
7.011685832
 11
5.2790142401
 21
7.0119465986
  0
LINE
  5
642
100
AcDbEntity
  8
02___PRT_ALL_AXES
100
AcDbLine
 62
7
  6
CONTINUOUS
 10
5.2787884821
 20
6.9526307139
 11
5.2790142401
 21
6.9528914805
  0
LINE
  5
643
100
AcDbEntity
  8
0
100
AcDbLine
 62
7
  6
CONTINUOUS
 10
5.6291821829
 20
6.8514988303
 11
5.6293825074
 21
6.8517568959
  0
LINE
  5
644
100
AcDbEntity
  8
AXIS
100
AcDbLine
 62
7
  6
CONTINUOUS
 10
4.8811506868
 20
12.8672468556
 11
6.8496546238
 21
12.8672468556
  0
LINE
  5
645
100
AcDbEntity
  8
0
100
AcDbLine
 62
7
  6
CONTINUOUS
 10
5.629431102
 20
6.8537550082
 11
5.6291821829
 21
6.8534673295
  0
LINE
  5
646
100
AcDbEntity
  8
0
100
AcDbLine
 62
7
  6
CONTINUOUS
 10
5.629431102
 20
6.8143849295
 11
5.6291821829
 21
6.8140972555
  0
LINE
  5
647
100
AcDbEntity
  8
0
100
AcDbLine
 62
7
  6
CONTINUOUS
 10
5.629431102
 20
6.7750148507
 11
5.6291821829
 21
6.7747271705
  0
LINE
  5
648
100
AcDbEntity
  8
0
100
AcDbLine
 62
7
  6
CONTINUOUS
 10
5.629431102
 20
6.735644772
 11
5.6291821829
 21
6.7353570702
  0
LINE
  5
649
100
AcDbEntity
  8
0
100
AcDbLine
 62
7
  6
CONTINUOUS
 10
5.629431102
 20
6.6962746932
 11
5.6291821829
 21
6.6959870068
  0
LINE
  5
64A
100
AcDbEntity
  8
0
100
AcDbLine
 62
7
  6
CONTINUOUS
 10
5.629431102
 20
6.6569046145
 11
5.6291821829
 21
6.6566169676
  0
LINE
  5
64B
100
AcDbEntity
  8
0
100
AcDbLine
 62
7
  6
CONTINUOUS
 10
5.629431102
 20
6.6175345358
 11
5.6291821829
 21
6.6172468555
  0
LINE
  5
64C
100
AcDbEntity
  8
02___PRT_ALL_AXES
100
AcDbLine
 62
7
  6
CONTINUOUS
 10
6.4517910705
 20
7.5060116796
 11
6.4520168285
 21
7.5062724462
  0
LINE
  5
64D
100
AcDbEntity
  8
02___PRT_ALL_AXES
100
AcDbLine
 62
7
  6
CONTINUOUS
 10
6.4517910705
 20
7.4469565615
 11
6.4520168285
 21
7.4472173281
  0
LINE
  5
64E
100
AcDbEntity
  8
02___PRT_ALL_AXES
100
AcDbLine
 62
7
  6
CONTINUOUS
 10
6.4517910705
 20
7.3879014434
 11
6.4520168285
 21
7.3881622099
  0
LINE
  5
64F
100
AcDbEntity
  8
0
100
AcDbLine
 62
7
  6
CONTINUOUS
 10
5.3144618056
 20
7.5048615906
 11
5.2790142401
 21
7.4843875434
  0
LINE
  5
650
100
AcDbEntity
  8
0
100
AcDbLine
 62
7
  6
CONTINUOUS
 10
5.3144618056
 20
7.4458064725
 11
5.2790142401
 21
7.4253324253
  0
LINE
  5
651
100
AcDbEntity
  8
0
100
AcDbLine
 62
7
  6
CONTINUOUS
 10
5.3144618056
 20
7.3867513543
 11
5.2790142401
 21
7.3662773072
  0
LINE
  5
652
100
AcDbEntity
  8
0
100
AcDbLine
 62
7
  6
CONTINUOUS
 10
6.1016231277
 20
6.6763019674
 11
6.1014224566
 21
6.6760436788
  0
LINE
  5
653
100
AcDbEntity
  8
0
100
AcDbLine
 62
7
  6
CONTINUOUS
 10
6.1013742086
 20
6.8315261046
 11
6.1016231277
 21
6.8318137929
  0
LINE
  5
654
100
AcDbEntity
  8
0
100
AcDbLine
 62
7
  6
CONTINUOUS
 10
6.1013742086
 20
6.7921560258
 11
6.1016231277
 21
6.7924437255
  0
LINE
  5
655
100
AcDbEntity
  8
0
100
AcDbLine
 62
7
  6
CONTINUOUS
 10
6.1013742086
 20
6.7527859471
 11
6.1016231277
 21
6.7530736272
  0
LINE
  5
656
100
AcDbEntity
  8
0
100
AcDbLine
 62
7
  6
CONTINUOUS
 10
6.1013742086
 20
6.7134158683
 11
6.1016231277
 21
6.7137035422
  0
LINE
  5
657
100
AcDbEntity
  8
0
100
AcDbLine
 62
7
  6
CONTINUOUS
 10
6.1013742086
 20
6.6740457896
 11
6.1016231277
 21
6.674333467
  0
LINE
  5
658
100
AcDbEntity
  8
0
100
AcDbLine
 62
7
  6
CONTINUOUS
 10
6.1013742086
 20
6.6346757109
 11
6.1016231277
 21
6.6349633643
  0
LINE
  5
659
100
AcDbEntity
  8
0
100
AcDbLine
 62
7
  6
CONTINUOUS
 10
6.1013742086
 20
6.5953056321
 11
6.1016231277
 21
6.5955933509
  0
LINE
  5
65A
100
AcDbEntity
  8
02___PRT_ALL_AXES
100
AcDbLine
 62
7
  6
CONTINUOUS
 10
6.4517910705
 20
7.3288463253
 11
6.4520168285
 21
7.3291070918
  0
LINE
  5
65B
100
AcDbEntity
  8
02___PRT_ALL_AXES
100
AcDbLine
 62
7
  6
CONTINUOUS
 10
6.4517910705
 20
7.2697912071
 11
6.4520168285
 21
7.2700519737
  0
LINE
  5
65C
100
AcDbEntity
  8
02___PRT_ALL_AXES
100
AcDbLine
 62
7
  6
CONTINUOUS
 10
6.4517910705
 20
7.210736089
 11
6.4520168285
 21
7.2109968556
  0
LINE
  5
65D
100
AcDbEntity
  8
02___PRT_ALL_AXES
100
AcDbLine
 62
7
  6
CONTINUOUS
 10
6.4517910705
 20
7.1516809709
 11
6.4520168285
 21
7.1519417375
  0
LINE
  5
65E
100
AcDbEntity
  8
02___PRT_ALL_AXES
100
AcDbLine
 62
7
  6
CONTINUOUS
 10
6.4517910705
 20
7.0926258528
 11
6.4520168285
 21
7.0928866194
  0
LINE
  5
65F
100
AcDbEntity
  8
02___PRT_ALL_AXES
100
AcDbLine
 62
7
  6
CONTINUOUS
 10
6.4517910705
 20
7.0335707347
 11
6.4520168285
 21
7.0338315013
  0
LINE
  5
660
100
AcDbEntity
  8
02___PRT_ALL_AXES
100
AcDbLine
 62
7
  6
CONTINUOUS
 10
6.4517910705
 20
6.9745156166
 11
6.4520168285
 21
6.9747763832
  0
LWPOLYLINE
  5
661
100
AcDbEntity
  8
02___PRT_ALL_AXES
100
AcDbPolyline
 62
7
  6
CONTINUOUS
 90
5
 70
0
 10
5.3142215529
 20
7.1019568757
 10
5.3148643964
 20
7.1024108692
 10
5.3261553778
 20
7.1039162807
 10
5.3507834196
 20
7.1053995137
 10
5.3880658186
 20
7.1068781453
  0
LINE
  5
662
100
AcDbEntity
  8
0
100
AcDbLine
 62
7
  6
CONTINUOUS
 10
5.3144618056
 20
7.3276962362
 11
5.2790142401
 21
7.3072221891
  0
LINE
  5
663
100
AcDbEntity
  8
0
100
AcDbLine
 62
7
  6
CONTINUOUS
 10
5.3144618056
 20
7.2686411181
 11
5.2790142401
 21
7.248167071
  0
LINE
  5
664
100
AcDbEntity
  8
0
100
AcDbLine
 62
7
  6
CONTINUOUS
 10
5.3144618056
 20
7.209586
 11
5.2790142401
 21
7.1891119529
  0
LINE
  5
665
100
AcDbEntity
  8
0
100
AcDbLine
 62
7
  6
CONTINUOUS
 10
5.3144618056
 20
7.1505308819
 11
5.2790142401
 21
7.1300568348
  0
LINE
  5
666
100
AcDbEntity
  8
0
100
AcDbLine
 62
7
  6
CONTINUOUS
 10
5.3144618056
 20
7.0914757638
 11
5.2790142401
 21
7.0710017167
  0
LINE
  5
667
100
AcDbEntity
  8
0
100
AcDbLine
 62
7
  6
CONTINUOUS
 10
5.3144618056
 20
7.0324206457
 11
5.2790142401
 21
7.0119465986
  0
LWPOLYLINE
  5
668
100
AcDbEntity
  8
02___PRT_ALL_AXES
100
AcDbPolyline
 62
7
  6
CONTINUOUS
 90
5
 70
0
 10
5.2787884821
 20
7.1224141784
 10
5.2798529999
 20
7.1229804941
 10
5.2922571602
 20
7.1244321422
 10
5.3183061691
 20
7.1258837902
 10
5.3573798791
 20
7.1273354383
  0
LWPOLYLINE
  5
669
100
AcDbEntity
  8
02___PRT_ALL_AXES
100
AcDbPolyline
 62
7
  6
CONTINUOUS
 90
8
 70
0
 10
5.3142215531
 20
7.3972322858
 10
5.3159815075
 20
7.3979837734
 10
5.330254757
 20
7.3995050294
 10
5.3584509416
 20
7.4010234327
 10
5.4005445677
 20
7.4025639468
 10
5.4554092036
 20
7.4041123954
 10
5.5207735029
 20
7.4056476727
 10
5.5942103638
 20
7.4071613709
  0
LWPOLYLINE
  5
66A
100
AcDbEntity
  8
02___PRT_ALL_AXES
100
AcDbPolyline
 62
7
  6
CONTINUOUS
 90
10
 70
0
 10
5.314221553
 20
7.4562876319
 10
5.3160387897
 20
7.4570510266
 10
5.330593554
 20
7.4585841515
 10
5.3589444776
 20
7.4600999361
 10
5.4010896581
 20
7.4616363393
 10
5.4559143251
 20
7.4631803913
 10
5.5211348687
 20
7.464710684
 10
5.5947253839
 20
7.4662265737
 10
5.6758963099
 20
7.4677525385
 10
5.7617052759
 20
7.469272492
  0
LWPOLYLINE
  5
66B
100
AcDbEntity
  8
02___PRT_ALL_AXES
100
AcDbPolyline
 62
7
  6
CONTINUOUS
 90
10
 70
0
 10
5.3142215529
 20
7.3381773517
 10
5.316130306
 20
7.3389597884
 10
5.3308879328
 20
7.3404945743
 10
5.3594059856
 20
7.3420095954
 10
5.4013176749
 20
7.3435333144
 10
5.4551612512
 20
7.3450509487
 10
5.5193743549
 20
7.3465619429
 10
5.5928065751
 20
7.3480787336
 10
5.6745335002
 20
7.3496175426
 10
5.7617052759
 20
7.3511622558
  0
LWPOLYLINE
  5
66C
100
AcDbEntity
  8
02___PRT_ALL_AXES
100
AcDbPolyline
 62
7
  6
CONTINUOUS
 90
8
 70
0
 10
5.2787884821
 20
7.4767448871
 10
5.280588351
 20
7.477481345
 10
5.294921101
 20
7.4789542609
 10
5.323235331
 20
7.4804271767
 10
5.36483711
 20
7.4819000926
 10
5.4187068529
 20
7.4833730084
 10
5.4835243091
 20
7.4848459243
 10
5.5577009188
 20
7.4863188401
  0
LWPOLYLINE
  5
66D
100
AcDbEntity
  8
02___PRT_ALL_AXES
100
AcDbPolyline
 62
7
  6
CONTINUOUS
 90
6
 70
0
 10
5.2787884821
 20
7.417689769
 10
5.280588351
 20
7.4184262269
 10
5.294921101
 20
7.4198991428
 10
5.323235331
 20
7.4213720586
 10
5.36483711
 20
7.4228449745
 10
5.4187068529
 20
7.4243178903
  0
LWPOLYLINE
  5
66E
100
AcDbEntity
  8
02___PRT_ALL_AXES
100
AcDbPolyline
 62
7
  6
CONTINUOUS
 90
8
 70
0
 10
5.2787884821
 20
7.3586346509
 10
5.280588351
 20
7.3593711088
 10
5.294921101
 20
7.3608440247
 10
5.323235331
 20
7.3623169405
 10
5.36483711
 20
7.3637898563
 10
5.4187068529
 20
7.3652627722
 10
5.4835243091
 20
7.366735688
 10
5.5577009188
 20
7.3682086039
  0
LINE
  5
66F
100
AcDbEntity
  8
0
100
AcDbLine
 62
7
  6
CONTINUOUS
 10
6.8496546238
 20
13.4105539422
 11
4.8811506868
 21
13.4105539422
  0
LINE
  5
670
100
AcDbEntity
  8
AXIS
100
AcDbLine
 62
7
  6
CONTINUOUS
 10
4.8811506868
 20
13.4105539422
 11
6.8496546238
 21
13.4105539422
  0
LINE
  5
671
100
AcDbEntity
  8
0
100
AcDbLine
 62
7
  6
CONTINUOUS
 10
6.0819381582
 20
6.5680342572
 11
6.0829034499
 21
6.5689995486
  0
LWPOLYLINE
  5
672
100
AcDbEntity
  8
02___PRT_ALL_AXES
100
AcDbPolyline
 62
7
  6
CONTINUOUS
 90
5
 70
0
 10
6.4165837577
 20
7.3569462835
 10
6.415940604
 20
7.3564921813
 10
6.4046480997
 20
7.3549867283
 10
6.3800184103
 20
7.3535034806
 10
6.342739492
 20
7.3520250148
  0
LINE
  5
673
100
AcDbEntity
  8
0
100
AcDbLine
 62
7
  6
CONTINUOUS
 10
5.3144618056
 20
6.9733655276
 11
5.2790142401
 21
6.9528914805
  0
LINE
  5
674
100
AcDbEntity
  8
0
100
AcDbLine
 62
7
  6
CONTINUOUS
 10
6.416343505
 20
7.4855376325
 11
6.4517910705
 21
7.5060116796
  0
LINE
  5
675
100
AcDbEntity
  8
0
100
AcDbLine
 62
7
  6
CONTINUOUS
 10
6.416343505
 20
7.4264825144
 11
6.4517910705
 21
7.4469565615
  0
LINE
  5
676
100
AcDbEntity
  8
0
100
AcDbLine
 62
7
  6
CONTINUOUS
 10
6.416343505
 20
7.3674273962
 11
6.4517910705
 21
7.3879014434
  0
LWPOLYLINE
  5
677
100
AcDbEntity
  8
02___PRT_ALL_AXES
100
AcDbPolyline
 62
7
  6
CONTINUOUS
 90
8
 70
0
 10
6.4165837554
 20
7.4750573599
 10
6.4149354061
 20
7.4743294366
 10
6.4008269383
 20
7.4728037252
 10
6.372852183
 20
7.4712872409
 10
6.3310308591
 20
7.4697495309
 10
6.2764568399
 20
7.4682036985
 10
6.2113912359
 20
7.4666710557
 10
6.1379010776
 20
7.4651532191
  0
LWPOLYLINE
  5
678
100
AcDbEntity
  8
02___PRT_ALL_AXES
100
AcDbPolyline
 62
7
  6
CONTINUOUS
 90
10
 70
0
 10
5.3142215552
 20
6.9838458056
 10
5.3158737197
 20
6.9845745648
 10
5.32998879
 20
6.986100183
 10
5.3579732135
 20
6.9876167965
 10
5.3998058138
 20
6.9891546285
 10
5.4543951211
 20
6.9907006555
 10
5.5194809198
 20
6.9922335686
 10
5.5929548871
 20
6.9937509346
 10
5.6745866781
 20
6.9952878005
 10
5.7617052759
 20
6.9968315471
  0
LWPOLYLINE
  5
679
100
AcDbEntity
  8
02___PRT_ALL_AXES
100
AcDbPolyline
 62
7
  6
CONTINUOUS
 90
10
 70
0
 10
5.3142215538
 20
7.1610114734
 10
5.3160083734
 20
7.1617690166
 10
5.3304787014
 20
7.1633004512
 10
5.358760486
 20
7.1648163864
 10
5.4006744308
 20
7.1663475943
 10
5.4549677557
 20
7.1678806523
 10
5.5193428702
 20
7.1693958988
 10
5.5927848397
 20
7.1709129529
 10
5.6745207453
 20
7.1724519564
 10
5.7617052759
 20
7.1739969014
  0
LWPOLYLINE
  5
67A
100
AcDbEntity
  8
02___PRT_ALL_AXES
100
AcDbPolyline
 62
7
  6
CONTINUOUS
 90
10
 70
0
 10
5.3142215529
 20
7.279122234
 10
5.3160389387
 20
7.2798857036
 10
5.3306337086
 20
7.2814216259
 10
5.3589318306
 20
7.2829340352
 10
5.4005487158
 20
7.2844538422
 10
5.4548284456
 20
7.2859873287
 10
5.5197135875
 20
7.2875142542
 10
5.5932808341
 20
7.2890329178
 10
5.6748840325
 20
7.2905687953
 10
5.7617052759
 20
7.2921071376
  0
LWPOLYLINE
  5
67B
100
AcDbEntity
  8
02___PRT_ALL_AXES
100
AcDbPolyline
 62
7
  6
CONTINUOUS
 90
10
 70
0
 10
6.4165837577
 20
7.5341116223
 10
6.4146777542
 20
7.5333297625
 10
6.3999099226
 20
7.5317938916
 10
6.3713883272
 20
7.5302789185
 10
6.3296921749
 20
7.5287621409
 10
6.276045895
 20
7.5272483045
 10
6.2116220313
 20
7.5257312306
 10
6.1381195945
 20
7.5242126246
 10
6.0563352845
 20
7.522672598
 10
5.9691000348
 20
7.5211267311
  0
LWPOLYLINE
  5
67C
100
AcDbEntity
  8
02___PRT_ALL_AXES
100
AcDbPolyline
 62
7
  6
CONTINUOUS
 90
6
 70
0
 10
5.3142215542
 20
7.2200677454
 10
5.3161281338
 20
7.2208491066
 10
5.3305850157
 20
7.2223630771
 10
5.3589583378
 20
7.2238800626
 10
5.4012168692
 20
7.2254198911
 10
5.4562078097
 20
7.2269673922
  0
LWPOLYLINE
  5
67D
100
AcDbEntity
  8
02___PRT_ALL_AXES
100
AcDbPolyline
 62
7
  6
CONTINUOUS
 90
9
 70
0
 10
5.2787884821
 20
7.2995795328
 10
5.280588351
 20
7.3003159907
 10
5.294921101
 20
7.3017889065
 10
5.323235331
 20
7.3032618224
 10
5.36483711
 20
7.3047347382
 10
5.4187068529
 20
7.3062076541
 10
5.4835243091
 20
7.3076805699
 10
5.5577009188
 20
7.3091534858
 10
5.6394187463
 20
7.3106264016
  0
LWPOLYLINE
  5
67E
100
AcDbEntity
  8
02___PRT_ALL_AXES
100
AcDbPolyline
 62
7
  6
CONTINUOUS
 90
9
 70
0
 10
5.2787884821
 20
7.2405244147
 10
5.280588351
 20
7.2412608726
 10
5.294921101
 20
7.2427337884
 10
5.323235331
 20
7.2442067043
 10
5.36483711
 20
7.2456796201
 10
5.4187068529
 20
7.247152536
 10
5.4835243091
 20
7.2486254518
 10
5.5577009188
 20
7.2500983677
 10
5.6394187463
 20
7.2515712835
  0
LWPOLYLINE
  5
67F
100
AcDbEntity
  8
02___PRT_ALL_AXES
100
AcDbPolyline
 62
7
  6
CONTINUOUS
 90
9
 70
0
 10
5.2787884821
 20
7.1814692966
 10
5.280588351
 20
7.1822057545
 10
5.294921101
 20
7.1836786703
 10
5.323235331
 20
7.1851515862
 10
5.36483711
 20
7.186624502
 10
5.4187068529
 20
7.1880974179
 10
5.4835243091
 20
7.1895703337
 10
5.5577009188
 20
7.1910432495
 10
5.6394187463
 20
7.1925161654
  0
LWPOLYLINE
  5
680
100
AcDbEntity
  8
02___PRT_ALL_AXES
100
AcDbPolyline
 62
7
  6
CONTINUOUS
 90
9
 70
0
 10
5.2787884821
 20
7.0633590603
 10
5.280588351
 20
7.0640955183
 10
5.294921101
 20
7.0655684341
 10
5.323235331
 20
7.0670413499
 10
5.36483711
 20
7.0685142658
 10
5.4187068529
 20
7.0699871816
 10
5.4835243091
 20
7.0714600975
 10
5.5577009188
 20
7.0729330133
 10
5.6394187463
 20
7.0744059292
  0
LWPOLYLINE
  5
681
100
AcDbEntity
  8
02___PRT_ALL_AXES
100
AcDbPolyline
 62
7
  6
CONTINUOUS
 90
10
 70
0
 10
5.314221555
 20
7.0429025731
 10
5.3161788931
 20
7.0436940995
 10
5.3307497952
 20
7.0452093121
 10
5.3591745126
 20
7.0467240383
 10
5.4014530447
 20
7.048262001
 10
5.4564244544
 20
7.0498075502
 10
5.5217951026
 20
7.051339265
 10
5.5954484953
 20
7.0528548961
 10
5.6762748314
 20
7.0543735846
 10
5.7617052759
 20
7.0558866652
  0
LWPOLYLINE
  5
682
100
AcDbEntity
  8
02___PRT_ALL_AXES
100
AcDbPolyline
 62
7
  6
CONTINUOUS
 90
5
 70
0
 10
5.2790142401
 20
7.1300568348
 10
5.2798529999
 20
7.1303623839
 10
5.2922571602
 20
7.1318140319
 10
5.3183061691
 20
7.13326568
 10
5.3573798791
 20
7.1347173281
  0
LWPOLYLINE
  5
683
100
AcDbEntity
  8
02___PRT_ALL_AXES
100
AcDbPolyline
 62
7
  6
CONTINUOUS
 90
9
 70
0
 10
5.2790142401
 20
7.4843875434
 10
5.280588351
 20
7.4848632348
 10
5.294921101
 20
7.4863361506
 10
5.323235331
 20
7.4878090665
 10
5.36483711
 20
7.4892819823
 10
5.4187068529
 20
7.4907548982
 10
5.4835243091
 20
7.492227814
 10
5.5577009188
 20
7.4937007299
 10
5.6394187463
 20
7.4951736457
  0
LWPOLYLINE
  5
684
100
AcDbEntity
  8
02___PRT_ALL_AXES
100
AcDbPolyline
 62
7
  6
CONTINUOUS
 90
9
 70
0
 10
5.2790142401
 20
7.4253324253
 10
5.280588351
 20
7.4258081167
 10
5.294921101
 20
7.4272810325
 10
5.323235331
 20
7.4287539484
 10
5.36483711
 20
7.4302268642
 10
5.4187068529
 20
7.4316997801
 10
5.4835243091
 20
7.4331726959
 10
5.5577009188
 20
7.4346456118
 10
5.6394187463
 20
7.4361185276
  0
LWPOLYLINE
  5
685
100
AcDbEntity
  8
02___PRT_ALL_AXES
100
AcDbPolyline
 62
7
  6
CONTINUOUS
 90
9
 70
0
 10
5.2790142401
 20
7.3662773072
 10
5.280588351
 20
7.3667529986
 10
5.294921101
 20
7.3682259144
 10
5.323235331
 20
7.3696988303
 10
5.36483711
 20
7.3711717461
 10
5.4187068529
 20
7.372644662
 10
5.4835243091
 20
7.3741175778
 10
5.5577009188
 20
7.3755904936
 10
5.6394187463
 20
7.3770634095
  0
LWPOLYLINE
  5
686
100
AcDbEntity
  8
02___PRT_ALL_AXES
100
AcDbPolyline
 62
7
  6
CONTINUOUS
 90
9
 70
0
 10
5.2790142401
 20
7.3072221891
 10
5.280588351
 20
7.3076978805
 10
5.294921101
 20
7.3091707963
 10
5.323235331
 20
7.3106437122
 10
5.36483711
 20
7.312116628
 10
5.4187068529
 20
7.3135895438
 10
5.4835243091
 20
7.3150624597
 10
5.5577009188
 20
7.3165353755
 10
5.6394187463
 20
7.3180082914
  0
LWPOLYLINE
  5
687
100
AcDbEntity
  8
02___PRT_ALL_AXES
100
AcDbPolyline
 62
7
  6
CONTINUOUS
 90
9
 70
0
 10
5.2790142401
 20
7.248167071
 10
5.280588351
 20
7.2486427624
 10
5.294921101
 20
7.2501156782
 10
5.323235331
 20
7.251588594
 10
5.36483711
 20
7.2530615099
 10
5.4187068529
 20
7.2545344257
 10
5.4835243091
 20
7.2560073416
 10
5.5577009188
 20
7.2574802574
 10
5.6394187463
 20
7.2589531733
  0
LINE
  5
688
100
AcDbEntity
  8
0
100
AcDbLine
 62
7
  6
CONTINUOUS
 10
5.6323391602
 20
6.855435832
 11
5.629431102
 21
6.8537550082
  0
LINE
  5
689
100
AcDbEntity
  8
0
100
AcDbLine
 62
7
  6
CONTINUOUS
 10
5.6618612157
 20
6.8331313521
 11
5.629431102
 21
6.8143849295
  0
LINE
  5
68A
100
AcDbEntity
  8
0
100
AcDbLine
 62
7
  6
CONTINUOUS
 10
5.6618612157
 20
6.7937612734
 11
5.629431102
 21
6.7750148507
  0
LINE
  5
68B
100
AcDbEntity
  8
0
100
AcDbLine
 62
7
  6
CONTINUOUS
 10
5.6618612157
 20
6.7543911946
 11
5.629431102
 21
6.735644772
  0
LINE
  5
68C
100
AcDbEntity
  8
0
100
AcDbLine
 62
7
  6
CONTINUOUS
 10
5.6618612157
 20
6.7150211159
 11
5.629431102
 21
6.6962746932
  0
LINE
  5
68D
100
AcDbEntity
  8
0
100
AcDbLine
 62
7
  6
CONTINUOUS
 10
5.6618612157
 20
6.6756510372
 11
5.629431102
 21
6.6569046145
  0
LINE
  5
68E
100
AcDbEntity
  8
0
100
AcDbLine
 62
7
  6
CONTINUOUS
 10
5.6618612157
 20
6.6362809584
 11
5.629431102
 21
6.6175345358
  0
LINE
  5
68F
100
AcDbEntity
  8
0
100
AcDbLine
 62
7
  6
CONTINUOUS
 10
6.068944095
 20
6.8521497607
 11
6.0746280429
 21
6.855435832
  0
LINE
  5
690
100
AcDbEntity
  8
0
100
AcDbLine
 62
7
  6
CONTINUOUS
 10
5.6618612157
 20
6.5969108797
 11
5.6354903156
 21
6.5816665329
  0
LINE
  5
691
100
AcDbEntity
  8
0
100
AcDbLine
 62
7
  6
CONTINUOUS
 10
6.068944095
 20
6.812779682
 11
6.1013742086
 21
6.8315261046
  0
LINE
  5
692
100
AcDbEntity
  8
0
100
AcDbLine
 62
7
  6
CONTINUOUS
 10
6.416343505
 20
7.3083722781
 11
6.4517910705
 21
7.3288463253
  0
LINE
  5
693
100
AcDbEntity
  8
0
100
AcDbLine
 62
7
  6
CONTINUOUS
 10
6.416343505
 20
7.24931716
 11
6.4517910705
 21
7.2697912071
  0
LINE
  5
694
100
AcDbEntity
  8
0
100
AcDbLine
 62
7
  6
CONTINUOUS
 10
6.416343505
 20
7.1902620419
 11
6.4517910705
 21
7.210736089
  0
LINE
  5
695
100
AcDbEntity
  8
0
100
AcDbLine
 62
7
  6
CONTINUOUS
 10
6.416343505
 20
7.1312069238
 11
6.4517910705
 21
7.1516809709
  0
LINE
  5
696
100
AcDbEntity
  8
0
100
AcDbLine
 62
7
  6
CONTINUOUS
 10
6.416343505
 20
7.0721518057
 11
6.4517910705
 21
7.0926258528
  0
LINE
  5
697
100
AcDbEntity
  8
0
100
AcDbLine
 62
7
  6
CONTINUOUS
 10
6.416343505
 20
7.0130966876
 11
6.4517910705
 21
7.0335707347
  0
LWPOLYLINE
  5
698
100
AcDbEntity
  8
02___PRT_ALL_AXES
100
AcDbPolyline
 62
7
  6
CONTINUOUS
 90
10
 70
0
 10
6.4165837569
 20
7.2978916416
 10
6.4147884545
 20
7.2971323477
 10
6.4002991214
 20
7.2956007654
 10
6.3720019009
 20
7.2940849154
 10
6.3300826545
 20
7.2925540364
 10
6.2758067659
 20
7.2910217211
 10
6.2114567862
 20
7.2895071373
 10
6.1380163551
 20
7.2879901264
 10
6.0562795756
 20
7.286451113
 10
5.9691000348
 20
7.2849062586
  0
LWPOLYLINE
  5
699
100
AcDbEntity
  8
02___PRT_ALL_AXES
100
AcDbPolyline
 62
7
  6
CONTINUOUS
 90
10
 70
0
 10
6.4165837577
 20
7.1797809164
 10
6.4147664783
 20
7.1790174788
 10
6.4001736649
 20
7.1774816794
 10
6.3718806119
 20
7.1759694331
 10
6.3302417332
 20
7.1744488462
 10
6.2759377032
 20
7.1729148305
 10
6.2110389195
 20
7.1713877499
 10
6.1374687569
 20
7.1698691497
 10
6.0558795695
 20
7.1683336068
 10
5.9691000348
 20
7.1667960224
  0
LWPOLYLINE
  5
69A
100
AcDbEntity
  8
02___PRT_ALL_AXES
100
AcDbPolyline
 62
7
  6
CONTINUOUS
 90
10
 70
0
 10
6.4165837566
 20
7.2388354465
 10
6.4146845322
 20
7.2380555642
 10
6.400236511
 20
7.2365412265
 10
6.3718690358
 20
7.2350240508
 10
6.3296129336
 20
7.2334840435
 10
6.2746239706
 20
7.2319364416
 10
6.2091922334
 20
7.2304025112
 10
6.1355642231
 20
7.2288869667
 10
6.0550496033
 20
7.2273736473
 10
5.9691000348
 20
7.2258511405
  0
LWPOLYLINE
  5
69B
100
AcDbEntity
  8
02___PRT_ALL_AXES
100
AcDbPolyline
 62
7
  6
CONTINUOUS
 90
10
 70
0
 10
5.3142215529
 20
6.9247915304
 10
5.3161296464
 20
6.9255738264
 10
5.3309015771
 20
6.9271097007
 10
5.3594284166
 20
6.9286247331
 10
5.4011378514
 20
6.9301418012
 10
5.4547813302
 20
6.9316554157
 10
5.5191950009
 20
6.9331721863
 10
5.5926932663
 20
6.9346906836
 10
5.674471538
 20
6.9362305895
 10
5.7617052759
 20
6.937776429
  0
LWPOLYLINE
  5
69C
100
AcDbEntity
  8
02___PRT_ALL_AXES
100
AcDbPolyline
 62
7
  6
CONTINUOUS
 90
9
 70
0
 10
5.2787884821
 20
7.0043039422
 10
5.280588351
 20
7.0050404001
 10
5.294921101
 20
7.006513316
 10
5.323235331
 20
7.0079862318
 10
5.36483711
 20
7.0094591477
 10
5.4187068529
 20
7.0109320635
 10
5.4835243091
 20
7.0124049794
 10
5.5577009188
 20
7.0138778952
 10
5.6394187463
 20
7.0153508111
  0
LWPOLYLINE
  5
69D
100
AcDbEntity
  8
02___PRT_ALL_AXES
100
AcDbPolyline
 62
7
  6
CONTINUOUS
 90
9
 70
0
 10
5.2787884821
 20
6.9452488241
 10
5.280588351
 20
6.945985282
 10
5.294921101
 20
6.9474581979
 10
5.323235331
 20
6.9489311137
 10
5.36483711
 20
6.9504040296
 10
5.4187068529
 20
6.9518769454
 10
5.4835243091
 20
6.9533498613
 10
5.5577009188
 20
6.9548227771
 10
5.6394187463
 20
6.956295693
  0
LWPOLYLINE
  5
69E
100
AcDbEntity
  8
02___PRT_ALL_AXES
100
AcDbPolyline
 62
7
  6
CONTINUOUS
 90
10
 70
0
 10
6.4165837555
 20
7.4160005681
 10
6.414621508
 20
7.4152080669
 10
6.4000493404
 20
7.4136934148
 10
6.3716191003
 20
7.4121786174
 10
6.3293335841
 20
7.410640569
 10
6.2743581809
 20
7.409095033
 10
6.2089872264
 20
7.4075633939
 10
6.1353370297
 20
7.4060478769
 10
6.0545314052
 20
7.4045295923
 10
5.9691000348
 20
7.4030164948
  0
LWPOLYLINE
  5
69F
100
AcDbEntity
  8
02___PRT_ALL_AXES
100
AcDbPolyline
 62
7
  6
CONTINUOUS
 90
9
 70
0
 10
5.2790142401
 20
7.1891119529
 10
5.280588351
 20
7.1895876442
 10
5.294921101
 20
7.1910605601
 10
5.323235331
 20
7.1925334759
 10
5.36483711
 20
7.1940063918
 10
5.4187068529
 20
7.1954793076
 10
5.4835243091
 20
7.1969522235
 10
5.5577009188
 20
7.1984251393
 10
5.6394187463
 20
7.1998980552
  0
LWPOLYLINE
  5
6A0
100
AcDbEntity
  8
02___PRT_ALL_AXES
100
AcDbPolyline
 62
7
  6
CONTINUOUS
 90
9
 70
0
 10
5.2790142401
 20
7.0710017167
 10
5.280588351
 20
7.071477408
 10
5.294921101
 20
7.0729503239
 10
5.323235331
 20
7.0744232397
 10
5.36483711
 20
7.0758961556
 10
5.4187068529
 20
7.0773690714
 10
5.4835243091
 20
7.0788419872
 10
5.5577009188
 20
7.0803149031
 10
5.6394187463
 20
7.0817878189
  0
LWPOLYLINE
  5
6A1
100
AcDbEntity
  8
02___PRT_ALL_AXES
100
AcDbPolyline
 62
7
  6
CONTINUOUS
 90
6
 70
0
 10
5.2790142401
 20
7.0119465986
 10
5.280588351
 20
7.0124222899
 10
5.294921101
 20
7.0138952058
 10
5.323235331
 20
7.0153681216
 10
5.36483711
 20
7.0168410374
 10
5.4187068529
 20
7.0183139533
  0
LWPOLYLINE
  5
6A2
100
AcDbEntity
  8
02___PRT_ALL_AXES
100
AcDbPolyline
 62
7
  6
CONTINUOUS
 90
9
 70
0
 10
5.2790142401
 20
6.9528914805
 10
5.280588351
 20
6.9533671718
 10
5.294921101
 20
6.9548400876
 10
5.323235331
 20
6.9563130035
 10
5.36483711
 20
6.9577859193
 10
5.4187068529
 20
6.9592588352
 10
5.4835243091
 20
6.960731751
 10
5.5577009188
 20
6.9622046669
 10
5.6394187463
 20
6.9636775827
  0
LINE
  5
6A3
100
AcDbEntity
  8
0
100
AcDbLine
 62
7
  6
CONTINUOUS
 10
6.068944095
 20
6.7734096032
 11
6.1013742086
 21
6.7921560258
  0
LINE
  5
6A4
100
AcDbEntity
  8
0
100
AcDbLine
 62
7
  6
CONTINUOUS
 10
6.068944095
 20
6.7340395245
 11
6.1013742086
 21
6.7527859471
  0
LINE
  5
6A5
100
AcDbEntity
  8
0
100
AcDbLine
 62
7
  6
CONTINUOUS
 10
6.068944095
 20
6.6946694457
 11
6.1013742086
 21
6.7134158683
  0
LINE
  5
6A6
100
AcDbEntity
  8
0
100
AcDbLine
 62
7
  6
CONTINUOUS
 10
6.068944095
 20
6.655299367
 11
6.1013742086
 21
6.6740457896
  0
LINE
  5
6A7
100
AcDbEntity
  8
0
100
AcDbLine
 62
7
  6
CONTINUOUS
 10
6.068944095
 20
6.6159292883
 11
6.1013742086
 21
6.6346757109
  0
LINE
  5
6A8
100
AcDbEntity
  8
0
100
AcDbLine
 62
7
  6
CONTINUOUS
 10
6.068944095
 20
6.5765592095
 11
6.1013742086
 21
6.5953056321
  0
LINE
  5
6A9
100
AcDbEntity
  8
0
100
AcDbLine
 62
7
  6
CONTINUOUS
 10
6.416343505
 20
6.9540415695
 11
6.4517910705
 21
6.9745156166
  0
LWPOLYLINE
  5
6AA
100
AcDbEntity
  8
0
100
AcDbPolyline
 62
7
  6
CONTINUOUS
 90
9
 70
0
 10
5.6618612157
 20
6.6756510372
 10
5.6623485306
 20
6.6758645284
 10
5.6682146447
 20
6.6769216879
 10
5.6796803757
 20
6.6779788474
 10
5.6964201271
 20
6.679036007
 10
5.7179585343
 20
6.6800931665
 10
5.7436839638
 20
6.681150326
 10
5.7728658814
 20
6.6822074855
 10
5.8046755981
 20
6.6832646451
  0
LWPOLYLINE
  5
6AB
100
AcDbEntity
  8
02___PRT_ALL_AXES
100
AcDbPolyline
 62
7
  6
CONTINUOUS
 90
6
 70
0
 10
6.4165837575
 20
7.0616709106
 10
6.4148294431
 20
7.0609205921
 10
6.4005639044
 20
7.0593990817
 10
6.3723755434
 20
7.0578806473
 10
6.3302888395
 20
7.056340105
 10
6.2754328966
 20
7.0547917034
  0
LWPOLYLINE
  5
6AC
100
AcDbEntity
  8
02___PRT_ALL_AXES
100
AcDbPolyline
 62
7
  6
CONTINUOUS
 90
10
 70
0
 10
6.4165837576
 20
7.0026154817
 10
6.4147593256
 20
7.0018506227
 10
6.4002023137
 20
7.000318343
 10
6.3718517816
 20
6.9988028328
 10
6.329697007
 20
6.9972662308
 10
6.2748629601
 20
6.9957220548
 10
6.2096350244
 20
6.9941917027
 10
6.1360382429
 20
6.9926757703
 10
6.0548747753
 20
6.99115
 10
5.9691000348
 20
6.9896306681
  0
LWPOLYLINE
  5
6AD
100
AcDbEntity
  8
02___PRT_ALL_AXES
100
AcDbPolyline
 62
7
  6
CONTINUOUS
 90
10
 70
0
 10
6.4165837577
 20
7.1207257986
 10
6.4146746211
 20
7.119943293
 10
6.3999160445
 20
7.1184084926
 10
6.3713969967
 20
7.1168934645
 10
6.3294915444
 20
7.1153699692
 10
6.2756699188
 20
7.1138528717
 10
6.2114492531
 20
7.112341618
 10
6.1380102784
 20
7.1108246529
 10
6.0562754585
 20
7.1092856838
 10
5.9691000348
 20
7.1077409043
  0
LINE
  5
6AE
100
AcDbEntity
  8
0
100
AcDbLine
 62
7
  6
CONTINUOUS
 10
5.6291821829
 20
6.772758645
 11
5.6320227842
 21
6.7737313779
  0
LINE
  5
6AF
100
AcDbEntity
  8
0
100
AcDbLine
 62
7
  6
CONTINUOUS
 10
5.6291821829
 20
6.7333885816
 11
5.6320485161
 21
6.7343657039
  0
LINE
  5
6B0
100
AcDbEntity
  8
0
100
AcDbLine
 62
7
  6
CONTINUOUS
 10
5.6291821829
 20
6.8121287453
 11
5.6321710743
 21
6.8131265757
  0
LINE
  5
6B1
100
AcDbEntity
  8
0
100
AcDbLine
 62
7
  6
CONTINUOUS
 10
5.6291821829
 20
6.6940185424
 11
5.6321792666
 21
6.6950177089
  0
LINE
  5
6B2
100
AcDbEntity
  8
0
100
AcDbLine
 62
7
  6
CONTINUOUS
 10
6.1016231277
 20
6.8337822537
 11
6.0986287694
 21
6.8327835443
  0
LINE
  5
6B3
100
AcDbEntity
  8
0
100
AcDbLine
 62
7
  6
CONTINUOUS
 10
6.1016231277
 20
6.7550421507
 11
6.0987816497
 21
6.7540692695
  0
LINE
  5
6B4
100
AcDbEntity
  8
0
100
AcDbLine
 62
7
  6
CONTINUOUS
 10
6.1016231277
 20
6.7944122181
 11
6.0987584695
 21
6.7934353801
  0
LWPOLYLINE
  5
6B5
100
AcDbEntity
  8
0
100
AcDbPolyline
 62
7
  6
CONTINUOUS
 90
9
 70
0
 10
5.6618612157
 20
6.6362809584
 10
5.6632401526
 20
6.6367496261
 10
5.6704792878
 20
6.6378067856
 10
5.68325373
 20
6.6388639451
 10
5.7012007189
 20
6.6399211047
 10
5.7238106074
 20
6.6409782642
 10
5.7504413348
 20
6.6420354237
 10
5.7803366589
 20
6.6430925832
 10
5.8126476318
 20
6.6441497428
  0
LINE
  5
6B6
100
AcDbEntity
  8
0
100
AcDbLine
 62
7
  6
CONTINUOUS
 10
6.1016231277
 20
6.5975617895
 11
6.098705243
 21
6.5965759346
  0
LINE
  5
6B7
100
AcDbEntity
  8
0
100
AcDbLine
 62
7
  6
CONTINUOUS
 10
5.6291821829
 20
6.6546484303
 11
5.632117266
 21
6.6556372193
  0
LINE
  5
6B8
100
AcDbEntity
  8
0
100
AcDbLine
 62
7
  6
CONTINUOUS
 10
5.6291821829
 20
6.6152783517
 11
5.6321594949
 21
6.6162742432
  0
LINE
  5
6B9
100
AcDbEntity
  8
0
100
AcDbLine
 62
7
  6
CONTINUOUS
 10
6.1016231277
 20
6.6369318922
 11
6.0986402442
 21
6.6359350701
  0
LINE
  5
6BA
100
AcDbEntity
  8
0
100
AcDbLine
 62
7
  6
CONTINUOUS
 10
6.1016231277
 20
6.7156720524
 11
6.0986342298
 21
6.714674221
  0
LWPOLYLINE
  5
6BB
100
AcDbEntity
  8
0
100
AcDbPolyline
 62
7
  6
CONTINUOUS
 90
9
 70
0
 10
5.6354903156
 20
6.5816665329
 10
5.6360901166
 20
6.5818582386
 10
5.6421410111
 20
6.5825112997
 10
5.654255934
 20
6.5831638713
 10
5.6721294866
 20
6.5838159872
 10
5.6952998074
 20
6.5844676401
 10
5.7231620141
 20
6.5851188416
 10
5.754983528
 20
6.5857695936
 10
5.7899253147
 20
6.5864199238
  0
LINE
  5
6BC
100
AcDbEntity
  8
AXIS
100
AcDbLine
 62
7
  6
CONTINUOUS
 10
4.8811506868
 20
14.4696090603
 11
6.8496546238
 21
14.4696090603
  0
LINE
  5
6BD
100
AcDbEntity
  8
0
100
AcDbLine
 62
7
  6
CONTINUOUS
 10
4.8811506868
 20
14.4696090603
 11
6.8496546238
 21
14.4696090603
  0
LINE
  5
6BE
100
AcDbEntity
  8
0
100
AcDbLine
 62
9
  6
CONTINUOUS
 10
4.8858476832
 20
14.738699801
 11
6.8449576275
 21
14.738699801
  0
LINE
  5
6BF
100
AcDbEntity
  8
0
100
AcDbLine
 62
7
  6
CONTINUOUS
 10
4.9645758485
 20
14.8160657532
 11
6.7662294625
 21
14.8160657532
  0
LWPOLYLINE
  5
6C0
100
AcDbEntity
  8
0
100
AcDbPolyline
 62
7
  6
CONTINUOUS
 90
8
 70
0
 10
17.2150926324
 20
4.8909084882
 10
17.1874053215
 20
4.8837328345
 10
17.1584379463
 20
4.8789064617
 10
17.1293718574
 20
4.8765194792
 10
17.1017591703
 20
4.8764133292
 10
17.0757259434
 20
4.8782474314
 10
17.0510075842
 20
4.8818191547
 10
17.0423444327
 20
4.8837480844
  0
LWPOLYLINE
  5
6C1
100
AcDbEntity
  8
0
100
AcDbPolyline
 62
7
  6
CONTINUOUS
 90
3
 70
0
 10
16.9676005816
 20
4.9400374763
 10
16.8817543366
 20
4.957647561
 10
16.8026977991
 20
4.9831825149
  0
LWPOLYLINE
  5
6C2
100
AcDbEntity
  8
0
100
AcDbPolyline
 62
7
  6
CONTINUOUS
 90
11
 70
0
 10
16.9960739262
 20
4.8925378809
 10
17.0302853708
 20
4.8851573796
 10
17.0659741724
 20
4.8809865695
 10
17.102925072
 20
4.8800755185
 10
17.140341729
 20
4.8825746209
 10
17.1768143628
 20
4.8884717323
 10
17.2110144898
 20
4.8975046215
 10
17.2424704227
 20
4.9094814616
 10
17.2706583408
 20
4.9242342886
 10
17.2945622241
 20
4.9412387305
 10
17.30756127
 20
4.9540331418
  0
LINE
  5
6C3
100
AcDbEntity
  8
0
100
AcDbLine
 62
7
  6
CONTINUOUS
 10
17.0297228398
 20
4.8868578839
 11
16.9956417632
 21
4.8942621138
  0
LWPOLYLINE
  5
6C4
100
AcDbEntity
  8
02___PRT_ALL_AXES
100
AcDbPolyline
 62
7
  6
CONTINUOUS
 90
14
 70
0
 10
16.8803302891
 20
5.0078120199
 10
16.9677435824
 20
4.9927607958
 10
17.0584795484
 20
4.9857852223
 10
17.1503144112
 20
4.9870857328
 10
17.240997463
 20
4.9966599287
 10
17.3283062246
 20
5.0143026381
 10
17.4101009151
 20
5.0396109443
 10
17.484376893
 20
5.0719940608
 10
17.5493137875
 20
5.1106878099
 10
17.6033201117
 20
5.1547733517
 10
17.6450722673
 20
5.2031997032
 10
17.673546984
 20
5.2548094959
 10
17.6880463974
 20
5.3083673408
 10
17.6899316315
 20
5.3361132671
  0
LWPOLYLINE
  5
6C5
100
AcDbEntity
  8
02___PRT_ALL_AXES
100
AcDbPolyline
 62
7
  6
CONTINUOUS
 90
13
 70
0
 10
16.8803302891
 20
5.0138393507
 10
16.9677435824
 20
4.9987881266
 10
17.0584795484
 20
4.9918125531
 10
17.1503144112
 20
4.9931130637
 10
17.240997463
 20
5.0026872595
 10
17.3283062246
 20
5.0203299689
 10
17.4101009151
 20
5.0456382752
 10
17.484376893
 20
5.0780213916
 10
17.5493137875
 20
5.1167151407
 10
17.6033201117
 20
5.1608006825
 10
17.6450722673
 20
5.209227034
 10
17.673546984
 20
5.2608368267
 10
17.6880463974
 20
5.3143946716
  0
LWPOLYLINE
  5
6C6
100
AcDbEntity
  8
02___PRT_ALL_AXES
100
AcDbPolyline
 62
7
  6
CONTINUOUS
 90
11
 70
0
 10
16.8803302891
 20
5.0560306666
 10
16.9677435824
 20
5.0409794425
 10
17.0584795484
 20
5.034003869
 10
17.1503144112
 20
5.0353043795
 10
17.240997463
 20
5.0448785754
 10
17.3283062246
 20
5.0625212848
 10
17.4101009151
 20
5.087829591
 10
17.484376893
 20
5.1202127075
 10
17.5493137875
 20
5.1589064566
 10
17.6033201117
 20
5.2029919984
 10
17.6450722673
 20
5.2514183499
  0
LWPOLYLINE
  5
6C7
100
AcDbEntity
  8
02___PRT_ALL_AXES
100
AcDbPolyline
 62
7
  6
CONTINUOUS
 90
11
 70
0
 10
16.8803302891
 20
5.0620579974
 10
16.9677435824
 20
5.0470067733
 10
17.0584795484
 20
5.0400311998
 10
17.1503144112
 20
5.0413317103
 10
17.240997463
 20
5.0509059062
 10
17.3283062246
 20
5.0685486156
 10
17.4101009151
 20
5.0938569219
 10
17.484376893
 20
5.1262400383
 10
17.5493137875
 20
5.1649337874
 10
17.6033201117
 20
5.2090193292
 10
17.6450722673
 20
5.2574456807
  0
LWPOLYLINE
  5
6C8
100
AcDbEntity
  8
02___PRT_ALL_AXES
100
AcDbPolyline
 62
7
  6
CONTINUOUS
 90
12
 70
0
 10
16.8803302891
 20
5.1042493133
 10
16.9677435824
 20
5.0891980891
 10
17.0584795484
 20
5.0822225157
 10
17.1503144112
 20
5.0835230262
 10
17.240997463
 20
5.0930972221
 10
17.3283062246
 20
5.1107399314
 10
17.4101009151
 20
5.1360482377
 10
17.484376893
 20
5.1684313542
 10
17.5493137875
 20
5.2071251032
 10
17.6033201117
 20
5.251210645
 10
17.6450722673
 20
5.2996369965
 10
17.673546984
 20
5.3512467892
  0
LWPOLYLINE
  5
6C9
100
AcDbEntity
  8
02___PRT_ALL_AXES
100
AcDbPolyline
 62
7
  6
CONTINUOUS
 90
12
 70
0
 10
16.8803302891
 20
5.1102766441
 10
16.9677435824
 20
5.09522542
 10
17.0584795484
 20
5.0882498465
 10
17.1503144112
 20
5.089550357
 10
17.240997463
 20
5.0991245529
 10
17.3283062246
 20
5.1167672623
 10
17.4101009151
 20
5.1420755685
 10
17.484376893
 20
5.174458685
 10
17.5493137875
 20
5.2131524341
 10
17.6033201117
 20
5.2572379759
 10
17.6450722673
 20
5.3056643274
 10
17.673546984
 20
5.3572741201
  0
LWPOLYLINE
  5
6CA
100
AcDbEntity
  8
02___PRT_ALL_AXES
100
AcDbPolyline
 62
7
  6
CONTINUOUS
 90
11
 70
0
 10
16.8803302891
 20
5.15246796
 10
16.9677435824
 20
5.1374167358
 10
17.0584795484
 20
5.1304411623
 10
17.1503144112
 20
5.1317416729
 10
17.240997463
 20
5.1413158687
 10
17.3283062246
 20
5.1589585781
 10
17.4101009151
 20
5.1842668844
 10
17.484376893
 20
5.2166500008
 10
17.5493137875
 20
5.2553437499
 10
17.6033201117
 20
5.2994292917
 10
17.6450722673
 20
5.3478556432
  0
LWPOLYLINE
  5
6CB
100
AcDbEntity
  8
02___PRT_ALL_AXES
100
AcDbPolyline
 62
7
  6
CONTINUOUS
 90
12
 70
0
 10
16.8803302891
 20
5.1584952908
 10
16.9677435824
 20
5.1434440667
 10
17.0584795484
 20
5.1364684932
 10
17.1503144112
 20
5.1377690037
 10
17.240997463
 20
5.1473431996
 10
17.3283062246
 20
5.164985909
 10
17.4101009151
 20
5.1902942152
 10
17.484376893
 20
5.2226773317
 10
17.5493137875
 20
5.2613710808
 10
17.6033201117
 20
5.3054566226
 10
17.6450722673
 20
5.3538829741
 10
17.673546984
 20
5.4054927667
  0
LWPOLYLINE
  5
6CC
100
AcDbEntity
  8
02___PRT_ALL_AXES
100
AcDbPolyline
 62
7
  6
CONTINUOUS
 90
11
 70
0
 10
16.8803302891
 20
5.2006866066
 10
16.9677435824
 20
5.1856353825
 10
17.0584795484
 20
5.178659809
 10
17.1503144112
 20
5.1799603195
 10
17.240997463
 20
5.1895345154
 10
17.3283062246
 20
5.2071772248
 10
17.4101009151
 20
5.2324855311
 10
17.484376893
 20
5.2648686475
 10
17.5493137875
 20
5.3035623966
 10
17.6033201117
 20
5.3476479384
 10
17.6450722673
 20
5.3960742899
  0
LWPOLYLINE
  5
6CD
100
AcDbEntity
  8
02___PRT_ALL_AXES
100
AcDbPolyline
 62
7
  6
CONTINUOUS
 90
12
 70
0
 10
16.8803302891
 20
5.2067139375
 10
16.9677435824
 20
5.1916627133
 10
17.0584795484
 20
5.1846871399
 10
17.1503144112
 20
5.1859876504
 10
17.240997463
 20
5.1955618463
 10
17.3283062246
 20
5.2132045556
 10
17.4101009151
 20
5.2385128619
 10
17.484376893
 20
5.2708959784
 10
17.5493137875
 20
5.3095897274
 10
17.6033201117
 20
5.3536752692
 10
17.6450722673
 20
5.4021016207
 10
17.673546984
 20
5.4537114134
  0
LWPOLYLINE
  5
6CE
100
AcDbEntity
  8
02___PRT_ALL_AXES
100
AcDbPolyline
 62
7
  6
CONTINUOUS
 90
11
 70
0
 10
16.8803302891
 20
5.2489052533
 10
16.9677435824
 20
5.2338540292
 10
17.0584795484
 20
5.2268784557
 10
17.1503144112
 20
5.2281789662
 10
17.240997463
 20
5.2377531621
 10
17.3283062246
 20
5.2553958715
 10
17.4101009151
 20
5.2807041778
 10
17.484376893
 20
5.3130872942
 10
17.5493137875
 20
5.3517810433
 10
17.6033201117
 20
5.3958665851
 10
17.6450722673
 20
5.4442929366
  0
LINE
  5
6CF
100
AcDbEntity
  8
02___PRT_ALL_AXES
100
AcDbLine
 62
7
  6
CONTINUOUS
 10
16.9573452364
 20
5.1343121738
 11
16.872658646
 21
5.1508975927
  0
LINE
  5
6D0
100
AcDbEntity
  8
02___PRT_ALL_AXES
100
AcDbLine
 62
7
  6
CONTINUOUS
 10
16.9567447066
 20
5.1826175803
 11
16.8722754962
 21
5.199212393
  0
LINE
  5
6D1
100
AcDbEntity
  8
02___PRT_ALL_AXES
100
AcDbLine
 62
7
  6
CONTINUOUS
 10
16.9558454853
 20
5.0863109828
 11
16.8721088842
 21
5.1028169753
  0
LWPOLYLINE
  5
6D2
100
AcDbEntity
  8
02___PRT_ALL_AXES
100
AcDbPolyline
 62
7
  6
CONTINUOUS
 90
3
 70
0
 10
16.9551610612
 20
5.038192443
 10
16.8713041269
 20
5.0548011355
 10
16.7938602947
 20
5.0788827196
  0
LINE
  5
6D3
100
AcDbEntity
  8
02___PRT_ALL_AXES
100
AcDbLine
 62
7
  6
CONTINUOUS
 10
16.872658646
 20
5.1508975927
 11
16.7938602947
 21
5.175320013
  0
LINE
  5
6D4
100
AcDbEntity
  8
02___PRT_ALL_AXES
100
AcDbLine
 62
7
  6
CONTINUOUS
 10
16.8721088842
 20
5.1028169753
 11
16.7938602947
 21
5.1271013663
  0
LWPOLYLINE
  5
6D5
100
AcDbEntity
  8
02___PRT_ALL_AXES
100
AcDbPolyline
 62
7
  6
CONTINUOUS
 90
5
 70
0
 10
16.8803302891
 20
5.0078120199
 10
16.8593658577
 20
5.0144732172
 10
16.8374045051
 20
5.0221196232
 10
16.8153267614
 20
5.0305340481
 10
16.7938602947
 20
5.0394485304
  0
LWPOLYLINE
  5
6D6
100
AcDbEntity
  8
02___PRT_ALL_AXES
100
AcDbPolyline
 62
7
  6
CONTINUOUS
 90
3
 70
0
 10
16.8803302891
 20
5.0560306666
 10
16.8513559726
 20
5.0653994629
 10
16.8225196262
 20
5.0759289403
  0
LWPOLYLINE
  5
6D7
100
AcDbEntity
  8
02___PRT_ALL_AXES
100
AcDbPolyline
 62
7
  6
CONTINUOUS
 90
4
 70
0
 10
16.5607394495
 20
5.1922813007
 10
16.589709061
 20
5.1829141218
 10
16.6185450003
 20
5.1723850052
 10
16.6472094438
 20
5.1606447902
  0
LWPOLYLINE
  5
6D8
100
AcDbEntity
  8
02___PRT_ALL_AXES
100
AcDbPolyline
 62
7
  6
CONTINUOUS
 90
3
 70
0
 10
16.8803302891
 20
5.1042493133
 10
16.8513559726
 20
5.1136181096
 10
16.8225196262
 20
5.124147587
  0
LWPOLYLINE
  5
6D9
100
AcDbEntity
  8
02___PRT_ALL_AXES
100
AcDbPolyline
 62
7
  6
CONTINUOUS
 90
4
 70
0
 10
16.5607394495
 20
5.2404999474
 10
16.589709061
 20
5.2311327685
 10
16.6185450003
 20
5.2206036519
 10
16.6472094438
 20
5.2088634368
  0
LWPOLYLINE
  5
6DA
100
AcDbEntity
  8
02___PRT_ALL_AXES
100
AcDbPolyline
 62
7
  6
CONTINUOUS
 90
3
 70
0
 10
16.8803302891
 20
5.15246796
 10
16.8513559726
 20
5.1618367563
 10
16.8225196262
 20
5.1723662337
  0
LINE
  5
6DB
100
AcDbEntity
  8
0
100
AcDbLine
 62
7
  6
CONTINUOUS
 10
16.9956417632
 20
4.8942621138
 11
16.9642830831
 21
4.9045964991
  0
LWPOLYLINE
  5
6DC
100
AcDbEntity
  8
0
100
AcDbPolyline
 62
9
  6
CONTINUOUS
 90
14
 70
0
 10
16.7938602947
 20
5.0014580761
 10
16.8672649011
 20
4.9772296268
 10
16.9461769212
 20
4.9597765079
 10
17.0287900223
 20
4.9494922779
 10
17.1131728129
 20
4.9466207487
 10
17.1973239333
 20
4.9512323632
 10
17.2792604623
 20
4.9632179658
 10
17.3570570221
 20
4.9822950487
 10
17.4288882573
 20
5.0080159194
 10
17.4930634958
 20
5.0397755951
 10
17.5480729518
 20
5.0768270083
 10
17.5926226187
 20
5.1182984432
 10
17.6256647869
 20
5.1632139833
 10
17.6412830997
 20
5.1988048267
  0
LWPOLYLINE
  5
6DD
100
AcDbEntity
  8
0
100
AcDbPolyline
 62
7
  6
CONTINUOUS
 90
4
 70
0
 10
16.9960739262
 20
4.8925378809
 10
16.967827501
 20
4.9020982052
 10
16.942928996
 20
4.9138254482
 10
16.9395780611
 20
4.9157159617
  0
LINE
  5
6DE
100
AcDbEntity
  8
02___PRT_ALL_AXES
100
AcDbLine
 62
7
  6
CONTINUOUS
 10
16.8225196262
 20
5.0759289403
 11
16.7938602947
 21
5.0876671771
  0
LINE
  5
6DF
100
AcDbEntity
  8
0
100
AcDbLine
 62
7
  6
CONTINUOUS
 10
16.9642830831
 20
4.9045964991
 11
16.9362850558
 21
4.9176172945
  0
LWPOLYLINE
  5
6E0
100
AcDbEntity
  8
0
100
AcDbPolyline
 62
7
  6
CONTINUOUS
 90
10
 70
0
 10
16.9428037517
 20
4.9451241784
 10
16.9642830831
 20
4.9351349753
 10
16.9956417632
 20
4.92480059
 10
17.0297228398
 20
4.9173963601
 10
17.065566966
 20
4.9131612505
 10
17.1025306937
 20
4.9122133096
 10
17.1399780697
 20
4.9146792597
 10
17.1764936146
 20
4.9205497092
 10
17.2107442273
 20
4.9295640089
 10
17.2381716804
 20
4.9399720469
  0
LINE
  5
6E1
100
AcDbEntity
  8
0
100
AcDbLine
 62
7
  6
CONTINUOUS
 10
16.8012368233
 20
4.983883879
 11
16.8026965878
 21
4.9831832034
  0
LWPOLYLINE
  5
6E2
100
AcDbEntity
  8
0
100
AcDbPolyline
 62
7
  6
CONTINUOUS
 90
4
 70
0
 10
16.9362850558
 20
4.9176172945
 10
16.9545246745
 20
4.9081285833
 10
16.9745216944
 20
4.8997278231
 10
16.9960739262
 20
4.8925378809
  0
LWPOLYLINE
  5
6E3
100
AcDbEntity
  8
02___PRT_ALL_AXES
100
AcDbPolyline
 62
7
  6
CONTINUOUS
 90
7
 70
0
 10
17.2551467375
 20
5.2882431228
 10
17.340506321
 20
5.3068072539
 10
17.42021916
 20
5.3327457712
 10
17.4923875347
 20
5.3654693754
 10
17.5552933357
 20
5.4042272349
 10
17.6074389677
 20
5.4481248608
 10
17.6475830019
 20
5.4961454021
  0
LWPOLYLINE
  5
6E4
100
AcDbEntity
  8
02___PRT_ALL_AXES
100
AcDbPolyline
 62
7
  6
CONTINUOUS
 90
8
 70
0
 10
17.2551467375
 20
5.2942704537
 10
17.340506321
 20
5.3128345848
 10
17.42021916
 20
5.3387731021
 10
17.4923875347
 20
5.3714967063
 10
17.5552933357
 20
5.4102545657
 10
17.6074389677
 20
5.4541521916
 10
17.6475830019
 20
5.502172733
 10
17.6556333741
 20
5.517282974
  0
LINE
  5
6E5
100
AcDbEntity
  8
02___PRT_ALL_AXES
100
AcDbLine
 62
7
  6
CONTINUOUS
 10
17.240997463
 20
5.3341904555
 11
17.3283062246
 21
5.3518331649
  0
LWPOLYLINE
  5
6E6
100
AcDbEntity
  8
02___PRT_ALL_AXES
100
AcDbPolyline
 62
7
  6
CONTINUOUS
 90
5
 70
0
 10
17.3079851064
 20
5.2953340123
 10
17.2222875984
 20
5.2788334364
 10
17.1333567593
 20
5.2705539883
 10
17.0446630884
 20
5.2706513239
 10
16.9573519785
 20
5.2789671422
  0
LWPOLYLINE
  5
6E7
100
AcDbEntity
  8
02___PRT_ALL_AXES
100
AcDbPolyline
 62
7
  6
CONTINUOUS
 90
5
 70
0
 10
17.2459758415
 20
5.330733806
 10
17.169177652
 20
5.321080309
 10
17.0906754511
 20
5.3177889176
 10
17.0129133248
 20
5.3209263964
 10
16.9365369631
 20
5.3304397675
  0
LINE
  5
6E8
100
AcDbEntity
  8
02___PRT_ALL_AXES
100
AcDbLine
 62
7
  6
CONTINUOUS
 10
17.1612213186
 20
5.283133525
 11
17.2551467375
 21
5.2942704537
  0
LWPOLYLINE
  5
6E9
100
AcDbEntity
  8
02___PRT_ALL_AXES
100
AcDbPolyline
 62
7
  6
CONTINUOUS
 90
5
 70
0
 10
16.8803302891
 20
5.2971239
 10
16.97129767
 20
5.2816397484
 10
17.0657620961
 20
5.2748966
 10
17.1612213186
 20
5.2771061942
 10
17.2551467375
 20
5.2882431228
  0
LWPOLYLINE
  5
6EA
100
AcDbEntity
  8
02___PRT_ALL_AXES
100
AcDbPolyline
 62
7
  6
CONTINUOUS
 90
4
 70
0
 10
16.8803302891
 20
5.3031512308
 10
16.97129767
 20
5.2876670792
 10
17.0657620961
 20
5.2809239309
 10
17.1612213186
 20
5.283133525
  0
LWPOLYLINE
  5
6EB
100
AcDbEntity
  8
02___PRT_ALL_AXES
100
AcDbPolyline
 62
7
  6
CONTINUOUS
 90
12
 70
0
 10
16.8803302891
 20
5.2549325842
 10
16.9677435824
 20
5.23988136
 10
17.0584795484
 20
5.2329057865
 10
17.1503144112
 20
5.2342062971
 10
17.240997463
 20
5.2437804929
 10
17.3283062246
 20
5.2614232023
 10
17.4101009151
 20
5.2867315086
 10
17.484376893
 20
5.319114625
 10
17.5493137875
 20
5.3578083741
 10
17.6033201117
 20
5.4018939159
 10
17.6450722673
 20
5.4503202674
 10
17.673546984
 20
5.5019300601
  0
LWPOLYLINE
  5
6EC
100
AcDbEntity
  8
02___PRT_ALL_AXES
100
AcDbPolyline
 62
7
  6
CONTINUOUS
 90
5
 70
0
 10
16.8803302891
 20
5.3453425467
 10
16.9677435824
 20
5.3302913225
 10
17.0584795484
 20
5.3233157491
 10
17.1503144112
 20
5.3246162596
 10
17.240997463
 20
5.3341904555
  0
LWPOLYLINE
  5
6ED
100
AcDbEntity
  8
02___PRT_ALL_AXES
100
AcDbPolyline
 62
7
  6
CONTINUOUS
 90
6
 70
0
 10
16.8803302891
 20
5.3513698775
 10
16.9677435824
 20
5.3363186534
 10
17.0584795484
 20
5.3293430799
 10
17.1503144112
 20
5.3306435904
 10
17.240997463
 20
5.3402177863
 10
17.3283062246
 20
5.3578604957
  0
LWPOLYLINE
  5
6EE
100
AcDbEntity
  8
02___PRT_ALL_AXES
100
AcDbPolyline
 62
7
  6
CONTINUOUS
 90
8
 70
0
 10
16.8803302891
 20
5.3935611934
 10
16.9677435824
 20
5.3785099692
 10
17.0584795484
 20
5.3715343957
 10
17.1503144112
 20
5.3728349063
 10
17.240997463
 20
5.3824091021
 10
17.3283062246
 20
5.4000518115
 10
17.4101009151
 20
5.4253601178
 10
17.4312361246
 20
5.4345747249
  0
LWPOLYLINE
  5
6EF
100
AcDbEntity
  8
02___PRT_ALL_AXES
100
AcDbPolyline
 62
7
  6
CONTINUOUS
 90
7
 70
0
 10
16.8803302891
 20
5.3995885242
 10
16.9677435824
 20
5.3845373001
 10
17.0584795484
 20
5.3775617266
 10
17.1503144112
 20
5.3788622371
 10
17.240997463
 20
5.388436433
 10
17.3283062246
 20
5.4060791424
 10
17.3919385857
 20
5.4257677954
  0
LINE
  5
6F0
100
AcDbEntity
  8
02___PRT_ALL_AXES
100
AcDbLine
 62
7
  6
CONTINUOUS
 10
16.9573519785
 20
5.2789671422
 11
16.8726626318
 21
5.2955525336
  0
LWPOLYLINE
  5
6F1
100
AcDbEntity
  8
02___PRT_ALL_AXES
100
AcDbPolyline
 62
7
  6
CONTINUOUS
 90
3
 70
0
 10
16.9546371761
 20
5.231144024
 10
16.8714730267
 20
5.2476330833
 10
16.7938602947
 20
5.2717573064
  0
LWPOLYLINE
  5
6F2
100
AcDbEntity
  8
02___PRT_ALL_AXES
100
AcDbPolyline
 62
7
  6
CONTINUOUS
 90
3
 70
0
 10
16.9543862372
 20
5.3758369574
 10
16.8709725379
 20
5.3924154876
 10
16.7938602947
 20
5.4164132464
  0
LWPOLYLINE
  5
6F3
100
AcDbEntity
  8
02___PRT_ALL_AXES
100
AcDbPolyline
 62
7
  6
CONTINUOUS
 90
3
 70
0
 10
16.9365369631
 20
5.3304397675
 10
16.8627711242
 20
5.3463191602
 10
16.7938602947
 20
5.3681945997
  0
LWPOLYLINE
  5
6F4
100
AcDbEntity
  8
02___PRT_ALL_AXES
100
AcDbPolyline
 62
7
  6
CONTINUOUS
 90
3
 70
0
 10
16.8416802149
 20
5.4187278554
 10
16.7233571196
 20
5.4476846257
 10
16.6119181127
 20
5.4875780283
  0
LINE
  5
6F5
100
AcDbEntity
  8
02___PRT_ALL_AXES
100
AcDbLine
 62
7
  6
CONTINUOUS
 10
16.8726626318
 20
5.2955525336
 11
16.7938602947
 21
5.319975953
  0
LINE
  5
6F6
100
AcDbEntity
  8
02___PRT_ALL_AXES
100
AcDbLine
 62
7
  6
CONTINUOUS
 10
16.8722754962
 20
5.199212393
 11
16.7938602947
 21
5.2235386597
  0
LWPOLYLINE
  5
6F7
100
AcDbEntity
  8
02___PRT_ALL_AXES
100
AcDbPolyline
 62
7
  6
CONTINUOUS
 90
4
 70
0
 10
16.8803302891
 20
5.2006866066
 10
16.8595932145
 20
5.2072722862
 10
16.8378990294
 20
5.2148142245
 10
16.8158097498
 20
5.2232164938
  0
LWPOLYLINE
  5
6F8
100
AcDbEntity
  8
02___PRT_ALL_AXES
100
AcDbPolyline
 62
7
  6
CONTINUOUS
 90
5
 70
0
 10
16.5607394495
 20
5.4333745341
 10
16.5814270068
 20
5.4268052923
 10
16.6031086683
 20
5.4192694705
 10
16.6252138243
 20
5.4108629927
 10
16.6472094438
 20
5.4017380236
  0
LWPOLYLINE
  5
6F9
100
AcDbEntity
  8
02___PRT_ALL_AXES
100
AcDbPolyline
 62
7
  6
CONTINUOUS
 90
4
 70
0
 10
16.5607394495
 20
5.288718594
 10
16.5897149908
 20
5.2793493766
 10
16.6185503307
 20
5.2688202358
 10
16.6472094438
 20
5.2570820835
  0
LWPOLYLINE
  5
6FA
100
AcDbEntity
  8
02___PRT_ALL_AXES
100
AcDbPolyline
 62
7
  6
CONTINUOUS
 90
4
 70
0
 10
16.5607394495
 20
5.3369372407
 10
16.589709061
 20
5.3275700619
 10
16.6185450003
 20
5.3170409453
 10
16.6472094438
 20
5.3053007302
  0
LWPOLYLINE
  5
6FB
100
AcDbEntity
  8
02___PRT_ALL_AXES
100
AcDbPolyline
 62
7
  6
CONTINUOUS
 90
3
 70
0
 10
16.8803302891
 20
5.2489052533
 10
16.8513559726
 20
5.2582740496
 10
16.8225196262
 20
5.268803527
  0
LWPOLYLINE
  5
6FC
100
AcDbEntity
  8
02___PRT_ALL_AXES
100
AcDbPolyline
 62
7
  6
CONTINUOUS
 90
4
 70
0
 10
16.5607394495
 20
5.3851558874
 10
16.589709061
 20
5.3757887086
 10
16.6185450003
 20
5.3652595919
 10
16.6472094438
 20
5.3535193769
  0
LWPOLYLINE
  5
6FD
100
AcDbEntity
  8
02___PRT_ALL_AXES
100
AcDbPolyline
 62
7
  6
CONTINUOUS
 90
3
 70
0
 10
16.8803302891
 20
5.2971239
 10
16.8513559726
 20
5.3064926963
 10
16.8225196262
 20
5.3170221737
  0
LWPOLYLINE
  5
6FE
100
AcDbEntity
  8
02___PRT_ALL_AXES
100
AcDbPolyline
 62
7
  6
CONTINUOUS
 90
3
 70
0
 10
16.8803302891
 20
5.3453425467
 10
16.8513484757
 20
5.3547139204
 10
16.8225128554
 20
5.3652434406
  0
LWPOLYLINE
  5
6FF
100
AcDbEntity
  8
02___PRT_ALL_AXES
100
AcDbPolyline
 62
7
  6
CONTINUOUS
 90
4
 70
0
 10
16.5607394495
 20
5.4815931808
 10
16.589709061
 20
5.4722260019
 10
16.6185450003
 20
5.4616968853
 10
16.6472094438
 20
5.4499566702
  0
LWPOLYLINE
  5
700
100
AcDbEntity
  8
02___PRT_ALL_AXES
100
AcDbPolyline
 62
7
  6
CONTINUOUS
 90
3
 70
0
 10
16.8803302891
 20
5.3935611934
 10
16.8513559726
 20
5.4029299897
 10
16.8225196262
 20
5.4134594671
  0
LINE
  5
701
100
AcDbEntity
  8
02___PRT_ALL_AXES
100
AcDbLine
 62
7
  6
CONTINUOUS
 10
16.8225196262
 20
5.124147587
 11
16.7938602947
 21
5.1358858238
  0
LINE
  5
702
100
AcDbEntity
  8
02___PRT_ALL_AXES
100
AcDbLine
 62
7
  6
CONTINUOUS
 10
16.8225196262
 20
5.1723662337
 11
16.7938602947
 21
5.1841044705
  0
LINE
  5
703
100
AcDbEntity
  8
02___PRT_ALL_AXES
100
AcDbLine
 62
7
  6
CONTINUOUS
 10
16.8225196262
 20
5.268803527
 11
16.7938602947
 21
5.2805417638
  0
LINE
  5
704
100
AcDbEntity
  8
02___PRT_ALL_AXES
100
AcDbLine
 62
7
  6
CONTINUOUS
 10
16.8225196262
 20
5.3170221737
 11
16.7938602947
 21
5.3287604105
  0
LINE
  5
705
100
AcDbEntity
  8
02___PRT_ALL_AXES
100
AcDbLine
 62
7
  6
CONTINUOUS
 10
16.8225128554
 20
5.3652434406
 11
16.7938602947
 21
5.3769790572
  0
LINE
  5
706
100
AcDbEntity
  8
02___PRT_ALL_AXES
100
AcDbLine
 62
7
  6
CONTINUOUS
 10
16.8158097498
 20
5.2232164938
 11
16.7938602947
 21
5.2323231172
  0
LINE
  5
707
100
AcDbEntity
  8
0
100
AcDbLine
 62
7
  6
CONTINUOUS
 10
16.8012124032
 20
4.9838979776
 11
16.6561653921
 21
5.067639014
  0
LINE
  5
708
100
AcDbEntity
  8
0
100
AcDbLine
 62
7
  6
CONTINUOUS
 10
16.9362808707
 20
4.9176196486
 11
16.9362845999
 21
4.9176174955
  0
LINE
  5
709
100
AcDbEntity
  8
0
100
AcDbLine
 62
9
  6
CONTINUOUS
 10
16.7938602947
 20
5.0014580761
 11
16.6472094438
 21
5.0861250689
  0
LINE
  5
70A
100
AcDbEntity
  8
0
100
AcDbLine
 62
7
  6
CONTINUOUS
 10
16.6538009364
 20
5.0693063957
 11
16.6561431564
 21
5.0676518516
  0
LWPOLYLINE
  5
70B
100
AcDbEntity
  8
02___PRT_ALL_AXES
100
AcDbPolyline
 62
7
  6
CONTINUOUS
 90
4
 70
0
 10
16.6472094438
 20
5.121210601
 10
16.6185506752
 20
5.1414726474
 10
16.5897120675
 20
5.1631834187
 10
16.5607394495
 20
5.1862539698
  0
LINE
  5
70C
100
AcDbEntity
  8
02___PRT_ALL_AXES
100
AcDbLine
 62
7
  6
CONTINUOUS
 10
16.8225196262
 20
5.4134594671
 11
16.7938602947
 21
5.4251977039
  0
LINE
  5
70D
100
AcDbEntity
  8
02___PRT_ALL_AXES
100
AcDbLine
 62
7
  6
CONTINUOUS
 10
16.6119181127
 20
5.4875780283
 11
16.5095620625
 21
5.5382707945
  0
LINE
  5
70E
100
AcDbEntity
  8
02___PRT_ALL_AXES
100
AcDbLine
 62
9
  6
CONTINUOUS
 10
16.5772986078
 20
5.5605040072
 11
16.476945949
 21
5.6103631013
  0
LWPOLYLINE
  5
70F
100
AcDbEntity
  8
02___PRT_ALL_AXES
100
AcDbPolyline
 62
7
  6
CONTINUOUS
 90
7
 70
0
 10
16.5095620625
 20
5.5382707945
 10
16.4202993339
 20
5.5982255499
 10
16.3460172518
 20
5.6661349089
 10
16.2886840621
 20
5.7394839448
 10
16.2487014198
 20
5.8157527231
 10
16.2252281599
 20
5.893521257
 10
16.2174906866
 20
5.9719967021
  0
LWPOLYLINE
  5
710
100
AcDbEntity
  8
02___PRT_ALL_AXES
100
AcDbPolyline
 62
7
  6
CONTINUOUS
 90
5
 70
0
 10
16.6472094438
 20
5.3623038344
 10
16.625282096
 20
5.3776865672
 10
16.6032018415
 20
5.3939605204
 10
16.5815006708
 20
5.4106907691
 10
16.5607394495
 20
5.4273472032
  0
LWPOLYLINE
  5
711
100
AcDbEntity
  8
02___PRT_ALL_AXES
100
AcDbPolyline
 62
7
  6
CONTINUOUS
 90
5
 70
0
 10
16.7938602947
 20
5.2717573064
 10
16.8158307906
 20
5.2563435294
 10
16.8379301841
 20
5.2400536287
 10
16.8596220949
 20
5.2233286253
 10
16.8803302891
 20
5.2067139375
  0
LWPOLYLINE
  5
712
100
AcDbEntity
  8
02___PRT_ALL_AXES
100
AcDbPolyline
 62
7
  6
CONTINUOUS
 90
4
 70
0
 10
16.6472094438
 20
5.1694292476
 10
16.6185506752
 20
5.1896912941
 10
16.5897120675
 20
5.2114020654
 10
16.5607394495
 20
5.2344726165
  0
LWPOLYLINE
  5
713
100
AcDbEntity
  8
02___PRT_ALL_AXES
100
AcDbPolyline
 62
7
  6
CONTINUOUS
 90
4
 70
0
 10
16.6472094438
 20
5.2176478943
 10
16.6185577642
 20
5.237904764
 10
16.5897198521
 20
5.2596146792
 10
16.5607394495
 20
5.2826912632
  0
LWPOLYLINE
  5
714
100
AcDbEntity
  8
02___PRT_ALL_AXES
100
AcDbPolyline
 62
7
  6
CONTINUOUS
 90
4
 70
0
 10
16.7938602947
 20
5.1271013663
 10
16.8225244113
 20
5.1068354145
 10
16.8513625633
 20
5.0851247571
 10
16.8803302891
 20
5.0620579974
  0
LWPOLYLINE
  5
715
100
AcDbEntity
  8
02___PRT_ALL_AXES
100
AcDbPolyline
 62
7
  6
CONTINUOUS
 90
4
 70
0
 10
16.6472094438
 20
5.265866541
 10
16.6185506752
 20
5.2861285874
 10
16.5897120675
 20
5.3078393588
 10
16.5607394495
 20
5.3309099099
  0
LWPOLYLINE
  5
716
100
AcDbEntity
  8
02___PRT_ALL_AXES
100
AcDbPolyline
 62
7
  6
CONTINUOUS
 90
4
 70
0
 10
16.7938602947
 20
5.175320013
 10
16.8225244113
 20
5.1550540612
 10
16.8513625633
 20
5.1333434038
 10
16.8803302891
 20
5.1102766441
  0
LWPOLYLINE
  5
717
100
AcDbEntity
  8
02___PRT_ALL_AXES
100
AcDbPolyline
 62
7
  6
CONTINUOUS
 90
4
 70
0
 10
16.6472094438
 20
5.3140851877
 10
16.6185506752
 20
5.3343472341
 10
16.5897120675
 20
5.3560580054
 10
16.5607394495
 20
5.3791285566
  0
LWPOLYLINE
  5
718
100
AcDbEntity
  8
02___PRT_ALL_AXES
100
AcDbPolyline
 62
7
  6
CONTINUOUS
 90
4
 70
0
 10
16.7938602947
 20
5.2235386597
 10
16.8225244113
 20
5.2032727079
 10
16.8513625633
 20
5.1815620505
 10
16.8803302891
 20
5.1584952908
  0
LWPOLYLINE
  5
719
100
AcDbEntity
  8
02___PRT_ALL_AXES
100
AcDbPolyline
 62
7
  6
CONTINUOUS
 90
4
 70
0
 10
16.6472094438
 20
5.410522481
 10
16.6185506752
 20
5.4307845275
 10
16.5897120675
 20
5.4524952988
 10
16.5607394495
 20
5.4755658499
  0
LWPOLYLINE
  5
71A
100
AcDbEntity
  8
02___PRT_ALL_AXES
100
AcDbPolyline
 62
7
  6
CONTINUOUS
 90
4
 70
0
 10
16.7938602947
 20
5.319975953
 10
16.8225244113
 20
5.2997100012
 10
16.8513625633
 20
5.2779993439
 10
16.8803302891
 20
5.2549325842
  0
LWPOLYLINE
  5
71B
100
AcDbEntity
  8
02___PRT_ALL_AXES
100
AcDbPolyline
 62
7
  6
CONTINUOUS
 90
3
 70
0
 10
16.6472094438
 20
5.4587411277
 10
16.6185506752
 20
5.4790031741
 10
16.5980131327
 20
5.4944645963
  0
LWPOLYLINE
  5
71C
100
AcDbEntity
  8
02___PRT_ALL_AXES
100
AcDbPolyline
 62
7
  6
CONTINUOUS
 90
4
 70
0
 10
16.7938602947
 20
5.3681945997
 10
16.8225244113
 20
5.3479286479
 10
16.8513625633
 20
5.3262179905
 10
16.8803302891
 20
5.3031512308
  0
LWPOLYLINE
  5
71D
100
AcDbEntity
  8
02___PRT_ALL_AXES
100
AcDbPolyline
 62
7
  6
CONTINUOUS
 90
4
 70
0
 10
16.7938602947
 20
5.0788827196
 10
16.8227148578
 20
5.058477664
 10
16.8520907618
 20
5.0363413629
 10
16.8803302891
 20
5.0138393507
  0
LINE
  5
71E
100
AcDbEntity
  8
0
100
AcDbLine
 62
7
  6
CONTINUOUS
 10
16.6530555046
 20
5.0699851949
 11
16.6538009364
 21
5.0693063957
  0
LWPOLYLINE
  5
71F
100
AcDbEntity
  8
02___PRT_ALL_AXES
100
AcDbPolyline
 62
7
  6
CONTINUOUS
 90
3
 70
0
 10
16.7570072864
 20
5.8580579511
 10
16.633802718
 20
5.8911620007
 10
16.519264472
 20
5.9340620612
  0
LINE
  5
720
100
AcDbEntity
  8
02___PRT_ALL_AXES
100
AcDbLine
 62
9
  6
CONTINUOUS
 10
16.6894016585
 20
5.873440389
 11
16.6598221024
 21
5.8841708071
  0
LINE
  5
721
100
AcDbEntity
  8
02___PRT_ALL_AXES
100
AcDbLine
 62
7
  6
CONTINUOUS
 10
16.519264472
 20
5.9340620612
 11
16.415503143
 21
5.9861263335
  0
LWPOLYLINE
  5
722
100
AcDbEntity
  8
02___PRT_ALL_AXES
100
AcDbPolyline
 62
7
  6
CONTINUOUS
 90
4
 70
0
 10
16.7938602947
 20
5.4164132464
 10
16.8225191569
 20
5.3961511317
 10
16.851356752
 20
5.3744411409
 10
16.8803302891
 20
5.3513698775
  0
LINE
  5
723
100
AcDbEntity
  8
02___PRT_ALL_AXES
100
AcDbLine
 62
7
  6
CONTINUOUS
 10
16.8595623211
 20
5.4161258848
 11
16.8803302891
 21
5.3995885242
  0
LINE
  5
724
100
AcDbEntity
  8
02___PRT_ALL_AXES
100
AcDbLine
 62
7
  6
CONTINUOUS
 10
16.6472094438
 20
5.3053007302
 11
16.6130418762
 21
5.3384944619
  0
LINE
  5
725
100
AcDbEntity
  8
02___PRT_ALL_AXES
100
AcDbLine
 62
7
  6
CONTINUOUS
 10
16.6472094438
 20
5.2570820835
 11
16.6157528799
 21
5.2882348712
  0
LINE
  5
726
100
AcDbEntity
  8
02___PRT_ALL_AXES
100
AcDbLine
 62
7
  6
CONTINUOUS
 10
16.6472094438
 20
5.4017380236
 11
16.6158975169
 21
5.4327819233
  0
LINE
  5
727
100
AcDbEntity
  8
02___PRT_ALL_AXES
100
AcDbLine
 62
7
  6
CONTINUOUS
 10
16.6472094438
 20
5.4499566702
 11
16.6161620849
 21
5.4808013933
  0
LINE
  5
728
100
AcDbEntity
  8
02___PRT_ALL_AXES
100
AcDbLine
 62
7
  6
CONTINUOUS
 10
16.6472094438
 20
5.2088634368
 11
16.6162479409
 21
5.2396436579
  0
LINE
  5
729
100
AcDbEntity
  8
02___PRT_ALL_AXES
100
AcDbLine
 62
7
  6
CONTINUOUS
 10
16.6472094438
 20
5.1606447902
 11
16.6162818526
 21
5.1913993477
  0
LINE
  5
72A
100
AcDbEntity
  8
02___PRT_ALL_AXES
100
AcDbLine
 62
7
  6
CONTINUOUS
 10
16.6472094438
 20
5.3535193769
 11
16.6160891227
 21
5.3844621239
  0
LWPOLYLINE
  5
72B
100
AcDbEntity
  8
0
100
AcDbPolyline
 62
7
  6
CONTINUOUS
 90
4
 70
0
 10
16.6538014849
 20
5.0693060853
 10
16.6095466476
 20
5.1142906567
 10
16.5774523252
 20
5.163093046
 10
16.5721496149
 20
5.1771681908
  0
LWPOLYLINE
  5
72C
100
AcDbEntity
  8
02___PRT_ALL_AXES
100
AcDbPolyline
 62
7
  6
CONTINUOUS
 90
7
 70
0
 10
16.415503143
 20
5.9861263335
 10
16.3275610281
 20
6.0442725984
 10
16.253481425
 20
6.1091028975
 10
16.1948091354
 20
6.1792833359
 10
16.1526515336
 20
6.2531726573
 10
16.1274333573
 20
6.3291440904
 10
16.1190654898
 20
6.4059645223
  0
LWPOLYLINE
  5
72D
100
AcDbEntity
  8
02___PRT_ALL_AXES
100
AcDbPolyline
 62
9
  6
CONTINUOUS
 90
5
 70
0
 10
16.4073491146
 20
6.0041494102
 10
16.3153856218
 20
6.0654230852
 10
16.239462149
 20
6.1336292018
 10
16.1811242791
 20
6.2073792802
 10
16.141559603
 20
6.2851719815
  0
LWPOLYLINE
  5
72E
100
AcDbEntity
  8
0
100
AcDbPolyline
 62
9
  6
CONTINUOUS
 90
14
 70
0
 10
17.6808971768
 20
11.2125799504
 10
17.7404141375
 20
11.2397670389
 10
17.7961073092
 20
11.2695330587
 10
17.8476414071
 20
11.3016988213
 10
17.8947080961
 20
11.3360719063
 10
17.9370254184
 20
11.3724467516
 10
17.9743382657
 20
11.4106044749
 10
18.006421877
 20
11.4503153027
 10
18.0330831825
 20
11.4913398502
 10
18.054163451
 20
11.5334337014
 10
18.0695371712
 20
11.5763488004
 10
18.0791102268
 20
11.6198298383
 10
18.082822093
 20
11.6636149335
 10
18.0827978183
 20
11.6763282649
  0
LWPOLYLINE
  5
72F
100
AcDbEntity
  8
02___PRT_ALL_AXES
100
AcDbPolyline
 62
7
  6
CONTINUOUS
 90
3
 70
0
 10
16.2509322988
 20
6.375789005
 10
16.322460366
 20
6.3139854932
 10
16.4073491146
 20
6.2581009494
  0
LINE
  5
730
100
AcDbEntity
  8
02___PRT_ALL_AXES
100
AcDbLine
 62
7
  6
CONTINUOUS
 10
16.1939887779
 20
6.4424540094
 11
16.2509322988
 21
6.375789005
  0
LWPOLYLINE
  5
731
100
AcDbEntity
  8
0
100
AcDbPolyline
 62
7
  6
CONTINUOUS
 90
4
 70
0
 10
16.8907584094
 20
4.9558005089
 10
16.8926401209
 20
4.9529844551
 10
16.9118532089
 20
4.9342874624
 10
16.9362808707
 20
4.9176196486
  0
LINE
  5
732
100
AcDbEntity
  8
02___PRT_ALL_AXES
100
AcDbLine
 62
7
  6
CONTINUOUS
 10
16.5325858017
 20
5.2355185621
 11
16.5607394495
 21
5.1862539698
  0
LINE
  5
733
100
AcDbEntity
  8
02___PRT_ALL_AXES
100
AcDbLine
 62
7
  6
CONTINUOUS
 10
16.5325858017
 20
5.2837372088
 11
16.5607394495
 21
5.2344726165
  0
LINE
  5
734
100
AcDbEntity
  8
02___PRT_ALL_AXES
100
AcDbLine
 62
7
  6
CONTINUOUS
 10
16.5325858017
 20
5.2897645397
 11
16.5607394495
 21
5.2404999474
  0
LINE
  5
735
100
AcDbEntity
  8
02___PRT_ALL_AXES
100
AcDbLine
 62
7
  6
CONTINUOUS
 10
16.5325858017
 20
5.3319558555
 11
16.5607394495
 21
5.2826912632
  0
LINE
  5
736
100
AcDbEntity
  8
02___PRT_ALL_AXES
100
AcDbLine
 62
7
  6
CONTINUOUS
 10
16.5325858017
 20
5.4283931489
 11
16.5607394495
 21
5.3791285566
  0
LINE
  5
737
100
AcDbEntity
  8
02___PRT_ALL_AXES
100
AcDbLine
 62
7
  6
CONTINUOUS
 10
16.5325858017
 20
5.4766117955
 11
16.5607394495
 21
5.4273472032
  0
LINE
  5
738
100
AcDbEntity
  8
02___PRT_ALL_AXES
100
AcDbLine
 62
7
  6
CONTINUOUS
 10
16.531753195
 20
5.382178668
 11
16.5607394495
 21
5.3309099099
  0
LINE
  5
739
100
AcDbEntity
  8
02___PRT_ALL_AXES
100
AcDbLine
 62
7
  6
CONTINUOUS
 10
16.1526041229
 20
6.5128398499
 11
16.1939887779
 21
6.4424540094
  0
LINE
  5
73A
100
AcDbEntity
  8
02___PRT_ALL_AXES
100
AcDbLine
 62
7
  6
CONTINUOUS
 10
16.5325858017
 20
5.5248304422
 11
16.5607394495
 21
5.4755658499
  0
LINE
  5
73B
100
AcDbEntity
  8
02___PRT_ALL_AXES
100
AcDbLine
 62
7
  6
CONTINUOUS
 10
16.5357658845
 20
5.525293113
 11
16.5607394495
 21
5.4815931808
  0
LWPOLYLINE
  5
73C
100
AcDbEntity
  8
AXIS
100
AcDbPolyline
 62
7
  6
CONTINUOUS
 90
7
 70
0
 10
17.7992915972
 20
11.0478231988
 10
17.8912542063
 20
11.1090973159
 10
17.9671766954
 20
11.1773037975
 10
18.0255135016
 20
11.2510541564
 10
18.0650770557
 20
11.3288470478
 10
18.0850619579
 20
11.409098833
 10
18.0875598507
 20
11.4496349611
  0
LWPOLYLINE
  5
73D
100
AcDbEntity
  8
AXIS
100
AcDbPolyline
 62
7
  6
CONTINUOUS
 90
12
 70
0
 10
16.4073491146
 20
7.1228220132
 10
16.5134805158
 20
7.0697281351
 10
16.6316192963
 20
7.0258948922
 10
16.7593604911
 20
6.992214603
 10
16.8941036578
 20
6.9693729009
 10
17.0331058142
 20
6.9578347772
 10
17.1735372772
 20
6.9578351147
 10
17.3125392672
 20
6.9693739067
 10
17.4472821044
 20
6.9922162565
 10
17.5750228135
 20
7.0258971599
 10
17.6931609617
 20
7.0697309707
 10
17.7992915972
 20
7.122825359
  0
LWPOLYLINE
  5
73E
100
AcDbEntity
  8
0
100
AcDbPolyline
 62
7
  6
CONTINUOUS
 90
7
 70
0
 10
16.4107017549
 20
7.1247576494
 10
16.3191812715
 20
7.185736155
 10
16.2436235396
 20
7.253613707
 10
16.1855666967
 20
7.3270085142
 10
16.1461926128
 20
7.40442647
 10
16.1263028306
 20
7.4842915681
 10
16.1238349588
 20
7.5211416593
  0
LWPOLYLINE
  5
73F
100
AcDbEntity
  8
0
100
AcDbPolyline
 62
9
  6
CONTINUOUS
 90
4
 70
0
 10
16.5745742749
 20
5.1752374629
 10
16.5750132241
 20
5.1740622007
 10
16.6052449477
 20
5.1285024568
 10
16.6472094438
 20
5.0861250689
  0
LINE
  5
740
100
AcDbEntity
  8
02___PRT_ALL_AXES
100
AcDbLine
 62
7
  6
CONTINUOUS
 10
16.1274864367
 20
6.5857422051
 11
16.1526041229
 21
6.5128398499
  0
LWPOLYLINE
  5
741
100
AcDbEntity
  8
AXIS
100
AcDbPolyline
 62
7
  6
CONTINUOUS
 90
3
 70
0
 10
16.1232816111
 20
10.1886997838
 10
16.1215729587
 20
10.1818384839
 10
16.1190750659
 20
10.1413023558
  0
LINE
  5
742
100
AcDbEntity
  8
02___PRT_ALL_AXES
100
AcDbLine
 62
7
  6
CONTINUOUS
 10
16.5184197636
 20
5.3349201869
 11
16.5325858017
 21
5.2837372088
  0
LINE
  5
743
100
AcDbEntity
  8
02___PRT_ALL_AXES
100
AcDbLine
 62
7
  6
CONTINUOUS
 10
16.5184197636
 20
5.3409475177
 11
16.5325858017
 21
5.2897645397
  0
LINE
  5
744
100
AcDbEntity
  8
02___PRT_ALL_AXES
100
AcDbLine
 62
7
  6
CONTINUOUS
 10
16.5184197636
 20
5.3831388335
 11
16.5325858017
 21
5.3319558555
  0
LWPOLYLINE
  5
745
100
AcDbEntity
  8
02___PRT_ALL_AXES
100
AcDbPolyline
 62
7
  6
CONTINUOUS
 90
3
 70
0
 10
16.5184197636
 20
5.3891661644
 10
16.5325858017
 20
5.3379831863
 10
16.5607394495
 20
5.288718594
  0
LINE
  5
746
100
AcDbEntity
  8
02___PRT_ALL_AXES
100
AcDbLine
 62
7
  6
CONTINUOUS
 10
16.5184197636
 20
5.4795761269
 11
16.5325858017
 21
5.4283931489
  0
LWPOLYLINE
  5
747
100
AcDbEntity
  8
02___PRT_ALL_AXES
100
AcDbPolyline
 62
7
  6
CONTINUOUS
 90
3
 70
0
 10
16.5184197636
 20
5.4856034577
 10
16.5325858017
 20
5.4344204797
 10
16.5607394495
 20
5.3851558874
  0
LINE
  5
748
100
AcDbEntity
  8
02___PRT_ALL_AXES
100
AcDbLine
 62
7
  6
CONTINUOUS
 10
16.5184197636
 20
5.5277947736
 11
16.5325858017
 21
5.4766117955
  0
LWPOLYLINE
  5
749
100
AcDbEntity
  8
02___PRT_ALL_AXES
100
AcDbPolyline
 62
7
  6
CONTINUOUS
 90
3
 70
0
 10
16.5184197636
 20
5.5338221044
 10
16.5325858017
 20
5.4826391264
 10
16.5607394495
 20
5.4333745341
  0
LINE
  5
74A
100
AcDbEntity
  8
02___PRT_ALL_AXES
100
AcDbLine
 62
7
  6
CONTINUOUS
 10
16.5319322562
 20
5.5271917523
 11
16.5325858017
 21
5.5248304422
  0
LINE
  5
74B
100
AcDbEntity
  8
02___PRT_ALL_AXES
100
AcDbLine
 62
7
  6
CONTINUOUS
 10
16.5179069896
 20
5.4354664899
 11
16.531753195
 21
5.382178668
  0
LWPOLYLINE
  5
74C
100
AcDbEntity
  8
02___PRT_ALL_AXES
100
AcDbPolyline
 62
7
  6
CONTINUOUS
 90
3
 70
0
 10
16.5179069896
 20
5.4414938208
 10
16.531753195
 20
5.3882059988
 10
16.5607394495
 20
5.3369372407
  0
LWPOLYLINE
  5
74D
100
AcDbEntity
  8
02___PRT_ALL_AXES
100
AcDbPolyline
 62
9
  6
CONTINUOUS
 90
3
 70
0
 10
16.141559603
 20
6.2851719815
 10
16.1215735433
 20
6.3654236705
 10
16.1190654898
 20
6.4059645223
  0
LINE
  5
74E
100
AcDbEntity
  8
0
100
AcDbLine
 62
7
  6
CONTINUOUS
 10
16.1215735433
 20
7.927707823
 11
16.1190937257
 21
7.9647362888
  0
LWPOLYLINE
  5
74F
100
AcDbEntity
  8
AXIS
100
AcDbPolyline
 62
7
  6
CONTINUOUS
 90
18
 70
0
 10
16.1190750659
 20
6.6599160655
 10
16.1215735433
 20
6.6193752097
 10
16.141559603
 20
6.5391235206
 10
16.1811242791
 20
6.4613308194
 10
16.239462149
 20
6.387580741
 10
16.3153856218
 20
6.3193746244
 10
16.4073491146
 20
6.2581009494
 10
16.5134805158
 20
6.2050070713
 10
16.6316192963
 20
6.1611738284
 10
16.7593604911
 20
6.1274935392
 10
16.8941036578
 20
6.1046518371
 10
17.0331058142
 20
6.0931137134
 10
17.1735372772
 20
6.0931140509
 10
17.3125392672
 20
6.1046528429
 10
17.4472821044
 20
6.1274951927
 10
17.5750228135
 20
6.1611760961
 10
17.6931609617
 20
6.2050099069
 10
17.7992915972
 20
6.2581042952
  0
LWPOLYLINE
  5
750
100
AcDbEntity
  8
AXIS
100
AcDbPolyline
 62
7
  6
CONTINUOUS
 90
7
 70
0
 10
16.1190750659
 20
7.5246371293
 10
16.1215735433
 20
7.4840962735
 10
16.141559603
 20
7.4038445844
 10
16.1811242791
 20
7.3260518832
 10
16.239462149
 20
7.2523018048
 10
16.3153856218
 20
7.1840956882
 10
16.4073491146
 20
7.1228220132
  0
LWPOLYLINE
  5
751
100
AcDbEntity
  8
AXIS
100
AcDbPolyline
 62
7
  6
CONTINUOUS
 90
18
 70
0
 10
16.1190750659
 20
7.9682486787
 10
16.1215735433
 20
7.927707823
 10
16.141559603
 20
7.8474561339
 10
16.1811242791
 20
7.7696634327
 10
16.239462149
 20
7.6959133543
 10
16.3153856218
 20
7.6277072376
 10
16.4073491146
 20
7.5664335626
 10
16.5134805158
 20
7.5133396846
 10
16.6316192963
 20
7.4695064417
 10
16.7593604911
 20
7.4358261525
 10
16.8941036578
 20
7.4129844504
 10
17.0331058142
 20
7.4014463266
 10
17.1735372772
 20
7.4014466642
 10
17.3125392672
 20
7.4129854562
 10
17.4472821044
 20
7.435827806
 10
17.5750228135
 20
7.4695087094
 10
17.6931609617
 20
7.5133425202
 10
17.7992915972
 20
7.5664369085
  0
LINE
  5
752
100
AcDbEntity
  8
0
100
AcDbLine
 62
7
  6
CONTINUOUS
 10
16.1190842289
 20
7.9647421772
 11
16.1238255077
 21
7.5211475193
  0
LINE
  5
753
100
AcDbEntity
  8
0
100
AcDbLine
 62
7
  6
CONTINUOUS
 10
16.1191404597
 20
11.4566484944
 11
16.1238370983
 21
11.676328265
  0
LWPOLYLINE
  5
754
100
AcDbEntity
  8
AXIS
100
AcDbPolyline
 62
7
  6
CONTINUOUS
 90
3
 70
0
 10
16.1232816111
 20
8.8803671706
 10
16.1215729587
 20
8.8735058706
 10
16.1190750659
 20
8.8329697426
  0
LWPOLYLINE
  5
755
100
AcDbEntity
  8
0
100
AcDbPolyline
 62
7
  6
CONTINUOUS
 90
8
 70
0
 10
17.7992915972
 20
10.183102135
 10
17.6931609617
 20
10.1300077467
 10
17.5750228135
 20
10.0861739359
 10
17.4472821044
 20
10.0524930326
 10
17.3125392672
 20
10.0296506827
 10
17.1735372772
 20
10.0181118907
 10
17.0331058142
 20
10.0181115532
 10
16.8941036578
 20
10.0296496769
  0
LINE
  5
756
100
AcDbEntity
  8
0
100
AcDbLine
 62
7
  6
CONTINUOUS
 10
16.5134805158
 20
7.5133396846
 11
16.4073491146
 21
7.5664335626
  0
LINE
  5
757
100
AcDbEntity
  8
0
100
AcDbLine
 62
7
  6
CONTINUOUS
 10
16.4073491146
 20
7.5664335626
 11
16.3153856218
 21
7.6277072376
  0
LINE
  5
758
100
AcDbEntity
  8
0
100
AcDbLine
 62
7
  6
CONTINUOUS
 10
16.3153856218
 20
7.6277072376
 11
16.239462149
 21
7.6959133543
  0
LINE
  5
759
100
AcDbEntity
  8
0
100
AcDbLine
 62
7
  6
CONTINUOUS
 10
16.239462149
 20
7.6959133543
 11
16.1811242791
 21
7.7696634327
  0
LINE
  5
75A
100
AcDbEntity
  8
0
100
AcDbLine
 62
7
  6
CONTINUOUS
 10
16.1811242791
 20
7.7696634327
 11
16.141559603
 21
7.8474561339
  0
LINE
  5
75B
100
AcDbEntity
  8
0
100
AcDbLine
 62
7
  6
CONTINUOUS
 10
16.141559603
 20
7.8474561339
 11
16.1215735433
 21
7.927707823
  0
LWPOLYLINE
  5
75C
100
AcDbEntity
  8
0
100
AcDbPolyline
 62
7
  6
CONTINUOUS
 90
6
 70
0
 10
16.9034185648
 20
4.942495538
 10
16.9042335823
 20
4.9392229306
 10
16.9124234702
 20
4.9231198414
 10
16.9244994093
 20
4.9078535752
 10
16.9402155681
 20
4.893734909
 10
16.9592520111
 20
4.8810512583
  0
LWPOLYLINE
  5
75D
100
AcDbEntity
  8
0
100
AcDbPolyline
 62
7
  6
CONTINUOUS
 90
3
 70
0
 10
16.6472094438
 20
5.0861250689
 10
16.6487092394
 20
5.0768817592
 10
16.6530555046
 20
5.0699851949
  0
LINE
  5
75E
100
AcDbEntity
  8
02___PRT_ALL_AXES
100
AcDbLine
 62
7
  6
CONTINUOUS
 10
16.1190654898
 20
6.6599160547
 11
16.1274864367
 21
6.5857422051
  0
LWPOLYLINE
  5
75F
100
AcDbEntity
  8
02___PRT_ALL_AXES
100
AcDbPolyline
 62
7
  6
CONTINUOUS
 90
3
 70
0
 10
16.5167032851
 20
5.3120039437
 10
16.5184197636
 20
5.2867015402
 10
16.5325858017
 20
5.2355185621
  0
LWPOLYLINE
  5
760
100
AcDbEntity
  8
02___PRT_ALL_AXES
100
AcDbPolyline
 62
7
  6
CONTINUOUS
 90
4
 70
0
 10
16.5167032851
 20
5.3180312746
 10
16.5184197636
 20
5.292728871
 10
16.5325858017
 20
5.241545893
 10
16.5607394495
 20
5.1922813007
  0
LINE
  5
761
100
AcDbEntity
  8
02___PRT_ALL_AXES
100
AcDbLine
 62
7
  6
CONTINUOUS
 10
16.5167032851
 20
5.3602225904
 11
16.5184197636
 21
5.3349201869
  0
LINE
  5
762
100
AcDbEntity
  8
02___PRT_ALL_AXES
100
AcDbLine
 62
7
  6
CONTINUOUS
 10
16.5167032851
 20
5.3662499213
 11
16.5184197636
 21
5.3409475177
  0
LINE
  5
763
100
AcDbEntity
  8
02___PRT_ALL_AXES
100
AcDbLine
 62
7
  6
CONTINUOUS
 10
16.5167032851
 20
5.4084412371
 11
16.5184197636
 21
5.3831388335
  0
LINE
  5
764
100
AcDbEntity
  8
02___PRT_ALL_AXES
100
AcDbLine
 62
7
  6
CONTINUOUS
 10
16.5167032851
 20
5.4144685679
 11
16.5184197636
 21
5.3891661644
  0
LINE
  5
765
100
AcDbEntity
  8
02___PRT_ALL_AXES
100
AcDbLine
 62
7
  6
CONTINUOUS
 10
16.5167032851
 20
5.5048785305
 11
16.5184197636
 21
5.4795761269
  0
LINE
  5
766
100
AcDbEntity
  8
02___PRT_ALL_AXES
100
AcDbLine
 62
7
  6
CONTINUOUS
 10
16.5167032851
 20
5.5109058613
 11
16.5184197636
 21
5.4856034577
  0
LINE
  5
767
100
AcDbEntity
  8
02___PRT_ALL_AXES
100
AcDbLine
 62
7
  6
CONTINUOUS
 10
16.5179923225
 20
5.5340956315
 11
16.5184197636
 21
5.5277947736
  0
LINE
  5
768
100
AcDbEntity
  8
02___PRT_ALL_AXES
100
AcDbLine
 62
7
  6
CONTINUOUS
 10
16.5184154231
 20
5.533886087
 11
16.5184197636
 21
5.5338221044
  0
LINE
  5
769
100
AcDbEntity
  8
0
100
AcDbLine
 62
7
  6
CONTINUOUS
 10
16.1215735433
 20
9.2360404362
 11
16.1190937257
 21
9.273068902
  0
LINE
  5
76A
100
AcDbEntity
  8
0
100
AcDbLine
 62
7
  6
CONTINUOUS
 10
16.1215735433
 20
10.5443730495
 11
16.1190937257
 21
10.5814015153
  0
LWPOLYLINE
  5
76B
100
AcDbEntity
  8
AXIS
100
AcDbPolyline
 62
7
  6
CONTINUOUS
 90
7
 70
0
 10
16.1190750659
 20
8.8329697426
 10
16.1215735433
 20
8.7924288868
 10
16.141559603
 20
8.7121771977
 10
16.1811242791
 20
8.6343844965
 10
16.239462149
 20
8.5606344181
 10
16.3153856218
 20
8.4924283015
 10
16.4073491146
 20
8.4311546265
  0
LWPOLYLINE
  5
76C
100
AcDbEntity
  8
AXIS
100
AcDbPolyline
 62
7
  6
CONTINUOUS
 90
18
 70
0
 10
16.1190750659
 20
9.276581292
 10
16.1215735433
 20
9.2360404362
 10
16.141559603
 20
9.1557887472
 10
16.1811242791
 20
9.0779960459
 10
16.239462149
 20
9.0042459675
 10
16.3153856218
 20
8.9360398509
 10
16.4073491146
 20
8.8747661759
 10
16.5134805158
 20
8.8216722979
 10
16.6316192963
 20
8.777839055
 10
16.7593604911
 20
8.7441587657
 10
16.8941036578
 20
8.7213170636
 10
17.0331058142
 20
8.7097789399
 10
17.1735372772
 20
8.7097792775
 10
17.3125392672
 20
8.7213180694
 10
17.4472821044
 20
8.7441604193
 10
17.5750228135
 20
8.7778413226
 10
17.6931609617
 20
8.8216751335
 10
17.7992915972
 20
8.8747695217
  0
LWPOLYLINE
  5
76D
100
AcDbEntity
  8
AXIS
100
AcDbPolyline
 62
7
  6
CONTINUOUS
 90
7
 70
0
 10
16.1190750659
 20
10.1413023558
 10
16.1215735433
 20
10.1007615
 10
16.141559603
 20
10.020509811
 10
16.1811242791
 20
9.9427171097
 10
16.239462149
 20
9.8689670314
 10
16.3153856218
 20
9.8007609147
 10
16.4073491146
 20
9.7394872397
  0
LWPOLYLINE
  5
76E
100
AcDbEntity
  8
AXIS
100
AcDbPolyline
 62
7
  6
CONTINUOUS
 90
18
 70
0
 10
16.1190750659
 20
10.5849139053
 10
16.1215735433
 20
10.5443730495
 10
16.141559603
 20
10.4641213605
 10
16.1811242791
 20
10.3863286592
 10
16.239462149
 20
10.3125785808
 10
16.3153856218
 20
10.2443724642
 10
16.4073491146
 20
10.1830987892
 10
16.5134805158
 20
10.1300049111
 10
16.6316192963
 20
10.0861716683
 10
16.7593604911
 20
10.052491379
 10
16.8941036578
 20
10.0296496769
 10
17.0331058142
 20
10.0181115532
 10
17.1735372772
 20
10.0181118907
 10
17.3125392672
 20
10.0296506827
 10
17.4472821044
 20
10.0524930326
 10
17.5750228135
 20
10.0861739359
 10
17.6931609617
 20
10.1300077467
 10
17.7992915972
 20
10.183102135
  0
LWPOLYLINE
  5
76F
100
AcDbEntity
  8
AXIS
100
AcDbPolyline
 62
7
  6
CONTINUOUS
 90
7
 70
0
 10
16.1190750659
 20
11.4496349691
 10
16.1215735433
 20
11.4090941133
 10
16.141559603
 20
11.3288424243
 10
16.1811242791
 20
11.251049723
 10
16.239462149
 20
11.1772996446
 10
16.3153856218
 20
11.109093528
 10
16.4073491146
 20
11.047819853
  0
LINE
  5
770
100
AcDbEntity
  8
02___PRT_ALL_AXES
100
AcDbLine
 62
7
  6
CONTINUOUS
 10
16.5167032851
 20
5.4566598838
 11
16.5179069896
 21
5.4354664899
  0
LINE
  5
771
100
AcDbEntity
  8
02___PRT_ALL_AXES
100
AcDbLine
 62
7
  6
CONTINUOUS
 10
16.5167032851
 20
5.4626872146
 11
16.5179069896
 21
5.4414938208
  0
LWPOLYLINE
  5
772
100
AcDbEntity
  8
0
100
AcDbPolyline
 62
7
  6
CONTINUOUS
 90
7
 70
0
 10
16.1191497185
 20
11.4566600177
 10
16.1215735433
 20
11.4090941133
 10
16.141559603
 20
11.3288424243
 10
16.1811242791
 20
11.251049723
 10
16.239462149
 20
11.1772996446
 10
16.3153856218
 20
11.109093528
 10
16.4073491146
 20
11.047819853
  0
LWPOLYLINE
  5
773
100
AcDbEntity
  8
0
100
AcDbPolyline
 62
9
  6
CONTINUOUS
 90
11
 70
0
 10
16.1238370983
 20
11.6763282649
 10
16.125986342
 20
11.6312618639
 10
16.1340314577
 20
11.5876740145
 10
16.1479111149
 20
11.5445479297
 10
16.1675537736
 20
11.5021438675
 10
16.1927599541
 20
11.4608542036
 10
16.2233893293
 20
11.420853313
 10
16.259749203
 20
11.3818802629
 10
16.3024561121
 20
11.3437001588
 10
16.3523822797
 20
11.3062077408
 10
16.4106703787
 20
11.2694506145
  0
LWPOLYLINE
  5
774
100
AcDbEntity
  8
02___PRT_ALL_AXES
100
AcDbPolyline
 62
9
  6
CONTINUOUS
 90
7
 70
0
 10
16.2174906866
 20
5.9719967021
 10
16.218110279
 20
5.9528717823
 10
16.232934457
 20
5.8769147637
 10
16.2672015531
 20
5.8030817186
 10
16.3201460968
 20
5.733021955
 10
16.3905853946
 20
5.6683004924
 10
16.476945949
 20
5.6103631013
  0
LINE
  5
775
100
AcDbEntity
  8
0
100
AcDbLine
 62
7
  6
CONTINUOUS
 10
16.1190842289
 20
9.2730747904
 11
16.1238255077
 21
8.8294801326
  0
LINE
  5
776
100
AcDbEntity
  8
0
100
AcDbLine
 62
7
  6
CONTINUOUS
 10
16.1190842289
 20
10.5814074037
 11
16.1238255077
 21
10.1378127458
  0
LINE
  5
777
100
AcDbEntity
  8
02___PRT_ALL_AXES
100
AcDbLine
 62
7
  6
CONTINUOUS
 10
16.1190654898
 20
6.6599160614
 11
16.1190654898
 21
6.4059645223
  0
LINE
  5
778
100
AcDbEntity
  8
AXIS
100
AcDbLine
 62
7
  6
CONTINUOUS
 10
16.1190654898
 20
6.6599160614
 11
16.1190654898
 21
7.5246371253
  0
LINE
  5
779
100
AcDbEntity
  8
AXIS
100
AcDbLine
 62
7
  6
CONTINUOUS
 10
16.1190654898
 20
7.9682486747
 11
16.1190654898
 21
8.8329697385
  0
LINE
  5
77A
100
AcDbEntity
  8
AXIS
100
AcDbLine
 62
7
  6
CONTINUOUS
 10
16.1190654898
 20
9.276581288
 11
16.1190654898
 21
10.1413023518
  0
LINE
  5
77B
100
AcDbEntity
  8
AXIS
100
AcDbLine
 62
7
  6
CONTINUOUS
 10
16.1190654898
 20
10.5849139013
 11
16.1190654898
 21
11.4496349651
  0
LINE
  5
77C
100
AcDbEntity
  8
02___PRT_ALL_AXES
100
AcDbLine
 62
7
  6
CONTINUOUS
 10
16.2174906866
 20
6.1521529611
 11
16.2174906866
 21
5.9719967021
  0
LINE
  5
77D
100
AcDbEntity
  8
0
100
AcDbLine
 62
7
  6
CONTINUOUS
 10
17.8912542063
 20
10.2443762521
 11
17.7992915972
 21
10.183102135
  0
LWPOLYLINE
  5
77E
100
AcDbEntity
  8
AXIS
100
AcDbPolyline
 62
7
  6
CONTINUOUS
 90
6
 70
0
 10
17.7992915972
 20
10.183102135
 10
17.8912542063
 20
10.2443762521
 10
17.9671766954
 20
10.3125827337
 10
18.0255135016
 20
10.3863330926
 10
18.0650770557
 20
10.464125984
 10
18.0850619579
 20
10.5443777692
  0
LINE
  5
77F
100
AcDbEntity
  8
0
100
AcDbLine
 62
7
  6
CONTINUOUS
 10
16.141559603
 20
9.1557887472
 11
16.1215735433
 21
9.2360404362
  0
LWPOLYLINE
  5
780
100
AcDbEntity
  8
0
100
AcDbPolyline
 62
7
  6
CONTINUOUS
 90
4
 70
0
 10
16.7938602947
 20
5.0014580761
 10
16.7950998497
 20
4.992365013
 10
16.7986895647
 20
4.9859052332
 10
16.8012368233
 20
4.983883879
  0
LINE
  5
781
100
AcDbEntity
  8
02___PRT_ALL_AXES
100
AcDbLine
 62
7
  6
CONTINUOUS
 10
16.5607394495
 20
5.1862539698
 11
16.5607394495
 21
5.1922813007
  0
LINE
  5
782
100
AcDbEntity
  8
02___PRT_ALL_AXES
100
AcDbLine
 62
7
  6
CONTINUOUS
 10
16.5607394495
 20
5.2344726165
 11
16.5607394495
 21
5.2404999474
  0
LINE
  5
783
100
AcDbEntity
  8
02___PRT_ALL_AXES
100
AcDbLine
 62
7
  6
CONTINUOUS
 10
16.5607394495
 20
5.2826912632
 11
16.5607394495
 21
5.288718594
  0
LINE
  5
784
100
AcDbEntity
  8
02___PRT_ALL_AXES
100
AcDbLine
 62
7
  6
CONTINUOUS
 10
16.5607394495
 20
5.3309099099
 11
16.5607394495
 21
5.3369372407
  0
LINE
  5
785
100
AcDbEntity
  8
02___PRT_ALL_AXES
100
AcDbLine
 62
7
  6
CONTINUOUS
 10
16.5607394495
 20
5.3791285566
 11
16.5607394495
 21
5.3851558874
  0
LINE
  5
786
100
AcDbEntity
  8
02___PRT_ALL_AXES
100
AcDbLine
 62
7
  6
CONTINUOUS
 10
16.5607394495
 20
5.4273472032
 11
16.5607394495
 21
5.4333745341
  0
LINE
  5
787
100
AcDbEntity
  8
02___PRT_ALL_AXES
100
AcDbLine
 62
7
  6
CONTINUOUS
 10
16.5607394495
 20
5.4755658499
 11
16.5607394495
 21
5.4815931808
  0
LWPOLYLINE
  5
788
100
AcDbEntity
  8
AXIS
100
AcDbPolyline
 62
7
  6
CONTINUOUS
 90
3
 70
0
 10
16.1232816111
 20
7.5720345573
 10
16.1215729587
 20
7.5651732574
 10
16.1190750659
 20
7.5246371293
  0
LINE
  5
789
100
AcDbEntity
  8
0
100
AcDbLine
 62
9
  6
CONTINUOUS
 10
17.9583586443
 20
11.5688195903
 11
17.9777443494
 21
11.607530752
  0
LINE
  5
78A
100
AcDbEntity
  8
0
100
AcDbLine
 62
7
  6
CONTINUOUS
 10
17.9671766954
 20
10.3125827337
 11
17.8912542063
 21
10.2443762521
  0
LWPOLYLINE
  5
78B
100
AcDbEntity
  8
AXIS
100
AcDbPolyline
 62
7
  6
CONTINUOUS
 90
6
 70
0
 10
17.7992915972
 20
9.7394905855
 10
17.8912542063
 20
9.8007647027
 10
17.9671766954
 20
9.8689711843
 10
18.0255135016
 20
9.9427215431
 10
18.0650770557
 20
10.0205144346
 10
18.0850619579
 20
10.1007662197
  0
LWPOLYLINE
  5
78C
100
AcDbEntity
  8
0
100
AcDbPolyline
 62
7
  6
CONTINUOUS
 90
7
 70
0
 10
16.4107017549
 20
8.4330902627
 10
16.3191812715
 20
8.4940687682
 10
16.2436235396
 20
8.5619463202
 10
16.1855666967
 20
8.6353411275
 10
16.1461926128
 20
8.7127590833
 10
16.1263028306
 20
8.7926241814
 10
16.1238349588
 20
8.8294742725
  0
LINE
  5
78D
100
AcDbEntity
  8
02___PRT_ALL_AXES
100
AcDbLine
 62
7
  6
CONTINUOUS
 10
16.6472094438
 20
5.4587411277
 11
16.6472094438
 21
5.4499566702
  0
LINE
  5
78E
100
AcDbEntity
  8
02___PRT_ALL_AXES
100
AcDbLine
 62
7
  6
CONTINUOUS
 10
16.6472094438
 20
5.410522481
 11
16.6472094438
 21
5.4017380236
  0
LINE
  5
78F
100
AcDbEntity
  8
02___PRT_ALL_AXES
100
AcDbLine
 62
7
  6
CONTINUOUS
 10
16.6472094438
 20
5.3623038344
 11
16.6472094438
 21
5.3535193769
  0
LINE
  5
790
100
AcDbEntity
  8
02___PRT_ALL_AXES
100
AcDbLine
 62
7
  6
CONTINUOUS
 10
16.6472094438
 20
5.3140851877
 11
16.6472094438
 21
5.3053007302
  0
LINE
  5
791
100
AcDbEntity
  8
02___PRT_ALL_AXES
100
AcDbLine
 62
7
  6
CONTINUOUS
 10
16.6472094438
 20
5.265866541
 11
16.6472094438
 21
5.2570820835
  0
LINE
  5
792
100
AcDbEntity
  8
02___PRT_ALL_AXES
100
AcDbLine
 62
7
  6
CONTINUOUS
 10
16.6472094438
 20
5.2176478943
 11
16.6472094438
 21
5.2088634368
  0
LINE
  5
793
100
AcDbEntity
  8
02___PRT_ALL_AXES
100
AcDbLine
 62
7
  6
CONTINUOUS
 10
16.6472094438
 20
5.1694292476
 11
16.6472094438
 21
5.1606447902
  0
LINE
  5
794
100
AcDbEntity
  8
0
100
AcDbLine
 62
7
  6
CONTINUOUS
 10
16.6472094438
 20
5.121210601
 11
16.6472094438
 21
5.0861250689
  0
LINE
  5
795
100
AcDbEntity
  8
02___PRT_ALL_AXES
100
AcDbLine
 62
7
  6
CONTINUOUS
 10
16.7938602947
 20
5.4251977039
 11
16.7938602947
 21
5.4164132464
  0
LINE
  5
796
100
AcDbEntity
  8
02___PRT_ALL_AXES
100
AcDbLine
 62
7
  6
CONTINUOUS
 10
16.7938602947
 20
5.3769790572
 11
16.7938602947
 21
5.3681945997
  0
LINE
  5
797
100
AcDbEntity
  8
02___PRT_ALL_AXES
100
AcDbLine
 62
7
  6
CONTINUOUS
 10
16.7938602947
 20
5.3287604105
 11
16.7938602947
 21
5.319975953
  0
LINE
  5
798
100
AcDbEntity
  8
02___PRT_ALL_AXES
100
AcDbLine
 62
7
  6
CONTINUOUS
 10
16.7938602947
 20
5.2805417638
 11
16.7938602947
 21
5.2717573064
  0
LINE
  5
799
100
AcDbEntity
  8
02___PRT_ALL_AXES
100
AcDbLine
 62
7
  6
CONTINUOUS
 10
16.7938602947
 20
5.2323231172
 11
16.7938602947
 21
5.2235386597
  0
LINE
  5
79A
100
AcDbEntity
  8
02___PRT_ALL_AXES
100
AcDbLine
 62
7
  6
CONTINUOUS
 10
16.7938602947
 20
5.1841044705
 11
16.7938602947
 21
5.175320013
  0
LINE
  5
79B
100
AcDbEntity
  8
02___PRT_ALL_AXES
100
AcDbLine
 62
7
  6
CONTINUOUS
 10
16.7938602947
 20
5.1358858238
 11
16.7938602947
 21
5.1271013663
  0
LINE
  5
79C
100
AcDbEntity
  8
02___PRT_ALL_AXES
100
AcDbLine
 62
7
  6
CONTINUOUS
 10
16.7938602947
 20
5.0876671771
 11
16.7938602947
 21
5.0788827196
  0
LINE
  5
79D
100
AcDbEntity
  8
0
100
AcDbLine
 62
7
  6
CONTINUOUS
 10
16.7938602947
 20
5.0394485304
 11
16.7938602947
 21
5.0014580761
  0
LINE
  5
79E
100
AcDbEntity
  8
02___PRT_ALL_AXES
100
AcDbLine
 62
7
  6
CONTINUOUS
 10
16.8803302891
 20
5.3995885242
 11
16.8803302891
 21
5.3935611934
  0
LINE
  5
79F
100
AcDbEntity
  8
02___PRT_ALL_AXES
100
AcDbLine
 62
7
  6
CONTINUOUS
 10
16.8803302891
 20
5.3513698775
 11
16.8803302891
 21
5.3453425467
  0
LINE
  5
7A0
100
AcDbEntity
  8
02___PRT_ALL_AXES
100
AcDbLine
 62
7
  6
CONTINUOUS
 10
16.8803302891
 20
5.3031512308
 11
16.8803302891
 21
5.2971239
  0
LINE
  5
7A1
100
AcDbEntity
  8
02___PRT_ALL_AXES
100
AcDbLine
 62
7
  6
CONTINUOUS
 10
16.8803302891
 20
5.2549325842
 11
16.8803302891
 21
5.2489052533
  0
LINE
  5
7A2
100
AcDbEntity
  8
02___PRT_ALL_AXES
100
AcDbLine
 62
7
  6
CONTINUOUS
 10
16.8803302891
 20
5.2067139375
 11
16.8803302891
 21
5.2006866066
  0
LINE
  5
7A3
100
AcDbEntity
  8
02___PRT_ALL_AXES
100
AcDbLine
 62
7
  6
CONTINUOUS
 10
16.8803302891
 20
5.1584952908
 11
16.8803302891
 21
5.15246796
  0
LINE
  5
7A4
100
AcDbEntity
  8
02___PRT_ALL_AXES
100
AcDbLine
 62
7
  6
CONTINUOUS
 10
16.8803302891
 20
5.1102766441
 11
16.8803302891
 21
5.1042493133
  0
LINE
  5
7A5
100
AcDbEntity
  8
02___PRT_ALL_AXES
100
AcDbLine
 62
7
  6
CONTINUOUS
 10
16.8803302891
 20
5.0620579974
 11
16.8803302891
 21
5.0560306666
  0
LINE
  5
7A6
100
AcDbEntity
  8
02___PRT_ALL_AXES
100
AcDbLine
 62
7
  6
CONTINUOUS
 10
16.8803302891
 20
5.0138393507
 11
16.8803302891
 21
5.0078120199
  0
LINE
  5
7A7
100
AcDbEntity
  8
02___PRT_ALL_AXES
100
AcDbLine
 62
7
  6
CONTINUOUS
 10
16.5181679821
 20
5.5315062541
 11
16.5167032851
 21
5.5109058613
  0
LINE
  5
7A8
100
AcDbEntity
  8
02___PRT_ALL_AXES
100
AcDbLine
 62
7
  6
CONTINUOUS
 10
16.5181341012
 20
5.4345924394
 11
16.5167032851
 21
5.4144685679
  0
LINE
  5
7A9
100
AcDbEntity
  8
02___PRT_ALL_AXES
100
AcDbLine
 62
7
  6
CONTINUOUS
 10
16.5181679821
 20
5.3868503141
 11
16.5167032851
 21
5.3662499213
  0
LINE
  5
7AA
100
AcDbEntity
  8
02___PRT_ALL_AXES
100
AcDbLine
 62
7
  6
CONTINUOUS
 10
16.5181679821
 20
5.3386316674
 11
16.5167032851
 21
5.3180312746
  0
LINE
  5
7AB
100
AcDbEntity
  8
02___PRT_ALL_AXES
100
AcDbLine
 62
7
  6
CONTINUOUS
 10
16.518316946
 20
5.4810917491
 11
16.5167032851
 21
5.4626872146
  0
LWPOLYLINE
  5
7AC
100
AcDbEntity
  8
AXIS
100
AcDbPolyline
 62
7
  6
CONTINUOUS
 90
12
 70
0
 10
16.4073491146
 20
8.4311546265
 10
16.5134805158
 20
8.3780607484
 10
16.6316192963
 20
8.3342275055
 10
16.7593604911
 20
8.3005472163
 10
16.8941036578
 20
8.2777055142
 10
17.0331058142
 20
8.2661673904
 10
17.1735372772
 20
8.266167728
 10
17.3125392672
 20
8.27770652
 10
17.4472821044
 20
8.3005488698
 10
17.5750228135
 20
8.3342297732
 10
17.6931609617
 20
8.378063584
 10
17.7992915972
 20
8.4311579723
  0
LINE
  5
7AD
100
AcDbEntity
  8
0
100
AcDbLine
 62
7
  6
CONTINUOUS
 10
16.141559603
 20
10.4641213605
 11
16.1215735433
 21
10.5443730495
  0
LWPOLYLINE
  5
7AE
100
AcDbEntity
  8
0
100
AcDbPolyline
 62
9
  6
CONTINUOUS
 90
14
 70
0
 10
17.9777443494
 20
11.607530752
 10
17.9918820389
 20
11.6469971454
 10
18.0006851622
 20
11.6869839735
 10
18.0040980621
 20
11.7272503946
 10
18.0020984929
 20
11.7675485254
 10
17.9946991388
 20
11.8076334833
 10
17.981934082
 20
11.8472937473
 10
17.9638691299
 20
11.8862899488
 10
17.9406877452
 20
11.9242612517
 10
17.912518903
 20
11.961047389
 10
17.8790798785
 20
11.9968883977
 10
17.8398035417
 20
12.0320002742
 10
17.7938877145
 20
12.0664798411
 10
17.7402955503
 20
12.10027497
  0
LWPOLYLINE
  5
7AF
100
AcDbEntity
  8
0
100
AcDbPolyline
 62
7
  6
CONTINUOUS
 90
3
 70
0
 10
18.0650770557
 20
10.464125984
 10
18.0255135016
 20
10.3863330926
 10
17.9671766954
 20
10.3125827337
  0
LINE
  5
7B0
100
AcDbEntity
  8
0
100
AcDbLine
 62
7
  6
CONTINUOUS
 10
17.7992915972
 20
8.8747695217
 11
17.6931609617
 21
8.8216751335
  0
LWPOLYLINE
  5
7B1
100
AcDbEntity
  8
0
100
AcDbPolyline
 62
7
  6
CONTINUOUS
 90
10
 70
0
 10
17.6931609617
 20
8.8216751335
 10
17.5750228135
 20
8.7778413226
 10
17.4472821044
 20
8.7441604193
 10
17.3125392672
 20
8.7213180694
 10
17.1735372772
 20
8.7097792775
 10
17.0331058142
 20
8.7097789399
 10
16.8941036578
 20
8.7213170636
 10
16.7593604911
 20
8.7441587657
 10
16.6316192963
 20
8.777839055
 10
16.5134805158
 20
8.8216722979
  0
LINE
  5
7B2
100
AcDbEntity
  8
0
100
AcDbLine
 62
7
  6
CONTINUOUS
 10
16.5134805158
 20
8.8216722979
 11
16.4073491146
 21
8.8747661759
  0
LWPOLYLINE
  5
7B3
100
AcDbEntity
  8
0
100
AcDbPolyline
 62
7
  6
CONTINUOUS
 90
5
 70
0
 10
16.4073491146
 20
8.8747661759
 10
16.3153856218
 20
8.9360398509
 10
16.239462149
 20
9.0042459675
 10
16.1811242791
 20
9.0779960459
 10
16.141559603
 20
9.1557887472
  0
LINE
  5
7B4
100
AcDbEntity
  8
0
100
AcDbLine
 62
7
  6
CONTINUOUS
 10
17.9671766954
 20
9.0042501205
 11
17.8912542063
 21
8.9360436388
  0
LINE
  5
7B5
100
AcDbEntity
  8
0
100
AcDbLine
 62
7
  6
CONTINUOUS
 10
17.8912542063
 20
8.9360436388
 11
17.7992915972
 21
8.8747695217
  0
LWPOLYLINE
  5
7B6
100
AcDbEntity
  8
AXIS
100
AcDbPolyline
 62
7
  6
CONTINUOUS
 90
6
 70
0
 10
17.7992915972
 20
8.8747695217
 10
17.8912542063
 20
8.9360436388
 10
17.9671766954
 20
9.0042501205
 10
18.0255135016
 20
9.0780004793
 10
18.0650770557
 20
9.1557933708
 10
18.0850619579
 20
9.2360451559
  0
LINE
  5
7B7
100
AcDbEntity
  8
02___PRT_ALL_AXES
100
AcDbLine
 62
7
  6
CONTINUOUS
 10
17.6899316315
 20
5.3421405979
 11
17.6885319072
 21
5.363731475
  0
LINE
  5
7B8
100
AcDbEntity
  8
02___PRT_ALL_AXES
100
AcDbLine
 62
7
  6
CONTINUOUS
 10
17.6899316315
 20
5.3903592446
 11
17.6885319072
 21
5.4119501217
  0
LINE
  5
7B9
100
AcDbEntity
  8
02___PRT_ALL_AXES
100
AcDbLine
 62
7
  6
CONTINUOUS
 10
17.6899316315
 20
5.4385778913
 11
17.6885319072
 21
5.4601687684
  0
LINE
  5
7BA
100
AcDbEntity
  8
02___PRT_ALL_AXES
100
AcDbLine
 62
7
  6
CONTINUOUS
 10
17.6899316315
 20
5.486796538
 11
17.6885319072
 21
5.508387415
  0
LINE
  5
7BB
100
AcDbEntity
  8
0
100
AcDbLine
 62
7
  6
CONTINUOUS
 10
18.0850619579
 20
10.5443777692
 11
18.0650770557
 21
10.464125984
  0
LWPOLYLINE
  5
7BC
100
AcDbEntity
  8
AXIS
100
AcDbPolyline
 62
7
  6
CONTINUOUS
 90
6
 70
0
 10
17.7992915972
 20
8.4311579723
 10
17.8912542063
 20
8.4924320894
 10
17.9671766954
 20
8.560638571
 10
18.0255135016
 20
8.6343889298
 10
18.0650770557
 20
8.7121818213
 10
18.0850619579
 20
8.7924336064
  0
LWPOLYLINE
  5
7BD
100
AcDbEntity
  8
0
100
AcDbPolyline
 62
9
  6
CONTINUOUS
 90
8
 70
0
 10
16.2247008346
 20
11.6177416372
 10
16.2427657867
 20
11.5787454358
 10
16.2659471714
 20
11.5407741329
 10
16.2941160136
 20
11.5039879956
 10
16.3275550381
 20
11.4681469868
 10
16.3668313749
 20
11.4330351104
 10
16.4127472021
 20
11.3985555434
 10
16.4663393663
 20
11.3647604146
  0
LINE
  5
7BE
100
AcDbEntity
  8
02___PRT_ALL_AXES
100
AcDbLine
 62
7
  6
CONTINUOUS
 10
17.6880463974
 20
5.5072692583
 11
17.6899316315
 21
5.5350151846
  0
LINE
  5
7BF
100
AcDbEntity
  8
02___PRT_ALL_AXES
100
AcDbLine
 62
7
  6
CONTINUOUS
 10
17.6880463974
 20
5.4590506116
 11
17.6899316315
 21
5.486796538
  0
LINE
  5
7C0
100
AcDbEntity
  8
02___PRT_ALL_AXES
100
AcDbLine
 62
7
  6
CONTINUOUS
 10
17.6880463974
 20
5.410831965
 11
17.6899316315
 21
5.4385778913
  0
LINE
  5
7C1
100
AcDbEntity
  8
02___PRT_ALL_AXES
100
AcDbLine
 62
7
  6
CONTINUOUS
 10
17.6880463974
 20
5.3626133183
 11
17.6899316315
 21
5.3903592446
  0
LINE
  5
7C2
100
AcDbEntity
  8
0
100
AcDbLine
 62
7
  6
CONTINUOUS
 10
18.0850619579
 20
9.2360451559
 11
18.0650770557
 21
9.1557933708
  0
LWPOLYLINE
  5
7C3
100
AcDbEntity
  8
0
100
AcDbPolyline
 62
7
  6
CONTINUOUS
 90
3
 70
0
 10
18.0650770557
 20
9.1557933708
 10
18.0255135016
 20
9.0780004793
 10
17.9671766954
 20
9.0042501205
  0
LWPOLYLINE
  5
7C4
100
AcDbEntity
  8
AXIS
100
AcDbPolyline
 62
7
  6
CONTINUOUS
 90
12
 70
0
 10
16.4073491146
 20
9.7394872397
 10
16.5134805158
 20
9.6863933617
 10
16.6316192963
 20
9.6425601188
 10
16.7593604911
 20
9.6088798295
 10
16.8941036578
 20
9.5860381274
 10
17.0331058142
 20
9.5745000037
 10
17.1735372772
 20
9.5745003413
 10
17.3125392672
 20
9.5860391332
 10
17.4472821044
 20
9.6088814831
 10
17.5750228135
 20
9.6425623865
 10
17.6931609617
 20
9.6863961973
 10
17.7992915972
 20
9.7394905855
  0
LWPOLYLINE
  5
7C5
100
AcDbEntity
  8
0
100
AcDbPolyline
 62
7
  6
CONTINUOUS
 90
7
 70
0
 10
16.4107017549
 20
9.7414228759
 10
16.3191812715
 20
9.8024013815
 10
16.2436235396
 20
9.8702789335
 10
16.1855666967
 20
9.9436737407
 10
16.1461926128
 20
10.0210916966
 10
16.1263028306
 20
10.1009567947
 10
16.1238349588
 20
10.1378068858
  0
LWPOLYLINE
  5
7C6
100
AcDbEntity
  8
AXIS
100
AcDbPolyline
 62
7
  6
CONTINUOUS
 90
3
 70
0
 10
18.0875598507
 20
7.5246371212
 10
18.0850613732
 20
7.565177977
 10
18.0833533256
 20
7.5720364428
  0
LWPOLYLINE
  5
7C7
100
AcDbEntity
  8
AXIS
100
AcDbPolyline
 62
7
  6
CONTINUOUS
 90
3
 70
0
 10
18.0875598507
 20
8.8329697345
 10
18.0850613732
 20
8.8735105903
 10
18.0833533256
 20
8.880369056
  0
LINE
  5
7C8
100
AcDbEntity
  8
0
100
AcDbLine
 62
7
  6
CONTINUOUS
 10
18.0874944569
 20
11.4566484944
 11
18.0827978183
 21
11.676328265
  0
LINE
  5
7C9
100
AcDbEntity
  8
02___PRT_ALL_AXES
100
AcDbLine
 62
7
  6
CONTINUOUS
 10
17.98914423
 20
6.1518099133
 11
17.98914423
 21
5.9719967021
  0
LINE
  5
7CA
100
AcDbEntity
  8
02___PRT_ALL_AXES
100
AcDbLine
 62
7
  6
CONTINUOUS
 10
18.0875694268
 20
6.6599160614
 11
18.0875694268
 21
6.4059645223
  0
LINE
  5
7CB
100
AcDbEntity
  8
AXIS
100
AcDbLine
 62
7
  6
CONTINUOUS
 10
18.0875694268
 20
6.6599160614
 11
18.0875694268
 21
7.5246371253
  0
LINE
  5
7CC
100
AcDbEntity
  8
AXIS
100
AcDbLine
 62
7
  6
CONTINUOUS
 10
18.0875694268
 20
7.9682486747
 11
18.0875694268
 21
8.8329697385
  0
LINE
  5
7CD
100
AcDbEntity
  8
AXIS
100
AcDbLine
 62
7
  6
CONTINUOUS
 10
18.0875694268
 20
9.276581288
 11
18.0875694268
 21
10.1413023518
  0
LINE
  5
7CE
100
AcDbEntity
  8
AXIS
100
AcDbLine
 62
7
  6
CONTINUOUS
 10
18.0875694268
 20
10.5849139013
 11
18.0875694268
 21
11.4496349651
  0
LINE
  5
7CF
100
AcDbEntity
  8
0
100
AcDbLine
 62
7
  6
CONTINUOUS
 10
18.0875506877
 20
10.5814074037
 11
18.0828094089
 21
10.1378127458
  0
LINE
  5
7D0
100
AcDbEntity
  8
0
100
AcDbLine
 62
7
  6
CONTINUOUS
 10
18.0875506877
 20
9.2730747904
 11
18.0828094089
 21
8.8294801326
  0
LINE
  5
7D1
100
AcDbEntity
  8
0
100
AcDbLine
 62
7
  6
CONTINUOUS
 10
18.0875506877
 20
7.9647421772
 11
18.0828094089
 21
7.5211475193
  0
LINE
  5
7D2
100
AcDbEntity
  8
0
100
AcDbLine
 62
7
  6
CONTINUOUS
 10
18.0850619579
 20
11.409098833
 11
18.0874851975
 21
11.4566600104
  0
LINE
  5
7D3
100
AcDbEntity
  8
AXIS
100
AcDbLine
 62
7
  6
CONTINUOUS
 10
18.0850619579
 20
10.5443777692
 11
18.0875598507
 21
10.5849138972
  0
LINE
  5
7D4
100
AcDbEntity
  8
AXIS
100
AcDbLine
 62
7
  6
CONTINUOUS
 10
18.0850619579
 20
10.1007662197
 11
18.0875598507
 21
10.1413023478
  0
LINE
  5
7D5
100
AcDbEntity
  8
AXIS
100
AcDbLine
 62
7
  6
CONTINUOUS
 10
18.0850619579
 20
9.2360451559
 11
18.0875598507
 21
9.276581284
  0
LINE
  5
7D6
100
AcDbEntity
  8
AXIS
100
AcDbLine
 62
7
  6
CONTINUOUS
 10
18.0850619579
 20
8.7924336064
 11
18.0875598507
 21
8.8329697345
  0
LINE
  5
7D7
100
AcDbEntity
  8
AXIS
100
AcDbLine
 62
7
  6
CONTINUOUS
 10
18.0850619579
 20
7.9277125426
 11
18.0875598507
 21
7.9682486707
  0
LINE
  5
7D8
100
AcDbEntity
  8
AXIS
100
AcDbLine
 62
7
  6
CONTINUOUS
 10
18.0850619579
 20
7.4841009931
 11
18.0875598507
 21
7.5246371212
  0
LINE
  5
7D9
100
AcDbEntity
  8
0
100
AcDbLine
 62
7
  6
CONTINUOUS
 10
18.0875411912
 20
10.5814015074
 11
18.0850619579
 21
10.5443777692
  0
LWPOLYLINE
  5
7DA
100
AcDbEntity
  8
0
100
AcDbPolyline
 62
7
  6
CONTINUOUS
 90
18
 70
0
 10
18.0827999581
 20
10.137806878
 10
18.0803326679
 20
10.1009614916
 10
18.0604440375
 20
10.0210962979
 10
18.0210710702
 20
9.9436781527
 10
17.9630152859
 20
9.8702830664
 10
17.8874585329
 20
9.8024051512
 10
17.795938929
 20
9.7414262056
 10
17.6903195493
 20
9.6885875853
 10
17.5727504998
 20
9.6449649321
 10
17.4456251473
 20
9.6114462774
 10
17.3115313974
 20
9.5887139644
 10
17.1731990121
 20
9.5772307575
 10
17.0334440399
 20
9.5772304216
 10
16.895111489
 20
9.5887129635
 10
16.7610174112
 20
9.6114446318
 10
16.6338915753
 20
9.6449626754
 10
16.5163218967
 20
9.6885847634
 10
16.4107017549
 20
9.7414228759
  0
LINE
  5
7DB
100
AcDbEntity
  8
0
100
AcDbLine
 62
7
  6
CONTINUOUS
 10
18.0875411912
 20
9.2730688942
 11
18.0850619579
 21
9.2360451559
  0
LWPOLYLINE
  5
7DC
100
AcDbEntity
  8
0
100
AcDbPolyline
 62
7
  6
CONTINUOUS
 90
18
 70
0
 10
18.0827999581
 20
8.8294742647
 10
18.0803326679
 20
8.7926288783
 10
18.0604440375
 20
8.7127636846
 10
18.0210710702
 20
8.6353455395
 10
17.9630152859
 20
8.5619504531
 10
17.8874585329
 20
8.4940725379
 10
17.795938929
 20
8.4330935924
 10
17.6903195493
 20
8.380254972
 10
17.5727504998
 20
8.3366323188
 10
17.4456251473
 20
8.3031136641
 10
17.3115313974
 20
8.2803813512
 10
17.1731990121
 20
8.2688981442
 10
17.0334440399
 20
8.2688978083
 10
16.895111489
 20
8.2803803502
 10
16.7610174112
 20
8.3031120186
 10
16.6338915753
 20
8.3366300621
 10
16.5163218967
 20
8.3802521501
 10
16.4107017549
 20
8.4330902627
  0
LINE
  5
7DD
100
AcDbEntity
  8
0
100
AcDbLine
 62
7
  6
CONTINUOUS
 10
18.0875411912
 20
7.9647362809
 11
18.0850619579
 21
7.9277125426
  0
LWPOLYLINE
  5
7DE
100
AcDbEntity
  8
0
100
AcDbPolyline
 62
7
  6
CONTINUOUS
 90
18
 70
0
 10
18.0827999581
 20
7.5211416514
 10
18.0803326679
 20
7.4842962651
 10
18.0604440375
 20
7.4044310713
 10
18.0210710702
 20
7.3270129262
 10
17.9630152859
 20
7.2536178399
 10
17.8874585329
 20
7.1857399246
 10
17.795938929
 20
7.1247609791
 10
17.6903195493
 20
7.0719223588
 10
17.5727504998
 20
7.0282997055
 10
17.4456251473
 20
6.9947810509
 10
17.3115313974
 20
6.9720487379
 10
17.1731990121
 20
6.960565531
 10
17.0334440399
 20
6.960565195
 10
16.895111489
 20
6.9720477369
 10
16.7610174112
 20
6.9947794053
 10
16.6338915753
 20
7.0282974488
 10
16.5163218967
 20
7.0719195368
 10
16.4107017549
 20
7.1247576494
  0
LINE
  5
7DF
100
AcDbEntity
  8
02___PRT_ALL_AXES
100
AcDbLine
 62
7
  6
CONTINUOUS
 10
17.6880463974
 20
5.3143946716
 11
17.6899316315
 21
5.3421405979
  0
LWPOLYLINE
  5
7E0
100
AcDbEntity
  8
0
100
AcDbPolyline
 62
7
  6
CONTINUOUS
 90
5
 70
0
 10
16.4073491146
 20
10.1830987892
 10
16.3153856218
 20
10.2443724642
 10
16.239462149
 20
10.3125785808
 10
16.1811242791
 20
10.3863286592
 10
16.141559603
 20
10.4641213605
  0
LWPOLYLINE
  5
7E1
100
AcDbEntity
  8
AXIS
100
AcDbPolyline
 62
7
  6
CONTINUOUS
 90
3
 70
0
 10
18.0875598507
 20
10.1413023478
 10
18.0850613732
 20
10.1818432036
 10
18.0833533256
 20
10.1887016693
  0
LINE
  5
7E2
100
AcDbEntity
  8
02___PRT_ALL_AXES
100
AcDbLine
 62
9
  6
CONTINUOUS
 10
18.0875694268
 20
6.4059645223
 11
18.0850619579
 21
6.3654283901
  0
LWPOLYLINE
  5
7E3
100
AcDbEntity
  8
02___PRT_ALL_AXES
100
AcDbPolyline
 62
9
  6
CONTINUOUS
 90
16
 70
0
 10
17.98914423
 20
5.9719967021
 10
17.9835747501
 20
5.9147373843
 10
17.9589613692
 20
5.8396322252
 10
17.9152343172
 20
5.7674838697
 10
17.8533703843
 20
5.699903993
 10
17.7747515085
 20
5.6384022178
 10
17.6811339055
 20
5.5843523921
 10
17.5746088378
 20
5.5389618998
 10
17.4575558995
 20
5.5032446893
 10
17.3325898598
 20
5.4779986243
 10
17.2025022536
 20
5.46378766
 10
17.0701990229
 20
5.4609292459
 10
16.9386356033
 20
5.4694872342
 10
16.8107509042
 20
5.4892704537
 10
16.6894016585
 20
5.51983698
 10
16.5772986078
 20
5.5605040072
  0
LWPOLYLINE
  5
7E4
100
AcDbEntity
  8
02___PRT_ALL_AXES
100
AcDbPolyline
 62
7
  6
CONTINUOUS
 90
6
 70
0
 10
17.98914423
 20
5.9719967021
 10
17.9810232708
 20
5.8916115237
 10
17.9560911492
 20
5.8113170833
 10
17.9134156268
 20
5.7325939041
 10
17.8524920458
 20
5.6575606559
 10
17.7741674077
 20
5.5889194853
  0
LWPOLYLINE
  5
7E5
100
AcDbEntity
  8
02___PRT_ALL_AXES
100
AcDbPolyline
 62
7
  6
CONTINUOUS
 90
15
 70
0
 10
18.0875694268
 20
6.4059645223
 10
18.0785368827
 20
6.3261666283
 10
18.0512317942
 20
6.2471627504
 10
18.0057797474
 20
6.1708215695
 10
17.9426295925
 20
6.098651345
 10
17.8631133975
 20
6.0324836709
 10
17.7690061466
 20
5.9737454784
 10
17.662375419
 20
5.9235494049
 10
17.5454344707
 20
5.8827343937
 10
17.4203488779
 20
5.8518960445
 10
17.2895069484
 20
5.8315125855
 10
17.1553080158
 20
5.8218814034
 10
17.020181605
 20
5.8231401408
 10
16.8866183188
 20
5.8352609893
 10
16.7570072864
 20
5.8580579511
  0
LINE
  5
7E6
100
AcDbEntity
  8
02___PRT_ALL_AXES
100
AcDbLine
 62
7
  6
CONTINUOUS
 10
18.0875694268
 20
6.6599160682
 11
18.0791495496
 21
6.5857468963
  0
LWPOLYLINE
  5
7E7
100
AcDbEntity
  8
0
100
AcDbPolyline
 62
7
  6
CONTINUOUS
 90
17
 70
0
 10
17.3056117701
 20
4.9521143314
 10
17.302401695
 20
4.9392238876
 10
17.2942120393
 20
4.9231207591
 10
17.2821363204
 20
4.9078544348
 10
17.2664203651
 20
4.8937356931
 10
17.2473841051
 20
4.8810519509
 10
17.2254150635
 20
4.8700614125
 10
17.2009604668
 20
4.8609878137
 10
17.1745181401
 20
4.8540158667
 10
17.1466263727
 20
4.8492875003
 10
17.1178529608
 20
4.8468989703
 10
17.088783648
 20
4.8468989004
 10
17.0600102016
 20
4.8492872921
 10
17.0321183661
 20
4.8540155244
 10
17.0056759388
 20
4.8609873443
 10
16.9812212112
 20
4.8700608255
 10
16.9592520111
 20
4.8810512583
  0
LINE
  5
7E8
100
AcDbEntity
  8
0
100
AcDbLine
 62
7
  6
CONTINUOUS
 10
18.0850619579
 20
7.9277125426
 11
18.0650770557
 21
7.8474607575
  0
LINE
  5
7E9
100
AcDbEntity
  8
0
100
AcDbLine
 62
7
  6
CONTINUOUS
 10
18.0650770557
 20
7.8474607575
 11
18.0255135016
 21
7.769667866
  0
LINE
  5
7EA
100
AcDbEntity
  8
0
100
AcDbLine
 62
7
  6
CONTINUOUS
 10
18.0255135016
 20
7.769667866
 11
17.9671766954
 21
7.6959175072
  0
LINE
  5
7EB
100
AcDbEntity
  8
0
100
AcDbLine
 62
7
  6
CONTINUOUS
 10
17.9671766954
 20
7.6959175072
 11
17.8912542063
 21
7.6277110256
  0
LINE
  5
7EC
100
AcDbEntity
  8
0
100
AcDbLine
 62
7
  6
CONTINUOUS
 10
17.8912542063
 20
7.6277110256
 11
17.7992915972
 21
7.5664369085
  0
LWPOLYLINE
  5
7ED
100
AcDbEntity
  8
AXIS
100
AcDbPolyline
 62
7
  6
CONTINUOUS
 90
6
 70
0
 10
17.7992915972
 20
7.5664369085
 10
17.8912542063
 20
7.6277110256
 10
17.9671766954
 20
7.6959175072
 10
18.0255135016
 20
7.769667866
 10
18.0650770557
 20
7.8474607575
 10
18.0850619579
 20
7.9277125426
  0
LWPOLYLINE
  5
7EE
100
AcDbEntity
  8
0
100
AcDbPolyline
 62
7
  6
CONTINUOUS
 90
11
 70
0
 10
17.7992915972
 20
7.5664369085
 10
17.6931609617
 20
7.5133425202
 10
17.5750228135
 20
7.4695087094
 10
17.4472821044
 20
7.435827806
 10
17.3125392672
 20
7.4129854562
 10
17.1735372772
 20
7.4014466642
 10
17.0331058142
 20
7.4014463266
 10
16.8941036578
 20
7.4129844504
 10
16.7593604911
 20
7.4358261525
 10
16.6316192963
 20
7.4695064417
 10
16.5134805158
 20
7.5133396846
  0
LINE
  5
7EF
100
AcDbEntity
  8
0
100
AcDbLine
 62
7
  6
CONTINUOUS
 10
16.5134805158
 20
10.1300049111
 11
16.4073491146
 21
10.1830987892
  0
LWPOLYLINE
  5
7F0
100
AcDbEntity
  8
02___PRT_ALL_AXES
100
AcDbPolyline
 62
9
  6
CONTINUOUS
 90
17
 70
0
 10
18.0850619579
 20
6.3654283901
 10
18.0650770557
 20
6.285176605
 10
18.0255135016
 20
6.2073837136
 10
17.9671766954
 20
6.1336333547
 10
17.8912542063
 20
6.0654268731
 10
17.7992915972
 20
6.004152756
 10
17.6931609617
 20
5.9510583677
 10
17.5750228135
 20
5.9072245569
 10
17.4472821044
 20
5.8735436536
 10
17.3125392672
 20
5.8507013037
 10
17.1735372772
 20
5.8391625117
 10
17.0331058142
 20
5.8391621742
 10
16.8941036578
 20
5.8507002979
 10
16.7593604911
 20
5.873542
 10
16.6316192963
 20
5.9072222893
 10
16.5134805158
 20
5.9510555321
 10
16.4073491146
 20
6.0041494102
  0
LINE
  5
7F1
100
AcDbEntity
  8
02___PRT_ALL_AXES
100
AcDbLine
 62
7
  6
CONTINUOUS
 10
17.673546984
 20
5.5019300601
 11
17.6814908286
 21
5.5312729848
  0
LINE
  5
7F2
100
AcDbEntity
  8
02___PRT_ALL_AXES
100
AcDbLine
 62
7
  6
CONTINUOUS
 10
17.673546984
 20
5.4959027293
 11
17.6830111472
 21
5.5308613975
  0
LINE
  5
7F3
100
AcDbEntity
  8
02___PRT_ALL_AXES
100
AcDbLine
 62
7
  6
CONTINUOUS
 10
17.673546984
 20
5.4537114134
 11
17.6880463974
 21
5.5072692583
  0
LWPOLYLINE
  5
7F4
100
AcDbEntity
  8
02___PRT_ALL_AXES
100
AcDbPolyline
 62
7
  6
CONTINUOUS
 90
3
 70
0
 10
17.673546984
 20
5.4476840826
 10
17.6880463974
 20
5.5012419275
 10
17.6899316315
 20
5.5289878538
  0
LINE
  5
7F5
100
AcDbEntity
  8
02___PRT_ALL_AXES
100
AcDbLine
 62
7
  6
CONTINUOUS
 10
17.673546984
 20
5.4054927667
 11
17.6880463974
 21
5.4590506116
  0
LWPOLYLINE
  5
7F6
100
AcDbEntity
  8
02___PRT_ALL_AXES
100
AcDbPolyline
 62
7
  6
CONTINUOUS
 90
3
 70
0
 10
17.673546984
 20
5.3994654359
 10
17.6880463974
 20
5.4530232808
 10
17.6899316315
 20
5.4807692071
  0
LINE
  5
7F7
100
AcDbEntity
  8
02___PRT_ALL_AXES
100
AcDbLine
 62
7
  6
CONTINUOUS
 10
17.673546984
 20
5.3572741201
 11
17.6880463974
 21
5.410831965
  0
LWPOLYLINE
  5
7F8
100
AcDbEntity
  8
02___PRT_ALL_AXES
100
AcDbPolyline
 62
7
  6
CONTINUOUS
 90
3
 70
0
 10
17.673546984
 20
5.3512467892
 10
17.6880463974
 20
5.4048046341
 10
17.6899316315
 20
5.4325505604
  0
LINE
  5
7F9
100
AcDbEntity
  8
02___PRT_ALL_AXES
100
AcDbLine
 62
7
  6
CONTINUOUS
 10
17.673546984
 20
5.3090554734
 11
17.6880463974
 21
5.3626133183
  0
LWPOLYLINE
  5
7FA
100
AcDbEntity
  8
02___PRT_ALL_AXES
100
AcDbPolyline
 62
7
  6
CONTINUOUS
 90
3
 70
0
 10
17.673546984
 20
5.3030281425
 10
17.6880463974
 20
5.3565859874
 10
17.6899316315
 20
5.3843319138
  0
LINE
  5
7FB
100
AcDbEntity
  8
02___PRT_ALL_AXES
100
AcDbLine
 62
7
  6
CONTINUOUS
 10
18.0791495496
 20
6.5857468963
 11
18.0540329148
 21
6.5128444204
  0
LWPOLYLINE
  5
7FC
100
AcDbEntity
  8
0
100
AcDbPolyline
 62
7
  6
CONTINUOUS
 90
4
 70
0
 10
16.8941036578
 20
10.0296496769
 10
16.7593604911
 20
10.052491379
 10
16.6316192963
 20
10.0861716683
 10
16.5134805158
 20
10.1300049111
  0
LWPOLYLINE
  5
7FD
100
AcDbEntity
  8
0
100
AcDbPolyline
 62
7
  6
CONTINUOUS
 90
7
 70
0
 10
18.0827978183
 20
11.6763282649
 10
18.0730973813
 20
11.7540964231
 10
18.0470145798
 20
11.8312942538
 10
18.0040658838
 20
11.9067596534
 10
17.9443350328
 20
11.9786838087
 10
17.8689176363
 20
12.0450392275
 10
17.7796649611
 20
12.1041748034
  0
LWPOLYLINE
  5
7FE
100
AcDbEntity
  8
0
100
AcDbPolyline
 62
7
  6
CONTINUOUS
 90
11
 70
0
 10
17.6440122981
 20
5.201970295
 10
17.62569958
 20
5.1565275591
 10
17.5893508925
 20
5.1051432873
 10
17.5389639244
 20
5.0579899523
 10
17.4763271524
 20
5.0169039516
 10
17.4036241777
 20
4.9830606634
 10
17.3230793051
 20
4.9571777138
 10
17.2369501857
 20
4.9397245234
 10
17.1474755927
 20
4.9309845857
 10
17.0569306375
 20
4.9310939447
 10
16.9676005816
 20
4.9400374763
  0
LWPOLYLINE
  5
7FF
100
AcDbEntity
  8
AXIS
100
AcDbPolyline
 62
7
  6
CONTINUOUS
 90
6
 70
0
 10
17.7992915972
 20
7.122825359
 10
17.8912542063
 20
7.1840994761
 10
17.9671766954
 20
7.2523059577
 10
18.0255135016
 20
7.3260563166
 10
18.0650770557
 20
7.403849208
 10
18.0850619579
 20
7.4841009931
  0
LINE
  5
800
100
AcDbEntity
  8
02___PRT_ALL_AXES
100
AcDbLine
 62
7
  6
CONTINUOUS
 10
17.6475830019
 20
5.4961454021
 11
17.6599126446
 21
5.5192876703
  0
LINE
  5
801
100
AcDbEntity
  8
02___PRT_ALL_AXES
100
AcDbLine
 62
7
  6
CONTINUOUS
 10
17.6450722673
 20
5.4442929366
 11
17.673546984
 21
5.4959027293
  0
LINE
  5
802
100
AcDbEntity
  8
02___PRT_ALL_AXES
100
AcDbLine
 62
7
  6
CONTINUOUS
 10
17.6450722673
 20
5.3960742899
 11
17.673546984
 21
5.4476840826
  0
LINE
  5
803
100
AcDbEntity
  8
02___PRT_ALL_AXES
100
AcDbLine
 62
7
  6
CONTINUOUS
 10
17.6450722673
 20
5.3478556432
 11
17.673546984
 21
5.3994654359
  0
LINE
  5
804
100
AcDbEntity
  8
02___PRT_ALL_AXES
100
AcDbLine
 62
7
  6
CONTINUOUS
 10
17.6450722673
 20
5.2574456807
 11
17.673546984
 21
5.3090554734
  0
LINE
  5
805
100
AcDbEntity
  8
02___PRT_ALL_AXES
100
AcDbLine
 62
7
  6
CONTINUOUS
 10
17.6450722673
 20
5.2514183499
 11
17.673546984
 21
5.3030281425
  0
LINE
  5
806
100
AcDbEntity
  8
02___PRT_ALL_AXES
100
AcDbLine
 62
7
  6
CONTINUOUS
 10
18.0540329148
 20
6.5128444204
 11
18.012649275
 21
6.4424583809
  0
LINE
  5
807
100
AcDbEntity
  8
02___PRT_ALL_AXES
100
AcDbLine
 62
7
  6
CONTINUOUS
 10
18.012649275
 20
6.4424583809
 11
17.9557067157
 21
6.3757931027
  0
LWPOLYLINE
  5
808
100
AcDbEntity
  8
0
100
AcDbPolyline
 62
7
  6
CONTINUOUS
 90
17
 70
0
 10
16.4073491146
 20
11.047819853
 10
16.5134805158
 20
10.9947259749
 10
16.6316192963
 20
10.9508927321
 10
16.7593604911
 20
10.9172124428
 10
16.8941036578
 20
10.8943707407
 10
17.0331058142
 20
10.882832617
 10
17.1735372772
 20
10.8828329546
 10
17.3125392672
 20
10.8943717465
 10
17.4472821044
 20
10.9172140964
 10
17.5750228135
 20
10.9508949997
 10
17.6931609617
 20
10.9947288105
 10
17.7992915972
 20
11.0478231988
 10
17.8912542063
 20
11.1090973159
 10
17.9671766954
 20
11.1773037975
 10
18.0255135016
 20
11.2510541564
 10
18.0650770557
 20
11.3288470478
 10
18.0850619579
 20
11.409098833
  0
LWPOLYLINE
  5
809
100
AcDbEntity
  8
AXIS
100
AcDbPolyline
 62
7
  6
CONTINUOUS
 90
12
 70
0
 10
16.4073491146
 20
11.047819853
 10
16.5134805158
 20
10.9947259749
 10
16.6316192963
 20
10.9508927321
 10
16.7593604911
 20
10.9172124428
 10
16.8941036578
 20
10.8943707407
 10
17.0331058142
 20
10.882832617
 10
17.1735372772
 20
10.8828329546
 10
17.3125392672
 20
10.8943717465
 10
17.4472821044
 20
10.9172140964
 10
17.5750228135
 20
10.9508949997
 10
17.6931609617
 20
10.9947288105
 10
17.7992915972
 20
11.0478231988
  0
LWPOLYLINE
  5
80A
100
AcDbEntity
  8
0
100
AcDbPolyline
 62
9
  6
CONTINUOUS
 90
19
 70
0
 10
16.4106703787
 20
11.2694506145
 10
16.4744118388
 20
11.235762558
 10
16.5394299745
 20
11.2069124421
 10
16.6056287675
 20
11.1822433028
 10
16.6731852032
 20
11.1612497759
 10
16.7425018464
 20
11.1435737525
 10
16.8140392443
 20
11.1290331686
 10
16.8875051665
 20
11.1177061428
 10
16.9622176968
 20
11.1097078637
 10
17.0377252623
 20
11.1050792694
 10
17.1136325288
 20
11.1038413201
 10
17.1894778082
 20
11.1060019188
 10
17.2647936144
 20
11.1115469546
 10
17.3391282454
 20
11.1204416037
 10
17.4120373108
 20
11.1326312449
 10
17.4830839721
 20
11.1480415049
 10
17.5518456857
 20
11.1665796401
 10
17.6179149054
 20
11.1881353113
 10
17.6808971768
 20
11.2125799504
  0
LWPOLYLINE
  5
80B
100
AcDbEntity
  8
02___PRT_ALL_AXES
100
AcDbPolyline
 62
7
  6
CONTINUOUS
 90
3
 70
0
 10
17.9557067157
 20
6.3757931027
 10
17.8841795398
 20
6.3139892471
 10
17.7992915972
 20
6.2581042952
  0
LWPOLYLINE
  5
80C
100
AcDbEntity
  8
AXIS
100
AcDbPolyline
 62
7
  6
CONTINUOUS
 90
7
 70
0
 10
17.7992915972
 20
6.2581042952
 10
17.8912542063
 20
6.3193784123
 10
17.9671766954
 20
6.3875848939
 10
18.0255135016
 20
6.4613352528
 10
18.0650770557
 20
6.5391281442
 10
18.0850619579
 20
6.6193799293
 10
18.0875598507
 20
6.6599160574
  0
LWPOLYLINE
  5
80D
100
AcDbEntity
  8
0
100
AcDbPolyline
 62
9
  6
CONTINUOUS
 90
27
 70
0
 10
16.4663393663
 20
11.3647604146
 10
16.5249480805
 20
11.3337846122
 10
16.5847413799
 20
11.3072521874
 10
16.6456203096
 20
11.2845649241
 10
16.7077476673
 20
11.2652580416
 10
16.7714936534
 20
11.2490021488
 10
16.8372818944
 20
11.235629766
 10
16.9048437486
 20
11.2252127066
 10
16.9735521047
 20
11.2178569084
 10
17.0429916484
 20
11.2136000257
 10
17.1127988089
 20
11.2124613363
 10
17.1825489969
 20
11.2144481098
 10
17.2518122855
 20
11.2195473712
 10
17.3201732638
 20
11.2277270959
 10
17.3872232447
 20
11.2389370526
 10
17.4525604866
 20
11.2531088448
 10
17.515796394
 20
11.2701571811
 10
17.576556163
 20
11.2899805878
 10
17.6344770245
 20
11.3124608245
 10
17.6892110147
 20
11.3374631434
 10
17.7404284581
 20
11.3648371634
 10
17.7878210093
 20
11.3944180919
 10
17.8311051078
 20
11.4260289674
 10
17.8700214515
 20
11.4594807426
 10
17.9043354311
 20
11.4945721202
 10
17.9338403468
 20
11.5310917868
 10
17.9583586443
 20
11.5688195903
  0
LWPOLYLINE
  5
80E
100
AcDbEntity
  8
02___PRT_ALL_AXES
100
AcDbPolyline
 62
7
  6
CONTINUOUS
 90
13
 70
0
 10
17.7992915972
 20
6.2581042952
 10
17.7024953442
 20
6.209094454
 10
17.5954469914
 20
6.1677982955
 10
17.4799781658
 20
6.1349224084
 10
17.3580645711
 20
6.1110293083
 10
17.2317921827
 20
6.0965278127
 10
17.1033215561
 20
6.0916660462
 10
16.9748508594
 20
6.0965271951
 10
16.8485782619
 20
6.1110280836
 10
16.7266643226
 20
6.1349205977
 10
16.6111950229
 20
6.1677959296
 10
16.5041460745
 20
6.2090915735
 10
16.4073491146
 20
6.2581009494
  0
LWPOLYLINE
  5
80F
100
AcDbEntity
  8
0
100
AcDbPolyline
 62
7
  6
CONTINUOUS
 90
10
 70
0
 10
17.3055029009
 20
4.9536160342
 10
17.2942126483
 20
4.9425555067
 10
17.2701196858
 20
4.925513942
 10
17.2421154557
 20
4.9109301356
 10
17.2107442273
 20
4.8990255326
 10
17.1764936146
 20
4.8900112329
 10
17.1399780697
 20
4.8841407835
 10
17.1025306937
 20
4.8816748334
 10
17.065566966
 20
4.8826227743
 10
17.0297228398
 20
4.8868578839
  0
LWPOLYLINE
  5
810
100
AcDbEntity
  8
02___PRT_ALL_AXES
100
AcDbPolyline
 62
9
  6
CONTINUOUS
 90
8
 70
0
 10
17.5665971839
 20
5.8901206548
 10
17.4575558995
 20
5.8568480983
 10
17.3325898598
 20
5.8316020333
 10
17.2025022536
 20
5.817391069
 10
17.0701990229
 20
5.8145326549
 10
16.9386356033
 20
5.8230906432
 10
16.8107509042
 20
5.8428738627
 10
16.6894016585
 20
5.873440389
  0
LWPOLYLINE
  5
811
100
AcDbEntity
  8
02___PRT_ALL_AXES
100
AcDbPolyline
 62
7
  6
CONTINUOUS
 90
9
 70
0
 10
17.7741674077
 20
5.5889194853
 10
17.6803085817
 20
5.5288424906
 10
17.5747457308
 20
5.4793897949
 10
17.4606204493
 20
5.4411600145
 10
17.3403540666
 20
5.414207244
 10
17.2160938661
 20
5.3985126083
 10
17.0902216477
 20
5.3940718081
 10
16.9647088251
 20
5.4008263381
 10
16.8416802149
 20
5.4187278554
  0
LWPOLYLINE
  5
812
100
AcDbEntity
  8
02___PRT_ALL_AXES
100
AcDbPolyline
 62
7
  6
CONTINUOUS
 90
4
 70
0
 10
17.4280484832
 20
5.3849663184
 10
17.4039545442
 20
5.3738129
 10
17.3276169559
 20
5.3486384141
 10
17.2459758415
 20
5.330733806
  0
LWPOLYLINE
  5
813
100
AcDbEntity
  8
02___PRT_ALL_AXES
100
AcDbPolyline
 62
7
  6
CONTINUOUS
 90
5
 70
0
 10
17.4101009151
 20
5.3771414711
 10
17.484376893
 20
5.4095245876
 10
17.5493137875
 20
5.4482183366
 10
17.6033201117
 20
5.4923038785
 10
17.6040028947
 20
5.4930958062
  0
LWPOLYLINE
  5
814
100
AcDbEntity
  8
02___PRT_ALL_AXES
100
AcDbPolyline
 62
7
  6
CONTINUOUS
 90
3
 70
0
 10
17.4130094553
 20
5.330399737
 10
17.3875101108
 20
5.3193808663
 10
17.3079851064
 20
5.2953340123
  0
LWPOLYLINE
  5
815
100
AcDbEntity
  8
02___PRT_ALL_AXES
100
AcDbPolyline
 62
7
  6
CONTINUOUS
 90
7
 70
0
 10
17.4307979455
 20
5.434476525
 10
17.3866259324
 20
5.4154972657
 10
17.3070844984
 20
5.3915503944
 10
17.2209299341
 20
5.3750791397
 10
17.131194396
 20
5.366895452
 10
17.0415165144
 20
5.3672442449
 10
16.9543862372
 20
5.3758369574
  0
LWPOLYLINE
  5
816
100
AcDbEntity
  8
0
100
AcDbPolyline
 62
7
  6
CONTINUOUS
 90
4
 70
0
 10
17.2571195505
 20
4.9099784956
 10
17.2706993964
 20
4.9185511066
 10
17.2920890718
 20
4.9360489166
 10
17.3054507245
 20
4.9519558211
  0
LWPOLYLINE
  5
817
100
AcDbEntity
  8
0
100
AcDbPolyline
 62
7
  6
CONTINUOUS
 90
3
 70
0
 10
17.2571195505
 20
4.9099784956
 10
17.2439093253
 20
4.9028997652
 10
17.2150926324
 20
4.8909084882
  0
LWPOLYLINE
  5
818
100
AcDbEntity
  8
02___PRT_ALL_AXES
100
AcDbPolyline
 62
7
  6
CONTINUOUS
 90
7
 70
0
 10
17.4086141079
 20
5.1355882009
 10
17.3884536186
 20
5.1268501597
 10
17.3088671325
 20
5.1026768167
 10
17.2226621113
 20
5.0860120666
 10
17.1327978072
 20
5.0776541585
 10
17.04290602
 20
5.0778623422
 10
16.9558454853
 20
5.0863109828
  0
LWPOLYLINE
  5
819
100
AcDbEntity
  8
02___PRT_ALL_AXES
100
AcDbPolyline
 62
7
  6
CONTINUOUS
 90
7
 70
0
 10
17.4081675378
 20
5.2318873198
 10
17.3870653141
 20
5.2227819789
 10
17.3076994212
 20
5.198826527
 10
17.2225765169
 20
5.1824371833
 10
17.1335526591
 20
5.1741256199
 10
17.0441295062
 20
5.1742396798
 10
16.9567447066
 20
5.1826175803
  0
LWPOLYLINE
  5
81A
100
AcDbEntity
  8
02___PRT_ALL_AXES
100
AcDbPolyline
 62
7
  6
CONTINUOUS
 90
7
 70
0
 10
17.4082202586
 20
5.0872476922
 10
17.3871667605
 20
5.0781628649
 10
17.3076315593
 20
5.0541539293
 10
17.2215880512
 20
5.0376412246
 10
17.1319468809
 20
5.0293977145
 10
17.0423403095
 20
5.0296719559
 10
16.9551610612
 20
5.038192443
  0
LWPOLYLINE
  5
81B
100
AcDbEntity
  8
02___PRT_ALL_AXES
100
AcDbPolyline
 62
7
  6
CONTINUOUS
 90
7
 70
0
 10
17.4508010152
 20
5.2984487584
 10
17.3872879517
 20
5.2710814679
 10
17.3076721707
 20
5.2470384839
 10
17.2214357077
 20
5.2304943297
 10
17.1315904788
 20
5.2222566968
 10
17.0417770969
 20
5.2225750166
 10
16.9546371761
 20
5.231144024
  0
LWPOLYLINE
  5
81C
100
AcDbEntity
  8
02___PRT_ALL_AXES
100
AcDbPolyline
 62
7
  6
CONTINUOUS
 90
7
 70
0
 10
17.4512663631
 20
5.2022143492
 10
17.386156378
 20
5.1742341517
 10
17.3065633536
 20
5.1503298171
 10
17.2212158493
 20
5.1340260808
 10
17.1331520966
 20
5.1258887672
 10
17.0446534649
 20
5.1259958437
 10
16.9573452364
 20
5.1343121738
  0
LWPOLYLINE
  5
81D
100
AcDbEntity
  8
02___PRT_ALL_AXES
100
AcDbPolyline
 62
7
  6
CONTINUOUS
 90
5
 70
0
 10
17.3283062246
 20
5.3578604957
 10
17.4101009151
 20
5.3831688019
 10
17.484376893
 20
5.4155519184
 10
17.5493137875
 20
5.4542456675
 10
17.5873492038
 20
5.4852941042
  0
LINE
  5
81E
100
AcDbEntity
  8
02___PRT_ALL_AXES
100
AcDbLine
 62
7
  6
CONTINUOUS
 10
17.3283062246
 20
5.3518331649
 11
17.4101009151
 21
5.3771414711
  0
LINE
  5
81F
100
AcDbEntity
  8
0
100
AcDbLine
 62
7
  6
CONTINUOUS
 10
17.2150926324
 20
4.8909084882
 11
17.2447884238
 21
4.903371721
  0
LWPOLYLINE
  5
820
100
AcDbEntity
  8
0
100
AcDbPolyline
 62
7
  6
CONTINUOUS
 90
10
 70
0
 10
17.2320421235
 20
4.9392451007
 10
17.2103778627
 20
4.9310546157
 10
17.1762791109
 20
4.9221118289
 10
17.1399469978
 20
4.9162830497
 10
17.1026937704
 20
4.9138238487
 10
17.0659157496
 20
4.9147437452
 10
17.0300973975
 20
4.918941482
 10
16.9957472155
 20
4.9263792839
 10
16.9641360135
 20
4.9368001901
 10
16.9489690452
 20
4.9438594598
  0
LWPOLYLINE
  5
821
100
AcDbEntity
  8
0
100
AcDbPolyline
 62
7
  6
CONTINUOUS
 90
18
 70
0
 10
17.7796649611
 20
12.1041748034
 10
17.6756121938
 20
12.1563300237
 10
17.5612108813
 20
12.1990003222
 10
17.4386823435
 20
12.2316320851
 10
17.3103322304
 20
12.2538233144
 10
17.1785766309
 20
12.2653210096
 10
17.0455609358
 20
12.2660329537
 10
16.9136277368
 20
12.2559660653
 10
16.7850144752
 20
12.2352492964
 10
16.6618926287
 20
12.2041087415
 10
16.5466610491
 20
12.1629704092
 10
16.4413135368
 20
12.1122885057
 10
16.3480735016
 20
12.0527901699
 10
16.2693718375
 20
11.9858095933
 10
16.2068752953
 20
11.9128632115
 10
16.1617380529
 20
11.835928913
 10
16.1340956754
 20
11.7564956942
 10
16.1238370983
 20
11.6763282648
  0
LWPOLYLINE
  5
822
100
AcDbEntity
  8
0
100
AcDbPolyline
 62
9
  6
CONTINUOUS
 90
34
 70
0
 10
17.7402955503
 20
12.10027497
 10
17.6816868361
 20
12.1312507724
 10
17.6218935367
 20
12.1577831971
 10
17.561014607
 20
12.1804704604
 10
17.4988872493
 20
12.1997773429
 10
17.4351412632
 20
12.2160332358
 10
17.3693530222
 20
12.2294056186
 10
17.301791168
 20
12.2398226779
 10
17.2330828119
 20
12.2471784761
 10
17.1636432682
 20
12.2514353588
 10
17.0938361077
 20
12.2525740483
 10
17.0240859197
 20
12.2505872747
 10
16.9548226311
 20
12.2454880134
 10
16.8864616528
 20
12.2373082887
 10
16.8194116719
 20
12.226098332
 10
16.75407443
 20
12.2119265398
 10
16.6908385226
 20
12.1948782035
 10
16.6300787536
 20
12.1750547967
 10
16.5721578921
 20
12.1525745601
 10
16.5174239019
 20
12.1275722412
 10
16.4662064584
 20
12.1001982212
 10
16.4188139073
 20
12.0706172926
 10
16.3755298088
 20
12.0390064171
 10
16.3366134651
 20
12.0055546419
 10
16.3022994855
 20
11.9704632643
 10
16.2727945698
 20
11.9339435977
 10
16.2482762723
 20
11.8962157942
 10
16.2288905672
 20
11.8575046325
 10
16.2147528777
 20
11.8180382392
 10
16.2059497544
 20
11.778051411
 10
16.2025368545
 20
11.7377849899
 10
16.2045364237
 20
11.6974868591
 10
16.2119357778
 20
11.6574019013
 10
16.2247008346
 20
11.6177416372
  0
LINE
  5
823
100
AcDbEntity
  8
02___PRT_ALL_AXES
100
AcDbLine
 62
7
  6
CONTINUOUS
 10
5.5577009188
 20
4.5716102771
 11
5.6394187463
 21
4.6135133489
  0
LINE
  5
824
100
AcDbEntity
  8
0
100
AcDbLine
 62
9
  6
CONTINUOUS
 10
5.7580334416
 20
3.4914661048
 11
5.972771869
 21
3.4914661048
  0
LINE
  5
825
100
AcDbEntity
  8
02___PRT_ALL_AXES
100
AcDbLine
 62
7
  6
CONTINUOUS
 10
5.6394187463
 20
3.5308361835
 11
5.5577009188
 21
3.5727392553
  0
LWPOLYLINE
  5
826
100
AcDbEntity
  8
02___PRT_ALL_AXES
100
AcDbPolyline
 62
7
  6
CONTINUOUS
 90
14
 70
0
 10
5.5577009188
 20
3.5727392553
 10
5.4835243091
 20
3.6268825959
 10
5.4187068529
 20
3.6919392492
 10
5.36483711
 20
3.7663147932
 10
5.323235331
 20
3.8481864168
 10
5.294921101
 20
3.9355475932
 10
5.280588351
 20
4.0262572566
 10
5.280588351
 20
4.1180922758
 10
5.294921101
 20
4.2088019392
 10
5.323235331
 20
4.2961631156
 10
5.36483711
 20
4.3780347391
 10
5.4187068529
 20
4.4524102832
 10
5.4835243091
 20
4.5174669365
 10
5.5577009188
 20
4.5716102771
  0
LINE
  5
827
100
AcDbEntity
  8
02___PRT_ALL_AXES
100
AcDbLine
 62
7
  6
CONTINUOUS
 10
5.6394187463
 20
3.5308361835
 11
5.7617052759
 21
3.5308361835
  0
LINE
  5
828
100
AcDbEntity
  8
0
100
AcDbLine
 62
7
  6
CONTINUOUS
 10
5.7617052759
 20
3.5308361835
 11
5.9691000348
 21
3.5308361835
  0
LINE
  5
829
100
AcDbEntity
  8
02___PRT_ALL_AXES
100
AcDbLine
 62
7
  6
CONTINUOUS
 10
5.9691000348
 20
3.5308361835
 11
6.0913865643
 21
3.5308361835
  0
LINE
  5
82A
100
AcDbEntity
  8
0
100
AcDbLine
 62
9
  6
CONTINUOUS
 10
5.7655119903
 20
3.5702062623
 11
5.9652933203
 21
3.5702062623
  0
LWPOLYLINE
  5
82B
100
AcDbEntity
  8
0
100
AcDbPolyline
 62
7
  6
CONTINUOUS
 90
22
 70
0
 10
5.8654026553
 20
3.6922535063
 10
5.8198334165
 20
3.6926264879
 10
5.7744492749
 20
3.6984615038
 10
5.7300732679
 20
3.7096543113
 10
5.6875986466
 20
3.7258940239
 10
5.6469207582
 20
3.7472167852
 10
5.6072344115
 20
3.7745545595
 10
5.5684114725
 20
3.8093499538
 10
5.5310598067
 20
3.8535995271
 10
5.4977948855
 20
3.9080492107
 10
5.4725855748
 20
3.9701597316
 10
5.4578213873
 20
4.0365584407
 10
5.4542934241
 20
4.1050614445
 10
5.4622418995
 20
4.1735017509
 10
5.4815850734
 20
4.2401742184
 10
5.5120165295
 20
4.3032977277
 10
5.5522023607
 20
4.3601817746
 10
5.6007374328
 20
4.4093940484
 10
5.6567696804
 20
4.4502867191
 10
5.718592548
 20
4.4816541158
 10
5.7851366458
 20
4.5029126099
 10
5.8544875223
 20
4.5133328946
  0
LWPOLYLINE
  5
82C
100
AcDbEntity
  8
0
100
AcDbPolyline
 62
7
  6
CONTINUOUS
 90
12
 70
0
 10
5.6425811002
 20
4.019114855
 10
5.6362455544
 20
4.0563051034
 10
5.6360901166
 20
4.0941122602
 10
5.6421410111
 20
4.1315130886
 10
5.654255934
 20
4.1674941808
 10
5.6721294866
 20
4.2010808612
 10
5.6952998074
 20
4.2313587017
 10
5.7231620141
 20
4.2575013637
 10
5.754983528
 20
4.2787914286
 10
5.7899253147
 20
4.2946407854
 10
5.8270602507
 20
4.3046045078
 10
5.8654020487
 20
4.3083952767
  0
LINE
  5
82D
100
AcDbEntity
  8
AXIS_COSMETIC_THREADS
100
AcDbLine
 62
7
  6
CONTINUOUS
 10
5.766574739
 20
4.1375960629
 11
5.7999813586
 21
4.1710026825
  0
LINE
  5
82E
100
AcDbEntity
  8
0
100
AcDbLine
 62
7
  6
CONTINUOUS
 10
5.7655119903
 20
4.5741432701
 11
5.7615216954
 21
4.6154492012
  0
LWPOLYLINE
  5
82F
100
AcDbEntity
  8
0
100
AcDbPolyline
 62
7
  6
CONTINUOUS
 90
3
 70
0
 10
5.7615216954
 20
4.6154492012
 10
5.7591520942
 20
4.6407439381
 10
5.7580334416
 20
4.6528834276
  0
LINE
  5
830
100
AcDbEntity
  8
0
100
AcDbLine
 62
7
  6
CONTINUOUS
 10
5.7580334416
 20
3.4914661048
 11
5.7618892931
 21
3.532773205
  0
LWPOLYLINE
  5
831
100
AcDbEntity
  8
0
100
AcDbPolyline
 62
7
  6
CONTINUOUS
 90
3
 70
0
 10
5.7618892931
 20
3.532773205
 10
5.7643234811
 20
3.5580724533
 10
5.7655119903
 20
3.5702062623
  0
LINE
  5
832
100
AcDbEntity
  8
AXIS_COSMETIC_THREADS
100
AcDbLine
 62
7
  6
CONTINUOUS
 10
5.7343819643
 20
4.1697888376
 11
5.766574739
 21
4.1375960629
  0
LINE
  5
833
100
AcDbEntity
  8
0
100
AcDbLine
 62
7
  6
CONTINUOUS
 10
5.9698136817
 20
3.5232915745
 11
5.9652933203
 21
3.5702062623
  0
LINE
  5
834
100
AcDbEntity
  8
0
100
AcDbLine
 62
7
  6
CONTINUOUS
 10
5.972771869
 20
3.4914661048
 11
5.9698136817
 21
3.5232915745
  0
LINE
  5
835
100
AcDbEntity
  8
0
100
AcDbLine
 62
7
  6
CONTINUOUS
 10
5.972771869
 20
4.6528834276
 11
5.9689160176
 21
4.6115763274
  0
LWPOLYLINE
  5
836
100
AcDbEntity
  8
0
100
AcDbPolyline
 62
7
  6
CONTINUOUS
 90
3
 70
0
 10
5.9689160176
 20
4.6115763274
 10
5.9664818295
 20
4.586277079
 10
5.9652933203
 20
4.5741432701
  0
LINE
  5
837
100
AcDbEntity
  8
AXIS_COSMETIC_THREADS
100
AcDbLine
 62
7
  6
CONTINUOUS
 10
5.7999813586
 20
4.1710026825
 11
5.767889318
 21
4.2030947231
  0
LWPOLYLINE
  5
838
100
AcDbEntity
  8
0
100
AcDbPolyline
 62
7
  6
CONTINUOUS
 90
16
 70
0
 10
6.0651768123
 20
3.9819946954
 10
6.0480241103
 20
3.9497743904
 10
6.0257198933
 20
3.9207753643
 10
5.9988632666
 20
3.8958136195
 10
5.9681797925
 20
3.8755937742
 10
5.9345006164
 20
3.8606905062
 10
5.8987436681
 20
3.8515347027
 10
5.8618844553
 20
3.848399268
 10
5.8249293691
 20
3.8513929253
 10
5.788892748
 20
3.8604568923
 10
5.754766723
 20
3.8753650198
 10
5.7234929074
 20
3.8957298617
 10
5.6959342883
 20
3.9210155981
 10
5.672856058
 20
3.9505502905
 10
5.6549028291
 20
3.9835448956
 10
5.6425811002
 20
4.019114855
  0
LWPOLYLINE
  5
839
100
AcDbEntity
  8
0
100
AcDbPolyline
 62
7
  6
CONTINUOUS
 90
8
 70
0
 10
5.8674647722
 20
4.2775900024
 10
5.8371149762
 20
4.2772551744
 10
5.8069342099
 20
4.2724313992
 10
5.7777074299
 20
4.2632133169
 10
5.7499144899
 20
4.2497108887
 10
5.7242934831
 20
4.2322302297
 10
5.7013592927
 20
4.2110853722
 10
5.6816154526
 20
4.1866731859
  0
LINE
  5
83A
100
AcDbEntity
  8
0
100
AcDbLine
 62
7
  6
CONTINUOUS
 10
5.8972851183
 20
4.2734729682
 11
5.8674647722
 21
4.2775900024
  0
LWPOLYLINE
  5
83B
100
AcDbEntity
  8
0
100
AcDbPolyline
 62
7
  6
CONTINUOUS
 90
10
 70
0
 10
5.9383960653
 20
4.2968346729
 10
5.9045474817
 20
4.3029324515
 10
5.8704072291
 20
4.3040038646
 10
5.8367063885
 20
4.3000814542
 10
5.8041804254
 20
4.2913072929
 10
5.7735254206
 20
4.2779301896
 10
5.7453909601
 20
4.2602988527
 10
5.72036543
 20
4.2388533197
 10
5.6989633886
 20
4.2141144628
 10
5.6816154526
 20
4.1866731859
  0
LWPOLYLINE
  5
83C
100
AcDbEntity
  8
0
100
AcDbPolyline
 62
7
  6
CONTINUOUS
 90
10
 70
0
 10
6.0755766296
 20
4.1242758653
 10
6.064787097
 20
4.1526421764
 10
6.0502151194
 20
4.179036303
 10
6.0325856795
 20
4.2025125446
 10
6.0131904879
 20
4.2221675906
 10
5.99253581
 20
4.2383294366
 10
5.9706827237
 20
4.2514333526
 10
5.9473772911
 20
4.2617657698
 10
5.9227526503
 20
4.2691967736
 10
5.8972851183
 20
4.2734729682
  0
LWPOLYLINE
  5
83D
100
AcDbEntity
  8
0
100
AcDbPolyline
 62
7
  6
CONTINUOUS
 90
5
 70
0
 10
6.0755766296
 20
4.1242758653
 10
6.0819735811
 20
4.0886765043
 10
6.0823671157
 20
4.0524262407
 10
6.076723569
 20
4.016532952
 10
6.0651768123
 20
3.9819946954
  0
LWPOLYLINE
  5
83E
100
AcDbEntity
  8
0
100
AcDbPolyline
 62
7
  6
CONTINUOUS
 90
19
 70
0
 10
5.8544875223
 20
4.5133328946
 10
5.9287910384
 20
4.5055090967
 10
6.0001445928
 20
4.4853586625
 10
6.066850894
 20
4.4534655166
 10
6.1266254718
 20
4.4110551524
 10
6.178306857
 20
4.3590189125
 10
6.2199058989
 20
4.2994507889
 10
6.2504485876
 20
4.2341195822
 10
6.2692738561
 20
4.1645687193
 10
6.2757470682
 20
4.0936837813
 10
6.2699088069
 20
4.0229386227
 10
6.2520020789
 20
3.9546579944
 10
6.2228717328
 20
3.8912417898
 10
6.1831426692
 20
3.8338215719
 10
6.1345093645
 20
3.7847190071
 10
6.0785288182
 20
3.745177255
 10
6.0166131051
 20
3.7160966018
 10
5.9513957977
 20
3.6985415681
 10
5.8841911749
 20
3.6927183718
  0
LINE
  5
83F
100
AcDbEntity
  8
0
100
AcDbLine
 62
9
  6
CONTINUOUS
 10
5.9652933203
 20
4.5741432701
 11
5.7655119903
 21
4.5741432701
  0
LINE
  5
840
100
AcDbEntity
  8
02___PRT_ALL_AXES
100
AcDbLine
 62
7
  6
CONTINUOUS
 10
6.0913865643
 20
4.6135133489
 11
5.9691000348
 21
4.6135133489
  0
LINE
  5
841
100
AcDbEntity
  8
0
100
AcDbLine
 62
7
  6
CONTINUOUS
 10
5.9691000348
 20
4.6135133489
 11
5.7617052759
 21
4.6135133489
  0
LINE
  5
842
100
AcDbEntity
  8
02___PRT_ALL_AXES
100
AcDbLine
 62
7
  6
CONTINUOUS
 10
5.7617052759
 20
4.6135133489
 11
5.6394187463
 21
4.6135133489
  0
LWPOLYLINE
  5
843
100
AcDbEntity
  8
02___PRT_ALL_AXES
100
AcDbPolyline
 62
7
  6
CONTINUOUS
 90
3
 70
0
 10
6.4502169596
 20
4.1180922758
 10
6.4502169596
 20
4.0262572566
 10
6.4358842096
 20
3.9355475932
  0
LINE
  5
844
100
AcDbEntity
  8
02___PRT_ALL_AXES
100
AcDbLine
 62
7
  6
CONTINUOUS
 10
6.4358842096
 20
3.9355475932
 11
6.4075699796
 21
3.8481864168
  0
LWPOLYLINE
  5
845
100
AcDbEntity
  8
02___PRT_ALL_AXES
100
AcDbPolyline
 62
7
  6
CONTINUOUS
 90
6
 70
0
 10
6.4075699796
 20
3.8481864168
 10
6.3659682006
 20
3.7663147932
 10
6.3120984577
 20
3.6919392492
 10
6.2472810015
 20
3.6268825959
 10
6.1731043919
 20
3.5727392553
 10
6.0913865643
 20
3.5308361835
  0
LINE
  5
846
100
AcDbEntity
  8
0
100
AcDbLine
 62
9
  6
CONTINUOUS
 10
5.972771869
 20
4.6528834276
 11
5.7580334416
 21
4.6528834276
  0
LINE
  5
847
100
AcDbEntity
  8
02___PRT_ALL_AXES
100
AcDbLine
 62
7
  6
CONTINUOUS
 10
6.0913865643
 20
4.6135133489
 11
6.1731043919
 21
4.5716102771
  0
LINE
  5
848
100
AcDbEntity
  8
02___PRT_ALL_AXES
100
AcDbLine
 62
7
  6
CONTINUOUS
 10
6.1731043919
 20
4.5716102771
 11
6.2472810015
 21
4.5174669365
  0
LWPOLYLINE
  5
849
100
AcDbEntity
  8
02___PRT_ALL_AXES
100
AcDbPolyline
 62
7
  6
CONTINUOUS
 90
3
 70
0
 10
6.2472810015
 20
4.5174669365
 10
6.3120984577
 20
4.4524102832
 10
6.3659682006
 20
4.3780347391
  0
LINE
  5
84A
100
AcDbEntity
  8
02___PRT_ALL_AXES
100
AcDbLine
 62
7
  6
CONTINUOUS
 10
6.3659682006
 20
4.3780347391
 11
6.4075699796
 21
4.2961631156
  0
LWPOLYLINE
  5
84B
100
AcDbEntity
  8
02___PRT_ALL_AXES
100
AcDbPolyline
 62
7
  6
CONTINUOUS
 90
3
 70
0
 10
6.4075699796
 20
4.2961631156
 10
6.4358842096
 20
4.2088019392
 10
6.4502169596
 20
4.1180922758
  0
CIRCLE
  5
84C
100
AcDbEntity
  8
0
100
AcDbCircle
 62
7
  6
CONTINUOUS
 10
15.2229827477
 20
1.1139932523
 40
0.252091
  0
CIRCLE
  5
84D
100
AcDbEntity
  8
0
100
AcDbCircle
 62
7
  6
CONTINUOUS
 10
15.2229827477
 20
1.1139932523
 40
0.182698
  0
ARC
  5
84E
100
AcDbEntity
  8
02___PRT_ALL_AXES
100
AcDbCircle
 62
7
  6
CONTINUOUS
 10
5.1370561986
 20
7.760947643
 40
0.157480315
100
AcDbArc
 50
180.0
 51
270.0
  0
ARC
  5
84F
100
AcDbEntity
  8
02___PRT_ALL_AXES
100
AcDbCircle
 62
7
  6
CONTINUOUS
 10
6.593749112
 20
7.760947643
 40
0.157480315
100
AcDbArc
 50
270.0
 51
360.0
  0
ARC
  5
850
100
AcDbEntity
  8
0
100
AcDbCircle
 62
7
  6
CONTINUOUS
 10
6.7662294625
 20
14.7373255958
 40
0.0787401575
100
AcDbArc
 50
1.0000000028
 51
90.0
  0
ARC
  5
851
100
AcDbEntity
  8
0
100
AcDbCircle
 62
7
  6
CONTINUOUS
 10
4.9645758481
 20
14.7373255958
 40
0.0787401575
100
AcDbArc
 50
90.0
 51
178.9999999972
  0
ARC
  5
852
100
AcDbEntity
  8
02___PRT_ALL_AXES
100
AcDbCircle
 62
7
  6
CONTINUOUS
 10
4.9205207655
 20
8.1940185092
 40
0.0590551181
100
AcDbArc
 50
0.0
 51
90.0
  0
ARC
  5
853
100
AcDbEntity
  8
02___PRT_ALL_AXES
100
AcDbCircle
 62
7
  6
CONTINUOUS
 10
6.8102845451
 20
8.1940185092
 40
0.0590551181
100
AcDbArc
 50
90.0
 51
180.0
  0
ARC
  5
854
100
AcDbEntity
  8
02___PRT_ALL_AXES
100
AcDbCircle
 62
7
  6
CONTINUOUS
 10
4.9205207655
 20
8.292443706
 40
0.0393700787
100
AcDbArc
 50
180.0
 51
270.0
  0
ARC
  5
855
100
AcDbEntity
  8
02___PRT_ALL_AXES
100
AcDbCircle
 62
7
  6
CONTINUOUS
 10
6.8102845451
 20
8.292443706
 40
0.0393700787
100
AcDbArc
 50
270.0
 51
360.0
  0
ARC
  5
856
100
AcDbEntity
  8
0
100
AcDbCircle
 62
7
  6
CONTINUOUS
 10
6.3772136789
 20
6.8948059107
 40
0.0393700787
100
AcDbArc
 50
270.0
 51
360.0
  0
ARC
  5
857
100
AcDbEntity
  8
0
100
AcDbCircle
 62
7
  6
CONTINUOUS
 10
5.3535916317
 20
6.8948059107
 40
0.0393700787
100
AcDbArc
 50
180.0
 51
270.0
  0
ARC
  5
858
100
AcDbEntity
  8
0
100
AcDbCircle
 62
7
  6
CONTINUOUS
 10
5.2748514742
 20
7.5640972493
 40
0.0393700787
100
AcDbArc
 50
0.0
 51
90.0
  0
ARC
  5
859
100
AcDbEntity
  8
0
100
AcDbCircle
 62
7
  6
CONTINUOUS
 10
6.4559538364
 20
7.5640972493
 40
0.0393700787
100
AcDbArc
 50
90.0
 51
180.0
  0
CIRCLE
  5
85A
100
AcDbEntity
  8
0
100
AcDbCircle
 62
7
  6
CONTINUOUS
 10
5.7669774585
 20
4.0721747662
 40
0.0196850394
  0
CIRCLE
  5
85B
100
AcDbEntity
  8
0
100
AcDbCircle
 62
9
  6
CONTINUOUS
 10
5.7669774585
 20
4.0721747662
 40
0.00468503
  0
CIRCLE
  5
85C
100
AcDbEntity
  8
0
100
AcDbCircle
 62
7
  6
CONTINUOUS
 10
5.8654026553
 20
3.9737495693
 40
0.0196850394
  0
CIRCLE
  5
85D
100
AcDbEntity
  8
0
100
AcDbCircle
 62
9
  6
CONTINUOUS
 10
5.8654026553
 20
3.9737495693
 40
0.00468503
  0
ARC
  5
85E
100
AcDbEntity
  8
AXIS
100
AcDbCircle
 62
7
  6
CONTINUOUS
 10
5.8654026553
 20
4.0721747662
 40
0.9842519685
100
AcDbArc
 50
90.0
 51
270.0
  0
CIRCLE
  5
85F
100
AcDbEntity
  8
02___PRT_ALL_AXES
100
AcDbCircle
 62
7
  6
CONTINUOUS
 10
5.8654026553
 20
4.0721747662
 40
0.9842519685
  0
CIRCLE
  5
860
100
AcDbEntity
  8
02___PRT_ALL_AXES
100
AcDbCircle
 62
9
  6
CONTINUOUS
 10
5.8654026553
 20
4.0721747662
 40
0.9448818898
  0
CIRCLE
  5
861
100
AcDbEntity
  8
02___PRT_ALL_AXES
100
AcDbCircle
 62
7
  6
CONTINUOUS
 10
5.8654026553
 20
4.0721747662
 40
0.8858267717
  0
CIRCLE
  5
862
100
AcDbEntity
  8
02___PRT_ALL_AXES
100
AcDbCircle
 62
9
  6
CONTINUOUS
 10
5.8654026553
 20
4.0721747662
 40
0.7283464567
  0
ARC
  5
863
100
AcDbEntity
  8
0
100
AcDbCircle
 62
9
  6
CONTINUOUS
 10
5.8654026553
 20
4.0721747662
 40
0.5905511811
100
AcDbArc
 50
100.4753138432
 51
259.5246861568
  0
ARC
  5
864
100
AcDbEntity
  8
0
100
AcDbCircle
 62
9
  6
CONTINUOUS
 10
5.8654026553
 20
4.0721747662
 40
0.5905511811
100
AcDbArc
 50
280.4753138432
 51
79.5246861568
  0
ARC
  5
865
100
AcDbEntity
  8
0
100
AcDbCircle
 62
7
  6
CONTINUOUS
 10
5.8654026553
 20
4.0721747662
 40
0.5511811024
100
AcDbArc
 50
280.8440625637
 51
79.1559374363
  0
ARC
  5
866
100
AcDbEntity
  8
0
100
AcDbCircle
 62
7
  6
CONTINUOUS
 10
5.8654026553
 20
4.0721747662
 40
0.5511811024
100
AcDbArc
 50
100.8440625637
 51
259.1559374363
  0
ARC
  5
867
100
AcDbEntity
  8
0
100
AcDbCircle
 62
9
  6
CONTINUOUS
 10
5.8654026553
 20
4.0721747662
 40
0.5118110236
100
AcDbArc
 50
101.2547126182
 51
258.7452873818
  0
ARC
  5
868
100
AcDbEntity
  8
0
100
AcDbCircle
 62
9
  6
CONTINUOUS
 10
5.8654026553
 20
4.0721747662
 40
0.5118110236
100
AcDbArc
 50
281.2547126182
 51
78.7452873818
  0
CIRCLE
  5
869
100
AcDbEntity
  8
0
100
AcDbCircle
 62
7
  6
CONTINUOUS
 10
5.8654026553
 20
4.0721747662
 40
0.3799212598
  0
CIRCLE
  5
86A
100
AcDbEntity
  8
0
100
AcDbCircle
 62
7
  6
CONTINUOUS
 10
5.8654026553
 20
4.0721747662
 40
0.3208224134
  0
CIRCLE
  5
86B
100
AcDbEntity
  8
AXIS
100
AcDbCircle
 62
7
  6
CONTINUOUS
 10
5.8654026553
 20
4.0721747662
 40
0.3051181102
  0
CIRCLE
  5
86C
100
AcDbEntity
  8
AXIS
100
AcDbCircle
 62
9
  6
CONTINUOUS
 10
5.8654026553
 20
4.0721747662
 40
0.2944051522
  0
CIRCLE
  5
86D
100
AcDbEntity
  8
AXIS
100
AcDbCircle
 62
9
  6
CONTINUOUS
 10
5.8654026553
 20
4.0721747662
 40
0.2469334304
  0
CIRCLE
  5
86E
100
AcDbEntity
  8
0
100
AcDbCircle
 62
7
  6
CONTINUOUS
 10
5.8654026553
 20
4.0721747662
 40
0.2362204724
  0
ARC
  5
86F
100
AcDbEntity
  8
0
100
AcDbCircle
 62
7
  6
CONTINUOUS
 10
5.8654026553
 20
4.0721747662
 40
0.2165355029
100
AcDbArc
 50
148.0773200832
 51
13.9226799136
  0
CIRCLE
  5
870
100
AcDbEntity
  8
0
100
AcDbCircle
 62
7
  6
CONTINUOUS
 10
5.8654026553
 20
4.0721747662
 40
0.2037401575
  0
CIRCLE
  5
871
100
AcDbEntity
  8
0
100
AcDbCircle
 62
7
  6
CONTINUOUS
 10
5.8654026553
 20
4.0721747662
 40
0.1633858268
  0
CIRCLE
  5
872
100
AcDbEntity
  8
0
100
AcDbCircle
 62
7
  6
CONTINUOUS
 10
5.8654026553
 20
4.170599963
 40
0.0196850394
  0
CIRCLE
  5
873
100
AcDbEntity
  8
0
100
AcDbCircle
 62
9
  6
CONTINUOUS
 10
5.8654026553
 20
4.170599963
 40
0.00468503
  0
CIRCLE
  5
874
100
AcDbEntity
  8
0
100
AcDbCircle
 62
7
  6
CONTINUOUS
 10
5.9638278522
 20
4.0721747662
 40
0.0196850394
  0
CIRCLE
  5
875
100
AcDbEntity
  8
0
100
AcDbCircle
 62
9
  6
CONTINUOUS
 10
5.9638278522
 20
4.0721747662
 40
0.00468503
  0
ENDSEC
  0
SECTION
  2
OBJECTS
  0
DICTIONARY
  5
C
100
AcDbDictionary
280
0
281
1
  3
ACAD_GROUP
350
D
  3
ACAD_MLINESTYLE
350
17
  3
ACAD_LAYOUT
350
1A
  3
ACAD_PLOTSETTINGS
350
19
  3
ACAD_PLOTSTYLENAME
350
E
  0
DICTIONARY
  5
D
102
{ACAD_REACTORS
330
C
102
}
100
AcDbDictionary
280
0
281
1
  0
ACDBDICTIONARYWDFLT
  5
E
102
{ACAD_REACTORS
330
C
102
}
100
AcDbDictionary
281
1
  3
Normal
350
F
100
AcDbDictionaryWithDefault
340
F
  0
DICTIONARY
  5
17
102
{ACAD_REACTORS
330
C
102
}
100
AcDbDictionary
280
0
281
1
  3
Standard
350
18
  0
DICTIONARY
  5
19
102
{ACAD_REACTORS
330
C
102
}
100
AcDbDictionary
281
1
  0
DICTIONARY
  5
1A
102
{ACAD_REACTORS
330
C
102
}
100
AcDbDictionary
281
1
  3
Layout1
350
1E
  3
Model
350
22
  0
ACDBPLACEHOLDER
  5
F
102
{ACAD_REACTORS
330
E
102
}
  0
MLINESTYLE
  5
18
102
{ACAD_REACTORS
330
17
102
}
100
AcDbMlineStyle
  2
STANDARD
 70
0
  3

 62
256
 51
90.0
 52
90.0
 71
2
 49
0.5
 62
256
  6
BYLAYER
 49
-0.5
 62
256
  6
BYLAYER
  0
LAYOUT
  5
1E
102
{ACAD_REACTORS
330
1A
102
}
100
AcDbPlotSettings
  1

  2

  4

  6

 40
0.0
 41
0.0
 42
0.0
 43
0.0
 44
0.0
 45
0.0
 46
0.0
 47
0.0
 48
0.0
 49
0.0
140
0.0
141
0.0
142
1.0
143
1.0
 70
0
 72
0
 73
0
 74
0
  7

 75
0
147
1.0
148
0.0
149
0.0
100
AcDbLayout
  1
Layout1
 70
0
 71
0
 10
0.0
 20
0.0
 11
0.0
 21
0.0
 12
0.0
 22
0.0
 32
0.0
 14
0.0
 24
0.0
 34
0.0
 15
0.0
 25
0.0
 35
0.0
146
0.0
 13
0.0
 23
0.0
 33
0.0
 16
0.0
 26
0.0
 36
0.0
 17
0.0
 27
0.0
 37
0.0
 76
0
330
1B
331
0
345
0
346
0
  0
LAYOUT
  5
22
102
{ACAD_REACTORS
330
1A
102
}
100
AcDbPlotSettings
  1

  2

  4

  6

 40
0.0
 41
0.0
 42
0.0
 43
0.0
 44
0.0
 45
0.0
 46
0.0
 47
0.0
 48
0.0
 49
0.0
140
0.0
141
0.0
142
1.0
143
1.0
 70
0
 72
0
 73
0
 74
0
  7

 75
0
147
1.0
148
0.0
149
0.0
100
AcDbLayout
  1
Model
 70
0
 71
0
 10
0.0
 20
0.0
 11
0.0
 21
0.0
 12
0.0
 22
0.0
 32
0.0
 14
0.0
 24
0.0
 34
0.0
 15
0.0
 25
0.0
 35
0.0
146
0.0
 13
0.0
 23
0.0
 33
0.0
 16
0.0
 26
0.0
 36
0.0
 17
0.0
 27
0.0
 37
0.0
 76
0
330
1F
331
0
345
0
346
0
  0
ENDSEC
  0
EOF
