999
DXF file: 144925_1.dxf
999
Pro/ENGINEER 2006170 by Parametric Technology Corporation
  0
SECTION
  2
HEADER
  9
$ACADVER
  1
AC1015
  9
$DWGCODEPAGE
  3
ANSI_1252
  9
$EXTMAX
 10
17.0
 20
11.0
 30
0.0
  9
$EXTMIN
 10
0.0
 20
0.0
 30
0.0
  9
$LIMMIN
 10
0.0
 20
0.0
  9
$LIMMAX
 10
17.0
 20
11.0
  9
$VIEWCTR
 10
8.5
 20
5.5
  9
$VIEWSIZE
 40
11.0
  9
$CLAYER
  8
0
  9
$LTSCALE
 40
0.935
  9
$CELTYPE
  6
BYLAYER
  9
$DIMSCALE
 40
1.0
  9
$DIMASZ
 40
0.1875
  9
$DIMEXO
 40
0.10625
  9
$DIMDLI
 40
0.646
  9
$DIMEXE
 40
0.306
  9
$DIMCEN
 40
0.153
  9
$DIMLFAC
 40
1.0
  9
$DIMBLK
  1
_FILLED
  9
$DIMTXT
 40
0.1
  9
$DIMTOL
 70
1
  9
$DIMLIM
 70
0
  9
$DIMTFAC
 40
1.0
  9
$DIMTP
 40
0.005
  9
$DIMTM
 40
0.005
  9
$PDMODE
 70
3
  9
$PDSIZE
 40
0.3125
  9
$HANDSEED
  5
88A
  9
$MEASUREMENT
 70
0
  9
$INSUNITS
 70
1
  0
ENDSEC
  0
SECTION
  2
CLASSES
  0
CLASS
  1
ACDBDICTIONARYWDFLT
  2
AcDbDictionaryWithDefault
  3
AutoCAD 2000
 90
0
280
0
281
0
  0
CLASS
  1
ACDBPLACEHOLDER
  2
AcDbPlaceHolder
  3
AutoCAD 2000
 90
0
280
0
281
0
  0
CLASS
  1
LAYOUT
  2
AcDbLayout
  3
AutoCAD 2000
 90
0
280
0
281
0
  0
ENDSEC
  0
SECTION
  2
TABLES
  0
TABLE
  2
VPORT
  5
8
100
AcDbSymbolTable
 70
2
  0
VPORT
  5
1F4
100
AcDbSymbolTableRecord
100
AcDbViewportTableRecord
  2
*ACTIVE
 70
0
 10
0.0
 20
0.0
 11
1.0
 21
1.0
 12
8.5
 22
5.5
 13
0.0
 23
0.0
 14
1.0
 24
1.0
 15
0.0
 25
0.0
 16
0.0
 26
0.0
 36
1.0
 17
0.0
 27
0.0
 37
0.0
 40
11.0
 41
1.5454545455
 42
50.0
 43
0.0
 44
0.0
 50
0.0
 51
0.0
 71
0
 72
100
 73
1
 74
1
 75
0
 76
0
 77
0
 78
0
  0
ENDTAB
  0
TABLE
  2
LTYPE
  5
5
100
AcDbSymbolTable
 70
6
  0
LTYPE
  5
14
100
AcDbSymbolTableRecord
100
AcDbLinetypeTableRecord
  2
BYBLOCK
 70
0
  3

 72
65
 73
0
 40
0.0
  0
LTYPE
  5
15
100
AcDbSymbolTableRecord
100
AcDbLinetypeTableRecord
  2
BYLAYER
 70
0
  3

 72
65
 73
0
 40
0.0
  0
LTYPE
  5
16
100
AcDbSymbolTableRecord
100
AcDbLinetypeTableRecord
  2
CONTINUOUS
 70
64
  3
Solid line
 72
65
 73
0
 40
0.0
  0
LTYPE
  5
1F5
100
AcDbSymbolTableRecord
100
AcDbLinetypeTableRecord
  2
CENTER
 70
64
  3
____ _ ____ _ ____ _ ____ _ ____ _ ____ _ ____
 72
65
 73
4
 40
0.6
 49
0.375
 74
0
 49
-0.075
 74
0
 49
0.075
 74
0
 49
-0.075
 74
0
  0
LTYPE
  5
1F6
100
AcDbSymbolTableRecord
100
AcDbLinetypeTableRecord
  2
HIDDEN
 70
64
  3
- - - - - - - - - - - - - - - - - - - -
 72
65
 73
2
 40
0.2
 49
0.1
 74
0
 49
-0.1
 74
0
  0
LTYPE
  5
1F7
100
AcDbSymbolTableRecord
100
AcDbLinetypeTableRecord
  2
PHANTOM
 70
64
  3
_____ _ _ _____ _ _ _____ _ _ _____
 72
65
 73
6
 40
0.8
 49
0.45
 74
0
 49
-0.05
 74
0
 49
0.1
 74
0
 49
-0.05
 74
0
 49
0.1
 74
0
 49
-0.05
 74
0
  0
LTYPE
  5
1F8
100
AcDbSymbolTableRecord
100
AcDbLinetypeTableRecord
  2
DOT
 70
64
  3
. . . . . . . . . . . . . . . . . . . .
 72
65
 73
2
 40
0.2
 49
0.1
 74
0
 49
-0.1
 74
0
  0
LTYPE
  5
1F9
100
AcDbSymbolTableRecord
100
AcDbLinetypeTableRecord
  2
DASHED
 70
64
  3
- - - - - - - - - - - - - - - - - - - -
 72
65
 73
2
 40
0.2
 49
0.1
 74
0
 49
-0.1
 74
0
  0
ENDTAB
  0
TABLE
  2
LAYER
  5
2
100
AcDbSymbolTable
 70
36
  0
LAYER
  5
10
100
AcDbSymbolTableRecord
100
AcDbLayerTableRecord
  2
0
 70
0
 62
7
  6
CONTINUOUS
370
-3
390
F
  0
LAYER
  5
1FA
100
AcDbSymbolTableRecord
100
AcDbLayerTableRecord
  2
DEFAULT_1
 70
0
 62
7
  6
CENTER
370
-3
390
F
  0
LAYER
  5
1FB
100
AcDbSymbolTableRecord
100
AcDbLayerTableRecord
  2
DEFAULT_2
 70
0
 62
8
  6
HIDDEN
370
-3
390
F
  0
LAYER
  5
1FC
100
AcDbSymbolTableRecord
100
AcDbLayerTableRecord
  2
DEFAULT_3
 70
0
 62
7
  6
PHANTOM
370
-3
390
F
  0
LAYER
  5
1FD
100
AcDbSymbolTableRecord
100
AcDbLayerTableRecord
  2
_2D_DELETED_OBJS
 70
0
 62
7
  6
CONTINUOUS
370
-3
390
F
  0
LAYER
  5
1FE
100
AcDbSymbolTableRecord
100
AcDbLayerTableRecord
  2
_BLACK_HOLE
 70
0
 62
7
  6
CONTINUOUS
370
-3
390
F
  0
LAYER
  5
1FF
100
AcDbSymbolTableRecord
100
AcDbLayerTableRecord
  2
01_ALL_DTM_PLN
 70
0
 62
7
  6
CONTINUOUS
370
-3
390
F
  0
LAYER
  5
200
100
AcDbSymbolTableRecord
100
AcDbLayerTableRecord
  2
01__ASM_ALL_DTM_PLN
 70
0
 62
7
  6
CONTINUOUS
370
-3
390
F
  0
LAYER
  5
201
100
AcDbSymbolTableRecord
100
AcDbLayerTableRecord
  2
01__ASM_DEF_DTM_PLN
 70
0
 62
7
  6
CONTINUOUS
370
-3
390
F
  0
LAYER
  5
202
100
AcDbSymbolTableRecord
100
AcDbLayerTableRecord
  2
01___PRT_ALL_DTM_PLN
 70
0
 62
7
  6
CONTINUOUS
370
-3
390
F
  0
LAYER
  5
203
100
AcDbSymbolTableRecord
100
AcDbLayerTableRecord
  2
01___PRT_DEF_DTM_PLN
 70
0
 62
7
  6
CONTINUOUS
370
-3
390
F
  0
LAYER
  5
204
100
AcDbSymbolTableRecord
100
AcDbLayerTableRecord
  2
02_ALL_AXES
 70
0
 62
7
  6
CONTINUOUS
370
-3
390
F
  0
LAYER
  5
205
100
AcDbSymbolTableRecord
100
AcDbLayerTableRecord
  2
02__ASM_ALL_AXES
 70
0
 62
7
  6
CONTINUOUS
370
-3
390
F
  0
LAYER
  5
206
100
AcDbSymbolTableRecord
100
AcDbLayerTableRecord
  2
02___PRT_ALL_AXES
 70
0
 62
7
  6
CONTINUOUS
370
-3
390
F
  0
LAYER
  5
207
100
AcDbSymbolTableRecord
100
AcDbLayerTableRecord
  2
03_ALL_CURVES
 70
0
 62
7
  6
CONTINUOUS
370
-3
390
F
  0
LAYER
  5
208
100
AcDbSymbolTableRecord
100
AcDbLayerTableRecord
  2
03__ASM_ALL_CURVES
 70
0
 62
7
  6
CONTINUOUS
370
-3
390
F
  0
LAYER
  5
209
100
AcDbSymbolTableRecord
100
AcDbLayerTableRecord
  2
03___PRT_ALL_CURVES
 70
0
 62
7
  6
CONTINUOUS
370
-3
390
F
  0
LAYER
  5
20A
100
AcDbSymbolTableRecord
100
AcDbLayerTableRecord
  2
04_ALL_DTM_PNT
 70
0
 62
7
  6
CONTINUOUS
370
-3
390
F
  0
LAYER
  5
20B
100
AcDbSymbolTableRecord
100
AcDbLayerTableRecord
  2
04__ASM_ALL_DTM_PNT
 70
0
 62
7
  6
CONTINUOUS
370
-3
390
F
  0
LAYER
  5
20C
100
AcDbSymbolTableRecord
100
AcDbLayerTableRecord
  2
04___PRT_ALL_DTM_PNT
 70
0
 62
7
  6
CONTINUOUS
370
-3
390
F
  0
LAYER
  5
20D
100
AcDbSymbolTableRecord
100
AcDbLayerTableRecord
  2
05_ALL_DTM_CSYS
 70
0
 62
7
  6
CONTINUOUS
370
-3
390
F
  0
LAYER
  5
20E
100
AcDbSymbolTableRecord
100
AcDbLayerTableRecord
  2
05__ASM_ALL_DTM_CSYS
 70
0
 62
7
  6
CONTINUOUS
370
-3
390
F
  0
LAYER
  5
20F
100
AcDbSymbolTableRecord
100
AcDbLayerTableRecord
  2
05__ASM_DEF_DTM_CSYS
 70
0
 62
7
  6
CONTINUOUS
370
-3
390
F
  0
LAYER
  5
210
100
AcDbSymbolTableRecord
100
AcDbLayerTableRecord
  2
05___PRT_ALL_DTM_CSYS
 70
0
 62
7
  6
CONTINUOUS
370
-3
390
F
  0
LAYER
  5
211
100
AcDbSymbolTableRecord
100
AcDbLayerTableRecord
  2
05___PRT_DEF_DTM_CSYS
 70
0
 62
7
  6
CONTINUOUS
370
-3
390
F
  0
LAYER
  5
212
100
AcDbSymbolTableRecord
100
AcDbLayerTableRecord
  2
06_ALL_SURFS
 70
0
 62
7
  6
CONTINUOUS
370
-3
390
F
  0
LAYER
  5
213
100
AcDbSymbolTableRecord
100
AcDbLayerTableRecord
  2
06__ASM_ALL_SURFS
 70
0
 62
7
  6
CONTINUOUS
370
-3
390
F
  0
LAYER
  5
214
100
AcDbSymbolTableRecord
100
AcDbLayerTableRecord
  2
06___PRT_ALL_SURFS
 70
0
 62
7
  6
CONTINUOUS
370
-3
390
F
  0
LAYER
  5
215
100
AcDbSymbolTableRecord
100
AcDbLayerTableRecord
  2
07__ASM_ALL_SKELETONS
 70
0
 62
7
  6
CONTINUOUS
370
-3
390
F
  0
LAYER
  5
216
100
AcDbSymbolTableRecord
100
AcDbLayerTableRecord
  2
1
 70
0
 62
7
  6
CONTINUOUS
370
-3
390
F
  0
LAYER
  5
217
100
AcDbSymbolTableRecord
100
AcDbLayerTableRecord
  2
2
 70
0
 62
7
  6
CONTINUOUS
370
-3
390
F
  0
LAYER
  5
218
100
AcDbSymbolTableRecord
100
AcDbLayerTableRecord
  2
3
 70
0
 62
7
  6
CONTINUOUS
370
-3
390
F
  0
LAYER
  5
219
100
AcDbSymbolTableRecord
100
AcDbLayerTableRecord
  2
4
 70
0
 62
7
  6
CONTINUOUS
370
-3
390
F
  0
LAYER
  5
21A
100
AcDbSymbolTableRecord
100
AcDbLayerTableRecord
  2
5
 70
0
 62
7
  6
CONTINUOUS
370
-3
390
F
  0
LAYER
  5
21B
100
AcDbSymbolTableRecord
100
AcDbLayerTableRecord
  2
AXIS
 70
0
 62
7
  6
CONTINUOUS
370
-3
390
F
  0
LAYER
  5
21C
100
AcDbSymbolTableRecord
100
AcDbLayerTableRecord
  2
AXIS_COSMETIC_THREADS
 70
0
 62
7
  6
CONTINUOUS
370
-3
390
F
  0
LAYER
  5
21D
100
AcDbSymbolTableRecord
100
AcDbLayerTableRecord
  2
CSY
 70
0
 62
7
  6
CONTINUOUS
370
-3
390
F
  0
LAYER
  5
21E
100
AcDbSymbolTableRecord
100
AcDbLayerTableRecord
  2
DATUM_CURVES
 70
0
 62
7
  6
CONTINUOUS
370
-3
390
F
  0
LAYER
  5
21F
100
AcDbSymbolTableRecord
100
AcDbLayerTableRecord
  2
DATUM_PLANES
 70
0
 62
7
  6
CONTINUOUS
370
-3
390
F
  0
LAYER
  5
220
100
AcDbSymbolTableRecord
100
AcDbLayerTableRecord
  2
ECAD_0603
 70
0
 62
7
  6
CONTINUOUS
370
-3
390
F
  0
LAYER
  5
221
100
AcDbSymbolTableRecord
100
AcDbLayerTableRecord
  2
ECAD_0603C
 70
0
 62
7
  6
CONTINUOUS
370
-3
390
F
  0
LAYER
  5
222
100
AcDbSymbolTableRecord
100
AcDbLayerTableRecord
  2
ECAD_0805
 70
0
 62
7
  6
CONTINUOUS
370
-3
390
F
  0
LAYER
  5
223
100
AcDbSymbolTableRecord
100
AcDbLayerTableRecord
  2
ECAD_0805C
 70
0
 62
7
  6
CONTINUOUS
370
-3
390
F
  0
LAYER
  5
224
100
AcDbSymbolTableRecord
100
AcDbLayerTableRecord
  2
ECAD_0805I
 70
0
 62
7
  6
CONTINUOUS
370
-3
390
F
  0
LAYER
  5
225
100
AcDbSymbolTableRecord
100
AcDbLayerTableRecord
  2
ECAD_1206
 70
0
 62
7
  6
CONTINUOUS
370
-3
390
F
  0
LAYER
  5
226
100
AcDbSymbolTableRecord
100
AcDbLayerTableRecord
  2
ECAD_1206C
 70
0
 62
7
  6
CONTINUOUS
370
-3
390
F
  0
LAYER
  5
227
100
AcDbSymbolTableRecord
100
AcDbLayerTableRecord
  2
ECAD_1210I
 70
0
 62
7
  6
CONTINUOUS
370
-3
390
F
  0
LAYER
  5
228
100
AcDbSymbolTableRecord
100
AcDbLayerTableRecord
  2
ECAD_1808C
 70
0
 62
7
  6
CONTINUOUS
370
-3
390
F
  0
LAYER
  5
229
100
AcDbSymbolTableRecord
100
AcDbLayerTableRecord
  2
ECAD_DIP16A
 70
0
 62
7
  6
CONTINUOUS
370
-3
390
F
  0
LAYER
  5
22A
100
AcDbSymbolTableRecord
100
AcDbLayerTableRecord
  2
ECAD_HDR30F
 70
0
 62
7
  6
CONTINUOUS
370
-3
390
F
  0
LAYER
  5
22B
100
AcDbSymbolTableRecord
100
AcDbLayerTableRecord
  2
ECAD_HDR30M
 70
0
 62
7
  6
CONTINUOUS
370
-3
390
F
  0
LAYER
  5
22C
100
AcDbSymbolTableRecord
100
AcDbLayerTableRecord
  2
ECAD_HR12
 70
0
 62
7
  6
CONTINUOUS
370
-3
390
F
  0
LAYER
  5
22D
100
AcDbSymbolTableRecord
100
AcDbLayerTableRecord
  2
ECAD_LEDRND
 70
0
 62
7
  6
CONTINUOUS
370
-3
390
F
  0
LAYER
  5
22E
100
AcDbSymbolTableRecord
100
AcDbLayerTableRecord
  2
ECAD_MSOP8
 70
0
 62
7
  6
CONTINUOUS
370
-3
390
F
  0
LAYER
  5
22F
100
AcDbSymbolTableRecord
100
AcDbLayerTableRecord
  2
ECAD_P10046
 70
0
 62
7
  6
CONTINUOUS
370
-3
390
F
  0
LAYER
  5
230
100
AcDbSymbolTableRecord
100
AcDbLayerTableRecord
  2
ECAD_P6232
 70
0
 62
7
  6
CONTINUOUS
370
-3
390
F
  0
LAYER
  5
231
100
AcDbSymbolTableRecord
100
AcDbLayerTableRecord
  2
ECAD_P6239
 70
0
 62
7
  6
CONTINUOUS
370
-3
390
F
  0
LAYER
  5
232
100
AcDbSymbolTableRecord
100
AcDbLayerTableRecord
  2
ECAD_SMA
 70
0
 62
7
  6
CONTINUOUS
370
-3
390
F
  0
LAYER
  5
233
100
AcDbSymbolTableRecord
100
AcDbLayerTableRecord
  2
ECAD_SO14
 70
0
 62
7
  6
CONTINUOUS
370
-3
390
F
  0
LAYER
  5
234
100
AcDbSymbolTableRecord
100
AcDbLayerTableRecord
  2
ECAD_SO8
 70
0
 62
7
  6
CONTINUOUS
370
-3
390
F
  0
LAYER
  5
235
100
AcDbSymbolTableRecord
100
AcDbLayerTableRecord
  2
ECAD_SOD123
 70
0
 62
7
  6
CONTINUOUS
370
-3
390
F
  0
LAYER
  5
236
100
AcDbSymbolTableRecord
100
AcDbLayerTableRecord
  2
ECAD_SOT23
 70
0
 62
7
  6
CONTINUOUS
370
-3
390
F
  0
LAYER
  5
237
100
AcDbSymbolTableRecord
100
AcDbLayerTableRecord
  2
ECAD_SOT235
 70
0
 62
7
  6
CONTINUOUS
370
-3
390
F
  0
LAYER
  5
238
100
AcDbSymbolTableRecord
100
AcDbLayerTableRecord
  2
ECAD_SOT25A
 70
0
 62
7
  6
CONTINUOUS
370
-3
390
F
  0
LAYER
  5
239
100
AcDbSymbolTableRecord
100
AcDbLayerTableRecord
  2
NOTES
 70
0
 62
7
  6
CONTINUOUS
370
-3
390
F
  0
LAYER
  5
23A
100
AcDbSymbolTableRecord
100
AcDbLayerTableRecord
  2
QUILTS
 70
0
 62
7
  6
CONTINUOUS
370
-3
390
F
  0
LAYER
  5
23B
100
AcDbSymbolTableRecord
100
AcDbLayerTableRecord
  2
SCHEME_DIMS
 70
0
 62
7
  6
CONTINUOUS
370
-3
390
F
  0
LAYER
  5
23C
100
AcDbSymbolTableRecord
100
AcDbLayerTableRecord
  2
SYMBOLS
 70
0
 62
7
  6
CONTINUOUS
370
-3
390
F
  0
LAYER
  5
23D
100
AcDbSymbolTableRecord
100
AcDbLayerTableRecord
  2
XSEC_DATUMS
 70
0
 62
7
  6
CONTINUOUS
370
-3
390
F
  0
ENDTAB
  0
TABLE
  2
STYLE
  5
3
100
AcDbSymbolTable
 70
1
  0
STYLE
  5
11
100
AcDbSymbolTableRecord
100
AcDbTextStyleTableRecord
  2
STANDARD
 70
0
 40
0.0
 41
1.0
 50
0.0
 71
0
 42
0.2
  3
txt
  4

  0
ENDTAB
  0
TABLE
  2
VIEW
  5
6
100
AcDbSymbolTable
 70
0
  0
ENDTAB
  0
TABLE
  2
UCS
  5
7
100
AcDbSymbolTable
 70
0
  0
ENDTAB
  0
TABLE
  2
APPID
  5
9
100
AcDbSymbolTable
 70
1
  0
APPID
  5
23E
100
AcDbSymbolTableRecord
100
AcDbRegAppTableRecord
  2
ACAD
 70
0
  0
ENDTAB
  0
TABLE
  2
BLOCK_RECORD
  5
1
100
AcDbSymbolTable
 70
0
  0
BLOCK_RECORD
  5
1F
100
AcDbSymbolTableRecord
100
AcDbBlockTableRecord
  2
*MODEL_SPACE
  0
BLOCK_RECORD
  5
1B
100
AcDbSymbolTableRecord
100
AcDbBlockTableRecord
  2
*PAPER_SPACE
  0
BLOCK_RECORD
  5
23F
100
AcDbSymbolTableRecord
100
AcDbBlockTableRecord
  2
_FILLED
  0
BLOCK_RECORD
  5
240
100
AcDbSymbolTableRecord
100
AcDbBlockTableRecord
  2
BANNER_LOGO_TITLEBLOCK_BL0
  0
BLOCK_RECORD
  5
241
100
AcDbSymbolTableRecord
100
AcDbBlockTableRecord
  2
*D0
  0
BLOCK_RECORD
  5
242
100
AcDbSymbolTableRecord
100
AcDbBlockTableRecord
  2
*D1
  0
BLOCK_RECORD
  5
243
100
AcDbSymbolTableRecord
100
AcDbBlockTableRecord
  2
*D2
  0
BLOCK_RECORD
  5
244
100
AcDbSymbolTableRecord
100
AcDbBlockTableRecord
  2
*D3
  0
BLOCK_RECORD
  5
245
100
AcDbSymbolTableRecord
100
AcDbBlockTableRecord
  2
*D4
  0
BLOCK_RECORD
  5
246
100
AcDbSymbolTableRecord
100
AcDbBlockTableRecord
  2
*D5
  0
BLOCK_RECORD
  5
247
100
AcDbSymbolTableRecord
100
AcDbBlockTableRecord
  2
*D6
  0
BLOCK_RECORD
  5
248
100
AcDbSymbolTableRecord
100
AcDbBlockTableRecord
  2
*D7
  0
BLOCK_RECORD
  5
249
100
AcDbSymbolTableRecord
100
AcDbBlockTableRecord
  2
CL_BL1
  0
BLOCK_RECORD
  5
24A
100
AcDbSymbolTableRecord
100
AcDbBlockTableRecord
  2
CL_BL2
  0
BLOCK_RECORD
  5
24B
100
AcDbSymbolTableRecord
100
AcDbBlockTableRecord
  2
CL_BL3
  0
BLOCK_RECORD
  5
24C
100
AcDbSymbolTableRecord
100
AcDbBlockTableRecord
  2
CL_BL4
  0
ENDTAB
  0
TABLE
  2
DIMSTYLE
  5
A
100
AcDbSymbolTable
 70
1
100
AcDbDimStyleTable
 71
0
  0
DIMSTYLE
105
24D
100
AcDbSymbolTableRecord
100
AcDbDimStyleTableRecord
  2
STANDARD
 70
0
  3

  4

 40
1.0
 41
0.1875
 42
0.0625
 43
0.38
 44
0.18
 45
0.0
 46
0.0
 47
0.005
 48
0.005
140
0.1
141
0.09
142
0.0
143
25.4
144
1.0
145
0.0
146
1.0
147
0.09
 71
1.0
 72
0.0
 73
1
 74
1
 75
0
 76
0
 77
0
 78
4
170
0
171
2
172
0
173
0
174
0
175
0
176
0
177
0
178
0
270
2
271
3
272
3
273
2
274
2
275
0
280
0
281
0
282
0
283
1
284
4
285
0
286
0
287
3
288
0
340
11
341
23F
342
23F
343
23F
344
23F
  0
DIMSTYLE
105
24E
100
AcDbSymbolTableRecord
100
AcDbDimStyleTableRecord
  2
DIMSTYLE_1
 70
0
  3

  4

 40
1.0
 41
0.1875
 42
0.0625
 43
0.38
 44
0.18
 45
0.0
 46
0.0
 47
0.127
 48
0.127
140
0.1
141
0.09
142
0.0
143
25.4
144
1.0
145
0.0
146
1.0
147
0.09
 71
0.0
 72
0.0
 73
1
 74
1
 75
0
 76
0
 77
0
 78
4
170
0
171
2
172
0
173
0
174
0
175
0
176
0
177
0
178
0
270
2
271
3
272
3
273
2
274
2
275
0
280
0
281
0
282
0
283
1
284
4
285
0
286
0
287
3
288
0
340
11
341
23F
342
23F
343
23F
344
23F
  0
DIMSTYLE
105
24F
100
AcDbSymbolTableRecord
100
AcDbDimStyleTableRecord
  2
DIMSTYLE_2
 70
0
  3

  4

 40
1.0
 41
0.1875
 42
0.0625
 43
0.38
 44
0.18
 45
0.0
 46
0.0
 47
0.005
 48
0.005
140
0.1
141
0.09
142
0.0
143
25.4
144
1.0
145
0.0
146
1.0
147
0.09
 71
0.0
 72
0.0
 73
1
 74
1
 75
0
 76
0
 77
0
 78
4
170
0
171
2
172
0
173
0
174
0
175
0
176
0
177
0
178
0
270
2
271
3
272
3
273
2
274
2
275
0
280
0
281
0
282
0
283
1
284
4
285
0
286
0
287
3
288
0
340
11
341
23F
342
23F
343
23F
344
23F
  0
DIMSTYLE
105
250
100
AcDbSymbolTableRecord
100
AcDbDimStyleTableRecord
  2
DIMSTYLE_3
 70
0
  3

  4

 40
1.0
 41
0.1875
 42
0.0625
 43
0.38
 44
0.18
 45
0.0
 46
0.0
 47
0.005
 48
0.005
140
0.1
141
0.09
142
0.0
143
25.4
144
1.0
145
0.0
146
1.0
147
0.09
 71
0.0
 72
0.0
 73
1
 74
1
 75
0
 76
0
 77
0
 78
4
170
0
171
2
172
0
173
0
174
0
175
0
176
0
177
0
178
0
270
2
271
3
272
3
273
2
274
2
275
0
280
0
281
0
282
0
283
1
284
4
285
0
286
0
287
3
288
0
340
11
341
23F
342
23F
343
23F
344
23F
  0
ENDTAB
  0
ENDSEC
  0
SECTION
  2
BLOCKS
  0
BLOCK
  5
20
100
AcDbEntity
  8
0
100
AcDbBlockBegin
  2
*MODEL_SPACE
 70
0
 10
0.0
 20
0.0
 30
0.0
  3
*MODEL_SPACE
  1

  0
ENDBLK
  5
21
100
AcDbEntity
  8
0
100
AcDbBlockEnd
  0
BLOCK
  5
1C
100
AcDbEntity
  8
0
100
AcDbBlockBegin
  2
*PAPER_SPACE
 70
0
 10
0.0
 20
0.0
 30
0.0
  3
*PAPER_SPACE
  1

  0
ENDBLK
  5
1D
100
AcDbEntity
  8
0
100
AcDbBlockEnd
  0
BLOCK
  5
251
100
AcDbEntity
  8
0
100
AcDbBlockBegin
 62
2
  6
CONTINUOUS
  2
BANNER_LOGO_TITLEBLOCK_BL0
 70
64
 10
12.9046655056
 20
2.5403783448
  3
BANNER_LOGO_TITLEBLOCK_BL0
  1

  0
LWPOLYLINE
  5
252
100
AcDbEntity
  8
0
100
AcDbPolyline
 62
2
  6
CONTINUOUS
 90
29
 70
0
 10
12.0796650004
 20
2.5403783448
 10
12.1000078385
 20
2.5005819703
 10
12.1615890075
 20
2.4620382478
 10
12.2590135686
 20
2.4281250935
 10
12.3910903821
 20
2.3992568791
 10
12.5462480343
 20
2.3779627503
 10
12.7225901426
 20
2.3645025835
 10
12.9046652672
 20
2.3600565514
 10
13.0867408686
 20
2.3645025835
 10
13.2630829769
 20
2.3779627503
 10
13.4182401522
 20
2.3992568791
 10
13.5503174426
 20
2.4281250935
 10
13.6477415269
 20
2.4620382478
 10
13.7093231727
 20
2.5005819703
 10
13.7296660108
 20
2.5403783448
 10
13.7093231727
 20
2.5801747193
 10
13.6477415269
 20
2.6187184418
 10
13.5503174426
 20
2.6526315961
 10
13.4182401522
 20
2.6814998105
 10
13.2630829769
 20
2.7027939393
 10
13.0867408686
 20
2.7162541061
 10
12.9046652672
 20
2.7207001382
 10
12.7225901426
 20
2.7162541061
 10
12.5462480343
 20
2.7027939393
 10
12.3910903821
 20
2.6814998105
 10
12.2590135686
 20
2.6526315961
 10
12.1615890075
 20
2.6187184418
 10
12.1000078385
 20
2.5801747193
 10
12.0796650004
 20
2.5403783448
  0
ARC
  5
253
100
AcDbEntity
  8
0
100
AcDbCircle
 62
2
  6
CONTINUOUS
 10
12.400005721
 20
2.5168763464
 40
0.0153945295
100
AcDbArc
 50
354.0454548824
 51
5.1878013979
  0
ARC
  5
254
100
AcDbEntity
  8
0
100
AcDbCircle
 62
2
  6
CONTINUOUS
 10
12.3931760319
 20
2.5166878286
 40
0.0222174455
100
AcDbArc
 50
4.0793399388
 51
69.834329283
  0
LINE
  5
255
100
AcDbEntity
  8
0
100
AcDbLine
 62
2
  6
CONTINUOUS
 10
12.4008351814
 20
2.5375433389
 11
12.3907841758
 21
2.5410923409
  0
LINE
  5
256
100
AcDbEntity
  8
0
100
AcDbLine
 62
2
  6
CONTINUOUS
 10
12.3907841758
 20
2.5410923409
 11
12.3990241804
 21
2.5458683435
  0
ARC
  5
257
100
AcDbEntity
  8
0
100
AcDbCircle
 62
2
  6
CONTINUOUS
 10
12.3771587979
 20
2.5826952352
 40
0.0428289026
100
AcDbArc
 50
300.6990502959
 51
319.0591802498
  0
ARC
  5
258
100
AcDbEntity
  8
0
100
AcDbCircle
 62
2
  6
CONTINUOUS
 10
12.3971873948
 20
2.5665668817
 40
0.0171568255
100
AcDbArc
 50
315.9145124245
 51
16.0049121282
  0
ARC
  5
259
100
AcDbEntity
  8
0
100
AcDbCircle
 62
2
  6
CONTINUOUS
 10
12.3922357827
 20
2.5632132173
 40
0.0229166529
100
AcDbArc
 50
20.6563876465
 51
62.3316896973
  0
ARC
  5
25A
100
AcDbEntity
  8
0
100
AcDbCircle
 62
2
  6
CONTINUOUS
 10
12.371573659
 20
2.5302846524
 40
0.061747717
100
AcDbArc
 50
59.5385584989
 51
90.0050977555
  0
LINE
  5
25B
100
AcDbEntity
  8
0
100
AcDbLine
 62
2
  6
CONTINUOUS
 10
12.3715681652
 20
2.5920323691
 11
12.2055050731
 21
2.5920323691
  0
ARC
  5
25C
100
AcDbEntity
  8
0
100
AcDbCircle
 62
2
  6
CONTINUOUS
 10
12.2055050712
 20
2.5895573696
 40
0.0024749995
100
AcDbArc
 50
89.9999571957
 51
180.0000428043
  0
LINE
  5
25D
100
AcDbEntity
  8
0
100
AcDbLine
 62
2
  6
CONTINUOUS
 10
12.2030300717
 20
2.5895573678
 11
12.2030300717
 21
2.5697573568
  0
ARC
  5
25E
100
AcDbEntity
  8
0
100
AcDbCircle
 62
2
  6
CONTINUOUS
 10
12.2055050712
 20
2.5697573549
 40
0.0024749995
100
AcDbArc
 50
179.9999571957
 51
270.0000428043
  0
LINE
  5
25F
100
AcDbEntity
  8
0
100
AcDbLine
 62
2
  6
CONTINUOUS
 10
12.2055050731
 20
2.5672823554
 11
12.2294470864
 21
2.5672823554
  0
ARC
  5
260
100
AcDbEntity
  8
0
100
AcDbCircle
 62
2
  6
CONTINUOUS
 10
12.2294470882
 20
2.5648073559
 40
0.0024749995
100
AcDbArc
 50
359.9999571957
 51
90.0000428043
  0
LINE
  5
261
100
AcDbEntity
  8
0
100
AcDbLine
 62
2
  6
CONTINUOUS
 10
12.2319220877
 20
2.564807354
 11
12.2319220877
 21
2.5184523283
  0
ARC
  5
262
100
AcDbEntity
  8
0
100
AcDbCircle
 62
2
  6
CONTINUOUS
 10
12.2294470882
 20
2.5184523265
 40
0.0024749995
100
AcDbArc
 50
269.9999571957
 51
0.0000428043
  0
LINE
  5
263
100
AcDbEntity
  8
0
100
AcDbLine
 62
2
  6
CONTINUOUS
 10
12.2294470864
 20
2.515977327
 11
12.2055050731
 21
2.515977327
  0
ARC
  5
264
100
AcDbEntity
  8
0
100
AcDbCircle
 62
2
  6
CONTINUOUS
 10
12.2055050712
 20
2.5135023274
 40
0.0024749995
100
AcDbArc
 50
89.9999571957
 51
180.0000428043
  0
LINE
  5
265
100
AcDbEntity
  8
0
100
AcDbLine
 62
2
  6
CONTINUOUS
 10
12.2030300717
 20
2.5135023256
 11
12.2030300717
 21
2.4937023146
  0
ARC
  5
266
100
AcDbEntity
  8
0
100
AcDbCircle
 62
2
  6
CONTINUOUS
 10
12.2055050712
 20
2.4937023128
 40
0.0024749995
100
AcDbArc
 50
179.9999571957
 51
270.0000428043
  0
LINE
  5
267
100
AcDbEntity
  8
0
100
AcDbLine
 62
2
  6
CONTINUOUS
 10
12.2055050731
 20
2.4912273132
 11
12.3819511709
 21
2.4912273132
  0
ARC
  5
268
100
AcDbEntity
  8
0
100
AcDbCircle
 62
2
  6
CONTINUOUS
 10
12.3792298263
 20
2.539634765
 40
0.048483885
100
AcDbArc
 50
273.21763719
 51
303.0749121182
  0
ARC
  5
269
100
AcDbEntity
  8
0
100
AcDbCircle
 62
2
  6
CONTINUOUS
 10
12.3940692204
 20
2.5168671561
 40
0.0213072145
100
AcDbArc
 50
303.0488228549
 51
355.7263138674
  0
LINE
  5
26A
100
AcDbEntity
  8
0
100
AcDbLine
 62
2
  6
CONTINUOUS
 10
12.2949101227
 20
2.5499573458
 11
12.3362731456
 21
2.5499573458
  0
ARC
  5
26B
100
AcDbEntity
  8
0
100
AcDbCircle
 62
2
  6
CONTINUOUS
 10
12.3362731456
 20
2.5586198506
 40
0.0086625048
100
AcDbArc
 50
270.0
 51
90.0
  0
LINE
  5
26C
100
AcDbEntity
  8
0
100
AcDbLine
 62
2
  6
CONTINUOUS
 10
12.3362731456
 20
2.5672823554
 11
12.2949101227
 21
2.5672823554
  0
ARC
  5
26D
100
AcDbEntity
  8
0
100
AcDbCircle
 62
2
  6
CONTINUOUS
 10
12.2949101208
 20
2.5648073559
 40
0.0024749995
100
AcDbArc
 50
89.9999571957
 51
180.0000428043
  0
LINE
  5
26E
100
AcDbEntity
  8
0
100
AcDbLine
 62
2
  6
CONTINUOUS
 10
12.2924351213
 20
2.564807354
 11
12.2924351213
 21
2.5524323472
  0
ARC
  5
26F
100
AcDbEntity
  8
0
100
AcDbCircle
 62
2
  6
CONTINUOUS
 10
12.2949101208
 20
2.5524323453
 40
0.0024749995
100
AcDbArc
 50
179.9999571957
 51
270.0000428043
  0
LINE
  5
270
100
AcDbEntity
  8
0
100
AcDbLine
 62
2
  6
CONTINUOUS
 10
12.2924351213
 20
2.5184523283
 11
12.2924351213
 21
2.5308273352
  0
ARC
  5
271
100
AcDbEntity
  8
0
100
AcDbCircle
 62
2
  6
CONTINUOUS
 10
12.2949101208
 20
2.530827337
 40
0.0024749995
100
AcDbArc
 50
89.9999571957
 51
180.0000428043
  0
LINE
  5
272
100
AcDbEntity
  8
0
100
AcDbLine
 62
2
  6
CONTINUOUS
 10
12.2949101227
 20
2.5333023366
 11
12.3362731456
 21
2.5333023366
  0
ARC
  5
273
100
AcDbEntity
  8
0
100
AcDbCircle
 62
2
  6
CONTINUOUS
 10
12.3362731456
 20
2.5246398318
 40
0.0086625048
100
AcDbArc
 50
270.0
 51
90.0
  0
LINE
  5
274
100
AcDbEntity
  8
0
100
AcDbLine
 62
2
  6
CONTINUOUS
 10
12.3362731456
 20
2.515977327
 11
12.2949101227
 21
2.515977327
  0
ARC
  5
275
100
AcDbEntity
  8
0
100
AcDbCircle
 62
2
  6
CONTINUOUS
 10
12.2949101208
 20
2.5184523265
 40
0.0024749995
100
AcDbArc
 50
179.9999571957
 51
270.0000428043
  0
ARC
  5
276
100
AcDbEntity
  8
0
100
AcDbCircle
 62
2
  6
CONTINUOUS
 10
13.5806801742
 20
2.5212486481
 40
0.044722495
100
AcDbArc
 50
195.531588407
 51
204.7624440448
  0
LINE
  5
277
100
AcDbEntity
  8
0
100
AcDbLine
 62
2
  6
CONTINUOUS
 10
13.5375908118
 20
2.5092733232
 11
13.5357868108
 21
2.5153423266
  0
ARC
  5
278
100
AcDbEntity
  8
0
100
AcDbCircle
 62
2
  6
CONTINUOUS
 10
13.4974076135
 20
2.5055452462
 40
0.0396099176
100
AcDbArc
 50
14.3201081283
 51
22.4984722084
  0
ARC
  5
279
100
AcDbEntity
  8
0
100
AcDbCircle
 62
2
  6
CONTINUOUS
 10
13.5201739219
 20
2.5145168728
 40
0.0151491919
100
AcDbArc
 50
24.098260853
 51
63.0369451818
  0
ARC
  5
27A
100
AcDbEntity
  8
0
100
AcDbCircle
 62
2
  6
CONTINUOUS
 10
13.5161192671
 20
2.5062372524
 40
0.0243676582
100
AcDbArc
 50
63.3666028271
 51
90.3937697637
  0
LINE
  5
27B
100
AcDbEntity
  8
0
100
AcDbLine
 62
2
  6
CONTINUOUS
 10
13.5159517998
 20
2.5306043351
 11
13.4883447845
 21
2.5306043351
  0
ARC
  5
27C
100
AcDbEntity
  8
0
100
AcDbCircle
 62
2
  6
CONTINUOUS
 10
13.4883447827
 20
2.5281293355
 40
0.0024749995
100
AcDbArc
 50
89.9999571957
 51
180.0000428043
  0
LINE
  5
27D
100
AcDbEntity
  8
0
100
AcDbLine
 62
2
  6
CONTINUOUS
 10
13.4858697831
 20
2.5281293337
 11
13.4858697831
 21
2.5184303283
  0
ARC
  5
27E
100
AcDbEntity
  8
0
100
AcDbCircle
 62
2
  6
CONTINUOUS
 10
13.4883447827
 20
2.5184303265
 40
0.0024749995
100
AcDbArc
 50
179.9999571957
 51
270.0000428043
  0
LINE
  5
27F
100
AcDbEntity
  8
0
100
AcDbLine
 62
2
  6
CONTINUOUS
 10
13.4883447845
 20
2.5159553269
 11
13.5130037982
 21
2.5159553269
  0
ARC
  5
280
100
AcDbEntity
  8
0
100
AcDbCircle
 62
2
  6
CONTINUOUS
 10
13.5130038
 20
2.5134803274
 40
0.0024749995
100
AcDbArc
 50
359.9999571957
 51
90.0000428043
  0
LINE
  5
281
100
AcDbEntity
  8
0
100
AcDbLine
 62
2
  6
CONTINUOUS
 10
13.5154787995
 20
2.5134803256
 11
13.5154787995
 21
2.4937023146
  0
ARC
  5
282
100
AcDbEntity
  8
0
100
AcDbCircle
 62
2
  6
CONTINUOUS
 10
13.5130038
 20
2.4937023128
 40
0.0024749995
100
AcDbArc
 50
269.9999571957
 51
0.0000428043
  0
LINE
  5
283
100
AcDbEntity
  8
0
100
AcDbLine
 62
2
  6
CONTINUOUS
 10
13.5130037982
 20
2.4912273132
 11
13.3994327352
 21
2.4912273132
  0
ARC
  5
284
100
AcDbEntity
  8
0
100
AcDbCircle
 62
2
  6
CONTINUOUS
 10
13.3994327333
 20
2.4937023128
 40
0.0024749995
100
AcDbArc
 50
179.9999571957
 51
270.0000428043
  0
LINE
  5
285
100
AcDbEntity
  8
0
100
AcDbLine
 62
2
  6
CONTINUOUS
 10
13.3969577338
 20
2.4937023146
 11
13.3969577338
 21
2.5135023256
  0
ARC
  5
286
100
AcDbEntity
  8
0
100
AcDbCircle
 62
2
  6
CONTINUOUS
 10
13.3994327333
 20
2.5135023274
 40
0.0024749995
100
AcDbArc
 50
89.9999571957
 51
180.0000428043
  0
LINE
  5
287
100
AcDbEntity
  8
0
100
AcDbLine
 62
2
  6
CONTINUOUS
 10
13.3994327352
 20
2.515977327
 11
13.4221787478
 21
2.515977327
  0
ARC
  5
288
100
AcDbEntity
  8
0
100
AcDbCircle
 62
2
  6
CONTINUOUS
 10
13.4221787497
 20
2.5184523265
 40
0.0024749995
100
AcDbArc
 50
269.9999571957
 51
0.0000428042
  0
LINE
  5
289
100
AcDbEntity
  8
0
100
AcDbLine
 62
2
  6
CONTINUOUS
 10
13.4246537492
 20
2.5184523283
 11
13.4246537492
 21
2.564807354
  0
ARC
  5
28A
100
AcDbEntity
  8
0
100
AcDbCircle
 62
2
  6
CONTINUOUS
 10
13.4221787497
 20
2.5648073559
 40
0.0024749995
100
AcDbArc
 50
359.9999571957
 51
90.0000428043
  0
LINE
  5
28B
100
AcDbEntity
  8
0
100
AcDbLine
 62
2
  6
CONTINUOUS
 10
13.4221787478
 20
2.5672823554
 11
13.3994327352
 21
2.5672823554
  0
ARC
  5
28C
100
AcDbEntity
  8
0
100
AcDbCircle
 62
2
  6
CONTINUOUS
 10
13.3994327333
 20
2.5697573549
 40
0.0024749995
100
AcDbArc
 50
179.9999571957
 51
270.0000428043
  0
LINE
  5
28D
100
AcDbEntity
  8
0
100
AcDbLine
 62
2
  6
CONTINUOUS
 10
13.3969577338
 20
2.5697573568
 11
13.3969577338
 21
2.5895573678
  0
ARC
  5
28E
100
AcDbEntity
  8
0
100
AcDbCircle
 62
2
  6
CONTINUOUS
 10
13.3994327333
 20
2.5895573696
 40
0.0024749995
100
AcDbArc
 50
89.9999571957
 51
180.0000428043
  0
LINE
  5
28F
100
AcDbEntity
  8
0
100
AcDbLine
 62
2
  6
CONTINUOUS
 10
13.3994327352
 20
2.5920323691
 11
13.5490138181
 21
2.5920323691
  0
ARC
  5
290
100
AcDbEntity
  8
0
100
AcDbCircle
 62
2
  6
CONTINUOUS
 10
13.5463505148
 20
2.4094934586
 40
0.1825583387
100
AcDbArc
 50
79.8618509324
 51
89.1640948679
  0
ARC
  5
291
100
AcDbEntity
  8
0
100
AcDbCircle
 62
2
  6
CONTINUOUS
 10
13.5726548052
 20
2.5503169747
 40
0.039319019
100
AcDbArc
 50
59.1202086415
 51
81.4730239328
  0
ARC
  5
292
100
AcDbEntity
  8
0
100
AcDbCircle
 62
2
  6
CONTINUOUS
 10
13.5783142014
 20
2.5566516438
 40
0.0310192946
100
AcDbArc
 50
34.7540871
 51
62.0879016178
  0
ARC
  5
293
100
AcDbEntity
  8
0
100
AcDbCircle
 62
2
  6
CONTINUOUS
 10
13.5900029525
 20
2.565201245
 40
0.0165459396
100
AcDbArc
 50
1.548452892
 51
33.5033152417
  0
ARC
  5
294
100
AcDbEntity
  8
0
100
AcDbCircle
 62
2
  6
CONTINUOUS
 10
13.5932995477
 20
2.5653696972
 40
0.0132462337
100
AcDbArc
 50
331.1510006998
 51
1.205404301
  0
ARC
  5
295
100
AcDbEntity
  8
0
100
AcDbCircle
 62
2
  6
CONTINUOUS
 10
13.5822888914
 20
2.5720482849
 40
0.0261183659
100
AcDbArc
 50
305.6373831893
 51
329.9727629745
  0
ARC
  5
296
100
AcDbEntity
  8
0
100
AcDbCircle
 62
2
  6
CONTINUOUS
 10
13.5519569538
 20
2.6152551345
 40
0.0789082104
100
AcDbArc
 50
292.906155071
 51
305.2574666259
  0
ARC
  5
297
100
AcDbEntity
  8
0
100
AcDbCircle
 62
2
  6
CONTINUOUS
 10
13.5282557878
 20
2.4386010294
 40
0.117346916
100
AcDbArc
 50
58.614769177
 51
62.3737227606
  0
ARC
  5
298
100
AcDbEntity
  8
0
100
AcDbCircle
 62
2
  6
CONTINUOUS
 10
13.5761387404
 20
2.5167282896
 40
0.0257145923
100
AcDbArc
 50
39.3804255939
 51
59.0361096173
  0
ARC
  5
299
100
AcDbEntity
  8
0
100
AcDbCircle
 62
2
  6
CONTINUOUS
 10
13.5750183849
 20
2.5166552064
 40
0.0266349791
100
AcDbArc
 50
20.3630922153
 51
37.9727053099
  0
ARC
  5
29A
100
AcDbEntity
  8
0
100
AcDbCircle
 62
2
  6
CONTINUOUS
 10
13.5571178432
 20
2.509473798
 40
0.0459185159
100
AcDbArc
 50
15.6740290068
 51
20.9917271228
  0
ARC
  5
29B
100
AcDbEntity
  8
0
100
AcDbCircle
 62
2
  6
CONTINUOUS
 10
13.6156881783
 20
2.525116781
 40
0.0147197649
100
AcDbArc
 50
192.7054516565
 51
206.0594861022
  0
ARC
  5
29C
100
AcDbEntity
  8
0
100
AcDbCircle
 62
2
  6
CONTINUOUS
 10
13.6071938412
 20
2.5209082945
 40
0.0052403997
100
AcDbArc
 50
205.5232099488
 51
227.5054868079
  0
ARC
  5
29D
100
AcDbEntity
  8
0
100
AcDbCircle
 62
2
  6
CONTINUOUS
 10
13.6054655419
 20
2.5190929218
 40
0.0027347709
100
AcDbArc
 50
228.5117626737
 51
266.1485845754
  0
LINE
  5
29E
100
AcDbEntity
  8
0
100
AcDbLine
 62
2
  6
CONTINUOUS
 10
13.6052818493
 20
2.5163643272
 11
13.60639085
 21
2.5163643272
  0
ARC
  5
29F
100
AcDbEntity
  8
0
100
AcDbCircle
 62
2
  6
CONTINUOUS
 10
13.6063292954
 20
2.5296129864
 40
0.0132488022
100
AcDbArc
 50
270.266200055
 51
281.2404888597
  0
ARC
  5
2A0
100
AcDbEntity
  8
0
100
AcDbCircle
 62
2
  6
CONTINUOUS
 10
13.6075235364
 20
2.5238762928
 40
0.0073895522
100
AcDbArc
 50
280.8288201977
 51
305.0837508495
  0
ARC
  5
2A1
100
AcDbEntity
  8
0
100
AcDbCircle
 62
2
  6
CONTINUOUS
 10
13.607924718
 20
2.5230254464
 40
0.0064647042
100
AcDbArc
 50
306.5086174083
 51
340.2162360092
  0
ARC
  5
2A2
100
AcDbEntity
  8
0
100
AcDbCircle
 62
2
  6
CONTINUOUS
 10
13.6027235414
 20
2.524769508
 40
0.0119498009
100
AcDbArc
 50
340.7883861657
 51
1.1691452593
  0
LINE
  5
2A3
100
AcDbEntity
  8
0
100
AcDbLine
 62
2
  6
CONTINUOUS
 10
13.6146708546
 20
2.525013332
 11
13.6146708546
 21
2.5276393334
  0
ARC
  5
2A4
100
AcDbEntity
  8
0
100
AcDbCircle
 62
2
  6
CONTINUOUS
 10
13.6171458541
 20
2.5276393353
 40
0.0024749995
100
AcDbArc
 50
89.9999571957
 51
180.0000428043
  0
LINE
  5
2A5
100
AcDbEntity
  8
0
100
AcDbLine
 62
2
  6
CONTINUOUS
 10
13.6171458559
 20
2.5301143348
 11
13.6292558626
 21
2.5301143348
  0
ARC
  5
2A6
100
AcDbEntity
  8
0
100
AcDbCircle
 62
2
  6
CONTINUOUS
 10
13.6292558645
 20
2.5276393353
 40
0.0024749995
100
AcDbArc
 50
359.9999571957
 51
90.0000428043
  0
LINE
  5
2A7
100
AcDbEntity
  8
0
100
AcDbLine
 62
2
  6
CONTINUOUS
 10
13.631730864
 20
2.5276393334
 11
13.631730864
 21
2.516087327
  0
ARC
  5
2A8
100
AcDbEntity
  8
0
100
AcDbCircle
 62
2
  6
CONTINUOUS
 10
13.6141751675
 20
2.5161916447
 40
0.0175560065
100
AcDbArc
 50
332.2279060967
 51
359.6595469939
  0
ARC
  5
2A9
100
AcDbEntity
  8
0
100
AcDbCircle
 62
2
  6
CONTINUOUS
 10
13.6048681567
 20
2.5210861501
 40
0.0280715479
100
AcDbArc
 50
308.5071794988
 51
332.2400656899
  0
ARC
  5
2AA
100
AcDbEntity
  8
0
100
AcDbCircle
 62
2
  6
CONTINUOUS
 10
13.5978759713
 20
2.5286873679
 40
0.0383802683
100
AcDbArc
 50
288.7656836787
 51
309.6104317088
  0
ARC
  5
2AB
100
AcDbEntity
  8
0
100
AcDbCircle
 62
2
  6
CONTINUOUS
 10
13.6036139387
 20
2.5111006186
 40
0.0198837666
100
AcDbArc
 50
271.8586572978
 51
289.4131338543
  0
LINE
  5
2AC
100
AcDbEntity
  8
0
100
AcDbLine
 62
2
  6
CONTINUOUS
 10
13.6042588488
 20
2.4912273132
 11
13.5568948225
 21
2.4912273132
  0
ARC
  5
2AD
100
AcDbEntity
  8
0
100
AcDbCircle
 62
2
  6
CONTINUOUS
 10
13.5577001432
 20
2.5085494649
 40
0.0173408616
100
AcDbArc
 50
232.4713476722
 51
267.338189944
  0
ARC
  5
2AE
100
AcDbEntity
  8
0
100
AcDbCircle
 62
2
  6
CONTINUOUS
 10
13.5607987082
 20
2.5143997688
 40
0.0238935861
100
AcDbArc
 50
209.8247607259
 51
235.1255079367
  0
ARC
  5
2AF
100
AcDbEntity
  8
0
100
AcDbCircle
 62
2
  6
CONTINUOUS
 10
13.5295131508
 20
2.5629115009
 40
0.0110815393
100
AcDbArc
 50
306.758405961
 51
320.4502234234
  0
ARC
  5
2B0
100
AcDbEntity
  8
0
100
AcDbCircle
 62
2
  6
CONTINUOUS
 10
13.5238839599
 20
2.5706523294
 40
0.0206523367
100
AcDbArc
 50
289.6883413472
 51
306.4184925496
  0
ARC
  5
2B1
100
AcDbEntity
  8
0
100
AcDbCircle
 62
2
  6
CONTINUOUS
 10
13.5219564542
 20
2.5750459767
 40
0.0254407115
100
AcDbArc
 50
270.7327484175
 51
290.441894219
  0
LINE
  5
2B2
100
AcDbEntity
  8
0
100
AcDbLine
 62
2
  6
CONTINUOUS
 10
13.5222818033
 20
2.5496073456
 11
13.4883447845
 21
2.5496073456
  0
ARC
  5
2B3
100
AcDbEntity
  8
0
100
AcDbCircle
 62
2
  6
CONTINUOUS
 10
13.4883447827
 20
2.5520823451
 40
0.0024749995
100
AcDbArc
 50
179.9999571957
 51
270.0000428043
  0
LINE
  5
2B4
100
AcDbEntity
  8
0
100
AcDbLine
 62
2
  6
CONTINUOUS
 10
13.4858697831
 20
2.552082347
 11
13.4858697831
 21
2.564807354
  0
ARC
  5
2B5
100
AcDbEntity
  8
0
100
AcDbCircle
 62
2
  6
CONTINUOUS
 10
13.4883447827
 20
2.5648073559
 40
0.0024749995
100
AcDbArc
 50
89.9999571957
 51
180.0000428043
  0
LINE
  5
2B6
100
AcDbEntity
  8
0
100
AcDbLine
 62
2
  6
CONTINUOUS
 10
13.4883447845
 20
2.5672823554
 11
13.5251458049
 21
2.5672823554
  0
ARC
  5
2B7
100
AcDbEntity
  8
0
100
AcDbCircle
 62
2
  6
CONTINUOUS
 10
13.5236009174
 20
2.5388278764
 40
0.0284963867
100
AcDbArc
 50
70.3834917948
 51
86.8922743861
  0
ARC
  5
2B8
100
AcDbEntity
  8
0
100
AcDbCircle
 62
2
  6
CONTINUOUS
 10
13.5284605274
 20
2.5518696094
 40
0.0145814632
100
AcDbArc
 50
54.6746025112
 51
71.1660573124
  0
ARC
  5
2B9
100
AcDbEntity
  8
0
100
AcDbCircle
 62
2
  6
CONTINUOUS
 10
13.5335900184
 20
2.5587235346
 40
0.0060275915
100
AcDbArc
 50
20.9055592135
 51
56.7851676243
  0
ARC
  5
2BA
100
AcDbEntity
  8
0
100
AcDbCircle
 62
2
  6
CONTINUOUS
 10
13.5348905773
 20
2.5593838168
 40
0.0045795888
100
AcDbArc
 50
355.6235353944
 51
18.9942678268
  0
ARC
  5
2BB
100
AcDbEntity
  8
0
100
AcDbCircle
 62
2
  6
CONTINUOUS
 10
13.533683767
 20
2.559677593
 40
0.0058087709
100
AcDbArc
 50
318.8515287446
 51
353.6422345323
  0
LINE
  5
2BC
100
AcDbEntity
  8
0
100
AcDbLine
 62
2
  6
CONTINUOUS
 10
12.672340332
 20
2.5920323691
 11
12.7727983877
 21
2.5920323691
  0
ARC
  5
2BD
100
AcDbEntity
  8
0
100
AcDbCircle
 62
2
  6
CONTINUOUS
 10
12.7727985224
 20
2.5895582013
 40
0.0024741678
100
AcDbArc
 50
46.3477981899
 51
90.0031206038
  0
LINE
  5
2BE
100
AcDbEntity
  8
0
100
AcDbLine
 62
2
  6
CONTINUOUS
 10
12.7745063886
 20
2.5913483688
 11
12.8345394219
 21
2.534068337
  0
ARC
  5
2BF
100
AcDbEntity
  8
0
100
AcDbCircle
 62
2
  6
CONTINUOUS
 10
12.8362481229
 20
2.5358592748
 40
0.0024753014
100
AcDbArc
 50
226.3461263059
 51
0.0014637321
  0
LINE
  5
2C0
100
AcDbEntity
  8
0
100
AcDbLine
 62
2
  6
CONTINUOUS
 10
12.8387234242
 20
2.535859338
 11
12.8387234242
 21
2.564807354
  0
ARC
  5
2C1
100
AcDbEntity
  8
0
100
AcDbCircle
 62
2
  6
CONTINUOUS
 10
12.8362484247
 20
2.5648073559
 40
0.0024749995
100
AcDbArc
 50
359.9999571957
 51
90.0000428043
  0
LINE
  5
2C2
100
AcDbEntity
  8
0
100
AcDbLine
 62
2
  6
CONTINUOUS
 10
12.8362484229
 20
2.5672823554
 11
12.8174724125
 21
2.5672823554
  0
ARC
  5
2C3
100
AcDbEntity
  8
0
100
AcDbCircle
 62
2
  6
CONTINUOUS
 10
12.8174724106
 20
2.5697573549
 40
0.0024749995
100
AcDbArc
 50
179.9999571957
 51
270.0000428043
  0
LINE
  5
2C4
100
AcDbEntity
  8
0
100
AcDbLine
 62
2
  6
CONTINUOUS
 10
12.8149974111
 20
2.5697573568
 11
12.8149974111
 21
2.5895573678
  0
ARC
  5
2C5
100
AcDbEntity
  8
0
100
AcDbCircle
 62
2
  6
CONTINUOUS
 10
12.8174724106
 20
2.5895573696
 40
0.0024749995
100
AcDbArc
 50
89.9999571957
 51
180.0000428043
  0
LINE
  5
2C6
100
AcDbEntity
  8
0
100
AcDbLine
 62
2
  6
CONTINUOUS
 10
12.8174724125
 20
2.5920323691
 11
12.8914734535
 21
2.5920323691
  0
ARC
  5
2C7
100
AcDbEntity
  8
0
100
AcDbCircle
 62
2
  6
CONTINUOUS
 10
12.8914734553
 20
2.5895573696
 40
0.0024749995
100
AcDbArc
 50
359.9999571957
 51
90.0000428043
  0
LINE
  5
2C8
100
AcDbEntity
  8
0
100
AcDbLine
 62
2
  6
CONTINUOUS
 10
12.8939484549
 20
2.5895573678
 11
12.8939484549
 21
2.5697573568
  0
ARC
  5
2C9
100
AcDbEntity
  8
0
100
AcDbCircle
 62
2
  6
CONTINUOUS
 10
12.8914734553
 20
2.5697573549
 40
0.0024749995
100
AcDbArc
 50
269.9999571957
 51
0.0000428043
  0
LINE
  5
2CA
100
AcDbEntity
  8
0
100
AcDbLine
 62
2
  6
CONTINUOUS
 10
12.8914734535
 20
2.5672823554
 11
12.8735404436
 21
2.5672823554
  0
ARC
  5
2CB
100
AcDbEntity
  8
0
100
AcDbCircle
 62
2
  6
CONTINUOUS
 10
12.8735404417
 20
2.5648073559
 40
0.0024749995
100
AcDbArc
 50
89.9999571957
 51
180.0000428043
  0
LINE
  5
2CC
100
AcDbEntity
  8
0
100
AcDbLine
 62
2
  6
CONTINUOUS
 10
12.8710654422
 20
2.564807354
 11
12.8710654422
 21
2.4937023146
  0
ARC
  5
2CD
100
AcDbEntity
  8
0
100
AcDbCircle
 62
2
  6
CONTINUOUS
 10
12.8685904427
 20
2.4937023128
 40
0.0024749995
100
AcDbArc
 50
269.9999571957
 51
0.0000428043
  0
LINE
  5
2CE
100
AcDbEntity
  8
0
100
AcDbLine
 62
2
  6
CONTINUOUS
 10
12.8685904408
 20
2.4912273132
 11
12.7943853997
 21
2.4912273132
  0
ARC
  5
2CF
100
AcDbEntity
  8
0
100
AcDbCircle
 62
2
  6
CONTINUOUS
 10
12.7943847649
 20
2.4937027294
 40
0.0024754162
100
AcDbArc
 50
226.3593695813
 51
270.0146919953
  0
LINE
  5
2D0
100
AcDbEntity
  8
0
100
AcDbLine
 62
2
  6
CONTINUOUS
 10
12.7926763987
 20
2.4919113136
 11
12.7293963636
 21
2.5522893471
  0
ARC
  5
2D1
100
AcDbEntity
  8
0
100
AcDbCircle
 62
2
  6
CONTINUOUS
 10
12.7276876627
 20
2.5504984093
 40
0.0024753014
100
AcDbArc
 50
46.3461263059
 51
180.0014637321
  0
LINE
  5
2D2
100
AcDbEntity
  8
0
100
AcDbLine
 62
2
  6
CONTINUOUS
 10
12.7252123613
 20
2.5504983461
 11
12.7252123613
 21
2.5184523283
  0
ARC
  5
2D3
100
AcDbEntity
  8
0
100
AcDbCircle
 62
2
  6
CONTINUOUS
 10
12.7276873608
 20
2.5184523265
 40
0.0024749995
100
AcDbArc
 50
179.9999571957
 51
270.0000428043
  0
LINE
  5
2D4
100
AcDbEntity
  8
0
100
AcDbLine
 62
2
  6
CONTINUOUS
 10
12.7276873627
 20
2.515977327
 11
12.7480043739
 21
2.515977327
  0
ARC
  5
2D5
100
AcDbEntity
  8
0
100
AcDbCircle
 62
2
  6
CONTINUOUS
 10
12.7480043758
 20
2.5135023274
 40
0.0024749995
100
AcDbArc
 50
359.9999571957
 51
90.0000428043
  0
LINE
  5
2D6
100
AcDbEntity
  8
0
100
AcDbLine
 62
2
  6
CONTINUOUS
 10
12.7504793753
 20
2.5135023256
 11
12.7504793753
 21
2.4937023146
  0
ARC
  5
2D7
100
AcDbEntity
  8
0
100
AcDbCircle
 62
2
  6
CONTINUOUS
 10
12.7480043758
 20
2.4937023128
 40
0.0024749995
100
AcDbArc
 50
269.9999571957
 51
0.0000428043
  0
LINE
  5
2D8
100
AcDbEntity
  8
0
100
AcDbLine
 62
2
  6
CONTINUOUS
 10
12.7480043739
 20
2.4912273132
 11
12.672340332
 21
2.4912273132
  0
ARC
  5
2D9
100
AcDbEntity
  8
0
100
AcDbCircle
 62
2
  6
CONTINUOUS
 10
12.6723403301
 20
2.4937023128
 40
0.0024749995
100
AcDbArc
 50
179.9999571957
 51
270.0000428043
  0
LINE
  5
2DA
100
AcDbEntity
  8
0
100
AcDbLine
 62
2
  6
CONTINUOUS
 10
12.6698653306
 20
2.4937023146
 11
12.6698653306
 21
2.5135023256
  0
ARC
  5
2DB
100
AcDbEntity
  8
0
100
AcDbCircle
 62
2
  6
CONTINUOUS
 10
12.6723403301
 20
2.5135023274
 40
0.0024749995
100
AcDbArc
 50
89.9999571957
 51
180.0000428043
  0
LINE
  5
2DC
100
AcDbEntity
  8
0
100
AcDbLine
 62
2
  6
CONTINUOUS
 10
12.672340332
 20
2.515977327
 11
12.6909873423
 21
2.515977327
  0
ARC
  5
2DD
100
AcDbEntity
  8
0
100
AcDbCircle
 62
2
  6
CONTINUOUS
 10
12.6909873442
 20
2.5184523265
 40
0.0024749995
100
AcDbArc
 50
269.9999571957
 51
0.0000428043
  0
LINE
  5
2DE
100
AcDbEntity
  8
0
100
AcDbLine
 62
2
  6
CONTINUOUS
 10
12.6934623437
 20
2.5184523283
 11
12.6934623437
 21
2.564807354
  0
ARC
  5
2DF
100
AcDbEntity
  8
0
100
AcDbCircle
 62
2
  6
CONTINUOUS
 10
12.6909873442
 20
2.5648073559
 40
0.0024749995
100
AcDbArc
 50
359.9999571957
 51
90.0000428043
  0
LINE
  5
2E0
100
AcDbEntity
  8
0
100
AcDbLine
 62
2
  6
CONTINUOUS
 10
12.6909873423
 20
2.5672823554
 11
12.672340332
 21
2.5672823554
  0
ARC
  5
2E1
100
AcDbEntity
  8
0
100
AcDbCircle
 62
2
  6
CONTINUOUS
 10
12.6723403301
 20
2.5697573549
 40
0.0024749995
100
AcDbArc
 50
179.9999571957
 51
270.0000428043
  0
LINE
  5
2E2
100
AcDbEntity
  8
0
100
AcDbLine
 62
2
  6
CONTINUOUS
 10
12.6698653306
 20
2.5697573568
 11
12.6698653306
 21
2.5895573678
  0
ARC
  5
2E3
100
AcDbEntity
  8
0
100
AcDbCircle
 62
2
  6
CONTINUOUS
 10
12.6723403301
 20
2.5895573696
 40
0.0024749995
100
AcDbArc
 50
89.9999571957
 51
180.0000428043
  0
LINE
  5
2E4
100
AcDbEntity
  8
0
100
AcDbLine
 62
2
  6
CONTINUOUS
 10
12.5246402501
 20
2.5655893545
 11
12.5175232461
 21
2.5543723483
  0
ARC
  5
2E5
100
AcDbEntity
  8
0
100
AcDbCircle
 62
2
  6
CONTINUOUS
 10
12.519613138
 20
2.5530463862
 40
0.0024750401
100
AcDbArc
 50
147.6063258012
 51
270.0025305754
  0
LINE
  5
2E6
100
AcDbEntity
  8
0
100
AcDbLine
 62
2
  6
CONTINUOUS
 10
12.5196132473
 20
2.5505713461
 11
12.5401702587
 21
2.5505713461
  0
ARC
  5
2E7
100
AcDbEntity
  8
0
100
AcDbCircle
 62
2
  6
CONTINUOUS
 10
12.5401702375
 20
2.5530465533
 40
0.0024752071
100
AcDbArc
 50
270.0004896793
 51
32.9089806818
  0
LINE
  5
2E8
100
AcDbEntity
  8
0
100
AcDbLine
 62
2
  6
CONTINUOUS
 10
12.5422482598
 20
2.5543913483
 11
12.5349892558
 21
2.5656073545
  0
ARC
  5
2E9
100
AcDbEntity
  8
0
100
AcDbCircle
 62
2
  6
CONTINUOUS
 10
12.532910715
 20
2.564262895
 40
0.0024754602
100
AcDbArc
 50
32.8959418573
 51
89.9875097202
  0
LINE
  5
2EA
100
AcDbEntity
  8
0
100
AcDbLine
 62
2
  6
CONTINUOUS
 10
12.5329112547
 20
2.5667383551
 11
12.5267302512
 21
2.5667383551
  0
ARC
  5
2EB
100
AcDbEntity
  8
0
100
AcDbCircle
 62
2
  6
CONTINUOUS
 10
12.5267301809
 20
2.5642631548
 40
0.0024752003
100
AcDbArc
 50
89.998372645
 51
147.602165307
  0
LINE
  5
2EC
100
AcDbEntity
  8
0
100
AcDbLine
 62
2
  6
CONTINUOUS
 10
12.548053263
 20
2.5284903339
 11
12.5536792662
 21
2.5197973291
  0
ARC
  5
2ED
100
AcDbEntity
  8
0
100
AcDbCircle
 62
2
  6
CONTINUOUS
 10
12.5516012439
 20
2.5184525341
 40
0.0024752071
100
AcDbArc
 50
270.0004896794
 51
32.9089806818
  0
LINE
  5
2EE
100
AcDbEntity
  8
0
100
AcDbLine
 62
2
  6
CONTINUOUS
 10
12.551601265
 20
2.515977327
 11
12.537150257
 21
2.515977327
  0
ARC
  5
2EF
100
AcDbEntity
  8
0
100
AcDbCircle
 62
2
  6
CONTINUOUS
 10
12.5371502552
 20
2.5135023274
 40
0.0024749995
100
AcDbArc
 50
89.9999571957
 51
180.0000428043
  0
LINE
  5
2F0
100
AcDbEntity
  8
0
100
AcDbLine
 62
2
  6
CONTINUOUS
 10
12.5346752556
 20
2.5135023256
 11
12.5346752556
 21
2.4937023146
  0
ARC
  5
2F1
100
AcDbEntity
  8
0
100
AcDbCircle
 62
2
  6
CONTINUOUS
 10
12.5371502552
 20
2.4937023128
 40
0.0024749995
100
AcDbArc
 50
179.9999571957
 51
270.0000428043
  0
LINE
  5
2F2
100
AcDbEntity
  8
0
100
AcDbLine
 62
2
  6
CONTINUOUS
 10
12.537150257
 20
2.4912273132
 11
12.6424313154
 21
2.4912273132
  0
ARC
  5
2F3
100
AcDbEntity
  8
0
100
AcDbCircle
 62
2
  6
CONTINUOUS
 10
12.6424313172
 20
2.4937023128
 40
0.0024749995
100
AcDbArc
 50
269.9999571957
 51
0.0000428043
  0
LINE
  5
2F4
100
AcDbEntity
  8
0
100
AcDbLine
 62
2
  6
CONTINUOUS
 10
12.6449063168
 20
2.4937023146
 11
12.6449063168
 21
2.5135023256
  0
ARC
  5
2F5
100
AcDbEntity
  8
0
100
AcDbCircle
 62
2
  6
CONTINUOUS
 10
12.6424313172
 20
2.5135023274
 40
0.0024749995
100
AcDbArc
 50
359.9999571957
 51
90.0000428043
  0
LINE
  5
2F6
100
AcDbEntity
  8
0
100
AcDbLine
 62
2
  6
CONTINUOUS
 10
12.6424313154
 20
2.515977327
 11
12.6224153043
 21
2.515977327
  0
ARC
  5
2F7
100
AcDbEntity
  8
0
100
AcDbCircle
 62
2
  6
CONTINUOUS
 10
12.6224154248
 20
2.518451368
 40
0.002474041
100
AcDbArc
 50
212.9056413127
 51
269.9972091756
  0
LINE
  5
2F8
100
AcDbEntity
  8
0
100
AcDbLine
 62
2
  6
CONTINUOUS
 10
12.6203383031
 20
2.5171073276
 11
12.5725822767
 21
2.5909023685
  0
ARC
  5
2F9
100
AcDbEntity
  8
0
100
AcDbCircle
 62
2
  6
CONTINUOUS
 10
12.570504655
 20
2.589557409
 40
0.0024749602
100
AcDbArc
 50
32.9172174468
 51
90.0087853097
  0
LINE
  5
2FA
100
AcDbEntity
  8
0
100
AcDbLine
 62
2
  6
CONTINUOUS
 10
12.5705042755
 20
2.5920323691
 11
12.5133292438
 21
2.5920323691
  0
ARC
  5
2FB
100
AcDbEntity
  8
0
100
AcDbCircle
 62
2
  6
CONTINUOUS
 10
12.5133291735
 20
2.5895571688
 40
0.0024752003
100
AcDbArc
 50
89.9983726451
 51
147.602165307
  0
LINE
  5
2FC
100
AcDbEntity
  8
0
100
AcDbLine
 62
2
  6
CONTINUOUS
 10
12.5112392426
 20
2.5908833685
 11
12.4644392167
 21
2.5171263276
  0
ARC
  5
2FD
100
AcDbEntity
  8
0
100
AcDbCircle
 62
2
  6
CONTINUOUS
 10
12.4623492858
 20
2.5184525273
 40
0.0024752003
100
AcDbArc
 50
269.9983726451
 51
327.602165307
  0
LINE
  5
2FE
100
AcDbEntity
  8
0
100
AcDbLine
 62
2
  6
CONTINUOUS
 10
12.4623492155
 20
2.515977327
 11
12.4394882028
 21
2.515977327
  0
ARC
  5
2FF
100
AcDbEntity
  8
0
100
AcDbCircle
 62
2
  6
CONTINUOUS
 10
12.439488201
 20
2.5135023274
 40
0.0024749995
100
AcDbArc
 50
89.9999571957
 51
180.0000428043
  0
LINE
  5
300
100
AcDbEntity
  8
0
100
AcDbLine
 62
2
  6
CONTINUOUS
 10
12.4370132015
 20
2.5135023256
 11
12.4370132015
 21
2.4937023146
  0
ARC
  5
301
100
AcDbEntity
  8
0
100
AcDbCircle
 62
2
  6
CONTINUOUS
 10
12.439488201
 20
2.4937023128
 40
0.0024749995
100
AcDbArc
 50
179.9999571957
 51
270.0000428043
  0
LINE
  5
302
100
AcDbEntity
  8
0
100
AcDbLine
 62
2
  6
CONTINUOUS
 10
12.4394882028
 20
2.4912273132
 11
12.5168642458
 21
2.4912273132
  0
ARC
  5
303
100
AcDbEntity
  8
0
100
AcDbCircle
 62
2
  6
CONTINUOUS
 10
12.5168642476
 20
2.4937023128
 40
0.0024749995
100
AcDbArc
 50
269.9999571957
 51
0.0000428043
  0
LINE
  5
304
100
AcDbEntity
  8
0
100
AcDbLine
 62
2
  6
CONTINUOUS
 10
12.5193392471
 20
2.4937023146
 11
12.5193392471
 21
2.5135023256
  0
ARC
  5
305
100
AcDbEntity
  8
0
100
AcDbCircle
 62
2
  6
CONTINUOUS
 10
12.5168642476
 20
2.5135023274
 40
0.0024749995
100
AcDbArc
 50
359.9999571957
 51
90.0000428043
  0
LINE
  5
306
100
AcDbEntity
  8
0
100
AcDbLine
 62
2
  6
CONTINUOUS
 10
12.5168642458
 20
2.515977327
 11
12.5055812395
 21
2.515977327
  0
ARC
  5
307
100
AcDbEntity
  8
0
100
AcDbCircle
 62
2
  6
CONTINUOUS
 10
12.5055811302
 20
2.518452367
 40
0.0024750401
100
AcDbArc
 50
147.6063258011
 51
270.0025305754
  0
LINE
  5
308
100
AcDbEntity
  8
0
100
AcDbLine
 62
2
  6
CONTINUOUS
 10
12.5034912383
 20
2.5197783291
 11
12.5090072414
 21
2.5284723339
  0
ARC
  5
309
100
AcDbEntity
  8
0
100
AcDbCircle
 62
2
  6
CONTINUOUS
 10
12.5110971723
 20
2.5271461342
 40
0.0024752003
100
AcDbArc
 50
89.998372645
 51
147.602165307
  0
LINE
  5
30A
100
AcDbEntity
  8
0
100
AcDbLine
 62
2
  6
CONTINUOUS
 10
12.5110972426
 20
2.5296213345
 11
12.5459752619
 21
2.5296213345
  0
ARC
  5
30B
100
AcDbEntity
  8
0
100
AcDbCircle
 62
2
  6
CONTINUOUS
 10
12.5459747223
 20
2.5271458744
 40
0.0024754602
100
AcDbArc
 50
32.8959418573
 51
89.9875097202
  0
LINE
  5
30C
100
AcDbEntity
  8
0
100
AcDbLine
 62
2
  6
CONTINUOUS
 10
12.9205934696
 20
2.5920323691
 11
13.0210515254
 21
2.5920323691
  0
ARC
  5
30D
100
AcDbEntity
  8
0
100
AcDbCircle
 62
2
  6
CONTINUOUS
 10
13.0210516601
 20
2.5895582013
 40
0.0024741678
100
AcDbArc
 50
46.3477981899
 51
90.0031206038
  0
LINE
  5
30E
100
AcDbEntity
  8
0
100
AcDbLine
 62
2
  6
CONTINUOUS
 10
13.0227595263
 20
2.5913483688
 11
13.0827925596
 21
2.534068337
  0
ARC
  5
30F
100
AcDbEntity
  8
0
100
AcDbCircle
 62
2
  6
CONTINUOUS
 10
13.0845012605
 20
2.5358592748
 40
0.0024753014
100
AcDbArc
 50
226.3461263059
 51
0.0014637321
  0
LINE
  5
310
100
AcDbEntity
  8
0
100
AcDbLine
 62
2
  6
CONTINUOUS
 10
13.0869765619
 20
2.535859338
 11
13.0869765619
 21
2.564807354
  0
ARC
  5
311
100
AcDbEntity
  8
0
100
AcDbCircle
 62
2
  6
CONTINUOUS
 10
13.0845015624
 20
2.5648073559
 40
0.0024749995
100
AcDbArc
 50
359.9999571957
 51
90.0000428043
  0
LINE
  5
312
100
AcDbEntity
  8
0
100
AcDbLine
 62
2
  6
CONTINUOUS
 10
13.0845015605
 20
2.5672823554
 11
13.0657255501
 21
2.5672823554
  0
ARC
  5
313
100
AcDbEntity
  8
0
100
AcDbCircle
 62
2
  6
CONTINUOUS
 10
13.0657255483
 20
2.5697573549
 40
0.0024749995
100
AcDbArc
 50
179.9999571957
 51
270.0000428043
  0
LINE
  5
314
100
AcDbEntity
  8
0
100
AcDbLine
 62
2
  6
CONTINUOUS
 10
13.0632505488
 20
2.5697573568
 11
13.0632505488
 21
2.5895573678
  0
ARC
  5
315
100
AcDbEntity
  8
0
100
AcDbCircle
 62
2
  6
CONTINUOUS
 10
13.0657255483
 20
2.5895573696
 40
0.0024749995
100
AcDbArc
 50
89.9999571957
 51
180.0000428043
  0
LINE
  5
316
100
AcDbEntity
  8
0
100
AcDbLine
 62
2
  6
CONTINUOUS
 10
13.0657255501
 20
2.5920323691
 11
13.1397265912
 21
2.5920323691
  0
ARC
  5
317
100
AcDbEntity
  8
0
100
AcDbCircle
 62
2
  6
CONTINUOUS
 10
13.139726593
 20
2.5895573696
 40
0.0024749995
100
AcDbArc
 50
359.9999571957
 51
90.0000428043
  0
LINE
  5
318
100
AcDbEntity
  8
0
100
AcDbLine
 62
2
  6
CONTINUOUS
 10
13.1422015925
 20
2.5895573678
 11
13.1422015925
 21
2.5697573568
  0
ARC
  5
319
100
AcDbEntity
  8
0
100
AcDbCircle
 62
2
  6
CONTINUOUS
 10
13.139726593
 20
2.5697573549
 40
0.0024749995
100
AcDbArc
 50
269.9999571957
 51
0.0000428042
  0
LINE
  5
31A
100
AcDbEntity
  8
0
100
AcDbLine
 62
2
  6
CONTINUOUS
 10
13.1397265912
 20
2.5672823554
 11
13.1217935812
 21
2.5672823554
  0
ARC
  5
31B
100
AcDbEntity
  8
0
100
AcDbCircle
 62
2
  6
CONTINUOUS
 10
13.1217935794
 20
2.5648073559
 40
0.0024749995
100
AcDbArc
 50
89.9999571957
 51
180.0000428042
  0
LINE
  5
31C
100
AcDbEntity
  8
0
100
AcDbLine
 62
2
  6
CONTINUOUS
 10
13.1193185799
 20
2.564807354
 11
13.1193185799
 21
2.4937023146
  0
ARC
  5
31D
100
AcDbEntity
  8
0
100
AcDbCircle
 62
2
  6
CONTINUOUS
 10
13.1168435803
 20
2.4937023128
 40
0.0024749995
100
AcDbArc
 50
269.9999571957
 51
0.0000428043
  0
LINE
  5
31E
100
AcDbEntity
  8
0
100
AcDbLine
 62
2
  6
CONTINUOUS
 10
13.1168435785
 20
2.4912273132
 11
13.0426375373
 21
2.4912273132
  0
ARC
  5
31F
100
AcDbEntity
  8
0
100
AcDbCircle
 62
2
  6
CONTINUOUS
 10
13.0426374026
 20
2.493701481
 40
0.0024741678
100
AcDbArc
 50
226.3477981898
 51
270.0031206038
  0
LINE
  5
320
100
AcDbEntity
  8
0
100
AcDbLine
 62
2
  6
CONTINUOUS
 10
13.0409295364
 20
2.4919113136
 11
12.9776495013
 21
2.5522893471
  0
ARC
  5
321
100
AcDbEntity
  8
0
100
AcDbCircle
 62
2
  6
CONTINUOUS
 10
12.9759408003
 20
2.5504984093
 40
0.0024753014
100
AcDbArc
 50
46.3461263059
 51
180.0014637321
  0
LINE
  5
322
100
AcDbEntity
  8
0
100
AcDbLine
 62
2
  6
CONTINUOUS
 10
12.973465499
 20
2.5504983461
 11
12.973465499
 21
2.5184523283
  0
ARC
  5
323
100
AcDbEntity
  8
0
100
AcDbCircle
 62
2
  6
CONTINUOUS
 10
12.9759404985
 20
2.5184523265
 40
0.0024749995
100
AcDbArc
 50
179.9999571957
 51
270.0000428043
  0
LINE
  5
324
100
AcDbEntity
  8
0
100
AcDbLine
 62
2
  6
CONTINUOUS
 10
12.9759405003
 20
2.515977327
 11
12.9962575116
 21
2.515977327
  0
ARC
  5
325
100
AcDbEntity
  8
0
100
AcDbCircle
 62
2
  6
CONTINUOUS
 10
12.9962575135
 20
2.5135023274
 40
0.0024749995
100
AcDbArc
 50
359.9999571957
 51
90.0000428043
  0
LINE
  5
326
100
AcDbEntity
  8
0
100
AcDbLine
 62
2
  6
CONTINUOUS
 10
12.998732513
 20
2.5135023256
 11
12.998732513
 21
2.4937023146
  0
ARC
  5
327
100
AcDbEntity
  8
0
100
AcDbCircle
 62
2
  6
CONTINUOUS
 10
12.9962575135
 20
2.4937023128
 40
0.0024749995
100
AcDbArc
 50
269.9999571957
 51
0.0000428043
  0
LINE
  5
328
100
AcDbEntity
  8
0
100
AcDbLine
 62
2
  6
CONTINUOUS
 10
12.9962575116
 20
2.4912273132
 11
12.9205934696
 21
2.4912273132
  0
ARC
  5
329
100
AcDbEntity
  8
0
100
AcDbCircle
 62
2
  6
CONTINUOUS
 10
12.9205934678
 20
2.4937023128
 40
0.0024749995
100
AcDbArc
 50
179.9999571957
 51
270.0000428043
  0
LINE
  5
32A
100
AcDbEntity
  8
0
100
AcDbLine
 62
2
  6
CONTINUOUS
 10
12.9181184683
 20
2.4937023146
 11
12.9181184683
 21
2.5135023256
  0
ARC
  5
32B
100
AcDbEntity
  8
0
100
AcDbCircle
 62
2
  6
CONTINUOUS
 10
12.9205934678
 20
2.5135023274
 40
0.0024749995
100
AcDbArc
 50
89.9999571957
 51
180.0000428042
  0
LINE
  5
32C
100
AcDbEntity
  8
0
100
AcDbLine
 62
2
  6
CONTINUOUS
 10
12.9205934696
 20
2.515977327
 11
12.93923948
 21
2.515977327
  0
ARC
  5
32D
100
AcDbEntity
  8
0
100
AcDbCircle
 62
2
  6
CONTINUOUS
 10
12.9392394818
 20
2.5184523265
 40
0.0024749995
100
AcDbArc
 50
269.9999571957
 51
0.0000428043
  0
LINE
  5
32E
100
AcDbEntity
  8
0
100
AcDbLine
 62
2
  6
CONTINUOUS
 10
12.9417144814
 20
2.5184523283
 11
12.9417144814
 21
2.564807354
  0
ARC
  5
32F
100
AcDbEntity
  8
0
100
AcDbCircle
 62
2
  6
CONTINUOUS
 10
12.9392394818
 20
2.5648073559
 40
0.0024749995
100
AcDbArc
 50
359.9999571957
 51
90.0000428043
  0
LINE
  5
330
100
AcDbEntity
  8
0
100
AcDbLine
 62
2
  6
CONTINUOUS
 10
12.93923948
 20
2.5672823554
 11
12.9205934696
 21
2.5672823554
  0
ARC
  5
331
100
AcDbEntity
  8
0
100
AcDbCircle
 62
2
  6
CONTINUOUS
 10
12.9205934678
 20
2.5697573549
 40
0.0024749995
100
AcDbArc
 50
179.9999571957
 51
270.0000428043
  0
LINE
  5
332
100
AcDbEntity
  8
0
100
AcDbLine
 62
2
  6
CONTINUOUS
 10
12.9181184683
 20
2.5697573568
 11
12.9181184683
 21
2.5895573678
  0
ARC
  5
333
100
AcDbEntity
  8
0
100
AcDbCircle
 62
2
  6
CONTINUOUS
 10
12.9205934678
 20
2.5895573696
 40
0.0024749995
100
AcDbArc
 50
89.9999571957
 51
180.0000428042
  0
LINE
  5
334
100
AcDbEntity
  8
0
100
AcDbLine
 62
2
  6
CONTINUOUS
 10
13.2934226764
 20
2.5324773361
 11
13.2582556569
 21
2.5324773361
  0
ARC
  5
335
100
AcDbEntity
  8
0
100
AcDbCircle
 62
2
  6
CONTINUOUS
 10
13.2582556551
 20
2.5300023366
 40
0.0024749995
100
AcDbArc
 50
89.9999571957
 51
180.0000428043
  0
LINE
  5
336
100
AcDbEntity
  8
0
100
AcDbLine
 62
2
  6
CONTINUOUS
 10
13.2557806555
 20
2.5300023347
 11
13.2557806555
 21
2.5184523283
  0
ARC
  5
337
100
AcDbEntity
  8
0
100
AcDbCircle
 62
2
  6
CONTINUOUS
 10
13.2582556551
 20
2.5184523265
 40
0.0024749995
100
AcDbArc
 50
179.9999571957
 51
270.0000428043
  0
LINE
  5
338
100
AcDbEntity
  8
0
100
AcDbLine
 62
2
  6
CONTINUOUS
 10
13.2582556569
 20
2.515977327
 11
13.3232596929
 21
2.515977327
  0
ARC
  5
339
100
AcDbEntity
  8
0
100
AcDbCircle
 62
2
  6
CONTINUOUS
 10
13.3232596948
 20
2.5184523265
 40
0.0024749995
100
AcDbArc
 50
269.9999571957
 51
0.0000428043
  0
LINE
  5
33A
100
AcDbEntity
  8
0
100
AcDbLine
 62
2
  6
CONTINUOUS
 10
13.3257346943
 20
2.5184523283
 11
13.3257346943
 21
2.5267023329
  0
ARC
  5
33B
100
AcDbEntity
  8
0
100
AcDbCircle
 62
2
  6
CONTINUOUS
 10
13.3282096938
 20
2.5267023348
 40
0.0024749995
100
AcDbArc
 50
89.9999571957
 51
180.0000428043
  0
LINE
  5
33C
100
AcDbEntity
  8
0
100
AcDbLine
 62
2
  6
CONTINUOUS
 10
13.3282096957
 20
2.5291773343
 11
13.3705287192
 21
2.5291773343
  0
ARC
  5
33D
100
AcDbEntity
  8
0
100
AcDbCircle
 62
2
  6
CONTINUOUS
 10
13.370528721
 20
2.5267023348
 40
0.0024749995
100
AcDbArc
 50
359.9999571957
 51
90.0000428043
  0
LINE
  5
33E
100
AcDbEntity
  8
0
100
AcDbLine
 62
2
  6
CONTINUOUS
 10
13.3730037205
 20
2.5267023329
 11
13.3730037205
 21
2.4937023146
  0
ARC
  5
33F
100
AcDbEntity
  8
0
100
AcDbCircle
 62
2
  6
CONTINUOUS
 10
13.370528721
 20
2.4937023128
 40
0.0024749995
100
AcDbArc
 50
269.9999571957
 51
0.0000428043
  0
LINE
  5
340
100
AcDbEntity
  8
0
100
AcDbLine
 62
2
  6
CONTINUOUS
 10
13.3705287192
 20
2.4912273132
 11
13.1673166065
 21
2.4912273132
  0
ARC
  5
341
100
AcDbEntity
  8
0
100
AcDbCircle
 62
2
  6
CONTINUOUS
 10
13.1673166046
 20
2.4937023128
 40
0.0024749995
100
AcDbArc
 50
179.9999571957
 51
270.0000428043
  0
LINE
  5
342
100
AcDbEntity
  8
0
100
AcDbLine
 62
2
  6
CONTINUOUS
 10
13.1648416051
 20
2.4937023146
 11
13.1648416051
 21
2.5135023256
  0
ARC
  5
343
100
AcDbEntity
  8
0
100
AcDbCircle
 62
2
  6
CONTINUOUS
 10
13.1673166046
 20
2.5135023274
 40
0.0024749995
100
AcDbArc
 50
89.9999571957
 51
180.0000428043
  0
LINE
  5
344
100
AcDbEntity
  8
0
100
AcDbLine
 62
2
  6
CONTINUOUS
 10
13.1673166065
 20
2.515977327
 11
13.1912396197
 21
2.515977327
  0
ARC
  5
345
100
AcDbEntity
  8
0
100
AcDbCircle
 62
2
  6
CONTINUOUS
 10
13.1912396216
 20
2.5184523265
 40
0.0024749995
100
AcDbArc
 50
269.9999571957
 51
0.0000428042
  0
LINE
  5
346
100
AcDbEntity
  8
0
100
AcDbLine
 62
2
  6
CONTINUOUS
 10
13.1937146211
 20
2.5184523283
 11
13.1937146211
 21
2.564807354
  0
ARC
  5
347
100
AcDbEntity
  8
0
100
AcDbCircle
 62
2
  6
CONTINUOUS
 10
13.1912396216
 20
2.5648073559
 40
0.0024749995
100
AcDbArc
 50
359.9999571957
 51
90.0000428043
  0
LINE
  5
348
100
AcDbEntity
  8
0
100
AcDbLine
 62
2
  6
CONTINUOUS
 10
13.1912396197
 20
2.5672823554
 11
13.1673166065
 21
2.5672823554
  0
ARC
  5
349
100
AcDbEntity
  8
0
100
AcDbCircle
 62
2
  6
CONTINUOUS
 10
13.1673166046
 20
2.5697573549
 40
0.0024749995
100
AcDbArc
 50
179.9999571957
 51
270.0000428043
  0
LINE
  5
34A
100
AcDbEntity
  8
0
100
AcDbLine
 62
2
  6
CONTINUOUS
 10
13.1648416051
 20
2.5697573568
 11
13.1648416051
 21
2.5895573678
  0
ARC
  5
34B
100
AcDbEntity
  8
0
100
AcDbCircle
 62
2
  6
CONTINUOUS
 10
13.1673166046
 20
2.5895573696
 40
0.0024749995
100
AcDbArc
 50
89.9999571957
 51
180.0000428043
  0
LINE
  5
34C
100
AcDbEntity
  8
0
100
AcDbLine
 62
2
  6
CONTINUOUS
 10
13.1673166065
 20
2.5920323691
 11
13.3691097184
 21
2.5920323691
  0
ARC
  5
34D
100
AcDbEntity
  8
0
100
AcDbCircle
 62
2
  6
CONTINUOUS
 10
13.3691097202
 20
2.5895573696
 40
0.0024749995
100
AcDbArc
 50
359.9999571957
 51
90.0000428043
  0
LINE
  5
34E
100
AcDbEntity
  8
0
100
AcDbLine
 62
2
  6
CONTINUOUS
 10
13.3715847197
 20
2.5895573678
 11
13.3715847197
 21
2.5565573495
  0
ARC
  5
34F
100
AcDbEntity
  8
0
100
AcDbCircle
 62
2
  6
CONTINUOUS
 10
13.3691097202
 20
2.5565573476
 40
0.0024749995
100
AcDbArc
 50
269.9999571957
 51
0.0000428042
  0
LINE
  5
350
100
AcDbEntity
  8
0
100
AcDbLine
 62
2
  6
CONTINUOUS
 10
13.3691097184
 20
2.5540823481
 11
13.3272456952
 21
2.5540823481
  0
ARC
  5
351
100
AcDbEntity
  8
0
100
AcDbCircle
 62
2
  6
CONTINUOUS
 10
13.3272456933
 20
2.5565573476
 40
0.0024749995
100
AcDbArc
 50
179.9999571957
 51
270.0000428043
  0
LINE
  5
352
100
AcDbEntity
  8
0
100
AcDbLine
 62
2
  6
CONTINUOUS
 10
13.3247706938
 20
2.5565573495
 11
13.3247706938
 21
2.564807354
  0
ARC
  5
353
100
AcDbEntity
  8
0
100
AcDbCircle
 62
2
  6
CONTINUOUS
 10
13.3222956943
 20
2.5648073559
 40
0.0024749995
100
AcDbArc
 50
359.9999571957
 51
90.0000428043
  0
LINE
  5
354
100
AcDbEntity
  8
0
100
AcDbLine
 62
2
  6
CONTINUOUS
 10
13.3222956924
 20
2.5672823554
 11
13.2582556569
 21
2.5672823554
  0
ARC
  5
355
100
AcDbEntity
  8
0
100
AcDbCircle
 62
2
  6
CONTINUOUS
 10
13.2582556551
 20
2.5648073559
 40
0.0024749995
100
AcDbArc
 50
89.9999571957
 51
180.0000428043
  0
LINE
  5
356
100
AcDbEntity
  8
0
100
AcDbLine
 62
2
  6
CONTINUOUS
 10
13.2557806555
 20
2.564807354
 11
13.2557806555
 21
2.5532573476
  0
ARC
  5
357
100
AcDbEntity
  8
0
100
AcDbCircle
 62
2
  6
CONTINUOUS
 10
13.2582556551
 20
2.5532573458
 40
0.0024749995
100
AcDbArc
 50
179.9999571957
 51
270.0000428043
  0
LINE
  5
358
100
AcDbEntity
  8
0
100
AcDbLine
 62
2
  6
CONTINUOUS
 10
13.2582556569
 20
2.5507823463
 11
13.2934226764
 21
2.5507823463
  0
ARC
  5
359
100
AcDbEntity
  8
0
100
AcDbCircle
 62
2
  6
CONTINUOUS
 10
13.2934226783
 20
2.5483073467
 40
0.0024749995
100
AcDbArc
 50
359.9999571957
 51
90.0000428043
  0
LINE
  5
35A
100
AcDbEntity
  8
0
100
AcDbLine
 62
2
  6
CONTINUOUS
 10
13.2958976778
 20
2.5483073449
 11
13.2958976778
 21
2.5349523375
  0
ARC
  5
35B
100
AcDbEntity
  8
0
100
AcDbCircle
 62
2
  6
CONTINUOUS
 10
13.2934226783
 20
2.5349523356
 40
0.0024749995
100
AcDbArc
 50
269.9999571957
 51
0.0000428042
  0
LINE
  5
35C
100
AcDbEntity
  8
0
100
AcDbLine
 62
2
  6
CONTINUOUS
 10
13.7286871589
 20
2.5350697372
 11
13.7286871589
 21
2.5456869438
  0
LINE
  5
35D
100
AcDbEntity
  8
0
100
AcDbLine
 62
2
  6
CONTINUOUS
 10
13.7086871478
 20
2.5004302075
 11
13.7086871478
 21
2.5803264735
  0
LINE
  5
35E
100
AcDbEntity
  8
0
100
AcDbLine
 62
2
  6
CONTINUOUS
 10
13.6886871368
 20
2.4843919416
 11
13.6886871368
 21
2.5963647394
  0
LINE
  5
35F
100
AcDbEntity
  8
0
100
AcDbLine
 62
2
  6
CONTINUOUS
 10
13.6686871257
 20
2.4726017898
 11
13.6686871257
 21
2.6081548911
  0
LINE
  5
360
100
AcDbEntity
  8
0
100
AcDbLine
 62
2
  6
CONTINUOUS
 10
13.6486871146
 20
2.4628062688
 11
13.6486871146
 21
2.6179504122
  0
LINE
  5
361
100
AcDbEntity
  8
0
100
AcDbLine
 62
2
  6
CONTINUOUS
 10
13.6286871035
 20
2.4541253507
 11
13.6286871035
 21
2.5062483056
  0
LINE
  5
362
100
AcDbEntity
  8
0
100
AcDbLine
 62
2
  6
CONTINUOUS
 10
13.6286871035
 20
2.5301143348
 11
13.6286871035
 21
2.6266313303
  0
LINE
  5
363
100
AcDbEntity
  8
0
100
AcDbLine
 62
2
  6
CONTINUOUS
 10
13.6086870924
 20
2.4465537903
 11
13.6086870924
 21
2.4918774918
  0
LINE
  5
364
100
AcDbEntity
  8
0
100
AcDbLine
 62
2
  6
CONTINUOUS
 10
13.6086870924
 20
2.5165781173
 11
13.6086870924
 21
2.6342028907
  0
LINE
  5
365
100
AcDbEntity
  8
0
100
AcDbLine
 62
2
  6
CONTINUOUS
 10
13.5886870813
 20
2.4398033466
 11
13.5886870813
 21
2.4912273132
  0
LINE
  5
366
100
AcDbEntity
  8
0
100
AcDbLine
 62
2
  6
CONTINUOUS
 10
13.5886870813
 20
2.5391840845
 11
13.5886870813
 21
2.5454298327
  0
LINE
  5
367
100
AcDbEntity
  8
0
100
AcDbLine
 62
2
  6
CONTINUOUS
 10
13.5886870813
 20
2.5862063472
 11
13.5886870813
 21
2.6409533343
  0
LINE
  5
368
100
AcDbEntity
  8
0
100
AcDbLine
 62
2
  6
CONTINUOUS
 10
13.5686870702
 20
2.4334702189
 11
13.5686870702
 21
2.4912273132
  0
LINE
  5
369
100
AcDbEntity
  8
0
100
AcDbLine
 62
2
  6
CONTINUOUS
 10
13.5686870702
 20
2.5906587765
 11
13.5686870702
 21
2.647286462
  0
LINE
  5
36A
100
AcDbEntity
  8
0
100
AcDbLine
 62
2
  6
CONTINUOUS
 10
13.5486870591
 20
2.4278968124
 11
13.5486870591
 21
2.4937461006
  0
LINE
  5
36B
100
AcDbEntity
  8
0
100
AcDbLine
 62
2
  6
CONTINUOUS
 10
13.5486870591
 20
2.5920323691
 11
13.5486870591
 21
2.6528598686
  0
LINE
  5
36C
100
AcDbEntity
  8
0
100
AcDbLine
 62
2
  6
CONTINUOUS
 10
13.528687048
 20
2.4225427674
 11
13.528687048
 21
2.5270426993
  0
LINE
  5
36D
100
AcDbEntity
  8
0
100
AcDbLine
 62
2
  6
CONTINUOUS
 10
13.528687048
 20
2.5505166259
 11
13.528687048
 21
2.5668657091
  0
LINE
  5
36E
100
AcDbEntity
  8
0
100
AcDbLine
 62
2
  6
CONTINUOUS
 10
13.528687048
 20
2.5920323691
 11
13.528687048
 21
2.6582139136
  0
LINE
  5
36F
100
AcDbEntity
  8
0
100
AcDbLine
 62
2
  6
CONTINUOUS
 10
13.5086870369
 20
2.4177306791
 11
13.5086870369
 21
2.4912273132
  0
LINE
  5
370
100
AcDbEntity
  8
0
100
AcDbLine
 62
2
  6
CONTINUOUS
 10
13.5086870369
 20
2.5159553269
 11
13.5086870369
 21
2.5306043351
  0
LINE
  5
371
100
AcDbEntity
  8
0
100
AcDbLine
 62
2
  6
CONTINUOUS
 10
13.5086870369
 20
2.5496073456
 11
13.5086870369
 21
2.5672823554
  0
LINE
  5
372
100
AcDbEntity
  8
0
100
AcDbLine
 62
2
  6
CONTINUOUS
 10
13.5086870369
 20
2.5920323691
 11
13.5086870369
 21
2.6630260019
  0
LINE
  5
373
100
AcDbEntity
  8
0
100
AcDbLine
 62
2
  6
CONTINUOUS
 10
13.4886870258
 20
2.4131795254
 11
13.4886870258
 21
2.4912273132
  0
LINE
  5
374
100
AcDbEntity
  8
0
100
AcDbLine
 62
2
  6
CONTINUOUS
 10
13.4886870258
 20
2.5159553269
 11
13.4886870258
 21
2.5306043351
  0
LINE
  5
375
100
AcDbEntity
  8
0
100
AcDbLine
 62
2
  6
CONTINUOUS
 10
13.4886870258
 20
2.5496073456
 11
13.4886870258
 21
2.5672823554
  0
LINE
  5
376
100
AcDbEntity
  8
0
100
AcDbLine
 62
2
  6
CONTINUOUS
 10
13.4886870258
 20
2.5920323691
 11
13.4886870258
 21
2.6675771555
  0
LINE
  5
377
100
AcDbEntity
  8
0
100
AcDbLine
 62
2
  6
CONTINUOUS
 10
13.4686870147
 20
2.4088819672
 11
13.4686870147
 21
2.4912273132
  0
LINE
  5
378
100
AcDbEntity
  8
0
100
AcDbLine
 62
2
  6
CONTINUOUS
 10
13.4686870147
 20
2.5920323691
 11
13.4686870147
 21
2.6718747138
  0
LINE
  5
379
100
AcDbEntity
  8
0
100
AcDbLine
 62
2
  6
CONTINUOUS
 10
13.4486870037
 20
2.4050092072
 11
13.4486870037
 21
2.4912273132
  0
LINE
  5
37A
100
AcDbEntity
  8
0
100
AcDbLine
 62
2
  6
CONTINUOUS
 10
13.4486870037
 20
2.5920323691
 11
13.4486870037
 21
2.6757474738
  0
LINE
  5
37B
100
AcDbEntity
  8
0
100
AcDbLine
 62
2
  6
CONTINUOUS
 10
13.4286869926
 20
2.4011364471
 11
13.4286869926
 21
2.4912273132
  0
LINE
  5
37C
100
AcDbEntity
  8
0
100
AcDbLine
 62
2
  6
CONTINUOUS
 10
13.4286869926
 20
2.5920323691
 11
13.4286869926
 21
2.6796202339
  0
LINE
  5
37D
100
AcDbEntity
  8
0
100
AcDbLine
 62
2
  6
CONTINUOUS
 10
13.4086869815
 20
2.3980226662
 11
13.4086869815
 21
2.4912273132
  0
LINE
  5
37E
100
AcDbEntity
  8
0
100
AcDbLine
 62
2
  6
CONTINUOUS
 10
13.4086869815
 20
2.515977327
 11
13.4086869815
 21
2.5672823554
  0
LINE
  5
37F
100
AcDbEntity
  8
0
100
AcDbLine
 62
2
  6
CONTINUOUS
 10
13.4086869815
 20
2.5920323691
 11
13.4086869815
 21
2.6827340148
  0
LINE
  5
380
100
AcDbEntity
  8
0
100
AcDbLine
 62
2
  6
CONTINUOUS
 10
13.3886869704
 20
2.3950052774
 11
13.3886869704
 21
2.6857514036
  0
LINE
  5
381
100
AcDbEntity
  8
0
100
AcDbLine
 62
2
  6
CONTINUOUS
 10
13.3686869593
 20
2.3919878885
 11
13.3686869593
 21
2.4912273132
  0
LINE
  5
382
100
AcDbEntity
  8
0
100
AcDbLine
 62
2
  6
CONTINUOUS
 10
13.3686869593
 20
2.5291773343
 11
13.3686869593
 21
2.5540823481
  0
LINE
  5
383
100
AcDbEntity
  8
0
100
AcDbLine
 62
2
  6
CONTINUOUS
 10
13.3686869593
 20
2.5920323691
 11
13.3686869593
 21
2.6887687924
  0
LINE
  5
384
100
AcDbEntity
  8
0
100
AcDbLine
 62
2
  6
CONTINUOUS
 10
13.3486869482
 20
2.3889704997
 11
13.3486869482
 21
2.4912273132
  0
LINE
  5
385
100
AcDbEntity
  8
0
100
AcDbLine
 62
2
  6
CONTINUOUS
 10
13.3486869482
 20
2.5291773343
 11
13.3486869482
 21
2.5540823481
  0
LINE
  5
386
100
AcDbEntity
  8
0
100
AcDbLine
 62
2
  6
CONTINUOUS
 10
13.3486869482
 20
2.5920323691
 11
13.3486869482
 21
2.6917861813
  0
LINE
  5
387
100
AcDbEntity
  8
0
100
AcDbLine
 62
2
  6
CONTINUOUS
 10
13.3286869371
 20
2.3859531109
 11
13.3286869371
 21
2.4912273132
  0
LINE
  5
388
100
AcDbEntity
  8
0
100
AcDbLine
 62
2
  6
CONTINUOUS
 10
13.3286869371
 20
2.5291773343
 11
13.3286869371
 21
2.5540823481
  0
LINE
  5
389
100
AcDbEntity
  8
0
100
AcDbLine
 62
2
  6
CONTINUOUS
 10
13.3286869371
 20
2.5920323691
 11
13.3286869371
 21
2.6948035701
  0
LINE
  5
38A
100
AcDbEntity
  8
0
100
AcDbLine
 62
2
  6
CONTINUOUS
 10
13.308686926
 20
2.3833355437
 11
13.308686926
 21
2.4912273132
  0
LINE
  5
38B
100
AcDbEntity
  8
0
100
AcDbLine
 62
2
  6
CONTINUOUS
 10
13.308686926
 20
2.515977327
 11
13.308686926
 21
2.5672823554
  0
LINE
  5
38C
100
AcDbEntity
  8
0
100
AcDbLine
 62
2
  6
CONTINUOUS
 10
13.308686926
 20
2.5920323691
 11
13.308686926
 21
2.6974211373
  0
LINE
  5
38D
100
AcDbEntity
  8
0
100
AcDbLine
 62
2
  6
CONTINUOUS
 10
13.2886869149
 20
2.3812612684
 11
13.2886869149
 21
2.4912273132
  0
LINE
  5
38E
100
AcDbEntity
  8
0
100
AcDbLine
 62
2
  6
CONTINUOUS
 10
13.2886869149
 20
2.515977327
 11
13.2886869149
 21
2.5324773361
  0
LINE
  5
38F
100
AcDbEntity
  8
0
100
AcDbLine
 62
2
  6
CONTINUOUS
 10
13.2886869149
 20
2.5507823463
 11
13.2886869149
 21
2.5672823554
  0
LINE
  5
390
100
AcDbEntity
  8
0
100
AcDbLine
 62
2
  6
CONTINUOUS
 10
13.2886869149
 20
2.5920323691
 11
13.2886869149
 21
2.6994954125
  0
LINE
  5
391
100
AcDbEntity
  8
0
100
AcDbLine
 62
2
  6
CONTINUOUS
 10
13.2686869038
 20
2.3791869932
 11
13.2686869038
 21
2.4912273132
  0
LINE
  5
392
100
AcDbEntity
  8
0
100
AcDbLine
 62
2
  6
CONTINUOUS
 10
13.2686869038
 20
2.515977327
 11
13.2686869038
 21
2.5324773361
  0
LINE
  5
393
100
AcDbEntity
  8
0
100
AcDbLine
 62
2
  6
CONTINUOUS
 10
13.2686869038
 20
2.5507823463
 11
13.2686869038
 21
2.5672823554
  0
LINE
  5
394
100
AcDbEntity
  8
0
100
AcDbLine
 62
2
  6
CONTINUOUS
 10
13.2686869038
 20
2.5920323691
 11
13.2686869038
 21
2.7015696878
  0
LINE
  5
395
100
AcDbEntity
  8
0
100
AcDbLine
 62
2
  6
CONTINUOUS
 10
13.2486868927
 20
2.377112718
 11
13.2486868927
 21
2.4912273132
  0
LINE
  5
396
100
AcDbEntity
  8
0
100
AcDbLine
 62
2
  6
CONTINUOUS
 10
13.2486868927
 20
2.5920323691
 11
13.2486868927
 21
2.703643963
  0
LINE
  5
397
100
AcDbEntity
  8
0
100
AcDbLine
 62
2
  6
CONTINUOUS
 10
13.2286868817
 20
2.3750384428
 11
13.2286868817
 21
2.4912273132
  0
LINE
  5
398
100
AcDbEntity
  8
0
100
AcDbLine
 62
2
  6
CONTINUOUS
 10
13.2286868817
 20
2.5920323691
 11
13.2286868817
 21
2.7057182382
  0
LINE
  5
399
100
AcDbEntity
  8
0
100
AcDbLine
 62
2
  6
CONTINUOUS
 10
13.2086868706
 20
2.3729641676
 11
13.2086868706
 21
2.4912273132
  0
LINE
  5
39A
100
AcDbEntity
  8
0
100
AcDbLine
 62
2
  6
CONTINUOUS
 10
13.2086868706
 20
2.5920323691
 11
13.2086868706
 21
2.7077925134
  0
LINE
  5
39B
100
AcDbEntity
  8
0
100
AcDbLine
 62
2
  6
CONTINUOUS
 10
13.1886868595
 20
2.3712344456
 11
13.1886868595
 21
2.4912273132
  0
LINE
  5
39C
100
AcDbEntity
  8
0
100
AcDbLine
 62
2
  6
CONTINUOUS
 10
13.1886868595
 20
2.515977327
 11
13.1886868595
 21
2.5672823554
  0
LINE
  5
39D
100
AcDbEntity
  8
0
100
AcDbLine
 62
2
  6
CONTINUOUS
 10
13.1886868595
 20
2.5920323691
 11
13.1886868595
 21
2.7095222354
  0
LINE
  5
39E
100
AcDbEntity
  8
0
100
AcDbLine
 62
2
  6
CONTINUOUS
 10
13.1686868484
 20
2.3699682418
 11
13.1686868484
 21
2.4912273132
  0
LINE
  5
39F
100
AcDbEntity
  8
0
100
AcDbLine
 62
2
  6
CONTINUOUS
 10
13.1686868484
 20
2.515977327
 11
13.1686868484
 21
2.5672823554
  0
LINE
  5
3A0
100
AcDbEntity
  8
0
100
AcDbLine
 62
2
  6
CONTINUOUS
 10
13.1686868484
 20
2.5920323691
 11
13.1686868484
 21
2.7107884392
  0
LINE
  5
3A1
100
AcDbEntity
  8
0
100
AcDbLine
 62
2
  6
CONTINUOUS
 10
13.1486868373
 20
2.3687020381
 11
13.1486868373
 21
2.7120546429
  0
LINE
  5
3A2
100
AcDbEntity
  8
0
100
AcDbLine
 62
2
  6
CONTINUOUS
 10
13.1286868262
 20
2.3674358343
 11
13.1286868262
 21
2.5672823554
  0
LINE
  5
3A3
100
AcDbEntity
  8
0
100
AcDbLine
 62
2
  6
CONTINUOUS
 10
13.1286868262
 20
2.5920323691
 11
13.1286868262
 21
2.7133208466
  0
LINE
  5
3A4
100
AcDbEntity
  8
0
100
AcDbLine
 62
2
  6
CONTINUOUS
 10
13.1086868151
 20
2.3661696306
 11
13.1086868151
 21
2.4912273132
  0
LINE
  5
3A5
100
AcDbEntity
  8
0
100
AcDbLine
 62
2
  6
CONTINUOUS
 10
13.1086868151
 20
2.5920323691
 11
13.1086868151
 21
2.7145870504
  0
LINE
  5
3A6
100
AcDbEntity
  8
0
100
AcDbLine
 62
2
  6
CONTINUOUS
 10
13.088686804
 20
2.3649034269
 11
13.088686804
 21
2.4912273132
  0
LINE
  5
3A7
100
AcDbEntity
  8
0
100
AcDbLine
 62
2
  6
CONTINUOUS
 10
13.088686804
 20
2.5920323691
 11
13.088686804
 21
2.7158532541
  0
LINE
  5
3A8
100
AcDbEntity
  8
0
100
AcDbLine
 62
2
  6
CONTINUOUS
 10
13.0686867929
 20
2.3636739922
 11
13.0686867929
 21
2.4912273132
  0
LINE
  5
3A9
100
AcDbEntity
  8
0
100
AcDbLine
 62
2
  6
CONTINUOUS
 10
13.0686867929
 20
2.5475272398
 11
13.0686867929
 21
2.5672823554
  0
LINE
  5
3AA
100
AcDbEntity
  8
0
100
AcDbLine
 62
2
  6
CONTINUOUS
 10
13.0686867929
 20
2.5920323691
 11
13.0686867929
 21
2.7170826887
  0
LINE
  5
3AB
100
AcDbEntity
  8
0
100
AcDbLine
 62
2
  6
CONTINUOUS
 10
13.0486867818
 20
2.363143203
 11
13.0486867818
 21
2.4912273132
  0
LINE
  5
3AC
100
AcDbEntity
  8
0
100
AcDbLine
 62
2
  6
CONTINUOUS
 10
13.0486867818
 20
2.5666100882
 11
13.0486867818
 21
2.717613478
  0
LINE
  5
3AD
100
AcDbEntity
  8
0
100
AcDbLine
 62
2
  6
CONTINUOUS
 10
13.0286867707
 20
2.3626124138
 11
13.0286867707
 21
2.50359263
  0
LINE
  5
3AE
100
AcDbEntity
  8
0
100
AcDbLine
 62
2
  6
CONTINUOUS
 10
13.0286867707
 20
2.5856929366
 11
13.0286867707
 21
2.7181442672
  0
LINE
  5
3AF
100
AcDbEntity
  8
0
100
AcDbLine
 62
2
  6
CONTINUOUS
 10
13.0086867596
 20
2.3620816246
 11
13.0086867596
 21
2.5226754472
  0
LINE
  5
3B0
100
AcDbEntity
  8
0
100
AcDbLine
 62
2
  6
CONTINUOUS
 10
13.0086867596
 20
2.5920323691
 11
13.0086867596
 21
2.7186750564
  0
LINE
  5
3B1
100
AcDbEntity
  8
0
100
AcDbLine
 62
2
  6
CONTINUOUS
 10
12.9886867486
 20
2.3615508354
 11
12.9886867486
 21
2.4912273132
  0
LINE
  5
3B2
100
AcDbEntity
  8
0
100
AcDbLine
 62
2
  6
CONTINUOUS
 10
12.9886867486
 20
2.515977327
 11
12.9886867486
 21
2.5417582644
  0
LINE
  5
3B3
100
AcDbEntity
  8
0
100
AcDbLine
 62
2
  6
CONTINUOUS
 10
12.9886867486
 20
2.5920323691
 11
12.9886867486
 21
2.7192058456
  0
LINE
  5
3B4
100
AcDbEntity
  8
0
100
AcDbLine
 62
2
  6
CONTINUOUS
 10
12.9686867375
 20
2.3610200462
 11
12.9686867375
 21
2.4912273132
  0
LINE
  5
3B5
100
AcDbEntity
  8
0
100
AcDbLine
 62
2
  6
CONTINUOUS
 10
12.9686867375
 20
2.5920323691
 11
12.9686867375
 21
2.7197366348
  0
LINE
  5
3B6
100
AcDbEntity
  8
0
100
AcDbLine
 62
2
  6
CONTINUOUS
 10
12.9486867264
 20
2.360489257
 11
12.9486867264
 21
2.4912273132
  0
LINE
  5
3B7
100
AcDbEntity
  8
0
100
AcDbLine
 62
2
  6
CONTINUOUS
 10
12.9486867264
 20
2.5920323691
 11
12.9486867264
 21
2.720267424
  0
LINE
  5
3B8
100
AcDbEntity
  8
0
100
AcDbLine
 62
2
  6
CONTINUOUS
 10
12.9286867153
 20
2.3602836008
 11
12.9286867153
 21
2.4912273132
  0
LINE
  5
3B9
100
AcDbEntity
  8
0
100
AcDbLine
 62
2
  6
CONTINUOUS
 10
12.9286867153
 20
2.515977327
 11
12.9286867153
 21
2.5672823554
  0
LINE
  5
3BA
100
AcDbEntity
  8
0
100
AcDbLine
 62
2
  6
CONTINUOUS
 10
12.9286867153
 20
2.5920323691
 11
12.9286867153
 21
2.7204730802
  0
LINE
  5
3BB
100
AcDbEntity
  8
0
100
AcDbLine
 62
2
  6
CONTINUOUS
 10
12.9086867042
 20
2.3604597639
 11
12.9086867042
 21
2.7202969171
  0
LINE
  5
3BC
100
AcDbEntity
  8
0
100
AcDbLine
 62
2
  6
CONTINUOUS
 10
12.8886866931
 20
2.360635927
 11
12.8886866931
 21
2.5672823554
  0
LINE
  5
3BD
100
AcDbEntity
  8
0
100
AcDbLine
 62
2
  6
CONTINUOUS
 10
12.8886866931
 20
2.5920323691
 11
12.8886866931
 21
2.720120754
  0
LINE
  5
3BE
100
AcDbEntity
  8
0
100
AcDbLine
 62
2
  6
CONTINUOUS
 10
12.868686682
 20
2.3608120901
 11
12.868686682
 21
2.491232357
  0
LINE
  5
3BF
100
AcDbEntity
  8
0
100
AcDbLine
 62
2
  6
CONTINUOUS
 10
12.868686682
 20
2.5920323691
 11
12.868686682
 21
2.7199445909
  0
LINE
  5
3C0
100
AcDbEntity
  8
0
100
AcDbLine
 62
2
  6
CONTINUOUS
 10
12.8486866709
 20
2.3609882532
 11
12.8486866709
 21
2.4912273132
  0
LINE
  5
3C1
100
AcDbEntity
  8
0
100
AcDbLine
 62
2
  6
CONTINUOUS
 10
12.8486866709
 20
2.5920323691
 11
12.8486866709
 21
2.7197684278
  0
LINE
  5
3C2
100
AcDbEntity
  8
0
100
AcDbLine
 62
2
  6
CONTINUOUS
 10
12.8286866598
 20
2.3611644163
 11
12.8286866598
 21
2.4912273132
  0
LINE
  5
3C3
100
AcDbEntity
  8
0
100
AcDbLine
 62
2
  6
CONTINUOUS
 10
12.8286866598
 20
2.5396527025
 11
12.8286866598
 21
2.5672823554
  0
LINE
  5
3C4
100
AcDbEntity
  8
0
100
AcDbLine
 62
2
  6
CONTINUOUS
 10
12.8286866598
 20
2.5920323691
 11
12.8286866598
 21
2.7195922647
  0
LINE
  5
3C5
100
AcDbEntity
  8
0
100
AcDbLine
 62
2
  6
CONTINUOUS
 10
12.8086866487
 20
2.3613405794
 11
12.8086866487
 21
2.4912273132
  0
LINE
  5
3C6
100
AcDbEntity
  8
0
100
AcDbLine
 62
2
  6
CONTINUOUS
 10
12.8086866487
 20
2.5587355508
 11
12.8086866487
 21
2.7194161016
  0
LINE
  5
3C7
100
AcDbEntity
  8
0
100
AcDbLine
 62
2
  6
CONTINUOUS
 10
12.7886866376
 20
2.3621089572
 11
12.7886866376
 21
2.4957181055
  0
LINE
  5
3C8
100
AcDbEntity
  8
0
100
AcDbLine
 62
2
  6
CONTINUOUS
 10
12.7886866376
 20
2.5778183992
 11
12.7886866376
 21
2.7186477238
  0
LINE
  5
3C9
100
AcDbEntity
  8
0
100
AcDbLine
 62
2
  6
CONTINUOUS
 10
12.7686866266
 20
2.3630013935
 11
12.7686866266
 21
2.5148009227
  0
LINE
  5
3CA
100
AcDbEntity
  8
0
100
AcDbLine
 62
2
  6
CONTINUOUS
 10
12.7686866266
 20
2.5920323691
 11
12.7686866266
 21
2.7177552874
  0
LINE
  5
3CB
100
AcDbEntity
  8
0
100
AcDbLine
 62
2
  6
CONTINUOUS
 10
12.7486866155
 20
2.3638938299
 11
12.7486866155
 21
2.4913263218
  0
LINE
  5
3CC
100
AcDbEntity
  8
0
100
AcDbLine
 62
2
  6
CONTINUOUS
 10
12.7486866155
 20
2.5158783184
 11
12.7486866155
 21
2.5338837399
  0
LINE
  5
3CD
100
AcDbEntity
  8
0
100
AcDbLine
 62
2
  6
CONTINUOUS
 10
12.7486866155
 20
2.5920323691
 11
12.7486866155
 21
2.7168628511
  0
LINE
  5
3CE
100
AcDbEntity
  8
0
100
AcDbLine
 62
2
  6
CONTINUOUS
 10
12.7286866044
 20
2.3647862663
 11
12.7286866044
 21
2.4912273132
  0
LINE
  5
3CF
100
AcDbEntity
  8
0
100
AcDbLine
 62
2
  6
CONTINUOUS
 10
12.7286866044
 20
2.515977327
 11
12.7286866044
 21
2.5527601554
  0
LINE
  5
3D0
100
AcDbEntity
  8
0
100
AcDbLine
 62
2
  6
CONTINUOUS
 10
12.7286866044
 20
2.5920323691
 11
12.7286866044
 21
2.7159704147
  0
LINE
  5
3D1
100
AcDbEntity
  8
0
100
AcDbLine
 62
2
  6
CONTINUOUS
 10
12.7086865933
 20
2.3656787026
 11
12.7086865933
 21
2.4912273132
  0
LINE
  5
3D2
100
AcDbEntity
  8
0
100
AcDbLine
 62
2
  6
CONTINUOUS
 10
12.7086865933
 20
2.5920323691
 11
12.7086865933
 21
2.7150779784
  0
LINE
  5
3D3
100
AcDbEntity
  8
0
100
AcDbLine
 62
2
  6
CONTINUOUS
 10
12.6886865822
 20
2.366571139
 11
12.6886865822
 21
2.4912273132
  0
LINE
  5
3D4
100
AcDbEntity
  8
0
100
AcDbLine
 62
2
  6
CONTINUOUS
 10
12.6886865822
 20
2.515977327
 11
12.6886865822
 21
2.5672823554
  0
LINE
  5
3D5
100
AcDbEntity
  8
0
100
AcDbLine
 62
2
  6
CONTINUOUS
 10
12.6886865822
 20
2.5920323691
 11
12.6886865822
 21
2.714185542
  0
LINE
  5
3D6
100
AcDbEntity
  8
0
100
AcDbLine
 62
2
  6
CONTINUOUS
 10
12.6686865711
 20
2.3677104027
 11
12.6686865711
 21
2.7130462783
  0
LINE
  5
3D7
100
AcDbEntity
  8
0
100
AcDbLine
 62
2
  6
CONTINUOUS
 10
12.64868656
 20
2.3693682721
 11
12.64868656
 21
2.7113884089
  0
LINE
  5
3D8
100
AcDbEntity
  8
0
100
AcDbLine
 62
2
  6
CONTINUOUS
 10
12.6286865489
 20
2.3710261415
 11
12.6286865489
 21
2.4912273132
  0
LINE
  5
3D9
100
AcDbEntity
  8
0
100
AcDbLine
 62
2
  6
CONTINUOUS
 10
12.6286865489
 20
2.515977327
 11
12.6286865489
 21
2.7097305395
  0
LINE
  5
3DA
100
AcDbEntity
  8
0
100
AcDbLine
 62
2
  6
CONTINUOUS
 10
12.6086865378
 20
2.372684011
 11
12.6086865378
 21
2.4912273132
  0
LINE
  5
3DB
100
AcDbEntity
  8
0
100
AcDbLine
 62
2
  6
CONTINUOUS
 10
12.6086865378
 20
2.5351122279
 11
12.6086865378
 21
2.70807267
  0
LINE
  5
3DC
100
AcDbEntity
  8
0
100
AcDbLine
 62
2
  6
CONTINUOUS
 10
12.5886865267
 20
2.3743418804
 11
12.5886865267
 21
2.4912273132
  0
LINE
  5
3DD
100
AcDbEntity
  8
0
100
AcDbLine
 62
2
  6
CONTINUOUS
 10
12.5886865267
 20
2.5660172622
 11
12.5886865267
 21
2.7064148006
  0
LINE
  5
3DE
100
AcDbEntity
  8
0
100
AcDbLine
 62
2
  6
CONTINUOUS
 10
12.5686865156
 20
2.3759997498
 11
12.5686865156
 21
2.4912273132
  0
LINE
  5
3DF
100
AcDbEntity
  8
0
100
AcDbLine
 62
2
  6
CONTINUOUS
 10
12.5686865156
 20
2.5920323691
 11
12.5686865156
 21
2.7047569312
  0
LINE
  5
3E0
100
AcDbEntity
  8
0
100
AcDbLine
 62
2
  6
CONTINUOUS
 10
12.5486865045
 20
2.3777575277
 11
12.5486865045
 21
2.4912273132
  0
LINE
  5
3E1
100
AcDbEntity
  8
0
100
AcDbLine
 62
2
  6
CONTINUOUS
 10
12.5486865045
 20
2.515977327
 11
12.5486865045
 21
2.5275118824
  0
LINE
  5
3E2
100
AcDbEntity
  8
0
100
AcDbLine
 62
2
  6
CONTINUOUS
 10
12.5486865045
 20
2.5920323691
 11
12.5486865045
 21
2.7029991533
  0
LINE
  5
3E3
100
AcDbEntity
  8
0
100
AcDbLine
 62
2
  6
CONTINUOUS
 10
12.5286864935
 20
2.3802813811
 11
12.5286864935
 21
2.5296213345
  0
LINE
  5
3E4
100
AcDbEntity
  8
0
100
AcDbLine
 62
2
  6
CONTINUOUS
 10
12.5286864935
 20
2.5505713461
 11
12.5286864935
 21
2.5667383551
  0
LINE
  5
3E5
100
AcDbEntity
  8
0
100
AcDbLine
 62
2
  6
CONTINUOUS
 10
12.5286864935
 20
2.5920323691
 11
12.5286864935
 21
2.7004752999
  0
LINE
  5
3E6
100
AcDbEntity
  8
0
100
AcDbLine
 62
2
  6
CONTINUOUS
 10
12.5086864824
 20
2.3828052346
 11
12.5086864824
 21
2.4912273132
  0
LINE
  5
3E7
100
AcDbEntity
  8
0
100
AcDbLine
 62
2
  6
CONTINUOUS
 10
12.5086864824
 20
2.515977327
 11
12.5086864824
 21
2.5279667721
  0
LINE
  5
3E8
100
AcDbEntity
  8
0
100
AcDbLine
 62
2
  6
CONTINUOUS
 10
12.5086864824
 20
2.5868602074
 11
12.5086864824
 21
2.6979514464
  0
LINE
  5
3E9
100
AcDbEntity
  8
0
100
AcDbLine
 62
2
  6
CONTINUOUS
 10
12.4886864713
 20
2.385329088
 11
12.4886864713
 21
2.4912273132
  0
LINE
  5
3EA
100
AcDbEntity
  8
0
100
AcDbLine
 62
2
  6
CONTINUOUS
 10
12.4886864713
 20
2.5553401045
 11
12.4886864713
 21
2.695427593
  0
LINE
  5
3EB
100
AcDbEntity
  8
0
100
AcDbLine
 62
2
  6
CONTINUOUS
 10
12.4686864602
 20
2.3878529415
 11
12.4686864602
 21
2.4912273132
  0
LINE
  5
3EC
100
AcDbEntity
  8
0
100
AcDbLine
 62
2
  6
CONTINUOUS
 10
12.4686864602
 20
2.5238200015
 11
12.4686864602
 21
2.6929037395
  0
LINE
  5
3ED
100
AcDbEntity
  8
0
100
AcDbLine
 62
2
  6
CONTINUOUS
 10
12.4486864491
 20
2.390376795
 11
12.4486864491
 21
2.4912273132
  0
LINE
  5
3EE
100
AcDbEntity
  8
0
100
AcDbLine
 62
2
  6
CONTINUOUS
 10
12.4486864491
 20
2.515977327
 11
12.4486864491
 21
2.690379886
  0
LINE
  5
3EF
100
AcDbEntity
  8
0
100
AcDbLine
 62
2
  6
CONTINUOUS
 10
12.428686438
 20
2.3931794042
 11
12.428686438
 21
2.6875772768
  0
LINE
  5
3F0
100
AcDbEntity
  8
0
100
AcDbLine
 62
2
  6
CONTINUOUS
 10
12.4086864269
 20
2.3964643301
 11
12.4086864269
 21
2.5013773986
  0
LINE
  5
3F1
100
AcDbEntity
  8
0
100
AcDbLine
 62
2
  6
CONTINUOUS
 10
12.4086864269
 20
2.5325739971
 11
12.4086864269
 21
2.5537224311
  0
LINE
  5
3F2
100
AcDbEntity
  8
0
100
AcDbLine
 62
2
  6
CONTINUOUS
 10
12.4086864269
 20
2.5791473398
 11
12.4086864269
 21
2.6842923509
  0
LINE
  5
3F3
100
AcDbEntity
  8
0
100
AcDbLine
 62
2
  6
CONTINUOUS
 10
12.3886864158
 20
2.399749256
 11
12.3886864158
 21
2.4921022658
  0
LINE
  5
3F4
100
AcDbEntity
  8
0
100
AcDbLine
 62
2
  6
CONTINUOUS
 10
12.3886864158
 20
2.5895929958
 11
12.3886864158
 21
2.681007425
  0
LINE
  5
3F5
100
AcDbEntity
  8
0
100
AcDbLine
 62
2
  6
CONTINUOUS
 10
12.3686864047
 20
2.403451877
 11
12.3686864047
 21
2.4912273132
  0
LINE
  5
3F6
100
AcDbEntity
  8
0
100
AcDbLine
 62
2
  6
CONTINUOUS
 10
12.3686864047
 20
2.5920323691
 11
12.3686864047
 21
2.677304804
  0
LINE
  5
3F7
100
AcDbEntity
  8
0
100
AcDbLine
 62
2
  6
CONTINUOUS
 10
12.3486863936
 20
2.407324637
 11
12.3486863936
 21
2.4912273132
  0
LINE
  5
3F8
100
AcDbEntity
  8
0
100
AcDbLine
 62
2
  6
CONTINUOUS
 10
12.3486863936
 20
2.5920323691
 11
12.3486863936
 21
2.673432044
  0
LINE
  5
3F9
100
AcDbEntity
  8
0
100
AcDbLine
 62
2
  6
CONTINUOUS
 10
12.3286863825
 20
2.4113493968
 11
12.3286863825
 21
2.4912273132
  0
LINE
  5
3FA
100
AcDbEntity
  8
0
100
AcDbLine
 62
2
  6
CONTINUOUS
 10
12.3286863825
 20
2.515977327
 11
12.3286863825
 21
2.5333023366
  0
LINE
  5
3FB
100
AcDbEntity
  8
0
100
AcDbLine
 62
2
  6
CONTINUOUS
 10
12.3286863825
 20
2.5499573458
 11
12.3286863825
 21
2.5672823554
  0
LINE
  5
3FC
100
AcDbEntity
  8
0
100
AcDbLine
 62
2
  6
CONTINUOUS
 10
12.3286863825
 20
2.5920323691
 11
12.3286863825
 21
2.6694072842
  0
LINE
  5
3FD
100
AcDbEntity
  8
0
100
AcDbLine
 62
2
  6
CONTINUOUS
 10
12.3086863715
 20
2.4159005505
 11
12.3086863715
 21
2.4912273132
  0
LINE
  5
3FE
100
AcDbEntity
  8
0
100
AcDbLine
 62
2
  6
CONTINUOUS
 10
12.3086863715
 20
2.515977327
 11
12.3086863715
 21
2.5333023366
  0
LINE
  5
3FF
100
AcDbEntity
  8
0
100
AcDbLine
 62
2
  6
CONTINUOUS
 10
12.3086863715
 20
2.5499573458
 11
12.3086863715
 21
2.5672823554
  0
LINE
  5
400
100
AcDbEntity
  8
0
100
AcDbLine
 62
2
  6
CONTINUOUS
 10
12.3086863715
 20
2.5920323691
 11
12.3086863715
 21
2.6648561305
  0
LINE
  5
401
100
AcDbEntity
  8
0
100
AcDbLine
 62
2
  6
CONTINUOUS
 10
12.2886863604
 20
2.4204517041
 11
12.2886863604
 21
2.4912273132
  0
LINE
  5
402
100
AcDbEntity
  8
0
100
AcDbLine
 62
2
  6
CONTINUOUS
 10
12.2886863604
 20
2.5920323691
 11
12.2886863604
 21
2.6603049769
  0
LINE
  5
403
100
AcDbEntity
  8
0
100
AcDbLine
 62
2
  6
CONTINUOUS
 10
12.2686863493
 20
2.4257438218
 11
12.2686863493
 21
2.4912273132
  0
LINE
  5
404
100
AcDbEntity
  8
0
100
AcDbLine
 62
2
  6
CONTINUOUS
 10
12.2686863493
 20
2.5920323691
 11
12.2686863493
 21
2.6550128592
  0
LINE
  5
405
100
AcDbEntity
  8
0
100
AcDbLine
 62
2
  6
CONTINUOUS
 10
12.2486863382
 20
2.4310978667
 11
12.2486863382
 21
2.4912273132
  0
LINE
  5
406
100
AcDbEntity
  8
0
100
AcDbLine
 62
2
  6
CONTINUOUS
 10
12.2486863382
 20
2.5920323691
 11
12.2486863382
 21
2.6496588142
  0
LINE
  5
407
100
AcDbEntity
  8
0
100
AcDbLine
 62
2
  6
CONTINUOUS
 10
12.2286863271
 20
2.4372566433
 11
12.2286863271
 21
2.4912273132
  0
LINE
  5
408
100
AcDbEntity
  8
0
100
AcDbLine
 62
2
  6
CONTINUOUS
 10
12.2286863271
 20
2.515977327
 11
12.2286863271
 21
2.5672823554
  0
LINE
  5
409
100
AcDbEntity
  8
0
100
AcDbLine
 62
2
  6
CONTINUOUS
 10
12.2286863271
 20
2.5920323691
 11
12.2286863271
 21
2.6435000377
  0
LINE
  5
40A
100
AcDbEntity
  8
0
100
AcDbLine
 62
2
  6
CONTINUOUS
 10
12.208686316
 20
2.443589771
 11
12.208686316
 21
2.4912273132
  0
LINE
  5
40B
100
AcDbEntity
  8
0
100
AcDbLine
 62
2
  6
CONTINUOUS
 10
12.208686316
 20
2.515977327
 11
12.208686316
 21
2.5672823554
  0
LINE
  5
40C
100
AcDbEntity
  8
0
100
AcDbLine
 62
2
  6
CONTINUOUS
 10
12.208686316
 20
2.5920323691
 11
12.208686316
 21
2.63716691
  0
LINE
  5
40D
100
AcDbEntity
  8
0
100
AcDbLine
 62
2
  6
CONTINUOUS
 10
12.1886863049
 20
2.4510806436
 11
12.1886863049
 21
2.6296760373
  0
LINE
  5
40E
100
AcDbEntity
  8
0
100
AcDbLine
 62
2
  6
CONTINUOUS
 10
12.1686862938
 20
2.4591016523
 11
12.1686862938
 21
2.6216550287
  0
LINE
  5
40F
100
AcDbEntity
  8
0
100
AcDbLine
 62
2
  6
CONTINUOUS
 10
12.1486862827
 20
2.468314272
 11
12.1486862827
 21
2.612442409
  0
LINE
  5
410
100
AcDbEntity
  8
0
100
AcDbLine
 62
2
  6
CONTINUOUS
 10
12.1286862716
 20
2.4794932339
 11
12.1286862716
 21
2.601263447
  0
LINE
  5
411
100
AcDbEntity
  8
0
100
AcDbLine
 62
2
  6
CONTINUOUS
 10
12.1086862605
 20
2.4934150665
 11
12.1086862605
 21
2.5873416144
  0
LINE
  5
412
100
AcDbEntity
  8
0
100
AcDbLine
 62
2
  6
CONTINUOUS
 10
12.0886862494
 20
2.5144449553
 11
12.0886862494
 21
2.5663117257
  0
ENDBLK
  5
413
100
AcDbEntity
  8
0
  6
BYBLOCK
 62
0
100
AcDbBlockEnd
  0
BLOCK
  5
414
100
AcDbEntity
  8
SCHEME_DIMS
100
AcDbBlockBegin
 62
2
  6
CONTINUOUS
  2
*D0
 70
65
 10
0.0
 20
0.0
  3
*D0
  1

  0
TEXT
  5
415
100
AcDbEntity
  8
SCHEME_DIMS
100
AcDbText
 62
2
  6
CONTINUOUS
 10
8.1286033732
 20
8.0489028949
  7
STANDARD
 40
0.1
  1
78,45
 41
1.0
 72
0
100
AcDbText
  0
TEXT
  5
416
100
AcDbEntity
  8
SCHEME_DIMS
100
AcDbText
 62
2
  6
CONTINUOUS
 10
8.2286033732
 20
7.8989028949
  7
STANDARD
 40
0.1
  1
3.09
 41
1.0
 72
0
100
AcDbText
  0
TEXT
  5
417
100
AcDbEntity
  8
SCHEME_DIMS
100
AcDbText
 62
2
  6
CONTINUOUS
 10
8.1286033732
 20
7.8989028949
  7
STANDARD
 40
0.1
  1
[
 41
1.0
 72
0
100
AcDbText
  0
TEXT
  5
418
100
AcDbEntity
  8
SCHEME_DIMS
100
AcDbText
 62
2
  6
CONTINUOUS
 10
8.6286033732
 20
7.8989028949
  7
STANDARD
 40
0.1
  1
]
 41
1.0
 72
0
100
AcDbText
  0
LINE
  5
419
100
AcDbEntity
  8
SCHEME_DIMS
100
AcDbLine
 62
2
  6
CONTINUOUS
 10
6.8843120346
 20
7.6325611892
 11
6.8843120346
 21
8.2239028949
  0
LINE
  5
41A
100
AcDbEntity
  8
SCHEME_DIMS
100
AcDbLine
 62
2
  6
CONTINUOUS
 10
9.9728947117
 20
7.6921062378
 11
9.9728947117
 21
8.2239028949
  0
LINE
  5
41B
100
AcDbEntity
  8
SCHEME_DIMS
100
AcDbLine
 62
2
  6
CONTINUOUS
 10
6.8843120346
 20
8.0989028949
 11
8.0286033732
 21
8.0989028949
  0
LINE
  5
41C
100
AcDbEntity
  8
SCHEME_DIMS
100
AcDbLine
 62
2
  6
CONTINUOUS
 10
9.9728947117
 20
8.0989028949
 11
8.8286033732
 21
8.0989028949
  0
INSERT
  5
41D
100
AcDbEntity
  8
SCHEME_DIMS
100
AcDbBlockReference
 62
2
  6
CONTINUOUS
  2
_FILLED
 10
6.8843120346
 20
8.0989028949
 41
0.1875
 42
0.1875
 43
0.1875
 50
180.0
  0
INSERT
  5
41E
100
AcDbEntity
  8
SCHEME_DIMS
100
AcDbBlockReference
 62
2
  6
CONTINUOUS
  2
_FILLED
 10
9.9728947117
 20
8.0989028949
 41
0.1875
 42
0.1875
 43
0.1875
  0
ENDBLK
  5
41F
100
AcDbEntity
  8
0
  6
BYBLOCK
 62
0
100
AcDbBlockEnd
  0
BLOCK
  5
420
100
AcDbEntity
  8
SCHEME_DIMS
100
AcDbBlockBegin
 62
2
  6
CONTINUOUS
  2
*D1
 70
65
 10
0.0
 20
0.0
  3
*D1
  1

  0
TEXT
  5
421
100
AcDbEntity
  8
SCHEME_DIMS
100
AcDbText
 62
2
  6
CONTINUOUS
 10
12.6243073394
 20
5.4791061951
  7
STANDARD
 40
0.1
  1
32
 41
1.0
 72
0
100
AcDbText
  0
TEXT
  5
422
100
AcDbEntity
  8
SCHEME_DIMS
100
AcDbText
 62
2
  6
CONTINUOUS
 10
12.7243073394
 20
5.3291061951
  7
STANDARD
 40
0.1
  1
1.26
 41
1.0
 72
0
100
AcDbText
  0
TEXT
  5
423
100
AcDbEntity
  8
SCHEME_DIMS
100
AcDbText
 62
2
  6
CONTINUOUS
 10
12.6243073394
 20
5.3291061951
  7
STANDARD
 40
0.1
  1
[
 41
1.0
 72
0
100
AcDbText
  0
TEXT
  5
424
100
AcDbEntity
  8
SCHEME_DIMS
100
AcDbText
 62
2
  6
CONTINUOUS
 10
13.1243073394
 20
5.3291061951
  7
STANDARD
 40
0.1
  1
]
 41
1.0
 72
0
100
AcDbText
  0
LINE
  5
425
100
AcDbEntity
  8
SCHEME_DIMS
100
AcDbLine
 62
2
  6
CONTINUOUS
 10
13.5542285993
 20
4.8829682859
 11
13.5542285993
 21
5.6541061951
  0
LINE
  5
426
100
AcDbEntity
  8
SCHEME_DIMS
100
AcDbLine
 62
2
  6
CONTINUOUS
 10
12.2943860796
 20
4.8829682859
 11
12.2943860796
 21
5.6541061951
  0
LINE
  5
427
100
AcDbEntity
  8
SCHEME_DIMS
100
AcDbLine
 62
2
  6
CONTINUOUS
 10
13.5542285993
 20
5.5291061951
 11
13.3243073394
 21
5.5291061951
  0
LINE
  5
428
100
AcDbEntity
  8
SCHEME_DIMS
100
AcDbLine
 62
2
  6
CONTINUOUS
 10
12.2943860796
 20
5.5291061951
 11
12.5243073394
 21
5.5291061951
  0
INSERT
  5
429
100
AcDbEntity
  8
SCHEME_DIMS
100
AcDbBlockReference
 62
2
  6
CONTINUOUS
  2
_FILLED
 10
13.5542285993
 20
5.5291061951
 41
0.1875
 42
0.1875
 43
0.1875
  0
INSERT
  5
42A
100
AcDbEntity
  8
SCHEME_DIMS
100
AcDbBlockReference
 62
2
  6
CONTINUOUS
  2
_FILLED
 10
12.2943860796
 20
5.5291061951
 41
0.1875
 42
0.1875
 43
0.1875
 50
180.0
  0
ENDBLK
  5
42B
100
AcDbEntity
  8
0
  6
BYBLOCK
 62
0
100
AcDbBlockEnd
  0
BLOCK
  5
42C
100
AcDbEntity
  8
SCHEME_DIMS
100
AcDbBlockBegin
 62
2
  6
CONTINUOUS
  2
*D2
 70
65
 10
0.0
 20
0.0
  3
*D2
  1

  0
TEXT
  5
42D
100
AcDbEntity
  8
SCHEME_DIMS
100
AcDbText
 62
2
  6
CONTINUOUS
 10
13.9318871861
 20
4.2783423017
  7
STANDARD
 40
0.1
  1
30
 41
1.0
 72
0
100
AcDbText
  0
TEXT
  5
42E
100
AcDbEntity
  8
SCHEME_DIMS
100
AcDbText
 62
2
  6
CONTINUOUS
 10
14.0318871861
 20
4.1283423017
  7
STANDARD
 40
0.1
  1
1.18
 41
1.0
 72
0
100
AcDbText
  0
TEXT
  5
42F
100
AcDbEntity
  8
SCHEME_DIMS
100
AcDbText
 62
2
  6
CONTINUOUS
 10
13.9318871861
 20
4.1283423017
  7
STANDARD
 40
0.1
  1
[
 41
1.0
 72
0
100
AcDbText
  0
TEXT
  5
430
100
AcDbEntity
  8
SCHEME_DIMS
100
AcDbText
 62
2
  6
CONTINUOUS
 10
14.4318871861
 20
4.1283423017
  7
STANDARD
 40
0.1
  1
]
 41
1.0
 72
0
100
AcDbText
  0
LINE
  5
431
100
AcDbEntity
  8
SCHEME_DIMS
100
AcDbLine
 62
2
  6
CONTINUOUS
 10
13.5183034024
 20
3.7377911206
 11
14.3568871861
 21
3.7377911206
  0
LINE
  5
432
100
AcDbEntity
  8
SCHEME_DIMS
100
AcDbLine
 62
2
  6
CONTINUOUS
 10
13.5183034024
 20
4.9188934828
 11
14.3568871861
 21
4.9188934828
  0
LINE
  5
433
100
AcDbEntity
  8
SCHEME_DIMS
100
AcDbLine
 62
2
  6
CONTINUOUS
 10
14.2318871861
 20
3.7377911206
 11
14.2318871861
 21
4.0283423017
  0
LINE
  5
434
100
AcDbEntity
  8
SCHEME_DIMS
100
AcDbLine
 62
2
  6
CONTINUOUS
 10
14.2318871861
 20
4.9188934828
 11
14.2318871861
 21
4.4783423017
  0
INSERT
  5
435
100
AcDbEntity
  8
SCHEME_DIMS
100
AcDbBlockReference
 62
2
  6
CONTINUOUS
  2
_FILLED
 10
14.2318871861
 20
3.7377911206
 41
0.1875
 42
0.1875
 43
0.1875
 50
270.0
  0
INSERT
  5
436
100
AcDbEntity
  8
SCHEME_DIMS
100
AcDbBlockReference
 62
2
  6
CONTINUOUS
  2
_FILLED
 10
14.2318871861
 20
4.9188934828
 41
0.1875
 42
0.1875
 43
0.1875
 50
90.0
  0
ENDBLK
  5
437
100
AcDbEntity
  8
0
  6
BYBLOCK
 62
0
100
AcDbBlockEnd
  0
BLOCK
  5
438
100
AcDbEntity
  8
SCHEME_DIMS
100
AcDbBlockBegin
 62
2
  6
CONTINUOUS
  2
*D3
 70
65
 10
0.0
 20
0.0
  3
*D3
  1

  0
TEXT
  5
439
100
AcDbEntity
  8
SCHEME_DIMS
100
AcDbText
 62
2
  6
CONTINUOUS
 10
8.0478947117
 20
5.3353841422
  7
STANDARD
 40
0.1
  1
74,35
 41
1.0
 72
0
100
AcDbText
  0
TEXT
  5
43A
100
AcDbEntity
  8
SCHEME_DIMS
100
AcDbText
 62
2
  6
CONTINUOUS
 10
8.1478947117
 20
5.1853841422
  7
STANDARD
 40
0.1
  1
2.93
 41
1.0
 72
0
100
AcDbText
  0
TEXT
  5
43B
100
AcDbEntity
  8
SCHEME_DIMS
100
AcDbText
 62
2
  6
CONTINUOUS
 10
8.0478947117
 20
5.1853841422
  7
STANDARD
 40
0.1
  1
[
 41
1.0
 72
0
100
AcDbText
  0
TEXT
  5
43C
100
AcDbEntity
  8
SCHEME_DIMS
100
AcDbText
 62
2
  6
CONTINUOUS
 10
8.5478947117
 20
5.1853841422
  7
STANDARD
 40
0.1
  1
]
 41
1.0
 72
0
100
AcDbText
  0
LINE
  5
43D
100
AcDbEntity
  8
SCHEME_DIMS
100
AcDbLine
 62
2
  6
CONTINUOUS
 10
6.8843120346
 20
4.9589525379
 11
6.8843120346
 21
5.5103841422
  0
LINE
  5
43E
100
AcDbEntity
  8
SCHEME_DIMS
100
AcDbLine
 62
2
  6
CONTINUOUS
 10
9.8114773889
 20
4.6464024085
 11
9.8114773889
 21
5.5103841422
  0
LINE
  5
43F
100
AcDbEntity
  8
SCHEME_DIMS
100
AcDbLine
 62
2
  6
CONTINUOUS
 10
6.8843120346
 20
5.3853841422
 11
7.9478947117
 21
5.3853841422
  0
LINE
  5
440
100
AcDbEntity
  8
SCHEME_DIMS
100
AcDbLine
 62
2
  6
CONTINUOUS
 10
9.8114773889
 20
5.3853841422
 11
8.7478947117
 21
5.3853841422
  0
INSERT
  5
441
100
AcDbEntity
  8
SCHEME_DIMS
100
AcDbBlockReference
 62
2
  6
CONTINUOUS
  2
_FILLED
 10
6.8843120346
 20
5.3853841422
 41
0.1875
 42
0.1875
 43
0.1875
 50
180.0
  0
INSERT
  5
442
100
AcDbEntity
  8
SCHEME_DIMS
100
AcDbBlockReference
 62
2
  6
CONTINUOUS
  2
_FILLED
 10
9.8114773889
 20
5.3853841422
 41
0.1875
 42
0.1875
 43
0.1875
  0
ENDBLK
  5
443
100
AcDbEntity
  8
0
  6
BYBLOCK
 62
0
100
AcDbBlockEnd
  0
BLOCK
  5
444
100
AcDbEntity
  8
SCHEME_DIMS
100
AcDbBlockBegin
 62
2
  6
CONTINUOUS
  2
*D4
 70
65
 10
0.0
 20
0.0
  3
*D4
  1

  0
TEXT
  5
445
100
AcDbEntity
  8
SCHEME_DIMS
100
AcDbText
 62
2
  6
CONTINUOUS
 10
8.235773642
 20
8.6101379887
  7
STANDARD
 40
0.1
  1
94,95
 41
1.0
 72
0
100
AcDbText
  0
TEXT
  5
446
100
AcDbEntity
  8
SCHEME_DIMS
100
AcDbText
 62
2
  6
CONTINUOUS
 10
8.335773642
 20
8.4601379887
  7
STANDARD
 40
0.1
  1
3.74
 41
1.0
 72
0
100
AcDbText
  0
TEXT
  5
447
100
AcDbEntity
  8
SCHEME_DIMS
100
AcDbText
 62
2
  6
CONTINUOUS
 10
8.235773642
 20
8.4601379887
  7
STANDARD
 40
0.1
  1
[
 41
1.0
 72
0
100
AcDbText
  0
TEXT
  5
448
100
AcDbEntity
  8
SCHEME_DIMS
100
AcDbText
 62
2
  6
CONTINUOUS
 10
8.735773642
 20
8.4601379887
  7
STANDARD
 40
0.1
  1
]
 41
1.0
 72
0
100
AcDbText
  0
LINE
  5
449
100
AcDbEntity
  8
SCHEME_DIMS
100
AcDbLine
 62
2
  6
CONTINUOUS
 10
10.622501011
 20
7.2681911105
 11
10.622501011
 21
7.8303316303
  0
LINE
  5
44A
100
AcDbEntity
  8
SCHEME_DIMS
100
AcDbLine
 62
2
  6
CONTINUOUS
 10
10.622501011
 20
8.1063043275
 11
10.622501011
 21
8.7851379887
  0
LINE
  5
44B
100
AcDbEntity
  8
SCHEME_DIMS
100
AcDbLine
 62
2
  6
CONTINUOUS
 10
6.8843120346
 20
7.6325611892
 11
6.8843120346
 21
8.7851379887
  0
LINE
  5
44C
100
AcDbEntity
  8
SCHEME_DIMS
100
AcDbLine
 62
2
  6
CONTINUOUS
 10
10.622501011
 20
8.6601379887
 11
8.935773642
 21
8.6601379887
  0
LINE
  5
44D
100
AcDbEntity
  8
SCHEME_DIMS
100
AcDbLine
 62
2
  6
CONTINUOUS
 10
6.8843120346
 20
8.6601379887
 11
8.135773642
 21
8.6601379887
  0
INSERT
  5
44E
100
AcDbEntity
  8
SCHEME_DIMS
100
AcDbBlockReference
 62
2
  6
CONTINUOUS
  2
_FILLED
 10
10.622501011
 20
8.6601379887
 41
0.1875
 42
0.1875
 43
0.1875
  0
INSERT
  5
44F
100
AcDbEntity
  8
SCHEME_DIMS
100
AcDbBlockReference
 62
2
  6
CONTINUOUS
  2
_FILLED
 10
6.8843120346
 20
8.6601379887
 41
0.1875
 42
0.1875
 43
0.1875
 50
180.0
  0
ENDBLK
  5
450
100
AcDbEntity
  8
0
  6
BYBLOCK
 62
0
100
AcDbBlockEnd
  0
BLOCK
  5
451
100
AcDbEntity
  8
SCHEME_DIMS
100
AcDbBlockBegin
 62
2
  6
CONTINUOUS
  2
*D5
 70
65
 10
0.0
 20
0.0
  3
*D5
  1

  0
TEXT
  5
452
100
AcDbEntity
  8
SCHEME_DIMS
100
AcDbText
 62
2
  6
CONTINUOUS
 10
3.4716021735
 20
3.3981425172
  7
STANDARD
 40
0.1
  1
%%c
 41
1.3333333333
 72
0
100
AcDbText
  0
TEXT
  5
453
100
AcDbEntity
  8
SCHEME_DIMS
100
AcDbText
 62
2
  6
CONTINUOUS
 10
3.6049355069
 20
3.3981425172
  7
STANDARD
 40
0.1
  1
29,86
 41
1.0
 72
0
100
AcDbText
  0
TEXT
  5
454
100
AcDbEntity
  8
SCHEME_DIMS
100
AcDbText
 62
2
  6
CONTINUOUS
 10
3.7049355069
 20
3.2481425172
  7
STANDARD
 40
0.1
  1
1.18
 41
1.0
 72
0
100
AcDbText
  0
TEXT
  5
455
100
AcDbEntity
  8
SCHEME_DIMS
100
AcDbText
 62
2
  6
CONTINUOUS
 10
3.6049355069
 20
3.2481425172
  7
STANDARD
 40
0.1
  1
[
 41
1.0
 72
0
100
AcDbText
  0
TEXT
  5
456
100
AcDbEntity
  8
SCHEME_DIMS
100
AcDbText
 62
2
  6
CONTINUOUS
 10
4.1049355069
 20
3.2481425172
  7
STANDARD
 40
0.1
  1
]
 41
1.0
 72
0
100
AcDbText
  0
LINE
  5
457
100
AcDbEntity
  8
SCHEME_DIMS
100
AcDbLine
 62
2
  6
CONTINUOUS
 10
4.7283244009
 20
3.8444884568
 11
4.4549355069
 21
3.4481425172
  0
LINE
  5
458
100
AcDbEntity
  8
SCHEME_DIMS
100
AcDbLine
 62
2
  6
CONTINUOUS
 10
4.4549355069
 20
3.4481425172
 11
4.3049355069
 21
3.4481425172
  0
INSERT
  5
459
100
AcDbEntity
  8
SCHEME_DIMS
100
AcDbBlockReference
 62
2
  6
CONTINUOUS
  2
_FILLED
 10
4.7283244009
 20
3.8444884568
 41
0.1875
 42
0.1875
 43
0.1875
 50
55.4031202517
  0
ENDBLK
  5
45A
100
AcDbEntity
  8
0
  6
BYBLOCK
 62
0
100
AcDbBlockEnd
  0
BLOCK
  5
45B
100
AcDbEntity
  8
SCHEME_DIMS
100
AcDbBlockBegin
 62
2
  6
CONTINUOUS
  2
*D6
 70
65
 10
0.0
 20
0.0
  3
*D6
  1

  0
TEXT
  5
45C
100
AcDbEntity
  8
SCHEME_DIMS
100
AcDbText
 62
2
  6
CONTINUOUS
 10
7.0963199086
 20
6.1483082068
  7
STANDARD
 40
0.1
  1
3X
 41
1.0
 72
0
100
AcDbText
  0
TEXT
  5
45D
100
AcDbEntity
  8
SCHEME_DIMS
100
AcDbText
 62
2
  6
CONTINUOUS
 10
6.9463199086
 20
5.9983082068
  7
STANDARD
 40
0.1
  1
15,85
 41
1.0
 72
0
100
AcDbText
  0
TEXT
  5
45E
100
AcDbEntity
  8
SCHEME_DIMS
100
AcDbText
 62
2
  6
CONTINUOUS
 10
7.0463199086
 20
5.8483082068
  7
STANDARD
 40
0.1
  1
.62
 41
1.0
 72
0
100
AcDbText
  0
TEXT
  5
45F
100
AcDbEntity
  8
SCHEME_DIMS
100
AcDbText
 62
2
  6
CONTINUOUS
 10
6.9463199086
 20
5.8483082068
  7
STANDARD
 40
0.1
  1
[
 41
1.0
 72
0
100
AcDbText
  0
TEXT
  5
460
100
AcDbEntity
  8
SCHEME_DIMS
100
AcDbText
 62
2
  6
CONTINUOUS
 10
7.3463199086
 20
5.8483082068
  7
STANDARD
 40
0.1
  1
]
 41
1.0
 72
0
100
AcDbText
  0
LINE
  5
461
100
AcDbEntity
  8
SCHEME_DIMS
100
AcDbLine
 62
2
  6
CONTINUOUS
 10
6.8843120346
 20
6.3713407168
 11
6.8843120346
 21
5.9233082068
  0
LINE
  5
462
100
AcDbEntity
  8
SCHEME_DIMS
100
AcDbLine
 62
2
  6
CONTINUOUS
 10
7.5083277826
 20
6.7902383546
 11
7.5083277826
 21
5.9233082068
  0
LINE
  5
463
100
AcDbEntity
  8
SCHEME_DIMS
100
AcDbLine
 62
2
  6
CONTINUOUS
 10
6.8843120346
 20
6.0483082068
 11
6.4843120346
 21
6.0483082068
  0
LINE
  5
464
100
AcDbEntity
  8
SCHEME_DIMS
100
AcDbLine
 62
2
  6
CONTINUOUS
 10
7.5083277826
 20
6.0483082068
 11
7.9083277826
 21
6.0483082068
  0
INSERT
  5
465
100
AcDbEntity
  8
SCHEME_DIMS
100
AcDbBlockReference
 62
2
  6
CONTINUOUS
  2
_FILLED
 10
6.8843120346
 20
6.0483082068
 41
0.1875
 42
0.1875
 43
0.1875
  0
INSERT
  5
466
100
AcDbEntity
  8
SCHEME_DIMS
100
AcDbBlockReference
 62
2
  6
CONTINUOUS
  2
_FILLED
 10
7.5083277826
 20
6.0483082068
 41
0.1875
 42
0.1875
 43
0.1875
 50
180.0
  0
ENDBLK
  5
467
100
AcDbEntity
  8
0
  6
BYBLOCK
 62
0
100
AcDbBlockEnd
  0
BLOCK
  5
468
100
AcDbEntity
  8
0
100
AcDbBlockBegin
 62
2
  6
CONTINUOUS
  2
*D7
 70
65
 10
0.0
 20
0.0
  3
*D7
  1

  0
TEXT
  5
469
100
AcDbEntity
  8
0
100
AcDbText
 62
2
  6
CONTINUOUS
 10
8.2099025858
 20
5.9983082068
  7
STANDARD
 40
0.1
  1
3X 
 41
1.0
 72
0
100
AcDbText
  0
TEXT
  5
46A
100
AcDbEntity
  8
0
100
AcDbText
 62
2
  6
CONTINUOUS
 10
8.5099025858
 20
5.9983082068
  7
STANDARD
 40
0.1
  1
58,5
 41
1.0
 72
0
100
AcDbText
  0
TEXT
  5
46B
100
AcDbEntity
  8
0
100
AcDbText
 62
2
  6
CONTINUOUS
 10
8.6099025858
 20
5.8483082068
  7
STANDARD
 40
0.1
  1
2.30
 41
1.0
 72
0
100
AcDbText
  0
TEXT
  5
46C
100
AcDbEntity
  8
0
100
AcDbText
 62
2
  6
CONTINUOUS
 10
8.5099025858
 20
5.8483082068
  7
STANDARD
 40
0.1
  1
[
 41
1.0
 72
0
100
AcDbText
  0
TEXT
  5
46D
100
AcDbEntity
  8
0
100
AcDbText
 62
2
  6
CONTINUOUS
 10
9.0099025858
 20
5.8483082068
  7
STANDARD
 40
0.1
  1
]
 41
1.0
 72
0
100
AcDbText
  0
LINE
  5
46E
100
AcDbEntity
  8
0
100
AcDbLine
 62
2
  6
CONTINUOUS
 10
7.5083277826
 20
6.8107086958
 11
7.5083277826
 21
5.9233082068
  0
LINE
  5
46F
100
AcDbEntity
  8
0
100
AcDbLine
 62
2
  6
CONTINUOUS
 10
9.8114773889
 20
6.8057301483
 11
9.8114773889
 21
5.9233082068
  0
LINE
  5
470
100
AcDbEntity
  8
0
100
AcDbLine
 62
2
  6
CONTINUOUS
 10
7.5083277826
 20
6.0483082068
 11
8.1099025858
 21
6.0483082068
  0
LINE
  5
471
100
AcDbEntity
  8
0
100
AcDbLine
 62
2
  6
CONTINUOUS
 10
9.8114773889
 20
6.0483082068
 11
9.2099025858
 21
6.0483082068
  0
INSERT
  5
472
100
AcDbEntity
  8
0
100
AcDbBlockReference
 62
2
  6
CONTINUOUS
  2
_FILLED
 10
7.5083277826
 20
6.0483082068
 41
0.1875
 42
0.1875
 43
0.1875
 50
180.0
  0
INSERT
  5
473
100
AcDbEntity
  8
0
100
AcDbBlockReference
 62
2
  6
CONTINUOUS
  2
_FILLED
 10
9.8114773889
 20
6.0483082068
 41
0.1875
 42
0.1875
 43
0.1875
  0
ENDBLK
  5
474
100
AcDbEntity
  8
0
  6
BYBLOCK
 62
0
100
AcDbBlockEnd
  0
BLOCK
  5
475
100
AcDbEntity
  8
SYMBOLS
100
AcDbBlockBegin
 62
2
  6
CONTINUOUS
  2
CL_BL1
 70
64
 10
10.9407720947
 20
7.015283493
  3
CL_BL1
  1

  0
LWPOLYLINE
  5
476
100
AcDbEntity
  8
SYMBOLS
100
AcDbPolyline
 62
2
  6
CONTINUOUS
 90
9
 70
0
 10
10.9657719727
 20
7.0627839355
 10
10.9357719116
 20
7.0727832642
 10
10.9057718506
 20
7.0627839355
 10
10.8857721558
 20
7.0427832031
 10
10.8757717896
 20
7.0127836609
 10
10.8857721558
 20
6.9827835999
 10
10.9057718506
 20
6.962783905
 10
10.9357719116
 20
6.9527835388
 10
10.9657719727
 20
6.962783905
  0
LWPOLYLINE
  5
477
100
AcDbEntity
  8
SYMBOLS
100
AcDbPolyline
 62
2
  6
CONTINUOUS
 90
3
 70
0
 10
10.9257715454
 20
7.1077835083
 10
10.9257715454
 20
6.9227834778
 10
11.0057723999
 20
6.9227834778
  0
ENDBLK
  5
478
100
AcDbEntity
  8
0
  6
BYBLOCK
 62
0
100
AcDbBlockEnd
  0
BLOCK
  5
479
100
AcDbEntity
  8
SYMBOLS
100
AcDbBlockBegin
 62
2
  6
CONTINUOUS
  2
CL_BL2
 70
64
 10
10.9760836182
 20
4.326021286
  3
CL_BL2
  1

  0
LWPOLYLINE
  5
47A
100
AcDbEntity
  8
SYMBOLS
100
AcDbPolyline
 62
2
  6
CONTINUOUS
 90
9
 70
0
 10
11.0010834961
 20
4.3735217285
 10
10.9710834351
 20
4.3835215759
 10
10.941083374
 20
4.3735217285
 10
10.9210836792
 20
4.3535215149
 10
10.911083313
 20
4.3235214539
 10
10.9210836792
 20
4.2935213928
 10
10.941083374
 20
4.273521698
 10
10.9710834351
 20
4.2635213318
 10
11.0010834961
 20
4.273521698
  0
LWPOLYLINE
  5
47B
100
AcDbEntity
  8
SYMBOLS
100
AcDbPolyline
 62
2
  6
CONTINUOUS
 90
3
 70
0
 10
10.9610841064
 20
4.4185213013
 10
10.9610841064
 20
4.2335212708
 10
11.0410839233
 20
4.2335212708
  0
ENDBLK
  5
47C
100
AcDbEntity
  8
0
  6
BYBLOCK
 62
0
100
AcDbBlockEnd
  0
BLOCK
  5
47D
100
AcDbEntity
  8
SYMBOLS
100
AcDbBlockBegin
 62
2
  6
CONTINUOUS
  2
CL_BL3
 70
64
 10
12.9393677979
 20
5.1728205566
  3
CL_BL3
  1

  0
LWPOLYLINE
  5
47E
100
AcDbEntity
  8
SYMBOLS
100
AcDbPolyline
 62
2
  6
CONTINUOUS
 90
9
 70
0
 10
12.9643676758
 20
5.2203207397
 10
12.9343676147
 20
5.2303205872
 10
12.9043675537
 20
5.2203207397
 10
12.8843678589
 20
5.2003205261
 10
12.8743674927
 20
5.1703204651
 10
12.8843678589
 20
5.1403204041
 10
12.9043675537
 20
5.1203207092
 10
12.9343676147
 20
5.110320343
 10
12.9643676758
 20
5.1203207092
  0
LWPOLYLINE
  5
47F
100
AcDbEntity
  8
SYMBOLS
100
AcDbPolyline
 62
2
  6
CONTINUOUS
 90
3
 70
0
 10
12.9243682861
 20
5.2653203125
 10
12.9243682861
 20
5.0803208008
 10
13.004368103
 20
5.0803208008
  0
ENDBLK
  5
480
100
AcDbEntity
  8
0
  6
BYBLOCK
 62
0
100
AcDbBlockEnd
  0
BLOCK
  5
481
100
AcDbEntity
  8
SYMBOLS
100
AcDbBlockBegin
 62
2
  6
CONTINUOUS
  2
CL_BL4
 70
64
 10
12.0940587769
 20
4.3520764008
  3
CL_BL4
  1

  0
LWPOLYLINE
  5
482
100
AcDbEntity
  8
SYMBOLS
100
AcDbPolyline
 62
2
  6
CONTINUOUS
 90
9
 70
0
 10
12.1190586548
 20
4.3995763245
 10
12.0890585938
 20
4.4095761719
 10
12.0590585327
 20
4.3995763245
 10
12.0390588379
 20
4.3795761108
 10
12.0290584717
 20
4.3495765686
 10
12.0390588379
 20
4.3195765076
 10
12.0590585327
 20
4.2995762939
 10
12.0890585938
 20
4.2895764465
 10
12.1190586548
 20
4.2995762939
  0
LWPOLYLINE
  5
483
100
AcDbEntity
  8
SYMBOLS
100
AcDbPolyline
 62
2
  6
CONTINUOUS
 90
3
 70
0
 10
12.0790582275
 20
4.444576416
 10
12.0790582275
 20
4.2595763855
 10
12.159059082
 20
4.2595763855
  0
ENDBLK
  5
484
100
AcDbEntity
  8
0
  6
BYBLOCK
 62
0
100
AcDbBlockEnd
  0
BLOCK
  5
485
100
AcDbEntity
  8
0
100
AcDbBlockBegin
  2
_FILLED
 70
64
 10
0.0
 20
0.0
  3
_FILLED
  1

  0
SOLID
  5
486
100
AcDbEntity
  8
0
  6
BYBLOCK
 62
0
100
AcDbTrace
 10
0.0
 20
0.0
 11
-1.0
 21
0.1666666667
 12
-1.0
 22
-0.1666666667
 13
-1.0
 23
-0.1666666667
  0
ENDBLK
  5
487
100
AcDbEntity
  8
0
  6
BYBLOCK
 62
0
100
AcDbBlockEnd
  0
ENDSEC
  0
SECTION
  2
ENTITIES
  0
TEXT
  5
488
100
AcDbEntity
  8
0
100
AcDbText
 62
2
  6
CONTINUOUS
 10
10.1487658475
 20
1.694867839
  7
STANDARD
 40
0.1
  1
%%uTHIRD ANGLE PROJECTION
 41
0.8
 72
1
 11
11.0287658475
 21
1.694867839
100
AcDbText
  0
TEXT
  5
489
100
AcDbEntity
  8
0
100
AcDbText
 62
2
  6
CONTINUOUS
 10
12.88
 20
1.377
  7
STANDARD
 40
0.08
  1
DRAWING NO.
 41
1.0
 72
0
100
AcDbText
  0
TEXT
  5
48A
100
AcDbEntity
  8
0
100
AcDbText
 62
2
  6
CONTINUOUS
 10
10.044
 20
2.436432
  7
STANDARD
 40
0.08
  1
and is proprietary in general
 41
0.85
 72
1
 11
11.03
 21
2.436432
100
AcDbText
  0
TEXT
  5
48B
100
AcDbEntity
  8
0
100
AcDbText
 62
2
  6
CONTINUOUS
 10
10.078
 20
2.316432
  7
STANDARD
 40
0.08
  1
and in detail.  Its contents
 41
0.85
 72
1
 11
11.03
 21
2.316432
100
AcDbText
  0
TEXT
  5
48C
100
AcDbEntity
  8
0
100
AcDbText
 62
2
  6
CONTINUOUS
 10
10.214
 20
2.196432
  7
STANDARD
 40
0.08
  1
shall not be revealed to
 41
0.85
 72
1
 11
11.03
 21
2.196432
100
AcDbText
  0
TEXT
  5
48D
100
AcDbEntity
  8
0
100
AcDbText
 62
2
  6
CONTINUOUS
 10
10.248
 20
2.076432
  7
STANDARD
 40
0.08
  1
outside parties without
 41
0.85
 72
1
 11
11.03
 21
2.076432
100
AcDbText
  0
TEXT
  5
48E
100
AcDbEntity
  8
0
100
AcDbText
 62
2
  6
CONTINUOUS
 10
10.146
 20
1.956432
  7
STANDARD
 40
0.08
  1
written consent of BANNER.
 41
0.85
 72
1
 11
11.03
 21
1.956432
100
AcDbText
  0
TEXT
  5
48F
100
AcDbEntity
  8
0
100
AcDbText
 62
2
  6
CONTINUOUS
 10
12.08
 20
2.117
  7
STANDARD
 40
0.1
  1
TITLE
 41
0.8
 72
0
100
AcDbText
  0
TEXT
  5
490
100
AcDbEntity
  8
0
100
AcDbText
 62
2
  6
CONTINUOUS
 10
12.08
 20
1.377
  7
STANDARD
 40
0.08
  1
SIZE
 41
1.0
 72
0
100
AcDbText
  0
TEXT
  5
491
100
AcDbEntity
  8
0
100
AcDbText
 62
2
  6
CONTINUOUS
 10
12.08
 20
1.007
  7
STANDARD
 40
0.08
  1
SCALE
 41
1.0
 72
0
100
AcDbText
  0
TEXT
  5
492
100
AcDbEntity
  8
0
100
AcDbText
 62
2
  6
CONTINUOUS
 10
12.46
 20
1.237
  7
STANDARD
 40
0.1
  1
B
 41
0.8
 72
1
 11
12.5
 21
1.237
100
AcDbText
  0
TEXT
  5
493
100
AcDbEntity
  8
0
100
AcDbText
 62
2
  6
CONTINUOUS
 10
10.112
 20
2.556432
  7
STANDARD
 40
0.08
  1
of BANNER ENGINEERING CORP.
 41
0.85
 72
1
 11
11.03
 21
2.556432
100
AcDbText
  0
TEXT
  5
494
100
AcDbEntity
  8
0
100
AcDbText
 62
2
  6
CONTINUOUS
 10
10.078
 20
2.676432
  7
STANDARD
 40
0.08
  1
This drawing is the property
 41
0.85
 72
1
 11
11.03
 21
2.676432
100
AcDbText
  0
TEXT
  5
495
100
AcDbEntity
  8
0
100
AcDbText
 62
2
  6
CONTINUOUS
 10
14.19
 20
2.3134
  7
STANDARD
 40
0.1
  1
MINNEAPOLIS, MN 55440
 41
0.8
 72
1
 11
15.03
 21
2.3134
100
AcDbText
  0
TEXT
  5
496
100
AcDbEntity
  8
0
100
AcDbText
 62
2
  6
CONTINUOUS
 10
14.255
 20
1.007
  7
STANDARD
 40
0.08
  1
SHEET
 41
1.0
 72
0
100
AcDbText
  0
TEXT
  5
497
100
AcDbEntity
  8
0
100
AcDbText
 62
2
  6
CONTINUOUS
 10
15.63
 20
1.377
  7
STANDARD
 40
0.08
  1
REV.
 41
1.0
 72
0
100
AcDbText
  0
TEXT
  5
498
100
AcDbEntity
  8
0
100
AcDbText
 62
2
  6
CONTINUOUS
 10
16.03
 20
0.765443
  7
STANDARD
 40
0.07
  1
PRO/E
 41
1.0
 72
2
 11
16.38
 21
0.765443
100
AcDbText
  0
TEXT
  5
499
100
AcDbEntity
  8
0
100
AcDbText
 62
2
  6
CONTINUOUS
 10
13.7052
 20
2.631049
  7
STANDARD
 40
0.12
  1
BANNER ENGINEERING CORP.
 41
0.92
 72
1
 11
15.03
 21
2.631049
100
AcDbText
  0
TEXT
  5
49A
100
AcDbEntity
  8
0
100
AcDbText
 62
2
  6
CONTINUOUS
 10
14.51
 20
2.4724
  7
STANDARD
 40
0.1
  1
P.O. BOX 9414
 41
0.8
 72
1
 11
15.03
 21
2.4724
100
AcDbText
  0
TEXT
  5
49B
100
AcDbEntity
  8
0
100
AcDbText
 62
2
  6
CONTINUOUS
 10
9.445
 20
10.212
  7
STANDARD
 40
0.1
  1
4
 41
0.8
 72
1
 11
9.485
 21
10.212
100
AcDbText
  0
TEXT
  5
49C
100
AcDbEntity
  8
0
100
AcDbText
 62
2
  6
CONTINUOUS
 10
11.415
 20
10.212
  7
STANDARD
 40
0.1
  1
3
 41
0.8
 72
1
 11
11.455
 21
10.212
100
AcDbText
  0
TEXT
  5
49D
100
AcDbEntity
  8
0
100
AcDbText
 62
2
  6
CONTINUOUS
 10
13.385
 20
10.212
  7
STANDARD
 40
0.1
  1
2
 41
0.8
 72
1
 11
13.425
 21
10.212
100
AcDbText
  0
TEXT
  5
49E
100
AcDbEntity
  8
0
100
AcDbText
 62
2
  6
CONTINUOUS
 10
15.355
 20
10.212
  7
STANDARD
 40
0.1
  1
1
 41
0.8
 72
1
 11
15.395
 21
10.212
100
AcDbText
  0
TEXT
  5
49F
100
AcDbEntity
  8
0
100
AcDbText
 62
2
  6
CONTINUOUS
 10
3.535
 20
10.212
  7
STANDARD
 40
0.1
  1
7
 41
0.8
 72
1
 11
3.575
 21
10.212
100
AcDbText
  0
TEXT
  5
4A0
100
AcDbEntity
  8
0
100
AcDbText
 62
2
  6
CONTINUOUS
 10
5.505
 20
10.212
  7
STANDARD
 40
0.1
  1
6
 41
0.8
 72
1
 11
5.545
 21
10.212
100
AcDbText
  0
TEXT
  5
4A1
100
AcDbEntity
  8
0
100
AcDbText
 62
2
  6
CONTINUOUS
 10
7.475
 20
10.212
  7
STANDARD
 40
0.1
  1
5
 41
0.8
 72
1
 11
7.515
 21
10.212
100
AcDbText
  0
TEXT
  5
4A2
100
AcDbEntity
  8
0
100
AcDbText
 62
2
  6
CONTINUOUS
 10
1.565
 20
10.212
  7
STANDARD
 40
0.1
  1
8
 41
0.8
 72
1
 11
1.605
 21
10.212
100
AcDbText
  0
TEXT
  5
4A3
100
AcDbEntity
  8
0
100
AcDbText
 62
2
  6
CONTINUOUS
 10
1.565
 20
0.687
  7
STANDARD
 40
0.1
  1
8
 41
0.8
 72
1
 11
1.605
 21
0.687
100
AcDbText
  0
TEXT
  5
4A4
100
AcDbEntity
  8
0
100
AcDbText
 62
2
  6
CONTINUOUS
 10
3.535
 20
0.687
  7
STANDARD
 40
0.1
  1
7
 41
0.8
 72
1
 11
3.575
 21
0.687
100
AcDbText
  0
TEXT
  5
4A5
100
AcDbEntity
  8
0
100
AcDbText
 62
2
  6
CONTINUOUS
 10
5.505
 20
0.687
  7
STANDARD
 40
0.1
  1
6
 41
0.8
 72
1
 11
5.545
 21
0.687
100
AcDbText
  0
TEXT
  5
4A6
100
AcDbEntity
  8
0
100
AcDbText
 62
2
  6
CONTINUOUS
 10
7.475
 20
0.687
  7
STANDARD
 40
0.1
  1
5
 41
0.8
 72
1
 11
7.515
 21
0.687
100
AcDbText
  0
TEXT
  5
4A7
100
AcDbEntity
  8
0
100
AcDbText
 62
2
  6
CONTINUOUS
 10
9.445
 20
0.687
  7
STANDARD
 40
0.1
  1
4
 41
0.8
 72
1
 11
9.485
 21
0.687
100
AcDbText
  0
TEXT
  5
4A8
100
AcDbEntity
  8
0
100
AcDbText
 62
2
  6
CONTINUOUS
 10
11.415
 20
0.687
  7
STANDARD
 40
0.1
  1
3
 41
0.8
 72
1
 11
11.455
 21
0.687
100
AcDbText
  0
TEXT
  5
4A9
100
AcDbEntity
  8
0
100
AcDbText
 62
2
  6
CONTINUOUS
 10
13.385
 20
0.687
  7
STANDARD
 40
0.1
  1
2
 41
0.8
 72
1
 11
13.425
 21
0.687
100
AcDbText
  0
TEXT
  5
4AA
100
AcDbEntity
  8
0
100
AcDbText
 62
2
  6
CONTINUOUS
 10
15.355
 20
0.687
  7
STANDARD
 40
0.1
  1
1
 41
0.8
 72
1
 11
15.395
 21
0.687
100
AcDbText
  0
TEXT
  5
4AB
100
AcDbEntity
  8
0
100
AcDbText
 62
2
  6
CONTINUOUS
 10
0.44
 20
4.2995
  7
STANDARD
 40
0.1
  1
B
 41
0.8
 72
2
 11
0.52
 21
4.2995
100
AcDbText
  0
TEXT
  5
4AC
100
AcDbEntity
  8
0
100
AcDbText
 62
2
  6
CONTINUOUS
 10
0.44
 20
1.9995
  7
STANDARD
 40
0.1
  1
A
 41
0.8
 72
2
 11
0.52
 21
1.9995
100
AcDbText
  0
TEXT
  5
4AD
100
AcDbEntity
  8
0
100
AcDbText
 62
2
  6
CONTINUOUS
 10
0.44
 20
8.8995
  7
STANDARD
 40
0.1
  1
D
 41
0.8
 72
2
 11
0.52
 21
8.8995
100
AcDbText
  0
TEXT
  5
4AE
100
AcDbEntity
  8
0
100
AcDbText
 62
2
  6
CONTINUOUS
 10
0.44
 20
6.5995
  7
STANDARD
 40
0.1
  1
C
 41
0.8
 72
2
 11
0.52
 21
6.5995
100
AcDbText
  0
TEXT
  5
4AF
100
AcDbEntity
  8
0
100
AcDbText
 62
2
  6
CONTINUOUS
 10
16.48
 20
8.8995
  7
STANDARD
 40
0.1
  1
D
 41
0.8
 72
0
100
AcDbText
  0
TEXT
  5
4B0
100
AcDbEntity
  8
0
100
AcDbText
 62
2
  6
CONTINUOUS
 10
16.48
 20
6.5995
  7
STANDARD
 40
0.1
  1
C
 41
0.8
 72
0
100
AcDbText
  0
TEXT
  5
4B1
100
AcDbEntity
  8
0
100
AcDbText
 62
2
  6
CONTINUOUS
 10
16.48
 20
4.2995
  7
STANDARD
 40
0.1
  1
B
 41
0.8
 72
0
100
AcDbText
  0
TEXT
  5
4B2
100
AcDbEntity
  8
0
100
AcDbText
 62
2
  6
CONTINUOUS
 10
16.48
 20
1.9995
  7
STANDARD
 40
0.1
  1
A
 41
0.8
 72
0
100
AcDbText
  0
MTEXT
  5
4B3
100
AcDbEntity
  8
0
100
AcDbMText
 62
2
  6
CONTINUOUS
  7
STANDARD
 71
1
 72
1
 10
14.819264911
 20
1.0627941725
 30
0.0
 11
1.0
 21
0.0
 31
0.0
  1
1 OF 1
 40
0.1
 41
0.6
  0
TEXT
  5
4B4
100
AcDbEntity
  8
0
100
AcDbText
 62
7
  6
CONTINUOUS
 10
13.8911999818
 20
1.2547321586
  7
STANDARD
 40
0.12
  1
144925
 41
1.0
 72
0
100
AcDbText
  0
TEXT
  5
4B5
100
AcDbEntity
  8
0
100
AcDbText
 62
2
  6
CONTINUOUS
 10
12.644264911
 20
0.9627941725
  7
STANDARD
 40
0.1
  1
1:1
 41
1.0
 72
0
100
AcDbText
  0
MTEXT
  5
4B6
100
AcDbEntity
  8
0
100
AcDbMText
 62
2
  6
CONTINUOUS
  7
STANDARD
 71
1
 72
1
 10
1.0597007627
 20
1.6202922458
 30
0.0
 11
1.0
 21
0.0
 31
0.0
  1
NOTES:\P1. ALL DIMENSIONS ARE MILLIMETERS [INCHES] UNLESS OTHERWISE NOTED.
 40
0.1
 41
6.6
  0
INSERT
  5
4B7
100
AcDbEntity
  8
0
100
AcDbBlockReference
 62
2
  6
CONTINUOUS
  2
BANNER_LOGO_TITLEBLOCK_BL0
 10
12.9046655056
 20
2.5403783448
  0
DIMENSION
  5
4B8
100
AcDbEntity
  8
SCHEME_DIMS
100
AcDbDimension
 62
2
  6
CONTINUOUS
  2
*D0
 10
9.9728947117
 20
8.0989028949
 11
8.4286033732
 21
8.0239028949
 70
160
 42
78.45
  3
DIMSTYLE_1
100
AcDbAlignedDimension
 13
6.8843120346
 23
7.6325611892
 14
9.9728947117
 24
7.6921062378
100
AcDbRotatedDimension
  0
DIMENSION
  5
4B9
100
AcDbEntity
  8
SCHEME_DIMS
100
AcDbDimension
 62
2
  6
CONTINUOUS
  2
*D1
 10
12.2943860796
 20
5.5291061951
 11
12.9243073394
 21
5.4541061951
 70
160
 42
32.0
  3
DIMSTYLE_1
100
AcDbAlignedDimension
 13
13.5542285993
 23
4.8829682859
 14
12.2943860796
 24
4.8829682859
 50
180.0
100
AcDbRotatedDimension
  0
DIMENSION
  5
4BA
100
AcDbEntity
  8
SCHEME_DIMS
100
AcDbDimension
 62
2
  6
CONTINUOUS
  2
*D2
 10
14.2318871861
 20
4.9188934828
 11
14.2318871861
 21
4.2533423017
 70
160
 42
30.0
  3
DIMSTYLE_1
100
AcDbAlignedDimension
 13
13.5183034024
 23
3.7377911206
 14
13.5183034024
 24
4.9188934828
 50
90.0
100
AcDbRotatedDimension
  0
DIMENSION
  5
4BB
100
AcDbEntity
  8
SCHEME_DIMS
100
AcDbDimension
 62
2
  6
CONTINUOUS
  2
*D3
 10
9.8114773889
 20
5.3853841422
 11
8.3478947117
 21
5.3103841422
 70
160
 42
74.35
  3
DIMSTYLE_1
100
AcDbAlignedDimension
 13
6.8843120346
 23
4.9589525379
 14
9.8114773889
 24
4.6464024085
100
AcDbRotatedDimension
  0
DIMENSION
  5
4BC
100
AcDbEntity
  8
SCHEME_DIMS
100
AcDbDimension
 62
2
  6
CONTINUOUS
  2
*D4
 10
6.8843120346
 20
8.6601379887
 11
8.535773642
 21
8.5851379887
 70
160
 42
94.95
  3
DIMSTYLE_2
100
AcDbAlignedDimension
 13
10.622501011
 23
7.2681911105
 14
6.8843120346
 24
7.6325611892
 50
180.0
100
AcDbRotatedDimension
  0
DIMENSION
  5
4BD
100
AcDbEntity
  8
SCHEME_DIMS
100
AcDbDimension
 62
2
  6
CONTINUOUS
  2
*D5
 10
4.7283244009
 20
3.8444884568
 11
3.8382688402
 21
3.3731425172
 70
163
 42
29.86
  1
<>
  3
DIMSTYLE_3
100
AcDbDiametricDimension
 15
5.3958234431
 25
4.8121961465
  0
DIMENSION
  5
4BE
100
AcDbEntity
  8
SCHEME_DIMS
100
AcDbDimension
 62
2
  6
CONTINUOUS
  2
*D6
 10
7.5083277826
 20
6.0483082068
 11
7.1963199086
 21
6.0483082068
 70
160
 42
15.85
  1
3X\P<>
  3
DIMSTYLE_2
100
AcDbAlignedDimension
 13
6.8843120346
 23
6.3713407168
 14
7.5083277826
 24
6.7902383546
100
AcDbRotatedDimension
  0
DIMENSION
  5
4BF
100
AcDbEntity
  8
0
100
AcDbDimension
 62
2
  6
CONTINUOUS
  2
*D7
 10
9.8114773889
 20
6.0483082068
 11
8.6599025858
 21
5.9733082068
 70
160
  3
STANDARD
100
AcDbAlignedDimension
 13
7.5083277826
 23
6.8107086958
 14
9.8114773889
 24
6.8057301483
100
AcDbRotatedDimension
  0
LINE
  5
4C0
100
AcDbEntity
  8
0
100
AcDbLine
 62
2
  6
CONTINUOUS
 10
16.38
 20
0.887
 11
12.03
 21
0.887
  0
LINE
  5
4C1
100
AcDbEntity
  8
0
100
AcDbLine
 62
2
  6
CONTINUOUS
 10
16.38
 20
0.887
 11
16.38
 21
2.807
  0
LINE
  5
4C2
100
AcDbEntity
  8
0
100
AcDbLine
 62
2
  6
CONTINUOUS
 10
16.38
 20
2.807
 11
12.03
 21
2.807
  0
LINE
  5
4C3
100
AcDbEntity
  8
0
100
AcDbLine
 62
2
  6
CONTINUOUS
 10
12.03
 20
0.887
 11
12.03
 21
2.807
  0
TEXT
  5
4C4
100
AcDbEntity
  8
0
100
AcDbText
 62
7
  6
CONTINUOUS
 10
16.105
 20
1.267
  7
STANDARD
 40
0.1
  1
-
 41
1.0
 72
1
 11
16.155
 21
1.267
100
AcDbText
  0
MTEXT
  5
4C5
100
AcDbEntity
  8
0
100
AcDbMText
 62
7
  6
CONTINUOUS
  7
STANDARD
 71
2
 72
1
 10
14.205
 20
1.967
 30
0.0
 11
1.0
 21
0.0
 31
0.0
  1
PPROCAMQ\PWEB CAD DRAWINGS 2D/3D
 40
0.1
 41
2.2
  0
MTEXT
  5
4C6
100
AcDbEntity
  8
NOTES
100
AcDbMText
 62
2
  6
CONTINUOUS
  7
STANDARD
 71
1
 72
1
 10
11.0622101094
 20
8.2331196842
 30
0.0
 11
1.0
 21
0.0
 31
0.0
  1
 6X\P M3 X .5\P 5,0 [.20] DEEP
 40
0.1
 41
1.5
  0
LINE
  5
4C7
100
AcDbEntity
  8
NOTES
100
AcDbLine
 62
2
  6
CONTINUOUS
 10
9.8569440418
 20
6.9831184459
 11
10.8122101094
 21
8.1831196842
  0
LINE
  5
4C8
100
AcDbEntity
  8
NOTES
100
AcDbLine
 62
2
  6
CONTINUOUS
 10
10.8122101094
 20
8.1831196842
 11
11.0622101094
 21
8.1831196842
  0
SOLID
  5
4C9
100
AcDbEntity
  8
NOTES
100
AcDbTrace
 62
2
  6
CONTINUOUS
 10
9.9492719436
 20
7.1492761152
 11
9.8569440418
 21
6.9831184459
 12
9.99817022
 22
7.1103504352
 13
9.99817022
 23
7.1103504352
  0
MTEXT
  5
4CA
100
AcDbEntity
  8
NOTES
100
AcDbMText
 62
2
  6
CONTINUOUS
  7
STANDARD
 71
1
 72
1
 10
10.5424197739
 20
5.185608212
 30
0.0
 11
1.0
 21
0.0
 31
0.0
  1
 1/4-20 UNC\P  5,0 [.20] DEEP
 40
0.1
 41
1.6
  0
LINE
  5
4CB
100
AcDbEntity
  8
NOTES
100
AcDbLine
 62
2
  6
CONTINUOUS
 10
9.8956220435
 20
4.383296165
 11
10.2924197739
 21
5.135608212
  0
LINE
  5
4CC
100
AcDbEntity
  8
NOTES
100
AcDbLine
 62
2
  6
CONTINUOUS
 10
10.2924197739
 20
5.135608212
 11
10.5424197739
 21
5.135608212
  0
SOLID
  5
4CD
100
AcDbEntity
  8
NOTES
100
AcDbTrace
 62
2
  6
CONTINUOUS
 10
9.955454265
 20
4.5637204366
 11
9.8956220435
 21
4.383296165
 12
10.0107360708
 22
4.5345627285
 13
10.0107360708
 23
4.5345627285
  0
TEXT
  5
4CE
100
AcDbEntity
  8
NOTES
100
AcDbText
 62
2
  6
CONTINUOUS
 10
14.0069041305
 20
5.1123789371
  7
STANDARD
 40
0.1
  1
 LED INDICATOR
 41
1.0
 72
0
100
AcDbText
  0
LINE
  5
4CF
100
AcDbEntity
  8
NOTES
100
AcDbLine
 62
2
  6
CONTINUOUS
 10
13.3556093797
 20
4.695950487
 11
13.7569041305
 21
5.1623789371
  0
LINE
  5
4D0
100
AcDbEntity
  8
NOTES
100
AcDbLine
 62
2
  6
CONTINUOUS
 10
13.7569041305
 20
5.1623789371
 11
14.0069041305
 21
5.1623789371
  0
SOLID
  5
4D1
100
AcDbEntity
  8
NOTES
100
AcDbTrace
 62
2
  6
CONTINUOUS
 10
13.4542067565
 20
4.8584662394
 11
13.3556093797
 21
4.695950487
 12
13.5015849802
 22
4.8177040765
 13
13.5015849802
 23
4.8177040765
  0
MTEXT
  5
4D2
100
AcDbEntity
  8
NOTES
100
AcDbMText
 62
2
  6
CONTINUOUS
  7
STANDARD
 71
1
 72
1
 10
5.6960299183
 20
3.5109688811
 30
0.0
 11
1.0
 21
0.0
 31
0.0
  1
 1-32 UN\P THREADS FOR\P C-MOUNT LENSES
 40
0.1
 41
1.5
  0
LINE
  5
4D3
100
AcDbEntity
  8
NOTES
100
AcDbLine
 62
2
  6
CONTINUOUS
 10
5.2120910673
 20
3.8493149199
 11
5.4460299183
 21
3.4609688811
  0
LINE
  5
4D4
100
AcDbEntity
  8
NOTES
100
AcDbLine
 62
2
  6
CONTINUOUS
 10
5.4460299183
 20
3.4609688811
 11
5.6960299183
 21
3.4609688811
  0
SOLID
  5
4D5
100
AcDbEntity
  8
NOTES
100
AcDbTrace
 62
2
  6
CONTINUOUS
 10
5.3356103505
 20
3.7048303215
 11
5.2120910673
 21
3.8493149199
 12
5.2820737628
 22
3.6725799917
 13
5.2820737628
 23
3.6725799917
  0
MTEXT
  5
4D6
100
AcDbEntity
  8
NOTES
100
AcDbMText
 62
2
  6
CONTINUOUS
  7
STANDARD
 71
1
 72
1
 10
2.6609908685
 20
5.4964061562
 30
0.0
 11
1.0
 21
0.0
 31
0.0
  1
LENS ACCOMODATES \PCOLOR, POLARIZED, AND \PINFRARED FILTERS 
 40
0.1
 41
2.2
  0
LINE
  5
4D7
100
AcDbEntity
  8
NOTES
100
AcDbLine
 62
2
  6
CONTINUOUS
 10
4.9404332759
 20
4.6219377232
 11
4.6109908685
 21
5.4464061562
  0
LINE
  5
4D8
100
AcDbEntity
  8
NOTES
100
AcDbLine
 62
2
  6
CONTINUOUS
 10
4.6109908685
 20
5.4464061562
 11
4.3609908685
 21
5.4464061562
  0
INSERT
  5
4D9
100
AcDbEntity
  8
SYMBOLS
100
AcDbBlockReference
 62
2
  6
CONTINUOUS
  2
CL_BL1
 10
10.9407720947
 20
7.015283493
  0
INSERT
  5
4DA
100
AcDbEntity
  8
SYMBOLS
100
AcDbBlockReference
 62
2
  6
CONTINUOUS
  2
CL_BL2
 10
10.9760836182
 20
4.326021286
  0
INSERT
  5
4DB
100
AcDbEntity
  8
SYMBOLS
100
AcDbBlockReference
 62
2
  6
CONTINUOUS
  2
CL_BL3
 10
12.9393677979
 20
5.1728205566
  0
INSERT
  5
4DC
100
AcDbEntity
  8
SYMBOLS
100
AcDbBlockReference
 62
2
  6
CONTINUOUS
  2
CL_BL4
 10
12.0940587769
 20
4.3520764008
  0
LINE
  5
4DD
100
AcDbEntity
  8
0
100
AcDbLine
 62
2
  6
CONTINUOUS
 10
0.47
 20
5.586103
 11
0.47
 21
5.412897
  0
LINE
  5
4DE
100
AcDbEntity
  8
0
100
AcDbLine
 62
2
  6
CONTINUOUS
 10
0.62
 20
10.112
 11
0.62
 21
0.887
  0
LINE
  5
4DF
100
AcDbEntity
  8
0
100
AcDbLine
 62
2
  6
CONTINUOUS
 10
2.59
 20
0.887
 11
2.59
 21
0.637
  0
LINE
  5
4E0
100
AcDbEntity
  8
0
100
AcDbLine
 62
2
  6
CONTINUOUS
 10
2.59
 20
10.112
 11
2.59
 21
10.362
  0
LINE
  5
4E1
100
AcDbEntity
  8
0
100
AcDbLine
 62
2
  6
CONTINUOUS
 10
8.413397
 20
0.737
 11
8.586603
 21
0.737
  0
LINE
  5
4E2
100
AcDbEntity
  8
0
100
AcDbLine
 62
7
  6
CONTINUOUS
 10
11.1389508475
 20
1.425992839
 11
11.7453418475
 21
1.495385839
  0
LINE
  5
4E3
100
AcDbEntity
  8
0
100
AcDbLine
 62
2
  6
CONTINUOUS
 10
0.62
 20
0.887
 11
16.38
 21
0.887
  0
LINE
  5
4E4
100
AcDbEntity
  8
0
100
AcDbLine
 62
2
  6
CONTINUOUS
 10
12.03
 20
1.137
 11
16.38
 21
1.137
  0
LINE
  5
4E5
100
AcDbEntity
  8
0
100
AcDbLine
 62
7
  6
CONTINUOUS
 10
10.2121898475
 20
1.243294839
 11
10.4342808475
 21
1.243294839
  0
LINE
  5
4E6
100
AcDbEntity
  8
0
100
AcDbLine
 62
7
  6
CONTINUOUS
 10
10.4842808475
 20
1.243294839
 11
10.5842808475
 21
1.243294839
  0
LINE
  5
4E7
100
AcDbEntity
  8
0
100
AcDbLine
 62
7
  6
CONTINUOUS
 10
10.6342808475
 20
1.243294839
 11
10.8563718475
 21
1.243294839
  0
LINE
  5
4E8
100
AcDbEntity
  8
0
100
AcDbLine
 62
7
  6
CONTINUOUS
 10
11.0389508475
 20
1.243294839
 11
11.3171028475
 21
1.243294839
  0
LINE
  5
4E9
100
AcDbEntity
  8
0
100
AcDbLine
 62
7
  6
CONTINUOUS
 10
11.3671028475
 20
1.243294839
 11
11.5171888475
 21
1.243294839
  0
LINE
  5
4EA
100
AcDbEntity
  8
0
100
AcDbLine
 62
7
  6
CONTINUOUS
 10
11.5671888475
 20
1.243294839
 11
11.8453418475
 21
1.243294839
  0
LINE
  5
4EB
100
AcDbEntity
  8
0
100
AcDbLine
 62
7
  6
CONTINUOUS
 10
11.7453418475
 20
0.991203839
 11
11.1389508475
 21
1.060596839
  0
LINE
  5
4EC
100
AcDbEntity
  8
0
100
AcDbLine
 62
2
  6
CONTINUOUS
 10
4.56
 20
0.887
 11
4.56
 21
0.637
  0
LINE
  5
4ED
100
AcDbEntity
  8
0
100
AcDbLine
 62
2
  6
CONTINUOUS
 10
4.56
 20
10.112
 11
4.56
 21
10.362
  0
LINE
  5
4EE
100
AcDbEntity
  8
0
100
AcDbLine
 62
2
  6
CONTINUOUS
 10
0.47
 20
5.412897
 11
0.62
 21
5.4995
  0
LINE
  5
4EF
100
AcDbEntity
  8
0
100
AcDbLine
 62
2
  6
CONTINUOUS
 10
12.03
 20
1.507
 11
16.38
 21
1.507
  0
LINE
  5
4F0
100
AcDbEntity
  8
0
100
AcDbLine
 62
2
  6
CONTINUOUS
 10
10.03
 20
1.907
 11
12.03
 21
1.907
  0
LINE
  5
4F1
100
AcDbEntity
  8
0
100
AcDbLine
 62
2
  6
CONTINUOUS
 10
0.62
 20
5.4995
 11
0.47
 21
5.586103
  0
LINE
  5
4F2
100
AcDbEntity
  8
0
100
AcDbLine
 62
2
  6
CONTINUOUS
 10
12.03
 20
2.267
 11
16.38
 21
2.267
  0
LINE
  5
4F3
100
AcDbEntity
  8
0
100
AcDbLine
 62
2
  6
CONTINUOUS
 10
8.5
 20
10.112
 11
8.586603
 21
10.262
  0
LINE
  5
4F4
100
AcDbEntity
  8
0
100
AcDbLine
 62
2
  6
CONTINUOUS
 10
16.38
 20
2.807
 11
10.03
 21
2.807
  0
LINE
  5
4F5
100
AcDbEntity
  8
0
100
AcDbLine
 62
2
  6
CONTINUOUS
 10
0.62
 20
3.1995
 11
0.37
 21
3.1995
  0
LINE
  5
4F6
100
AcDbEntity
  8
0
100
AcDbLine
 62
2
  6
CONTINUOUS
 10
16.38
 20
3.1995
 11
16.63
 21
3.1995
  0
LINE
  5
4F7
100
AcDbEntity
  8
0
100
AcDbLine
 62
2
  6
CONTINUOUS
 10
8.586603
 20
0.737
 11
8.5
 21
0.887
  0
LINE
  5
4F8
100
AcDbEntity
  8
0
100
AcDbLine
 62
2
  6
CONTINUOUS
 10
6.53
 20
0.887
 11
6.53
 21
0.637
  0
LINE
  5
4F9
100
AcDbEntity
  8
0
100
AcDbLine
 62
2
  6
CONTINUOUS
 10
6.53
 20
10.112
 11
6.53
 21
10.362
  0
LINE
  5
4FA
100
AcDbEntity
  8
0
100
AcDbLine
 62
2
  6
CONTINUOUS
 10
8.5
 20
0.887
 11
8.5
 21
0.637
  0
LINE
  5
4FB
100
AcDbEntity
  8
0
100
AcDbLine
 62
2
  6
CONTINUOUS
 10
8.5
 20
10.112
 11
8.5
 21
10.362
  0
LINE
  5
4FC
100
AcDbEntity
  8
0
100
AcDbLine
 62
2
  6
CONTINUOUS
 10
0.62
 20
5.4995
 11
0.37
 21
5.4995
  0
LINE
  5
4FD
100
AcDbEntity
  8
0
100
AcDbLine
 62
2
  6
CONTINUOUS
 10
16.38
 20
5.4995
 11
16.63
 21
5.4995
  0
LINE
  5
4FE
100
AcDbEntity
  8
0
100
AcDbLine
 62
2
  6
CONTINUOUS
 10
10.03
 20
2.807
 11
10.03
 21
0.887
  0
LINE
  5
4FF
100
AcDbEntity
  8
0
100
AcDbLine
 62
2
  6
CONTINUOUS
 10
10.47
 20
0.887
 11
10.47
 21
0.637
  0
LINE
  5
500
100
AcDbEntity
  8
0
100
AcDbLine
 62
2
  6
CONTINUOUS
 10
10.47
 20
10.112
 11
10.47
 21
10.362
  0
LINE
  5
501
100
AcDbEntity
  8
0
100
AcDbLine
 62
7
  6
CONTINUOUS
 10
10.5342808475
 20
1.143294839
 11
10.5342808475
 21
0.921203839
  0
LINE
  5
502
100
AcDbEntity
  8
0
100
AcDbLine
 62
7
  6
CONTINUOUS
 10
10.5342808475
 20
1.193294839
 11
10.5342808475
 21
1.293294839
  0
LINE
  5
503
100
AcDbEntity
  8
0
100
AcDbLine
 62
7
  6
CONTINUOUS
 10
10.5342808475
 20
1.343294839
 11
10.5342808475
 21
1.565385839
  0
LINE
  5
504
100
AcDbEntity
  8
0
100
AcDbLine
 62
2
  6
CONTINUOUS
 10
8.5
 20
0.887
 11
8.413397
 21
0.737
  0
LINE
  5
505
100
AcDbEntity
  8
0
100
AcDbLine
 62
2
  6
CONTINUOUS
 10
0.62
 20
7.7995
 11
0.37
 21
7.7995
  0
LINE
  5
506
100
AcDbEntity
  8
0
100
AcDbLine
 62
2
  6
CONTINUOUS
 10
16.38
 20
7.7995
 11
16.63
 21
7.7995
  0
LINE
  5
507
100
AcDbEntity
  8
0
100
AcDbLine
 62
2
  6
CONTINUOUS
 10
8.413397
 20
10.262
 11
8.5
 21
10.112
  0
LINE
  5
508
100
AcDbEntity
  8
0
100
AcDbLine
 62
7
  6
CONTINUOUS
 10
11.1389508475
 20
1.060596839
 11
11.1389508475
 21
1.425992839
  0
LINE
  5
509
100
AcDbEntity
  8
0
100
AcDbLine
 62
7
  6
CONTINUOUS
 10
11.7453418475
 20
1.495385839
 11
11.7453418475
 21
0.991203839
  0
LINE
  5
50A
100
AcDbEntity
  8
0
100
AcDbLine
 62
1
  6
CONTINUOUS
 10
12.03
 20
2.807
 11
12.03
 21
0.887
  0
LINE
  5
50B
100
AcDbEntity
  8
0
100
AcDbLine
 62
2
  6
CONTINUOUS
 10
12.44
 20
0.887
 11
12.44
 21
0.637
  0
LINE
  5
50C
100
AcDbEntity
  8
0
100
AcDbLine
 62
2
  6
CONTINUOUS
 10
12.44
 20
10.112
 11
12.44
 21
10.362
  0
LINE
  5
50D
100
AcDbEntity
  8
0
100
AcDbLine
 62
2
  6
CONTINUOUS
 10
16.53
 20
5.586103
 11
16.38
 21
5.4995
  0
LINE
  5
50E
100
AcDbEntity
  8
0
100
AcDbLine
 62
2
  6
CONTINUOUS
 10
16.38
 20
5.4995
 11
16.53
 21
5.412897
  0
LINE
  5
50F
100
AcDbEntity
  8
0
100
AcDbLine
 62
2
  6
CONTINUOUS
 10
12.83
 20
1.507
 11
12.83
 21
1.137
  0
LINE
  5
510
100
AcDbEntity
  8
0
100
AcDbLine
 62
2
  6
CONTINUOUS
 10
16.38
 20
10.112
 11
0.62
 21
10.112
  0
LINE
  5
511
100
AcDbEntity
  8
0
100
AcDbLine
 62
2
  6
CONTINUOUS
 10
8.586603
 20
10.262
 11
8.413397
 21
10.262
  0
LINE
  5
512
100
AcDbEntity
  8
0
100
AcDbLine
 62
2
  6
CONTINUOUS
 10
14.205
 20
1.137
 11
14.205
 21
0.887
  0
LINE
  5
513
100
AcDbEntity
  8
0
100
AcDbLine
 62
2
  6
CONTINUOUS
 10
14.41
 20
0.887
 11
14.41
 21
0.637
  0
LINE
  5
514
100
AcDbEntity
  8
0
100
AcDbLine
 62
2
  6
CONTINUOUS
 10
14.41
 20
10.112
 11
14.41
 21
10.362
  0
LINE
  5
515
100
AcDbEntity
  8
0
100
AcDbLine
 62
2
  6
CONTINUOUS
 10
15.58
 20
1.507
 11
15.58
 21
1.137
  0
LINE
  5
516
100
AcDbEntity
  8
0
100
AcDbLine
 62
2
  6
CONTINUOUS
 10
16.38
 20
0.887
 11
16.38
 21
10.112
  0
LINE
  5
517
100
AcDbEntity
  8
0
100
AcDbLine
 62
2
  6
CONTINUOUS
 10
16.53
 20
5.412897
 11
16.53
 21
5.586103
  0
LINE
  5
518
100
AcDbEntity
  8
0
100
AcDbLine
 62
7
  6
CONTINUOUS
 10
6.8843120346
 20
6.4338473735
 11
6.8843120346
 21
7.5700545326
  0
LINE
  5
519
100
AcDbEntity
  8
0
100
AcDbLine
 62
7
  6
CONTINUOUS
 10
6.9002191097
 20
6.4179336417
 11
6.9002191097
 21
7.5859682644
  0
LINE
  5
51A
100
AcDbEntity
  8
0
100
AcDbLine
 62
7
  6
CONTINUOUS
 10
6.9002191097
 20
7.5859682644
 11
6.8843120346
 21
7.5700611892
  0
LINE
  5
51B
100
AcDbEntity
  8
0
100
AcDbLine
 62
7
  6
CONTINUOUS
 10
6.9002191097
 20
6.4179336417
 11
6.8843120346
 21
6.4338407168
  0
LWPOLYLINE
  5
51C
100
AcDbEntity
  8
0
100
AcDbPolyline
 62
7
  6
CONTINUOUS
 90
11
 70
0
 10
7.3331309322
 20
7.1906999631
 10
7.3343666659
 20
7.1626889056
 10
7.3370898493
 20
7.1376455957
 10
7.3404650148
 20
7.1150858186
 10
7.3441118054
 20
7.0944764854
 10
7.3478236632
 20
7.0754965236
 10
7.3514191311
 20
7.058190455
 10
7.35477604
 20
7.0425342172
 10
7.3578482424
 20
7.0282182302
 10
7.3605060247
 20
7.0149101314
 10
7.3619321592
 20
7.001950953
  0
LINE
  5
51D
100
AcDbEntity
  8
0
100
AcDbLine
 62
7
  6
CONTINUOUS
 10
7.3331309322
 20
6.4059148189
 11
7.3331309322
 21
6.8132019429
  0
LINE
  5
51E
100
AcDbEntity
  8
0
100
AcDbLine
 62
7
  6
CONTINUOUS
 10
7.3331309322
 20
7.1906999631
 11
7.3331309322
 21
7.5979870871
  0
LINE
  5
51F
100
AcDbEntity
  8
0
100
AcDbLine
 62
9
  6
CONTINUOUS
 10
7.3643521437
 20
6.3744199552
 11
7.3643521437
 21
7.6294819508
  0
LINE
  5
520
100
AcDbEntity
  8
DEFAULT_2
100
AcDbLine
 62
8
  6
HIDDEN
 10
7.4492726645
 20
7.630223041
 11
7.4492726645
 21
7.6318722129
  0
LWPOLYLINE
  5
521
100
AcDbEntity
  8
0
100
AcDbPolyline
 62
7
  6
CONTINUOUS
 90
11
 70
0
 10
7.3619321592
 20
7.001950953
 10
7.3605338767
 20
6.9891478641
 10
7.3579162165
 20
6.9760056352
 10
7.3548770638
 20
6.9618357176
 10
7.3515422266
 20
6.9462916316
 10
7.3479553935
 20
6.9290545239
 10
7.3442334662
 20
6.9100729501
 10
7.3405586559
 20
6.8893816451
 10
7.3371460771
 20
6.8666799511
 10
7.3343856408
 20
6.8414428372
 10
7.3331309322
 20
6.8132019429
  0
LINE
  5
522
100
AcDbEntity
  8
AXIS_COSMETIC_THREADS
100
AcDbLine
 62
7
  6
CENTER
 10
7.5083277826
 20
7.001950953
 11
7.5083277826
 21
6.8527383546
  0
LINE
  5
523
100
AcDbEntity
  8
AXIS_COSMETIC_THREADS
100
AcDbLine
 62
7
  6
CENTER
 10
7.5083277826
 20
7.001950953
 11
7.5083277826
 21
7.1511635514
  0
LINE
  5
524
100
AcDbEntity
  8
DEFAULT_2
100
AcDbLine
 62
8
  6
HIDDEN
 10
7.5673829007
 20
7.6312537734
 11
7.5673829007
 21
7.6318722129
  0
LINE
  5
525
100
AcDbEntity
  8
0
100
AcDbLine
 62
7
  6
CONTINUOUS
 10
7.6382490424
 20
6.3720296932
 11
7.6382490424
 21
7.6318722129
  0
LINE
  5
526
100
AcDbEntity
  8
AXIS_COSMETIC_THREADS
100
AcDbLine
 62
7
  6
CONTINUOUS
 10
7.6382490424
 20
6.3720296932
 11
7.6382490424
 21
7.6318722129
  0
LWPOLYLINE
  5
527
100
AcDbEntity
  8
0
100
AcDbPolyline
 62
9
  6
CONTINUOUS
 90
10
 70
0
 10
9.9100056551
 20
6.5780937672
 10
9.9071017356
 20
6.577763971
 10
9.904115769
 20
6.5767668375
 10
9.9011730508
 20
6.5750567025
 10
9.8983743713
 20
6.5726127043
 10
9.8958326929
 20
6.5694510003
 10
9.8936681621
 20
6.5656421371
 10
9.8919471438
 20
6.5611780579
 10
9.8907700907
 20
6.5560024219
 10
9.8903206157
 20
6.5500831288
  0
LWPOLYLINE
  5
528
100
AcDbEntity
  8
0
100
AcDbPolyline
 62
7
  6
CONTINUOUS
 90
10
 70
0
 10
9.9418191403
 20
6.5665662278
 10
9.9450478288
 20
6.5668942098
 10
9.9501291643
 20
6.5685317273
 10
9.9547116811
 20
6.5713522235
 10
9.9590054108
 20
6.5755027916
 10
9.9629617855
 20
6.5811304958
 10
9.9662706803
 20
6.5878664113
 10
9.9688683775
 20
6.5953481115
 10
9.9708499447
 20
6.6036407356
 10
9.9720513347
 20
6.6114139508
  0
LWPOLYLINE
  5
529
100
AcDbEntity
  8
0
100
AcDbPolyline
 62
9
  6
CONTINUOUS
 90
10
 70
0
 10
9.9416735003
 20
6.3946334026
 10
9.9457385209
 20
6.394741153
 10
9.9500030659
 20
6.3950639159
 10
9.9541545138
 20
6.3956042306
 10
9.9580321736
 20
6.3963426844
 10
9.961614218
 20
6.3972757633
 10
9.9648275935
 20
6.3983919481
 10
9.9676129147
 20
6.3996838215
 10
9.9699282546
 20
6.4011643806
 10
9.9716768095
 20
6.4028452157
  0
LINE
  5
52A
100
AcDbEntity
  8
0
100
AcDbLine
 62
7
  6
CONTINUOUS
 10
9.6618710897
 20
6.3720296932
 11
9.9416735003
 21
6.3744714918
  0
LINE
  5
52B
100
AcDbEntity
  8
0
100
AcDbLine
 62
9
  6
CONTINUOUS
 10
9.9099025858
 20
6.3943573595
 11
9.9413986487
 21
6.3946322215
  0
LINE
  5
52C
100
AcDbEntity
  8
0
100
AcDbLine
 62
9
  6
CONTINUOUS
 10
9.9413986487
 20
6.3946322215
 11
9.9416735003
 21
6.3946334026
  0
LINE
  5
52D
100
AcDbEntity
  8
0
100
AcDbLine
 62
7
  6
CONTINUOUS
 10
9.9364773889
 20
6.3720296932
 11
9.6864773889
 21
6.3720296932
  0
LINE
  5
52E
100
AcDbEntity
  8
AXIS_COSMETIC_THREADS
100
AcDbLine
 62
7
  6
CONTINUOUS
 10
9.6618710897
 20
6.3720296932
 11
7.6382490424
 21
6.3720296932
  0
LINE
  5
52F
100
AcDbEntity
  8
AXIS_COSMETIC_THREADS
100
AcDbLine
 62
7
  6
CONTINUOUS
 10
9.9358148032
 20
6.3971753625
 11
9.90202857
 21
6.3971753625
  0
LINE
  5
530
100
AcDbEntity
  8
0
100
AcDbLine
 62
7
  6
CONTINUOUS
 10
9.972234774
 20
6.4566753625
 11
9.9717740906
 21
6.4566753625
  0
LINE
  5
531
100
AcDbEntity
  8
0
100
AcDbLine
 62
9
  6
CONTINUOUS
 10
9.90202857
 20
6.47045489
 11
9.6618710897
 21
6.47045489
  0
LINE
  5
532
100
AcDbEntity
  8
AXIS_COSMETIC_THREADS
100
AcDbLine
 62
9
  6
CONTINUOUS
 10
9.6618710897
 20
6.47045489
 11
7.6382490424
 21
6.47045489
  0
LINE
  5
533
100
AcDbEntity
  8
0
100
AcDbLine
 62
9
  6
CONTINUOUS
 10
7.3331309322
 20
6.47045489
 11
7.6382490424
 21
6.47045489
  0
LINE
  5
534
100
AcDbEntity
  8
0
100
AcDbLine
 62
7
  6
CONTINUOUS
 10
9.9763832012
 20
6.4916753625
 11
9.9717740906
 21
6.4916753625
  0
LINE
  5
535
100
AcDbEntity
  8
0
100
AcDbLine
 62
7
  6
CONTINUOUS
 10
7.3643521437
 20
6.3744199552
 11
7.6382490424
 21
6.3720296932
  0
LINE
  5
536
100
AcDbEntity
  8
0
100
AcDbLine
 62
7
  6
CONTINUOUS
 10
7.3331309322
 20
6.4141556774
 11
6.9002191097
 21
6.4179336417
  0
LINE
  5
537
100
AcDbEntity
  8
0
100
AcDbLine
 62
7
  6
CONTINUOUS
 10
9.941501718
 20
6.5665580633
 11
9.9418187976
 21
6.5665627775
  0
LINE
  5
538
100
AcDbEntity
  8
0
100
AcDbLine
 62
9
  6
CONTINUOUS
 10
9.9416735003
 20
6.5783711883
 11
9.9415017181
 21
6.5783686292
  0
LINE
  5
539
100
AcDbEntity
  8
0
100
AcDbLine
 62
7
  6
CONTINUOUS
 10
9.9415017181
 20
6.5665580553
 11
9.9100056143
 21
6.566283193
  0
LINE
  5
53A
100
AcDbEntity
  8
0
100
AcDbLine
 62
9
  6
CONTINUOUS
 10
9.9415017181
 20
6.5783686292
 11
9.9100056551
 21
6.5780937672
  0
LINE
  5
53B
100
AcDbEntity
  8
0
100
AcDbLine
 62
7
  6
CONTINUOUS
 10
9.9717740906
 20
6.5216753625
 11
9.9763832012
 21
6.5216753625
  0
LINE
  5
53C
100
AcDbEntity
  8
0
100
AcDbLine
 62
9
  6
CONTINUOUS
 10
9.90202857
 20
6.5500831288
 11
9.8903206157
 21
6.5500831288
  0
LINE
  5
53D
100
AcDbEntity
  8
0
100
AcDbLine
 62
7
  6
CONTINUOUS
 10
9.9717740906
 20
6.5566753625
 11
9.972234774
 21
6.5566753625
  0
LINE
  5
53E
100
AcDbEntity
  8
0
100
AcDbLine
 62
7
  6
CONTINUOUS
 10
9.9728947117
 20
6.627935205
 11
10.1106899873
 21
6.627935205
  0
LINE
  5
53F
100
AcDbEntity
  8
AXIS
100
AcDbLine
 62
7
  6
CONTINUOUS
 10
10.172515145
 20
6.7041163073
 11
10.1731758533
 21
6.7041163073
  0
LINE
  5
540
100
AcDbEntity
  8
0
100
AcDbLine
 62
7
  6
CONTINUOUS
 10
9.9728947117
 20
6.7084799508
 11
10.091004948
 21
6.7084799508
  0
LINE
  5
541
100
AcDbEntity
  8
AXIS
100
AcDbLine
 62
7
  6
CONTINUOUS
 10
10.2288002236
 20
6.7686832365
 11
10.2632524873
 21
6.7686832365
  0
LINE
  5
542
100
AcDbEntity
  8
0
100
AcDbLine
 62
7
  6
CONTINUOUS
 10
10.5391619722
 20
6.7689353465
 11
10.5385792229
 21
6.7689353466
  0
LINE
  5
543
100
AcDbEntity
  8
0
100
AcDbLine
 62
7
  6
CONTINUOUS
 10
10.4992052072
 20
6.7689353466
 11
10.4997879564
 21
6.7689353465
  0
LINE
  5
544
100
AcDbEntity
  8
0
100
AcDbLine
 62
7
  6
CONTINUOUS
 10
10.5831309322
 20
6.7982107955
 11
10.622501011
 21
6.7982107955
  0
LINE
  5
545
100
AcDbEntity
  8
0
100
AcDbLine
 62
7
  6
CONTINUOUS
 10
10.210234477
 20
6.7251204435
 11
10.2104173379
 21
6.7251034312
  0
LINE
  5
546
100
AcDbEntity
  8
0
100
AcDbLine
 62
7
  6
CONTINUOUS
 10
9.9728947117
 20
6.9214062072
 11
10.091004948
 21
6.9214062072
  0
LINE
  5
547
100
AcDbEntity
  8
AXIS_COSMETIC_THREADS
100
AcDbLine
 62
7
  6
CENTER
 10
9.8114773889
 20
7.001950953
 11
8.810321641
 21
7.001950953
  0
LINE
  5
548
100
AcDbEntity
  8
AXIS_COSMETIC_THREADS
100
AcDbLine
 62
7
  6
CENTER
 10
7.5083277826
 20
7.001950953
 11
6.7142955821
 21
7.001950953
  0
LINE
  5
549
100
AcDbEntity
  8
AXIS_COSMETIC_THREADS
100
AcDbLine
 62
7
  6
CENTER
 10
7.5083277826
 20
7.001950953
 11
8.7794126989
 21
7.001950953
  0
LINE
  5
54A
100
AcDbEntity
  8
AXIS_COSMETIC_THREADS
100
AcDbLine
 62
7
  6
CENTER
 10
9.8114773889
 20
7.001950953
 11
10.8420192148
 21
7.001950953
  0
LINE
  5
54B
100
AcDbEntity
  8
0
100
AcDbLine
 62
7
  6
CONTINUOUS
 10
9.9728947117
 20
7.0824956988
 11
10.091004948
 21
7.0824956988
  0
LINE
  5
54C
100
AcDbEntity
  8
0
100
AcDbLine
 62
9
  6
CONTINUOUS
 10
9.9625935081
 20
6.4131858239
 11
9.9596203059
 21
6.4147704983
  0
LINE
  5
54D
100
AcDbEntity
  8
0
100
AcDbLine
 62
7
  6
CONTINUOUS
 10
10.1951517771
 20
7.293874466
 11
10.1953250333
 21
7.2938907839
  0
LINE
  5
54E
100
AcDbEntity
  8
0
100
AcDbLine
 62
7
  6
CONTINUOUS
 10
10.5831309322
 20
7.2056911105
 11
10.622501011
 21
7.2056911105
  0
LINE
  5
54F
100
AcDbEntity
  8
0
100
AcDbLine
 62
7
  6
CONTINUOUS
 10
10.4013529171
 20
7.2349665595
 11
10.4007701678
 21
7.2349665595
  0
LINE
  5
550
100
AcDbEntity
  8
0
100
AcDbLine
 62
7
  6
CONTINUOUS
 10
10.3613961521
 20
7.2349665595
 11
10.3619789013
 21
7.2349665595
  0
LINE
  5
551
100
AcDbEntity
  8
AXIS
100
AcDbLine
 62
7
  6
CONTINUOUS
 10
10.2288002236
 20
7.2352186695
 11
10.2435654795
 21
7.2352186695
  0
LINE
  5
552
100
AcDbEntity
  8
0
100
AcDbLine
 62
7
  6
CONTINUOUS
 10
10.5565571643
 20
7.2320096097
 11
10.5567442604
 21
7.2320778455
  0
LINE
  5
553
100
AcDbEntity
  8
0
100
AcDbLine
 62
7
  6
CONTINUOUS
 10
9.9728947117
 20
7.2954219552
 11
10.091004948
 21
7.2954219552
  0
LINE
  5
554
100
AcDbEntity
  8
0
100
AcDbLine
 62
7
  6
CONTINUOUS
 10
9.9728947117
 20
7.375966701
 11
10.1106899873
 21
7.375966701
  0
LINE
  5
555
100
AcDbEntity
  8
0
100
AcDbLine
 62
7
  6
CONTINUOUS
 10
10.5817063409
 20
7.2071157582
 11
10.5814966081
 21
7.2070392747
  0
LINE
  5
556
100
AcDbEntity
  8
0
100
AcDbLine
 62
7
  6
CONTINUOUS
 10
9.9763832012
 20
7.4822265436
 11
9.9728947117
 21
7.4822265436
  0
LINE
  5
557
100
AcDbEntity
  8
0
100
AcDbLine
 62
7
  6
CONTINUOUS
 10
9.9728947117
 20
7.5122265436
 11
9.9763832012
 21
7.5122265436
  0
LINE
  5
558
100
AcDbEntity
  8
0
100
AcDbLine
 62
9
  6
CONTINUOUS
 10
9.9728947117
 20
7.533447016
 11
9.6618710897
 21
7.533447016
  0
LINE
  5
559
100
AcDbEntity
  8
AXIS_COSMETIC_THREADS
100
AcDbLine
 62
9
  6
CONTINUOUS
 10
9.6618710897
 20
7.533447016
 11
7.6382490424
 21
7.533447016
  0
LINE
  5
55A
100
AcDbEntity
  8
0
100
AcDbLine
 62
9
  6
CONTINUOUS
 10
7.3331309322
 20
7.533447016
 11
7.6382490424
 21
7.533447016
  0
LINE
  5
55B
100
AcDbEntity
  8
0
100
AcDbLine
 62
7
  6
CONTINUOUS
 10
10.5692252588
 20
6.7843050623
 11
10.5690275324
 21
6.7843772338
  0
LINE
  5
55C
100
AcDbEntity
  8
0
100
AcDbLine
 62
7
  6
CONTINUOUS
 10
10.1725151452
 20
6.7041163073
 11
10.1722029389
 21
6.7043022468
  0
LINE
  5
55D
100
AcDbEntity
  8
0
100
AcDbLine
 62
7
  6
CONTINUOUS
 10
7.3331309322
 20
7.5897462286
 11
6.9002191097
 21
7.5859682644
  0
LINE
  5
55E
100
AcDbEntity
  8
0
100
AcDbLine
 62
7
  6
CONTINUOUS
 10
7.3643521437
 20
7.6294819508
 11
7.6382490424
 21
7.6318722129
  0
LINE
  5
55F
100
AcDbEntity
  8
0
100
AcDbLine
 62
7
  6
CONTINUOUS
 10
9.870532507
 20
7.6318722129
 11
9.7524222708
 21
7.6318722129
  0
LINE
  5
560
100
AcDbEntity
  8
AXIS_COSMETIC_THREADS
100
AcDbLine
 62
7
  6
CONTINUOUS
 10
9.6618710897
 20
7.6318722129
 11
7.6382490424
 21
7.6318722129
  0
LINE
  5
561
100
AcDbEntity
  8
0
100
AcDbLine
 62
7
  6
CONTINUOUS
 10
7.5673829007
 20
7.6318722129
 11
7.4492726645
 21
7.6318722129
  0
LINE
  5
562
100
AcDbEntity
  8
0
100
AcDbLine
 62
7
  6
CONTINUOUS
 10
9.9416735003
 20
7.6294304142
 11
9.6618710897
 21
7.6318722129
  0
LWPOLYLINE
  5
563
100
AcDbEntity
  8
0
100
AcDbPolyline
 62
9
  6
CONTINUOUS
 90
4
 70
0
 10
9.9716768095
 20
6.4028452157
 10
9.9695711207
 20
6.4066696622
 10
9.9665086773
 20
6.4101560212
 10
9.9625935081
 20
6.4131858239
  0
LINE
  5
564
100
AcDbEntity
  8
0
100
AcDbLine
 62
7
  6
CONTINUOUS
 10
9.6618710897
 20
6.3720296932
 11
9.6618710897
 21
7.6318722129
  0
LINE
  5
565
100
AcDbEntity
  8
AXIS_COSMETIC_THREADS
100
AcDbLine
 62
7
  6
CONTINUOUS
 10
9.6618710897
 20
6.3720296932
 11
9.6618710897
 21
7.6318722129
  0
LINE
  5
566
100
AcDbEntity
  8
DEFAULT_2
100
AcDbLine
 62
8
  6
HIDDEN
 10
9.6864773889
 20
6.3722444291
 11
9.6864773889
 21
6.3720296932
  0
LINE
  5
567
100
AcDbEntity
  8
0
100
AcDbLine
 62
7
  6
CONTINUOUS
 10
10.1951517771
 20
7.293874466
 11
10.1728454992
 21
7.2673098652
  0
LWPOLYLINE
  5
568
100
AcDbEntity
  8
0
100
AcDbPolyline
 62
7
  6
CONTINUOUS
 90
3
 70
0
 10
10.3220221363
 20
7.2349665595
 10
10.3223009108
 20
7.235218198
 10
10.3226048856
 20
7.2349665595
  0
LWPOLYLINE
  5
569
100
AcDbEntity
  8
0
100
AcDbPolyline
 62
7
  6
CONTINUOUS
 90
3
 70
0
 10
10.2826481206
 20
7.2349665595
 10
10.2829300944
 20
7.2352184071
 10
10.2832308698
 20
7.2349665595
  0
LWPOLYLINE
  5
56A
100
AcDbEntity
  8
0
100
AcDbPolyline
 62
7
  6
CONTINUOUS
 90
3
 70
0
 10
10.4795181993
 20
7.2349665595
 10
10.4798340786
 20
7.2352168861
 10
10.4801009486
 20
7.2349665595
  0
LWPOLYLINE
  5
56B
100
AcDbEntity
  8
0
100
AcDbPolyline
 62
7
  6
CONTINUOUS
 90
3
 70
0
 10
10.3417091442
 20
6.7689353466
 10
10.3420171424
 20
6.7686840572
 10
10.3422918934
 20
6.7689353465
  0
LWPOLYLINE
  5
56C
100
AcDbEntity
  8
0
100
AcDbPolyline
 62
7
  6
CONTINUOUS
 90
3
 70
0
 10
10.3023351284
 20
6.7689353466
 10
10.3026228056
 20
6.7686832771
 10
10.3029178777
 20
6.7689353465
  0
LWPOLYLINE
  5
56D
100
AcDbEntity
  8
0
100
AcDbPolyline
 62
7
  6
CONTINUOUS
 90
3
 70
0
 10
10.4204571757
 20
6.7689353466
 10
10.4207392809
 20
6.7686834917
 10
10.4210399249
 20
6.7689353465
  0
LINE
  5
56E
100
AcDbEntity
  8
0
100
AcDbLine
 62
7
  6
CONTINUOUS
 10
10.1697451054
 20
6.7072294802
 11
10.1722029389
 21
6.7043022468
  0
LINE
  5
56F
100
AcDbEntity
  8
0
100
AcDbLine
 62
7
  6
CONTINUOUS
 10
10.2002507518
 20
6.7370096153
 11
10.210234477
 21
6.7251204435
  0
LINE
  5
570
100
AcDbEntity
  8
DEFAULT_2
100
AcDbLine
 62
8
  6
HIDDEN
 10
9.7524222708
 20
7.6310819847
 11
9.7524222708
 21
7.6318722129
  0
LINE
  5
571
100
AcDbEntity
  8
AXIS_COSMETIC_THREADS
100
AcDbLine
 62
7
  6
CENTER
 10
9.8114773889
 20
7.001950953
 11
9.8114773889
 21
6.8527383546
  0
LINE
  5
572
100
AcDbEntity
  8
AXIS_COSMETIC_THREADS
100
AcDbLine
 62
7
  6
CENTER
 10
9.8114773889
 20
7.001950953
 11
9.8114773889
 21
7.1511635514
  0
LWPOLYLINE
  5
573
100
AcDbEntity
  8
0
100
AcDbPolyline
 62
7
  6
CONTINUOUS
 90
3
 70
0
 10
10.4401441835
 20
7.2349665595
 10
10.4404281549
 20
7.2352185068
 10
10.4407269328
 20
7.2349665595
  0
LINE
  5
574
100
AcDbEntity
  8
0
100
AcDbLine
 62
7
  6
CONTINUOUS
 10
10.1731758544
 20
6.7041163073
 11
10.1734880593
 21
6.7043022468
  0
LWPOLYLINE
  5
575
100
AcDbEntity
  8
0
100
AcDbPolyline
 62
7
  6
CONTINUOUS
 90
3
 70
0
 10
10.4598311914
 20
6.7689353466
 10
10.4601201061
 20
6.7686832545
 10
10.4604139407
 20
6.7689353465
  0
LWPOLYLINE
  5
576
100
AcDbEntity
  8
0
100
AcDbPolyline
 62
9
  6
CONTINUOUS
 90
3
 70
0
 10
9.9720513347
 20
6.6114139508
 10
9.9720201148
 20
6.6120078549
 10
9.9716768836
 20
6.6128055002
  0
LWPOLYLINE
  5
577
100
AcDbEntity
  8
0
100
AcDbPolyline
 62
9
  6
CONTINUOUS
 90
9
 70
0
 10
9.9416734962
 20
6.3946330809
 10
9.9417412289
 20
6.3918508855
 10
9.9417942547
 20
6.3885893428
 10
9.9418280092
 20
6.3851292107
 10
9.9418395876
 20
6.3817683421
 10
9.9418279945
 20
6.3787960455
 10
9.9417942291
 20
6.3764681809
 10
9.9417411985
 20
6.3749851349
 10
9.9416734696
 20
6.3744745698
  0
LWPOLYLINE
  5
578
100
AcDbEntity
  8
0
100
AcDbPolyline
 62
9
  6
CONTINUOUS
 90
9
 70
0
 10
9.9099025858
 20
6.3943573595
 10
9.909944896
 20
6.3915736168
 10
9.9099835626
 20
6.3883103846
 10
9.9100152558
 20
6.3848486813
 10
9.9100372463
 20
6.3814866169
 10
9.9100476402
 20
6.3785137207
 10
9.9100455425
 20
6.3761860085
 10
9.9100311339
 20
6.3747039348
 10
9.9100056551
 20
6.3741951307
  0
LWPOLYLINE
  5
579
100
AcDbEntity
  8
0
100
AcDbPolyline
 62
9
  6
CONTINUOUS
 90
9
 70
0
 10
9.9413986487
 20
6.3946322215
 10
9.9414409592
 20
6.3918484788
 10
9.941479626
 20
6.3885852462
 10
9.9415113193
 20
6.3851235423
 10
9.9415333097
 20
6.3817614774
 10
9.9415437036
 20
6.3787885813
 10
9.9415416058
 20
6.3764608695
 10
9.941527197
 20
6.3749787964
 10
9.9415017181
 20
6.3744699927
  0
LINE
  5
57A
100
AcDbEntity
  8
DEFAULT_2
100
AcDbLine
 62
8
  6
HIDDEN
 10
9.870532507
 20
7.6300512523
 11
9.870532507
 21
7.6318722129
  0
LINE
  5
57B
100
AcDbEntity
  8
0
100
AcDbLine
 62
9
  6
CONTINUOUS
 10
9.8903206157
 20
6.5500831288
 11
9.8903206157
 21
6.374023342
  0
LINE
  5
57C
100
AcDbEntity
  8
0
100
AcDbLine
 62
7
  6
CONTINUOUS
 10
9.90202857
 20
6.5500831288
 11
9.90202857
 21
6.3858339159
  0
LINE
  5
57D
100
AcDbEntity
  8
0
100
AcDbLine
 62
9
  6
CONTINUOUS
 10
9.9099025858
 20
6.3971753625
 11
9.9099025858
 21
6.3943573595
  0
LINE
  5
57E
100
AcDbEntity
  8
0
100
AcDbLine
 62
9
  6
CONTINUOUS
 10
9.9358148185
 20
6.5665084265
 11
9.9358148032
 21
6.3971753625
  0
LINE
  5
57F
100
AcDbEntity
  8
DEFAULT_2
100
AcDbLine
 62
8
  6
HIDDEN
 10
9.9364773889
 20
6.374426146
 11
9.9364773889
 21
6.3720296932
  0
LINE
  5
580
100
AcDbEntity
  8
0
100
AcDbLine
 62
9
  6
CONTINUOUS
 10
9.9413986487
 20
6.3980091526
 11
9.9413986487
 21
6.3946322215
  0
LINE
  5
581
100
AcDbEntity
  8
0
100
AcDbLine
 62
9
  6
CONTINUOUS
 10
9.9416735003
 20
7.6294304142
 11
9.9416735003
 21
6.5783711883
  0
LWPOLYLINE
  5
582
100
AcDbEntity
  8
0
100
AcDbPolyline
 62
7
  6
CONTINUOUS
 90
28
 70
0
 10
9.9020285634
 20
6.5500842851
 10
9.9020305937
 20
6.5504170847
 10
9.9020550558
 20
6.5512915835
 10
9.9021067492
 20
6.5521573012
 10
9.9021851379
 20
6.5530133107
 10
9.9022897087
 20
6.5538586565
 10
9.9024199588
 20
6.5546923275
 10
9.9025754004
 20
6.5555132101
 10
9.9027556255
 20
6.5563199468
 10
9.9029602024
 20
6.557111021
 10
9.9031886132
 20
6.5578848027
 10
9.903438615
 20
6.5586349395
 10
9.9037084632
 20
6.5593582352
 10
9.9039993096
 20
6.5600587978
 10
9.9043126038
 20
6.5607394653
 10
9.9046499156
 20
6.5614016731
 10
9.9050126629
 20
6.5620451234
 10
9.9054017912
 20
6.5626676375
 10
9.9058175547
 20
6.5632653257
 10
9.9062590882
 20
6.5638324452
 10
9.906723449
 20
6.5643611741
 10
9.9072053396
 20
6.5648420244
 10
9.9077024088
 20
6.5652691671
 10
9.9082246529
 20
6.5656445818
 10
9.9087670384
 20
6.5659524016
 10
9.9093547045
 20
6.5661825857
 10
9.9098972267
 20
6.5662796214
 10
9.9100056055
 20
6.566283345
  0
LINE
  5
583
100
AcDbEntity
  8
0
100
AcDbLine
 62
7
  6
CONTINUOUS
 10
10.2635438619
 20
6.7689353465
 11
10.2632525007
 21
6.7686832365
  0
LINE
  5
584
100
AcDbEntity
  8
0
100
AcDbLine
 62
7
  6
CONTINUOUS
 10
10.2438568541
 20
7.2349665595
 11
10.2435654797
 21
7.2352186695
  0
LWPOLYLINE
  5
585
100
AcDbEntity
  8
0
100
AcDbPolyline
 62
9
  6
CONTINUOUS
 90
4
 70
0
 10
9.9716768224
 20
6.4028452184
 10
9.9720200543
 20
6.4009890679
 10
9.9720200541
 20
6.399119894
 10
9.9716768219
 20
6.3972925426
  0
LINE
  5
586
100
AcDbEntity
  8
0
100
AcDbLine
 62
9
  6
CONTINUOUS
 10
9.9589848082
 20
6.575482876
 11
9.9589848024
 21
6.4127864843
  0
LINE
  5
587
100
AcDbEntity
  8
0
100
AcDbLine
 62
7
  6
CONTINUOUS
 10
9.9728947117
 20
6.5216753625
 11
9.9728947117
 21
6.4916753625
  0
LINE
  5
588
100
AcDbEntity
  8
0
100
AcDbLine
 62
7
  6
CONTINUOUS
 10
9.9728947117
 20
6.4629074238
 11
9.9728947117
 21
6.4059663555
  0
LINE
  5
589
100
AcDbEntity
  8
0
100
AcDbLine
 62
7
  6
CONTINUOUS
 10
9.9728947117
 20
7.5979355505
 11
9.9728947117
 21
6.5504433011
  0
LWPOLYLINE
  5
58A
100
AcDbEntity
  8
0
100
AcDbPolyline
 62
9
  6
CONTINUOUS
 90
5
 70
0
 10
9.9728947117
 20
6.6251727007
 10
9.9728205743
 20
6.622217155
 10
9.9725954532
 20
6.6191669401
 10
9.972215454
 20
6.6160277358
 10
9.9716768095
 20
6.6128055002
  0
LWPOLYLINE
  5
58B
100
AcDbEntity
  8
0
100
AcDbPolyline
 62
7
  6
CONTINUOUS
 90
4
 70
0
 10
9.9720512583
 20
6.6114138226
 10
9.9724965796
 20
6.6158230741
 10
9.9728278891
 20
6.6214021805
 10
9.9728947107
 20
6.62515854
  0
LWPOLYLINE
  5
58C
100
AcDbEntity
  8
0
100
AcDbPolyline
 62
9
  6
CONTINUOUS
 90
10
 70
0
 10
9.90202857
 20
6.3858339159
 10
9.9022084046
 20
6.3876123349
 10
9.9026791947
 20
6.389172199
 10
9.9033676273
 20
6.3905219333
 10
9.904233418
 20
6.3916777921
 10
9.9052498048
 20
6.392641673
 10
9.9063691418
 20
6.3933921437
 10
9.9075460048
 20
6.3939233289
 10
9.9087404589
 20
6.3942406976
 10
9.9099025858
 20
6.3943573595
  0
LWPOLYLINE
  5
58D
100
AcDbEntity
  8
0
100
AcDbPolyline
 62
9
  6
CONTINUOUS
 90
7
 70
0
 10
9.9418192151
 20
6.5665627862
 10
9.9418281094
 20
6.5666197797
 10
9.9418397009
 20
6.5674620623
 10
9.9418281067
 20
6.5692436862
 10
9.9417943258
 20
6.5718112432
 10
9.941741267
 20
6.5749436506
 10
9.9416735003
 20
6.5783711883
  0
LWPOLYLINE
  5
58E
100
AcDbEntity
  8
0
100
AcDbPolyline
 62
9
  6
CONTINUOUS
 90
7
 70
0
 10
9.9100056136
 20
6.566283193
 10
9.9100152106
 20
6.5663400768
 10
9.9100371983
 20
6.5671822514
 10
9.9100475961
 20
6.5689641063
 10
9.9100455083
 20
6.5715321984
 10
9.9100311148
 20
6.5746653633
 10
9.9100056552
 20
6.5780937672
  0
LWPOLYLINE
  5
58F
100
AcDbEntity
  8
0
100
AcDbPolyline
 62
9
  6
CONTINUOUS
 90
7
 70
0
 10
9.9415017181
 20
6.5665580553
 10
9.9415113187
 20
6.566614954
 10
9.9415333091
 20
6.5674571677
 10
9.941543703
 20
6.5692390391
 10
9.9415416054
 20
6.5718071194
 10
9.9415271968
 20
6.5749402543
 10
9.9415017181
 20
6.5783686292
  0
LWPOLYLINE
  5
590
100
AcDbEntity
  8
0
100
AcDbPolyline
 62
9
  6
CONTINUOUS
 90
10
 70
0
 10
9.9716768095
 20
6.6128055002
 10
9.9699282479
 20
6.6057581379
 10
9.9676129392
 20
6.599549314
 10
9.964827614
 20
6.5941316136
 10
9.9616142755
 20
6.5894505823
 10
9.9580315612
 20
6.5855385051
 10
9.9541536344
 20
6.5824431605
 10
9.950003322
 20
6.5801760511
 10
9.9457387091
 20
6.5788214204
 10
9.9416735003
 20
6.5783711883
  0
LWPOLYLINE
  5
591
100
AcDbEntity
  8
0
100
AcDbPolyline
 62
7
  6
CONTINUOUS
 90
5
 70
0
 10
10.2009306396
 20
7.1144799301
 10
10.210007387
 20
7.133962873
 10
10.2164090747
 20
7.1528440061
 10
10.2202396531
 20
7.1714180828
 10
10.2215168262
 20
7.1898631881
  0
LINE
  5
592
100
AcDbEntity
  8
0
100
AcDbLine
 62
7
  6
CONTINUOUS
 10
10.2826481206
 20
7.2349665595
 11
10.2632524875
 21
7.2014147642
  0
LINE
  5
593
100
AcDbEntity
  8
0
100
AcDbLine
 62
7
  6
CONTINUOUS
 10
10.3220221363
 20
7.2349665595
 11
10.3026265032
 21
7.2014147642
  0
LINE
  5
594
100
AcDbEntity
  8
0
100
AcDbLine
 62
7
  6
CONTINUOUS
 10
10.3613961521
 20
7.2349665595
 11
10.342000519
 21
7.2014147642
  0
LINE
  5
595
100
AcDbEntity
  8
0
100
AcDbLine
 62
7
  6
CONTINUOUS
 10
10.4007701678
 20
7.2349665595
 11
10.3813745347
 21
7.2014147642
  0
LINE
  5
596
100
AcDbEntity
  8
0
100
AcDbLine
 62
7
  6
CONTINUOUS
 10
10.1734880593
 20
6.7043022468
 11
10.2006014047
 21
6.7365920408
  0
LINE
  5
597
100
AcDbEntity
  8
0
100
AcDbLine
 62
7
  6
CONTINUOUS
 10
10.1106895965
 20
6.6279348142
 11
10.1697451054
 21
6.6869903231
  0
LINE
  5
598
100
AcDbEntity
  8
0
100
AcDbLine
 62
7
  6
CONTINUOUS
 10
10.2288002608
 20
6.7434863579
 11
10.2104169741
 21
6.7251030665
  0
LWPOLYLINE
  5
599
100
AcDbEntity
  8
0
100
AcDbPolyline
 62
7
  6
CONTINUOUS
 90
3
 70
0
 10
10.3816659092
 20
6.7689353465
 10
10.3813652652
 20
6.7686834917
 10
10.3810831599
 20
6.7689353466
  0
LWPOLYLINE
  5
59A
100
AcDbEntity
  8
0
100
AcDbPolyline
 62
7
  6
CONTINUOUS
 90
3
 70
0
 10
10.5194749643
 20
7.2349665595
 10
10.5191765106
 20
7.2352185207
 10
10.518892215
 20
7.2349665595
  0
LINE
  5
59B
100
AcDbEntity
  8
0
100
AcDbLine
 62
7
  6
CONTINUOUS
 10
10.1106895965
 20
7.3759670919
 11
10.1697451054
 21
7.3169115829
  0
LINE
  5
59C
100
AcDbEntity
  8
0
100
AcDbLine
 62
7
  6
CONTINUOUS
 10
10.2288002608
 20
7.2604155481
 11
10.1953248595
 21
7.2938909579
  0
LINE
  5
59D
100
AcDbEntity
  8
0
100
AcDbLine
 62
7
  6
CONTINUOUS
 10
10.173196152
 20
7.2668922907
 11
10.1697451054
 21
7.2710019661
  0
LINE
  5
59E
100
AcDbEntity
  8
0
100
AcDbLine
 62
7
  6
CONTINUOUS
 10
10.2825983267
 20
6.8030772296
 11
10.2829394954
 21
6.8024871419
  0
LINE
  5
59F
100
AcDbEntity
  8
0
100
AcDbLine
 62
7
  6
CONTINUOUS
 10
10.2829394954
 20
6.8024871419
 11
10.3023351284
 21
6.7689353466
  0
LINE
  5
5A0
100
AcDbEntity
  8
0
100
AcDbLine
 62
7
  6
CONTINUOUS
 10
10.3219723425
 20
6.8030772296
 11
10.3223135111
 21
6.8024871419
  0
LINE
  5
5A1
100
AcDbEntity
  8
0
100
AcDbLine
 62
7
  6
CONTINUOUS
 10
10.3223135111
 20
6.8024871419
 11
10.3417091442
 21
6.7689353466
  0
LINE
  5
5A2
100
AcDbEntity
  8
0
100
AcDbLine
 62
7
  6
CONTINUOUS
 10
10.3613463582
 20
6.8030772296
 11
10.3616875269
 21
6.8024871419
  0
LINE
  5
5A3
100
AcDbEntity
  8
0
100
AcDbLine
 62
7
  6
CONTINUOUS
 10
10.3616875269
 20
6.8024871419
 11
10.3810831599
 21
6.7689353466
  0
LINE
  5
5A4
100
AcDbEntity
  8
0
100
AcDbLine
 62
7
  6
CONTINUOUS
 10
10.400720374
 20
6.8030772296
 11
10.4010615426
 21
6.8024871419
  0
LINE
  5
5A5
100
AcDbEntity
  8
0
100
AcDbLine
 62
7
  6
CONTINUOUS
 10
10.4010615426
 20
6.8024871419
 11
10.4204571757
 21
6.7689353466
  0
LWPOLYLINE
  5
5A6
100
AcDbEntity
  8
0
100
AcDbPolyline
 62
7
  6
CONTINUOUS
 90
4
 70
0
 10
10.1722029389
 20
6.7043022468
 10
10.1714196983
 20
6.7064027492
 10
10.1701211388
 20
6.7149837097
 10
10.1697451054
 20
6.7192605201
  0
LWPOLYLINE
  5
5A7
100
AcDbEntity
  8
0
100
AcDbPolyline
 62
7
  6
CONTINUOUS
 90
7
 70
0
 10
10.091004948
 20
6.9214062072
 10
10.1019788741
 20
6.8852570388
 10
10.1085150426
 20
6.8499251194
 10
10.1106899873
 20
6.8149368171
 10
10.1085136889
 20
6.7799501222
 10
10.1019777228
 20
6.7446244196
 10
10.091004948
 20
6.7084799508
  0
LINE
  5
5A8
100
AcDbEntity
  8
0
100
AcDbLine
 62
7
  6
CONTINUOUS
 10
10.1697451054
 20
6.726775091
 11
10.1707818418
 21
6.7149837587
  0
LWPOLYLINE
  5
5A9
100
AcDbEntity
  8
0
100
AcDbPolyline
 62
7
  6
CONTINUOUS
 90
15
 70
0
 10
10.2009306396
 20
7.1144799301
 10
10.2016364371
 20
7.0745439792
 10
10.2023405554
 20
7.0333429258
 10
10.2030450417
 20
6.9916513628
 10
10.2037496875
 20
6.950377419
 10
10.2044550572
 20
6.9103735393
 10
10.205160061
 20
6.8725546564
 10
10.2058674783
 20
6.8375874211
 10
10.2065831547
 20
6.8060063584
 10
10.2073015389
 20
6.7788249442
 10
10.2080141519
 20
6.7569087458
 10
10.2087236823
 20
6.7405344167
 10
10.2094380604
 20
6.7298723177
 10
10.2101513406
 20
6.725260961
 10
10.210234477
 20
6.7251204435
  0
LINE
  5
5AA
100
AcDbEntity
  8
0
100
AcDbLine
 62
7
  6
CONTINUOUS
 10
10.091004948
 20
7.375966701
 11
10.091004948
 21
7.2954219552
  0
LINE
  5
5AB
100
AcDbEntity
  8
0
100
AcDbLine
 62
7
  6
CONTINUOUS
 10
10.091004948
 20
7.0824956988
 11
10.091004948
 21
6.9214062072
  0
LINE
  5
5AC
100
AcDbEntity
  8
0
100
AcDbLine
 62
7
  6
CONTINUOUS
 10
10.091004948
 20
6.7084799508
 11
10.091004948
 21
6.627935205
  0
LINE
  5
5AD
100
AcDbEntity
  8
0
100
AcDbLine
 62
7
  6
CONTINUOUS
 10
10.1697451054
 20
7.3169115829
 11
10.1697451054
 21
6.6869903231
  0
LINE
  5
5AE
100
AcDbEntity
  8
0
100
AcDbLine
 62
7
  6
CONTINUOUS
 10
10.4401441835
 20
7.2349665595
 11
10.4207485505
 21
7.2014147642
  0
LINE
  5
5AF
100
AcDbEntity
  8
0
100
AcDbLine
 62
7
  6
CONTINUOUS
 10
10.4795181993
 20
7.2349665595
 11
10.4601225662
 21
7.2014147642
  0
LINE
  5
5B0
100
AcDbEntity
  8
0
100
AcDbLine
 62
7
  6
CONTINUOUS
 10
10.518892215
 20
7.2349665595
 11
10.499496582
 21
7.2014147642
  0
LINE
  5
5B1
100
AcDbEntity
  8
0
100
AcDbLine
 62
7
  6
CONTINUOUS
 10
10.2635438619
 20
6.7689353465
 11
10.2829394954
 21
6.8024871419
  0
LINE
  5
5B2
100
AcDbEntity
  8
0
100
AcDbLine
 62
7
  6
CONTINUOUS
 10
10.5565571643
 20
7.2320096097
 11
10.5388705977
 21
7.2014147642
  0
LINE
  5
5B3
100
AcDbEntity
  8
0
100
AcDbLine
 62
7
  6
CONTINUOUS
 10
10.3029178777
 20
6.7689353465
 11
10.3223135111
 21
6.8024871419
  0
LWPOLYLINE
  5
5B4
100
AcDbEntity
  8
0
100
AcDbPolyline
 62
9
  6
CONTINUOUS
 90
4
 70
0
 10
9.9716768095
 20
6.4028452157
 10
9.9723594967
 20
6.4038418883
 10
9.9727624985
 20
6.4048855838
 10
9.9728947117
 20
6.4059663555
  0
LINE
  5
5B5
100
AcDbEntity
  8
0
100
AcDbLine
 62
7
  6
CONTINUOUS
 10
10.5831309322
 20
6.7982107396
 11
10.5692253153
 21
6.7843051188
  0
LINE
  5
5B6
100
AcDbEntity
  8
0
100
AcDbLine
 62
7
  6
CONTINUOUS
 10
10.5831309322
 20
7.2056911665
 11
10.5817063769
 21
7.2071157221
  0
LINE
  5
5B7
100
AcDbEntity
  8
0
100
AcDbLine
 62
7
  6
CONTINUOUS
 10
10.5653251294
 20
7.2234969741
 11
10.5567442537
 21
7.2320778522
  0
LINE
  5
5B8
100
AcDbEntity
  8
0
100
AcDbLine
 62
7
  6
CONTINUOUS
 10
10.4400943897
 20
6.8030772296
 11
10.4404355584
 21
6.8024871419
  0
LINE
  5
5B9
100
AcDbEntity
  8
0
100
AcDbLine
 62
7
  6
CONTINUOUS
 10
10.4404355584
 20
6.8024871419
 11
10.4598311914
 21
6.7689353466
  0
LINE
  5
5BA
100
AcDbEntity
  8
0
100
AcDbLine
 62
7
  6
CONTINUOUS
 10
10.4794684055
 20
6.8030772296
 11
10.4798095741
 21
6.8024871419
  0
LINE
  5
5BB
100
AcDbEntity
  8
0
100
AcDbLine
 62
7
  6
CONTINUOUS
 10
10.4798095741
 20
6.8024871419
 11
10.4992052072
 21
6.7689353466
  0
LINE
  5
5BC
100
AcDbEntity
  8
0
100
AcDbLine
 62
7
  6
CONTINUOUS
 10
10.2635936558
 20
7.2008246764
 11
10.2632524875
 21
7.2014147642
  0
LINE
  5
5BD
100
AcDbEntity
  8
0
100
AcDbLine
 62
7
  6
CONTINUOUS
 10
10.2632524875
 20
7.2014147642
 11
10.2438568541
 21
7.2349665595
  0
LINE
  5
5BE
100
AcDbEntity
  8
0
100
AcDbLine
 62
7
  6
CONTINUOUS
 10
10.5188424212
 20
6.8030772296
 11
10.5191835899
 21
6.8024871419
  0
LINE
  5
5BF
100
AcDbEntity
  8
0
100
AcDbLine
 62
7
  6
CONTINUOUS
 10
10.5191835899
 20
6.8024871419
 11
10.5385792229
 21
6.7689353466
  0
LINE
  5
5C0
100
AcDbEntity
  8
0
100
AcDbLine
 62
7
  6
CONTINUOUS
 10
10.3029676716
 20
7.2008246764
 11
10.3026265032
 21
7.2014147642
  0
LINE
  5
5C1
100
AcDbEntity
  8
0
100
AcDbLine
 62
7
  6
CONTINUOUS
 10
10.3026265032
 20
7.2014147642
 11
10.2832308698
 21
7.2349665595
  0
LINE
  5
5C2
100
AcDbEntity
  8
0
100
AcDbLine
 62
7
  6
CONTINUOUS
 10
10.558216437
 20
6.8030772296
 11
10.5585576056
 21
6.8024871419
  0
LINE
  5
5C3
100
AcDbEntity
  8
0
100
AcDbLine
 62
7
  6
CONTINUOUS
 10
10.5585576056
 20
6.8024871419
 11
10.5690275324
 21
6.7843772338
  0
LWPOLYLINE
  5
5C4
100
AcDbEntity
  8
0
100
AcDbPolyline
 62
7
  6
CONTINUOUS
 90
13
 70
0
 10
10.2009306396
 20
7.1144799301
 10
10.1925520263
 20
7.1338222352
 10
10.1862093943
 20
7.1531405718
 10
10.1822479233
 20
7.1712608126
 10
10.180427688
 20
7.1872955861
 10
10.180162605
 20
7.2013346835
 10
10.1809566269
 20
7.2136837306
 10
10.1824703593
 20
7.2247241896
 10
10.1845065942
 20
7.2348298043
 10
10.1869831034
 20
7.2443690781
 10
10.1899084046
 20
7.2536986922
 10
10.1932955429
 20
7.262985905
 10
10.1971135343
 20
7.2722214842
  0
LWPOLYLINE
  5
5C5
100
AcDbEntity
  8
0
100
AcDbPolyline
 62
7
  6
CONTINUOUS
 90
21
 70
0
 10
10.173196152
 20
7.2668922907
 10
10.1740826172
 20
7.2645059437
 10
10.1754549628
 20
7.2556197251
 10
10.1768273083
 20
7.2406253591
 10
10.1781996539
 20
7.2198838982
 10
10.1795719994
 20
7.1938947808
 10
10.1809443449
 20
7.1632838047
 10
10.1823166905
 20
7.1287880586
 10
10.183689036
 20
7.0912381732
 10
10.1850613816
 20
7.0515383207
 10
10.1864337271
 20
7.0106444428
 10
10.1878060727
 20
6.9695412324
 10
10.1891784182
 20
6.929218423
 10
10.1905507637
 20
6.8906469565
 10
10.1919231093
 20
6.8547556041
 10
10.1932954548
 20
6.8224086016
 10
10.1946678004
 20
6.7943848399
 10
10.1960401459
 20
6.7713591094
 10
10.1974124915
 20
6.7538858518
 10
10.198784837
 20
6.7423858098
 10
10.2002507518
 20
6.7370096153
  0
LWPOLYLINE
  5
5C6
100
AcDbEntity
  8
0
100
AcDbPolyline
 62
7
  6
CONTINUOUS
 90
10
 70
0
 10
10.1697451054
 20
7.2382960446
 10
10.170061856
 20
7.2374218598
 10
10.1731909811
 20
7.2271995034
 10
10.1759045817
 20
7.2160501553
 10
10.178049605
 20
7.2035507894
 10
10.1793102159
 20
7.189255029
 10
10.1791642763
 20
7.1727811501
 10
10.1769195502
 20
7.1539739777
 10
10.1721346877
 20
7.1338102439
 10
10.1697451054
 20
7.1270152021
  0
LWPOLYLINE
  5
5C7
100
AcDbEntity
  8
0
100
AcDbPolyline
 62
7
  6
CONTINUOUS
 90
11
 70
0
 10
10.2632525007
 20
6.7686832365
 10
10.262268955
 20
6.7715503877
 10
10.2612834709
 20
6.7801038021
 10
10.2603043584
 20
6.7940247774
 10
10.259322521
 20
6.8130708566
 10
10.2583287514
 20
6.8370579966
 10
10.2573353367
 20
6.8651725597
 10
10.2563545887
 20
6.8962966572
 10
10.2553724764
 20
6.9300516551
 10
10.2543782098
 20
6.9660159956
 10
10.2524019427
 20
7.0392760511
  0
LWPOLYLINE
  5
5C8
100
AcDbEntity
  8
0
100
AcDbPolyline
 62
7
  6
CONTINUOUS
 90
7
 70
0
 10
10.091004948
 20
7.2954219552
 10
10.1019788741
 20
7.2592727868
 10
10.1085150426
 20
7.2239408675
 10
10.1106899873
 20
7.1889525652
 10
10.1085136889
 20
7.1539658702
 10
10.1019777228
 20
7.1186401676
 10
10.091004948
 20
7.0824956988
  0
LWPOLYLINE
  5
5C9
100
AcDbEntity
  8
0
100
AcDbPolyline
 62
7
  6
CONTINUOUS
 90
3
 70
0
 10
10.1707818418
 20
6.7149837587
 10
10.1720804173
 20
6.706402705
 10
10.1731758544
 20
6.7041163073
  0
LWPOLYLINE
  5
5CA
100
AcDbEntity
  8
0
100
AcDbPolyline
 62
7
  6
CONTINUOUS
 90
5
 70
0
 10
10.2215168262
 20
7.1898631881
 10
10.2200015994
 20
7.2099583769
 10
10.2154621536
 20
7.230203581
 10
10.2078860828
 20
7.2508159795
 10
10.1971135343
 20
7.2722214842
  0
LWPOLYLINE
  5
5CB
100
AcDbEntity
  8
0
100
AcDbPolyline
 62
7
  6
CONTINUOUS
 90
6
 70
0
 10
10.2484872314
 20
7.1668961372
 10
10.2475040592
 20
7.1906427185
 10
10.2465089684
 20
7.209955364
 10
10.2455144867
 20
7.2240271712
 10
10.2445325165
 20
7.2324466957
 10
10.2438568541
 20
7.2349665595
  0
LWPOLYLINE
  5
5CC
100
AcDbEntity
  8
0
100
AcDbPolyline
 62
7
  6
CONTINUOUS
 90
5
 70
0
 10
10.2878612472
 20
7.1668961372
 10
10.2888345739
 20
7.1393940407
 10
10.2898126268
 20
7.1084263665
 10
10.2907970234
 20
7.0746459383
 10
10.2917759584
 20
7.0392760511
  0
LWPOLYLINE
  5
5CD
100
AcDbEntity
  8
0
100
AcDbPolyline
 62
7
  6
CONTINUOUS
 90
5
 70
0
 10
10.3272352629
 20
7.1668961372
 10
10.3282174593
 20
7.1391271371
 10
10.3292066657
 20
7.1077626519
 10
10.3301906371
 20
7.073952396
 10
10.3311655812
 20
7.0387024639
  0
LWPOLYLINE
  5
5CE
100
AcDbEntity
  8
0
100
AcDbPolyline
 62
7
  6
CONTINUOUS
 90
9
 70
0
 10
10.3135790949
 20
6.9668848237
 10
10.3146289637
 20
6.9346827479
 10
10.3156788325
 20
6.9043643392
 10
10.3167287012
 20
6.8767785838
 10
10.31777857
 20
6.8526979474
 10
10.3188284388
 20
6.8327967442
 10
10.3198783075
 20
6.8176322543
 10
10.3209281763
 20
6.807629119
 10
10.3219723425
 20
6.8030772296
  0
LWPOLYLINE
  5
5CF
100
AcDbEntity
  8
0
100
AcDbPolyline
 62
7
  6
CONTINUOUS
 90
5
 70
0
 10
10.2524019427
 20
7.0392760511
 10
10.2514230077
 20
7.0746459383
 10
10.250438611
 20
7.1084263665
 10
10.2494605582
 20
7.1393940407
 10
10.2484872314
 20
7.1668961372
  0
LWPOLYLINE
  5
5D0
100
AcDbEntity
  8
0
100
AcDbPolyline
 62
7
  6
CONTINUOUS
 90
11
 70
0
 10
10.2917759584
 20
7.0392760511
 10
10.2937522255
 20
6.9660159956
 10
10.2947464922
 20
6.9300516551
 10
10.2957286045
 20
6.8962966572
 10
10.2967093525
 20
6.8651725597
 10
10.2977027672
 20
6.8370579966
 10
10.2986965368
 20
6.8130708566
 10
10.2996783741
 20
6.7940247774
 10
10.3006574867
 20
6.7801038021
 10
10.3016429707
 20
6.7715503877
 10
10.3023351284
 20
6.7689353466
  0
LWPOLYLINE
  5
5D1
100
AcDbEntity
  8
0
100
AcDbPolyline
 62
7
  6
CONTINUOUS
 90
11
 70
0
 10
10.3311655812
 20
7.0387024639
 10
10.3331468382
 20
6.9652586399
 10
10.3341432119
 20
6.9292481414
 10
10.3351270754
 20
6.8954858679
 10
10.3361058396
 20
6.8644958487
 10
10.3370856467
 20
6.8368247801
 10
10.3380624438
 20
6.8132481424
 10
10.3390399594
 20
6.7942349293
 10
10.3400240331
 20
6.780189892
 10
10.3410205001
 20
6.7715299803
 10
10.3417091442
 20
6.7689353466
  0
LINE
  5
5D2
100
AcDbEntity
  8
0
100
AcDbLine
 62
7
  6
CONTINUOUS
 10
10.2288002236
 20
7.2604139116
 11
10.2288002236
 21
6.7434879944
  0
LINE
  5
5D3
100
AcDbEntity
  8
0
100
AcDbLine
 62
7
  6
CONTINUOUS
 10
10.3422918934
 20
6.7689353465
 11
10.3616875269
 21
6.8024871419
  0
LINE
  5
5D4
100
AcDbEntity
  8
0
100
AcDbLine
 62
7
  6
CONTINUOUS
 10
10.3816659092
 20
6.7689353465
 11
10.4010615426
 21
6.8024871419
  0
LINE
  5
5D5
100
AcDbEntity
  8
0
100
AcDbLine
 62
7
  6
CONTINUOUS
 10
10.4210399249
 20
6.7689353465
 11
10.4404355584
 21
6.8024871419
  0
LINE
  5
5D6
100
AcDbEntity
  8
0
100
AcDbLine
 62
7
  6
CONTINUOUS
 10
10.4604139407
 20
6.7689353465
 11
10.4798095741
 21
6.8024871419
  0
LINE
  5
5D7
100
AcDbEntity
  8
0
100
AcDbLine
 62
7
  6
CONTINUOUS
 10
10.5814966081
 20
7.2070392747
 11
10.5782446179
 21
7.2014147564
  0
LINE
  5
5D8
100
AcDbEntity
  8
0
100
AcDbLine
 62
7
  6
CONTINUOUS
 10
10.5660533394
 20
7.2225024886
 11
10.5653270303
 21
7.2234950715
  0
LINE
  5
5D9
100
AcDbEntity
  8
0
100
AcDbLine
 62
7
  6
CONTINUOUS
 10
10.3423416873
 20
7.2008246764
 11
10.342000519
 21
7.2014147642
  0
LINE
  5
5DA
100
AcDbEntity
  8
0
100
AcDbLine
 62
7
  6
CONTINUOUS
 10
10.342000519
 20
7.2014147642
 11
10.3226048856
 21
7.2349665595
  0
LINE
  5
5DB
100
AcDbEntity
  8
0
100
AcDbLine
 62
7
  6
CONTINUOUS
 10
10.3817157031
 20
7.2008246764
 11
10.3813745347
 21
7.2014147642
  0
LINE
  5
5DC
100
AcDbEntity
  8
0
100
AcDbLine
 62
7
  6
CONTINUOUS
 10
10.3813745347
 20
7.2014147642
 11
10.3619789013
 21
7.2349665595
  0
LINE
  5
5DD
100
AcDbEntity
  8
0
100
AcDbLine
 62
7
  6
CONTINUOUS
 10
10.4210897188
 20
7.2008246764
 11
10.4207485505
 21
7.2014147642
  0
LINE
  5
5DE
100
AcDbEntity
  8
0
100
AcDbLine
 62
7
  6
CONTINUOUS
 10
10.4207485505
 20
7.2014147642
 11
10.4013529171
 21
7.2349665595
  0
LINE
  5
5DF
100
AcDbEntity
  8
0
100
AcDbLine
 62
7
  6
CONTINUOUS
 10
10.4604637346
 20
7.2008246764
 11
10.4601225662
 21
7.2014147642
  0
LINE
  5
5E0
100
AcDbEntity
  8
0
100
AcDbLine
 62
7
  6
CONTINUOUS
 10
10.4601225662
 20
7.2014147642
 11
10.4407269328
 21
7.2349665595
  0
LWPOLYLINE
  5
5E1
100
AcDbEntity
  8
0
100
AcDbPolyline
 62
7
  6
CONTINUOUS
 90
11
 70
0
 10
10.3029676716
 20
7.2008246764
 10
10.3030804073
 20
7.2005975316
 10
10.304130276
 20
7.1954127284
 10
10.3051801448
 20
7.1848105432
 10
10.3062300136
 20
7.1690878618
 10
10.3072798823
 20
7.1486849562
 10
10.3083297511
 20
7.1241731555
 10
10.3093796199
 20
7.0962388472
 10
10.3104294886
 20
7.0656642575
 10
10.3114793574
 20
7.0333055463
 10
10.3135790949
 20
6.9668848237
  0
LWPOLYLINE
  5
5E2
100
AcDbEntity
  8
0
100
AcDbPolyline
 62
7
  6
CONTINUOUS
 90
20
 70
0
 10
10.3423416873
 20
7.2008246764
 10
10.3429754204
 20
7.1987144281
 10
10.3440252892
 20
7.190813499
 10
10.3450751579
 20
7.1776239769
 10
10.3461250267
 20
7.1595151995
 10
10.3471748955
 20
7.1369942547
 10
10.3482247642
 20
7.1106917817
 10
10.349274633
 20
7.0813443112
 10
10.3503245018
 20
7.0497736411
 10
10.3513743705
 20
7.0168638239
 10
10.3524242393
 20
6.9835364114
 10
10.3534741081
 20
6.9507246492
 10
10.3545239768
 20
6.9193473432
 10
10.3555738456
 20
6.8902831315
 10
10.3566237144
 20
6.8643458798
 10
10.3576735831
 20
6.842261892
 10
10.3587234519
 20
6.8246495713
 10
10.3597733207
 20
6.8120021038
 10
10.3608231894
 20
6.8046736482
 10
10.3613463582
 20
6.8030772296
  0
LWPOLYLINE
  5
5E3
100
AcDbEntity
  8
0
100
AcDbPolyline
 62
7
  6
CONTINUOUS
 90
20
 70
0
 10
10.2635936558
 20
7.2008246764
 10
10.2642352629
 20
7.1986754966
 10
10.2652851317
 20
7.1907338895
 10
10.2663350005
 20
7.1775059188
 10
10.2673848692
 20
7.1593619986
 10
10.268434738
 20
7.136810201
 10
10.2694846068
 20
7.1104820292
 10
10.2705344755
 20
7.0811147334
 10
10.2715843443
 20
7.0495306667
 10
10.2726342131
 20
7.0166142568
 10
10.2736840818
 20
6.9832872401
 10
10.2747339506
 20
6.9504828509
 10
10.2757838194
 20
6.919119689
 10
10.2768336881
 20
6.8900759962
 10
10.2778835569
 20
6.8641650637
 10
10.2789334257
 20
6.8421124583
 10
10.2799832944
 20
6.8245357045
 10
10.2810331632
 20
6.8119269925
 10
10.282083032
 20
6.8046393957
 10
10.2825983267
 20
6.8030772296
  0
LWPOLYLINE
  5
5E4
100
AcDbEntity
  8
0
100
AcDbPolyline
 62
7
  6
CONTINUOUS
 90
6
 70
0
 10
10.2832308698
 20
7.2349665595
 10
10.2839065322
 20
7.2324466957
 10
10.2848885025
 20
7.2240271712
 10
10.2858829842
 20
7.209955364
 10
10.2868780749
 20
7.1906427185
 10
10.2878612472
 20
7.1668961372
  0
LWPOLYLINE
  5
5E5
100
AcDbEntity
  8
0
100
AcDbPolyline
 62
7
  6
CONTINUOUS
 90
6
 70
0
 10
10.3226048856
 20
7.2349665595
 10
10.3232843186
 20
7.2324250802
 10
10.3242645945
 20
7.2240035067
 10
10.3252577059
 20
7.2099434671
 10
10.3262520993
 20
7.1906425305
 10
10.3272352629
 20
7.1668961372
  0
LWPOLYLINE
  5
5E6
100
AcDbEntity
  8
0
100
AcDbPolyline
 62
7
  6
CONTINUOUS
 90
10
 70
0
 10
10.3810831599
 20
6.7689353466
 10
10.3803903447
 20
6.7715542147
 10
10.3794108026
 20
6.7800430849
 10
10.3784331631
 20
6.7939108764
 10
10.3774505664
 20
6.8129399187
 10
10.3764555891
 20
6.8369319136
 10
10.3754605502
 20
6.8650771046
 10
10.3744777922
 20
6.8962582861
 10
10.373503947
 20
6.9297180395
 10
10.3725193529
 20
6.9653138211
  0
LWPOLYLINE
  5
5E7
100
AcDbEntity
  8
0
100
AcDbPolyline
 62
7
  6
CONTINUOUS
 90
4
 70
0
 10
10.1953250333
 20
7.2938907839
 10
10.1958367774
 20
7.2917259727
 10
10.1964741878
 20
7.2844590477
 10
10.1971135343
 20
7.2722214842
  0
LWPOLYLINE
  5
5E8
100
AcDbEntity
  8
0
100
AcDbPolyline
 62
7
  6
CONTINUOUS
 90
6
 70
0
 10
10.4059832944
 20
7.1668961372
 10
10.4050470455
 20
7.1896104991
 10
10.4040994954
 20
7.2083401884
 10
10.4031514565
 20
7.222366017
 10
10.4022143425
 20
7.2312827357
 10
10.4013529171
 20
7.2349665595
  0
LWPOLYLINE
  5
5E9
100
AcDbEntity
  8
0
100
AcDbPolyline
 62
7
  6
CONTINUOUS
 90
6
 70
0
 10
10.4059832944
 20
7.1668961372
 10
10.4069606934
 20
7.139271533
 10
10.4079506639
 20
7.1078964323
 10
10.4089422414
 20
7.0738258836
 10
10.4099236588
 20
7.0383331293
 10
10.4118933686
 20
6.9653138211
  0
LWPOLYLINE
  5
5EA
100
AcDbEntity
  8
0
100
AcDbPolyline
 62
7
  6
CONTINUOUS
 90
5
 70
0
 10
10.4453573102
 20
7.1668961372
 10
10.4463365701
 20
7.1392155317
 10
10.4473185446
 20
7.1080998405
 10
10.4482945081
 20
7.07459565
 10
10.449270889
 20
7.0393176624
  0
LWPOLYLINE
  5
5EB
100
AcDbEntity
  8
0
100
AcDbPolyline
 62
7
  6
CONTINUOUS
 90
9
 70
0
 10
10.3923192524
 20
6.9671312
 10
10.3933691212
 20
6.9349183532
 10
10.39441899
 20
6.9045825759
 10
10.3954688587
 20
6.8769733408
 10
10.3965187275
 20
6.8528637712
 10
10.3975685963
 20
6.8329289912
 10
10.398618465
 20
6.8177272213
 10
10.3996683338
 20
6.8076841467
 10
10.400720374
 20
6.8030772296
  0
LWPOLYLINE
  5
5EC
100
AcDbEntity
  8
0
100
AcDbPolyline
 62
7
  6
CONTINUOUS
 90
9
 70
0
 10
10.4710594099
 20
6.9673776312
 10
10.4721092787
 20
6.9351540642
 10
10.4731591474
 20
6.9048009663
 10
10.4742090162
 20
6.8771682952
 10
10.475258885
 20
6.8530298303
 10
10.4763087537
 20
6.833061505
 10
10.4773586225
 20
6.8178224792
 10
10.4784084913
 20
6.8077394812
 10
10.4794684055
 20
6.8030772296
  0
LWPOLYLINE
  5
5ED
100
AcDbEntity
  8
0
100
AcDbPolyline
 62
7
  6
CONTINUOUS
 90
10
 70
0
 10
10.4118933686
 20
6.9653138211
 10
10.4128779628
 20
6.9297180395
 10
10.413851808
 20
6.8962582861
 10
10.4148345659
 20
6.8650771046
 10
10.4158296049
 20
6.8369319136
 10
10.4168245822
 20
6.8129399187
 10
10.4178071789
 20
6.7939108764
 10
10.4187848184
 20
6.7800430849
 10
10.4197643604
 20
6.7715542147
 10
10.4204571757
 20
6.7689353466
  0
LWPOLYLINE
  5
5EE
100
AcDbEntity
  8
0
100
AcDbPolyline
 62
7
  6
CONTINUOUS
 90
6
 70
0
 10
10.3725193529
 20
6.9653138211
 10
10.370549643
 20
7.0383331293
 10
10.3695682257
 20
7.0738258836
 10
10.3685766482
 20
7.1078964323
 10
10.3675866777
 20
7.139271533
 10
10.3666092787
 20
7.1668961372
  0
LWPOLYLINE
  5
5EF
100
AcDbEntity
  8
0
100
AcDbPolyline
 62
7
  6
CONTINUOUS
 90
11
 70
0
 10
10.449270889
 20
7.0393176624
 10
10.4512507713
 20
6.9659246828
 10
10.4522467978
 20
6.9299014339
 10
10.453230529
 20
6.8961021776
 10
10.4542064906
 20
6.8651401433
 10
10.4551826734
 20
6.8374839479
 10
10.4561651543
 20
6.8136721859
 10
10.4571446339
 20
6.7945300066
 10
10.4581279347
 20
6.780400346
 10
10.4591238175
 20
6.7716395999
 10
10.4598311914
 20
6.7689353466
  0
LINE
  5
5F0
100
AcDbEntity
  8
0
100
AcDbLine
 62
7
  6
CONTINUOUS
 10
10.4997879564
 20
6.7689353465
 11
10.5191835899
 21
6.8024871419
  0
LINE
  5
5F1
100
AcDbEntity
  8
0
100
AcDbLine
 62
7
  6
CONTINUOUS
 10
10.5391619722
 20
6.7689353465
 11
10.5585576056
 21
6.8024871419
  0
LINE
  5
5F2
100
AcDbEntity
  8
0
100
AcDbLine
 62
7
  6
CONTINUOUS
 10
10.4998377503
 20
7.2008246764
 11
10.499496582
 21
7.2014147642
  0
LINE
  5
5F3
100
AcDbEntity
  8
0
100
AcDbLine
 62
7
  6
CONTINUOUS
 10
10.499496582
 20
7.2014147642
 11
10.4801009486
 21
7.2349665595
  0
LINE
  5
5F4
100
AcDbEntity
  8
0
100
AcDbLine
 62
7
  6
CONTINUOUS
 10
10.5392117661
 20
7.2008246764
 11
10.5388705977
 21
7.2014147642
  0
LINE
  5
5F5
100
AcDbEntity
  8
0
100
AcDbLine
 62
7
  6
CONTINUOUS
 10
10.5388705977
 20
7.2014147642
 11
10.5194749643
 21
7.2349665595
  0
LINE
  5
5F6
100
AcDbEntity
  8
0
100
AcDbLine
 62
7
  6
CONTINUOUS
 10
10.5785857818
 20
7.2008246764
 11
10.5782446179
 21
7.2014147564
  0
LINE
  5
5F7
100
AcDbEntity
  8
0
100
AcDbLine
 62
7
  6
CONTINUOUS
 10
10.5782446179
 20
7.2014147564
 11
10.5660533394
 21
7.2225024886
  0
LWPOLYLINE
  5
5F8
100
AcDbEntity
  8
0
100
AcDbPolyline
 62
7
  6
CONTINUOUS
 90
10
 70
0
 10
10.5385792229
 20
6.7689353466
 10
10.5381456266
 20
6.7702425082
 10
10.5371987458
 20
6.7769356882
 10
10.5362598038
 20
6.7886367382
 10
10.5353255863
 20
6.8050234342
 10
10.5343862958
 20
6.8259025228
 10
10.5334455769
 20
6.8507699339
 10
10.5325132083
 20
6.8787737655
 10
10.5315829423
 20
6.9094274689
 10
10.5306414309
 20
6.9425210731
  0
LWPOLYLINE
  5
5F9
100
AcDbEntity
  8
0
100
AcDbPolyline
 62
7
  6
CONTINUOUS
 90
16
 70
0
 10
10.5690275324
 20
6.7843772338
 10
10.5688382281
 20
6.7849521323
 10
10.5681942012
 20
6.7905979296
 10
10.5675506569
 20
6.801828558
 10
10.566907589
 20
6.8183696006
 10
10.5662649857
 20
6.8398071089
 10
10.5656228546
 20
6.8655974216
 10
10.5649812023
 20
6.8950816749
 10
10.5643400064
 20
6.9275045081
 10
10.563699258
 20
6.9620318832
 10
10.5630589694
 20
6.9977719542
 10
10.5624191574
 20
7.0337990761
 10
10.5617798112
 20
7.069179758
 10
10.5611409212
 20
7.1029952519
 10
10.5605024932
 20
7.1343645829
 10
10.5598645191
 20
7.1624688825
  0
LWPOLYLINE
  5
5FA
100
AcDbEntity
  8
0
100
AcDbPolyline
 62
7
  6
CONTINUOUS
 90
20
 70
0
 10
10.4210897188
 20
7.2008246764
 10
10.4217155779
 20
7.198753049
 10
10.4227654466
 20
7.1908928102
 10
10.4238153154
 20
7.1777417577
 10
10.4248651842
 20
7.1596681516
 10
10.4259150529
 20
7.1371780951
 10
10.4269649217
 20
7.1109013625
 10
10.4280147905
 20
7.0815737637
 10
10.4290646592
 20
7.05001654
 10
10.430114528
 20
7.0171133674
 10
10.4311643968
 20
6.9837856118
 10
10.4322142655
 20
6.9509665283
 10
10.4332641343
 20
6.9195751278
 10
10.4343140031
 20
6.8904904431
 10
10.4353638718
 20
6.8645269132
 10
10.4364137406
 20
6.8424115778
 10
10.4374636094
 20
6.824763718
 10
10.4385134781
 20
6.812077515
 10
10.4395633469
 20
6.8047082123
 10
10.4400943897
 20
6.8030772296
  0
LWPOLYLINE
  5
5FB
100
AcDbEntity
  8
0
100
AcDbPolyline
 62
7
  6
CONTINUOUS
 90
6
 70
0
 10
10.4407269328
 20
7.2349665595
 10
10.4414023435
 20
7.2324481358
 10
10.4423843301
 20
7.2240298529
 10
10.4433788906
 20
7.2099580023
 10
10.4443740602
 20
7.1906444198
 10
10.4453573102
 20
7.1668961372
  0
LWPOLYLINE
  5
5FC
100
AcDbEntity
  8
0
100
AcDbPolyline
 62
7
  6
CONTINUOUS
 90
6
 70
0
 10
10.3619789013
 20
7.2349665595
 10
10.3628736098
 20
7.2310528707
 10
10.3638082067
 20
7.2219884644
 10
10.3647439246
 20
7.2080193272
 10
10.365676238
 20
7.1895395392
 10
10.3666092787
 20
7.1668961372
  0
LWPOLYLINE
  5
5FD
100
AcDbEntity
  8
0
100
AcDbPolyline
 62
7
  6
CONTINUOUS
 90
10
 70
0
 10
10.4604637346
 20
7.2008246764
 10
10.461610591
 20
7.1955310755
 10
10.4626604598
 20
7.1850083287
 10
10.4637103285
 20
7.1693595473
 10
10.4647601973
 20
7.1490229339
 10
10.4658100661
 20
7.124567961
 10
10.4668599348
 20
7.0966794253
 10
10.4679098036
 20
7.0661382708
 10
10.4689596724
 20
7.0337997214
 10
10.4710594099
 20
6.9673776312
  0
LWPOLYLINE
  5
5FE
100
AcDbEntity
  8
0
100
AcDbPolyline
 62
7
  6
CONTINUOUS
 90
10
 70
0
 10
10.3817157031
 20
7.2008246764
 10
10.3828704335
 20
7.1954720547
 10
10.3839203023
 20
7.1849095804
 10
10.3849701711
 20
7.1692238366
 10
10.3860200398
 20
7.148854061
 10
10.3870699086
 20
7.1243706549
 10
10.3881197774
 20
7.0964592109
 10
10.3891696461
 20
7.0659013147
 10
10.3902195149
 20
7.0335526588
 10
10.3923192524
 20
6.9671312
  0
LWPOLYLINE
  5
5FF
100
AcDbEntity
  8
0
100
AcDbPolyline
 62
7
  6
CONTINUOUS
 90
7
 70
0
 10
10.576970124
 20
7.15037339
 10
10.5748282941
 20
7.1719102432
 10
10.5726746171
 20
7.190367237
 10
10.5705330546
 20
7.2050802304
 10
10.5684186049
 20
7.2156660368
 10
10.5663010867
 20
7.2220433525
 10
10.5660533394
 20
7.2225024886
  0
LWPOLYLINE
  5
600
100
AcDbEntity
  8
0
100
AcDbPolyline
 62
7
  6
CONTINUOUS
 90
5
 70
0
 10
10.5831309322
 20
7.0756040783
 10
10.5815863656
 20
7.0956630446
 10
10.5800447509
 20
7.1149556568
 10
10.5785061534
 20
7.1332609037
 10
10.576970124
 20
7.15037339
  0
LINE
  5
601
100
AcDbEntity
  8
0
100
AcDbLine
 62
7
  6
CONTINUOUS
 10
10.5831309322
 20
7.1927329928
 11
10.5824759587
 21
7.2025232794
  0
LWPOLYLINE
  5
602
100
AcDbEntity
  8
0
100
AcDbPolyline
 62
7
  6
CONTINUOUS
 90
6
 70
0
 10
10.5241053417
 20
7.1668961372
 10
10.5231221972
 20
7.1906421112
 10
10.5221271343
 20
7.2099544271
 10
10.5211326779
 20
7.2240262497
 10
10.5201507796
 20
7.2324458206
 10
10.5194749643
 20
7.2349665595
  0
LWPOLYLINE
  5
603
100
AcDbEntity
  8
0
100
AcDbPolyline
 62
7
  6
CONTINUOUS
 90
8
 70
0
 10
10.4847313259
 20
7.1668961372
 10
10.4856620079
 20
7.1406734518
 10
10.4866038782
 20
7.111028643
 10
10.487546301
 20
7.0789049551
 10
10.4884780133
 20
7.0454358531
 10
10.4894006577
 20
7.0113445392
 10
10.4903308637
 20
6.9767701147
 10
10.4912674152
 20
6.9425210731
  0
LWPOLYLINE
  5
604
100
AcDbEntity
  8
0
100
AcDbPolyline
 62
7
  6
CONTINUOUS
 90
9
 70
0
 10
10.510954423
 20
6.9512084879
 10
10.5120004594
 20
6.9199140189
 10
10.5130464958
 20
6.890900074
 10
10.5140925321
 20
6.8649732045
 10
10.5151385685
 20
6.8428541449
 10
10.5161846049
 20
6.8251577774
 10
10.5172306412
 20
6.8123760389
 10
10.5182766776
 20
6.8048642456
 10
10.5188424212
 20
6.8030772296
  0
LINE
  5
605
100
AcDbEntity
  8
0
100
AcDbLine
 62
7
  6
CONTINUOUS
 10
10.5586026959
 20
7.2056962345
 11
10.5592371977
 21
7.1862207024
  0
LWPOLYLINE
  5
606
100
AcDbEntity
  8
0
100
AcDbPolyline
 62
7
  6
CONTINUOUS
 90
10
 70
0
 10
10.4912674152
 20
6.9425210731
 10
10.492207057
 20
6.9094913579
 10
10.4931431233
 20
6.8786495326
 10
10.4940857182
 20
6.8503689917
 10
10.4950326709
 20
6.8254054816
 10
10.4959714959
 20
6.8046268698
 10
10.4969044592
 20
6.7883564302
 10
10.4978470648
 20
6.7767179339
 10
10.4987985878
 20
6.7701287406
 10
10.4992052072
 20
6.7689353466
  0
LWPOLYLINE
  5
607
100
AcDbEntity
  8
0
100
AcDbPolyline
 62
7
  6
CONTINUOUS
 90
8
 70
0
 10
10.5306414309
 20
6.9425210731
 10
10.5296943696
 20
6.9771590824
 10
10.5287510763
 20
7.0122221424
 10
10.527818862
 20
7.0466482139
 10
10.5268897905
 20
7.0799767391
 10
10.525959643
 20
7.1116287061
 10
10.5250328539
 20
7.1407682932
 10
10.5241053417
 20
7.1668961372
  0
LINE
  5
608
100
AcDbEntity
  8
0
100
AcDbLine
 62
7
  6
CONTINUOUS
 10
10.5592371977
 20
7.1862207024
 11
10.5598645191
 21
7.1624688825
  0
LINE
  5
609
100
AcDbEntity
  8
0
100
AcDbLine
 62
7
  6
CONTINUOUS
 10
10.5831309322
 20
6.7982127778
 11
10.5831309322
 21
7.2056899859
  0
LINE
  5
60A
100
AcDbEntity
  8
0
100
AcDbLine
 62
7
  6
CONTINUOUS
 10
10.622501011
 20
6.7982127778
 11
10.622501011
 21
7.2056891282
  0
LWPOLYLINE
  5
60B
100
AcDbEntity
  8
0
100
AcDbPolyline
 62
7
  6
CONTINUOUS
 90
6
 70
0
 10
10.5785857818
 20
7.2008246764
 10
10.5789467868
 20
7.1998707614
 10
10.5799928231
 20
7.1934196018
 10
10.5810388595
 20
7.1816458535
 10
10.5820848958
 20
7.1648768119
 10
10.5831309322
 20
7.1435786355
  0
LWPOLYLINE
  5
60C
100
AcDbEntity
  8
0
100
AcDbPolyline
 62
7
  6
CONTINUOUS
 90
12
 70
0
 10
10.4998377503
 20
7.2008246764
 10
10.5004557354
 20
7.1987913592
 10
10.5015056041
 20
7.1909718232
 10
10.5025554729
 20
7.1778592609
 10
10.5036053417
 20
7.1598208547
 10
10.5046552104
 20
7.1373617221
 10
10.5057050792
 20
7.1111107713
 10
10.506754948
 20
7.0818030904
 10
10.5078048167
 20
7.050259363
 10
10.5088546855
 20
7.017362887
 10
10.5099045543
 20
6.984034841
 10
10.510954423
 20
6.9512084879
  0
LWPOLYLINE
  5
60D
100
AcDbEntity
  8
0
100
AcDbPolyline
 62
7
  6
CONTINUOUS
 90
6
 70
0
 10
10.4801009486
 20
7.2349665595
 10
10.4808177579
 20
7.2322063045
 10
10.4817941209
 20
7.223618749
 10
10.4827700962
 20
7.2096676054
 10
10.4837520816
 20
7.190556718
 10
10.4847313259
 20
7.1668961372
  0
LWPOLYLINE
  5
60E
100
AcDbEntity
  8
0
100
AcDbPolyline
 62
7
  6
CONTINUOUS
 90
20
 70
0
 10
10.5392117661
 20
7.2008246764
 10
10.5402434412
 20
7.196359451
 10
10.5412894776
 20
7.1864655976
 10
10.542335514
 20
7.1714424682
 10
10.5433815503
 20
7.1517076867
 10
10.5444275867
 20
7.1278098556
 10
10.5454736231
 20
7.1004133046
 10
10.5465196594
 20
7.0702796234
 10
10.5475656958
 20
7.0382464908
 10
10.5486117322
 20
7.0052043876
 10
10.5496577685
 20
6.972071843
 10
10.5507038049
 20
6.9397699003
 10
10.5517498413
 20
6.909196513
 10
10.5527958776
 20
6.881201583
 10
10.553841914
 20
6.8565633344
 10
10.5548879504
 20
6.8359666795
 10
10.5559339867
 20
6.8199841796
 10
10.5569800231
 20
6.8090601282
 10
10.5580260595
 20
6.8034982002
 10
10.558216437
 20
6.8030772296
  0
LWPOLYLINE
  5
60F
100
AcDbEntity
  8
0
100
AcDbPolyline
 62
7
  6
CONTINUOUS
 90
4
 70
0
 10
10.5567442604
 20
7.2320778455
 10
10.5573443691
 20
7.2288641092
 10
10.5579690791
 20
7.2200605239
 10
10.5586026959
 20
7.2056962345
  0
LWPOLYLINE
  5
610
100
AcDbEntity
  8
0
100
AcDbPolyline
 62
7
  6
CONTINUOUS
 90
3
 70
0
 10
10.5824759587
 20
7.2025232794
 10
10.5818214973
 20
7.2069145222
 10
10.5817063409
 20
7.2071157582
  0
LINE
  5
611
100
AcDbEntity
  8
0
100
AcDbLine
 62
7
  6
CONTINUOUS
 10
6.9002191097
 20
4.912359613
 11
6.8843120346
 21
4.8964525379
  0
LINE
  5
612
100
AcDbEntity
  8
0
100
AcDbLine
 62
7
  6
CONTINUOUS
 10
6.8843120346
 20
3.7602320655
 11
6.8843120346
 21
4.8964525379
  0
LINE
  5
613
100
AcDbEntity
  8
0
100
AcDbLine
 62
7
  6
CONTINUOUS
 10
6.9002191097
 20
3.7443249903
 11
6.9002191097
 21
4.912359613
  0
LINE
  5
614
100
AcDbEntity
  8
0
100
AcDbLine
 62
7
  6
CONTINUOUS
 10
7.3331309322
 20
3.7716762463
 11
7.3331309322
 21
4.885008357
  0
LINE
  5
615
100
AcDbEntity
  8
0
100
AcDbLine
 62
9
  6
CONTINUOUS
 10
7.3643521437
 20
3.7401813826
 11
7.3643521437
 21
4.9165032208
  0
LINE
  5
616
100
AcDbEntity
  8
DEFAULT_2
100
AcDbLine
 62
8
  6
HIDDEN
 10
7.4492726645
 20
3.7394402924
 11
7.4492726645
 21
3.7377911206
  0
LINE
  5
617
100
AcDbEntity
  8
DEFAULT_2
100
AcDbLine
 62
8
  6
HIDDEN
 10
7.4492726645
 20
4.9172443109
 11
7.4492726645
 21
4.9188934828
  0
LINE
  5
618
100
AcDbEntity
  8
0
100
AcDbLine
 62
7
  6
CONTINUOUS
 10
6.9002191097
 20
3.7443249903
 11
6.8843120346
 21
3.7602320655
  0
LINE
  5
619
100
AcDbEntity
  8
DEFAULT_2
100
AcDbLine
 62
8
  6
HIDDEN
 10
7.5673829007
 20
3.73840956
 11
7.5673829007
 21
3.7377911206
  0
LINE
  5
61A
100
AcDbEntity
  8
DEFAULT_2
100
AcDbLine
 62
8
  6
HIDDEN
 10
7.5673829007
 20
4.9182750433
 11
7.5673829007
 21
4.9188934828
  0
LINE
  5
61B
100
AcDbEntity
  8
0
100
AcDbLine
 62
7
  6
CONTINUOUS
 10
7.6382490424
 20
3.7377911206
 11
7.6382490424
 21
4.9188934828
  0
LINE
  5
61C
100
AcDbEntity
  8
AXIS_COSMETIC_THREADS
100
AcDbLine
 62
7
  6
CONTINUOUS
 10
7.6382490424
 20
3.7377911206
 11
7.6382490424
 21
4.9188934828
  0
LINE
  5
61D
100
AcDbEntity
  8
0
100
AcDbLine
 62
9
  6
CONTINUOUS
 10
9.962593508
 20
4.877737352
 11
9.9596203052
 21
4.8761526773
  0
LINE
  5
61E
100
AcDbEntity
  8
0
100
AcDbLine
 62
7
  6
CONTINUOUS
 10
10.5629847602
 20
4.5522286927
 11
10.5627924967
 21
4.5521585429
  0
LINE
  5
61F
100
AcDbEntity
  8
0
100
AcDbLine
 62
7
  6
CONTINUOUS
 10
9.9416735003
 20
3.7402329192
 11
9.6618710897
 21
3.7377911206
  0
LINE
  5
620
100
AcDbEntity
  8
AXIS_COSMETIC_THREADS
100
AcDbLine
 62
7
  6
CONTINUOUS
 10
9.6618710897
 20
3.7377911206
 11
7.6382490424
 21
3.7377911206
  0
LINE
  5
621
100
AcDbEntity
  8
0
100
AcDbLine
 62
7
  6
CONTINUOUS
 10
7.5673829007
 20
3.7377911206
 11
7.4492726645
 21
3.7377911206
  0
LINE
  5
622
100
AcDbEntity
  8
0
100
AcDbLine
 62
7
  6
CONTINUOUS
 10
9.7524222708
 20
3.7377911206
 11
9.870532507
 21
3.7377911206
  0
LINE
  5
623
100
AcDbEntity
  8
0
100
AcDbLine
 62
7
  6
CONTINUOUS
 10
7.3643521437
 20
3.7401813826
 11
7.6382490424
 21
3.7377911206
  0
LINE
  5
624
100
AcDbEntity
  8
0
100
AcDbLine
 62
7
  6
CONTINUOUS
 10
7.3619321592
 20
3.7402956816
 11
6.9002191097
 21
3.7443249903
  0
LINE
  5
625
100
AcDbEntity
  8
0
100
AcDbLine
 62
9
  6
CONTINUOUS
 10
9.9728947117
 20
3.8362163174
 11
9.6618710897
 21
3.8362163174
  0
LINE
  5
626
100
AcDbEntity
  8
AXIS_COSMETIC_THREADS
100
AcDbLine
 62
9
  6
CONTINUOUS
 10
9.6618710897
 20
3.8362163174
 11
7.6382490424
 21
3.8362163174
  0
LINE
  5
627
100
AcDbEntity
  8
0
100
AcDbLine
 62
9
  6
CONTINUOUS
 10
7.3331309322
 20
3.8362163174
 11
7.6382490424
 21
3.8362163174
  0
LINE
  5
628
100
AcDbEntity
  8
0
100
AcDbLine
 62
7
  6
CONTINUOUS
 10
9.9763832012
 20
3.8574367899
 11
9.9728947117
 21
3.8574367899
  0
LINE
  5
629
100
AcDbEntity
  8
0
100
AcDbLine
 62
7
  6
CONTINUOUS
 10
9.9728947117
 20
3.8874367899
 11
9.9763832012
 21
3.8874367899
  0
LINE
  5
62A
100
AcDbEntity
  8
AXIS
100
AcDbLine
 62
7
  6
CONTINUOUS
 10
9.9728947117
 20
3.9346415143
 11
10.091004948
 21
3.9346415143
  0
LINE
  5
62B
100
AcDbEntity
  8
0
100
AcDbLine
 62
7
  6
CONTINUOUS
 10
9.9728947117
 20
3.9429686467
 11
10.091004948
 21
3.9429686467
  0
LINE
  5
62C
100
AcDbEntity
  8
0
100
AcDbLine
 62
7
  6
CONTINUOUS
 10
10.1835929098
 20
4.0453420549
 11
10.1842536182
 21
4.0453420549
  0
LINE
  5
62D
100
AcDbEntity
  8
0
100
AcDbLine
 62
7
  6
CONTINUOUS
 10
9.9728947117
 20
4.0659016782
 11
10.091004948
 21
4.0659016782
  0
LINE
  5
62E
100
AcDbEntity
  8
AXIS
100
AcDbLine
 62
7
  6
CONTINUOUS
 10
10.2288002236
 20
4.0950745851
 11
10.2337219755
 21
4.0950745851
  0
LINE
  5
62F
100
AcDbEntity
  8
0
100
AcDbLine
 62
7
  6
CONTINUOUS
 10
10.3915094131
 20
4.0953266952
 11
10.3909266639
 21
4.0953266952
  0
LINE
  5
630
100
AcDbEntity
  8
0
100
AcDbLine
 62
7
  6
CONTINUOUS
 10
10.3515526481
 20
4.0953266952
 11
10.3521353974
 21
4.0953266952
  0
LINE
  5
631
100
AcDbEntity
  8
0
100
AcDbLine
 62
7
  6
CONTINUOUS
 10
10.5831309322
 20
4.1246021442
 11
10.622501011
 21
4.1246021442
  0
LINE
  5
632
100
AcDbEntity
  8
0
100
AcDbLine
 62
7
  6
CONTINUOUS
 10
10.2288002236
 20
4.1633971175
 11
10.2681742393
 21
4.1633971175
  0
LWPOLYLINE
  5
633
100
AcDbEntity
  8
0
100
AcDbPolyline
 62
9
  6
CONTINUOUS
 90
4
 70
0
 10
9.9716768095
 20
4.8880779602
 10
9.9695711206
 20
4.8842535135
 10
9.9665086772
 20
4.8807671546
 10
9.962593508
 20
4.877737352
  0
LWPOLYLINE
  5
634
100
AcDbEntity
  8
0
100
AcDbPolyline
 62
7
  6
CONTINUOUS
 90
3
 70
0
 10
10.2924916245
 20
4.5613579081
 10
10.2927578599
 20
4.5616081412
 10
10.2930743738
 20
4.5613579082
  0
LWPOLYLINE
  5
635
100
AcDbEntity
  8
0
100
AcDbPolyline
 62
7
  6
CONTINUOUS
 90
3
 70
0
 10
10.3318656402
 20
4.5613579081
 10
10.332150112
 20
4.5616098767
 10
10.3324483895
 20
4.5613579082
  0
LWPOLYLINE
  5
636
100
AcDbEntity
  8
0
100
AcDbPolyline
 62
7
  6
CONTINUOUS
 90
3
 70
0
 10
10.4106136717
 20
4.5613579081
 10
10.4109044792
 20
4.5616100173
 10
10.411196421
 20
4.5613579082
  0
LINE
  5
637
100
AcDbEntity
  8
0
100
AcDbLine
 62
7
  6
CONTINUOUS
 10
10.1870538093
 20
4.030507656
 11
10.1873660121
 21
4.0306935954
  0
LINE
  5
638
100
AcDbEntity
  8
0
100
AcDbLine
 62
7
  6
CONTINUOUS
 10
9.9728947117
 20
4.2054092702
 11
10.091004948
 21
4.2054092702
  0
LINE
  5
639
100
AcDbEntity
  8
0
100
AcDbLine
 62
7
  6
CONTINUOUS
 10
10.1753153329
 20
4.2355180782
 11
10.1759760412
 21
4.2355180782
  0
LINE
  5
63A
100
AcDbEntity
  8
AXIS_COSMETIC_THREADS
100
AcDbLine
 62
7
  6
CENTER
 10
9.8114773889
 20
4.3283423017
 11
6.6844559221
 21
4.3283423017
  0
LINE
  5
63B
100
AcDbEntity
  8
AXIS_COSMETIC_THREADS
100
AcDbLine
 62
7
  6
CENTER
 10
9.8114773889
 20
4.3283423017
 11
10.8067980872
 21
4.3283423017
  0
LINE
  5
63C
100
AcDbEntity
  8
0
100
AcDbLine
 62
7
  6
CONTINUOUS
 10
10.2177754329
 20
4.0590583299
 11
10.2179623522
 21
4.0590397979
  0
LINE
  5
63D
100
AcDbEntity
  8
0
100
AcDbLine
 62
7
  6
CONTINUOUS
 10
10.2026932515
 20
4.6127193243
 11
10.186723452
 21
4.5937012139
  0
LWPOLYLINE
  5
63E
100
AcDbEntity
  8
0
100
AcDbPolyline
 62
7
  6
CONTINUOUS
 90
3
 70
0
 10
10.4499876875
 20
4.5613579081
 10
10.450254616
 20
4.5616082433
 10
10.4505704368
 20
4.5613579082
  0
LINE
  5
63F
100
AcDbEntity
  8
0
100
AcDbLine
 62
7
  6
CONTINUOUS
 10
10.2340133501
 20
4.0953266952
 11
10.23372194
 21
4.0950745851
  0
LINE
  5
640
100
AcDbEntity
  8
0
100
AcDbLine
 62
7
  6
CONTINUOUS
 10
10.2026932515
 20
4.6127193243
 11
10.2028708972
 21
4.612736267
  0
LINE
  5
641
100
AcDbEntity
  8
0
100
AcDbLine
 62
7
  6
CONTINUOUS
 10
9.9728947117
 20
4.4512753331
 11
10.091004948
 21
4.4512753331
  0
LINE
  5
642
100
AcDbEntity
  8
0
100
AcDbLine
 62
7
  6
CONTINUOUS
 10
10.5831309322
 20
4.5320824592
 11
10.622501011
 21
4.5320824592
  0
LINE
  5
643
100
AcDbEntity
  8
0
100
AcDbLine
 62
7
  6
CONTINUOUS
 10
10.5293184682
 20
4.5613579082
 11
10.528735719
 21
4.5613579081
  0
LINE
  5
644
100
AcDbEntity
  8
0
100
AcDbLine
 62
7
  6
CONTINUOUS
 10
10.4893617032
 20
4.5613579081
 11
10.4899444525
 21
4.5613579082
  0
LINE
  5
645
100
AcDbEntity
  8
AXIS
100
AcDbLine
 62
7
  6
CONTINUOUS
 10
10.2288002236
 20
4.5616100182
 11
10.2534089834
 21
4.5616100182
  0
LINE
  5
646
100
AcDbEntity
  8
0
100
AcDbLine
 62
7
  6
CONTINUOUS
 10
9.6618710897
 20
3.7377911206
 11
9.6618710897
 21
4.9188934828
  0
LINE
  5
647
100
AcDbEntity
  8
AXIS_COSMETIC_THREADS
100
AcDbLine
 62
7
  6
CONTINUOUS
 10
9.6618710897
 20
3.7377911206
 11
9.6618710897
 21
4.9188934828
  0
LINE
  5
648
100
AcDbEntity
  8
0
100
AcDbLine
 62
7
  6
CONTINUOUS
 10
10.2924916245
 20
4.5613579081
 11
10.2730959914
 21
4.5278061128
  0
LINE
  5
649
100
AcDbEntity
  8
0
100
AcDbLine
 62
7
  6
CONTINUOUS
 10
10.1873660121
 20
4.0306935954
 11
10.2144793602
 21
4.0629833927
  0
LINE
  5
64A
100
AcDbEntity
  8
0
100
AcDbLine
 62
7
  6
CONTINUOUS
 10
10.091004948
 20
3.9346415143
 11
10.1697451054
 21
4.0133816718
  0
LINE
  5
64B
100
AcDbEntity
  8
0
100
AcDbLine
 62
7
  6
CONTINUOUS
 10
10.2288002578
 20
4.0698777036
 11
10.2179630314
 21
4.0590404744
  0
LWPOLYLINE
  5
64C
100
AcDbEntity
  8
0
100
AcDbPolyline
 62
7
  6
CONTINUOUS
 90
3
 70
0
 10
10.5096314604
 20
4.0953266952
 10
10.5093270215
 20
4.0950750921
 10
10.5090487111
 20
4.0953266952
  0
LINE
  5
64D
100
AcDbEntity
  8
0
100
AcDbLine
 62
7
  6
CONTINUOUS
 10
9.9728947117
 20
4.5907829252
 11
10.091004948
 21
4.5907829252
  0
LINE
  5
64E
100
AcDbEntity
  8
0
100
AcDbLine
 62
7
  6
CONTINUOUS
 10
9.9728947117
 20
4.7137159566
 11
10.091004948
 21
4.7137159566
  0
LINE
  5
64F
100
AcDbEntity
  8
AXIS
100
AcDbLine
 62
7
  6
CONTINUOUS
 10
9.9728947117
 20
4.7220430891
 11
10.091004948
 21
4.7220430891
  0
LINE
  5
650
100
AcDbEntity
  8
0
100
AcDbLine
 62
7
  6
CONTINUOUS
 10
9.9722338013
 20
4.7342478135
 11
9.9717740906
 21
4.7342478135
  0
LINE
  5
651
100
AcDbEntity
  8
0
100
AcDbLine
 62
9
  6
CONTINUOUS
 10
9.90202857
 20
4.7408400471
 11
9.8903206157
 21
4.7408400471
  0
LINE
  5
652
100
AcDbEntity
  8
0
100
AcDbLine
 62
9
  6
CONTINUOUS
 10
9.9100056551
 20
4.7128294087
 11
9.9415017181
 21
4.7125545468
  0
LINE
  5
653
100
AcDbEntity
  8
0
100
AcDbLine
 62
7
  6
CONTINUOUS
 10
9.9100056551
 20
4.7246399826
 11
9.9415017186
 21
4.7243651206
  0
LINE
  5
654
100
AcDbEntity
  8
0
100
AcDbLine
 62
9
  6
CONTINUOUS
 10
9.9415017181
 20
4.7125545468
 11
9.9416735003
 21
4.7125519876
  0
LINE
  5
655
100
AcDbEntity
  8
0
100
AcDbLine
 62
7
  6
CONTINUOUS
 10
9.9418192278
 20
4.7243603894
 11
9.941502388
 21
4.7243651068
  0
LINE
  5
656
100
AcDbEntity
  8
0
100
AcDbLine
 62
7
  6
CONTINUOUS
 10
10.5754657987
 20
4.1169369526
 11
10.575262246
 21
4.1170112187
  0
LINE
  5
657
100
AcDbEntity
  8
0
100
AcDbLine
 62
7
  6
CONTINUOUS
 10
10.1863930986
 20
4.030507656
 11
10.1860808917
 21
4.0306935954
  0
LINE
  5
658
100
AcDbEntity
  8
DEFAULT_2
100
AcDbLine
 62
8
  6
HIDDEN
 10
9.7524222708
 20
3.7385813488
 11
9.7524222708
 21
3.7377911206
  0
LINE
  5
659
100
AcDbEntity
  8
DEFAULT_2
100
AcDbLine
 62
8
  6
HIDDEN
 10
9.7524222708
 20
4.9181032546
 11
9.7524222708
 21
4.9188934828
  0
LINE
  5
65A
100
AcDbEntity
  8
AXIS_COSMETIC_THREADS
100
AcDbLine
 62
7
  6
CENTER
 10
9.8114773889
 20
4.3283423017
 11
9.8114773889
 21
4.0496820852
  0
LINE
  5
65B
100
AcDbEntity
  8
AXIS_COSMETIC_THREADS
100
AcDbLine
 62
7
  6
CENTER
 10
9.8114773889
 20
4.3283423017
 11
9.8114773889
 21
4.6070025181
  0
LINE
  5
65C
100
AcDbEntity
  8
DEFAULT_2
100
AcDbLine
 62
8
  6
HIDDEN
 10
9.870532507
 20
3.7396120812
 11
9.870532507
 21
3.7377911206
  0
LINE
  5
65D
100
AcDbEntity
  8
DEFAULT_2
100
AcDbLine
 62
8
  6
HIDDEN
 10
9.870532507
 20
4.9170725222
 11
9.870532507
 21
4.9188934828
  0
LINE
  5
65E
100
AcDbEntity
  8
0
100
AcDbLine
 62
9
  6
CONTINUOUS
 10
9.8903206157
 20
4.916899834
 11
9.8903206157
 21
4.7408400471
  0
LINE
  5
65F
100
AcDbEntity
  8
0
100
AcDbLine
 62
7
  6
CONTINUOUS
 10
9.90202857
 20
4.9050892601
 11
9.90202857
 21
4.7408400471
  0
LWPOLYLINE
  5
660
100
AcDbEntity
  8
0
100
AcDbPolyline
 62
9
  6
CONTINUOUS
 90
9
 70
0
 10
9.9099025858
 20
4.8965658164
 10
9.9099448757
 20
4.8993494847
 10
9.9099835268
 20
4.90261266
 10
9.9100152106
 20
4.9060743445
 10
9.9100371983
 20
4.9094364293
 10
9.9100475961
 20
4.9124093698
 10
9.9100455083
 20
4.9147371285
 10
9.9100311148
 20
4.9162192325
 10
9.9100056552
 20
4.9167280452
  0
LWPOLYLINE
  5
661
100
AcDbEntity
  8
0
100
AcDbPolyline
 62
9
  6
CONTINUOUS
 90
4
 70
0
 10
9.9716768765
 20
4.8880779466
 10
9.9720201124
 20
4.8899341066
 10
9.9720201148
 20
4.8918032901
 10
9.9716768836
 20
4.893630651
  0
LINE
  5
662
100
AcDbEntity
  8
0
100
AcDbLine
 62
7
  6
CONTINUOUS
 10
10.1697451054
 20
4.2232264633
 11
10.1753153329
 21
4.2355180782
  0
LINE
  5
663
100
AcDbEntity
  8
0
100
AcDbLine
 62
7
  6
CONTINUOUS
 10
10.3318656402
 20
4.5613579081
 11
10.3124700072
 21
4.5278061128
  0
LINE
  5
664
100
AcDbEntity
  8
0
100
AcDbLine
 62
7
  6
CONTINUOUS
 10
10.371239656
 20
4.5613579081
 11
10.3518440229
 21
4.5278061128
  0
LINE
  5
665
100
AcDbEntity
  8
0
100
AcDbLine
 62
7
  6
CONTINUOUS
 10
10.4106136717
 20
4.5613579081
 11
10.3912180387
 21
4.5278061128
  0
LINE
  5
666
100
AcDbEntity
  8
0
100
AcDbLine
 62
7
  6
CONTINUOUS
 10
10.4499876875
 20
4.5613579081
 11
10.4305920544
 21
4.5278061128
  0
LINE
  5
667
100
AcDbEntity
  8
0
100
AcDbLine
 62
7
  6
CONTINUOUS
 10
10.4893617032
 20
4.5613579081
 11
10.4699660702
 21
4.5278061128
  0
LINE
  5
668
100
AcDbEntity
  8
0
100
AcDbLine
 62
7
  6
CONTINUOUS
 10
10.2340133501
 20
4.0953266952
 11
10.2534089836
 21
4.1288784905
  0
LINE
  5
669
100
AcDbEntity
  8
0
100
AcDbLine
 62
7
  6
CONTINUOUS
 10
10.5831309322
 20
4.1246020882
 11
10.5754658461
 21
4.116937
  0
LINE
  5
66A
100
AcDbEntity
  8
0
100
AcDbLine
 62
7
  6
CONTINUOUS
 10
7.3619321592
 20
4.9163889218
 11
6.9002191097
 21
4.912359613
  0
LINE
  5
66B
100
AcDbEntity
  8
0
100
AcDbLine
 62
7
  6
CONTINUOUS
 10
7.3643521437
 20
4.9165032208
 11
7.6382490424
 21
4.9188934828
  0
LINE
  5
66C
100
AcDbEntity
  8
0
100
AcDbLine
 62
7
  6
CONTINUOUS
 10
9.9763832012
 20
4.7692478135
 11
9.9717740906
 21
4.7692478135
  0
LINE
  5
66D
100
AcDbEntity
  8
0
100
AcDbLine
 62
7
  6
CONTINUOUS
 10
9.9717740906
 20
4.7992478135
 11
9.9763832012
 21
4.7992478135
  0
LINE
  5
66E
100
AcDbEntity
  8
0
100
AcDbLine
 62
9
  6
CONTINUOUS
 10
9.90202857
 20
4.8204682859
 11
9.6618710897
 21
4.8204682859
  0
LINE
  5
66F
100
AcDbEntity
  8
AXIS_COSMETIC_THREADS
100
AcDbLine
 62
9
  6
CONTINUOUS
 10
9.6618710897
 20
4.8204682859
 11
7.6382490424
 21
4.8204682859
  0
LINE
  5
670
100
AcDbEntity
  8
0
100
AcDbLine
 62
9
  6
CONTINUOUS
 10
7.3331309322
 20
4.8204682859
 11
7.6382490424
 21
4.8204682859
  0
LINE
  5
671
100
AcDbEntity
  8
0
100
AcDbLine
 62
7
  6
CONTINUOUS
 10
9.9717740906
 20
4.8342478135
 11
9.9722338013
 21
4.8342478135
  0
LINE
  5
672
100
AcDbEntity
  8
AXIS_COSMETIC_THREADS
100
AcDbLine
 62
7
  6
CONTINUOUS
 10
9.9358148009
 20
4.8937478135
 11
9.90202857
 21
4.8937478135
  0
LINE
  5
673
100
AcDbEntity
  8
0
100
AcDbLine
 62
7
  6
CONTINUOUS
 10
9.870532507
 20
4.9188934828
 11
9.7524222708
 21
4.9188934828
  0
LINE
  5
674
100
AcDbEntity
  8
AXIS_COSMETIC_THREADS
100
AcDbLine
 62
7
  6
CONTINUOUS
 10
9.6618710897
 20
4.9188934828
 11
7.6382490424
 21
4.9188934828
  0
LINE
  5
675
100
AcDbEntity
  8
0
100
AcDbLine
 62
7
  6
CONTINUOUS
 10
7.4492726645
 20
4.9188934828
 11
7.5673829007
 21
4.9188934828
  0
LINE
  5
676
100
AcDbEntity
  8
0
100
AcDbLine
 62
9
  6
CONTINUOUS
 10
9.9416735003
 20
4.8962897733
 11
9.9413986487
 21
4.8962909545
  0
LINE
  5
677
100
AcDbEntity
  8
0
100
AcDbLine
 62
9
  6
CONTINUOUS
 10
9.9413986487
 20
4.8962909545
 11
9.9099025858
 21
4.8965658164
  0
LINE
  5
678
100
AcDbEntity
  8
0
100
AcDbLine
 62
7
  6
CONTINUOUS
 10
9.9416735003
 20
4.9164516841
 11
9.6618710897
 21
4.9188934828
  0
LWPOLYLINE
  5
679
100
AcDbEntity
  8
0
100
AcDbPolyline
 62
7
  6
CONTINUOUS
 90
29
 70
0
 10
9.9100056417
 20
4.7246398308
 10
9.9098770993
 20
4.7246448655
 10
9.9093515546
 20
4.7247415029
 10
9.9087836938
 20
4.7249627051
 10
9.9082576444
 20
4.7252574317
 10
9.9077494497
 20
4.7256171149
 10
9.9072661374
 20
4.7260252137
 10
9.9067988589
 20
4.7264823004
 10
9.9063465868
 20
4.7269859859
 10
9.9059145536
 20
4.7275275567
 10
9.9055059299
 20
4.7280996315
 10
9.9051219647
 20
4.728696542
 10
9.9047627466
 20
4.7293142547
 10
9.9044276916
 20
4.7299501835
 10
9.9041157362
 20
4.7306032632
 10
9.9038255559
 20
4.7312740263
 10
9.9035558433
 20
4.7319642551
 10
9.9033054589
 20
4.7326768556
 10
9.903073883
 20
4.7334148093
 10
9.9028637056
 20
4.7341716866
 10
9.9026760466
 20
4.7349441838
 10
9.9025113491
 20
4.7357308891
 10
9.9023699927
 20
4.7365304883
 10
9.9022523875
 20
4.7373418546
 10
9.9021590021
 20
4.7381640355
 10
9.9020903112
 20
4.7389961433
 10
9.9020468031
 20
4.7398373312
 10
9.9020289937
 20
4.7406867666
 10
9.9020285633
 20
4.7408388951
  0
LWPOLYLINE
  5
67A
100
AcDbEntity
  8
0
100
AcDbPolyline
 62
9
  6
CONTINUOUS
 90
10
 70
0
 10
9.9416735003
 20
4.7125519876
 10
9.9457387842
 20
4.7121017441
 10
9.9500034131
 20
4.7107471378
 10
9.9541536424
 20
4.708480002
 10
9.9580316055
 20
4.7053846106
 10
9.9616142454
 20
4.7014725816
 10
9.9648276565
 20
4.6967914428
 10
9.9676129714
 20
4.6913737647
 10
9.9699282624
 20
4.6851649864
 10
9.9716768095
 20
4.6781176757
  0
LWPOLYLINE
  5
67B
100
AcDbEntity
  8
0
100
AcDbPolyline
 62
9
  6
CONTINUOUS
 90
10
 70
0
 10
9.8903206157
 20
4.7408400471
 10
9.890770091
 20
4.7349207541
 10
9.8919471436
 20
4.729745118
 10
9.8936681621
 20
4.7252810389
 10
9.8958326929
 20
4.7214721757
 10
9.8983743713
 20
4.7183104717
 10
9.9011730508
 20
4.7158664734
 10
9.904115769
 20
4.7141563385
 10
9.9071017356
 20
4.7131592048
 10
9.9100056551
 20
4.7128294087
  0
LWPOLYLINE
  5
67C
100
AcDbEntity
  8
0
100
AcDbPolyline
 62
7
  6
CONTINUOUS
 90
4
 70
0
 10
9.9728947107
 20
4.6657643972
 10
9.9728232524
 20
4.6696511236
 10
9.9724857016
 20
4.6752302221
 10
9.9720512601
 20
4.6795093512
  0
LINE
  5
67D
100
AcDbEntity
  8
0
100
AcDbLine
 62
9
  6
CONTINUOUS
 10
9.9099025858
 20
4.8965658164
 11
9.9099025858
 21
4.8937478135
  0
LINE
  5
67E
100
AcDbEntity
  8
0
100
AcDbLine
 62
9
  6
CONTINUOUS
 10
9.9358148009
 20
4.8937478135
 11
9.9358148048
 21
4.7244147496
  0
LINE
  5
67F
100
AcDbEntity
  8
0
100
AcDbLine
 62
9
  6
CONTINUOUS
 10
9.9413986487
 20
4.8962909545
 11
9.9413986487
 21
4.8929140233
  0
LINE
  5
680
100
AcDbEntity
  8
0
100
AcDbLine
 62
9
  6
CONTINUOUS
 10
9.9416735003
 20
4.7125519876
 11
9.9416735003
 21
3.7402329192
  0
LINE
  5
681
100
AcDbEntity
  8
0
100
AcDbLine
 62
9
  6
CONTINUOUS
 10
9.958984798
 20
4.8781367024
 11
9.9589848065
 21
4.7154210553
  0
LINE
  5
682
100
AcDbEntity
  8
0
100
AcDbLine
 62
7
  6
CONTINUOUS
 10
9.9728947117
 20
4.8849568204
 11
9.9728947117
 21
4.8282678769
  0
LINE
  5
683
100
AcDbEntity
  8
0
100
AcDbLine
 62
7
  6
CONTINUOUS
 10
9.9728947117
 20
4.7992478135
 11
9.9728947117
 21
4.7692478135
  0
LINE
  5
684
100
AcDbEntity
  8
0
100
AcDbLine
 62
7
  6
CONTINUOUS
 10
9.9728947117
 20
4.74022775
 11
9.9728947117
 21
4.6657648245
  0
LINE
  5
685
100
AcDbEntity
  8
0
100
AcDbLine
 62
7
  6
CONTINUOUS
 10
9.9728947117
 20
4.6657504747
 11
9.9728947117
 21
3.7717277829
  0
LINE
  5
686
100
AcDbEntity
  8
0
100
AcDbLine
 62
7
  6
CONTINUOUS
 10
9.9728947105
 20
4.6657648245
 11
9.9728947117
 21
4.6657504747
  0
LWPOLYLINE
  5
687
100
AcDbEntity
  8
0
100
AcDbPolyline
 62
9
  6
CONTINUOUS
 90
9
 70
0
 10
9.9413986487
 20
4.8962909545
 10
9.941440959
 20
4.8990746972
 10
9.9414796256
 20
4.9023379294
 10
9.9415113187
 20
4.9057996327
 10
9.9415333091
 20
4.9091616971
 10
9.941543703
 20
4.9121345932
 10
9.9415416054
 20
4.9144623054
 10
9.9415271968
 20
4.9159443791
 10
9.9415017181
 20
4.9164531833
  0
LWPOLYLINE
  5
688
100
AcDbEntity
  8
0
100
AcDbPolyline
 62
9
  6
CONTINUOUS
 90
9
 70
0
 10
9.9416735003
 20
4.8962897738
 10
9.9417412704
 20
4.8990734053
 10
9.9417943298
 20
4.9023364492
 10
9.9418281094
 20
4.9057979382
 10
9.9418397009
 20
4.9091598178
 10
9.9418281067
 20
4.9121326101
 10
9.9417943258
 20
4.9144603393
 10
9.941741267
 20
4.9159425736
 10
9.9416735003
 20
4.9164516841
  0
LWPOLYLINE
  5
689
100
AcDbEntity
  8
0
100
AcDbPolyline
 62
9
  6
CONTINUOUS
 90
3
 70
0
 10
9.9720512759
 20
4.6795092184
 10
9.9720200541
 20
4.6789153173
 10
9.9716768219
 20
4.6781176757
  0
LINE
  5
68A
100
AcDbEntity
  8
0
100
AcDbLine
 62
7
  6
CONTINUOUS
 10
10.528735719
 20
4.5613579081
 11
10.5093400859
 21
4.5278061128
  0
LINE
  5
68B
100
AcDbEntity
  8
0
100
AcDbLine
 62
7
  6
CONTINUOUS
 10
10.2733873659
 20
4.0953266952
 11
10.2927829993
 21
4.1288784905
  0
LINE
  5
68C
100
AcDbEntity
  8
0
100
AcDbLine
 62
7
  6
CONTINUOUS
 10
10.5627924967
 20
4.5521585429
 11
10.5487141017
 21
4.5278061128
  0
LINE
  5
68D
100
AcDbEntity
  8
0
100
AcDbLine
 62
7
  6
CONTINUOUS
 10
10.3127613816
 20
4.0953266952
 11
10.3321570151
 21
4.1288784905
  0
LINE
  5
68E
100
AcDbEntity
  8
0
100
AcDbLine
 62
7
  6
CONTINUOUS
 10
10.3521353974
 20
4.0953266952
 11
10.3715310308
 21
4.1288784905
  0
LINE
  5
68F
100
AcDbEntity
  8
0
100
AcDbLine
 62
7
  6
CONTINUOUS
 10
10.3915094131
 20
4.0953266952
 11
10.4109050466
 21
4.1288784905
  0
LINE
  5
690
100
AcDbEntity
  8
0
100
AcDbLine
 62
7
  6
CONTINUOUS
 10
10.4308834289
 20
4.0953266952
 11
10.4502790623
 21
4.1288784905
  0
LWPOLYLINE
  5
691
100
AcDbEntity
  8
0
100
AcDbPolyline
 62
9
  6
CONTINUOUS
 90
10
 70
0
 10
9.9099025858
 20
4.8965658164
 10
9.9087404589
 20
4.8966824784
 10
9.9075460048
 20
4.8969998471
 10
9.9063691418
 20
4.8975310322
 10
9.9052498048
 20
4.898281503
 10
9.904233418
 20
4.8992453838
 10
9.9033676273
 20
4.9004012427
 10
9.9026791946
 20
4.9017509767
 10
9.9022084047
 20
4.9033108415
 10
9.90202857
 20
4.9050892601
  0
LWPOLYLINE
  5
692
100
AcDbEntity
  8
0
100
AcDbPolyline
 62
7
  6
CONTINUOUS
 90
3
 70
0
 10
10.2728046166
 20
4.0953266952
 10
10.2731084285
 20
4.0950750446
 10
10.2733873659
 20
4.0953266952
  0
LWPOLYLINE
  5
693
100
AcDbEntity
  8
0
100
AcDbPolyline
 62
7
  6
CONTINUOUS
 90
3
 70
0
 10
10.3121786324
 20
4.0953266952
 10
10.3124384167
 20
4.0950775491
 10
10.3127613816
 20
4.0953266952
  0
LINE
  5
694
100
AcDbEntity
  8
0
100
AcDbLine
 62
7
  6
CONTINUOUS
 10
10.1697451054
 20
4.0501487524
 11
10.1860808917
 21
4.0306935954
  0
LINE
  5
695
100
AcDbEntity
  8
0
100
AcDbLine
 62
7
  6
CONTINUOUS
 10
10.2141287046
 20
4.063400964
 11
10.2177754329
 21
4.0590583299
  0
LWPOLYLINE
  5
696
100
AcDbEntity
  8
0
100
AcDbPolyline
 62
7
  6
CONTINUOUS
 90
4
 70
0
 10
10.1860808917
 20
4.0306935954
 10
10.1859278582
 20
4.030920501
 10
10.1847603892
 20
4.0355789074
 10
10.1835929098
 20
4.0453420549
  0
LWPOLYLINE
  5
697
100
AcDbEntity
  8
0
100
AcDbPolyline
 62
7
  6
CONTINUOUS
 90
7
 70
0
 10
10.091004948
 20
4.0659016782
 10
10.1019788741
 20
4.0450309461
 10
10.1085150426
 20
4.0246320529
 10
10.1106899873
 20
4.0044315472
 10
10.1085136889
 20
3.9842319694
 10
10.1019777228
 20
3.9638366655
 10
10.091004948
 20
3.9429686467
  0
LWPOLYLINE
  5
698
100
AcDbEntity
  8
0
100
AcDbPolyline
 62
9
  6
CONTINUOUS
 90
7
 70
0
 10
9.9100056551
 20
4.7246399826
 10
9.9100152558
 20
4.724583084
 10
9.9100372463
 20
4.7237408702
 10
9.9100476402
 20
4.7219589989
 10
9.9100455425
 20
4.7193909186
 10
9.9100311339
 20
4.7162577836
 10
9.9100056551
 20
4.7128294087
  0
LWPOLYLINE
  5
699
100
AcDbEntity
  8
0
100
AcDbPolyline
 62
9
  6
CONTINUOUS
 90
7
 70
0
 10
9.9415017186
 20
4.7243651206
 10
9.9415113193
 20
4.7243082219
 10
9.9415333097
 20
4.7234660076
 10
9.9415437036
 20
4.7216841357
 10
9.9415416058
 20
4.7191160551
 10
9.941527197
 20
4.7159829204
 10
9.9415017181
 20
4.7125545468
  0
LWPOLYLINE
  5
69A
100
AcDbEntity
  8
0
100
AcDbPolyline
 62
9
  6
CONTINUOUS
 90
7
 70
0
 10
9.941819153
 20
4.7243569122
 10
9.9418280092
 20
4.7242997568
 10
9.9418395876
 20
4.7234573491
 10
9.9418279945
 20
4.7216761326
 10
9.9417942291
 20
4.7191094369
 10
9.9417411985
 20
4.7159782074
 10
9.9416734696
 20
4.7125519861
  0
LWPOLYLINE
  5
69B
100
AcDbEntity
  8
0
100
AcDbPolyline
 62
7
  6
CONTINUOUS
 90
5
 70
0
 10
10.2496979291
 20
4.1633971175
 10
10.250586969
 20
4.1490297802
 10
10.2516368377
 20
4.1370845358
 10
10.2526867065
 20
4.130494956
 10
10.2530678149
 20
4.1294685782
  0
LWPOLYLINE
  5
69C
100
AcDbEntity
  8
0
100
AcDbPolyline
 62
7
  6
CONTINUOUS
 90
4
 70
0
 10
10.2215168262
 20
4.1404300665
 10
10.2205699237
 20
4.156307279
 10
10.2177292274
 20
4.1722690388
 10
10.2129889157
 20
4.1884158838
  0
LINE
  5
69D
100
AcDbEntity
  8
0
100
AcDbLine
 62
7
  6
CONTINUOUS
 10
10.2297833598
 20
4.1396513239
 11
10.2288002236
 21
4.1633971175
  0
LWPOLYLINE
  5
69E
100
AcDbEntity
  8
0
100
AcDbPolyline
 62
7
  6
CONTINUOUS
 90
6
 70
0
 10
10.2152251958
 20
4.0992987992
 10
10.2158449168
 20
4.0828798771
 10
10.2164660094
 20
4.070585789
 10
10.2170871513
 20
4.0626428089
 10
10.2177106086
 20
4.0591600771
 10
10.2177754329
 20
4.0590583299
  0
LWPOLYLINE
  5
69F
100
AcDbEntity
  8
0
100
AcDbPolyline
 62
7
  6
CONTINUOUS
 90
6
 70
0
 10
10.1697451054
 20
4.4409291417
 10
10.1707818418
 20
4.408062472
 10
10.1720804173
 20
4.3651758358
 10
10.1733789641
 20
4.3214958681
 10
10.1746774964
 20
4.2779640151
 10
10.1759760412
 20
4.2355180782
  0
LWPOLYLINE
  5
6A0
100
AcDbEntity
  8
0
100
AcDbPolyline
 62
7
  6
CONTINUOUS
 90
6
 70
0
 10
10.1753153329
 20
4.2355180782
 10
10.174016785
 20
4.2779641162
 10
10.1727182423
 20
4.3214963192
 10
10.1714196983
 20
4.3651761908
 10
10.1701211388
 20
4.4080622955
 10
10.1697451054
 20
4.419983329
  0
LINE
  5
6A1
100
AcDbEntity
  8
0
100
AcDbLine
 62
7
  6
CONTINUOUS
 10
10.091004948
 20
4.7220430891
 11
10.091004948
 21
4.7137159566
  0
LINE
  5
6A2
100
AcDbEntity
  8
0
100
AcDbLine
 62
7
  6
CONTINUOUS
 10
10.091004948
 20
4.5907829252
 11
10.091004948
 21
4.4512753331
  0
LINE
  5
6A3
100
AcDbEntity
  8
0
100
AcDbLine
 62
7
  6
CONTINUOUS
 10
10.091004948
 20
4.2054092702
 11
10.091004948
 21
4.0659016782
  0
LINE
  5
6A4
100
AcDbEntity
  8
0
100
AcDbLine
 62
7
  6
CONTINUOUS
 10
10.091004948
 20
3.9429686467
 11
10.091004948
 21
3.9346415143
  0
LINE
  5
6A5
100
AcDbEntity
  8
0
100
AcDbLine
 62
7
  6
CONTINUOUS
 10
10.1697451054
 20
4.6433029316
 11
10.1697451054
 21
4.0133816718
  0
LINE
  5
6A6
100
AcDbEntity
  8
0
100
AcDbLine
 62
7
  6
CONTINUOUS
 10
10.2288002236
 20
4.5868052675
 11
10.2288002236
 21
4.0698793358
  0
LWPOLYLINE
  5
6A7
100
AcDbEntity
  8
0
100
AcDbPolyline
 62
7
  6
CONTINUOUS
 90
3
 70
0
 10
10.2152251958
 20
4.0992987992
 10
10.2199433197
 20
4.1199509468
 10
10.2215168262
 20
4.1404300665
  0
LINE
  5
6A8
100
AcDbEntity
  8
0
100
AcDbLine
 62
7
  6
CONTINUOUS
 10
10.4702574446
 20
4.0953266952
 11
10.4896530781
 21
4.1288784905
  0
LINE
  5
6A9
100
AcDbEntity
  8
0
100
AcDbLine
 62
7
  6
CONTINUOUS
 10
10.5096314604
 20
4.0953266952
 11
10.5290270938
 21
4.1288784905
  0
LINE
  5
6AA
100
AcDbEntity
  8
0
100
AcDbLine
 62
7
  6
CONTINUOUS
 10
10.5490054761
 20
4.0953266952
 11
10.5684011095
 21
4.1288784905
  0
LWPOLYLINE
  5
6AB
100
AcDbEntity
  8
0
100
AcDbPolyline
 62
7
  6
CONTINUOUS
 90
3
 70
0
 10
10.4696746954
 20
4.0953266952
 10
10.4699685895
 20
4.095074604
 10
10.4702574446
 20
4.0953266952
  0
LWPOLYLINE
  5
6AC
100
AcDbEntity
  8
0
100
AcDbPolyline
 62
7
  6
CONTINUOUS
 90
3
 70
0
 10
10.4303006796
 20
4.0953266952
 10
10.4305631062
 20
4.095077074
 10
10.4308834289
 20
4.0953266952
  0
LWPOLYLINE
  5
6AD
100
AcDbEntity
  8
0
100
AcDbPolyline
 62
7
  6
CONTINUOUS
 90
3
 70
0
 10
10.5484227269
 20
4.0953266952
 10
10.5486849294
 20
4.0950771127
 10
10.5490054761
 20
4.0953266952
  0
LINE
  5
6AE
100
AcDbEntity
  8
0
100
AcDbLine
 62
7
  6
CONTINUOUS
 10
10.2530678149
 20
4.1294685782
 11
10.2534089836
 21
4.1288784905
  0
LINE
  5
6AF
100
AcDbEntity
  8
0
100
AcDbLine
 62
7
  6
CONTINUOUS
 10
10.2534089836
 20
4.1288784905
 11
10.2728046166
 21
4.0953266952
  0
LINE
  5
6B0
100
AcDbEntity
  8
0
100
AcDbLine
 62
7
  6
CONTINUOUS
 10
10.2924418307
 20
4.1294685782
 11
10.2927829993
 21
4.1288784905
  0
LINE
  5
6B1
100
AcDbEntity
  8
0
100
AcDbLine
 62
7
  6
CONTINUOUS
 10
10.2927829993
 20
4.1288784905
 11
10.3121786324
 21
4.0953266952
  0
LWPOLYLINE
  5
6B2
100
AcDbEntity
  8
0
100
AcDbPolyline
 62
7
  6
CONTINUOUS
 90
4
 70
0
 10
10.1835929098
 20
4.0453420549
 10
10.1776561197
 20
4.0561504383
 10
10.1721810486
 20
4.0671291476
 10
10.1697451054
 20
4.0726159283
  0
LWPOLYLINE
  5
6B3
100
AcDbEntity
  8
0
100
AcDbPolyline
 62
7
  6
CONTINUOUS
 90
16
 70
0
 10
10.1759760412
 20
4.2355180782
 10
10.1820888314
 20
4.2243738054
 10
10.187795586
 20
4.2128633874
 10
10.1928624774
 20
4.2013032419
 10
10.1971367254
 20
4.1899861594
 10
10.2006269544
 20
4.1789096571
 10
10.2034488963
 20
4.1676107853
 10
10.2056030439
 20
4.1555895342
 10
10.2069359436
 20
4.1423643299
 10
10.207139172
 20
4.1281360834
 10
10.2060636421
 20
4.1138767134
 10
10.2037896561
 20
4.0999095152
 10
10.200387917
 20
4.0860851662
 10
10.1959281839
 20
4.0723559519
 10
10.1905134915
 20
4.0587661419
 10
10.1842536182
 20
4.0453420549
  0
LWPOLYLINE
  5
6B4
100
AcDbEntity
  8
0
100
AcDbPolyline
 62
7
  6
CONTINUOUS
 90
5
 70
0
 10
10.23372194
 20
4.0950745851
 10
10.2327547033
 20
4.0978479047
 10
10.2317727878
 20
4.1062681384
 10
10.2307783881
 20
4.1203395491
 10
10.2297833598
 20
4.1396513239
  0
LWPOLYLINE
  5
6B5
100
AcDbEntity
  8
0
100
AcDbPolyline
 62
7
  6
CONTINUOUS
 90
9
 70
0
 10
10.2152251958
 20
4.0992987992
 10
10.2123924328
 20
4.1098852082
 10
10.2101595623
 20
4.1208915189
 10
10.2086427821
 20
4.1321975095
 10
10.2079233387
 20
4.1436532536
 10
10.2080330206
 20
4.1551175895
 10
10.2089578239
 20
4.1664825496
 10
10.2106419759
 20
4.1776252822
 10
10.2129889157
 20
4.1884158838
  0
LWPOLYLINE
  5
6B6
100
AcDbEntity
  8
0
100
AcDbPolyline
 62
7
  6
CONTINUOUS
 90
7
 70
0
 10
10.091004948
 20
4.4512753331
 10
10.1019788741
 20
4.4095338689
 10
10.1085150426
 20
4.3687360826
 10
10.1106899873
 20
4.3283350711
 10
10.1085136889
 20
4.2879359156
 10
10.1019777228
 20
4.2471453078
 10
10.091004948
 20
4.2054092702
  0
LWPOLYLINE
  5
6B7
100
AcDbEntity
  8
0
100
AcDbPolyline
 62
9
  6
CONTINUOUS
 90
4
 70
0
 10
9.9716768095
 20
4.6781176757
 10
9.9723594633
 20
4.6738402287
 10
9.972762485
 20
4.6697127891
 10
9.9728947117
 20
4.6657504747
  0
LWPOLYLINE
  5
6B8
100
AcDbEntity
  8
0
100
AcDbPolyline
 62
7
  6
CONTINUOUS
 90
10
 70
0
 10
9.9720513309
 20
4.6795092249
 10
9.9708229679
 20
4.6874221627
 10
9.9688237147
 20
4.6957285757
 10
9.9662041201
 20
4.7032176344
 10
9.9628699303
 20
4.7099488812
 10
9.9588876139
 20
4.7155579506
 10
9.9545656993
 20
4.7196840012
 10
9.9499484161
 20
4.7224747893
 10
9.9448367535
 20
4.7240664674
 10
9.941819148
 20
4.7243569126
  0
LWPOLYLINE
  5
6B9
100
AcDbEntity
  8
0
100
AcDbPolyline
 62
7
  6
CONTINUOUS
 90
4
 70
0
 10
10.1842536182
 20
4.0453420549
 10
10.1855478205
 20
4.0348240787
 10
10.1868420044
 20
4.030593236
 10
10.1870538093
 20
4.030507656
  0
LWPOLYLINE
  5
6BA
100
AcDbEntity
  8
0
100
AcDbPolyline
 62
9
  6
CONTINUOUS
 90
4
 70
0
 10
9.9728947117
 20
4.8849567858
 10
9.9727625287
 20
4.8860374732
 10
9.9723595522
 20
4.8870811835
 10
9.9716768095
 20
4.8880779602
  0
LWPOLYLINE
  5
6BB
100
AcDbEntity
  8
0
100
AcDbPolyline
 62
7
  6
CONTINUOUS
 90
6
 70
0
 10
10.2681742393
 20
4.1633971175
 10
10.2691573755
 20
4.1396513239
 10
10.2701524039
 20
4.1203395491
 10
10.2711468036
 20
4.1062681384
 10
10.2721287191
 20
4.0978479047
 10
10.2728046166
 20
4.0953266952
  0
LWPOLYLINE
  5
6BC
100
AcDbEntity
  8
0
100
AcDbPolyline
 62
7
  6
CONTINUOUS
 90
6
 70
0
 10
10.307548255
 20
4.1633971175
 10
10.3085254645
 20
4.1397811205
 10
10.3095034977
 20
4.1207271583
 10
10.3104791237
 20
4.1067480725
 10
10.3114557201
 20
4.0981234506
 10
10.3121786324
 20
4.0953266952
  0
LWPOLYLINE
  5
6BD
100
AcDbEntity
  8
0
100
AcDbPolyline
 62
7
  6
CONTINUOUS
 90
6
 70
0
 10
10.4256703023
 20
4.1633971175
 10
10.4266449903
 20
4.1398363901
 10
10.4276203834
 20
4.1208148233
 10
10.4286022072
 20
4.1067360263
 10
10.4295806985
 20
4.0981058927
 10
10.4303006796
 20
4.0953266952
  0
LWPOLYLINE
  5
6BE
100
AcDbEntity
  8
0
100
AcDbPolyline
 62
7
  6
CONTINUOUS
 90
6
 70
0
 10
10.3469222708
 20
4.1633971175
 10
10.3478567258
 20
4.1407224262
 10
10.3488024254
 20
4.1220163211
 10
10.3497485919
 20
4.1079945478
 10
10.3506837104
 20
4.0990618372
 10
10.3515526481
 20
4.0953266952
  0
LWPOLYLINE
  5
6BF
100
AcDbEntity
  8
0
100
AcDbPolyline
 62
7
  6
CONTINUOUS
 90
5
 70
0
 10
10.2681742393
 20
4.1633971175
 10
10.2671915564
 20
4.1911807664
 10
10.2661969605
 20
4.2227255804
 10
10.2652029585
 20
4.2569042869
 10
10.2642215093
 20
4.2924148625
  0
LWPOLYLINE
  5
6C0
100
AcDbEntity
  8
0
100
AcDbPolyline
 62
7
  6
CONTINUOUS
 90
5
 70
0
 10
10.3862962865
 20
4.1633971175
 10
10.3853129151
 20
4.1912014973
 10
10.3843176227
 20
4.2227715539
 10
10.3833229432
 20
4.2569773788
 10
10.3823408159
 20
4.2925156674
  0
LWPOLYLINE
  5
6C1
100
AcDbEntity
  8
0
100
AcDbPolyline
 62
7
  6
CONTINUOUS
 90
5
 70
0
 10
10.303595525
 20
4.2924148625
 10
10.3045769743
 20
4.2569042869
 10
10.3055709762
 20
4.2227255804
 10
10.3065655721
 20
4.1911807664
 10
10.307548255
 20
4.1633971175
  0
LWPOLYLINE
  5
6C2
100
AcDbEntity
  8
0
100
AcDbPolyline
 62
7
  6
CONTINUOUS
 90
5
 70
0
 10
10.4217148316
 20
4.2925156674
 10
10.4226969589
 20
4.2569773788
 10
10.4236916384
 20
4.2227715539
 10
10.4246869309
 20
4.1912014973
 10
10.4256703023
 20
4.1633971175
  0
LWPOLYLINE
  5
6C3
100
AcDbEntity
  8
0
100
AcDbPolyline
 62
7
  6
CONTINUOUS
 90
11
 70
0
 10
10.2642215093
 20
4.2924148625
 10
10.262268955
 20
4.3648033368
 10
10.2612834709
 20
4.4004371644
 10
10.2603043584
 20
4.4340803415
 10
10.259322521
 20
4.4652296157
 10
10.2583287514
 20
4.4933396971
 10
10.2573353367
 20
4.5173012885
 10
10.2563545887
 20
4.536311043
 10
10.2553724764
 20
4.550252911
 10
10.2543782098
 20
4.5588255037
 10
10.253700358
 20
4.5613579082
  0
LWPOLYLINE
  5
6C4
100
AcDbEntity
  8
0
100
AcDbPolyline
 62
7
  6
CONTINUOUS
 90
6
 70
0
 10
10.3410205001
 20
4.3646741461
 10
10.343001435
 20
4.2912422644
 10
10.3439771303
 20
4.2559786129
 10
10.3449558169
 20
4.2223664597
 10
10.3459414109
 20
4.1911258843
 10
10.3469222708
 20
4.1633971175
  0
LWPOLYLINE
  5
6C5
100
AcDbEntity
  8
0
100
AcDbPolyline
 62
7
  6
CONTINUOUS
 90
11
 70
0
 10
10.3823408159
 20
4.2925156674
 10
10.3803903447
 20
4.3648275117
 10
10.3794108026
 20
4.4002500595
 10
10.3784331631
 20
4.4338560643
 10
10.3774505664
 20
4.4650487627
 10
10.3764555891
 20
4.4932135975
 10
10.3754605502
 20
4.5172321564
 10
10.3744777922
 20
4.5362915448
 10
10.373503947
 20
4.5501445419
 10
10.3725193529
 20
4.5587149306
 10
10.3718224053
 20
4.5613579082
  0
LWPOLYLINE
  5
6C6
100
AcDbEntity
  8
0
100
AcDbPolyline
 62
7
  6
CONTINUOUS
 90
3
 70
0
 10
10.3718224053
 20
4.5613579082
 10
10.3715304635
 20
4.5616100173
 10
10.371239656
 20
4.5613579081
  0
LINE
  5
6C7
100
AcDbEntity
  8
0
100
AcDbLine
 62
7
  6
CONTINUOUS
 10
10.253700358
 20
4.5613579082
 11
10.2534088337
 21
4.5616100181
  0
LWPOLYLINE
  5
6C8
100
AcDbEntity
  8
0
100
AcDbPolyline
 62
9
  6
CONTINUOUS
 90
10
 70
0
 10
9.9716768095
 20
4.8880779602
 10
9.9699282408
 20
4.8897588121
 10
9.9676128815
 20
4.891239387
 10
9.9648275434
 20
4.8925312658
 10
9.9616142337
 20
4.8936474167
 10
9.9580321214
 20
4.8945805028
 10
9.9541544998
 20
4.8953189428
 10
9.9500029919
 20
4.895859267
 10
9.9457384469
 20
4.8961820268
 10
9.9416735003
 20
4.8962897733
  0
LINE
  5
6C9
100
AcDbEntity
  8
0
100
AcDbLine
 62
7
  6
CONTINUOUS
 10
10.091004948
 20
4.7220430891
 11
10.1697451054
 21
4.6433029316
  0
LINE
  5
6CA
100
AcDbEntity
  8
0
100
AcDbLine
 62
7
  6
CONTINUOUS
 10
10.2288002578
 20
4.5868068998
 11
10.2028709168
 21
4.6127362473
  0
LINE
  5
6CB
100
AcDbEntity
  8
0
100
AcDbLine
 62
7
  6
CONTINUOUS
 10
10.1870741047
 20
4.5932836394
 11
10.1697451054
 21
4.6139204774
  0
LINE
  5
6CC
100
AcDbEntity
  8
0
100
AcDbLine
 62
7
  6
CONTINUOUS
 10
10.3318158464
 20
4.1294685782
 11
10.3321570151
 21
4.1288784905
  0
LINE
  5
6CD
100
AcDbEntity
  8
0
100
AcDbLine
 62
7
  6
CONTINUOUS
 10
10.3321570151
 20
4.1288784905
 11
10.3515526481
 21
4.0953266952
  0
LINE
  5
6CE
100
AcDbEntity
  8
0
100
AcDbLine
 62
7
  6
CONTINUOUS
 10
10.3711898622
 20
4.1294685782
 11
10.3715310308
 21
4.1288784905
  0
LINE
  5
6CF
100
AcDbEntity
  8
0
100
AcDbLine
 62
7
  6
CONTINUOUS
 10
10.3715310308
 20
4.1288784905
 11
10.3909266639
 21
4.0953266952
  0
LINE
  5
6D0
100
AcDbEntity
  8
0
100
AcDbLine
 62
7
  6
CONTINUOUS
 10
10.4105638779
 20
4.1294685782
 11
10.4109050466
 21
4.1288784905
  0
LINE
  5
6D1
100
AcDbEntity
  8
0
100
AcDbLine
 62
7
  6
CONTINUOUS
 10
10.4109050466
 20
4.1288784905
 11
10.4303006796
 21
4.0953266952
  0
LINE
  5
6D2
100
AcDbEntity
  8
0
100
AcDbLine
 62
7
  6
CONTINUOUS
 10
10.4499378937
 20
4.1294685782
 11
10.4502790623
 21
4.1288784905
  0
LINE
  5
6D3
100
AcDbEntity
  8
0
100
AcDbLine
 62
7
  6
CONTINUOUS
 10
10.4502790623
 20
4.1288784905
 11
10.4696746954
 21
4.0953266952
  0
LINE
  5
6D4
100
AcDbEntity
  8
0
100
AcDbLine
 62
7
  6
CONTINUOUS
 10
10.4893119094
 20
4.1294685782
 11
10.4896530781
 21
4.1288784905
  0
LINE
  5
6D5
100
AcDbEntity
  8
0
100
AcDbLine
 62
7
  6
CONTINUOUS
 10
10.4896530781
 20
4.1288784905
 11
10.5090487111
 21
4.0953266952
  0
LINE
  5
6D6
100
AcDbEntity
  8
0
100
AcDbLine
 62
7
  6
CONTINUOUS
 10
10.2734371598
 20
4.5272160251
 11
10.2730959914
 21
4.5278061128
  0
LINE
  5
6D7
100
AcDbEntity
  8
0
100
AcDbLine
 62
7
  6
CONTINUOUS
 10
10.2730959914
 20
4.5278061128
 11
10.253700358
 21
4.5613579082
  0
LINE
  5
6D8
100
AcDbEntity
  8
0
100
AcDbLine
 62
7
  6
CONTINUOUS
 10
10.5286859252
 20
4.1294685782
 11
10.5290270938
 21
4.1288784905
  0
LINE
  5
6D9
100
AcDbEntity
  8
0
100
AcDbLine
 62
7
  6
CONTINUOUS
 10
10.5290270938
 20
4.1288784905
 11
10.5484227269
 21
4.0953266952
  0
LWPOLYLINE
  5
6DA
100
AcDbEntity
  8
0
100
AcDbPolyline
 62
7
  6
CONTINUOUS
 90
7
 70
0
 10
10.091004948
 20
4.7137159566
 10
10.1019788741
 20
4.6928452245
 10
10.1085150426
 20
4.6724463313
 10
10.1106899873
 20
4.6522458256
 10
10.1085136889
 20
4.6320462479
 10
10.1019777228
 20
4.6116509439
 10
10.091004948
 20
4.5907829252
  0
LWPOLYLINE
  5
6DB
100
AcDbEntity
  8
0
100
AcDbPolyline
 62
7
  6
CONTINUOUS
 90
16
 70
0
 10
10.2028708972
 20
4.612736267
 10
10.2030450417
 20
4.6123754422
 10
10.2037496875
 20
4.6071272096
 10
10.2044550572
 20
4.5959146526
 10
10.205160061
 20
4.579020815
 10
10.2058674783
 20
4.5567478987
 10
10.2065831547
 20
4.5293098025
 10
10.2073015389
 20
4.4974406343
 10
10.2080141519
 20
4.4622649484
 10
10.2087236823
 20
4.4245014551
 10
10.2094380604
 20
4.3845646039
 10
10.2101513406
 20
4.3436573688
 10
10.2108595818
 20
4.3029120579
 10
10.211567942
 20
4.2629190635
 10
10.2122785485
 20
4.2244299378
 10
10.2129889157
 20
4.1884158838
  0
LWPOLYLINE
  5
6DC
100
AcDbEntity
  8
0
100
AcDbPolyline
 62
7
  6
CONTINUOUS
 90
20
 70
0
 10
10.2734371598
 20
4.5272160251
 10
10.2736840818
 20
4.5266347225
 10
10.2747339506
 20
4.520746181
 10
10.2757838194
 20
4.5094698811
 10
10.2768336881
 20
4.4931215854
 10
10.2778835569
 20
4.4721590845
 10
10.2789334257
 20
4.4471693774
 10
10.2799832944
 20
4.4188522343
 10
10.2810331632
 20
4.3880006015
 10
10.282083032
 20
4.3554783968
 10
10.2831329007
 20
4.322196318
 10
10.2841827695
 20
4.2890863411
 10
10.2852326382
 20
4.2570756229
 10
10.286282507
 20
4.2270605383
 10
10.2873323758
 20
4.1998815799
 10
10.2883822445
 20
4.1762998221
 10
10.2894321133
 20
4.1569756092
 10
10.2904819821
 20
4.1424500644
 10
10.2915318508
 20
4.133129937
 10
10.2924418307
 20
4.1294685782
  0
LWPOLYLINE
  5
6DD
100
AcDbEntity
  8
0
100
AcDbPolyline
 62
7
  6
CONTINUOUS
 90
22
 70
0
 10
10.1870741047
 20
4.5932836394
 10
10.1878060727
 20
4.5915042482
 10
10.1891784182
 20
4.5833218679
 10
10.1905507637
 20
4.5689997771
 10
10.1919231093
 20
4.5488828407
 10
10.1932954548
 20
4.523455459
 10
10.1946678004
 20
4.4933299036
 10
10.1960401459
 20
4.4592315746
 10
10.1974124915
 20
4.4219815332
 10
10.198784837
 20
4.3824767317
 10
10.2001571825
 20
4.3416684151
 10
10.2015295281
 20
4.300539216
 10
10.2029018736
 20
4.2600794936
 10
10.2042742192
 20
4.2212634868
 10
10.2056465647
 20
4.1850258549
 10
10.2070189103
 20
4.152239172
 10
10.2083912558
 20
4.1236929161
 10
10.2097636014
 20
4.1000744588
 10
10.2111359469
 20
4.0819525143
 10
10.2125082924
 20
4.0697634451
 10
10.213880638
 20
4.0638007544
 10
10.2141287046
 20
4.063400964
  0
LWPOLYLINE
  5
6DE
100
AcDbEntity
  8
0
100
AcDbPolyline
 62
7
  6
CONTINUOUS
 90
20
 70
0
 10
10.3128111755
 20
4.5272160251
 10
10.3135790949
 20
4.5243999077
 10
10.3146289637
 20
4.5158075169
 10
10.3156788325
 20
4.5019656616
 10
10.3167287012
 20
4.4832619463
 10
10.31777857
 20
4.4602201188
 10
10.3188284388
 20
4.433485404
 10
10.3198783075
 20
4.4038064364
 10
10.3209281763
 20
4.3720142967
 10
10.3219780451
 20
4.338999239
 10
10.3230279138
 20
4.3056857621
 10
10.3240777826
 20
4.2730067213
 10
10.3251276514
 20
4.2418772061
 10
10.3261775201
 20
4.2131689158
 10
10.3272273889
 20
4.1876857496
 10
10.3282772577
 20
4.1661412957
 10
10.3293271264
 20
4.1491388493
 10
10.3303769952
 20
4.1371545185
 10
10.331426864
 20
4.1305238928
 10
10.3318158464
 20
4.1294685782
  0
LWPOLYLINE
  5
6DF
100
AcDbEntity
  8
0
100
AcDbPolyline
 62
7
  6
CONTINUOUS
 90
11
 70
0
 10
10.2930743738
 20
4.5613579082
 10
10.2937522255
 20
4.5588255037
 10
10.2947464922
 20
4.550252911
 10
10.2957286045
 20
4.536311043
 10
10.2967093525
 20
4.5173012885
 10
10.2977027672
 20
4.4933396971
 10
10.2986965368
 20
4.4652296157
 10
10.2996783741
 20
4.4340803415
 10
10.3006574867
 20
4.4004371644
 10
10.3016429707
 20
4.3648033368
 10
10.303595525
 20
4.2924148625
  0
LWPOLYLINE
  5
6E0
100
AcDbEntity
  8
0
100
AcDbPolyline
 62
7
  6
CONTINUOUS
 90
6
 70
0
 10
10.3909266639
 20
4.0953266952
 10
10.3900199285
 20
4.0993250361
 10
10.3890879145
 20
4.1084217492
 10
10.3881531299
 20
4.1224225796
 10
10.3872245002
 20
4.1408605723
 10
10.3862962865
 20
4.1633971175
  0
LWPOLYLINE
  5
6E1
100
AcDbEntity
  8
0
100
AcDbPolyline
 62
7
  6
CONTINUOUS
 90
18
 70
0
 10
10.510954423
 20
4.5209388244
 10
10.5120004594
 20
4.5098310335
 10
10.5130464958
 20
4.493678083
 10
10.5140925321
 20
4.4729290049
 10
10.5151385685
 20
4.4481605974
 10
10.5161846049
 20
4.4200613913
 10
10.5172306412
 20
4.3894125093
 10
10.5182766776
 20
4.357065952
 10
10.5193227139
 20
4.3239209132
 10
10.5203687503
 20
4.2908987835
 10
10.5214147867
 20
4.2589175366
 10
10.522460823
 20
4.2288662114
 10
10.5235068594
 20
4.2015801969
 10
10.5245528958
 20
4.1778180102
 10
10.5255989321
 20
4.1582402104
 10
10.5266449685
 20
4.1433910357
 10
10.5276910049
 20
4.1336832747
 10
10.5286859252
 20
4.1294685782
  0
LWPOLYLINE
  5
6E2
100
AcDbEntity
  8
0
100
AcDbPolyline
 62
7
  6
CONTINUOUS
 90
15
 70
0
 10
10.4912674152
 20
4.5539125057
 10
10.492207057
 20
4.5425035747
 10
10.4931431233
 20
4.5263589355
 10
10.4940857182
 20
4.5056463811
 10
10.4950326709
 20
4.4808071308
 10
10.4959714959
 20
4.4527490288
 10
10.4969044592
 20
4.4221037405
 10
10.4978470648
 20
4.3890375625
 10
10.4987985878
 20
4.3542708456
 10
10.4997466658
 20
4.3190356089
 10
10.5006835777
 20
4.2844211304
 10
10.5016183518
 20
4.2508616591
 10
10.5025559492
 20
4.2189301974
 10
10.5034873477
 20
4.1896289043
 10
10.5044183338
 20
4.1633971175
  0
LWPOLYLINE
  5
6E3
100
AcDbEntity
  8
0
100
AcDbPolyline
 62
7
  6
CONTINUOUS
 90
6
 70
0
 10
10.465044318
 20
4.1633971175
 10
10.4660272387
 20
4.1396560426
 10
10.467019259
 20
4.1203938921
 10
10.4680079498
 20
4.1063701285
 10
10.4689843708
 20
4.0979310805
 10
10.4696746954
 20
4.0953266952
  0
LWPOLYLINE
  5
6E4
100
AcDbEntity
  8
0
100
AcDbPolyline
 62
7
  6
CONTINUOUS
 90
6
 70
0
 10
10.5437923495
 20
4.1633971175
 10
10.5447632329
 20
4.1399198458
 10
10.5457443961
 20
4.1207814251
 10
10.5467294892
 20
4.106675263
 10
10.5477069342
 20
4.0980808911
 10
10.5484227269
 20
4.0953266952
  0
LWPOLYLINE
  5
6E5
100
AcDbEntity
  8
0
100
AcDbPolyline
 62
7
  6
CONTINUOUS
 90
15
 70
0
 10
10.5437923495
 20
4.1633971175
 10
10.5428551512
 20
4.189814891
 10
10.5419066378
 20
4.2196978482
 10
10.540957661
 20
4.2520814141
 10
10.5400198287
 20
4.2858025406
 10
10.5390878175
 20
4.3202580931
 10
10.5381456266
 20
4.3552685747
 10
10.5371987458
 20
4.3898399292
 10
10.5362598038
 20
4.4227397241
 10
10.5353255863
 20
4.4533758169
 10
10.5343862958
 20
4.4813807864
 10
10.5334455769
 20
4.5059883741
 10
10.5325132083
 20
4.5264362392
 10
10.5315829423
 20
4.5424759807
 10
10.5306414309
 20
4.5539125057
  0
LWPOLYLINE
  5
6E6
100
AcDbEntity
  8
0
100
AcDbPolyline
 62
7
  6
CONTINUOUS
 90
6
 70
0
 10
10.5656228546
 20
4.502579275
 10
10.5649812023
 20
4.5228007974
 10
10.5643400064
 20
4.5380512358
 10
10.563699258
 20
4.5479149815
 10
10.5630589694
 20
4.5521154651
 10
10.5629847602
 20
4.5522286927
  0
LWPOLYLINE
  5
6E7
100
AcDbEntity
  8
0
100
AcDbPolyline
 62
7
  6
CONTINUOUS
 90
5
 70
0
 10
10.4611042777
 20
4.291948212
 10
10.4620807039
 20
4.2566326673
 10
10.463069435
 20
4.2226460718
 10
10.4640614429
 20
4.1911865544
 10
10.465044318
 20
4.1633971175
  0
LINE
  5
6E8
100
AcDbEntity
  8
0
100
AcDbLine
 62
7
  6
CONTINUOUS
 10
10.5831309322
 20
4.5320805964
 11
10.5831309322
 21
4.1246041264
  0
LINE
  5
6E9
100
AcDbEntity
  8
0
100
AcDbLine
 62
7
  6
CONTINUOUS
 10
10.622501011
 20
4.1246041264
 11
10.622501011
 21
4.5320804769
  0
LINE
  5
6EA
100
AcDbEntity
  8
0
100
AcDbLine
 62
7
  6
CONTINUOUS
 10
10.5831309322
 20
4.5320825151
 11
10.5629847845
 21
4.5522286684
  0
LINE
  5
6EB
100
AcDbEntity
  8
0
100
AcDbLine
 62
7
  6
CONTINUOUS
 10
10.3128111755
 20
4.5272160251
 11
10.3124700072
 21
4.5278061128
  0
LINE
  5
6EC
100
AcDbEntity
  8
0
100
AcDbLine
 62
7
  6
CONTINUOUS
 10
10.3124700072
 20
4.5278061128
 11
10.2930743738
 21
4.5613579082
  0
LINE
  5
6ED
100
AcDbEntity
  8
0
100
AcDbLine
 62
7
  6
CONTINUOUS
 10
10.5680599409
 20
4.1294685782
 11
10.575262246
 21
4.1170112187
  0
LINE
  5
6EE
100
AcDbEntity
  8
0
100
AcDbLine
 62
7
  6
CONTINUOUS
 10
10.3521851913
 20
4.5272160251
 11
10.3518440229
 21
4.5278061128
  0
LINE
  5
6EF
100
AcDbEntity
  8
0
100
AcDbLine
 62
7
  6
CONTINUOUS
 10
10.3518440229
 20
4.5278061128
 11
10.3324483895
 21
4.5613579082
  0
LINE
  5
6F0
100
AcDbEntity
  8
0
100
AcDbLine
 62
7
  6
CONTINUOUS
 10
10.391559207
 20
4.5272160251
 11
10.3912180387
 21
4.5278061128
  0
LINE
  5
6F1
100
AcDbEntity
  8
0
100
AcDbLine
 62
7
  6
CONTINUOUS
 10
10.3912180387
 20
4.5278061128
 11
10.3718224053
 21
4.5613579082
  0
LINE
  5
6F2
100
AcDbEntity
  8
0
100
AcDbLine
 62
7
  6
CONTINUOUS
 10
10.4309332228
 20
4.5272160251
 11
10.4305920544
 21
4.5278061128
  0
LINE
  5
6F3
100
AcDbEntity
  8
0
100
AcDbLine
 62
7
  6
CONTINUOUS
 10
10.4305920544
 20
4.5278061128
 11
10.411196421
 21
4.5613579082
  0
LINE
  5
6F4
100
AcDbEntity
  8
0
100
AcDbLine
 62
7
  6
CONTINUOUS
 10
10.4703072385
 20
4.5272160251
 11
10.4699660702
 21
4.5278061128
  0
LINE
  5
6F5
100
AcDbEntity
  8
0
100
AcDbLine
 62
7
  6
CONTINUOUS
 10
10.4699660702
 20
4.5278061128
 11
10.4505704368
 21
4.5613579082
  0
LINE
  5
6F6
100
AcDbEntity
  8
0
100
AcDbLine
 62
7
  6
CONTINUOUS
 10
10.5096812543
 20
4.5272160251
 11
10.5093400859
 21
4.5278061128
  0
LINE
  5
6F7
100
AcDbEntity
  8
0
100
AcDbLine
 62
7
  6
CONTINUOUS
 10
10.5093400859
 20
4.5278061128
 11
10.4899444525
 21
4.5613579082
  0
LWPOLYLINE
  5
6F8
100
AcDbEntity
  8
0
100
AcDbPolyline
 62
7
  6
CONTINUOUS
 90
20
 70
0
 10
10.4309332228
 20
4.5272160251
 10
10.4311643968
 20
4.5266809986
 10
10.4322142655
 20
4.5208749139
 10
10.4332641343
 20
4.5096774658
 10
10.4343140031
 20
4.4934022091
 10
10.4353638718
 20
4.4725048891
 10
10.4364137406
 20
4.4475706795
 10
10.4374636094
 20
4.4192977966
 10
10.4385134781
 20
4.3884779472
 10
10.4395633469
 20
4.355974159
 10
10.4406132157
 20
4.3226966143
 10
10.4416630844
 20
4.289577162
 10
10.4427129532
 20
4.2575432242
 10
10.443762822
 20
4.2274918262
 10
10.4448126907
 20
4.2002644773
 10
10.4458625595
 20
4.1766236069
 10
10.4469124283
 20
4.1572312148
 10
10.447962297
 20
4.1426303332
 10
10.4490121658
 20
4.1332298209
 10
10.4499378937
 20
4.1294685782
  0
LWPOLYLINE
  5
6F9
100
AcDbEntity
  8
0
100
AcDbPolyline
 62
7
  6
CONTINUOUS
 90
20
 70
0
 10
10.3521851913
 20
4.5272160251
 10
10.3524242393
 20
4.5266580171
 10
10.3534741081
 20
4.5208106994
 10
10.3545239768
 20
4.5095738165
 10
10.3555738456
 20
4.4932620275
 10
10.3566237144
 20
4.4723321005
 10
10.3576735831
 20
4.4473701224
 10
10.3587234519
 20
4.4190750871
 10
10.3597733207
 20
4.3882393216
 10
10.3608231894
 20
4.3557262995
 10
10.3618730582
 20
4.3224464615
 10
10.362922927
 20
4.2893317207
 10
10.3639727957
 20
4.2573093675
 10
10.3650226645
 20
4.2272761025
 10
10.3660725333
 20
4.2000729273
 10
10.367122402
 20
4.1764615946
 10
10.3681722708
 20
4.1571032768
 10
10.3692221396
 20
4.1425400521
 10
10.3702720083
 20
4.1331797249
 10
10.3711898622
 20
4.1294685782
  0
LWPOLYLINE
  5
6FA
100
AcDbEntity
  8
0
100
AcDbPolyline
 62
7
  6
CONTINUOUS
 90
3
 70
0
 10
10.4899444525
 20
4.5613579082
 10
10.4903308637
 20
4.5602469221
 10
10.4912674152
 20
4.5539125057
  0
LWPOLYLINE
  5
6FB
100
AcDbEntity
  8
0
100
AcDbPolyline
 62
7
  6
CONTINUOUS
 90
20
 70
0
 10
10.4703072385
 20
4.5272160251
 10
10.4710594099
 20
4.5244874106
 10
10.4721092787
 20
4.5159759713
 10
10.4731591474
 20
4.5022103505
 10
10.4742090162
 20
4.4835760178
 10
10.475258885
 20
4.4605947782
 10
10.4763087537
 20
4.4339101599
 10
10.4773586225
 20
4.4042693947
 10
10.4784084913
 20
4.3725024935
 10
10.47945836
 20
4.3394990036
 10
10.4805082288
 20
4.3061830999
 10
10.4815580976
 20
4.2734877057
 10
10.4826079663
 20
4.2423283685
 10
10.4836578351
 20
4.2135776225
 10
10.4847077039
 20
4.1880405559
 10
10.4857575726
 20
4.1664322662
 10
10.4868074414
 20
4.1493578361
 10
10.4878573102
 20
4.1372953895
 10
10.4889071789
 20
4.1305827032
 10
10.4893119094
 20
4.1294685782
  0
LWPOLYLINE
  5
6FC
100
AcDbEntity
  8
0
100
AcDbPolyline
 62
7
  6
CONTINUOUS
 90
20
 70
0
 10
10.391559207
 20
4.5272160251
 10
10.3923192524
 20
4.524443814
 10
10.3933691212
 20
4.5158918921
 10
10.39441899
 20
4.5020881432
 10
10.3954688587
 20
4.4834191045
 10
10.3965187275
 20
4.4604075527
 10
10.3975685963
 20
4.4336978651
 10
10.398618465
 20
4.4040379753
 10
10.3996683338
 20
4.3722584297
 10
10.4007182026
 20
4.3392491299
 10
10.4017680713
 20
4.3059344133
 10
10.4028179401
 20
4.27324717
 10
10.4038678089
 20
4.2421027192
 10
10.4049176776
 20
4.2133731784
 10
10.4059675464
 20
4.1878630418
 10
10.4070174152
 20
4.166286653
 10
10.4080672839
 20
4.1492482013
 10
10.4091171527
 20
4.1372248032
 10
10.4101670215
 20
4.1305531418
 10
10.4105638779
 20
4.1294685782
  0
LWPOLYLINE
  5
6FD
100
AcDbEntity
  8
0
100
AcDbPolyline
 62
7
  6
CONTINUOUS
 90
11
 70
0
 10
10.4505704368
 20
4.5613579082
 10
10.4512507713
 20
4.5588112485
 10
10.4522467978
 20
4.550204183
 10
10.453230529
 20
4.5362121271
 10
10.4542064906
 20
4.5172778196
 10
10.4551826734
 20
4.4937642827
 10
10.4561651543
 20
4.4660555306
 10
10.4571446339
 20
4.4350680183
 10
10.4581279347
 20
4.401343371
 10
10.4591238175
 20
4.3653626773
 10
10.4611042777
 20
4.291948212
  0
LWPOLYLINE
  5
6FE
100
AcDbEntity
  8
0
100
AcDbPolyline
 62
7
  6
CONTINUOUS
 90
11
 70
0
 10
10.411196421
 20
4.5613579082
 10
10.4118933686
 20
4.5587149306
 10
10.4128779628
 20
4.5501445419
 10
10.413851808
 20
4.5362915448
 10
10.4148345659
 20
4.5172321564
 10
10.4158296049
 20
4.4932135975
 10
10.4168245822
 20
4.4650487627
 10
10.4178071789
 20
4.4338560643
 10
10.4187848184
 20
4.4002500595
 10
10.4197643604
 20
4.3648275117
 10
10.4217148316
 20
4.2925156674
  0
LWPOLYLINE
  5
6FF
100
AcDbEntity
  8
0
100
AcDbPolyline
 62
7
  6
CONTINUOUS
 90
10
 70
0
 10
10.3324483895
 20
4.5613579082
 10
10.3331468382
 20
4.5587061481
 10
10.3341432119
 20
4.5499909623
 10
10.3351270754
 20
4.5358971456
 10
10.3361058396
 20
4.5168095983
 10
10.3370856467
 20
4.4931062983
 10
10.3380624438
 20
4.4654739058
 10
10.3390399594
 20
4.4344925776
 10
10.3400240331
 20
4.4007015401
 10
10.3410205001
 20
4.3646741461
  0
LWPOLYLINE
  5
700
100
AcDbEntity
  8
0
100
AcDbPolyline
 62
7
  6
CONTINUOUS
 90
6
 70
0
 10
10.5090487111
 20
4.0953266952
 10
10.5083455011
 20
4.0980064005
 10
10.5073651177
 20
4.1065637228
 10
10.5063768199
 20
4.1206721419
 10
10.5053923975
 20
4.1398500806
 10
10.5044183338
 20
4.1633971175
  0
LWPOLYLINE
  5
701
100
AcDbEntity
  8
0
100
AcDbPolyline
 62
7
  6
CONTINUOUS
 90
16
 70
0
 10
10.575262246
 20
4.1170112187
 10
10.5746560954
 20
4.12052005
 10
10.5740077214
 20
4.1296556176
 10
10.5733598351
 20
4.1441341824
 10
10.5727124353
 20
4.1635908389
 10
10.5720655278
 20
4.1875271817
 10
10.5714191018
 20
4.2153253106
 10
10.5707731536
 20
4.2462634082
 10
10.570127695
 20
4.2795340896
 10
10.5694827256
 20
4.3142670298
 10
10.5688382281
 20
4.3495523617
 10
10.5681942012
 20
4.3844627731
 10
10.5675506569
 20
4.4180780564
 10
10.566907589
 20
4.4495110074
 10
10.5662649857
 20
4.4779299137
 10
10.5656228546
 20
4.502579275
  0
LWPOLYLINE
  5
702
100
AcDbEntity
  8
0
100
AcDbPolyline
 62
7
  6
CONTINUOUS
 90
3
 70
0
 10
10.5306414309
 20
4.5539125057
 10
10.5296943696
 20
4.5602888273
 10
10.5293184682
 20
4.5613579082
  0
LINE
  5
703
100
AcDbEntity
  8
0
100
AcDbLine
 62
7
  6
CONTINUOUS
 10
10.54905527
 20
4.5272160251
 11
10.5487141017
 21
4.5278061128
  0
LINE
  5
704
100
AcDbEntity
  8
0
100
AcDbLine
 62
7
  6
CONTINUOUS
 10
10.5487141017
 20
4.5278061128
 11
10.5293184682
 21
4.5613579082
  0
LWPOLYLINE
  5
705
100
AcDbEntity
  8
0
100
AcDbPolyline
 62
7
  6
CONTINUOUS
 90
3
 70
0
 10
10.5096812543
 20
4.5272160251
 10
10.5099045543
 20
4.526703667
 10
10.510954423
 20
4.5209388244
  0
LWPOLYLINE
  5
706
100
AcDbEntity
  8
0
100
AcDbPolyline
 62
7
  6
CONTINUOUS
 90
20
 70
0
 10
10.54905527
 20
4.5272160251
 10
10.5496577685
 20
4.525257149
 10
10.5507038049
 20
4.5175557658
 10
10.5517498413
 20
4.5045944852
 10
10.5527958776
 20
4.4867336145
 10
10.553841914
 20
4.4644696636
 10
10.5548879504
 20
4.4384215425
 10
10.5559339867
 20
4.4093133563
 10
10.5569800231
 20
4.3779542762
 10
10.5580260595
 20
4.3452160452
 10
10.5590720958
 20
4.3120087454
 10
10.5601181322
 20
4.2792554979
 10
10.5611641685
 20
4.2478668022
 10
10.5622102049
 20
4.2187152245
 10
10.5632562413
 20
4.1926111424
 10
10.5643022776
 20
4.1702802166
 10
10.565348314
 20
4.1523432188
 10
10.5663943504
 20
4.1392987752
 10
10.5674403867
 20
4.131509505
 10
10.5680599409
 20
4.1294685782
  0
LINE
  5
707
100
AcDbEntity
  8
0
100
AcDbLine
 62
9
  6
CONTINUOUS
 10
12.3252016022
 20
4.6804176667
 11
12.3469071424
 21
4.702123207
  0
LINE
  5
708
100
AcDbEntity
  8
0
100
AcDbLine
 62
9
  6
CONTINUOUS
 10
12.5111563554
 20
4.86637242
 11
12.5328618956
 21
4.8880779602
  0
LWPOLYLINE
  5
709
100
AcDbEntity
  8
0
100
AcDbPolyline
 62
9
  6
CONTINUOUS
 90
4
 70
0
 10
12.3252016048
 20
4.6804176694
 10
12.3233454543
 20
4.6796895544
 10
12.3214762805
 20
4.6789153173
 10
12.3196489291
 20
4.6781176757
  0
LWPOLYLINE
  5
70A
100
AcDbEntity
  8
0
100
AcDbPolyline
 62
9
  6
CONTINUOUS
 90
4
 70
0
 10
12.532861882
 20
4.8880779466
 10
12.5335900004
 20
4.8899341066
 10
12.5343642413
 20
4.8918032901
 10
12.5351618867
 20
4.893630651
  0
LINE
  5
70B
100
AcDbEntity
  8
0
100
AcDbLine
 62
7
  6
CONTINUOUS
 10
12.8437625936
 20
4.7137159566
 11
12.6308363372
 21
4.5907829252
  0
LINE
  5
70C
100
AcDbEntity
  8
0
100
AcDbLine
 62
7
  6
CONTINUOUS
 10
12.8317838554
 20
4.5424759807
 11
12.8648774596
 21
4.5539125057
  0
LWPOLYLINE
  5
70D
100
AcDbEntity
  8
0
100
AcDbPolyline
 62
9
  6
CONTINUOUS
 90
10
 70
0
 10
12.2963797284
 20
4.7408400471
 10
12.2963836509
 20
4.7349207541
 10
12.2963939229
 20
4.729745118
 10
12.296408942
 20
4.7252810389
 10
12.2964278316
 20
4.7214721757
 10
12.2964500125
 20
4.7183104717
 10
12.2964744362
 20
4.7158664734
 10
12.2965001169
 20
4.7141563385
 10
12.296526175
 20
4.7131592048
 10
12.2965515172
 20
4.7128294087
  0
LINE
  5
70E
100
AcDbEntity
  8
0
100
AcDbLine
 62
7
  6
CONTINUOUS
 10
12.2943860796
 20
4.8204682859
 11
12.2943860796
 21
3.8362163174
  0
LINE
  5
70F
100
AcDbEntity
  8
AXIS_COSMETIC_THREADS
100
AcDbLine
 62
7
  6
CONTINUOUS
 10
12.2943860796
 20
3.8362163174
 11
12.2943860796
 21
4.8204682859
  0
LINE
  5
710
100
AcDbEntity
  8
0
100
AcDbLine
 62
7
  6
CONTINUOUS
 10
12.2963797284
 20
4.8204682859
 11
12.2963797284
 21
4.7408400471
  0
LINE
  5
711
100
AcDbEntity
  8
0
100
AcDbLine
 62
9
  6
CONTINUOUS
 10
12.2968278783
 20
4.7125519876
 11
12.2968278783
 21
3.8362163174
  0
LINE
  5
712
100
AcDbEntity
  8
0
100
AcDbLine
 62
9
  6
CONTINUOUS
 10
12.3081903023
 20
4.8204682859
 11
12.3081903023
 21
4.7408400471
  0
LINE
  5
713
100
AcDbEntity
  8
0
100
AcDbLine
 62
9
  6
CONTINUOUS
 10
12.328322742
 20
4.6657504747
 11
12.328322742
 21
3.8362163174
  0
LWPOLYLINE
  5
714
100
AcDbEntity
  8
0
100
AcDbPolyline
 62
7
  6
CONTINUOUS
 90
20
 70
0
 10
12.295691674
 20
4.4288423017
 10
12.2955473337
 20
4.427471945
 10
12.2954068257
 20
4.4233941578
 10
12.2952742908
 20
4.4167323018
 10
12.2951528804
 20
4.4076421637
 10
12.2950464662
 20
4.3964164496
 10
12.2949573547
 20
4.383296165
 10
12.2948885424
 20
4.3687251108
 10
12.2948414233
 20
4.3529963736
 10
12.2948176311
 20
4.336657812
 10
12.2948176311
 20
4.3200267914
 10
12.2948414233
 20
4.3036882297
 10
12.2948885424
 20
4.2879594926
 10
12.2949573547
 20
4.2733884383
 10
12.2950464662
 20
4.2602681537
 10
12.2951528804
 20
4.2490424397
 10
12.2952742908
 20
4.2399523015
 10
12.2954068257
 20
4.2332904455
 10
12.2955473337
 20
4.2292126584
 10
12.295691674
 20
4.2278423017
  0
LWPOLYLINE
  5
715
100
AcDbEntity
  8
0
100
AcDbPolyline
 62
7
  6
CONTINUOUS
 90
20
 70
0
 10
12.295691674
 20
4.2278423017
 10
12.2958360143
 20
4.2292126584
 10
12.2959765223
 20
4.2332904455
 10
12.2961090572
 20
4.2399523015
 10
12.2962304676
 20
4.2490424397
 10
12.2963368818
 20
4.2602681537
 10
12.2964259933
 20
4.2733884383
 10
12.2964948056
 20
4.2879594926
 10
12.2965419248
 20
4.3036882297
 10
12.2965657169
 20
4.3200267914
 10
12.2965657169
 20
4.336657812
 10
12.2965419248
 20
4.3529963736
 10
12.2964948056
 20
4.3687251108
 10
12.2964259933
 20
4.383296165
 10
12.2963368818
 20
4.3964164496
 10
12.2962304676
 20
4.4076421637
 10
12.2961090572
 20
4.4167323018
 10
12.2959765223
 20
4.4233941578
 10
12.2958360143
 20
4.427471945
 10
12.295691674
 20
4.4288423017
  0
LINE
  5
716
100
AcDbEntity
  8
0
100
AcDbLine
 62
7
  6
CONTINUOUS
 10
12.3790317489
 20
4.7692478135
 11
12.3790317489
 21
4.7992478135
  0
LINE
  5
717
100
AcDbEntity
  8
0
100
AcDbLine
 62
9
  6
CONTINUOUS
 10
12.3928112765
 20
3.7717277829
 11
12.3928112765
 21
3.7377911206
  0
LINE
  5
718
100
AcDbEntity
  8
0
100
AcDbLine
 62
9
  6
CONTINUOUS
 10
12.3928112765
 20
4.9050892601
 11
12.3928112765
 21
4.9188934828
  0
LINE
  5
719
100
AcDbEntity
  8
0
100
AcDbLine
 62
7
  6
CONTINUOUS
 10
12.4140317489
 20
4.7342478135
 11
12.4140317489
 21
4.7692478135
  0
LINE
  5
71A
100
AcDbEntity
  8
0
100
AcDbLine
 62
7
  6
CONTINUOUS
 10
12.4140317489
 20
4.7992478135
 11
12.4140317489
 21
4.8342478135
  0
LINE
  5
71B
100
AcDbEntity
  8
0
100
AcDbLine
 62
7
  6
CONTINUOUS
 10
12.4440317489
 20
4.8342478135
 11
12.4440317489
 21
4.7992478135
  0
LINE
  5
71C
100
AcDbEntity
  8
0
100
AcDbLine
 62
7
  6
CONTINUOUS
 10
12.4440317489
 20
4.7692478135
 11
12.4440317489
 21
4.7342478135
  0
LINE
  5
71D
100
AcDbEntity
  8
0
100
AcDbLine
 62
9
  6
CONTINUOUS
 10
12.4724395153
 20
4.9050892601
 11
12.4724395153
 21
4.916899834
  0
LINE
  5
71E
100
AcDbEntity
  8
0
100
AcDbLine
 62
7
  6
CONTINUOUS
 10
12.4790317489
 20
4.7992478135
 11
12.4790317489
 21
4.7692478135
  0
LINE
  5
71F
100
AcDbEntity
  8
0
100
AcDbLine
 62
7
  6
CONTINUOUS
 10
12.5502915914
 20
4.4512753331
 11
12.5502915914
 21
4.2054092702
  0
LINE
  5
720
100
AcDbEntity
  8
0
100
AcDbLine
 62
9
  6
CONTINUOUS
 10
12.316989789
 20
4.7209033245
 11
12.3252016022
 21
4.6804176667
  0
LWPOLYLINE
  5
721
100
AcDbEntity
  8
0
100
AcDbPolyline
 62
9
  6
CONTINUOUS
 90
4
 70
0
 10
12.3252016022
 20
4.6804176667
 10
12.3261982747
 20
4.6754158909
 10
12.3272419702
 20
4.6705181521
 10
12.328322742
 20
4.6657504747
  0
LINE
  5
722
100
AcDbEntity
  8
0
100
AcDbLine
 62
7
  6
CONTINUOUS
 10
13.0602460793
 20
4.1387783637
 11
13.0883970787
 21
4.1625460862
  0
LWPOLYLINE
  5
723
100
AcDbEntity
  8
0
100
AcDbPolyline
 62
7
  6
CONTINUOUS
 90
12
 70
0
 10
13.0604527737
 20
4.0641599419
 10
13.0938995916
 20
4.0850580835
 10
13.1245105385
 20
4.1104313659
 10
13.151493935
 20
4.1397429329
 10
13.1740970114
 20
4.1721082881
 10
13.1920327045
 20
4.2068891828
 10
13.2051804509
 20
4.2437129769
 10
13.2133153649
 20
4.2819726419
 10
13.2162736525
 20
4.32076178
 10
13.2140823592
 20
4.3593385558
 10
13.2068154341
 20
4.3972508923
 10
13.1945778707
 20
4.4338962408
  0
LINE
  5
724
100
AcDbEntity
  8
0
100
AcDbLine
 62
7
  6
CONTINUOUS
 10
13.0246867156
 20
4.0479328564
 11
13.0604527737
 21
4.0641599419
  0
LWPOLYLINE
  5
725
100
AcDbEntity
  8
0
100
AcDbPolyline
 62
9
  6
CONTINUOUS
 90
10
 70
0
 10
12.3081903023
 20
4.7408400471
 10
12.3099687213
 20
4.736695323
 10
12.3115285855
 20
4.7330694406
 10
12.3128783198
 20
4.7299400345
 10
12.3140341785
 20
4.7272682137
 10
12.3149980594
 20
4.7250487769
 10
12.3157485302
 20
4.7233304477
 10
12.3162797153
 20
4.7221255082
 10
12.316597084
 20
4.7214196752
 10
12.3167137459
 20
4.7211810636
  0
LINE
  5
726
100
AcDbEntity
  8
0
100
AcDbLine
 62
9
  6
CONTINUOUS
 10
12.3169886079
 20
4.7209062016
 11
12.316989789
 21
4.7209033245
  0
LWPOLYLINE
  5
727
100
AcDbEntity
  8
0
100
AcDbPolyline
 62
7
  6
CONTINUOUS
 90
17
 70
0
 10
12.7131309123
 20
4.2795340896
 10
12.7073750608
 20
4.3142670298
 10
12.7073085187
 20
4.3495523617
 10
12.712954316
 20
4.3844627731
 10
12.7241849444
 20
4.4180780564
 10
12.740725987
 20
4.4495110074
 10
12.7621634954
 20
4.4779299137
 10
12.787953808
 20
4.502579275
 10
12.8174380613
 20
4.5228007974
 10
12.8498608945
 20
4.5380512358
 10
12.8843882697
 20
4.5479149815
 10
12.9201283406
 20
4.5521154651
 10
12.9561554626
 20
4.5505232969
 10
12.9915361445
 20
4.5431594315
 10
13.0253516383
 20
4.5301941945
 10
13.0567209694
 20
4.5119435007
 10
13.0848252689
 20
4.4888602312
  0
LINE
  5
728
100
AcDbEntity
  8
AXIS_COSMETIC_THREADS
100
AcDbLine
 62
2
  6
CENTER
 10
12.9243073394
 20
4.3283423017
 11
12.9243073394
 21
3.6405470261
  0
LINE
  5
729
100
AcDbEntity
  8
AXIS_COSMETIC_THREADS
100
AcDbLine
 62
2
  6
CENTER
 10
12.9243073394
 20
4.3283423017
 11
12.9243073394
 21
5.0161375773
  0
LWPOLYLINE
  5
72A
100
AcDbEntity
  8
0
100
AcDbPolyline
 62
7
  6
CONTINUOUS
 90
10
 70
0
 10
13.1120407782
 20
4.1909521394
 10
13.1306771657
 20
4.2223175589
 10
13.1440688611
 20
4.2559056846
 10
13.1520808081
 20
4.2912894054
 10
13.154451306
 20
4.3271850421
 10
13.1512204956
 20
4.3628816119
 10
13.1424169104
 20
4.3978000176
 10
13.1280526209
 20
4.4312711535
 10
13.1085770888
 20
4.461990634
 10
13.0848252689
 20
4.4888602312
  0
LWPOLYLINE
  5
72B
100
AcDbEntity
  8
0
100
AcDbPolyline
 62
7
  6
CONTINUOUS
 90
6
 70
0
 10
13.1259774183
 20
4.156197655
 10
13.1083351378
 20
4.1283803958
 10
13.0869128657
 20
4.102429046
 10
13.06212755
 20
4.0790236059
 10
13.0342009954
 20
4.0584920164
 10
13.0034557722
 20
4.0412168905
  0
LINE
  5
72C
100
AcDbEntity
  8
0
100
AcDbLine
 62
7
  6
CONTINUOUS
 10
13.0883970787
 20
4.1625460862
 11
13.1120407782
 21
4.1909521394
  0
LINE
  5
72D
100
AcDbEntity
  8
0
100
AcDbLine
 62
7
  6
CONTINUOUS
 10
13.0048520853
 20
3.9429686467
 11
13.2177783417
 21
4.0659016782
  0
LWPOLYLINE
  5
72E
100
AcDbEntity
  8
0
100
AcDbPolyline
 62
7
  6
CONTINUOUS
 90
9
 70
0
 10
12.9243073394
 20
3.7386672431
 10
12.9339080375
 20
3.738675495
 10
12.9431398465
 20
3.7386999335
 10
12.9516479961
 20
3.7387396199
 10
12.95910554
 20
3.7387930294
 10
12.9652258531
 20
3.7388581097
 10
12.9697737141
 20
3.7389323603
 10
12.972574293
 20
3.7390129275
 10
12.9735199379
 20
3.739096715
  0
LWPOLYLINE
  5
72F
100
AcDbEntity
  8
0
100
AcDbPolyline
 62
7
  6
CONTINUOUS
 90
9
 70
0
 10
12.9243073394
 20
3.7395261868
 10
12.9147066414
 20
3.739517935
 10
12.9054748324
 20
3.7394934964
 10
12.8969666828
 20
3.7394538101
 10
12.8895091389
 20
3.7394004006
 10
12.8833888258
 20
3.7393353202
 10
12.8788409648
 20
3.7392610696
 10
12.8760403859
 20
3.7391805025
 10
12.875094741
 20
3.739096715
  0
LINE
  5
730
100
AcDbEntity
  8
AXIS_COSMETIC_THREADS
100
AcDbLine
 62
7
  6
CONTINUOUS
 10
13.4558034024
 20
3.7377911206
 11
12.3928112765
 21
3.7377911206
  0
LINE
  5
731
100
AcDbEntity
  8
0
100
AcDbLine
 62
7
  6
CONTINUOUS
 10
12.3928112765
 20
3.7377911206
 11
13.4558034024
 21
3.7377911206
  0
LINE
  5
732
100
AcDbEntity
  8
0
100
AcDbLine
 62
7
  6
CONTINUOUS
 10
13.3761751636
 20
3.7397847694
 11
13.4558034024
 21
3.7397847694
  0
LINE
  5
733
100
AcDbEntity
  8
0
100
AcDbLine
 62
9
  6
CONTINUOUS
 10
12.3928112765
 20
3.7402329192
 11
13.3478871041
 21
3.7402329192
  0
LINE
  5
734
100
AcDbEntity
  8
0
100
AcDbLine
 62
9
  6
CONTINUOUS
 10
13.3761751636
 20
3.7515953433
 11
13.4558034024
 21
3.7515953433
  0
LINE
  5
735
100
AcDbEntity
  8
0
100
AcDbLine
 62
9
  6
CONTINUOUS
 10
12.3928112765
 20
3.7717277829
 11
13.3010855912
 21
3.7717277829
  0
LWPOLYLINE
  5
736
100
AcDbEntity
  8
0
100
AcDbPolyline
 62
9
  6
CONTINUOUS
 90
10
 70
0
 10
13.3481645252
 20
3.7399565581
 10
13.3484943215
 20
3.739931216
 10
13.349491455
 20
3.7399051579
 10
13.3512015899
 20
3.7398794771
 10
13.3536455882
 20
3.7398550534
 10
13.3568072922
 20
3.7398328726
 10
13.3606161554
 20
3.739813983
 10
13.3650802345
 20
3.7397989639
 10
13.3702558705
 20
3.7397886919
 10
13.3761751636
 20
3.7397847694
  0
LWPOLYLINE
  5
737
100
AcDbEntity
  8
0
100
AcDbPolyline
 62
7
  6
CONTINUOUS
 90
9
 70
0
 10
12.875094741
 20
3.739096715
 10
12.8760403859
 20
3.7390129275
 10
12.8788409648
 20
3.7389323603
 10
12.8833888258
 20
3.7388581097
 10
12.8895091389
 20
3.7387930294
 10
12.8969666828
 20
3.7387396199
 10
12.9054748324
 20
3.7386999335
 10
12.9147066414
 20
3.738675495
 10
12.9243073394
 20
3.7386672431
  0
LWPOLYLINE
  5
738
100
AcDbEntity
  8
0
100
AcDbPolyline
 62
7
  6
CONTINUOUS
 90
9
 70
0
 10
12.9735199379
 20
3.739096715
 10
12.972574293
 20
3.7391805025
 10
12.9697737141
 20
3.7392610696
 10
12.9652258531
 20
3.7393353202
 10
12.95910554
 20
3.7394004006
 10
12.9516479961
 20
3.7394538101
 10
12.9431398465
 20
3.7394934964
 10
12.9339080375
 20
3.739517935
 10
12.9243073394
 20
3.7395261868
  0
LWPOLYLINE
  5
739
100
AcDbEntity
  8
0
100
AcDbPolyline
 62
9
  6
CONTINUOUS
 90
4
 70
0
 10
12.3196489326
 20
4.6781176757
 10
12.3225408784
 20
4.6738402287
 10
12.3254397295
 20
4.6697127891
 10
12.328322742
 20
4.6657504747
  0
LINE
  5
73A
100
AcDbEntity
  8
0
100
AcDbLine
 62
9
  6
CONTINUOUS
 10
12.2968278783
 20
4.7125519876
 11
12.3196489326
 21
4.6781176757
  0
LINE
  5
73B
100
AcDbEntity
  8
0
100
AcDbLine
 62
9
  6
CONTINUOUS
 10
12.2968263791
 20
4.7125545468
 11
12.2968278783
 21
4.7125519876
  0
LWPOLYLINE
  5
73C
100
AcDbEntity
  8
0
100
AcDbPolyline
 62
7
  6
CONTINUOUS
 90
7
 70
0
 10
12.672295345
 20
4.2045298258
 10
12.6728592266
 20
4.2030837031
 10
12.6932566347
 20
4.1673227723
 10
12.718702725
 20
4.1348609061
 10
12.7486671428
 20
4.1064050203
 10
12.7825219585
 20
4.0825769594
 10
12.8061786725
 20
4.0706464983
  0
LWPOLYLINE
  5
73D
100
AcDbEntity
  8
0
100
AcDbPolyline
 62
7
  6
CONTINUOUS
 90
5
 70
0
 10
13.1547119715
 20
4.2919069738
 10
13.1461973124
 20
4.2563793425
 10
13.1323075915
 20
4.2227500543
 10
13.1132708543
 20
4.1915701641
 10
13.0892747252
 20
4.1634193221
  0
LWPOLYLINE
  5
73E
100
AcDbEntity
  8
0
100
AcDbPolyline
 62
9
  6
CONTINUOUS
 90
4
 70
0
 10
13.5234130741
 20
3.976266934
 10
13.5252692246
 20
3.9769950489
 10
13.5271383984
 20
3.9777692861
 10
13.5289657498
 20
3.9785669276
  0
LINE
  5
73F
100
AcDbEntity
  8
0
100
AcDbLine
 62
7
  6
CONTINUOUS
 10
13.43458293
 20
3.8224367899
 11
13.40458293
 21
3.8224367899
  0
LINE
  5
740
100
AcDbEntity
  8
0
100
AcDbLine
 62
9
  6
CONTINUOUS
 10
12.328322742
 20
3.8362163174
 11
12.2943860796
 21
3.8362163174
  0
LINE
  5
741
100
AcDbEntity
  8
0
100
AcDbLine
 62
9
  6
CONTINUOUS
 10
13.5404243766
 20
3.8362163174
 11
13.5542285993
 21
3.8362163174
  0
LINE
  5
742
100
AcDbEntity
  8
0
100
AcDbLine
 62
7
  6
CONTINUOUS
 10
13.46958293
 20
3.8574367899
 11
13.43458293
 21
3.8574367899
  0
LINE
  5
743
100
AcDbEntity
  8
0
100
AcDbLine
 62
7
  6
CONTINUOUS
 10
13.40458293
 20
3.8574367899
 11
13.36958293
 21
3.8574367899
  0
LINE
  5
744
100
AcDbEntity
  8
0
100
AcDbLine
 62
7
  6
CONTINUOUS
 10
13.36958293
 20
3.8874367899
 11
13.40458293
 21
3.8874367899
  0
LINE
  5
745
100
AcDbEntity
  8
0
100
AcDbLine
 62
7
  6
CONTINUOUS
 10
13.43458293
 20
3.8874367899
 11
13.46958293
 21
3.8874367899
  0
LINE
  5
746
100
AcDbEntity
  8
0
100
AcDbLine
 62
9
  6
CONTINUOUS
 10
13.5404243766
 20
3.9158445562
 11
13.5522349505
 21
3.9158445562
  0
LINE
  5
747
100
AcDbEntity
  8
0
100
AcDbLine
 62
7
  6
CONTINUOUS
 10
13.40458293
 20
3.9224367899
 11
13.43458293
 21
3.9224367899
  0
LINE
  5
748
100
AcDbEntity
  8
0
100
AcDbLine
 62
9
  6
CONTINUOUS
 10
13.3157527833
 20
3.7686066431
 11
13.356238441
 21
3.76039483
  0
LWPOLYLINE
  5
749
100
AcDbEntity
  8
0
100
AcDbPolyline
 62
9
  6
CONTINUOUS
 90
4
 70
0
 10
13.3010855912
 20
3.7717277829
 10
13.3058526774
 20
3.7706471397
 10
13.3107504683
 20
3.7696034265
 10
13.3157527833
 20
3.7686066431
  0
LINE
  5
74A
100
AcDbEntity
  8
0
100
AcDbLine
 62
9
  6
CONTINUOUS
 10
13.356238441
 20
3.76039483
 11
13.3562413182
 21
3.7603936489
  0
LWPOLYLINE
  5
74B
100
AcDbEntity
  8
0
100
AcDbPolyline
 62
9
  6
CONTINUOUS
 90
10
 70
0
 10
13.3565161801
 20
3.7601187869
 10
13.3567547917
 20
3.7600021249
 10
13.3574606247
 20
3.7596847563
 10
13.3586655642
 20
3.7591535711
 10
13.3603838934
 20
3.7584031004
 10
13.3626033302
 20
3.7574392195
 10
13.365275151
 20
3.7562833606
 10
13.3684045572
 20
3.7549336267
 10
13.3720304393
 20
3.7533737618
 10
13.3761751636
 20
3.7515953433
  0
LINE
  5
74C
100
AcDbEntity
  8
0
100
AcDbLine
 62
7
  6
CONTINUOUS
 10
12.6308363372
 20
4.0659016782
 11
12.8437625936
 21
3.9429686467
  0
LINE
  5
74D
100
AcDbEntity
  8
0
100
AcDbLine
 62
9
  6
CONTINUOUS
 10
13.3478871041
 20
3.7402329192
 11
13.3478896633
 21
3.7402314201
  0
LINE
  5
74E
100
AcDbEntity
  8
0
100
AcDbLine
 62
7
  6
CONTINUOUS
 10
12.7570791259
 20
4.1141782749
 11
12.7061959721
 21
4.1650614288
  0
LINE
  5
74F
100
AcDbEntity
  8
0
100
AcDbLine
 62
7
  6
CONTINUOUS
 10
12.6413070926
 20
4.2355180782
 11
12.8314831159
 21
4.0453420549
  0
LINE
  5
750
100
AcDbEntity
  8
0
100
AcDbLine
 62
7
  6
CONTINUOUS
 10
12.7593621553
 20
4.1633971175
 11
12.7366268022
 21
4.189814891
  0
LWPOLYLINE
  5
751
100
AcDbEntity
  8
0
100
AcDbPolyline
 62
7
  6
CONTINUOUS
 90
13
 70
0
 10
12.7366268022
 20
4.189814891
 10
12.717884932
 20
4.2196978482
 10
12.7038575615
 20
4.2520814141
 10
12.6949512924
 20
4.2858025406
 10
12.6911797496
 20
4.3202580931
 10
12.6925988946
 20
4.3552685747
 10
12.6992920747
 20
4.3898399292
 10
12.7109931247
 20
4.4227397241
 10
12.7273798207
 20
4.4533758169
 10
12.7482589093
 20
4.4813807864
 10
12.7731263203
 20
4.5059883741
 10
12.801130152
 20
4.5264362392
 10
12.8317838554
 20
4.5424759807
  0
LINE
  5
752
100
AcDbEntity
  8
0
100
AcDbLine
 62
7
  6
CONTINUOUS
 10
13.154802207
 20
4.3642023576
 11
13.1575749071
 21
4.3280787884
  0
LINE
  5
753
100
AcDbEntity
  8
0
100
AcDbLine
 62
7
  6
CONTINUOUS
 10
13.1575749071
 20
4.3280787884
 11
13.1547119715
 21
4.2919069738
  0
LINE
  5
754
100
AcDbEntity
  8
0
100
AcDbLine
 62
9
  6
CONTINUOUS
 10
13.3157527833
 20
3.7686066431
 11
13.3374583235
 21
3.7903121834
  0
LINE
  5
755
100
AcDbEntity
  8
0
100
AcDbLine
 62
9
  6
CONTINUOUS
 10
13.5017075365
 20
3.9545613963
 11
13.5234130767
 21
3.9762669366
  0
LWPOLYLINE
  5
756
100
AcDbEntity
  8
0
100
AcDbPolyline
 62
7
  6
CONTINUOUS
 90
12
 70
0
 10
12.7775263716
 20
4.0992987992
 10
12.8084756373
 20
4.0828798771
 10
12.8412796505
 20
4.070585789
 10
12.8753198597
 20
4.0626428089
 10
12.9101502316
 20
4.0591600771
 10
12.9454288825
 20
4.0602489072
 10
12.9804062972
 20
4.0659830927
 10
13.0141311035
 20
4.0762067005
 10
13.0458332794
 20
4.0905660365
 10
13.0751451328
 20
4.1087461007
 10
13.1020497866
 20
4.1307363484
 10
13.1259774183
 20
4.156197655
  0
LWPOLYLINE
  5
757
100
AcDbEntity
  8
0
100
AcDbPolyline
 62
7
  6
CONTINUOUS
 90
9
 70
0
 10
12.7867907743
 20
4.1399198458
 10
12.8178540159
 20
4.1207814251
 10
12.8516605809
 20
4.106675263
 10
12.8869775877
 20
4.0980808911
 10
12.9232214355
 20
4.0950771127
 10
12.9598799258
 20
4.0978028936
 10
12.9955870976
 20
4.1062319155
 10
13.029115796
 20
4.1199460085
 10
13.0602460793
 20
4.1387783637
  0
LINE
  5
758
100
AcDbEntity
  8
0
100
AcDbLine
 62
9
  6
CONTINUOUS
 10
13.3134527922
 20
3.7630539736
 11
13.3478871041
 21
3.7402329192
  0
LWPOLYLINE
  5
759
100
AcDbEntity
  8
0
100
AcDbPolyline
 62
9
  6
CONTINUOUS
 90
4
 70
0
 10
13.3010855912
 20
3.7717277829
 10
13.3050473979
 20
3.7688451354
 10
13.3091748809
 20
3.7659462396
 10
13.3134527922
 20
3.7630539736
  0
LINE
  5
75A
100
AcDbEntity
  8
0
100
AcDbLine
 62
7
  6
CONTINUOUS
 10
12.7593621553
 20
4.1633971175
 11
12.7867907743
 21
4.1399198458
  0
LINE
  5
75B
100
AcDbEntity
  8
0
100
AcDbLine
 62
9
  6
CONTINUOUS
 10
12.2965515172
 20
4.7128294087
 11
12.2968263791
 21
4.7125545468
  0
LINE
  5
75C
100
AcDbEntity
  8
0
100
AcDbLine
 62
7
  6
CONTINUOUS
 10
12.3167137459
 20
4.7211810636
 11
12.3413393725
 21
4.6965554371
  0
LINE
  5
75D
100
AcDbEntity
  8
0
100
AcDbLine
 62
9
  6
CONTINUOUS
 10
12.3469071424
 20
4.702123207
 11
12.3081903023
 21
4.7408400471
  0
LINE
  5
75E
100
AcDbEntity
  8
0
100
AcDbLine
 62
9
  6
CONTINUOUS
 10
13.3478896633
 20
3.7402314201
 11
13.3481645252
 21
3.7399565581
  0
LINE
  5
75F
100
AcDbEntity
  8
0
100
AcDbLine
 62
7
  6
CONTINUOUS
 10
13.3318905536
 20
3.7847444135
 11
13.3565161801
 21
3.7601187869
  0
LINE
  5
760
100
AcDbEntity
  8
0
100
AcDbLine
 62
9
  6
CONTINUOUS
 10
13.3761751636
 20
3.7515953433
 11
13.3374583235
 21
3.7903121834
  0
LWPOLYLINE
  5
761
100
AcDbEntity
  8
0
100
AcDbPolyline
 62
7
  6
CONTINUOUS
 90
9
 70
0
 10
12.4920984988
 20
4.8965658164
 10
12.4900340116
 20
4.8993494847
 10
12.4888664767
 20
4.90261266
 10
12.4886964632
 20
4.9060743445
 10
12.4895386378
 20
4.9094364293
 10
12.4913204928
 20
4.9124093698
 10
12.4938885848
 20
4.9147371285
 10
12.4970217497
 20
4.9162192325
 10
12.5004501537
 20
4.9167280452
  0
LWPOLYLINE
  5
762
100
AcDbEntity
  8
0
100
AcDbPolyline
 62
9
  6
CONTINUOUS
 90
9
 70
0
 10
12.4923733607
 20
4.8962909545
 10
12.4903088339
 20
4.8990746972
 10
12.4891413128
 20
4.9023379294
 10
12.4889713404
 20
4.9057996327
 10
12.4898135542
 20
4.9091616971
 10
12.4915954255
 20
4.9121345932
 10
12.4941635058
 20
4.9144623054
 10
12.4972966408
 20
4.9159443791
 10
12.5007250156
 20
4.9164531833
  0
LWPOLYLINE
  5
763
100
AcDbEntity
  8
0
100
AcDbPolyline
 62
9
  6
CONTINUOUS
 90
9
 70
0
 10
12.4923762383
 20
4.8962897738
 10
12.4903125984
 20
4.8990734053
 10
12.4891457502
 20
4.9023364492
 10
12.4889761662
 20
4.9057979382
 10
12.4898184487
 20
4.9091598178
 10
12.4916000727
 20
4.9121326101
 10
12.4941676296
 20
4.9144603393
 10
12.4973000371
 20
4.9159425736
 10
12.5007275748
 20
4.9164516841
  0
LWPOLYLINE
  5
764
100
AcDbEntity
  8
0
100
AcDbPolyline
 62
7
  6
CONTINUOUS
 90
5
 70
0
 10
13.2155646372
 20
4.3914914913
 10
13.2200538182
 20
4.3502035145
 10
13.2187314109
 20
4.3087341837
 10
13.2116850654
 20
4.2681969866
 10
13.2078835272
 20
4.2564259316
  0
LINE
  5
765
100
AcDbEntity
  8
DEFAULT_1
100
AcDbLine
 62
7
  6
CENTER
 10
13.2983230875
 20
4.6576730103
 11
13.2983230875
 21
4.4887753725
  0
LINE
  5
766
100
AcDbEntity
  8
0
100
AcDbLine
 62
7
  6
CONTINUOUS
 10
13.2983230875
 20
4.2054092702
 11
13.2983230875
 21
4.4512753331
  0
LINE
  5
767
100
AcDbEntity
  8
DEFAULT_1
100
AcDbLine
 62
7
  6
CENTER
 10
13.2983230875
 20
4.6576730103
 11
13.2983230875
 21
4.8265706481
  0
LINE
  5
768
100
AcDbEntity
  8
0
100
AcDbLine
 62
7
  6
CONTINUOUS
 10
13.36958293
 20
3.8574367899
 11
13.36958293
 21
3.8874367899
  0
LINE
  5
769
100
AcDbEntity
  8
0
100
AcDbLine
 62
9
  6
CONTINUOUS
 10
13.3761751636
 20
3.7515953433
 11
13.3761751636
 21
3.7397847694
  0
LWPOLYLINE
  5
76A
100
AcDbEntity
  8
0
100
AcDbPolyline
 62
9
  6
CONTINUOUS
 90
4
 70
0
 10
13.3157527969
 20
3.7686066567
 10
13.3150246785
 20
3.7667504967
 10
13.3142504376
 20
3.7648813133
 10
13.3134527922
 20
3.7630539524
  0
LWPOLYLINE
  5
76B
100
AcDbEntity
  8
0
100
AcDbPolyline
 62
9
  6
CONTINUOUS
 90
9
 70
0
 10
12.3169894673
 20
4.7209030027
 10
12.314207272
 20
4.7229651408
 10
12.3109457292
 20
4.7241308404
 10
12.3074855972
 20
4.7242997568
 10
12.3041247286
 20
4.7234573491
 10
12.3011524319
 20
4.7216761326
 10
12.2988245674
 20
4.7191094369
 10
12.2973415213
 20
4.7159782074
 10
12.2968309562
 20
4.7125519861
  0
LWPOLYLINE
  5
76C
100
AcDbEntity
  8
0
100
AcDbPolyline
 62
9
  6
CONTINUOUS
 90
9
 70
0
 10
12.3169886079
 20
4.7209062016
 10
12.3142048652
 20
4.7229707285
 10
12.3109416326
 20
4.7241382497
 10
12.3074799287
 20
4.7243082219
 10
12.3041178639
 20
4.7234660076
 10
12.3011449677
 20
4.7216841357
 10
12.2988172559
 20
4.7191160551
 10
12.2973351829
 20
4.7159829204
 10
12.2968263791
 20
4.7125545468
  0
LWPOLYLINE
  5
76D
100
AcDbEntity
  8
0
100
AcDbPolyline
 62
7
  6
CONTINUOUS
 90
9
 70
0
 10
12.3167137459
 20
4.7211810636
 10
12.3139300032
 20
4.7232455905
 10
12.310666771
 20
4.7244131116
 10
12.3072050677
 20
4.724583084
 10
12.3038430033
 20
4.7237408702
 10
12.3008701072
 20
4.7219589989
 10
12.298542395
 20
4.7193909186
 10
12.2970603213
 20
4.7162577836
 10
12.2965515172
 20
4.7128294087
  0
LWPOLYLINE
  5
76E
100
AcDbEntity
  8
0
100
AcDbPolyline
 62
9
  6
CONTINUOUS
 90
9
 70
0
 10
13.3562413182
 20
3.7603936489
 10
13.358305845
 20
3.7576099062
 10
13.3594733661
 20
3.754346674
 10
13.3596433385
 20
3.7508849707
 10
13.3588011247
 20
3.7475229062
 10
13.3570192534
 20
3.7445500101
 10
13.3544511731
 20
3.7422222979
 10
13.3513180381
 20
3.7407402242
 10
13.3478896633
 20
3.7402314201
  0
LWPOLYLINE
  5
76F
100
AcDbEntity
  8
0
100
AcDbPolyline
 62
7
  6
CONTINUOUS
 90
9
 70
0
 10
13.3565161801
 20
3.7601187869
 10
13.3585806673
 20
3.7573351187
 10
13.3597482022
 20
3.7540719434
 10
13.3599182157
 20
3.7506102588
 10
13.3590760411
 20
3.747248174
 10
13.3572941861
 20
3.7442752335
 10
13.3547260941
 20
3.7419474749
 10
13.3515929292
 20
3.7404653708
 10
13.3481645252
 20
3.7399565581
  0
LWPOLYLINE
  5
770
100
AcDbEntity
  8
0
100
AcDbPolyline
 62
9
  6
CONTINUOUS
 90
9
 70
0
 10
13.3562384406
 20
3.7603948295
 10
13.3583020805
 20
3.7576111981
 10
13.3594689287
 20
3.7543481541
 10
13.3596385127
 20
3.7508866651
 10
13.3587962302
 20
3.7475247855
 10
13.3570146062
 20
3.7445519932
 10
13.3544470493
 20
3.7422242641
 10
13.3513146418
 20
3.7407420297
 10
13.3478871041
 20
3.7402329192
  0
LINE
  5
771
100
AcDbEntity
  8
0
100
AcDbLine
 62
7
  6
CONTINUOUS
 10
13.1323108135
 20
4.433928202
 11
13.1463826361
 21
4.3997313078
  0
LWPOLYLINE
  5
772
100
AcDbEntity
  8
0
100
AcDbPolyline
 62
7
  6
CONTINUOUS
 90
21
 70
0
 10
13.1157638408
 20
4.397627454
 10
13.1248796658
 20
4.3676886409
 10
13.1292709086
 20
4.3342831562
 10
13.1281217676
 20
4.3005276095
 10
13.1214408921
 20
4.2673373555
 10
13.1093875588
 20
4.2356144783
 10
13.0922666321
 20
4.2062221064
 10
13.0705197898
 20
4.1799618604
 10
13.0447151703
 20
4.1575541409
 10
13.0155308723
 20
4.1396167012
 10
12.9837374668
 20
4.1266489021
 10
12.9501771359
 20
4.1190180456
 10
12.9157426793
 20
4.1169495557
 10
12.8813522436
 20
4.12052005
 10
12.8479238331
 20
4.1296556176
 10
12.8163515628
 20
4.1441341824
 10
12.787482963
 20
4.1635908389
 10
12.7620958824
 20
4.1875271817
 10
12.7408768504
 20
4.2153253106
 10
12.7244038655
 20
4.2462634082
 10
12.7131309123
 20
4.2795340896
  0
LINE
  5
773
100
AcDbEntity
  8
0
100
AcDbLine
 62
9
  6
CONTINUOUS
 10
13.2151728681
 20
4.3932720936
 11
13.2026150633
 21
4.4349417599
  0
LWPOLYLINE
  5
774
100
AcDbEntity
  8
0
100
AcDbPolyline
 62
7
  6
CONTINUOUS
 90
19
 70
0
 10
13.2100672382
 20
4.4139863001
 10
13.2105482623
 20
4.4123625423
 10
13.2110173886
 20
4.410736157
 10
13.2114709025
 20
4.4091204791
 10
13.2119054393
 20
4.4075289366
 10
13.2123179793
 20
4.4059750397
 10
13.2127058401
 20
4.4044723698
 10
13.213066662
 20
4.4030345692
 10
13.2133983828
 20
4.4016753585
 10
13.2136993467
 20
4.4004079619
 10
13.2139697567
 20
4.39923852
 10
13.2142121466
 20
4.3981628914
 10
13.2144289878
 20
4.3971763336
 10
13.2146225786
 20
4.3962740395
 10
13.2147950652
 20
4.3954511182
 10
13.2149484523
 20
4.3947026129
 10
13.2150846136
 20
4.3940235158
 10
13.2152053013
 20
4.393408779
 10
13.2153121562
 20
4.392853323
  0
LINE
  5
775
100
AcDbEntity
  8
0
100
AcDbLine
 62
7
  6
CONTINUOUS
 10
13.1463826361
 20
4.3997313078
 11
13.154802207
 21
4.3642023576
  0
LWPOLYLINE
  5
776
100
AcDbEntity
  8
0
100
AcDbPolyline
 62
7
  6
CONTINUOUS
 90
3
 70
0
 10
13.2153121562
 20
4.392853323
 10
13.2154904244
 20
4.3918998136
 10
13.2155646372
 20
4.3914914913
  0
LINE
  5
777
100
AcDbEntity
  8
0
100
AcDbLine
 62
7
  6
CONTINUOUS
 10
13.40458293
 20
3.8224367899
 11
13.40458293
 21
3.8574367899
  0
LINE
  5
778
100
AcDbEntity
  8
0
100
AcDbLine
 62
7
  6
CONTINUOUS
 10
13.40458293
 20
3.8874367899
 11
13.40458293
 21
3.9224367899
  0
LINE
  5
779
100
AcDbEntity
  8
0
100
AcDbLine
 62
7
  6
CONTINUOUS
 10
13.43458293
 20
3.9224367899
 11
13.43458293
 21
3.8874367899
  0
LINE
  5
77A
100
AcDbEntity
  8
0
100
AcDbLine
 62
7
  6
CONTINUOUS
 10
13.43458293
 20
3.8574367899
 11
13.43458293
 21
3.8224367899
  0
LINE
  5
77B
100
AcDbEntity
  8
0
100
AcDbLine
 62
9
  6
CONTINUOUS
 10
13.4558034024
 20
3.7515953433
 11
13.4558034024
 21
3.7377911206
  0
LINE
  5
77C
100
AcDbEntity
  8
0
100
AcDbLine
 62
9
  6
CONTINUOUS
 10
13.4558034024
 20
4.8849568204
 11
13.4558034024
 21
4.9188934828
  0
LINE
  5
77D
100
AcDbEntity
  8
0
100
AcDbLine
 62
7
  6
CONTINUOUS
 10
13.46958293
 20
3.8874367899
 11
13.46958293
 21
3.8574367899
  0
LINE
  5
77E
100
AcDbEntity
  8
0
100
AcDbLine
 62
9
  6
CONTINUOUS
 10
13.5202919369
 20
3.9909341673
 11
13.5202919369
 21
4.8204682859
  0
LWPOLYLINE
  5
77F
100
AcDbEntity
  8
0
100
AcDbPolyline
 62
7
  6
CONTINUOUS
 90
17
 70
0
 10
13.5529230049
 20
4.3775549001
 10
13.5528392174
 20
4.3766092547
 10
13.5527586504
 20
4.3738086849
 10
13.5526843998
 20
4.3692608237
 10
13.5526193195
 20
4.3631405213
 10
13.5525659098
 20
4.3556829668
 10
13.5525262235
 20
4.3471748307
 10
13.5525017849
 20
4.3379430133
 10
13.5524935331
 20
4.3283423017
 10
13.5525017849
 20
4.3187415901
 10
13.5525262235
 20
4.3095097726
 10
13.5525659098
 20
4.3010016366
 10
13.5526193195
 20
4.293544082
 10
13.5526843998
 20
4.2874237797
 10
13.5527586504
 20
4.2828759184
 10
13.5528392174
 20
4.2800753486
 10
13.5529230049
 20
4.2791297032
  0
LWPOLYLINE
  5
780
100
AcDbEntity
  8
0
100
AcDbPolyline
 62
7
  6
CONTINUOUS
 90
17
 70
0
 10
13.5529230049
 20
4.2791297032
 10
13.5530067924
 20
4.2800753486
 10
13.5530873594
 20
4.2828759184
 10
13.55316161
 20
4.2874237797
 10
13.5532266903
 20
4.293544082
 10
13.5532801
 20
4.3010016366
 10
13.5533197863
 20
4.3095097726
 10
13.5533442249
 20
4.3187415901
 10
13.5533524767
 20
4.3283423017
 10
13.5533442249
 20
4.3379430133
 10
13.5533197863
 20
4.3471748307
 10
13.5532801
 20
4.3556829668
 10
13.5532266903
 20
4.3631405213
 10
13.55316161
 20
4.3692608237
 10
13.5530873594
 20
4.3738086849
 10
13.5530067924
 20
4.3766092547
 10
13.5529230049
 20
4.3775549001
  0
LINE
  5
781
100
AcDbEntity
  8
0
100
AcDbLine
 62
7
  6
CONTINUOUS
 10
13.064071119
 20
4.3047202544
 11
13.0859765303
 21
4.3047202544
  0
LINE
  5
782
100
AcDbEntity
  8
AXIS_COSMETIC_THREADS
100
AcDbLine
 62
2
  6
CENTER
 10
12.9243073394
 20
4.3283423017
 11
12.2365120639
 21
4.3283423017
  0
LINE
  5
783
100
AcDbEntity
  8
AXIS_COSMETIC_THREADS
100
AcDbLine
 62
2
  6
CENTER
 10
12.9243073394
 20
4.3283423017
 11
13.612102615
 21
4.3283423017
  0
LINE
  5
784
100
AcDbEntity
  8
0
100
AcDbLine
 62
7
  6
CONTINUOUS
 10
13.0859765303
 20
4.3519643489
 11
13.064071119
 21
4.3519643489
  0
LWPOLYLINE
  5
785
100
AcDbEntity
  8
0
100
AcDbPolyline
 62
9
  6
CONTINUOUS
 90
9
 70
0
 10
13.5316252116
 20
3.9357816006
 10
13.5344074069
 20
3.9337194626
 10
13.5376689497
 20
3.9325537629
 10
13.5411290817
 20
3.9323848465
 10
13.5444899503
 20
3.9332272542
 10
13.547462247
 20
3.9350084707
 10
13.5497901115
 20
3.9375751665
 10
13.5512731576
 20
3.9407063959
 10
13.5517837227
 20
3.9441326172
  0
LWPOLYLINE
  5
786
100
AcDbEntity
  8
0
100
AcDbPolyline
 62
7
  6
CONTINUOUS
 90
9
 70
0
 10
13.531900933
 20
3.9355035397
 10
13.5346846757
 20
3.9334390128
 10
13.5379479079
 20
3.9322714918
 10
13.5414096112
 20
3.9321015194
 10
13.5447716756
 20
3.9329437331
 10
13.5477445717
 20
3.9347256045
 10
13.5500722839
 20
3.9372936848
 10
13.5515543576
 20
3.9404268198
 10
13.5520631617
 20
3.9438551946
  0
LWPOLYLINE
  5
787
100
AcDbEntity
  8
0
100
AcDbPolyline
 62
9
  6
CONTINUOUS
 90
9
 70
0
 10
13.531626071
 20
3.9357784017
 10
13.5344098137
 20
3.9337138748
 10
13.5376730463
 20
3.9325463537
 10
13.5411347502
 20
3.9323763815
 10
13.544496815
 20
3.9332185957
 10
13.5474697112
 20
3.9350004677
 10
13.549797423
 20
3.9375685483
 10
13.551279496
 20
3.9407016829
 10
13.5517882998
 20
3.9441300566
  0
LINE
  5
788
100
AcDbEntity
  8
0
100
AcDbLine
 62
9
  6
CONTINUOUS
 10
12.4724395153
 20
4.9050892601
 11
12.5111563554
 21
4.86637242
  0
LINE
  5
789
100
AcDbEntity
  8
0
100
AcDbLine
 62
7
  6
CONTINUOUS
 10
12.4920984988
 20
4.8965658164
 11
12.5167241253
 21
4.8719401899
  0
LINE
  5
78A
100
AcDbEntity
  8
0
100
AcDbLine
 62
9
  6
CONTINUOUS
 10
12.5007250156
 20
4.9164531833
 11
12.5004501537
 21
4.9167280452
  0
LINE
  5
78B
100
AcDbEntity
  8
0
100
AcDbLine
 62
9
  6
CONTINUOUS
 10
13.5017075365
 20
3.9545613963
 11
13.5404243766
 21
3.9158445562
  0
LINE
  5
78C
100
AcDbEntity
  8
0
100
AcDbLine
 62
7
  6
CONTINUOUS
 10
13.5072753064
 20
3.9601291663
 11
13.531900933
 21
3.9355035397
  0
LINE
  5
78D
100
AcDbEntity
  8
0
100
AcDbLine
 62
9
  6
CONTINUOUS
 10
13.5520631617
 20
3.9438551946
 11
13.5517882998
 21
3.9441300566
  0
LWPOLYLINE
  5
78E
100
AcDbEntity
  8
0
100
AcDbPolyline
 62
7
  6
CONTINUOUS
 90
12
 70
0
 10
13.0727297764
 20
4.4767647387
 10
13.0942666296
 20
4.4551335141
 10
13.1127236235
 20
4.4302219268
 10
13.1274366169
 20
4.4027779639
 10
13.1380224232
 20
4.3735902552
 10
13.1443997389
 20
4.3428505277
 10
13.1463315349
 20
4.3108866607
 10
13.1435828871
 20
4.2785570511
 10
13.1361832323
 20
4.2469081009
 10
13.1243873748
 20
4.2167647162
 10
13.1083826811
 20
4.1884843079
 10
13.0883970787
 20
4.1625460862
  0
LINE
  5
78F
100
AcDbEntity
  8
0
100
AcDbLine
 62
7
  6
CONTINUOUS
 10
13.0892525236
 20
4.4932874859
 11
13.1129995194
 21
4.465488269
  0
LWPOLYLINE
  5
790
100
AcDbEntity
  8
0
100
AcDbPolyline
 62
9
  6
CONTINUOUS
 90
5
 70
0
 10
13.5289657463
 20
3.9785669276
 10
13.5267980882
 20
3.9817887765
 10
13.5246237633
 20
3.9849278155
 10
13.5224520166
 20
3.9879781431
 10
13.5202919369
 20
3.9909341282
  0
LINE
  5
791
100
AcDbEntity
  8
0
100
AcDbLine
 62
9
  6
CONTINUOUS
 10
13.5517868006
 20
3.9441326157
 11
13.5289657463
 21
3.9785669276
  0
LINE
  5
792
100
AcDbEntity
  8
0
100
AcDbLine
 62
7
  6
CONTINUOUS
 10
13.1129995194
 20
4.465488269
 11
13.1323108135
 21
4.433928202
  0
LWPOLYLINE
  5
793
100
AcDbEntity
  8
0
100
AcDbPolyline
 62
7
  6
CONTINUOUS
 90
4
 70
0
 10
13.1540426554
 20
4.4747859872
 10
13.1399739846
 20
4.5053752022
 10
13.1218125675
 20
4.5346428793
 10
13.0998859212
 20
4.5618156203
  0
LWPOLYLINE
  5
794
100
AcDbEntity
  8
0
100
AcDbPolyline
 62
7
  6
CONTINUOUS
 90
14
 70
0
 10
13.2026150633
 20
4.4349417599
 10
13.2028523839
 20
4.4343785267
 10
13.203108258
 20
4.4337633154
 10
13.2033831074
 20
4.4330936055
 10
13.2036772644
 20
4.4323669424
 10
13.203990958
 20
4.4315809627
 10
13.2043243008
 20
4.4307334193
 10
13.2046773176
 20
4.4298221021
 10
13.2050499168
 20
4.4288449004
 10
13.2054414492
 20
4.4278009804
 10
13.205850534
 20
4.4266913587
 10
13.2062757894
 20
4.4255170249
 10
13.2067158215
 20
4.4242789681
 10
13.2071692189
 20
4.4229781906
  0
LWPOLYLINE
  5
795
100
AcDbEntity
  8
0
100
AcDbPolyline
 62
7
  6
CONTINUOUS
 90
7
 70
0
 10
13.2071692189
 20
4.4229781906
 10
13.2076345513
 20
4.42161571
 10
13.2081103856
 20
4.4201925093
 10
13.20859515
 20
4.4187099511
 10
13.2090860926
 20
4.4171731162
 10
13.2095783795
 20
4.4155941982
 10
13.2100672382
 20
4.4139863001
  0
LWPOLYLINE
  5
796
100
AcDbEntity
  8
0
100
AcDbPolyline
 62
9
  6
CONTINUOUS
 90
10
 70
0
 10
13.5522349505
 20
3.9158445562
 10
13.552231028
 20
3.9217638493
 10
13.552220756
 20
3.9269394854
 10
13.5522057369
 20
3.9314035645
 10
13.5521868473
 20
3.9352124277
 10
13.5521646664
 20
3.9383741317
 10
13.5521402427
 20
3.9408181299
 10
13.552114562
 20
3.9425282649
 10
13.5520885039
 20
3.9435253985
 10
13.5520631617
 20
3.9438551946
  0
LINE
  5
797
100
AcDbEntity
  8
0
100
AcDbLine
 62
9
  6
CONTINUOUS
 10
13.5404243766
 20
3.8362163174
 11
13.5404243766
 21
3.9158445562
  0
LINE
  5
798
100
AcDbEntity
  8
0
100
AcDbLine
 62
9
  6
CONTINUOUS
 10
13.5517868006
 20
3.9441326157
 11
13.5517868006
 21
4.8204682859
  0
LINE
  5
799
100
AcDbEntity
  8
0
100
AcDbLine
 62
7
  6
CONTINUOUS
 10
13.5522349505
 20
3.8362163174
 11
13.5522349505
 21
3.9158445562
  0
LINE
  5
79A
100
AcDbEntity
  8
AXIS_COSMETIC_THREADS
100
AcDbLine
 62
7
  6
CONTINUOUS
 10
13.5542285993
 20
4.8204682859
 11
13.5542285993
 21
3.8362163174
  0
LINE
  5
79B
100
AcDbEntity
  8
0
100
AcDbLine
 62
7
  6
CONTINUOUS
 10
13.5542285993
 20
3.8362163174
 11
13.5542285993
 21
4.8204682859
  0
LINE
  5
79C
100
AcDbEntity
  8
0
100
AcDbLine
 62
7
  6
CONTINUOUS
 10
12.9690046003
 20
4.5572876717
 11
13.0023331255
 21
4.5481736104
  0
LWPOLYLINE
  5
79D
100
AcDbEntity
  8
0
100
AcDbPolyline
 62
7
  6
CONTINUOUS
 90
5
 70
0
 10
12.9979604647
 20
4.5183035917
 10
13.018019431
 20
4.5109891878
 10
13.0373120432
 20
4.5015678623
 10
13.0556172902
 20
4.49012508
 10
13.0727297764
 20
4.4767647387
  0
LINE
  5
79E
100
AcDbEntity
  8
0
100
AcDbLine
 62
7
  6
CONTINUOUS
 10
13.0023331255
 20
4.5481736104
 11
13.0339850925
 21
4.5342175504
  0
LINE
  5
79F
100
AcDbEntity
  8
0
100
AcDbLine
 62
9
  6
CONTINUOUS
 10
12.5007275748
 20
4.9164516841
 11
12.5007250156
 21
4.9164531833
  0
LWPOLYLINE
  5
7A0
100
AcDbEntity
  8
0
100
AcDbPolyline
 62
7
  6
CONTINUOUS
 90
3
 70
0
 10
13.0339850925
 20
4.5342175504
 10
13.0631246796
 20
4.515808495
 10
13.0892525236
 20
4.4932874859
  0
LINE
  5
7A1
100
AcDbEntity
  8
0
100
AcDbLine
 62
9
  6
CONTINUOUS
 10
12.5351618867
 20
4.8936306297
 11
12.5007275748
 21
4.9164516841
  0
LWPOLYLINE
  5
7A2
100
AcDbEntity
  8
0
100
AcDbPolyline
 62
9
  6
CONTINUOUS
 90
5
 70
0
 10
12.5475290871
 20
4.8849568204
 10
12.5445735414
 20
4.8871165838
 10
12.5415233265
 20
4.8892882607
 10
12.5383841222
 20
4.8914627023
 10
12.5351618867
 20
4.8936306297
  0
LWPOLYLINE
  5
7A3
100
AcDbEntity
  8
0
100
AcDbPolyline
 62
7
  6
CONTINUOUS
 90
5
 70
0
 10
13.0998859212
 20
4.5618156203
 10
13.1319220153
 20
4.5359500889
 10
13.1600242971
 20
4.5058518978
 10
13.1837137946
 20
4.4720431061
 10
13.2026150633
 20
4.4349417599
  0
LINE
  5
7A4
100
AcDbEntity
  8
0
100
AcDbLine
 62
7
  6
CONTINUOUS
 10
13.017131563
 20
4.6113425485
 11
13.2073075863
 21
4.4211665252
  0
LINE
  5
7A5
100
AcDbEntity
  8
0
100
AcDbLine
 62
7
  6
CONTINUOUS
 10
13.0911979956
 20
4.5428438858
 11
13.1404045604
 21
4.493637321
  0
LINE
  5
7A6
100
AcDbEntity
  8
0
100
AcDbLine
 62
9
  6
CONTINUOUS
 10
13.5517882998
 20
3.9441300566
 11
13.5517868006
 21
3.9441326157
  0
LWPOLYLINE
  5
7A7
100
AcDbEntity
  8
0
100
AcDbPolyline
 62
9
  6
CONTINUOUS
 90
10
 70
0
 10
13.5404243766
 20
3.9158445562
 10
13.5386459576
 20
3.9199892804
 10
13.5370860934
 20
3.9236151627
 10
13.5357363591
 20
3.9267445688
 10
13.5345805004
 20
3.9294163896
 10
13.5336166195
 20
3.9316358264
 10
13.5328661487
 20
3.9333541556
 10
13.5323349636
 20
3.9345590952
 10
13.5320175949
 20
3.9352649282
 10
13.531900933
 20
3.9355035397
  0
LINE
  5
7A8
100
AcDbEntity
  8
0
100
AcDbLine
 62
9
  6
CONTINUOUS
 10
13.531626071
 20
3.9357784017
 11
13.5316248899
 21
3.9357812788
  0
LINE
  5
7A9
100
AcDbEntity
  8
0
100
AcDbLine
 62
9
  6
CONTINUOUS
 10
13.5316248899
 20
3.9357812788
 11
13.5234130767
 21
3.9762669366
  0
LWPOLYLINE
  5
7AA
100
AcDbEntity
  8
0
100
AcDbPolyline
 62
9
  6
CONTINUOUS
 90
4
 70
0
 10
13.5234130767
 20
3.9762669366
 10
13.5224164098
 20
3.9812686852
 10
13.5213727166
 20
3.9861664153
 10
13.520291908
 20
3.9909341889
  0
LINE
  5
7AB
100
AcDbEntity
  8
0
100
AcDbLine
 62
7
  6
CONTINUOUS
 10
12.8648774596
 20
4.5539125057
 11
12.8995154689
 21
4.5602888273
  0
LINE
  5
7AC
100
AcDbEntity
  8
0
100
AcDbLine
 62
7
  6
CONTINUOUS
 10
12.8995154689
 20
4.5602888273
 11
12.9345785288
 21
4.5613837792
  0
LINE
  5
7AD
100
AcDbEntity
  8
DEFAULT_1
100
AcDbLine
 62
7
  6
CENTER
 10
13.2983230875
 20
4.6576730103
 11
13.1294254497
 21
4.6576730103
  0
LINE
  5
7AE
100
AcDbEntity
  8
DEFAULT_1
100
AcDbLine
 62
7
  6
CENTER
 10
13.2983230875
 20
4.6576730103
 11
13.4672207253
 21
4.6576730103
  0
LINE
  5
7AF
100
AcDbEntity
  8
0
100
AcDbLine
 62
7
  6
CONTINUOUS
 10
12.9345785288
 20
4.5613837792
 11
12.9690046003
 21
4.5572876717
  0
LWPOLYLINE
  5
7B0
100
AcDbEntity
  8
0
100
AcDbPolyline
 62
7
  6
CONTINUOUS
 90
18
 70
0
 10
13.0368363165
 20
4.5916377949
 10
12.9969003656
 20
4.6045919173
 10
12.9556993123
 20
4.6115319994
 10
12.9140077492
 20
4.6123754422
 10
12.8727338054
 20
4.6071272096
 10
12.8327299257
 20
4.5959146526
 10
12.7949110428
 20
4.579020815
 10
12.7599438075
 20
4.5567478987
 10
12.7283627448
 20
4.5293098025
 10
12.7011813307
 20
4.4974406343
 10
12.6792651322
 20
4.4622649484
 10
12.6628908032
 20
4.4245014551
 10
12.6522287042
 20
4.3845646039
 10
12.6476173475
 20
4.3436573688
 10
12.6490743822
 20
4.3029120579
 10
12.6564854011
 20
4.2629190635
 10
12.669710222
 20
4.2244299378
 10
12.688409287
 20
4.1884158838
  0
LINE
  5
7B1
100
AcDbEntity
  8
0
100
AcDbLine
 62
9
  6
CONTINUOUS
 10
12.4923762379
 20
4.8962897733
 11
12.4923733607
 21
4.8962909545
  0
LWPOLYLINE
  5
7B2
100
AcDbEntity
  8
0
100
AcDbPolyline
 62
9
  6
CONTINUOUS
 90
10
 70
0
 10
12.4920984988
 20
4.8965658164
 10
12.4918598872
 20
4.8966824784
 10
12.4911540542
 20
4.8969998471
 10
12.4899491147
 20
4.8975310322
 10
12.4882307855
 20
4.898281503
 10
12.4860113487
 20
4.8992453838
 10
12.4833395279
 20
4.9004012427
 10
12.4802101217
 20
4.9017509767
 10
12.4765842396
 20
4.9033108415
 10
12.4724395153
 20
4.9050892601
  0
LINE
  5
7B3
100
AcDbEntity
  8
0
100
AcDbLine
 62
7
  6
CONTINUOUS
 10
13.2177783417
 20
4.5907829252
 11
13.0048520853
 21
4.7137159566
  0
LINE
  5
7B4
100
AcDbEntity
  8
0
100
AcDbLine
 62
7
  6
CONTINUOUS
 10
12.4440317489
 20
4.7342478135
 11
12.4140317489
 21
4.7342478135
  0
LINE
  5
7B5
100
AcDbEntity
  8
0
100
AcDbLine
 62
9
  6
CONTINUOUS
 10
12.3081903023
 20
4.7408400471
 11
12.2963797284
 21
4.7408400471
  0
LINE
  5
7B6
100
AcDbEntity
  8
0
100
AcDbLine
 62
7
  6
CONTINUOUS
 10
12.4790317489
 20
4.7692478135
 11
12.4440317489
 21
4.7692478135
  0
LINE
  5
7B7
100
AcDbEntity
  8
0
100
AcDbLine
 62
7
  6
CONTINUOUS
 10
12.4140317489
 20
4.7692478135
 11
12.3790317489
 21
4.7692478135
  0
LINE
  5
7B8
100
AcDbEntity
  8
0
100
AcDbLine
 62
7
  6
CONTINUOUS
 10
12.3790317489
 20
4.7992478135
 11
12.4140317489
 21
4.7992478135
  0
LINE
  5
7B9
100
AcDbEntity
  8
0
100
AcDbLine
 62
7
  6
CONTINUOUS
 10
12.4440317489
 20
4.7992478135
 11
12.4790317489
 21
4.7992478135
  0
LINE
  5
7BA
100
AcDbEntity
  8
0
100
AcDbLine
 62
9
  6
CONTINUOUS
 10
12.3081903023
 20
4.8204682859
 11
12.2943860796
 21
4.8204682859
  0
LINE
  5
7BB
100
AcDbEntity
  8
0
100
AcDbLine
 62
9
  6
CONTINUOUS
 10
13.5202919369
 20
4.8204682859
 11
13.5542285993
 21
4.8204682859
  0
LINE
  5
7BC
100
AcDbEntity
  8
0
100
AcDbLine
 62
7
  6
CONTINUOUS
 10
12.4140317489
 20
4.8342478135
 11
12.4440317489
 21
4.8342478135
  0
LINE
  5
7BD
100
AcDbEntity
  8
0
100
AcDbLine
 62
9
  6
CONTINUOUS
 10
12.5328618956
 20
4.8880779602
 11
12.4923762379
 21
4.8962897733
  0
LWPOLYLINE
  5
7BE
100
AcDbEntity
  8
0
100
AcDbPolyline
 62
9
  6
CONTINUOUS
 90
4
 70
0
 10
12.5475291597
 20
4.8849567858
 10
12.5427619581
 20
4.8860374732
 10
12.5378641781
 20
4.8870811835
 10
12.5328618956
 20
4.8880779602
  0
LWPOLYLINE
  5
7BF
100
AcDbEntity
  8
0
100
AcDbPolyline
 62
7
  6
CONTINUOUS
 90
9
 70
0
 10
12.9243073394
 20
4.9171584165
 10
12.9339080375
 20
4.9171666684
 10
12.9431398465
 20
4.9171911069
 10
12.9516479961
 20
4.9172307933
 10
12.95910554
 20
4.9172842028
 10
12.9652258531
 20
4.9173492831
 10
12.9697737141
 20
4.9174235337
 10
12.972574293
 20
4.9175041009
 10
12.9735199379
 20
4.9175878884
  0
LWPOLYLINE
  5
7C0
100
AcDbEntity
  8
0
100
AcDbPolyline
 62
7
  6
CONTINUOUS
 90
9
 70
0
 10
12.9243073394
 20
4.9180173602
 10
12.9147066414
 20
4.9180091084
 10
12.9054748324
 20
4.9179846699
 10
12.8969666828
 20
4.9179449835
 10
12.8895091389
 20
4.917891574
 10
12.8833888258
 20
4.9178264936
 10
12.8788409648
 20
4.917752243
 10
12.8760403859
 20
4.9176716759
 10
12.875094741
 20
4.9175878884
  0
LINE
  5
7C1
100
AcDbEntity
  8
0
100
AcDbLine
 62
9
  6
CONTINUOUS
 10
13.4558034024
 20
4.8849568204
 11
12.5475291339
 21
4.8849568204
  0
LINE
  5
7C2
100
AcDbEntity
  8
0
100
AcDbLine
 62
9
  6
CONTINUOUS
 10
12.4724395153
 20
4.9050892601
 11
12.3928112765
 21
4.9050892601
  0
LINE
  5
7C3
100
AcDbEntity
  8
0
100
AcDbLine
 62
9
  6
CONTINUOUS
 10
13.4558034024
 20
4.9164516841
 11
12.5007275748
 21
4.9164516841
  0
LINE
  5
7C4
100
AcDbEntity
  8
0
100
AcDbLine
 62
7
  6
CONTINUOUS
 10
12.4724395153
 20
4.916899834
 11
12.3928112765
 21
4.916899834
  0
LINE
  5
7C5
100
AcDbEntity
  8
0
100
AcDbLine
 62
7
  6
CONTINUOUS
 10
13.4558034024
 20
4.9188934828
 11
12.3928112765
 21
4.9188934828
  0
LINE
  5
7C6
100
AcDbEntity
  8
AXIS_COSMETIC_THREADS
100
AcDbLine
 62
7
  6
CONTINUOUS
 10
12.3928112765
 20
4.9188934828
 11
13.4558034024
 21
4.9188934828
  0
LWPOLYLINE
  5
7C7
100
AcDbEntity
  8
0
100
AcDbPolyline
 62
9
  6
CONTINUOUS
 90
10
 70
0
 10
12.5004501537
 20
4.9167280452
 10
12.5001203574
 20
4.9167533874
 10
12.4991232239
 20
4.9167794455
 10
12.497413089
 20
4.9168051262
 10
12.4949690907
 20
4.9168295499
 10
12.4918073867
 20
4.9168517308
 10
12.4879985235
 20
4.9168706204
 10
12.4835344444
 20
4.9168856395
 10
12.4783588084
 20
4.9168959115
 10
12.4724395153
 20
4.916899834
  0
LWPOLYLINE
  5
7C8
100
AcDbEntity
  8
0
100
AcDbPolyline
 62
7
  6
CONTINUOUS
 90
9
 70
0
 10
12.875094741
 20
4.9175878884
 10
12.8760403859
 20
4.9175041009
 10
12.8788409648
 20
4.9174235337
 10
12.8833888258
 20
4.9173492831
 10
12.8895091389
 20
4.9172842028
 10
12.8969666828
 20
4.9172307933
 10
12.9054748324
 20
4.9171911069
 10
12.9147066414
 20
4.9171666684
 10
12.9243073394
 20
4.9171584165
  0
LWPOLYLINE
  5
7C9
100
AcDbEntity
  8
0
100
AcDbPolyline
 62
7
  6
CONTINUOUS
 90
9
 70
0
 10
12.9735199379
 20
4.9175878884
 10
12.972574293
 20
4.9176716759
 10
12.9697737141
 20
4.917752243
 10
12.9652258531
 20
4.9178264936
 10
12.95910554
 20
4.917891574
 10
12.9516479961
 20
4.9179449835
 10
12.9431398465
 20
4.9179846699
 10
12.9339080375
 20
4.9180091084
 10
12.9243073394
 20
4.9180173602
  0
LWPOLYLINE
  5
7CA
100
AcDbEntity
  8
0
100
AcDbPolyline
 62
7
  6
CONTINUOUS
 90
11
 70
0
 10
4.8733249119
 20
4.885008357
 10
4.9013359694
 20
4.8937441715
 10
4.9263792793
 20
4.9002958545
 10
4.9489390564
 20
4.9052123341
 10
4.9695483897
 20
4.9089066618
 10
4.9885283514
 20
4.9116476141
 10
5.0058344201
 20
4.9136012637
 10
5.0214906579
 20
4.9149242502
 10
5.0358066448
 20
4.9157662909
 10
5.0491147436
 20
4.9162336607
 10
5.062073922
 20
4.9163889218
  0
LWPOLYLINE
  5
7CB
100
AcDbEntity
  8
0
100
AcDbPolyline
 62
7
  6
CONTINUOUS
 90
9
 70
0
 10
4.5742110276
 20
4.4868585651
 10
4.5990143983
 20
4.5458813255
 10
4.6310965507
 20
4.6014936763
 10
4.6698155795
 20
4.6525266739
 10
4.7141320275
 20
4.6978316084
 10
4.7637730421
 20
4.7372746757
 10
4.8195822966
 20
4.7710502154
 10
4.8805264842
 20
4.797796943
 10
4.9412910063
 20
4.8155628536
  0
LWPOLYLINE
  5
7CC
100
AcDbEntity
  8
0
100
AcDbPolyline
 62
7
  6
CONTINUOUS
 90
11
 70
0
 10
4.6718984031
 20
4.6118214096
 10
4.6358972083
 20
4.5583067904
 10
4.6073497001
 20
4.5005269983
 10
4.5867502135
 20
4.4396729209
 10
4.5742382985
 20
4.3759748416
 10
4.5702617941
 20
4.3104252115
 10
4.575077057
 20
4.2447522434
 10
4.5885041119
 20
4.1805961601
 10
4.6102264617
 20
4.1188871172
 10
4.6402589178
 20
4.059877147
 10
4.6779774355
 20
4.0051670118
  0
LINE
  5
7CD
100
AcDbEntity
  8
0
100
AcDbLine
 62
7
  6
CONTINUOUS
 10
4.4321526622
 20
4.8204682859
 11
4.4321526622
 21
3.8362163174
  0
LINE
  5
7CE
100
AcDbEntity
  8
AXIS_COSMETIC_THREADS
100
AcDbLine
 62
7
  6
CONTINUOUS
 10
4.4321526622
 20
4.8204682859
 11
4.4321526622
 21
3.8362163174
  0
LINE
  5
7CF
100
AcDbEntity
  8
0
100
AcDbLine
 62
9
  6
CONTINUOUS
 10
4.4345429242
 20
4.8204682859
 11
4.4345429242
 21
3.8362163174
  0
LINE
  5
7D0
100
AcDbEntity
  8
0
100
AcDbLine
 62
9
  6
CONTINUOUS
 10
4.4660377879
 20
4.8204682859
 11
4.4660377879
 21
3.8362163174
  0
LWPOLYLINE
  5
7D1
100
AcDbEntity
  8
0
100
AcDbPolyline
 62
7
  6
CONTINUOUS
 90
13
 70
0
 10
4.4332864678
 20
4.3775549001
 10
4.4331753102
 20
4.3758779559
 10
4.4330717292
 20
4.3709614825
 10
4.4329827827
 20
4.3631405513
 10
4.4329145327
 20
4.3529482899
 10
4.4328716294
 20
4.3410792397
 10
4.432856996
 20
4.3283423017
 10
4.4328716294
 20
4.3156053636
 10
4.4329145327
 20
4.3037363134
 10
4.4329827827
 20
4.2935440521
 10
4.4330717292
 20
4.2857231208
 10
4.4331753102
 20
4.2808066475
 10
4.4332864678
 20
4.2791297032
  0
LWPOLYLINE
  5
7D2
100
AcDbEntity
  8
0
100
AcDbPolyline
 62
7
  6
CONTINUOUS
 90
13
 70
0
 10
4.4332864678
 20
4.2791297032
 10
4.4333976255
 20
4.2808066475
 10
4.4335012065
 20
4.2857231208
 10
4.433590153
 20
4.2935440521
 10
4.4336584029
 20
4.3037363134
 10
4.4337013063
 20
4.3156053636
 10
4.4337159397
 20
4.3283423017
 10
4.4337013063
 20
4.3410792397
 10
4.4336584029
 20
4.3529482899
 10
4.433590153
 20
4.3631405513
 10
4.4335012065
 20
4.3709614825
 10
4.4333976255
 20
4.3758779559
 10
4.4332864678
 20
4.3775549001
  0
LINE
  5
7D3
100
AcDbEntity
  8
0
100
AcDbLine
 62
7
  6
CONTINUOUS
 10
4.5797904575
 20
4.3283423017
 11
4.5843777867
 21
4.2578778186
  0
LINE
  5
7D4
100
AcDbEntity
  8
0
100
AcDbLine
 62
9
  6
CONTINUOUS
 10
4.530577859
 20
3.7716762463
 11
4.530577859
 21
3.7377911206
  0
LINE
  5
7D5
100
AcDbEntity
  8
0
100
AcDbLine
 62
9
  6
CONTINUOUS
 10
4.530577859
 20
4.885008357
 11
4.530577859
 21
4.9188934828
  0
LWPOLYLINE
  5
7D6
100
AcDbEntity
  8
0
100
AcDbPolyline
 62
7
  6
CONTINUOUS
 90
22
 70
0
 10
4.5843777867
 20
4.2578778186
 10
4.5992115367
 20
4.1887741669
 10
4.6239894536
 20
4.1225138082
 10
4.6581964109
 20
4.0605189358
 10
4.7011144956
 20
4.0041228921
 10
4.751839468
 20
3.9545394682
 10
4.8092990581
 20
3.9128385224
 10
4.8722766937
 20
3.8799221963
 10
4.9394361741
 20
3.8565063952
 10
5.0093515903
 20
3.8431046655
 10
5.0805369487
 20
3.8400177161
 10
5.1514807481
 20
3.8473274229
 10
5.2206683447
 20
3.8648940117
 10
5.2866247476
 20
3.8923588693
 10
5.3479423761
 20
3.929152528
 10
5.4033110062
 20
3.9745067099
 10
5.4515456361
 20
4.0274705917
 10
5.4916116793
 20
4.0869309347
 10
5.5226469682
 20
4.1516356641
 10
5.543980087
 20
4.2202203765
 10
5.5551446614
 20
4.2912372308
 10
5.5558892976
 20
4.3631855879
  0
LWPOLYLINE
  5
7D7
100
AcDbEntity
  8
0
100
AcDbPolyline
 62
7
  6
CONTINUOUS
 90
9
 70
0
 10
4.6779774355
 20
4.0051670118
 10
4.6348650733
 20
4.0618617039
 10
4.5999162235
 20
4.1246505808
 10
4.5740909239
 20
4.192238887
 10
4.5585838393
 20
4.2600742212
 10
4.5526552883
 20
4.3230189279
 10
4.554094307
 20
4.3807464542
 10
4.5614269105
 20
4.4347641154
 10
4.5742110276
 20
4.4868585651
  0
LINE
  5
7D8
100
AcDbEntity
  8
AXIS_COSMETIC_THREADS
100
AcDbLine
 62
2
  6
CENTER
 10
5.062073922
 20
4.3283423017
 11
5.062073922
 21
3.6405470261
  0
LINE
  5
7D9
100
AcDbEntity
  8
AXIS_COSMETIC_THREADS
100
AcDbLine
 62
2
  6
CENTER
 10
5.062073922
 20
4.3283423017
 11
5.062073922
 21
5.0161375773
  0
LWPOLYLINE
  5
7DA
100
AcDbEntity
  8
0
100
AcDbPolyline
 62
7
  6
CONTINUOUS
 90
7
 70
0
 10
5.062073922
 20
3.7384954544
 10
5.0748108287
 20
3.7385100877
 10
5.0866798882
 20
3.738552991
 10
5.0968721624
 20
3.738621241
 10
5.1046930899
 20
3.7387101874
 10
5.1096095812
 20
3.7388137688
 10
5.1112865204
 20
3.7389249262
  0
LWPOLYLINE
  5
7DB
100
AcDbEntity
  8
0
100
AcDbPolyline
 62
7
  6
CONTINUOUS
 90
7
 70
0
 10
5.062073922
 20
3.7393543981
 10
5.0493370153
 20
3.7393397648
 10
5.0374679559
 20
3.7392968614
 10
5.0272756816
 20
3.7392286115
 10
5.0194547542
 20
3.7391396651
 10
5.0145382628
 20
3.7390360837
 10
5.0128613236
 20
3.7389249262
  0
LINE
  5
7DC
100
AcDbEntity
  8
0
100
AcDbLine
 62
7
  6
CONTINUOUS
 10
4.530577859
 20
3.7377911206
 11
5.593569985
 21
3.7377911206
  0
LINE
  5
7DD
100
AcDbEntity
  8
AXIS_COSMETIC_THREADS
100
AcDbLine
 62
7
  6
CONTINUOUS
 10
4.530577859
 20
3.7377911206
 11
5.593569985
 21
3.7377911206
  0
LINE
  5
7DE
100
AcDbEntity
  8
0
100
AcDbLine
 62
9
  6
CONTINUOUS
 10
5.593569985
 20
3.7401813826
 11
4.530577859
 21
3.7401813826
  0
LINE
  5
7DF
100
AcDbEntity
  8
0
100
AcDbLine
 62
9
  6
CONTINUOUS
 10
4.530577859
 20
3.7716762463
 11
4.8733249119
 21
3.7716762463
  0
LINE
  5
7E0
100
AcDbEntity
  8
0
100
AcDbLine
 62
9
  6
CONTINUOUS
 10
5.2508229321
 20
3.7716762463
 11
5.593569985
 21
3.7716762463
  0
LWPOLYLINE
  5
7E1
100
AcDbEntity
  8
0
100
AcDbPolyline
 62
7
  6
CONTINUOUS
 90
11
 70
0
 10
5.062073922
 20
3.7402956816
 10
5.0492708331
 20
3.7404472796
 10
5.0361286042
 20
3.7409034103
 10
5.0219586866
 20
3.741727276
 10
5.0064146006
 20
3.7430267993
 10
4.9891774929
 20
3.7449543511
 10
4.9701959191
 20
3.7476740389
 10
4.9495046141
 20
3.7513608082
 10
4.9268029201
 20
3.7562879026
 10
4.9015658062
 20
3.76287497
 10
4.8733249119
 20
3.7716762463
  0
LWPOLYLINE
  5
7E2
100
AcDbEntity
  8
0
100
AcDbPolyline
 62
7
  6
CONTINUOUS
 90
7
 70
0
 10
5.0128613236
 20
3.7389249262
 10
5.0145382628
 20
3.7388137688
 10
5.0194547542
 20
3.7387101874
 10
5.0272756816
 20
3.738621241
 10
5.0374679559
 20
3.738552991
 10
5.0493370153
 20
3.7385100877
 10
5.062073922
 20
3.7384954544
  0
LWPOLYLINE
  5
7E3
100
AcDbEntity
  8
0
100
AcDbPolyline
 62
7
  6
CONTINUOUS
 90
7
 70
0
 10
5.1112865204
 20
3.7389249262
 10
5.1096095812
 20
3.7390360837
 10
5.1046930899
 20
3.7391396651
 10
5.0968721624
 20
3.7392286115
 10
5.0866798882
 20
3.7392968614
 10
5.0748108287
 20
3.7393397648
 10
5.062073922
 20
3.7393543981
  0
LWPOLYLINE
  5
7E4
100
AcDbEntity
  8
0
100
AcDbPolyline
 62
7
  6
CONTINUOUS
 90
11
 70
0
 10
5.2508229321
 20
3.7716762463
 10
5.2228118746
 20
3.7629404319
 10
5.1977685647
 20
3.7563887489
 10
5.1752087876
 20
3.7514722693
 10
5.1545994544
 20
3.7477779415
 10
5.1356194926
 20
3.7450369893
 10
5.118313424
 20
3.7430833397
 10
5.1026571862
 20
3.7417603531
 10
5.0883411992
 20
3.7409183125
 10
5.0750331004
 20
3.7404509427
 10
5.062073922
 20
3.7402956816
  0
LINE
  5
7E5
100
AcDbEntity
  8
0
100
AcDbLine
 62
9
  6
CONTINUOUS
 10
4.4660377879
 20
3.8362163174
 11
4.4321526622
 21
3.8362163174
  0
LINE
  5
7E6
100
AcDbEntity
  8
0
100
AcDbLine
 62
9
  6
CONTINUOUS
 10
5.6581100561
 20
3.8362163174
 11
5.6919951819
 21
3.8362163174
  0
LINE
  5
7E7
100
AcDbEntity
  8
0
100
AcDbLine
 62
9
  6
CONTINUOUS
 10
5.593569985
 20
3.7716762463
 11
5.593569985
 21
3.7377911206
  0
LINE
  5
7E8
100
AcDbEntity
  8
0
100
AcDbLine
 62
9
  6
CONTINUOUS
 10
5.593569985
 20
4.885008357
 11
5.593569985
 21
4.9188934828
  0
LINE
  5
7E9
100
AcDbEntity
  8
0
100
AcDbLine
 62
9
  6
CONTINUOUS
 10
5.6581100561
 20
3.8362163174
 11
5.6581100561
 21
4.8204682859
  0
LINE
  5
7EA
100
AcDbEntity
  8
AXIS_COSMETIC_THREADS
100
AcDbLine
 62
2
  6
CENTER
 10
5.062073922
 20
4.3283423017
 11
4.3742786464
 21
4.3283423017
  0
LINE
  5
7EB
100
AcDbEntity
  8
AXIS_COSMETIC_THREADS
100
AcDbLine
 62
2
  6
CENTER
 10
5.062073922
 20
4.3283423017
 11
5.7498691976
 21
4.3283423017
  0
LWPOLYLINE
  5
7EC
100
AcDbEntity
  8
0
100
AcDbPolyline
 62
7
  6
CONTINUOUS
 90
13
 70
0
 10
5.5558892976
 20
4.3631855879
 10
5.5461829687
 20
4.4345437682
 10
5.5262157363
 20
4.5038012392
 10
5.4963947968
 20
4.5694905611
 10
5.4573359401
 20
4.6302184114
 10
5.4098506066
 20
4.6846950338
 10
5.354928814
 20
4.7317614977
 10
5.2937183237
 20
4.7704141847
 10
5.2275004896
 20
4.7998259937
 10
5.1576632946
 20
4.8193638232
 10
5.0856721514
 20
4.8286019611
 10
5.0130391126
 20
4.8273311087
 10
4.9412910063
 20
4.8155628536
  0
LINE
  5
7ED
100
AcDbEntity
  8
0
100
AcDbLine
 62
9
  6
CONTINUOUS
 10
5.6896049198
 20
3.8362163174
 11
5.6896049198
 21
4.8204682859
  0
LINE
  5
7EE
100
AcDbEntity
  8
AXIS_COSMETIC_THREADS
100
AcDbLine
 62
7
  6
CONTINUOUS
 10
5.6919951819
 20
3.8362163174
 11
5.6919951819
 21
4.8204682859
  0
LINE
  5
7EF
100
AcDbEntity
  8
0
100
AcDbLine
 62
7
  6
CONTINUOUS
 10
5.6919951819
 20
3.8362163174
 11
5.6919951819
 21
4.8204682859
  0
LINE
  5
7F0
100
AcDbEntity
  8
AXIS_COSMETIC_THREADS
100
AcDbLine
 62
7
  6
CONTINUOUS
 10
4.8912967036
 20
4.755507656
 11
5.2328511404
 21
4.755507656
  0
LINE
  5
7F1
100
AcDbEntity
  8
0
100
AcDbLine
 62
9
  6
CONTINUOUS
 10
4.4660377879
 20
4.8204682859
 11
4.4321526622
 21
4.8204682859
  0
LINE
  5
7F2
100
AcDbEntity
  8
0
100
AcDbLine
 62
9
  6
CONTINUOUS
 10
5.6581100561
 20
4.8204682859
 11
5.6919951819
 21
4.8204682859
  0
LWPOLYLINE
  5
7F3
100
AcDbEntity
  8
0
100
AcDbPolyline
 62
7
  6
CONTINUOUS
 90
7
 70
0
 10
5.062073922
 20
4.9173302053
 10
5.0748108287
 20
4.9173448386
 10
5.0866798882
 20
4.9173877419
 10
5.0968721624
 20
4.9174559919
 10
5.1046930899
 20
4.9175449383
 10
5.1096095812
 20
4.9176485197
 10
5.1112865204
 20
4.9177596771
  0
LWPOLYLINE
  5
7F4
100
AcDbEntity
  8
0
100
AcDbPolyline
 62
7
  6
CONTINUOUS
 90
7
 70
0
 10
5.062073922
 20
4.918189149
 10
5.0493370153
 20
4.9181745156
 10
5.0374679559
 20
4.9181316123
 10
5.0272756816
 20
4.9180633624
 10
5.0194547542
 20
4.9179744159
 10
5.0145382628
 20
4.9178708346
 10
5.0128613236
 20
4.9177596771
  0
LINE
  5
7F5
100
AcDbEntity
  8
0
100
AcDbLine
 62
9
  6
CONTINUOUS
 10
5.593569985
 20
4.885008357
 11
5.2508229321
 21
4.885008357
  0
LINE
  5
7F6
100
AcDbEntity
  8
0
100
AcDbLine
 62
9
  6
CONTINUOUS
 10
4.8733249119
 20
4.885008357
 11
4.530577859
 21
4.885008357
  0
LINE
  5
7F7
100
AcDbEntity
  8
0
100
AcDbLine
 62
9
  6
CONTINUOUS
 10
4.530577859
 20
4.9165032208
 11
5.593569985
 21
4.9165032208
  0
LINE
  5
7F8
100
AcDbEntity
  8
AXIS_COSMETIC_THREADS
100
AcDbLine
 62
7
  6
CONTINUOUS
 10
5.593569985
 20
4.9188934828
 11
4.530577859
 21
4.9188934828
  0
LINE
  5
7F9
100
AcDbEntity
  8
0
100
AcDbLine
 62
7
  6
CONTINUOUS
 10
5.593569985
 20
4.9188934828
 11
4.530577859
 21
4.9188934828
  0
LWPOLYLINE
  5
7FA
100
AcDbEntity
  8
0
100
AcDbPolyline
 62
7
  6
CONTINUOUS
 90
11
 70
0
 10
5.062073922
 20
4.9163889218
 10
5.0748770109
 20
4.9162373238
 10
5.0880192399
 20
4.915781193
 10
5.1021891575
 20
4.9149573273
 10
5.1177332435
 20
4.9136578041
 10
5.1349703511
 20
4.9117302522
 10
5.1539519249
 20
4.9090105644
 10
5.1746432299
 20
4.9053237951
 10
5.1973449239
 20
4.9003967008
 10
5.2225820378
 20
4.8938096334
 10
5.2508229321
 20
4.885008357
  0
LWPOLYLINE
  5
7FB
100
AcDbEntity
  8
0
100
AcDbPolyline
 62
7
  6
CONTINUOUS
 90
7
 70
0
 10
5.0128613236
 20
4.9177596771
 10
5.0145382628
 20
4.9176485197
 10
5.0194547542
 20
4.9175449383
 10
5.0272756816
 20
4.9174559919
 10
5.0374679559
 20
4.9173877419
 10
5.0493370153
 20
4.9173448386
 10
5.062073922
 20
4.9173302053
  0
LWPOLYLINE
  5
7FC
100
AcDbEntity
  8
0
100
AcDbPolyline
 62
7
  6
CONTINUOUS
 90
7
 70
0
 10
5.1112865204
 20
4.9177596771
 10
5.1096095812
 20
4.9178708346
 10
5.1046930899
 20
4.9179744159
 10
5.0968721624
 20
4.9180633624
 10
5.0866798882
 20
4.9181316123
 10
5.0748108287
 20
4.9181745156
 10
5.062073922
 20
4.918189149
  0
CIRCLE
  5
7FD
100
AcDbEntity
  8
0
100
AcDbCircle
 62
7
  6
CONTINUOUS
 10
10.5342808475
 20
1.243294839
 40
0.252091
  0
CIRCLE
  5
7FE
100
AcDbEntity
  8
0
100
AcDbCircle
 62
7
  6
CONTINUOUS
 10
10.5342808475
 20
1.243294839
 40
0.182698
  0
ARC
  5
7FF
100
AcDbEntity
  8
0
100
AcDbCircle
 62
7
  6
CONTINUOUS
 10
7.3646269952
 20
6.4059148189
 40
0.031496063
100
AcDbArc
 50
180.0
 51
269.4999999999
  0
CIRCLE
  5
800
100
AcDbEntity
  8
DEFAULT_2
100
AcDbCircle
 62
8
  6
HIDDEN
 10
7.5083277826
 20
7.001950953
 40
0.0590551181
  0
CIRCLE
  5
801
100
AcDbEntity
  8
0
100
AcDbCircle
 62
7
  6
CONTINUOUS
 10
7.5083277826
 20
7.001950953
 40
0.0492125984
  0
ARC
  5
802
100
AcDbEntity
  8
0
100
AcDbCircle
 62
7
  6
CONTINUOUS
 10
7.3646269952
 20
7.5979870871
 40
0.031496063
100
AcDbArc
 50
90.5
 51
180.0
  0
ARC
  5
803
100
AcDbEntity
  8
AXIS_COSMETIC_THREADS
100
AcDbCircle
 62
7
  6
CONTINUOUS
 10
9.727284827
 20
6.5066753625
 40
0.25
100
AcDbArc
 50
337.9413489379
 51
348.4056404208
  0
ARC
  5
804
100
AcDbEntity
  8
AXIS_COSMETIC_THREADS
100
AcDbCircle
 62
7
  6
CONTINUOUS
 10
9.727284827
 20
6.5066753625
 40
0.25
100
AcDbArc
 50
11.5943595792
 51
18.0446764043
  0
ARC
  5
805
100
AcDbEntity
  8
0
100
AcDbCircle
 62
7
  6
CONTINUOUS
 10
9.727284827
 20
6.5066753625
 40
0.2495495943
100
AcDbArc
 50
3.4460286884
 51
11.5580686517
  0
ARC
  5
806
100
AcDbEntity
  8
0
100
AcDbCircle
 62
7
  6
CONTINUOUS
 10
9.727284827
 20
6.5066753625
 40
0.2495495943
100
AcDbArc
 50
348.4419313483
 51
356.5539713116
  0
ARC
  5
807
100
AcDbEntity
  8
0
100
AcDbCircle
 62
7
  6
CONTINUOUS
 10
9.727284827
 20
6.5066753625
 40
0.2449489743
100
AcDbArc
 50
356.4891677884
 51
3.5108322116
  0
ARC
  5
808
100
AcDbEntity
  8
0
100
AcDbCircle
 62
7
  6
CONTINUOUS
 10
9.9413986487
 20
6.4059663555
 40
0.031496063
100
AcDbArc
 50
270.5
 51
360.0
  0
ARC
  5
809
100
AcDbEntity
  8
0
100
AcDbCircle
 62
7
  6
CONTINUOUS
 10
9.9358148009
 20
6.4221753625
 40
0.025
100
AcDbArc
 50
270.0000053165
 51
337.9413728511
  0
ARC
  5
80A
100
AcDbEntity
  8
0
100
AcDbCircle
 62
7
  6
CONTINUOUS
 10
9.8902175464
 20
6.3858339159
 40
0.0118110236
100
AcDbArc
 50
270.5
 51
360.0
  0
ARC
  5
80B
100
AcDbEntity
  8
0
100
AcDbCircle
 62
7
  6
CONTINUOUS
 10
9.727284827
 20
7.4972265436
 40
0.2495495943
100
AcDbArc
 50
3.4460286884
 51
10.1003547709
  0
ARC
  5
80C
100
AcDbEntity
  8
0
100
AcDbCircle
 62
7
  6
CONTINUOUS
 10
9.727284827
 20
7.4972265436
 40
0.2495495943
100
AcDbArc
 50
349.8996452291
 51
356.5539713116
  0
CIRCLE
  5
80D
100
AcDbEntity
  8
DEFAULT_2
100
AcDbCircle
 62
8
  6
HIDDEN
 10
9.8114773889
 20
7.001950953
 40
0.0590551181
  0
CIRCLE
  5
80E
100
AcDbEntity
  8
0
100
AcDbCircle
 62
7
  6
CONTINUOUS
 10
9.8114773889
 20
7.001950953
 40
0.0492125984
  0
ARC
  5
80F
100
AcDbEntity
  8
0
100
AcDbCircle
 62
7
  6
CONTINUOUS
 10
9.9413986487
 20
7.5979355505
 40
0.031496063
100
AcDbArc
 50
0.0
 51
89.5
  0
CIRCLE
  5
810
100
AcDbEntity
  8
AXIS_COSMETIC_THREADS
100
AcDbCircle
 62
7
  6
CONTINUOUS
 10
9.8114773889
 20
7.001950953
 40
0.0164511913
  0
ARC
  5
811
100
AcDbEntity
  8
0
100
AcDbCircle
 62
7
  6
CONTINUOUS
 10
7.3646269952
 20
3.7716762463
 40
0.031496063
100
AcDbArc
 50
180.0
 51
269.5
  0
ARC
  5
812
100
AcDbEntity
  8
0
100
AcDbCircle
 62
7
  6
CONTINUOUS
 10
7.3646269952
 20
4.885008357
 40
0.031496063
100
AcDbArc
 50
90.5
 51
180.0
  0
ARC
  5
813
100
AcDbEntity
  8
0
100
AcDbCircle
 62
7
  6
CONTINUOUS
 10
9.727284827
 20
3.8724367899
 40
0.2495495943
100
AcDbArc
 50
3.4460286884
 51
10.1480655499
  0
ARC
  5
814
100
AcDbEntity
  8
0
100
AcDbCircle
 62
7
  6
CONTINUOUS
 10
9.727284827
 20
3.8724367899
 40
0.2495495943
100
AcDbArc
 50
349.8519344501
 51
356.5539713116
  0
CIRCLE
  5
815
100
AcDbEntity
  8
DEFAULT_2
100
AcDbCircle
 62
8
  6
HIDDEN
 10
9.8114773889
 20
4.3283423017
 40
0.125
  0
CIRCLE
  5
816
100
AcDbEntity
  8
0
100
AcDbCircle
 62
7
  6
CONTINUOUS
 10
9.8114773889
 20
4.3283423017
 40
0.1005
  0
ARC
  5
817
100
AcDbEntity
  8
0
100
AcDbCircle
 62
7
  6
CONTINUOUS
 10
9.9413986487
 20
3.7717277829
 40
0.031496063
100
AcDbArc
 50
270.5
 51
360.0
  0
ARC
  5
818
100
AcDbEntity
  8
AXIS_COSMETIC_THREADS
100
AcDbCircle
 62
7
  6
CONTINUOUS
 10
9.727284827
 20
4.7842478135
 40
0.25
100
AcDbArc
 50
341.9543988692
 51
348.4630409672
  0
ARC
  5
819
100
AcDbEntity
  8
AXIS_COSMETIC_THREADS
100
AcDbCircle
 62
7
  6
CONTINUOUS
 10
9.727284827
 20
4.7842478135
 40
0.25
100
AcDbArc
 50
11.5369590328
 51
22.0586537192
  0
ARC
  5
81A
100
AcDbEntity
  8
0
100
AcDbCircle
 62
7
  6
CONTINUOUS
 10
9.727284827
 20
4.7842478135
 40
0.2495495943
100
AcDbArc
 50
3.4460286884
 51
11.5580686517
  0
ARC
  5
81B
100
AcDbEntity
  8
0
100
AcDbCircle
 62
7
  6
CONTINUOUS
 10
9.727284827
 20
4.7842478135
 40
0.2495495943
100
AcDbArc
 50
348.4419313483
 51
356.5539713116
  0
ARC
  5
81C
100
AcDbEntity
  8
0
100
AcDbCircle
 62
7
  6
CONTINUOUS
 10
9.727284827
 20
4.7842478135
 40
0.2449489743
100
AcDbArc
 50
356.4891677884
 51
3.5108322116
  0
ARC
  5
81D
100
AcDbEntity
  8
0
100
AcDbCircle
 62
7
  6
CONTINUOUS
 10
9.9413986487
 20
4.8849568204
 40
0.031496063
100
AcDbArc
 50
0.0
 51
89.5
  0
ARC
  5
81E
100
AcDbEntity
  8
0
100
AcDbCircle
 62
7
  6
CONTINUOUS
 10
9.9358148009
 20
4.8687478135
 40
0.025
100
AcDbArc
 50
22.0586536992
 51
89.9999999922
  0
ARC
  5
81F
100
AcDbEntity
  8
0
100
AcDbCircle
 62
7
  6
CONTINUOUS
 10
9.8902175464
 20
4.9050892601
 40
0.0118110236
100
AcDbArc
 50
0.0
 51
89.5
  0
ARC
  5
820
100
AcDbEntity
  8
0
100
AcDbCircle
 62
7
  6
CONTINUOUS
 10
12.3928112765
 20
3.8362163174
 40
0.0984251969
100
AcDbArc
 50
180.0
 51
270.0
  0
ARC
  5
821
100
AcDbEntity
  8
AXIS_COSMETIC_THREADS
100
AcDbCircle
 62
7
  6
CONTINUOUS
 10
12.3928112765
 20
3.8362163174
 40
0.0984251969
100
AcDbArc
 50
191.4547393014
 51
270.0
  0
ARC
  5
822
100
AcDbEntity
  8
0
100
AcDbCircle
 62
9
  6
CONTINUOUS
 10
12.3928112765
 20
3.8362163174
 40
0.0959833982
100
AcDbArc
 50
180.0
 51
270.0
  0
ARC
  5
823
100
AcDbEntity
  8
0
100
AcDbCircle
 62
9
  6
CONTINUOUS
 10
12.3928112765
 20
3.8362163174
 40
0.0644885338
100
AcDbArc
 50
180.0
 51
270.0
  0
CIRCLE
  5
824
100
AcDbEntity
  8
0
100
AcDbCircle
 62
7
  6
CONTINUOUS
 10
12.8338855605
 20
4.2586327043
 40
0.0118110236
  0
CIRCLE
  5
825
100
AcDbEntity
  8
0
100
AcDbCircle
 62
9
  6
CONTINUOUS
 10
12.8338855605
 20
4.2586327043
 40
0.0007873971
  0
CIRCLE
  5
826
100
AcDbEntity
  8
0
100
AcDbCircle
 62
7
  6
CONTINUOUS
 10
12.8101341115
 20
4.3283323382
 40
0.0118110236
  0
CIRCLE
  5
827
100
AcDbEntity
  8
0
100
AcDbCircle
 62
9
  6
CONTINUOUS
 10
12.8101341115
 20
4.3283323382
 40
0.0007873971
  0
CIRCLE
  5
828
100
AcDbEntity
  8
0
100
AcDbCircle
 62
7
  6
CONTINUOUS
 10
12.8952482483
 20
4.2179290086
 40
0.0118110236
  0
CIRCLE
  5
829
100
AcDbEntity
  8
0
100
AcDbCircle
 62
9
  6
CONTINUOUS
 10
12.8952482483
 20
4.2179290086
 40
0.0007873971
  0
CIRCLE
  5
82A
100
AcDbEntity
  8
0
100
AcDbCircle
 62
7
  6
CONTINUOUS
 10
12.9026537961
 20
4.2908372645
 40
0.0118110236
  0
CIRCLE
  5
82B
100
AcDbEntity
  8
0
100
AcDbCircle
 62
9
  6
CONTINUOUS
 10
12.9026537961
 20
4.2908372645
 40
0.0007873971
  0
ARC
  5
82C
100
AcDbEntity
  8
0
100
AcDbCircle
 62
9
  6
CONTINUOUS
 10
12.4290317489
 20
4.7842478135
 40
0.155511811
100
AcDbArc
 50
229.6393180521
 51
40.3606709212
  0
ARC
  5
82D
100
AcDbEntity
  8
0
100
AcDbCircle
 62
7
  6
CONTINUOUS
 10
12.4290317489
 20
4.7842478135
 40
0.124015748
100
AcDbArc
 50
225.0
 51
45.0
  0
ARC
  5
82E
100
AcDbEntity
  8
0
100
AcDbCircle
 62
9
  6
CONTINUOUS
 10
12.4290317489
 20
4.7842478135
 40
0.1161417196
100
AcDbArc
 50
225.0
 51
45.0
  0
CIRCLE
  5
82F
100
AcDbEntity
  8
0
100
AcDbCircle
 62
7
  6
CONTINUOUS
 10
12.4290317489
 20
4.7842478135
 40
0.1095
  0
ARC
  5
830
100
AcDbEntity
  8
0
100
AcDbCircle
 62
7
  6
CONTINUOUS
 10
12.3928112765
 20
4.8204682859
 40
0.0984251969
100
AcDbArc
 50
90.0
 51
180.0
  0
ARC
  5
831
100
AcDbEntity
  8
AXIS_COSMETIC_THREADS
100
AcDbCircle
 62
7
  6
CONTINUOUS
 10
12.3928112765
 20
4.8204682859
 40
0.0984251969
100
AcDbArc
 50
101.4547393014
 51
180.0
  0
ARC
  5
832
100
AcDbEntity
  8
0
100
AcDbCircle
 62
7
  6
CONTINUOUS
 10
12.3928112765
 20
4.8204682859
 40
0.096431548
100
AcDbArc
 50
90.0
 51
180.0
  0
CIRCLE
  5
833
100
AcDbEntity
  8
0
100
AcDbCircle
 62
9
  6
CONTINUOUS
 10
12.4290317489
 20
4.7842478135
 40
0.093888839
  0
ARC
  5
834
100
AcDbEntity
  8
0
100
AcDbCircle
 62
9
  6
CONTINUOUS
 10
12.3928112765
 20
4.8204682859
 40
0.0846209724
100
AcDbArc
 50
90.0
 51
180.0
  0
CIRCLE
  5
835
100
AcDbEntity
  8
0
100
AcDbCircle
 62
7
  6
CONTINUOUS
 10
12.8338733953
 20
4.3980361164
 40
0.0118110236
  0
CIRCLE
  5
836
100
AcDbEntity
  8
0
100
AcDbCircle
 62
9
  6
CONTINUOUS
 10
12.8338733953
 20
4.3980361164
 40
0.0007873971
  0
CIRCLE
  5
837
100
AcDbEntity
  8
0
100
AcDbCircle
 62
7
  6
CONTINUOUS
 10
12.9026537961
 20
4.3658473388
 40
0.0118110236
  0
CIRCLE
  5
838
100
AcDbEntity
  8
0
100
AcDbCircle
 62
9
  6
CONTINUOUS
 10
12.9026537961
 20
4.3658473388
 40
0.0007873971
  0
CIRCLE
  5
839
100
AcDbEntity
  8
0
100
AcDbCircle
 62
7
  6
CONTINUOUS
 10
12.895228978
 20
4.4387505213
 40
0.0118110236
  0
CIRCLE
  5
83A
100
AcDbEntity
  8
0
100
AcDbCircle
 62
9
  6
CONTINUOUS
 10
12.895228978
 20
4.4387505213
 40
0.0007873971
  0
CIRCLE
  5
83B
100
AcDbEntity
  8
0
100
AcDbCircle
 62
7
  6
CONTINUOUS
 10
13.0236835649
 20
4.2721293861
 40
0.0118110236
  0
CIRCLE
  5
83C
100
AcDbEntity
  8
0
100
AcDbCircle
 62
7
  6
CONTINUOUS
 10
12.9686981615
 20
4.2231520883
 40
0.0118110236
  0
CIRCLE
  5
83D
100
AcDbEntity
  8
0
100
AcDbCircle
 62
9
  6
CONTINUOUS
 10
13.0236835649
 20
4.2721293861
 40
0.0007873971
  0
CIRCLE
  5
83E
100
AcDbEntity
  8
0
100
AcDbCircle
 62
9
  6
CONTINUOUS
 10
12.9686981615
 20
4.2231520883
 40
0.0007873971
  0
ARC
  5
83F
100
AcDbEntity
  8
0
100
AcDbCircle
 62
9
  6
CONTINUOUS
 10
13.41958293
 20
3.8724367899
 40
0.155511811
100
AcDbArc
 50
49.6393272749
 51
220.3606819479
  0
ARC
  5
840
100
AcDbEntity
  8
0
100
AcDbCircle
 62
7
  6
CONTINUOUS
 10
13.41958293
 20
3.8724367899
 40
0.124015748
100
AcDbArc
 50
45.0
 51
225.0
  0
ARC
  5
841
100
AcDbEntity
  8
0
100
AcDbCircle
 62
9
  6
CONTINUOUS
 10
13.41958293
 20
3.8724367899
 40
0.1161417196
100
AcDbArc
 50
45.0
 51
225.0
  0
CIRCLE
  5
842
100
AcDbEntity
  8
0
100
AcDbCircle
 62
7
  6
CONTINUOUS
 10
13.41958293
 20
3.8724367899
 40
0.1095
  0
ARC
  5
843
100
AcDbEntity
  8
0
100
AcDbCircle
 62
7
  6
CONTINUOUS
 10
13.4558034024
 20
3.8362163174
 40
0.0984251969
100
AcDbArc
 50
270.0
 51
360.0
  0
ARC
  5
844
100
AcDbEntity
  8
AXIS_COSMETIC_THREADS
100
AcDbCircle
 62
7
  6
CONTINUOUS
 10
13.4558034024
 20
3.8362163174
 40
0.0984251969
100
AcDbArc
 50
281.4547393014
 51
360.0
  0
ARC
  5
845
100
AcDbEntity
  8
0
100
AcDbCircle
 62
7
  6
CONTINUOUS
 10
13.4558034024
 20
3.8362163174
 40
0.096431548
100
AcDbArc
 50
270.0
 51
360.0
  0
CIRCLE
  5
846
100
AcDbEntity
  8
0
100
AcDbCircle
 62
9
  6
CONTINUOUS
 10
13.41958293
 20
3.8724367899
 40
0.093888839
  0
ARC
  5
847
100
AcDbEntity
  8
0
100
AcDbCircle
 62
9
  6
CONTINUOUS
 10
13.4558034024
 20
3.8362163174
 40
0.0846209724
100
AcDbArc
 50
270.0
 51
360.0
  0
ARC
  5
848
100
AcDbEntity
  8
0
100
AcDbCircle
 62
7
  6
CONTINUOUS
 10
12.9243073394
 20
4.3283423017
 40
0.3937007874
100
AcDbArc
 50
18.1948723388
 51
41.8051276612
  0
ARC
  5
849
100
AcDbEntity
  8
0
100
AcDbCircle
 62
7
  6
CONTINUOUS
 10
12.9243073394
 20
4.3283423017
 40
0.3937007874
100
AcDbArc
 50
318.1948723388
 51
341.8051276612
  0
ARC
  5
84A
100
AcDbEntity
  8
0
100
AcDbCircle
 62
7
  6
CONTINUOUS
 10
12.9243073394
 20
4.3283423017
 40
0.3937007874
100
AcDbArc
 50
198.1948723388
 51
221.8051276612
  0
ARC
  5
84B
100
AcDbEntity
  8
0
100
AcDbCircle
 62
7
  6
CONTINUOUS
 10
12.9243073394
 20
4.3283423017
 40
0.3937007874
100
AcDbArc
 50
138.1948723388
 51
161.8051276612
  0
ARC
  5
84C
100
AcDbEntity
  8
0
100
AcDbCircle
 62
7
  6
CONTINUOUS
 10
12.9243073394
 20
4.3283423017
 40
0.3937007874
100
AcDbArc
 50
258.1948723388
 51
281.8051276612
  0
ARC
  5
84D
100
AcDbEntity
  8
0
100
AcDbCircle
 62
7
  6
CONTINUOUS
 10
12.9243073394
 20
4.3283423017
 40
0.3937007874
100
AcDbArc
 50
78.1948723388
 51
101.8051276612
  0
CIRCLE
  5
84E
100
AcDbEntity
  8
0
100
AcDbCircle
 62
7
  6
CONTINUOUS
 10
12.9243073394
 20
4.3283423017
 40
0.3149606299
  0
ARC
  5
84F
100
AcDbEntity
  8
0
100
AcDbCircle
 62
7
  6
CONTINUOUS
 10
12.9243073394
 20
4.3283423017
 40
0.2978346457
100
AcDbArc
 50
251.8404834738
 51
289.6960623914
  0
ARC
  5
850
100
AcDbEntity
  8
0
100
AcDbCircle
 62
7
  6
CONTINUOUS
 10
12.9243073394
 20
4.3283423017
 40
0.2921260497
100
AcDbArc
 50
200.8081657256
 51
249.2854924113
  0
ARC
  5
851
100
AcDbEntity
  8
0
100
AcDbCircle
 62
7
  6
CONTINUOUS
 10
12.9243073394
 20
4.3283423017
 40
0.2921260497
100
AcDbArc
 50
53.0557923034
 51
154.3802505217
  0
ARC
  5
852
100
AcDbEntity
  8
0
100
AcDbCircle
 62
7
  6
CONTINUOUS
 10
12.9243073394
 20
4.3283423017
 40
0.2724409449
100
AcDbArc
 50
32.3297930404
 51
57.5200548725
  0
ARC
  5
853
100
AcDbEntity
  8
0
100
AcDbCircle
 62
7
  6
CONTINUOUS
 10
12.9243073394
 20
4.3283423017
 40
0.2724409449
100
AcDbArc
 50
212.9475809912
 51
237.5555105864
  0
CIRCLE
  5
854
100
AcDbEntity
  8
0
100
AcDbCircle
 62
7
  6
CONTINUOUS
 10
12.9243073394
 20
4.3283423017
 40
0.2584645842
  0
CIRCLE
  5
855
100
AcDbEntity
  8
0
100
AcDbCircle
 62
7
  6
CONTINUOUS
 10
12.9243073394
 20
4.3283423017
 40
0.2037401575
  0
CIRCLE
  5
856
100
AcDbEntity
  8
0
100
AcDbCircle
 62
7
  6
CONTINUOUS
 10
12.9243073394
 20
4.3283423017
 40
0.1633858268
  0
CIRCLE
  5
857
100
AcDbEntity
  8
0
100
AcDbCircle
 62
7
  6
CONTINUOUS
 10
12.9676144261
 20
4.3283423017
 40
0.0118110236
  0
CIRCLE
  5
858
100
AcDbEntity
  8
0
100
AcDbCircle
 62
9
  6
CONTINUOUS
 10
12.9676144261
 20
4.3283423017
 40
0.0007873971
  0
CIRCLE
  5
859
100
AcDbEntity
  8
0
100
AcDbCircle
 62
7
  6
CONTINUOUS
 10
12.9686798016
 20
4.4335402611
 40
0.0118110236
  0
CIRCLE
  5
85A
100
AcDbEntity
  8
0
100
AcDbCircle
 62
9
  6
CONTINUOUS
 10
12.9686798016
 20
4.4335402611
 40
0.0007873971
  0
ARC
  5
85B
100
AcDbEntity
  8
0
100
AcDbCircle
 62
7
  6
CONTINUOUS
 10
13.064071119
 20
4.3283423017
 40
0.0236220472
100
AcDbArc
 50
90.0
 51
270.0
  0
CIRCLE
  5
85C
100
AcDbEntity
  8
0
100
AcDbCircle
 62
7
  6
CONTINUOUS
 10
13.0236786591
 20
4.3845638892
 40
0.0118110236
  0
CIRCLE
  5
85D
100
AcDbEntity
  8
0
100
AcDbCircle
 62
9
  6
CONTINUOUS
 10
13.0236786591
 20
4.3845638892
 40
0.0007873971
  0
ARC
  5
85E
100
AcDbEntity
  8
0
100
AcDbCircle
 62
7
  6
CONTINUOUS
 10
13.4558034024
 20
4.8204682859
 40
0.0984251969
100
AcDbArc
 50
0.0
 51
90.0
  0
ARC
  5
85F
100
AcDbEntity
  8
AXIS_COSMETIC_THREADS
100
AcDbCircle
 62
7
  6
CONTINUOUS
 10
13.4558034024
 20
4.8204682859
 40
0.0984251969
100
AcDbArc
 50
11.4547393014
 51
90.0
  0
ARC
  5
860
100
AcDbEntity
  8
0
100
AcDbCircle
 62
9
  6
CONTINUOUS
 10
13.4558034024
 20
4.8204682859
 40
0.0959833982
100
AcDbArc
 50
0.0
 51
90.0
  0
CIRCLE
  5
861
100
AcDbEntity
  8
0
100
AcDbCircle
 62
7
  6
CONTINUOUS
 10
13.2983230875
 20
4.6576730103
 40
0.0885826772
  0
CIRCLE
  5
862
100
AcDbEntity
  8
0
100
AcDbCircle
 62
7
  6
CONTINUOUS
 10
13.2983230875
 20
4.6576730103
 40
0.0688976378
  0
CIRCLE
  5
863
100
AcDbEntity
  8
0
100
AcDbCircle
 62
7
  6
CONTINUOUS
 10
13.2983230875
 20
4.6576730103
 40
0.065
  0
ARC
  5
864
100
AcDbEntity
  8
0
100
AcDbCircle
 62
9
  6
CONTINUOUS
 10
13.4558034024
 20
4.8204682859
 40
0.0644885338
100
AcDbArc
 50
0.0
 51
90.0
  0
CIRCLE
  5
865
100
AcDbEntity
  8
0
100
AcDbCircle
 62
7
  6
CONTINUOUS
 10
13.2983230875
 20
4.6576730103
 40
0.0575
  0
ARC
  5
866
100
AcDbEntity
  8
02___PRT_ALL_AXES
100
AcDbCircle
 62
7
  6
CONTINUOUS
 10
13.278559308
 20
4.7220430891
 40
0.049
100
AcDbArc
 50
216.7159890332
 51
221.2987687114
  0
ARC
  5
867
100
AcDbEntity
  8
02___PRT_ALL_AXES
100
AcDbCircle
 62
7
  6
CONTINUOUS
 10
13.278559308
 20
4.7220430891
 40
0.049
100
AcDbArc
 50
352.9427958289
 51
357.5582830693
  0
ARC
  5
868
100
AcDbEntity
  8
DEFAULT_2
100
AcDbCircle
 62
8
  6
HIDDEN
 10
13.2786755268
 20
4.7220355933
 40
0.043
100
AcDbArc
 50
354.9170930749
 51
0.2765643962
  0
ARC
  5
869
100
AcDbEntity
  8
DEFAULT_2
100
AcDbCircle
 62
8
  6
HIDDEN
 10
13.2786755268
 20
4.7220355933
 40
0.043
100
AcDbArc
 50
213.6560890507
 51
218.9980177345
  0
ARC
  5
86A
100
AcDbEntity
  8
AXIS_COSMETIC_THREADS
100
AcDbCircle
 62
7
  6
CONTINUOUS
 10
13.2786755268
 20
4.7220355933
 40
0.035
100
AcDbArc
 50
209.4283807081
 51
215.9967683657
  0
ARC
  5
86B
100
AcDbEntity
  8
AXIS_COSMETIC_THREADS
100
AcDbCircle
 62
7
  6
CONTINUOUS
 10
13.2786755268
 20
4.7220355933
 40
0.035
100
AcDbArc
 50
357.8937788905
 51
4.5213698181
  0
ARC
  5
86C
100
AcDbEntity
  8
AXIS_COSMETIC_THREADS
100
AcDbCircle
 62
7
  6
CONTINUOUS
 10
5.0287869102
 20
4.0381189988
 40
0.1901574803
100
AcDbArc
 50
267.5518450419
 51
333.3531348587
  0
ARC
  5
86D
100
AcDbEntity
  8
AXIS_COSMETIC_THREADS
100
AcDbCircle
 62
7
  6
CONTINUOUS
 10
4.799749297
 20
4.1997989946
 40
0.1901574803
100
AcDbArc
 50
137.4694336392
 51
204.4466332734
  0
ARC
  5
86E
100
AcDbEntity
  8
0
100
AcDbCircle
 62
7
  6
CONTINUOUS
 10
4.530577859
 20
3.8362163174
 40
0.0984251969
100
AcDbArc
 50
180.0
 51
270.0
  0
ARC
  5
86F
100
AcDbEntity
  8
AXIS_COSMETIC_THREADS
100
AcDbCircle
 62
7
  6
CONTINUOUS
 10
4.530577859
 20
3.8362163174
 40
0.0984251969
100
AcDbArc
 50
180.0
 51
258.5374569093
  0
ARC
  5
870
100
AcDbEntity
  8
0
100
AcDbCircle
 62
9
  6
CONTINUOUS
 10
4.530577859
 20
3.8362163174
 40
0.0960349348
100
AcDbArc
 50
180.0
 51
270.0
  0
ARC
  5
871
100
AcDbEntity
  8
0
100
AcDbCircle
 62
9
  6
CONTINUOUS
 10
4.530577859
 20
3.8362163174
 40
0.0645400657
100
AcDbArc
 50
180.0
 51
270.0
  0
ARC
  5
872
100
AcDbEntity
  8
AXIS_COSMETIC_THREADS
100
AcDbCircle
 62
7
  6
CONTINUOUS
 10
4.8912967036
 20
4.5653501757
 40
0.1901574803
100
AcDbArc
 50
90.0
 51
123.00680471
  0
ARC
  5
873
100
AcDbEntity
  8
AXIS_COSMETIC_THREADS
100
AcDbCircle
 62
7
  6
CONTINUOUS
 10
4.799749297
 20
4.4568856088
 40
0.1901574803
100
AcDbArc
 50
158.1509390637
 51
222.5305663608
  0
ARC
  5
874
100
AcDbEntity
  8
0
100
AcDbCircle
 62
7
  6
CONTINUOUS
 10
4.530577859
 20
4.8204682859
 40
0.0984251969
100
AcDbArc
 50
90.0
 51
180.0
  0
ARC
  5
875
100
AcDbEntity
  8
AXIS_COSMETIC_THREADS
100
AcDbCircle
 62
7
  6
CONTINUOUS
 10
4.530577859
 20
4.8204682859
 40
0.0984251969
100
AcDbArc
 50
90.0
 51
168.5374569093
  0
ARC
  5
876
100
AcDbEntity
  8
0
100
AcDbCircle
 62
9
  6
CONTINUOUS
 10
4.530577859
 20
4.8204682859
 40
0.0960349348
100
AcDbArc
 50
90.0
 51
180.0
  0
ARC
  5
877
100
AcDbEntity
  8
0
100
AcDbCircle
 62
9
  6
CONTINUOUS
 10
4.530577859
 20
4.8204682859
 40
0.0645400657
100
AcDbArc
 50
90.0
 51
180.0
  0
ARC
  5
878
100
AcDbEntity
  8
AXIS_COSMETIC_THREADS
100
AcDbCircle
 62
7
  6
CONTINUOUS
 10
5.2741251956
 20
4.1274148321
 40
0.1901574803
100
AcDbArc
 50
246.6468651413
 51
313.1241115193
  0
ARC
  5
879
100
AcDbEntity
  8
0
100
AcDbCircle
 62
7
  6
CONTINUOUS
 10
5.593569985
 20
3.8362163174
 40
0.0984251969
100
AcDbArc
 50
270.0
 51
360.0
  0
ARC
  5
87A
100
AcDbEntity
  8
AXIS_COSMETIC_THREADS
100
AcDbCircle
 62
7
  6
CONTINUOUS
 10
5.593569985
 20
3.8362163174
 40
0.0984251969
100
AcDbArc
 50
270.0
 51
348.5374569093
  0
ARC
  5
87B
100
AcDbEntity
  8
0
100
AcDbCircle
 62
9
  6
CONTINUOUS
 10
5.593569985
 20
3.8362163174
 40
0.0960349348
100
AcDbArc
 50
270.0
 51
360.0
  0
ARC
  5
87C
100
AcDbEntity
  8
0
100
AcDbCircle
 62
9
  6
CONTINUOUS
 10
5.593569985
 20
3.8362163174
 40
0.0645400657
100
AcDbArc
 50
270.0
 51
360.0
  0
ARC
  5
87D
100
AcDbEntity
  8
0
100
AcDbCircle
 62
7
  6
CONTINUOUS
 10
5.062073922
 20
4.3283423017
 40
0.5877952756
100
AcDbArc
 50
288.7302792338
 51
71.2697207662
  0
ARC
  5
87E
100
AcDbEntity
  8
0
100
AcDbCircle
 62
7
  6
CONTINUOUS
 10
5.062073922
 20
4.3283423017
 40
0.5877952756
100
AcDbArc
 50
108.7302792338
 51
251.2697207662
  0
CIRCLE
  5
87F
100
AcDbEntity
  8
0
100
AcDbCircle
 62
7
  6
CONTINUOUS
 10
5.062073922
 20
4.3283423017
 40
0.5840173114
  0
CIRCLE
  5
880
100
AcDbEntity
  8
0
100
AcDbCircle
 62
7
  6
CONTINUOUS
 10
5.062073922
 20
4.3283423017
 40
0.5681102362
  0
ARC
  5
881
100
AcDbEntity
  8
0
100
AcDbCircle
 62
7
  6
CONTINUOUS
 10
5.062073922
 20
4.3283423017
 40
0.5019685039
100
AcDbArc
 50
220.0769515459
 51
103.9230484542
  0
ARC
  5
882
100
AcDbEntity
  8
0
100
AcDbCircle
 62
7
  6
CONTINUOUS
 10
5.062073922
 20
4.3283423017
 40
0.4822834646
100
AcDbArc
 50
182.3492166066
 51
179.9999999998
  0
CIRCLE
  5
883
100
AcDbEntity
  8
0
100
AcDbCircle
 62
7
  6
CONTINUOUS
 10
5.062073922
 20
4.3283423017
 40
0.2165354331
  0
CIRCLE
  5
884
100
AcDbEntity
  8
0
100
AcDbCircle
 62
7
  6
CONTINUOUS
 10
5.062073922
 20
4.3283423017
 40
0.1968503937
  0
ARC
  5
885
100
AcDbEntity
  8
AXIS_COSMETIC_THREADS
100
AcDbCircle
 62
7
  6
CONTINUOUS
 10
5.2328511404
 20
4.5653501757
 40
0.1901574803
100
AcDbArc
 50
58.5680140064
 51
90.0
  0
ARC
  5
886
100
AcDbEntity
  8
0
100
AcDbCircle
 62
7
  6
CONTINUOUS
 10
5.593569985
 20
4.8204682859
 40
0.0984251969
100
AcDbArc
 50
0.0
 51
90.0
  0
ARC
  5
887
100
AcDbEntity
  8
AXIS_COSMETIC_THREADS
100
AcDbCircle
 62
7
  6
CONTINUOUS
 10
5.593569985
 20
4.8204682859
 40
0.0984251969
100
AcDbArc
 50
0.0
 51
78.5374569093
  0
ARC
  5
888
100
AcDbEntity
  8
0
100
AcDbCircle
 62
9
  6
CONTINUOUS
 10
5.593569985
 20
4.8204682859
 40
0.0960349348
100
AcDbArc
 50
0.0
 51
90.0
  0
ARC
  5
889
100
AcDbEntity
  8
0
100
AcDbCircle
 62
9
  6
CONTINUOUS
 10
5.593569985
 20
4.8204682859
 40
0.0645400657
100
AcDbArc
 50
0.0
 51
90.0
  0
ENDSEC
  0
SECTION
  2
OBJECTS
  0
DICTIONARY
  5
C
100
AcDbDictionary
280
0
281
1
  3
ACAD_GROUP
350
D
  3
ACAD_MLINESTYLE
350
17
  3
ACAD_LAYOUT
350
1A
  3
ACAD_PLOTSETTINGS
350
19
  3
ACAD_PLOTSTYLENAME
350
E
  0
DICTIONARY
  5
D
102
{ACAD_REACTORS
330
C
102
}
100
AcDbDictionary
280
0
281
1
  0
ACDBDICTIONARYWDFLT
  5
E
102
{ACAD_REACTORS
330
C
102
}
100
AcDbDictionary
281
1
  3
Normal
350
F
100
AcDbDictionaryWithDefault
340
F
  0
DICTIONARY
  5
17
102
{ACAD_REACTORS
330
C
102
}
100
AcDbDictionary
280
0
281
1
  3
Standard
350
18
  0
DICTIONARY
  5
19
102
{ACAD_REACTORS
330
C
102
}
100
AcDbDictionary
281
1
  0
DICTIONARY
  5
1A
102
{ACAD_REACTORS
330
C
102
}
100
AcDbDictionary
281
1
  3
Layout1
350
1E
  3
Model
350
22
  0
ACDBPLACEHOLDER
  5
F
102
{ACAD_REACTORS
330
E
102
}
  0
MLINESTYLE
  5
18
102
{ACAD_REACTORS
330
17
102
}
100
AcDbMlineStyle
  2
STANDARD
 70
0
  3

 62
256
 51
90.0
 52
90.0
 71
2
 49
0.5
 62
256
  6
BYLAYER
 49
-0.5
 62
256
  6
BYLAYER
  0
LAYOUT
  5
1E
102
{ACAD_REACTORS
330
1A
102
}
100
AcDbPlotSettings
  1

  2

  4

  6

 40
0.0
 41
0.0
 42
0.0
 43
0.0
 44
0.0
 45
0.0
 46
0.0
 47
0.0
 48
0.0
 49
0.0
140
0.0
141
0.0
142
1.0
143
1.0
 70
0
 72
0
 73
0
 74
0
  7

 75
0
147
1.0
148
0.0
149
0.0
100
AcDbLayout
  1
Layout1
 70
0
 71
0
 10
0.0
 20
0.0
 11
0.0
 21
0.0
 12
0.0
 22
0.0
 32
0.0
 14
0.0
 24
0.0
 34
0.0
 15
0.0
 25
0.0
 35
0.0
146
0.0
 13
0.0
 23
0.0
 33
0.0
 16
0.0
 26
0.0
 36
0.0
 17
0.0
 27
0.0
 37
0.0
 76
0
330
1B
331
0
345
0
346
0
  0
LAYOUT
  5
22
102
{ACAD_REACTORS
330
1A
102
}
100
AcDbPlotSettings
  1

  2

  4

  6

 40
0.0
 41
0.0
 42
0.0
 43
0.0
 44
0.0
 45
0.0
 46
0.0
 47
0.0
 48
0.0
 49
0.0
140
0.0
141
0.0
142
1.0
143
1.0
 70
0
 72
0
 73
0
 74
0
  7

 75
0
147
1.0
148
0.0
149
0.0
100
AcDbLayout
  1
Model
 70
0
 71
0
 10
0.0
 20
0.0
 11
0.0
 21
0.0
 12
0.0
 22
0.0
 32
0.0
 14
0.0
 24
0.0
 34
0.0
 15
0.0
 25
0.0
 35
0.0
146
0.0
 13
0.0
 23
0.0
 33
0.0
 16
0.0
 26
0.0
 36
0.0
 17
0.0
 27
0.0
 37
0.0
 76
0
330
1F
331
0
345
0
346
0
  0
ENDSEC
  0
EOF
