999
DXF file: 144873_1.dxf
999
Pro/ENGINEER 2006170 by Parametric Technology Corporation
  0
SECTION
  2
HEADER
  9
$ACADVER
  1
AC1015
  9
$DWGCODEPAGE
  3
ANSI_1252
  9
$EXTMAX
 10
17.0
 20
11.0
 30
0.0
  9
$EXTMIN
 10
0.0
 20
0.0
 30
0.0
  9
$LIMMIN
 10
0.0
 20
0.0
  9
$LIMMAX
 10
17.0
 20
11.0
  9
$VIEWCTR
 10
8.5
 20
5.5
  9
$VIEWSIZE
 40
11.0
  9
$CLAYER
  8
0
  9
$LTSCALE
 40
0.935
  9
$CELTYPE
  6
BYLAYER
  9
$DIMSCALE
 40
1.0
  9
$DIMASZ
 40
0.1875
  9
$DIMEXO
 40
0.10625
  9
$DIMDLI
 40
0.646
  9
$DIMEXE
 40
0.306
  9
$DIMCEN
 40
0.153
  9
$DIMLFAC
 40
1.0
  9
$DIMBLK
  1
_FILLED
  9
$DIMTXT
 40
0.1
  9
$DIMTOL
 70
1
  9
$DIMLIM
 70
0
  9
$DIMTFAC
 40
1.0
  9
$DIMTP
 40
0.005
  9
$DIMTM
 40
0.005
  9
$PDMODE
 70
3
  9
$PDSIZE
 40
0.3125
  9
$HANDSEED
  5
735
  9
$MEASUREMENT
 70
0
  9
$INSUNITS
 70
1
  0
ENDSEC
  0
SECTION
  2
CLASSES
  0
CLASS
  1
ACDBDICTIONARYWDFLT
  2
AcDbDictionaryWithDefault
  3
AutoCAD 2000
 90
0
280
0
281
0
  0
CLASS
  1
ACDBPLACEHOLDER
  2
AcDbPlaceHolder
  3
AutoCAD 2000
 90
0
280
0
281
0
  0
CLASS
  1
LAYOUT
  2
AcDbLayout
  3
AutoCAD 2000
 90
0
280
0
281
0
  0
ENDSEC
  0
SECTION
  2
TABLES
  0
TABLE
  2
VPORT
  5
8
100
AcDbSymbolTable
 70
2
  0
VPORT
  5
1F4
100
AcDbSymbolTableRecord
100
AcDbViewportTableRecord
  2
*ACTIVE
 70
0
 10
0.0
 20
0.0
 11
1.0
 21
1.0
 12
8.5
 22
5.5
 13
0.0
 23
0.0
 14
1.0
 24
1.0
 15
0.0
 25
0.0
 16
0.0
 26
0.0
 36
1.0
 17
0.0
 27
0.0
 37
0.0
 40
11.0
 41
1.5454545455
 42
50.0
 43
0.0
 44
0.0
 50
0.0
 51
0.0
 71
0
 72
100
 73
1
 74
1
 75
0
 76
0
 77
0
 78
0
  0
ENDTAB
  0
TABLE
  2
LTYPE
  5
5
100
AcDbSymbolTable
 70
6
  0
LTYPE
  5
14
100
AcDbSymbolTableRecord
100
AcDbLinetypeTableRecord
  2
BYBLOCK
 70
0
  3

 72
65
 73
0
 40
0.0
  0
LTYPE
  5
15
100
AcDbSymbolTableRecord
100
AcDbLinetypeTableRecord
  2
BYLAYER
 70
0
  3

 72
65
 73
0
 40
0.0
  0
LTYPE
  5
16
100
AcDbSymbolTableRecord
100
AcDbLinetypeTableRecord
  2
CONTINUOUS
 70
64
  3
Solid line
 72
65
 73
0
 40
0.0
  0
LTYPE
  5
1F5
100
AcDbSymbolTableRecord
100
AcDbLinetypeTableRecord
  2
CENTER
 70
64
  3
____ _ ____ _ ____ _ ____ _ ____ _ ____ _ ____
 72
65
 73
4
 40
0.6
 49
0.375
 74
0
 49
-0.075
 74
0
 49
0.075
 74
0
 49
-0.075
 74
0
  0
LTYPE
  5
1F6
100
AcDbSymbolTableRecord
100
AcDbLinetypeTableRecord
  2
HIDDEN
 70
64
  3
- - - - - - - - - - - - - - - - - - - -
 72
65
 73
2
 40
0.2
 49
0.1
 74
0
 49
-0.1
 74
0
  0
LTYPE
  5
1F7
100
AcDbSymbolTableRecord
100
AcDbLinetypeTableRecord
  2
PHANTOM
 70
64
  3
_____ _ _ _____ _ _ _____ _ _ _____
 72
65
 73
6
 40
0.8
 49
0.45
 74
0
 49
-0.05
 74
0
 49
0.1
 74
0
 49
-0.05
 74
0
 49
0.1
 74
0
 49
-0.05
 74
0
  0
LTYPE
  5
1F8
100
AcDbSymbolTableRecord
100
AcDbLinetypeTableRecord
  2
DOT
 70
64
  3
. . . . . . . . . . . . . . . . . . . .
 72
65
 73
2
 40
0.2
 49
0.1
 74
0
 49
-0.1
 74
0
  0
LTYPE
  5
1F9
100
AcDbSymbolTableRecord
100
AcDbLinetypeTableRecord
  2
DASHED
 70
64
  3
- - - - - - - - - - - - - - - - - - - -
 72
65
 73
2
 40
0.2
 49
0.1
 74
0
 49
-0.1
 74
0
  0
ENDTAB
  0
TABLE
  2
LAYER
  5
2
100
AcDbSymbolTable
 70
36
  0
LAYER
  5
10
100
AcDbSymbolTableRecord
100
AcDbLayerTableRecord
  2
0
 70
0
 62
7
  6
CONTINUOUS
370
-3
390
F
  0
LAYER
  5
1FA
100
AcDbSymbolTableRecord
100
AcDbLayerTableRecord
  2
DEFAULT_1
 70
0
 62
7
  6
CENTER
370
-3
390
F
  0
LAYER
  5
1FB
100
AcDbSymbolTableRecord
100
AcDbLayerTableRecord
  2
DEFAULT_2
 70
0
 62
8
  6
HIDDEN
370
-3
390
F
  0
LAYER
  5
1FC
100
AcDbSymbolTableRecord
100
AcDbLayerTableRecord
  2
DEFAULT_3
 70
0
 62
7
  6
PHANTOM
370
-3
390
F
  0
LAYER
  5
1FD
100
AcDbSymbolTableRecord
100
AcDbLayerTableRecord
  2
_2D_DELETED_OBJS
 70
0
 62
7
  6
CONTINUOUS
370
-3
390
F
  0
LAYER
  5
1FE
100
AcDbSymbolTableRecord
100
AcDbLayerTableRecord
  2
_BLACK_HOLE
 70
0
 62
7
  6
CONTINUOUS
370
-3
390
F
  0
LAYER
  5
1FF
100
AcDbSymbolTableRecord
100
AcDbLayerTableRecord
  2
01_ALL_DTM_PLN
 70
0
 62
7
  6
CONTINUOUS
370
-3
390
F
  0
LAYER
  5
200
100
AcDbSymbolTableRecord
100
AcDbLayerTableRecord
  2
01__ASM_ALL_DTM_PLN
 70
0
 62
7
  6
CONTINUOUS
370
-3
390
F
  0
LAYER
  5
201
100
AcDbSymbolTableRecord
100
AcDbLayerTableRecord
  2
01__ASM_DEF_DTM_PLN
 70
0
 62
7
  6
CONTINUOUS
370
-3
390
F
  0
LAYER
  5
202
100
AcDbSymbolTableRecord
100
AcDbLayerTableRecord
  2
01___PRT_ALL_DTM_PLN
 70
0
 62
7
  6
CONTINUOUS
370
-3
390
F
  0
LAYER
  5
203
100
AcDbSymbolTableRecord
100
AcDbLayerTableRecord
  2
01___PRT_DEF_DTM_PLN
 70
0
 62
7
  6
CONTINUOUS
370
-3
390
F
  0
LAYER
  5
204
100
AcDbSymbolTableRecord
100
AcDbLayerTableRecord
  2
02_ALL_AXES
 70
0
 62
7
  6
CONTINUOUS
370
-3
390
F
  0
LAYER
  5
205
100
AcDbSymbolTableRecord
100
AcDbLayerTableRecord
  2
02__ASM_ALL_AXES
 70
0
 62
7
  6
CONTINUOUS
370
-3
390
F
  0
LAYER
  5
206
100
AcDbSymbolTableRecord
100
AcDbLayerTableRecord
  2
02___PRT_ALL_AXES
 70
0
 62
7
  6
CONTINUOUS
370
-3
390
F
  0
LAYER
  5
207
100
AcDbSymbolTableRecord
100
AcDbLayerTableRecord
  2
03_ALL_CURVES
 70
0
 62
7
  6
CONTINUOUS
370
-3
390
F
  0
LAYER
  5
208
100
AcDbSymbolTableRecord
100
AcDbLayerTableRecord
  2
03__ASM_ALL_CURVES
 70
0
 62
7
  6
CONTINUOUS
370
-3
390
F
  0
LAYER
  5
209
100
AcDbSymbolTableRecord
100
AcDbLayerTableRecord
  2
03___PRT_ALL_CURVES
 70
0
 62
7
  6
CONTINUOUS
370
-3
390
F
  0
LAYER
  5
20A
100
AcDbSymbolTableRecord
100
AcDbLayerTableRecord
  2
04_ALL_DTM_PNT
 70
0
 62
7
  6
CONTINUOUS
370
-3
390
F
  0
LAYER
  5
20B
100
AcDbSymbolTableRecord
100
AcDbLayerTableRecord
  2
04__ASM_ALL_DTM_PNT
 70
0
 62
7
  6
CONTINUOUS
370
-3
390
F
  0
LAYER
  5
20C
100
AcDbSymbolTableRecord
100
AcDbLayerTableRecord
  2
04___PRT_ALL_DTM_PNT
 70
0
 62
7
  6
CONTINUOUS
370
-3
390
F
  0
LAYER
  5
20D
100
AcDbSymbolTableRecord
100
AcDbLayerTableRecord
  2
05_ALL_DTM_CSYS
 70
0
 62
7
  6
CONTINUOUS
370
-3
390
F
  0
LAYER
  5
20E
100
AcDbSymbolTableRecord
100
AcDbLayerTableRecord
  2
05__ASM_ALL_DTM_CSYS
 70
0
 62
7
  6
CONTINUOUS
370
-3
390
F
  0
LAYER
  5
20F
100
AcDbSymbolTableRecord
100
AcDbLayerTableRecord
  2
05__ASM_DEF_DTM_CSYS
 70
0
 62
7
  6
CONTINUOUS
370
-3
390
F
  0
LAYER
  5
210
100
AcDbSymbolTableRecord
100
AcDbLayerTableRecord
  2
05___PRT_ALL_DTM_CSYS
 70
0
 62
7
  6
CONTINUOUS
370
-3
390
F
  0
LAYER
  5
211
100
AcDbSymbolTableRecord
100
AcDbLayerTableRecord
  2
05___PRT_DEF_DTM_CSYS
 70
0
 62
7
  6
CONTINUOUS
370
-3
390
F
  0
LAYER
  5
212
100
AcDbSymbolTableRecord
100
AcDbLayerTableRecord
  2
06_ALL_SURFS
 70
0
 62
7
  6
CONTINUOUS
370
-3
390
F
  0
LAYER
  5
213
100
AcDbSymbolTableRecord
100
AcDbLayerTableRecord
  2
06__ASM_ALL_SURFS
 70
0
 62
7
  6
CONTINUOUS
370
-3
390
F
  0
LAYER
  5
214
100
AcDbSymbolTableRecord
100
AcDbLayerTableRecord
  2
06___PRT_ALL_SURFS
 70
0
 62
7
  6
CONTINUOUS
370
-3
390
F
  0
LAYER
  5
215
100
AcDbSymbolTableRecord
100
AcDbLayerTableRecord
  2
07__ASM_ALL_SKELETONS
 70
0
 62
7
  6
CONTINUOUS
370
-3
390
F
  0
LAYER
  5
216
100
AcDbSymbolTableRecord
100
AcDbLayerTableRecord
  2
1
 70
0
 62
7
  6
CONTINUOUS
370
-3
390
F
  0
LAYER
  5
217
100
AcDbSymbolTableRecord
100
AcDbLayerTableRecord
  2
10
 70
0
 62
7
  6
CONTINUOUS
370
-3
390
F
  0
LAYER
  5
218
100
AcDbSymbolTableRecord
100
AcDbLayerTableRecord
  2
11
 70
0
 62
7
  6
CONTINUOUS
370
-3
390
F
  0
LAYER
  5
219
100
AcDbSymbolTableRecord
100
AcDbLayerTableRecord
  2
12
 70
0
 62
7
  6
CONTINUOUS
370
-3
390
F
  0
LAYER
  5
21A
100
AcDbSymbolTableRecord
100
AcDbLayerTableRecord
  2
13
 70
0
 62
7
  6
CONTINUOUS
370
-3
390
F
  0
LAYER
  5
21B
100
AcDbSymbolTableRecord
100
AcDbLayerTableRecord
  2
14
 70
0
 62
7
  6
CONTINUOUS
370
-3
390
F
  0
LAYER
  5
21C
100
AcDbSymbolTableRecord
100
AcDbLayerTableRecord
  2
15
 70
0
 62
7
  6
CONTINUOUS
370
-3
390
F
  0
LAYER
  5
21D
100
AcDbSymbolTableRecord
100
AcDbLayerTableRecord
  2
16
 70
0
 62
7
  6
CONTINUOUS
370
-3
390
F
  0
LAYER
  5
21E
100
AcDbSymbolTableRecord
100
AcDbLayerTableRecord
  2
17
 70
0
 62
7
  6
CONTINUOUS
370
-3
390
F
  0
LAYER
  5
21F
100
AcDbSymbolTableRecord
100
AcDbLayerTableRecord
  2
18
 70
0
 62
7
  6
CONTINUOUS
370
-3
390
F
  0
LAYER
  5
220
100
AcDbSymbolTableRecord
100
AcDbLayerTableRecord
  2
19
 70
0
 62
7
  6
CONTINUOUS
370
-3
390
F
  0
LAYER
  5
221
100
AcDbSymbolTableRecord
100
AcDbLayerTableRecord
  2
2
 70
0
 62
7
  6
CONTINUOUS
370
-3
390
F
  0
LAYER
  5
222
100
AcDbSymbolTableRecord
100
AcDbLayerTableRecord
  2
20
 70
0
 62
7
  6
CONTINUOUS
370
-3
390
F
  0
LAYER
  5
223
100
AcDbSymbolTableRecord
100
AcDbLayerTableRecord
  2
21
 70
0
 62
7
  6
CONTINUOUS
370
-3
390
F
  0
LAYER
  5
224
100
AcDbSymbolTableRecord
100
AcDbLayerTableRecord
  2
22
 70
0
 62
7
  6
CONTINUOUS
370
-3
390
F
  0
LAYER
  5
225
100
AcDbSymbolTableRecord
100
AcDbLayerTableRecord
  2
23
 70
0
 62
7
  6
CONTINUOUS
370
-3
390
F
  0
LAYER
  5
226
100
AcDbSymbolTableRecord
100
AcDbLayerTableRecord
  2
24
 70
0
 62
7
  6
CONTINUOUS
370
-3
390
F
  0
LAYER
  5
227
100
AcDbSymbolTableRecord
100
AcDbLayerTableRecord
  2
25
 70
0
 62
7
  6
CONTINUOUS
370
-3
390
F
  0
LAYER
  5
228
100
AcDbSymbolTableRecord
100
AcDbLayerTableRecord
  2
26
 70
0
 62
7
  6
CONTINUOUS
370
-3
390
F
  0
LAYER
  5
229
100
AcDbSymbolTableRecord
100
AcDbLayerTableRecord
  2
27
 70
0
 62
7
  6
CONTINUOUS
370
-3
390
F
  0
LAYER
  5
22A
100
AcDbSymbolTableRecord
100
AcDbLayerTableRecord
  2
28
 70
0
 62
7
  6
CONTINUOUS
370
-3
390
F
  0
LAYER
  5
22B
100
AcDbSymbolTableRecord
100
AcDbLayerTableRecord
  2
29
 70
0
 62
7
  6
CONTINUOUS
370
-3
390
F
  0
LAYER
  5
22C
100
AcDbSymbolTableRecord
100
AcDbLayerTableRecord
  2
3
 70
0
 62
7
  6
CONTINUOUS
370
-3
390
F
  0
LAYER
  5
22D
100
AcDbSymbolTableRecord
100
AcDbLayerTableRecord
  2
30
 70
0
 62
7
  6
CONTINUOUS
370
-3
390
F
  0
LAYER
  5
22E
100
AcDbSymbolTableRecord
100
AcDbLayerTableRecord
  2
31
 70
0
 62
7
  6
CONTINUOUS
370
-3
390
F
  0
LAYER
  5
22F
100
AcDbSymbolTableRecord
100
AcDbLayerTableRecord
  2
32
 70
0
 62
7
  6
CONTINUOUS
370
-3
390
F
  0
LAYER
  5
230
100
AcDbSymbolTableRecord
100
AcDbLayerTableRecord
  2
4
 70
0
 62
7
  6
CONTINUOUS
370
-3
390
F
  0
LAYER
  5
231
100
AcDbSymbolTableRecord
100
AcDbLayerTableRecord
  2
5
 70
0
 62
7
  6
CONTINUOUS
370
-3
390
F
  0
LAYER
  5
232
100
AcDbSymbolTableRecord
100
AcDbLayerTableRecord
  2
6
 70
0
 62
7
  6
CONTINUOUS
370
-3
390
F
  0
LAYER
  5
233
100
AcDbSymbolTableRecord
100
AcDbLayerTableRecord
  2
7
 70
0
 62
7
  6
CONTINUOUS
370
-3
390
F
  0
LAYER
  5
234
100
AcDbSymbolTableRecord
100
AcDbLayerTableRecord
  2
8
 70
0
 62
7
  6
CONTINUOUS
370
-3
390
F
  0
LAYER
  5
235
100
AcDbSymbolTableRecord
100
AcDbLayerTableRecord
  2
9
 70
0
 62
7
  6
CONTINUOUS
370
-3
390
F
  0
LAYER
  5
236
100
AcDbSymbolTableRecord
100
AcDbLayerTableRecord
  2
AXIS
 70
0
 62
7
  6
CONTINUOUS
370
-3
390
F
  0
LAYER
  5
237
100
AcDbSymbolTableRecord
100
AcDbLayerTableRecord
  2
AXIS_COSMETIC_THREADS
 70
0
 62
7
  6
CONTINUOUS
370
-3
390
F
  0
LAYER
  5
238
100
AcDbSymbolTableRecord
100
AcDbLayerTableRecord
  2
CSY
 70
0
 62
7
  6
CONTINUOUS
370
-3
390
F
  0
LAYER
  5
239
100
AcDbSymbolTableRecord
100
AcDbLayerTableRecord
  2
CYS
 70
0
 62
7
  6
CONTINUOUS
370
-3
390
F
  0
LAYER
  5
23A
100
AcDbSymbolTableRecord
100
AcDbLayerTableRecord
  2
DATUM_CURVES
 70
0
 62
7
  6
CONTINUOUS
370
-3
390
F
  0
LAYER
  5
23B
100
AcDbSymbolTableRecord
100
AcDbLayerTableRecord
  2
DATUM_PLANES
 70
0
 62
7
  6
CONTINUOUS
370
-3
390
F
  0
LAYER
  5
23C
100
AcDbSymbolTableRecord
100
AcDbLayerTableRecord
  2
ECAD_0603
 70
0
 62
7
  6
CONTINUOUS
370
-3
390
F
  0
LAYER
  5
23D
100
AcDbSymbolTableRecord
100
AcDbLayerTableRecord
  2
ECAD_0603F
 70
0
 62
7
  6
CONTINUOUS
370
-3
390
F
  0
LAYER
  5
23E
100
AcDbSymbolTableRecord
100
AcDbLayerTableRecord
  2
ECAD_0805
 70
0
 62
7
  6
CONTINUOUS
370
-3
390
F
  0
LAYER
  5
23F
100
AcDbSymbolTableRecord
100
AcDbLayerTableRecord
  2
ECAD_1206
 70
0
 62
7
  6
CONTINUOUS
370
-3
390
F
  0
LAYER
  5
240
100
AcDbSymbolTableRecord
100
AcDbLayerTableRecord
  2
ECAD_LED1A
 70
0
 62
7
  6
CONTINUOUS
370
-3
390
F
  0
LAYER
  5
241
100
AcDbSymbolTableRecord
100
AcDbLayerTableRecord
  2
ECAD_SOT323
 70
0
 62
7
  6
CONTINUOUS
370
-3
390
F
  0
LAYER
  5
242
100
AcDbSymbolTableRecord
100
AcDbLayerTableRecord
  2
ECAD_SOT89
 70
0
 62
7
  6
CONTINUOUS
370
-3
390
F
  0
LAYER
  5
243
100
AcDbSymbolTableRecord
100
AcDbLayerTableRecord
  2
ECAD_SP7512
 70
0
 62
7
  6
CONTINUOUS
370
-3
390
F
  0
LAYER
  5
244
100
AcDbSymbolTableRecord
100
AcDbLayerTableRecord
  2
ECAD_UMT
 70
0
 62
7
  6
CONTINUOUS
370
-3
390
F
  0
LAYER
  5
245
100
AcDbSymbolTableRecord
100
AcDbLayerTableRecord
  2
INTF_YELLOW
 70
0
 62
7
  6
CONTINUOUS
370
-3
390
F
  0
LAYER
  5
246
100
AcDbSymbolTableRecord
100
AcDbLayerTableRecord
  2
NOTES
 70
0
 62
7
  6
CONTINUOUS
370
-3
390
F
  0
LAYER
  5
247
100
AcDbSymbolTableRecord
100
AcDbLayerTableRecord
  2
SCHEME_DIMS
 70
0
 62
7
  6
CONTINUOUS
370
-3
390
F
  0
LAYER
  5
248
100
AcDbSymbolTableRecord
100
AcDbLayerTableRecord
  2
SYMBOLS
 70
0
 62
7
  6
CONTINUOUS
370
-3
390
F
  0
LAYER
  5
249
100
AcDbSymbolTableRecord
100
AcDbLayerTableRecord
  2
YELLOW
 70
0
 62
7
  6
CONTINUOUS
370
-3
390
F
  0
ENDTAB
  0
TABLE
  2
STYLE
  5
3
100
AcDbSymbolTable
 70
1
  0
STYLE
  5
11
100
AcDbSymbolTableRecord
100
AcDbTextStyleTableRecord
  2
STANDARD
 70
0
 40
0.0
 41
1.0
 50
0.0
 71
0
 42
0.2
  3
txt
  4

  0
ENDTAB
  0
TABLE
  2
VIEW
  5
6
100
AcDbSymbolTable
 70
0
  0
ENDTAB
  0
TABLE
  2
UCS
  5
7
100
AcDbSymbolTable
 70
0
  0
ENDTAB
  0
TABLE
  2
APPID
  5
9
100
AcDbSymbolTable
 70
1
  0
APPID
  5
24A
100
AcDbSymbolTableRecord
100
AcDbRegAppTableRecord
  2
ACAD
 70
0
  0
ENDTAB
  0
TABLE
  2
BLOCK_RECORD
  5
1
100
AcDbSymbolTable
 70
0
  0
BLOCK_RECORD
  5
1F
100
AcDbSymbolTableRecord
100
AcDbBlockTableRecord
  2
*MODEL_SPACE
  0
BLOCK_RECORD
  5
1B
100
AcDbSymbolTableRecord
100
AcDbBlockTableRecord
  2
*PAPER_SPACE
  0
BLOCK_RECORD
  5
24B
100
AcDbSymbolTableRecord
100
AcDbBlockTableRecord
  2
_FILLED
  0
BLOCK_RECORD
  5
24C
100
AcDbSymbolTableRecord
100
AcDbBlockTableRecord
  2
BANNER_LOGO_TITLEBLOCK_BL0
  0
BLOCK_RECORD
  5
24D
100
AcDbSymbolTableRecord
100
AcDbBlockTableRecord
  2
*D0
  0
BLOCK_RECORD
  5
24E
100
AcDbSymbolTableRecord
100
AcDbBlockTableRecord
  2
*D1
  0
BLOCK_RECORD
  5
24F
100
AcDbSymbolTableRecord
100
AcDbBlockTableRecord
  2
*D2
  0
ENDTAB
  0
TABLE
  2
DIMSTYLE
  5
A
100
AcDbSymbolTable
 70
1
100
AcDbDimStyleTable
 71
0
  0
DIMSTYLE
105
250
100
AcDbSymbolTableRecord
100
AcDbDimStyleTableRecord
  2
STANDARD
 70
0
  3

  4

 40
1.0
 41
0.1875
 42
0.0625
 43
0.38
 44
0.18
 45
0.0
 46
0.0
 47
0.005
 48
0.005
140
0.1
141
0.09
142
0.0
143
25.4
144
1.0
145
0.0
146
1.0
147
0.09
 71
1.0
 72
0.0
 73
1
 74
1
 75
0
 76
0
 77
0
 78
4
170
0
171
2
172
0
173
0
174
0
175
0
176
0
177
0
178
0
270
2
271
3
272
3
273
2
274
2
275
0
280
0
281
0
282
0
283
1
284
4
285
0
286
0
287
3
288
0
340
11
341
24B
342
24B
343
24B
344
24B
  0
DIMSTYLE
105
251
100
AcDbSymbolTableRecord
100
AcDbDimStyleTableRecord
  2
DIMSTYLE_1
 70
0
  3

  4

 40
1.0
 41
0.1875
 42
0.0625
 43
0.38
 44
0.18
 45
0.0
 46
0.0
 47
0.1
 48
0.1
140
0.1
141
0.09
142
0.0
143
25.4
144
1.0
145
0.0
146
1.0
147
0.09
 71
0.0
 72
0.0
 73
1
 74
1
 75
0
 76
0
 77
0
 78
4
170
0
171
2
172
0
173
0
174
0
175
0
176
0
177
0
178
0
270
2
271
1
272
1
273
2
274
2
275
0
280
0
281
0
282
0
283
1
284
4
285
0
286
0
287
3
288
0
340
11
341
24B
342
24B
343
24B
344
24B
  0
DIMSTYLE
105
252
100
AcDbSymbolTableRecord
100
AcDbDimStyleTableRecord
  2
DIMSTYLE_2
 70
0
  3

  4

 40
1.0
 41
0.1875
 42
0.0625
 43
0.38
 44
0.18
 45
0.0
 46
0.0
 47
0.1
 48
0.1
140
0.1
141
0.09
142
0.0
143
25.4
144
1.0
145
0.0
146
1.0
147
0.09
 71
0.0
 72
0.0
 73
1
 74
1
 75
0
 76
0
 77
0
 78
4
170
0
171
2
172
0
173
0
174
0
175
0
176
0
177
0
178
0
270
2
271
1
272
1
273
2
274
2
275
0
280
0
281
0
282
0
283
1
284
4
285
0
286
0
287
3
288
0
340
11
341
24B
342
24B
343
24B
344
24B
  0
ENDTAB
  0
ENDSEC
  0
SECTION
  2
BLOCKS
  0
BLOCK
  5
20
100
AcDbEntity
  8
0
100
AcDbBlockBegin
  2
*MODEL_SPACE
 70
0
 10
0.0
 20
0.0
 30
0.0
  3
*MODEL_SPACE
  1

  0
ENDBLK
  5
21
100
AcDbEntity
  8
0
100
AcDbBlockEnd
  0
BLOCK
  5
1C
100
AcDbEntity
  8
0
100
AcDbBlockBegin
  2
*PAPER_SPACE
 70
0
 10
0.0
 20
0.0
 30
0.0
  3
*PAPER_SPACE
  1

  0
ENDBLK
  5
1D
100
AcDbEntity
  8
0
100
AcDbBlockEnd
  0
BLOCK
  5
253
100
AcDbEntity
  8
0
100
AcDbBlockBegin
 62
2
  6
CONTINUOUS
  2
BANNER_LOGO_TITLEBLOCK_BL0
 70
64
 10
12.9046655056
 20
2.5403783448
  3
BANNER_LOGO_TITLEBLOCK_BL0
  1

  0
LWPOLYLINE
  5
254
100
AcDbEntity
  8
0
100
AcDbPolyline
 62
2
  6
CONTINUOUS
 90
29
 70
0
 10
12.0796650004
 20
2.5403783448
 10
12.1000078385
 20
2.5005819703
 10
12.1615890075
 20
2.4620382478
 10
12.2590135686
 20
2.4281250935
 10
12.3910903821
 20
2.3992568791
 10
12.5462480343
 20
2.3779627503
 10
12.7225901426
 20
2.3645025835
 10
12.9046652672
 20
2.3600565514
 10
13.0867408686
 20
2.3645025835
 10
13.2630829769
 20
2.3779627503
 10
13.4182401522
 20
2.3992568791
 10
13.5503174426
 20
2.4281250935
 10
13.6477415269
 20
2.4620382478
 10
13.7093231727
 20
2.5005819703
 10
13.7296660108
 20
2.5403783448
 10
13.7093231727
 20
2.5801747193
 10
13.6477415269
 20
2.6187184418
 10
13.5503174426
 20
2.6526315961
 10
13.4182401522
 20
2.6814998105
 10
13.2630829769
 20
2.7027939393
 10
13.0867408686
 20
2.7162541061
 10
12.9046652672
 20
2.7207001382
 10
12.7225901426
 20
2.7162541061
 10
12.5462480343
 20
2.7027939393
 10
12.3910903821
 20
2.6814998105
 10
12.2590135686
 20
2.6526315961
 10
12.1615890075
 20
2.6187184418
 10
12.1000078385
 20
2.5801747193
 10
12.0796650004
 20
2.5403783448
  0
ARC
  5
255
100
AcDbEntity
  8
0
100
AcDbCircle
 62
2
  6
CONTINUOUS
 10
12.400005721
 20
2.5168763464
 40
0.0153945295
100
AcDbArc
 50
354.0454548824
 51
5.1878013979
  0
ARC
  5
256
100
AcDbEntity
  8
0
100
AcDbCircle
 62
2
  6
CONTINUOUS
 10
12.3931760319
 20
2.5166878286
 40
0.0222174455
100
AcDbArc
 50
4.0793399388
 51
69.834329283
  0
LINE
  5
257
100
AcDbEntity
  8
0
100
AcDbLine
 62
2
  6
CONTINUOUS
 10
12.4008351814
 20
2.5375433389
 11
12.3907841758
 21
2.5410923409
  0
LINE
  5
258
100
AcDbEntity
  8
0
100
AcDbLine
 62
2
  6
CONTINUOUS
 10
12.3907841758
 20
2.5410923409
 11
12.3990241804
 21
2.5458683435
  0
ARC
  5
259
100
AcDbEntity
  8
0
100
AcDbCircle
 62
2
  6
CONTINUOUS
 10
12.3771587979
 20
2.5826952352
 40
0.0428289026
100
AcDbArc
 50
300.6990502959
 51
319.0591802498
  0
ARC
  5
25A
100
AcDbEntity
  8
0
100
AcDbCircle
 62
2
  6
CONTINUOUS
 10
12.3971873948
 20
2.5665668817
 40
0.0171568255
100
AcDbArc
 50
315.9145124245
 51
16.0049121282
  0
ARC
  5
25B
100
AcDbEntity
  8
0
100
AcDbCircle
 62
2
  6
CONTINUOUS
 10
12.3922357827
 20
2.5632132173
 40
0.0229166529
100
AcDbArc
 50
20.6563876465
 51
62.3316896973
  0
ARC
  5
25C
100
AcDbEntity
  8
0
100
AcDbCircle
 62
2
  6
CONTINUOUS
 10
12.371573659
 20
2.5302846524
 40
0.061747717
100
AcDbArc
 50
59.5385584989
 51
90.0050977555
  0
LINE
  5
25D
100
AcDbEntity
  8
0
100
AcDbLine
 62
2
  6
CONTINUOUS
 10
12.3715681652
 20
2.5920323691
 11
12.2055050731
 21
2.5920323691
  0
ARC
  5
25E
100
AcDbEntity
  8
0
100
AcDbCircle
 62
2
  6
CONTINUOUS
 10
12.2055050712
 20
2.5895573696
 40
0.0024749995
100
AcDbArc
 50
89.9999571957
 51
180.0000428043
  0
LINE
  5
25F
100
AcDbEntity
  8
0
100
AcDbLine
 62
2
  6
CONTINUOUS
 10
12.2030300717
 20
2.5895573678
 11
12.2030300717
 21
2.5697573568
  0
ARC
  5
260
100
AcDbEntity
  8
0
100
AcDbCircle
 62
2
  6
CONTINUOUS
 10
12.2055050712
 20
2.5697573549
 40
0.0024749995
100
AcDbArc
 50
179.9999571957
 51
270.0000428043
  0
LINE
  5
261
100
AcDbEntity
  8
0
100
AcDbLine
 62
2
  6
CONTINUOUS
 10
12.2055050731
 20
2.5672823554
 11
12.2294470864
 21
2.5672823554
  0
ARC
  5
262
100
AcDbEntity
  8
0
100
AcDbCircle
 62
2
  6
CONTINUOUS
 10
12.2294470882
 20
2.5648073559
 40
0.0024749995
100
AcDbArc
 50
359.9999571957
 51
90.0000428043
  0
LINE
  5
263
100
AcDbEntity
  8
0
100
AcDbLine
 62
2
  6
CONTINUOUS
 10
12.2319220877
 20
2.564807354
 11
12.2319220877
 21
2.5184523283
  0
ARC
  5
264
100
AcDbEntity
  8
0
100
AcDbCircle
 62
2
  6
CONTINUOUS
 10
12.2294470882
 20
2.5184523265
 40
0.0024749995
100
AcDbArc
 50
269.9999571957
 51
0.0000428043
  0
LINE
  5
265
100
AcDbEntity
  8
0
100
AcDbLine
 62
2
  6
CONTINUOUS
 10
12.2294470864
 20
2.515977327
 11
12.2055050731
 21
2.515977327
  0
ARC
  5
266
100
AcDbEntity
  8
0
100
AcDbCircle
 62
2
  6
CONTINUOUS
 10
12.2055050712
 20
2.5135023274
 40
0.0024749995
100
AcDbArc
 50
89.9999571957
 51
180.0000428043
  0
LINE
  5
267
100
AcDbEntity
  8
0
100
AcDbLine
 62
2
  6
CONTINUOUS
 10
12.2030300717
 20
2.5135023256
 11
12.2030300717
 21
2.4937023146
  0
ARC
  5
268
100
AcDbEntity
  8
0
100
AcDbCircle
 62
2
  6
CONTINUOUS
 10
12.2055050712
 20
2.4937023128
 40
0.0024749995
100
AcDbArc
 50
179.9999571957
 51
270.0000428043
  0
LINE
  5
269
100
AcDbEntity
  8
0
100
AcDbLine
 62
2
  6
CONTINUOUS
 10
12.2055050731
 20
2.4912273132
 11
12.3819511709
 21
2.4912273132
  0
ARC
  5
26A
100
AcDbEntity
  8
0
100
AcDbCircle
 62
2
  6
CONTINUOUS
 10
12.3792298263
 20
2.539634765
 40
0.048483885
100
AcDbArc
 50
273.21763719
 51
303.0749121182
  0
ARC
  5
26B
100
AcDbEntity
  8
0
100
AcDbCircle
 62
2
  6
CONTINUOUS
 10
12.3940692204
 20
2.5168671561
 40
0.0213072145
100
AcDbArc
 50
303.0488228549
 51
355.7263138674
  0
LINE
  5
26C
100
AcDbEntity
  8
0
100
AcDbLine
 62
2
  6
CONTINUOUS
 10
12.2949101227
 20
2.5499573458
 11
12.3362731456
 21
2.5499573458
  0
ARC
  5
26D
100
AcDbEntity
  8
0
100
AcDbCircle
 62
2
  6
CONTINUOUS
 10
12.3362731456
 20
2.5586198506
 40
0.0086625048
100
AcDbArc
 50
270.0
 51
90.0
  0
LINE
  5
26E
100
AcDbEntity
  8
0
100
AcDbLine
 62
2
  6
CONTINUOUS
 10
12.3362731456
 20
2.5672823554
 11
12.2949101227
 21
2.5672823554
  0
ARC
  5
26F
100
AcDbEntity
  8
0
100
AcDbCircle
 62
2
  6
CONTINUOUS
 10
12.2949101208
 20
2.5648073559
 40
0.0024749995
100
AcDbArc
 50
89.9999571957
 51
180.0000428043
  0
LINE
  5
270
100
AcDbEntity
  8
0
100
AcDbLine
 62
2
  6
CONTINUOUS
 10
12.2924351213
 20
2.564807354
 11
12.2924351213
 21
2.5524323472
  0
ARC
  5
271
100
AcDbEntity
  8
0
100
AcDbCircle
 62
2
  6
CONTINUOUS
 10
12.2949101208
 20
2.5524323453
 40
0.0024749995
100
AcDbArc
 50
179.9999571957
 51
270.0000428043
  0
LINE
  5
272
100
AcDbEntity
  8
0
100
AcDbLine
 62
2
  6
CONTINUOUS
 10
12.2924351213
 20
2.5184523283
 11
12.2924351213
 21
2.5308273352
  0
ARC
  5
273
100
AcDbEntity
  8
0
100
AcDbCircle
 62
2
  6
CONTINUOUS
 10
12.2949101208
 20
2.530827337
 40
0.0024749995
100
AcDbArc
 50
89.9999571957
 51
180.0000428043
  0
LINE
  5
274
100
AcDbEntity
  8
0
100
AcDbLine
 62
2
  6
CONTINUOUS
 10
12.2949101227
 20
2.5333023366
 11
12.3362731456
 21
2.5333023366
  0
ARC
  5
275
100
AcDbEntity
  8
0
100
AcDbCircle
 62
2
  6
CONTINUOUS
 10
12.3362731456
 20
2.5246398318
 40
0.0086625048
100
AcDbArc
 50
270.0
 51
90.0
  0
LINE
  5
276
100
AcDbEntity
  8
0
100
AcDbLine
 62
2
  6
CONTINUOUS
 10
12.3362731456
 20
2.515977327
 11
12.2949101227
 21
2.515977327
  0
ARC
  5
277
100
AcDbEntity
  8
0
100
AcDbCircle
 62
2
  6
CONTINUOUS
 10
12.2949101208
 20
2.5184523265
 40
0.0024749995
100
AcDbArc
 50
179.9999571957
 51
270.0000428043
  0
ARC
  5
278
100
AcDbEntity
  8
0
100
AcDbCircle
 62
2
  6
CONTINUOUS
 10
13.5806801742
 20
2.5212486481
 40
0.044722495
100
AcDbArc
 50
195.531588407
 51
204.7624440448
  0
LINE
  5
279
100
AcDbEntity
  8
0
100
AcDbLine
 62
2
  6
CONTINUOUS
 10
13.5375908118
 20
2.5092733232
 11
13.5357868108
 21
2.5153423266
  0
ARC
  5
27A
100
AcDbEntity
  8
0
100
AcDbCircle
 62
2
  6
CONTINUOUS
 10
13.4974076135
 20
2.5055452462
 40
0.0396099176
100
AcDbArc
 50
14.3201081283
 51
22.4984722084
  0
ARC
  5
27B
100
AcDbEntity
  8
0
100
AcDbCircle
 62
2
  6
CONTINUOUS
 10
13.5201739219
 20
2.5145168728
 40
0.0151491919
100
AcDbArc
 50
24.098260853
 51
63.0369451818
  0
ARC
  5
27C
100
AcDbEntity
  8
0
100
AcDbCircle
 62
2
  6
CONTINUOUS
 10
13.5161192671
 20
2.5062372524
 40
0.0243676582
100
AcDbArc
 50
63.3666028271
 51
90.3937697637
  0
LINE
  5
27D
100
AcDbEntity
  8
0
100
AcDbLine
 62
2
  6
CONTINUOUS
 10
13.5159517998
 20
2.5306043351
 11
13.4883447845
 21
2.5306043351
  0
ARC
  5
27E
100
AcDbEntity
  8
0
100
AcDbCircle
 62
2
  6
CONTINUOUS
 10
13.4883447827
 20
2.5281293355
 40
0.0024749995
100
AcDbArc
 50
89.9999571957
 51
180.0000428043
  0
LINE
  5
27F
100
AcDbEntity
  8
0
100
AcDbLine
 62
2
  6
CONTINUOUS
 10
13.4858697831
 20
2.5281293337
 11
13.4858697831
 21
2.5184303283
  0
ARC
  5
280
100
AcDbEntity
  8
0
100
AcDbCircle
 62
2
  6
CONTINUOUS
 10
13.4883447827
 20
2.5184303265
 40
0.0024749995
100
AcDbArc
 50
179.9999571957
 51
270.0000428043
  0
LINE
  5
281
100
AcDbEntity
  8
0
100
AcDbLine
 62
2
  6
CONTINUOUS
 10
13.4883447845
 20
2.5159553269
 11
13.5130037982
 21
2.5159553269
  0
ARC
  5
282
100
AcDbEntity
  8
0
100
AcDbCircle
 62
2
  6
CONTINUOUS
 10
13.5130038
 20
2.5134803274
 40
0.0024749995
100
AcDbArc
 50
359.9999571957
 51
90.0000428043
  0
LINE
  5
283
100
AcDbEntity
  8
0
100
AcDbLine
 62
2
  6
CONTINUOUS
 10
13.5154787995
 20
2.5134803256
 11
13.5154787995
 21
2.4937023146
  0
ARC
  5
284
100
AcDbEntity
  8
0
100
AcDbCircle
 62
2
  6
CONTINUOUS
 10
13.5130038
 20
2.4937023128
 40
0.0024749995
100
AcDbArc
 50
269.9999571957
 51
0.0000428043
  0
LINE
  5
285
100
AcDbEntity
  8
0
100
AcDbLine
 62
2
  6
CONTINUOUS
 10
13.5130037982
 20
2.4912273132
 11
13.3994327352
 21
2.4912273132
  0
ARC
  5
286
100
AcDbEntity
  8
0
100
AcDbCircle
 62
2
  6
CONTINUOUS
 10
13.3994327333
 20
2.4937023128
 40
0.0024749995
100
AcDbArc
 50
179.9999571957
 51
270.0000428043
  0
LINE
  5
287
100
AcDbEntity
  8
0
100
AcDbLine
 62
2
  6
CONTINUOUS
 10
13.3969577338
 20
2.4937023146
 11
13.3969577338
 21
2.5135023256
  0
ARC
  5
288
100
AcDbEntity
  8
0
100
AcDbCircle
 62
2
  6
CONTINUOUS
 10
13.3994327333
 20
2.5135023274
 40
0.0024749995
100
AcDbArc
 50
89.9999571957
 51
180.0000428043
  0
LINE
  5
289
100
AcDbEntity
  8
0
100
AcDbLine
 62
2
  6
CONTINUOUS
 10
13.3994327352
 20
2.515977327
 11
13.4221787478
 21
2.515977327
  0
ARC
  5
28A
100
AcDbEntity
  8
0
100
AcDbCircle
 62
2
  6
CONTINUOUS
 10
13.4221787497
 20
2.5184523265
 40
0.0024749995
100
AcDbArc
 50
269.9999571957
 51
0.0000428042
  0
LINE
  5
28B
100
AcDbEntity
  8
0
100
AcDbLine
 62
2
  6
CONTINUOUS
 10
13.4246537492
 20
2.5184523283
 11
13.4246537492
 21
2.564807354
  0
ARC
  5
28C
100
AcDbEntity
  8
0
100
AcDbCircle
 62
2
  6
CONTINUOUS
 10
13.4221787497
 20
2.5648073559
 40
0.0024749995
100
AcDbArc
 50
359.9999571957
 51
90.0000428043
  0
LINE
  5
28D
100
AcDbEntity
  8
0
100
AcDbLine
 62
2
  6
CONTINUOUS
 10
13.4221787478
 20
2.5672823554
 11
13.3994327352
 21
2.5672823554
  0
ARC
  5
28E
100
AcDbEntity
  8
0
100
AcDbCircle
 62
2
  6
CONTINUOUS
 10
13.3994327333
 20
2.5697573549
 40
0.0024749995
100
AcDbArc
 50
179.9999571957
 51
270.0000428043
  0
LINE
  5
28F
100
AcDbEntity
  8
0
100
AcDbLine
 62
2
  6
CONTINUOUS
 10
13.3969577338
 20
2.5697573568
 11
13.3969577338
 21
2.5895573678
  0
ARC
  5
290
100
AcDbEntity
  8
0
100
AcDbCircle
 62
2
  6
CONTINUOUS
 10
13.3994327333
 20
2.5895573696
 40
0.0024749995
100
AcDbArc
 50
89.9999571957
 51
180.0000428043
  0
LINE
  5
291
100
AcDbEntity
  8
0
100
AcDbLine
 62
2
  6
CONTINUOUS
 10
13.3994327352
 20
2.5920323691
 11
13.5490138181
 21
2.5920323691
  0
ARC
  5
292
100
AcDbEntity
  8
0
100
AcDbCircle
 62
2
  6
CONTINUOUS
 10
13.5463505148
 20
2.4094934586
 40
0.1825583387
100
AcDbArc
 50
79.8618509324
 51
89.1640948679
  0
ARC
  5
293
100
AcDbEntity
  8
0
100
AcDbCircle
 62
2
  6
CONTINUOUS
 10
13.5726548052
 20
2.5503169747
 40
0.039319019
100
AcDbArc
 50
59.1202086415
 51
81.4730239328
  0
ARC
  5
294
100
AcDbEntity
  8
0
100
AcDbCircle
 62
2
  6
CONTINUOUS
 10
13.5783142014
 20
2.5566516438
 40
0.0310192946
100
AcDbArc
 50
34.7540871
 51
62.0879016178
  0
ARC
  5
295
100
AcDbEntity
  8
0
100
AcDbCircle
 62
2
  6
CONTINUOUS
 10
13.5900029525
 20
2.565201245
 40
0.0165459396
100
AcDbArc
 50
1.548452892
 51
33.5033152417
  0
ARC
  5
296
100
AcDbEntity
  8
0
100
AcDbCircle
 62
2
  6
CONTINUOUS
 10
13.5932995477
 20
2.5653696972
 40
0.0132462337
100
AcDbArc
 50
331.1510006998
 51
1.205404301
  0
ARC
  5
297
100
AcDbEntity
  8
0
100
AcDbCircle
 62
2
  6
CONTINUOUS
 10
13.5822888914
 20
2.5720482849
 40
0.0261183659
100
AcDbArc
 50
305.6373831893
 51
329.9727629745
  0
ARC
  5
298
100
AcDbEntity
  8
0
100
AcDbCircle
 62
2
  6
CONTINUOUS
 10
13.5519569538
 20
2.6152551345
 40
0.0789082104
100
AcDbArc
 50
292.906155071
 51
305.2574666259
  0
ARC
  5
299
100
AcDbEntity
  8
0
100
AcDbCircle
 62
2
  6
CONTINUOUS
 10
13.5282557878
 20
2.4386010294
 40
0.117346916
100
AcDbArc
 50
58.614769177
 51
62.3737227606
  0
ARC
  5
29A
100
AcDbEntity
  8
0
100
AcDbCircle
 62
2
  6
CONTINUOUS
 10
13.5761387404
 20
2.5167282896
 40
0.0257145923
100
AcDbArc
 50
39.3804255939
 51
59.0361096173
  0
ARC
  5
29B
100
AcDbEntity
  8
0
100
AcDbCircle
 62
2
  6
CONTINUOUS
 10
13.5750183849
 20
2.5166552064
 40
0.0266349791
100
AcDbArc
 50
20.3630922153
 51
37.9727053099
  0
ARC
  5
29C
100
AcDbEntity
  8
0
100
AcDbCircle
 62
2
  6
CONTINUOUS
 10
13.5571178432
 20
2.509473798
 40
0.0459185159
100
AcDbArc
 50
15.6740290068
 51
20.9917271228
  0
ARC
  5
29D
100
AcDbEntity
  8
0
100
AcDbCircle
 62
2
  6
CONTINUOUS
 10
13.6156881783
 20
2.525116781
 40
0.0147197649
100
AcDbArc
 50
192.7054516565
 51
206.0594861022
  0
ARC
  5
29E
100
AcDbEntity
  8
0
100
AcDbCircle
 62
2
  6
CONTINUOUS
 10
13.6071938412
 20
2.5209082945
 40
0.0052403997
100
AcDbArc
 50
205.5232099488
 51
227.5054868079
  0
ARC
  5
29F
100
AcDbEntity
  8
0
100
AcDbCircle
 62
2
  6
CONTINUOUS
 10
13.6054655419
 20
2.5190929218
 40
0.0027347709
100
AcDbArc
 50
228.5117626737
 51
266.1485845754
  0
LINE
  5
2A0
100
AcDbEntity
  8
0
100
AcDbLine
 62
2
  6
CONTINUOUS
 10
13.6052818493
 20
2.5163643272
 11
13.60639085
 21
2.5163643272
  0
ARC
  5
2A1
100
AcDbEntity
  8
0
100
AcDbCircle
 62
2
  6
CONTINUOUS
 10
13.6063292954
 20
2.5296129864
 40
0.0132488022
100
AcDbArc
 50
270.266200055
 51
281.2404888597
  0
ARC
  5
2A2
100
AcDbEntity
  8
0
100
AcDbCircle
 62
2
  6
CONTINUOUS
 10
13.6075235364
 20
2.5238762928
 40
0.0073895522
100
AcDbArc
 50
280.8288201977
 51
305.0837508495
  0
ARC
  5
2A3
100
AcDbEntity
  8
0
100
AcDbCircle
 62
2
  6
CONTINUOUS
 10
13.607924718
 20
2.5230254464
 40
0.0064647042
100
AcDbArc
 50
306.5086174083
 51
340.2162360092
  0
ARC
  5
2A4
100
AcDbEntity
  8
0
100
AcDbCircle
 62
2
  6
CONTINUOUS
 10
13.6027235414
 20
2.524769508
 40
0.0119498009
100
AcDbArc
 50
340.7883861657
 51
1.1691452593
  0
LINE
  5
2A5
100
AcDbEntity
  8
0
100
AcDbLine
 62
2
  6
CONTINUOUS
 10
13.6146708546
 20
2.525013332
 11
13.6146708546
 21
2.5276393334
  0
ARC
  5
2A6
100
AcDbEntity
  8
0
100
AcDbCircle
 62
2
  6
CONTINUOUS
 10
13.6171458541
 20
2.5276393353
 40
0.0024749995
100
AcDbArc
 50
89.9999571957
 51
180.0000428043
  0
LINE
  5
2A7
100
AcDbEntity
  8
0
100
AcDbLine
 62
2
  6
CONTINUOUS
 10
13.6171458559
 20
2.5301143348
 11
13.6292558626
 21
2.5301143348
  0
ARC
  5
2A8
100
AcDbEntity
  8
0
100
AcDbCircle
 62
2
  6
CONTINUOUS
 10
13.6292558645
 20
2.5276393353
 40
0.0024749995
100
AcDbArc
 50
359.9999571957
 51
90.0000428043
  0
LINE
  5
2A9
100
AcDbEntity
  8
0
100
AcDbLine
 62
2
  6
CONTINUOUS
 10
13.631730864
 20
2.5276393334
 11
13.631730864
 21
2.516087327
  0
ARC
  5
2AA
100
AcDbEntity
  8
0
100
AcDbCircle
 62
2
  6
CONTINUOUS
 10
13.6141751675
 20
2.5161916447
 40
0.0175560065
100
AcDbArc
 50
332.2279060967
 51
359.6595469939
  0
ARC
  5
2AB
100
AcDbEntity
  8
0
100
AcDbCircle
 62
2
  6
CONTINUOUS
 10
13.6048681567
 20
2.5210861501
 40
0.0280715479
100
AcDbArc
 50
308.5071794988
 51
332.2400656899
  0
ARC
  5
2AC
100
AcDbEntity
  8
0
100
AcDbCircle
 62
2
  6
CONTINUOUS
 10
13.5978759713
 20
2.5286873679
 40
0.0383802683
100
AcDbArc
 50
288.7656836787
 51
309.6104317088
  0
ARC
  5
2AD
100
AcDbEntity
  8
0
100
AcDbCircle
 62
2
  6
CONTINUOUS
 10
13.6036139387
 20
2.5111006186
 40
0.0198837666
100
AcDbArc
 50
271.8586572978
 51
289.4131338543
  0
LINE
  5
2AE
100
AcDbEntity
  8
0
100
AcDbLine
 62
2
  6
CONTINUOUS
 10
13.6042588488
 20
2.4912273132
 11
13.5568948225
 21
2.4912273132
  0
ARC
  5
2AF
100
AcDbEntity
  8
0
100
AcDbCircle
 62
2
  6
CONTINUOUS
 10
13.5577001432
 20
2.5085494649
 40
0.0173408616
100
AcDbArc
 50
232.4713476722
 51
267.338189944
  0
ARC
  5
2B0
100
AcDbEntity
  8
0
100
AcDbCircle
 62
2
  6
CONTINUOUS
 10
13.5607987082
 20
2.5143997688
 40
0.0238935861
100
AcDbArc
 50
209.8247607259
 51
235.1255079367
  0
ARC
  5
2B1
100
AcDbEntity
  8
0
100
AcDbCircle
 62
2
  6
CONTINUOUS
 10
13.5295131508
 20
2.5629115009
 40
0.0110815393
100
AcDbArc
 50
306.758405961
 51
320.4502234234
  0
ARC
  5
2B2
100
AcDbEntity
  8
0
100
AcDbCircle
 62
2
  6
CONTINUOUS
 10
13.5238839599
 20
2.5706523294
 40
0.0206523367
100
AcDbArc
 50
289.6883413472
 51
306.4184925496
  0
ARC
  5
2B3
100
AcDbEntity
  8
0
100
AcDbCircle
 62
2
  6
CONTINUOUS
 10
13.5219564542
 20
2.5750459767
 40
0.0254407115
100
AcDbArc
 50
270.7327484175
 51
290.441894219
  0
LINE
  5
2B4
100
AcDbEntity
  8
0
100
AcDbLine
 62
2
  6
CONTINUOUS
 10
13.5222818033
 20
2.5496073456
 11
13.4883447845
 21
2.5496073456
  0
ARC
  5
2B5
100
AcDbEntity
  8
0
100
AcDbCircle
 62
2
  6
CONTINUOUS
 10
13.4883447827
 20
2.5520823451
 40
0.0024749995
100
AcDbArc
 50
179.9999571957
 51
270.0000428043
  0
LINE
  5
2B6
100
AcDbEntity
  8
0
100
AcDbLine
 62
2
  6
CONTINUOUS
 10
13.4858697831
 20
2.552082347
 11
13.4858697831
 21
2.564807354
  0
ARC
  5
2B7
100
AcDbEntity
  8
0
100
AcDbCircle
 62
2
  6
CONTINUOUS
 10
13.4883447827
 20
2.5648073559
 40
0.0024749995
100
AcDbArc
 50
89.9999571957
 51
180.0000428043
  0
LINE
  5
2B8
100
AcDbEntity
  8
0
100
AcDbLine
 62
2
  6
CONTINUOUS
 10
13.4883447845
 20
2.5672823554
 11
13.5251458049
 21
2.5672823554
  0
ARC
  5
2B9
100
AcDbEntity
  8
0
100
AcDbCircle
 62
2
  6
CONTINUOUS
 10
13.5236009174
 20
2.5388278764
 40
0.0284963867
100
AcDbArc
 50
70.3834917948
 51
86.8922743861
  0
ARC
  5
2BA
100
AcDbEntity
  8
0
100
AcDbCircle
 62
2
  6
CONTINUOUS
 10
13.5284605274
 20
2.5518696094
 40
0.0145814632
100
AcDbArc
 50
54.6746025112
 51
71.1660573124
  0
ARC
  5
2BB
100
AcDbEntity
  8
0
100
AcDbCircle
 62
2
  6
CONTINUOUS
 10
13.5335900184
 20
2.5587235346
 40
0.0060275915
100
AcDbArc
 50
20.9055592135
 51
56.7851676243
  0
ARC
  5
2BC
100
AcDbEntity
  8
0
100
AcDbCircle
 62
2
  6
CONTINUOUS
 10
13.5348905773
 20
2.5593838168
 40
0.0045795888
100
AcDbArc
 50
355.6235353944
 51
18.9942678268
  0
ARC
  5
2BD
100
AcDbEntity
  8
0
100
AcDbCircle
 62
2
  6
CONTINUOUS
 10
13.533683767
 20
2.559677593
 40
0.0058087709
100
AcDbArc
 50
318.8515287446
 51
353.6422345323
  0
LINE
  5
2BE
100
AcDbEntity
  8
0
100
AcDbLine
 62
2
  6
CONTINUOUS
 10
12.672340332
 20
2.5920323691
 11
12.7727983877
 21
2.5920323691
  0
ARC
  5
2BF
100
AcDbEntity
  8
0
100
AcDbCircle
 62
2
  6
CONTINUOUS
 10
12.7727985224
 20
2.5895582013
 40
0.0024741678
100
AcDbArc
 50
46.3477981899
 51
90.0031206038
  0
LINE
  5
2C0
100
AcDbEntity
  8
0
100
AcDbLine
 62
2
  6
CONTINUOUS
 10
12.7745063886
 20
2.5913483688
 11
12.8345394219
 21
2.534068337
  0
ARC
  5
2C1
100
AcDbEntity
  8
0
100
AcDbCircle
 62
2
  6
CONTINUOUS
 10
12.8362481229
 20
2.5358592748
 40
0.0024753014
100
AcDbArc
 50
226.3461263059
 51
0.0014637321
  0
LINE
  5
2C2
100
AcDbEntity
  8
0
100
AcDbLine
 62
2
  6
CONTINUOUS
 10
12.8387234242
 20
2.535859338
 11
12.8387234242
 21
2.564807354
  0
ARC
  5
2C3
100
AcDbEntity
  8
0
100
AcDbCircle
 62
2
  6
CONTINUOUS
 10
12.8362484247
 20
2.5648073559
 40
0.0024749995
100
AcDbArc
 50
359.9999571957
 51
90.0000428043
  0
LINE
  5
2C4
100
AcDbEntity
  8
0
100
AcDbLine
 62
2
  6
CONTINUOUS
 10
12.8362484229
 20
2.5672823554
 11
12.8174724125
 21
2.5672823554
  0
ARC
  5
2C5
100
AcDbEntity
  8
0
100
AcDbCircle
 62
2
  6
CONTINUOUS
 10
12.8174724106
 20
2.5697573549
 40
0.0024749995
100
AcDbArc
 50
179.9999571957
 51
270.0000428043
  0
LINE
  5
2C6
100
AcDbEntity
  8
0
100
AcDbLine
 62
2
  6
CONTINUOUS
 10
12.8149974111
 20
2.5697573568
 11
12.8149974111
 21
2.5895573678
  0
ARC
  5
2C7
100
AcDbEntity
  8
0
100
AcDbCircle
 62
2
  6
CONTINUOUS
 10
12.8174724106
 20
2.5895573696
 40
0.0024749995
100
AcDbArc
 50
89.9999571957
 51
180.0000428043
  0
LINE
  5
2C8
100
AcDbEntity
  8
0
100
AcDbLine
 62
2
  6
CONTINUOUS
 10
12.8174724125
 20
2.5920323691
 11
12.8914734535
 21
2.5920323691
  0
ARC
  5
2C9
100
AcDbEntity
  8
0
100
AcDbCircle
 62
2
  6
CONTINUOUS
 10
12.8914734553
 20
2.5895573696
 40
0.0024749995
100
AcDbArc
 50
359.9999571957
 51
90.0000428043
  0
LINE
  5
2CA
100
AcDbEntity
  8
0
100
AcDbLine
 62
2
  6
CONTINUOUS
 10
12.8939484549
 20
2.5895573678
 11
12.8939484549
 21
2.5697573568
  0
ARC
  5
2CB
100
AcDbEntity
  8
0
100
AcDbCircle
 62
2
  6
CONTINUOUS
 10
12.8914734553
 20
2.5697573549
 40
0.0024749995
100
AcDbArc
 50
269.9999571957
 51
0.0000428043
  0
LINE
  5
2CC
100
AcDbEntity
  8
0
100
AcDbLine
 62
2
  6
CONTINUOUS
 10
12.8914734535
 20
2.5672823554
 11
12.8735404436
 21
2.5672823554
  0
ARC
  5
2CD
100
AcDbEntity
  8
0
100
AcDbCircle
 62
2
  6
CONTINUOUS
 10
12.8735404417
 20
2.5648073559
 40
0.0024749995
100
AcDbArc
 50
89.9999571957
 51
180.0000428043
  0
LINE
  5
2CE
100
AcDbEntity
  8
0
100
AcDbLine
 62
2
  6
CONTINUOUS
 10
12.8710654422
 20
2.564807354
 11
12.8710654422
 21
2.4937023146
  0
ARC
  5
2CF
100
AcDbEntity
  8
0
100
AcDbCircle
 62
2
  6
CONTINUOUS
 10
12.8685904427
 20
2.4937023128
 40
0.0024749995
100
AcDbArc
 50
269.9999571957
 51
0.0000428043
  0
LINE
  5
2D0
100
AcDbEntity
  8
0
100
AcDbLine
 62
2
  6
CONTINUOUS
 10
12.8685904408
 20
2.4912273132
 11
12.7943853997
 21
2.4912273132
  0
ARC
  5
2D1
100
AcDbEntity
  8
0
100
AcDbCircle
 62
2
  6
CONTINUOUS
 10
12.7943847649
 20
2.4937027294
 40
0.0024754162
100
AcDbArc
 50
226.3593695813
 51
270.0146919953
  0
LINE
  5
2D2
100
AcDbEntity
  8
0
100
AcDbLine
 62
2
  6
CONTINUOUS
 10
12.7926763987
 20
2.4919113136
 11
12.7293963636
 21
2.5522893471
  0
ARC
  5
2D3
100
AcDbEntity
  8
0
100
AcDbCircle
 62
2
  6
CONTINUOUS
 10
12.7276876627
 20
2.5504984093
 40
0.0024753014
100
AcDbArc
 50
46.3461263059
 51
180.0014637321
  0
LINE
  5
2D4
100
AcDbEntity
  8
0
100
AcDbLine
 62
2
  6
CONTINUOUS
 10
12.7252123613
 20
2.5504983461
 11
12.7252123613
 21
2.5184523283
  0
ARC
  5
2D5
100
AcDbEntity
  8
0
100
AcDbCircle
 62
2
  6
CONTINUOUS
 10
12.7276873608
 20
2.5184523265
 40
0.0024749995
100
AcDbArc
 50
179.9999571957
 51
270.0000428043
  0
LINE
  5
2D6
100
AcDbEntity
  8
0
100
AcDbLine
 62
2
  6
CONTINUOUS
 10
12.7276873627
 20
2.515977327
 11
12.7480043739
 21
2.515977327
  0
ARC
  5
2D7
100
AcDbEntity
  8
0
100
AcDbCircle
 62
2
  6
CONTINUOUS
 10
12.7480043758
 20
2.5135023274
 40
0.0024749995
100
AcDbArc
 50
359.9999571957
 51
90.0000428043
  0
LINE
  5
2D8
100
AcDbEntity
  8
0
100
AcDbLine
 62
2
  6
CONTINUOUS
 10
12.7504793753
 20
2.5135023256
 11
12.7504793753
 21
2.4937023146
  0
ARC
  5
2D9
100
AcDbEntity
  8
0
100
AcDbCircle
 62
2
  6
CONTINUOUS
 10
12.7480043758
 20
2.4937023128
 40
0.0024749995
100
AcDbArc
 50
269.9999571957
 51
0.0000428043
  0
LINE
  5
2DA
100
AcDbEntity
  8
0
100
AcDbLine
 62
2
  6
CONTINUOUS
 10
12.7480043739
 20
2.4912273132
 11
12.672340332
 21
2.4912273132
  0
ARC
  5
2DB
100
AcDbEntity
  8
0
100
AcDbCircle
 62
2
  6
CONTINUOUS
 10
12.6723403301
 20
2.4937023128
 40
0.0024749995
100
AcDbArc
 50
179.9999571957
 51
270.0000428043
  0
LINE
  5
2DC
100
AcDbEntity
  8
0
100
AcDbLine
 62
2
  6
CONTINUOUS
 10
12.6698653306
 20
2.4937023146
 11
12.6698653306
 21
2.5135023256
  0
ARC
  5
2DD
100
AcDbEntity
  8
0
100
AcDbCircle
 62
2
  6
CONTINUOUS
 10
12.6723403301
 20
2.5135023274
 40
0.0024749995
100
AcDbArc
 50
89.9999571957
 51
180.0000428043
  0
LINE
  5
2DE
100
AcDbEntity
  8
0
100
AcDbLine
 62
2
  6
CONTINUOUS
 10
12.672340332
 20
2.515977327
 11
12.6909873423
 21
2.515977327
  0
ARC
  5
2DF
100
AcDbEntity
  8
0
100
AcDbCircle
 62
2
  6
CONTINUOUS
 10
12.6909873442
 20
2.5184523265
 40
0.0024749995
100
AcDbArc
 50
269.9999571957
 51
0.0000428043
  0
LINE
  5
2E0
100
AcDbEntity
  8
0
100
AcDbLine
 62
2
  6
CONTINUOUS
 10
12.6934623437
 20
2.5184523283
 11
12.6934623437
 21
2.564807354
  0
ARC
  5
2E1
100
AcDbEntity
  8
0
100
AcDbCircle
 62
2
  6
CONTINUOUS
 10
12.6909873442
 20
2.5648073559
 40
0.0024749995
100
AcDbArc
 50
359.9999571957
 51
90.0000428043
  0
LINE
  5
2E2
100
AcDbEntity
  8
0
100
AcDbLine
 62
2
  6
CONTINUOUS
 10
12.6909873423
 20
2.5672823554
 11
12.672340332
 21
2.5672823554
  0
ARC
  5
2E3
100
AcDbEntity
  8
0
100
AcDbCircle
 62
2
  6
CONTINUOUS
 10
12.6723403301
 20
2.5697573549
 40
0.0024749995
100
AcDbArc
 50
179.9999571957
 51
270.0000428043
  0
LINE
  5
2E4
100
AcDbEntity
  8
0
100
AcDbLine
 62
2
  6
CONTINUOUS
 10
12.6698653306
 20
2.5697573568
 11
12.6698653306
 21
2.5895573678
  0
ARC
  5
2E5
100
AcDbEntity
  8
0
100
AcDbCircle
 62
2
  6
CONTINUOUS
 10
12.6723403301
 20
2.5895573696
 40
0.0024749995
100
AcDbArc
 50
89.9999571957
 51
180.0000428043
  0
LINE
  5
2E6
100
AcDbEntity
  8
0
100
AcDbLine
 62
2
  6
CONTINUOUS
 10
12.5246402501
 20
2.5655893545
 11
12.5175232461
 21
2.5543723483
  0
ARC
  5
2E7
100
AcDbEntity
  8
0
100
AcDbCircle
 62
2
  6
CONTINUOUS
 10
12.519613138
 20
2.5530463862
 40
0.0024750401
100
AcDbArc
 50
147.6063258012
 51
270.0025305754
  0
LINE
  5
2E8
100
AcDbEntity
  8
0
100
AcDbLine
 62
2
  6
CONTINUOUS
 10
12.5196132473
 20
2.5505713461
 11
12.5401702587
 21
2.5505713461
  0
ARC
  5
2E9
100
AcDbEntity
  8
0
100
AcDbCircle
 62
2
  6
CONTINUOUS
 10
12.5401702375
 20
2.5530465533
 40
0.0024752071
100
AcDbArc
 50
270.0004896793
 51
32.9089806818
  0
LINE
  5
2EA
100
AcDbEntity
  8
0
100
AcDbLine
 62
2
  6
CONTINUOUS
 10
12.5422482598
 20
2.5543913483
 11
12.5349892558
 21
2.5656073545
  0
ARC
  5
2EB
100
AcDbEntity
  8
0
100
AcDbCircle
 62
2
  6
CONTINUOUS
 10
12.532910715
 20
2.564262895
 40
0.0024754602
100
AcDbArc
 50
32.8959418573
 51
89.9875097202
  0
LINE
  5
2EC
100
AcDbEntity
  8
0
100
AcDbLine
 62
2
  6
CONTINUOUS
 10
12.5329112547
 20
2.5667383551
 11
12.5267302512
 21
2.5667383551
  0
ARC
  5
2ED
100
AcDbEntity
  8
0
100
AcDbCircle
 62
2
  6
CONTINUOUS
 10
12.5267301809
 20
2.5642631548
 40
0.0024752003
100
AcDbArc
 50
89.998372645
 51
147.602165307
  0
LINE
  5
2EE
100
AcDbEntity
  8
0
100
AcDbLine
 62
2
  6
CONTINUOUS
 10
12.548053263
 20
2.5284903339
 11
12.5536792662
 21
2.5197973291
  0
ARC
  5
2EF
100
AcDbEntity
  8
0
100
AcDbCircle
 62
2
  6
CONTINUOUS
 10
12.5516012439
 20
2.5184525341
 40
0.0024752071
100
AcDbArc
 50
270.0004896794
 51
32.9089806818
  0
LINE
  5
2F0
100
AcDbEntity
  8
0
100
AcDbLine
 62
2
  6
CONTINUOUS
 10
12.551601265
 20
2.515977327
 11
12.537150257
 21
2.515977327
  0
ARC
  5
2F1
100
AcDbEntity
  8
0
100
AcDbCircle
 62
2
  6
CONTINUOUS
 10
12.5371502552
 20
2.5135023274
 40
0.0024749995
100
AcDbArc
 50
89.9999571957
 51
180.0000428043
  0
LINE
  5
2F2
100
AcDbEntity
  8
0
100
AcDbLine
 62
2
  6
CONTINUOUS
 10
12.5346752556
 20
2.5135023256
 11
12.5346752556
 21
2.4937023146
  0
ARC
  5
2F3
100
AcDbEntity
  8
0
100
AcDbCircle
 62
2
  6
CONTINUOUS
 10
12.5371502552
 20
2.4937023128
 40
0.0024749995
100
AcDbArc
 50
179.9999571957
 51
270.0000428043
  0
LINE
  5
2F4
100
AcDbEntity
  8
0
100
AcDbLine
 62
2
  6
CONTINUOUS
 10
12.537150257
 20
2.4912273132
 11
12.6424313154
 21
2.4912273132
  0
ARC
  5
2F5
100
AcDbEntity
  8
0
100
AcDbCircle
 62
2
  6
CONTINUOUS
 10
12.6424313172
 20
2.4937023128
 40
0.0024749995
100
AcDbArc
 50
269.9999571957
 51
0.0000428043
  0
LINE
  5
2F6
100
AcDbEntity
  8
0
100
AcDbLine
 62
2
  6
CONTINUOUS
 10
12.6449063168
 20
2.4937023146
 11
12.6449063168
 21
2.5135023256
  0
ARC
  5
2F7
100
AcDbEntity
  8
0
100
AcDbCircle
 62
2
  6
CONTINUOUS
 10
12.6424313172
 20
2.5135023274
 40
0.0024749995
100
AcDbArc
 50
359.9999571957
 51
90.0000428043
  0
LINE
  5
2F8
100
AcDbEntity
  8
0
100
AcDbLine
 62
2
  6
CONTINUOUS
 10
12.6424313154
 20
2.515977327
 11
12.6224153043
 21
2.515977327
  0
ARC
  5
2F9
100
AcDbEntity
  8
0
100
AcDbCircle
 62
2
  6
CONTINUOUS
 10
12.6224154248
 20
2.518451368
 40
0.002474041
100
AcDbArc
 50
212.9056413127
 51
269.9972091756
  0
LINE
  5
2FA
100
AcDbEntity
  8
0
100
AcDbLine
 62
2
  6
CONTINUOUS
 10
12.6203383031
 20
2.5171073276
 11
12.5725822767
 21
2.5909023685
  0
ARC
  5
2FB
100
AcDbEntity
  8
0
100
AcDbCircle
 62
2
  6
CONTINUOUS
 10
12.570504655
 20
2.589557409
 40
0.0024749602
100
AcDbArc
 50
32.9172174468
 51
90.0087853097
  0
LINE
  5
2FC
100
AcDbEntity
  8
0
100
AcDbLine
 62
2
  6
CONTINUOUS
 10
12.5705042755
 20
2.5920323691
 11
12.5133292438
 21
2.5920323691
  0
ARC
  5
2FD
100
AcDbEntity
  8
0
100
AcDbCircle
 62
2
  6
CONTINUOUS
 10
12.5133291735
 20
2.5895571688
 40
0.0024752003
100
AcDbArc
 50
89.9983726451
 51
147.602165307
  0
LINE
  5
2FE
100
AcDbEntity
  8
0
100
AcDbLine
 62
2
  6
CONTINUOUS
 10
12.5112392426
 20
2.5908833685
 11
12.4644392167
 21
2.5171263276
  0
ARC
  5
2FF
100
AcDbEntity
  8
0
100
AcDbCircle
 62
2
  6
CONTINUOUS
 10
12.4623492858
 20
2.5184525273
 40
0.0024752003
100
AcDbArc
 50
269.9983726451
 51
327.602165307
  0
LINE
  5
300
100
AcDbEntity
  8
0
100
AcDbLine
 62
2
  6
CONTINUOUS
 10
12.4623492155
 20
2.515977327
 11
12.4394882028
 21
2.515977327
  0
ARC
  5
301
100
AcDbEntity
  8
0
100
AcDbCircle
 62
2
  6
CONTINUOUS
 10
12.439488201
 20
2.5135023274
 40
0.0024749995
100
AcDbArc
 50
89.9999571957
 51
180.0000428043
  0
LINE
  5
302
100
AcDbEntity
  8
0
100
AcDbLine
 62
2
  6
CONTINUOUS
 10
12.4370132015
 20
2.5135023256
 11
12.4370132015
 21
2.4937023146
  0
ARC
  5
303
100
AcDbEntity
  8
0
100
AcDbCircle
 62
2
  6
CONTINUOUS
 10
12.439488201
 20
2.4937023128
 40
0.0024749995
100
AcDbArc
 50
179.9999571957
 51
270.0000428043
  0
LINE
  5
304
100
AcDbEntity
  8
0
100
AcDbLine
 62
2
  6
CONTINUOUS
 10
12.4394882028
 20
2.4912273132
 11
12.5168642458
 21
2.4912273132
  0
ARC
  5
305
100
AcDbEntity
  8
0
100
AcDbCircle
 62
2
  6
CONTINUOUS
 10
12.5168642476
 20
2.4937023128
 40
0.0024749995
100
AcDbArc
 50
269.9999571957
 51
0.0000428043
  0
LINE
  5
306
100
AcDbEntity
  8
0
100
AcDbLine
 62
2
  6
CONTINUOUS
 10
12.5193392471
 20
2.4937023146
 11
12.5193392471
 21
2.5135023256
  0
ARC
  5
307
100
AcDbEntity
  8
0
100
AcDbCircle
 62
2
  6
CONTINUOUS
 10
12.5168642476
 20
2.5135023274
 40
0.0024749995
100
AcDbArc
 50
359.9999571957
 51
90.0000428043
  0
LINE
  5
308
100
AcDbEntity
  8
0
100
AcDbLine
 62
2
  6
CONTINUOUS
 10
12.5168642458
 20
2.515977327
 11
12.5055812395
 21
2.515977327
  0
ARC
  5
309
100
AcDbEntity
  8
0
100
AcDbCircle
 62
2
  6
CONTINUOUS
 10
12.5055811302
 20
2.518452367
 40
0.0024750401
100
AcDbArc
 50
147.6063258011
 51
270.0025305754
  0
LINE
  5
30A
100
AcDbEntity
  8
0
100
AcDbLine
 62
2
  6
CONTINUOUS
 10
12.5034912383
 20
2.5197783291
 11
12.5090072414
 21
2.5284723339
  0
ARC
  5
30B
100
AcDbEntity
  8
0
100
AcDbCircle
 62
2
  6
CONTINUOUS
 10
12.5110971723
 20
2.5271461342
 40
0.0024752003
100
AcDbArc
 50
89.998372645
 51
147.602165307
  0
LINE
  5
30C
100
AcDbEntity
  8
0
100
AcDbLine
 62
2
  6
CONTINUOUS
 10
12.5110972426
 20
2.5296213345
 11
12.5459752619
 21
2.5296213345
  0
ARC
  5
30D
100
AcDbEntity
  8
0
100
AcDbCircle
 62
2
  6
CONTINUOUS
 10
12.5459747223
 20
2.5271458744
 40
0.0024754602
100
AcDbArc
 50
32.8959418573
 51
89.9875097202
  0
LINE
  5
30E
100
AcDbEntity
  8
0
100
AcDbLine
 62
2
  6
CONTINUOUS
 10
12.9205934696
 20
2.5920323691
 11
13.0210515254
 21
2.5920323691
  0
ARC
  5
30F
100
AcDbEntity
  8
0
100
AcDbCircle
 62
2
  6
CONTINUOUS
 10
13.0210516601
 20
2.5895582013
 40
0.0024741678
100
AcDbArc
 50
46.3477981899
 51
90.0031206038
  0
LINE
  5
310
100
AcDbEntity
  8
0
100
AcDbLine
 62
2
  6
CONTINUOUS
 10
13.0227595263
 20
2.5913483688
 11
13.0827925596
 21
2.534068337
  0
ARC
  5
311
100
AcDbEntity
  8
0
100
AcDbCircle
 62
2
  6
CONTINUOUS
 10
13.0845012605
 20
2.5358592748
 40
0.0024753014
100
AcDbArc
 50
226.3461263059
 51
0.0014637321
  0
LINE
  5
312
100
AcDbEntity
  8
0
100
AcDbLine
 62
2
  6
CONTINUOUS
 10
13.0869765619
 20
2.535859338
 11
13.0869765619
 21
2.564807354
  0
ARC
  5
313
100
AcDbEntity
  8
0
100
AcDbCircle
 62
2
  6
CONTINUOUS
 10
13.0845015624
 20
2.5648073559
 40
0.0024749995
100
AcDbArc
 50
359.9999571957
 51
90.0000428043
  0
LINE
  5
314
100
AcDbEntity
  8
0
100
AcDbLine
 62
2
  6
CONTINUOUS
 10
13.0845015605
 20
2.5672823554
 11
13.0657255501
 21
2.5672823554
  0
ARC
  5
315
100
AcDbEntity
  8
0
100
AcDbCircle
 62
2
  6
CONTINUOUS
 10
13.0657255483
 20
2.5697573549
 40
0.0024749995
100
AcDbArc
 50
179.9999571957
 51
270.0000428043
  0
LINE
  5
316
100
AcDbEntity
  8
0
100
AcDbLine
 62
2
  6
CONTINUOUS
 10
13.0632505488
 20
2.5697573568
 11
13.0632505488
 21
2.5895573678
  0
ARC
  5
317
100
AcDbEntity
  8
0
100
AcDbCircle
 62
2
  6
CONTINUOUS
 10
13.0657255483
 20
2.5895573696
 40
0.0024749995
100
AcDbArc
 50
89.9999571957
 51
180.0000428043
  0
LINE
  5
318
100
AcDbEntity
  8
0
100
AcDbLine
 62
2
  6
CONTINUOUS
 10
13.0657255501
 20
2.5920323691
 11
13.1397265912
 21
2.5920323691
  0
ARC
  5
319
100
AcDbEntity
  8
0
100
AcDbCircle
 62
2
  6
CONTINUOUS
 10
13.139726593
 20
2.5895573696
 40
0.0024749995
100
AcDbArc
 50
359.9999571957
 51
90.0000428043
  0
LINE
  5
31A
100
AcDbEntity
  8
0
100
AcDbLine
 62
2
  6
CONTINUOUS
 10
13.1422015925
 20
2.5895573678
 11
13.1422015925
 21
2.5697573568
  0
ARC
  5
31B
100
AcDbEntity
  8
0
100
AcDbCircle
 62
2
  6
CONTINUOUS
 10
13.139726593
 20
2.5697573549
 40
0.0024749995
100
AcDbArc
 50
269.9999571957
 51
0.0000428042
  0
LINE
  5
31C
100
AcDbEntity
  8
0
100
AcDbLine
 62
2
  6
CONTINUOUS
 10
13.1397265912
 20
2.5672823554
 11
13.1217935812
 21
2.5672823554
  0
ARC
  5
31D
100
AcDbEntity
  8
0
100
AcDbCircle
 62
2
  6
CONTINUOUS
 10
13.1217935794
 20
2.5648073559
 40
0.0024749995
100
AcDbArc
 50
89.9999571957
 51
180.0000428042
  0
LINE
  5
31E
100
AcDbEntity
  8
0
100
AcDbLine
 62
2
  6
CONTINUOUS
 10
13.1193185799
 20
2.564807354
 11
13.1193185799
 21
2.4937023146
  0
ARC
  5
31F
100
AcDbEntity
  8
0
100
AcDbCircle
 62
2
  6
CONTINUOUS
 10
13.1168435803
 20
2.4937023128
 40
0.0024749995
100
AcDbArc
 50
269.9999571957
 51
0.0000428043
  0
LINE
  5
320
100
AcDbEntity
  8
0
100
AcDbLine
 62
2
  6
CONTINUOUS
 10
13.1168435785
 20
2.4912273132
 11
13.0426375373
 21
2.4912273132
  0
ARC
  5
321
100
AcDbEntity
  8
0
100
AcDbCircle
 62
2
  6
CONTINUOUS
 10
13.0426374026
 20
2.493701481
 40
0.0024741678
100
AcDbArc
 50
226.3477981898
 51
270.0031206038
  0
LINE
  5
322
100
AcDbEntity
  8
0
100
AcDbLine
 62
2
  6
CONTINUOUS
 10
13.0409295364
 20
2.4919113136
 11
12.9776495013
 21
2.5522893471
  0
ARC
  5
323
100
AcDbEntity
  8
0
100
AcDbCircle
 62
2
  6
CONTINUOUS
 10
12.9759408003
 20
2.5504984093
 40
0.0024753014
100
AcDbArc
 50
46.3461263059
 51
180.0014637321
  0
LINE
  5
324
100
AcDbEntity
  8
0
100
AcDbLine
 62
2
  6
CONTINUOUS
 10
12.973465499
 20
2.5504983461
 11
12.973465499
 21
2.5184523283
  0
ARC
  5
325
100
AcDbEntity
  8
0
100
AcDbCircle
 62
2
  6
CONTINUOUS
 10
12.9759404985
 20
2.5184523265
 40
0.0024749995
100
AcDbArc
 50
179.9999571957
 51
270.0000428043
  0
LINE
  5
326
100
AcDbEntity
  8
0
100
AcDbLine
 62
2
  6
CONTINUOUS
 10
12.9759405003
 20
2.515977327
 11
12.9962575116
 21
2.515977327
  0
ARC
  5
327
100
AcDbEntity
  8
0
100
AcDbCircle
 62
2
  6
CONTINUOUS
 10
12.9962575135
 20
2.5135023274
 40
0.0024749995
100
AcDbArc
 50
359.9999571957
 51
90.0000428043
  0
LINE
  5
328
100
AcDbEntity
  8
0
100
AcDbLine
 62
2
  6
CONTINUOUS
 10
12.998732513
 20
2.5135023256
 11
12.998732513
 21
2.4937023146
  0
ARC
  5
329
100
AcDbEntity
  8
0
100
AcDbCircle
 62
2
  6
CONTINUOUS
 10
12.9962575135
 20
2.4937023128
 40
0.0024749995
100
AcDbArc
 50
269.9999571957
 51
0.0000428043
  0
LINE
  5
32A
100
AcDbEntity
  8
0
100
AcDbLine
 62
2
  6
CONTINUOUS
 10
12.9962575116
 20
2.4912273132
 11
12.9205934696
 21
2.4912273132
  0
ARC
  5
32B
100
AcDbEntity
  8
0
100
AcDbCircle
 62
2
  6
CONTINUOUS
 10
12.9205934678
 20
2.4937023128
 40
0.0024749995
100
AcDbArc
 50
179.9999571957
 51
270.0000428043
  0
LINE
  5
32C
100
AcDbEntity
  8
0
100
AcDbLine
 62
2
  6
CONTINUOUS
 10
12.9181184683
 20
2.4937023146
 11
12.9181184683
 21
2.5135023256
  0
ARC
  5
32D
100
AcDbEntity
  8
0
100
AcDbCircle
 62
2
  6
CONTINUOUS
 10
12.9205934678
 20
2.5135023274
 40
0.0024749995
100
AcDbArc
 50
89.9999571957
 51
180.0000428042
  0
LINE
  5
32E
100
AcDbEntity
  8
0
100
AcDbLine
 62
2
  6
CONTINUOUS
 10
12.9205934696
 20
2.515977327
 11
12.93923948
 21
2.515977327
  0
ARC
  5
32F
100
AcDbEntity
  8
0
100
AcDbCircle
 62
2
  6
CONTINUOUS
 10
12.9392394818
 20
2.5184523265
 40
0.0024749995
100
AcDbArc
 50
269.9999571957
 51
0.0000428043
  0
LINE
  5
330
100
AcDbEntity
  8
0
100
AcDbLine
 62
2
  6
CONTINUOUS
 10
12.9417144814
 20
2.5184523283
 11
12.9417144814
 21
2.564807354
  0
ARC
  5
331
100
AcDbEntity
  8
0
100
AcDbCircle
 62
2
  6
CONTINUOUS
 10
12.9392394818
 20
2.5648073559
 40
0.0024749995
100
AcDbArc
 50
359.9999571957
 51
90.0000428043
  0
LINE
  5
332
100
AcDbEntity
  8
0
100
AcDbLine
 62
2
  6
CONTINUOUS
 10
12.93923948
 20
2.5672823554
 11
12.9205934696
 21
2.5672823554
  0
ARC
  5
333
100
AcDbEntity
  8
0
100
AcDbCircle
 62
2
  6
CONTINUOUS
 10
12.9205934678
 20
2.5697573549
 40
0.0024749995
100
AcDbArc
 50
179.9999571957
 51
270.0000428043
  0
LINE
  5
334
100
AcDbEntity
  8
0
100
AcDbLine
 62
2
  6
CONTINUOUS
 10
12.9181184683
 20
2.5697573568
 11
12.9181184683
 21
2.5895573678
  0
ARC
  5
335
100
AcDbEntity
  8
0
100
AcDbCircle
 62
2
  6
CONTINUOUS
 10
12.9205934678
 20
2.5895573696
 40
0.0024749995
100
AcDbArc
 50
89.9999571957
 51
180.0000428042
  0
LINE
  5
336
100
AcDbEntity
  8
0
100
AcDbLine
 62
2
  6
CONTINUOUS
 10
13.2934226764
 20
2.5324773361
 11
13.2582556569
 21
2.5324773361
  0
ARC
  5
337
100
AcDbEntity
  8
0
100
AcDbCircle
 62
2
  6
CONTINUOUS
 10
13.2582556551
 20
2.5300023366
 40
0.0024749995
100
AcDbArc
 50
89.9999571957
 51
180.0000428043
  0
LINE
  5
338
100
AcDbEntity
  8
0
100
AcDbLine
 62
2
  6
CONTINUOUS
 10
13.2557806555
 20
2.5300023347
 11
13.2557806555
 21
2.5184523283
  0
ARC
  5
339
100
AcDbEntity
  8
0
100
AcDbCircle
 62
2
  6
CONTINUOUS
 10
13.2582556551
 20
2.5184523265
 40
0.0024749995
100
AcDbArc
 50
179.9999571957
 51
270.0000428043
  0
LINE
  5
33A
100
AcDbEntity
  8
0
100
AcDbLine
 62
2
  6
CONTINUOUS
 10
13.2582556569
 20
2.515977327
 11
13.3232596929
 21
2.515977327
  0
ARC
  5
33B
100
AcDbEntity
  8
0
100
AcDbCircle
 62
2
  6
CONTINUOUS
 10
13.3232596948
 20
2.5184523265
 40
0.0024749995
100
AcDbArc
 50
269.9999571957
 51
0.0000428043
  0
LINE
  5
33C
100
AcDbEntity
  8
0
100
AcDbLine
 62
2
  6
CONTINUOUS
 10
13.3257346943
 20
2.5184523283
 11
13.3257346943
 21
2.5267023329
  0
ARC
  5
33D
100
AcDbEntity
  8
0
100
AcDbCircle
 62
2
  6
CONTINUOUS
 10
13.3282096938
 20
2.5267023348
 40
0.0024749995
100
AcDbArc
 50
89.9999571957
 51
180.0000428043
  0
LINE
  5
33E
100
AcDbEntity
  8
0
100
AcDbLine
 62
2
  6
CONTINUOUS
 10
13.3282096957
 20
2.5291773343
 11
13.3705287192
 21
2.5291773343
  0
ARC
  5
33F
100
AcDbEntity
  8
0
100
AcDbCircle
 62
2
  6
CONTINUOUS
 10
13.370528721
 20
2.5267023348
 40
0.0024749995
100
AcDbArc
 50
359.9999571957
 51
90.0000428043
  0
LINE
  5
340
100
AcDbEntity
  8
0
100
AcDbLine
 62
2
  6
CONTINUOUS
 10
13.3730037205
 20
2.5267023329
 11
13.3730037205
 21
2.4937023146
  0
ARC
  5
341
100
AcDbEntity
  8
0
100
AcDbCircle
 62
2
  6
CONTINUOUS
 10
13.370528721
 20
2.4937023128
 40
0.0024749995
100
AcDbArc
 50
269.9999571957
 51
0.0000428043
  0
LINE
  5
342
100
AcDbEntity
  8
0
100
AcDbLine
 62
2
  6
CONTINUOUS
 10
13.3705287192
 20
2.4912273132
 11
13.1673166065
 21
2.4912273132
  0
ARC
  5
343
100
AcDbEntity
  8
0
100
AcDbCircle
 62
2
  6
CONTINUOUS
 10
13.1673166046
 20
2.4937023128
 40
0.0024749995
100
AcDbArc
 50
179.9999571957
 51
270.0000428043
  0
LINE
  5
344
100
AcDbEntity
  8
0
100
AcDbLine
 62
2
  6
CONTINUOUS
 10
13.1648416051
 20
2.4937023146
 11
13.1648416051
 21
2.5135023256
  0
ARC
  5
345
100
AcDbEntity
  8
0
100
AcDbCircle
 62
2
  6
CONTINUOUS
 10
13.1673166046
 20
2.5135023274
 40
0.0024749995
100
AcDbArc
 50
89.9999571957
 51
180.0000428043
  0
LINE
  5
346
100
AcDbEntity
  8
0
100
AcDbLine
 62
2
  6
CONTINUOUS
 10
13.1673166065
 20
2.515977327
 11
13.1912396197
 21
2.515977327
  0
ARC
  5
347
100
AcDbEntity
  8
0
100
AcDbCircle
 62
2
  6
CONTINUOUS
 10
13.1912396216
 20
2.5184523265
 40
0.0024749995
100
AcDbArc
 50
269.9999571957
 51
0.0000428042
  0
LINE
  5
348
100
AcDbEntity
  8
0
100
AcDbLine
 62
2
  6
CONTINUOUS
 10
13.1937146211
 20
2.5184523283
 11
13.1937146211
 21
2.564807354
  0
ARC
  5
349
100
AcDbEntity
  8
0
100
AcDbCircle
 62
2
  6
CONTINUOUS
 10
13.1912396216
 20
2.5648073559
 40
0.0024749995
100
AcDbArc
 50
359.9999571957
 51
90.0000428043
  0
LINE
  5
34A
100
AcDbEntity
  8
0
100
AcDbLine
 62
2
  6
CONTINUOUS
 10
13.1912396197
 20
2.5672823554
 11
13.1673166065
 21
2.5672823554
  0
ARC
  5
34B
100
AcDbEntity
  8
0
100
AcDbCircle
 62
2
  6
CONTINUOUS
 10
13.1673166046
 20
2.5697573549
 40
0.0024749995
100
AcDbArc
 50
179.9999571957
 51
270.0000428043
  0
LINE
  5
34C
100
AcDbEntity
  8
0
100
AcDbLine
 62
2
  6
CONTINUOUS
 10
13.1648416051
 20
2.5697573568
 11
13.1648416051
 21
2.5895573678
  0
ARC
  5
34D
100
AcDbEntity
  8
0
100
AcDbCircle
 62
2
  6
CONTINUOUS
 10
13.1673166046
 20
2.5895573696
 40
0.0024749995
100
AcDbArc
 50
89.9999571957
 51
180.0000428043
  0
LINE
  5
34E
100
AcDbEntity
  8
0
100
AcDbLine
 62
2
  6
CONTINUOUS
 10
13.1673166065
 20
2.5920323691
 11
13.3691097184
 21
2.5920323691
  0
ARC
  5
34F
100
AcDbEntity
  8
0
100
AcDbCircle
 62
2
  6
CONTINUOUS
 10
13.3691097202
 20
2.5895573696
 40
0.0024749995
100
AcDbArc
 50
359.9999571957
 51
90.0000428043
  0
LINE
  5
350
100
AcDbEntity
  8
0
100
AcDbLine
 62
2
  6
CONTINUOUS
 10
13.3715847197
 20
2.5895573678
 11
13.3715847197
 21
2.5565573495
  0
ARC
  5
351
100
AcDbEntity
  8
0
100
AcDbCircle
 62
2
  6
CONTINUOUS
 10
13.3691097202
 20
2.5565573476
 40
0.0024749995
100
AcDbArc
 50
269.9999571957
 51
0.0000428042
  0
LINE
  5
352
100
AcDbEntity
  8
0
100
AcDbLine
 62
2
  6
CONTINUOUS
 10
13.3691097184
 20
2.5540823481
 11
13.3272456952
 21
2.5540823481
  0
ARC
  5
353
100
AcDbEntity
  8
0
100
AcDbCircle
 62
2
  6
CONTINUOUS
 10
13.3272456933
 20
2.5565573476
 40
0.0024749995
100
AcDbArc
 50
179.9999571957
 51
270.0000428043
  0
LINE
  5
354
100
AcDbEntity
  8
0
100
AcDbLine
 62
2
  6
CONTINUOUS
 10
13.3247706938
 20
2.5565573495
 11
13.3247706938
 21
2.564807354
  0
ARC
  5
355
100
AcDbEntity
  8
0
100
AcDbCircle
 62
2
  6
CONTINUOUS
 10
13.3222956943
 20
2.5648073559
 40
0.0024749995
100
AcDbArc
 50
359.9999571957
 51
90.0000428043
  0
LINE
  5
356
100
AcDbEntity
  8
0
100
AcDbLine
 62
2
  6
CONTINUOUS
 10
13.3222956924
 20
2.5672823554
 11
13.2582556569
 21
2.5672823554
  0
ARC
  5
357
100
AcDbEntity
  8
0
100
AcDbCircle
 62
2
  6
CONTINUOUS
 10
13.2582556551
 20
2.5648073559
 40
0.0024749995
100
AcDbArc
 50
89.9999571957
 51
180.0000428043
  0
LINE
  5
358
100
AcDbEntity
  8
0
100
AcDbLine
 62
2
  6
CONTINUOUS
 10
13.2557806555
 20
2.564807354
 11
13.2557806555
 21
2.5532573476
  0
ARC
  5
359
100
AcDbEntity
  8
0
100
AcDbCircle
 62
2
  6
CONTINUOUS
 10
13.2582556551
 20
2.5532573458
 40
0.0024749995
100
AcDbArc
 50
179.9999571957
 51
270.0000428043
  0
LINE
  5
35A
100
AcDbEntity
  8
0
100
AcDbLine
 62
2
  6
CONTINUOUS
 10
13.2582556569
 20
2.5507823463
 11
13.2934226764
 21
2.5507823463
  0
ARC
  5
35B
100
AcDbEntity
  8
0
100
AcDbCircle
 62
2
  6
CONTINUOUS
 10
13.2934226783
 20
2.5483073467
 40
0.0024749995
100
AcDbArc
 50
359.9999571957
 51
90.0000428043
  0
LINE
  5
35C
100
AcDbEntity
  8
0
100
AcDbLine
 62
2
  6
CONTINUOUS
 10
13.2958976778
 20
2.5483073449
 11
13.2958976778
 21
2.5349523375
  0
ARC
  5
35D
100
AcDbEntity
  8
0
100
AcDbCircle
 62
2
  6
CONTINUOUS
 10
13.2934226783
 20
2.5349523356
 40
0.0024749995
100
AcDbArc
 50
269.9999571957
 51
0.0000428042
  0
LINE
  5
35E
100
AcDbEntity
  8
0
100
AcDbLine
 62
2
  6
CONTINUOUS
 10
13.7286871589
 20
2.5350697372
 11
13.7286871589
 21
2.5456869438
  0
LINE
  5
35F
100
AcDbEntity
  8
0
100
AcDbLine
 62
2
  6
CONTINUOUS
 10
13.7086871478
 20
2.5004302075
 11
13.7086871478
 21
2.5803264735
  0
LINE
  5
360
100
AcDbEntity
  8
0
100
AcDbLine
 62
2
  6
CONTINUOUS
 10
13.6886871368
 20
2.4843919416
 11
13.6886871368
 21
2.5963647394
  0
LINE
  5
361
100
AcDbEntity
  8
0
100
AcDbLine
 62
2
  6
CONTINUOUS
 10
13.6686871257
 20
2.4726017898
 11
13.6686871257
 21
2.6081548911
  0
LINE
  5
362
100
AcDbEntity
  8
0
100
AcDbLine
 62
2
  6
CONTINUOUS
 10
13.6486871146
 20
2.4628062688
 11
13.6486871146
 21
2.6179504122
  0
LINE
  5
363
100
AcDbEntity
  8
0
100
AcDbLine
 62
2
  6
CONTINUOUS
 10
13.6286871035
 20
2.4541253507
 11
13.6286871035
 21
2.5062483056
  0
LINE
  5
364
100
AcDbEntity
  8
0
100
AcDbLine
 62
2
  6
CONTINUOUS
 10
13.6286871035
 20
2.5301143348
 11
13.6286871035
 21
2.6266313303
  0
LINE
  5
365
100
AcDbEntity
  8
0
100
AcDbLine
 62
2
  6
CONTINUOUS
 10
13.6086870924
 20
2.4465537903
 11
13.6086870924
 21
2.4918774918
  0
LINE
  5
366
100
AcDbEntity
  8
0
100
AcDbLine
 62
2
  6
CONTINUOUS
 10
13.6086870924
 20
2.5165781173
 11
13.6086870924
 21
2.6342028907
  0
LINE
  5
367
100
AcDbEntity
  8
0
100
AcDbLine
 62
2
  6
CONTINUOUS
 10
13.5886870813
 20
2.4398033466
 11
13.5886870813
 21
2.4912273132
  0
LINE
  5
368
100
AcDbEntity
  8
0
100
AcDbLine
 62
2
  6
CONTINUOUS
 10
13.5886870813
 20
2.5391840845
 11
13.5886870813
 21
2.5454298327
  0
LINE
  5
369
100
AcDbEntity
  8
0
100
AcDbLine
 62
2
  6
CONTINUOUS
 10
13.5886870813
 20
2.5862063472
 11
13.5886870813
 21
2.6409533343
  0
LINE
  5
36A
100
AcDbEntity
  8
0
100
AcDbLine
 62
2
  6
CONTINUOUS
 10
13.5686870702
 20
2.4334702189
 11
13.5686870702
 21
2.4912273132
  0
LINE
  5
36B
100
AcDbEntity
  8
0
100
AcDbLine
 62
2
  6
CONTINUOUS
 10
13.5686870702
 20
2.5906587765
 11
13.5686870702
 21
2.647286462
  0
LINE
  5
36C
100
AcDbEntity
  8
0
100
AcDbLine
 62
2
  6
CONTINUOUS
 10
13.5486870591
 20
2.4278968124
 11
13.5486870591
 21
2.4937461006
  0
LINE
  5
36D
100
AcDbEntity
  8
0
100
AcDbLine
 62
2
  6
CONTINUOUS
 10
13.5486870591
 20
2.5920323691
 11
13.5486870591
 21
2.6528598686
  0
LINE
  5
36E
100
AcDbEntity
  8
0
100
AcDbLine
 62
2
  6
CONTINUOUS
 10
13.528687048
 20
2.4225427674
 11
13.528687048
 21
2.5270426993
  0
LINE
  5
36F
100
AcDbEntity
  8
0
100
AcDbLine
 62
2
  6
CONTINUOUS
 10
13.528687048
 20
2.5505166259
 11
13.528687048
 21
2.5668657091
  0
LINE
  5
370
100
AcDbEntity
  8
0
100
AcDbLine
 62
2
  6
CONTINUOUS
 10
13.528687048
 20
2.5920323691
 11
13.528687048
 21
2.6582139136
  0
LINE
  5
371
100
AcDbEntity
  8
0
100
AcDbLine
 62
2
  6
CONTINUOUS
 10
13.5086870369
 20
2.4177306791
 11
13.5086870369
 21
2.4912273132
  0
LINE
  5
372
100
AcDbEntity
  8
0
100
AcDbLine
 62
2
  6
CONTINUOUS
 10
13.5086870369
 20
2.5159553269
 11
13.5086870369
 21
2.5306043351
  0
LINE
  5
373
100
AcDbEntity
  8
0
100
AcDbLine
 62
2
  6
CONTINUOUS
 10
13.5086870369
 20
2.5496073456
 11
13.5086870369
 21
2.5672823554
  0
LINE
  5
374
100
AcDbEntity
  8
0
100
AcDbLine
 62
2
  6
CONTINUOUS
 10
13.5086870369
 20
2.5920323691
 11
13.5086870369
 21
2.6630260019
  0
LINE
  5
375
100
AcDbEntity
  8
0
100
AcDbLine
 62
2
  6
CONTINUOUS
 10
13.4886870258
 20
2.4131795254
 11
13.4886870258
 21
2.4912273132
  0
LINE
  5
376
100
AcDbEntity
  8
0
100
AcDbLine
 62
2
  6
CONTINUOUS
 10
13.4886870258
 20
2.5159553269
 11
13.4886870258
 21
2.5306043351
  0
LINE
  5
377
100
AcDbEntity
  8
0
100
AcDbLine
 62
2
  6
CONTINUOUS
 10
13.4886870258
 20
2.5496073456
 11
13.4886870258
 21
2.5672823554
  0
LINE
  5
378
100
AcDbEntity
  8
0
100
AcDbLine
 62
2
  6
CONTINUOUS
 10
13.4886870258
 20
2.5920323691
 11
13.4886870258
 21
2.6675771555
  0
LINE
  5
379
100
AcDbEntity
  8
0
100
AcDbLine
 62
2
  6
CONTINUOUS
 10
13.4686870147
 20
2.4088819672
 11
13.4686870147
 21
2.4912273132
  0
LINE
  5
37A
100
AcDbEntity
  8
0
100
AcDbLine
 62
2
  6
CONTINUOUS
 10
13.4686870147
 20
2.5920323691
 11
13.4686870147
 21
2.6718747138
  0
LINE
  5
37B
100
AcDbEntity
  8
0
100
AcDbLine
 62
2
  6
CONTINUOUS
 10
13.4486870037
 20
2.4050092072
 11
13.4486870037
 21
2.4912273132
  0
LINE
  5
37C
100
AcDbEntity
  8
0
100
AcDbLine
 62
2
  6
CONTINUOUS
 10
13.4486870037
 20
2.5920323691
 11
13.4486870037
 21
2.6757474738
  0
LINE
  5
37D
100
AcDbEntity
  8
0
100
AcDbLine
 62
2
  6
CONTINUOUS
 10
13.4286869926
 20
2.4011364471
 11
13.4286869926
 21
2.4912273132
  0
LINE
  5
37E
100
AcDbEntity
  8
0
100
AcDbLine
 62
2
  6
CONTINUOUS
 10
13.4286869926
 20
2.5920323691
 11
13.4286869926
 21
2.6796202339
  0
LINE
  5
37F
100
AcDbEntity
  8
0
100
AcDbLine
 62
2
  6
CONTINUOUS
 10
13.4086869815
 20
2.3980226662
 11
13.4086869815
 21
2.4912273132
  0
LINE
  5
380
100
AcDbEntity
  8
0
100
AcDbLine
 62
2
  6
CONTINUOUS
 10
13.4086869815
 20
2.515977327
 11
13.4086869815
 21
2.5672823554
  0
LINE
  5
381
100
AcDbEntity
  8
0
100
AcDbLine
 62
2
  6
CONTINUOUS
 10
13.4086869815
 20
2.5920323691
 11
13.4086869815
 21
2.6827340148
  0
LINE
  5
382
100
AcDbEntity
  8
0
100
AcDbLine
 62
2
  6
CONTINUOUS
 10
13.3886869704
 20
2.3950052774
 11
13.3886869704
 21
2.6857514036
  0
LINE
  5
383
100
AcDbEntity
  8
0
100
AcDbLine
 62
2
  6
CONTINUOUS
 10
13.3686869593
 20
2.3919878885
 11
13.3686869593
 21
2.4912273132
  0
LINE
  5
384
100
AcDbEntity
  8
0
100
AcDbLine
 62
2
  6
CONTINUOUS
 10
13.3686869593
 20
2.5291773343
 11
13.3686869593
 21
2.5540823481
  0
LINE
  5
385
100
AcDbEntity
  8
0
100
AcDbLine
 62
2
  6
CONTINUOUS
 10
13.3686869593
 20
2.5920323691
 11
13.3686869593
 21
2.6887687924
  0
LINE
  5
386
100
AcDbEntity
  8
0
100
AcDbLine
 62
2
  6
CONTINUOUS
 10
13.3486869482
 20
2.3889704997
 11
13.3486869482
 21
2.4912273132
  0
LINE
  5
387
100
AcDbEntity
  8
0
100
AcDbLine
 62
2
  6
CONTINUOUS
 10
13.3486869482
 20
2.5291773343
 11
13.3486869482
 21
2.5540823481
  0
LINE
  5
388
100
AcDbEntity
  8
0
100
AcDbLine
 62
2
  6
CONTINUOUS
 10
13.3486869482
 20
2.5920323691
 11
13.3486869482
 21
2.6917861813
  0
LINE
  5
389
100
AcDbEntity
  8
0
100
AcDbLine
 62
2
  6
CONTINUOUS
 10
13.3286869371
 20
2.3859531109
 11
13.3286869371
 21
2.4912273132
  0
LINE
  5
38A
100
AcDbEntity
  8
0
100
AcDbLine
 62
2
  6
CONTINUOUS
 10
13.3286869371
 20
2.5291773343
 11
13.3286869371
 21
2.5540823481
  0
LINE
  5
38B
100
AcDbEntity
  8
0
100
AcDbLine
 62
2
  6
CONTINUOUS
 10
13.3286869371
 20
2.5920323691
 11
13.3286869371
 21
2.6948035701
  0
LINE
  5
38C
100
AcDbEntity
  8
0
100
AcDbLine
 62
2
  6
CONTINUOUS
 10
13.308686926
 20
2.3833355437
 11
13.308686926
 21
2.4912273132
  0
LINE
  5
38D
100
AcDbEntity
  8
0
100
AcDbLine
 62
2
  6
CONTINUOUS
 10
13.308686926
 20
2.515977327
 11
13.308686926
 21
2.5672823554
  0
LINE
  5
38E
100
AcDbEntity
  8
0
100
AcDbLine
 62
2
  6
CONTINUOUS
 10
13.308686926
 20
2.5920323691
 11
13.308686926
 21
2.6974211373
  0
LINE
  5
38F
100
AcDbEntity
  8
0
100
AcDbLine
 62
2
  6
CONTINUOUS
 10
13.2886869149
 20
2.3812612684
 11
13.2886869149
 21
2.4912273132
  0
LINE
  5
390
100
AcDbEntity
  8
0
100
AcDbLine
 62
2
  6
CONTINUOUS
 10
13.2886869149
 20
2.515977327
 11
13.2886869149
 21
2.5324773361
  0
LINE
  5
391
100
AcDbEntity
  8
0
100
AcDbLine
 62
2
  6
CONTINUOUS
 10
13.2886869149
 20
2.5507823463
 11
13.2886869149
 21
2.5672823554
  0
LINE
  5
392
100
AcDbEntity
  8
0
100
AcDbLine
 62
2
  6
CONTINUOUS
 10
13.2886869149
 20
2.5920323691
 11
13.2886869149
 21
2.6994954125
  0
LINE
  5
393
100
AcDbEntity
  8
0
100
AcDbLine
 62
2
  6
CONTINUOUS
 10
13.2686869038
 20
2.3791869932
 11
13.2686869038
 21
2.4912273132
  0
LINE
  5
394
100
AcDbEntity
  8
0
100
AcDbLine
 62
2
  6
CONTINUOUS
 10
13.2686869038
 20
2.515977327
 11
13.2686869038
 21
2.5324773361
  0
LINE
  5
395
100
AcDbEntity
  8
0
100
AcDbLine
 62
2
  6
CONTINUOUS
 10
13.2686869038
 20
2.5507823463
 11
13.2686869038
 21
2.5672823554
  0
LINE
  5
396
100
AcDbEntity
  8
0
100
AcDbLine
 62
2
  6
CONTINUOUS
 10
13.2686869038
 20
2.5920323691
 11
13.2686869038
 21
2.7015696878
  0
LINE
  5
397
100
AcDbEntity
  8
0
100
AcDbLine
 62
2
  6
CONTINUOUS
 10
13.2486868927
 20
2.377112718
 11
13.2486868927
 21
2.4912273132
  0
LINE
  5
398
100
AcDbEntity
  8
0
100
AcDbLine
 62
2
  6
CONTINUOUS
 10
13.2486868927
 20
2.5920323691
 11
13.2486868927
 21
2.703643963
  0
LINE
  5
399
100
AcDbEntity
  8
0
100
AcDbLine
 62
2
  6
CONTINUOUS
 10
13.2286868817
 20
2.3750384428
 11
13.2286868817
 21
2.4912273132
  0
LINE
  5
39A
100
AcDbEntity
  8
0
100
AcDbLine
 62
2
  6
CONTINUOUS
 10
13.2286868817
 20
2.5920323691
 11
13.2286868817
 21
2.7057182382
  0
LINE
  5
39B
100
AcDbEntity
  8
0
100
AcDbLine
 62
2
  6
CONTINUOUS
 10
13.2086868706
 20
2.3729641676
 11
13.2086868706
 21
2.4912273132
  0
LINE
  5
39C
100
AcDbEntity
  8
0
100
AcDbLine
 62
2
  6
CONTINUOUS
 10
13.2086868706
 20
2.5920323691
 11
13.2086868706
 21
2.7077925134
  0
LINE
  5
39D
100
AcDbEntity
  8
0
100
AcDbLine
 62
2
  6
CONTINUOUS
 10
13.1886868595
 20
2.3712344456
 11
13.1886868595
 21
2.4912273132
  0
LINE
  5
39E
100
AcDbEntity
  8
0
100
AcDbLine
 62
2
  6
CONTINUOUS
 10
13.1886868595
 20
2.515977327
 11
13.1886868595
 21
2.5672823554
  0
LINE
  5
39F
100
AcDbEntity
  8
0
100
AcDbLine
 62
2
  6
CONTINUOUS
 10
13.1886868595
 20
2.5920323691
 11
13.1886868595
 21
2.7095222354
  0
LINE
  5
3A0
100
AcDbEntity
  8
0
100
AcDbLine
 62
2
  6
CONTINUOUS
 10
13.1686868484
 20
2.3699682418
 11
13.1686868484
 21
2.4912273132
  0
LINE
  5
3A1
100
AcDbEntity
  8
0
100
AcDbLine
 62
2
  6
CONTINUOUS
 10
13.1686868484
 20
2.515977327
 11
13.1686868484
 21
2.5672823554
  0
LINE
  5
3A2
100
AcDbEntity
  8
0
100
AcDbLine
 62
2
  6
CONTINUOUS
 10
13.1686868484
 20
2.5920323691
 11
13.1686868484
 21
2.7107884392
  0
LINE
  5
3A3
100
AcDbEntity
  8
0
100
AcDbLine
 62
2
  6
CONTINUOUS
 10
13.1486868373
 20
2.3687020381
 11
13.1486868373
 21
2.7120546429
  0
LINE
  5
3A4
100
AcDbEntity
  8
0
100
AcDbLine
 62
2
  6
CONTINUOUS
 10
13.1286868262
 20
2.3674358343
 11
13.1286868262
 21
2.5672823554
  0
LINE
  5
3A5
100
AcDbEntity
  8
0
100
AcDbLine
 62
2
  6
CONTINUOUS
 10
13.1286868262
 20
2.5920323691
 11
13.1286868262
 21
2.7133208466
  0
LINE
  5
3A6
100
AcDbEntity
  8
0
100
AcDbLine
 62
2
  6
CONTINUOUS
 10
13.1086868151
 20
2.3661696306
 11
13.1086868151
 21
2.4912273132
  0
LINE
  5
3A7
100
AcDbEntity
  8
0
100
AcDbLine
 62
2
  6
CONTINUOUS
 10
13.1086868151
 20
2.5920323691
 11
13.1086868151
 21
2.7145870504
  0
LINE
  5
3A8
100
AcDbEntity
  8
0
100
AcDbLine
 62
2
  6
CONTINUOUS
 10
13.088686804
 20
2.3649034269
 11
13.088686804
 21
2.4912273132
  0
LINE
  5
3A9
100
AcDbEntity
  8
0
100
AcDbLine
 62
2
  6
CONTINUOUS
 10
13.088686804
 20
2.5920323691
 11
13.088686804
 21
2.7158532541
  0
LINE
  5
3AA
100
AcDbEntity
  8
0
100
AcDbLine
 62
2
  6
CONTINUOUS
 10
13.0686867929
 20
2.3636739922
 11
13.0686867929
 21
2.4912273132
  0
LINE
  5
3AB
100
AcDbEntity
  8
0
100
AcDbLine
 62
2
  6
CONTINUOUS
 10
13.0686867929
 20
2.5475272398
 11
13.0686867929
 21
2.5672823554
  0
LINE
  5
3AC
100
AcDbEntity
  8
0
100
AcDbLine
 62
2
  6
CONTINUOUS
 10
13.0686867929
 20
2.5920323691
 11
13.0686867929
 21
2.7170826887
  0
LINE
  5
3AD
100
AcDbEntity
  8
0
100
AcDbLine
 62
2
  6
CONTINUOUS
 10
13.0486867818
 20
2.363143203
 11
13.0486867818
 21
2.4912273132
  0
LINE
  5
3AE
100
AcDbEntity
  8
0
100
AcDbLine
 62
2
  6
CONTINUOUS
 10
13.0486867818
 20
2.5666100882
 11
13.0486867818
 21
2.717613478
  0
LINE
  5
3AF
100
AcDbEntity
  8
0
100
AcDbLine
 62
2
  6
CONTINUOUS
 10
13.0286867707
 20
2.3626124138
 11
13.0286867707
 21
2.50359263
  0
LINE
  5
3B0
100
AcDbEntity
  8
0
100
AcDbLine
 62
2
  6
CONTINUOUS
 10
13.0286867707
 20
2.5856929366
 11
13.0286867707
 21
2.7181442672
  0
LINE
  5
3B1
100
AcDbEntity
  8
0
100
AcDbLine
 62
2
  6
CONTINUOUS
 10
13.0086867596
 20
2.3620816246
 11
13.0086867596
 21
2.5226754472
  0
LINE
  5
3B2
100
AcDbEntity
  8
0
100
AcDbLine
 62
2
  6
CONTINUOUS
 10
13.0086867596
 20
2.5920323691
 11
13.0086867596
 21
2.7186750564
  0
LINE
  5
3B3
100
AcDbEntity
  8
0
100
AcDbLine
 62
2
  6
CONTINUOUS
 10
12.9886867486
 20
2.3615508354
 11
12.9886867486
 21
2.4912273132
  0
LINE
  5
3B4
100
AcDbEntity
  8
0
100
AcDbLine
 62
2
  6
CONTINUOUS
 10
12.9886867486
 20
2.515977327
 11
12.9886867486
 21
2.5417582644
  0
LINE
  5
3B5
100
AcDbEntity
  8
0
100
AcDbLine
 62
2
  6
CONTINUOUS
 10
12.9886867486
 20
2.5920323691
 11
12.9886867486
 21
2.7192058456
  0
LINE
  5
3B6
100
AcDbEntity
  8
0
100
AcDbLine
 62
2
  6
CONTINUOUS
 10
12.9686867375
 20
2.3610200462
 11
12.9686867375
 21
2.4912273132
  0
LINE
  5
3B7
100
AcDbEntity
  8
0
100
AcDbLine
 62
2
  6
CONTINUOUS
 10
12.9686867375
 20
2.5920323691
 11
12.9686867375
 21
2.7197366348
  0
LINE
  5
3B8
100
AcDbEntity
  8
0
100
AcDbLine
 62
2
  6
CONTINUOUS
 10
12.9486867264
 20
2.360489257
 11
12.9486867264
 21
2.4912273132
  0
LINE
  5
3B9
100
AcDbEntity
  8
0
100
AcDbLine
 62
2
  6
CONTINUOUS
 10
12.9486867264
 20
2.5920323691
 11
12.9486867264
 21
2.720267424
  0
LINE
  5
3BA
100
AcDbEntity
  8
0
100
AcDbLine
 62
2
  6
CONTINUOUS
 10
12.9286867153
 20
2.3602836008
 11
12.9286867153
 21
2.4912273132
  0
LINE
  5
3BB
100
AcDbEntity
  8
0
100
AcDbLine
 62
2
  6
CONTINUOUS
 10
12.9286867153
 20
2.515977327
 11
12.9286867153
 21
2.5672823554
  0
LINE
  5
3BC
100
AcDbEntity
  8
0
100
AcDbLine
 62
2
  6
CONTINUOUS
 10
12.9286867153
 20
2.5920323691
 11
12.9286867153
 21
2.7204730802
  0
LINE
  5
3BD
100
AcDbEntity
  8
0
100
AcDbLine
 62
2
  6
CONTINUOUS
 10
12.9086867042
 20
2.3604597639
 11
12.9086867042
 21
2.7202969171
  0
LINE
  5
3BE
100
AcDbEntity
  8
0
100
AcDbLine
 62
2
  6
CONTINUOUS
 10
12.8886866931
 20
2.360635927
 11
12.8886866931
 21
2.5672823554
  0
LINE
  5
3BF
100
AcDbEntity
  8
0
100
AcDbLine
 62
2
  6
CONTINUOUS
 10
12.8886866931
 20
2.5920323691
 11
12.8886866931
 21
2.720120754
  0
LINE
  5
3C0
100
AcDbEntity
  8
0
100
AcDbLine
 62
2
  6
CONTINUOUS
 10
12.868686682
 20
2.3608120901
 11
12.868686682
 21
2.491232357
  0
LINE
  5
3C1
100
AcDbEntity
  8
0
100
AcDbLine
 62
2
  6
CONTINUOUS
 10
12.868686682
 20
2.5920323691
 11
12.868686682
 21
2.7199445909
  0
LINE
  5
3C2
100
AcDbEntity
  8
0
100
AcDbLine
 62
2
  6
CONTINUOUS
 10
12.8486866709
 20
2.3609882532
 11
12.8486866709
 21
2.4912273132
  0
LINE
  5
3C3
100
AcDbEntity
  8
0
100
AcDbLine
 62
2
  6
CONTINUOUS
 10
12.8486866709
 20
2.5920323691
 11
12.8486866709
 21
2.7197684278
  0
LINE
  5
3C4
100
AcDbEntity
  8
0
100
AcDbLine
 62
2
  6
CONTINUOUS
 10
12.8286866598
 20
2.3611644163
 11
12.8286866598
 21
2.4912273132
  0
LINE
  5
3C5
100
AcDbEntity
  8
0
100
AcDbLine
 62
2
  6
CONTINUOUS
 10
12.8286866598
 20
2.5396527025
 11
12.8286866598
 21
2.5672823554
  0
LINE
  5
3C6
100
AcDbEntity
  8
0
100
AcDbLine
 62
2
  6
CONTINUOUS
 10
12.8286866598
 20
2.5920323691
 11
12.8286866598
 21
2.7195922647
  0
LINE
  5
3C7
100
AcDbEntity
  8
0
100
AcDbLine
 62
2
  6
CONTINUOUS
 10
12.8086866487
 20
2.3613405794
 11
12.8086866487
 21
2.4912273132
  0
LINE
  5
3C8
100
AcDbEntity
  8
0
100
AcDbLine
 62
2
  6
CONTINUOUS
 10
12.8086866487
 20
2.5587355508
 11
12.8086866487
 21
2.7194161016
  0
LINE
  5
3C9
100
AcDbEntity
  8
0
100
AcDbLine
 62
2
  6
CONTINUOUS
 10
12.7886866376
 20
2.3621089572
 11
12.7886866376
 21
2.4957181055
  0
LINE
  5
3CA
100
AcDbEntity
  8
0
100
AcDbLine
 62
2
  6
CONTINUOUS
 10
12.7886866376
 20
2.5778183992
 11
12.7886866376
 21
2.7186477238
  0
LINE
  5
3CB
100
AcDbEntity
  8
0
100
AcDbLine
 62
2
  6
CONTINUOUS
 10
12.7686866266
 20
2.3630013935
 11
12.7686866266
 21
2.5148009227
  0
LINE
  5
3CC
100
AcDbEntity
  8
0
100
AcDbLine
 62
2
  6
CONTINUOUS
 10
12.7686866266
 20
2.5920323691
 11
12.7686866266
 21
2.7177552874
  0
LINE
  5
3CD
100
AcDbEntity
  8
0
100
AcDbLine
 62
2
  6
CONTINUOUS
 10
12.7486866155
 20
2.3638938299
 11
12.7486866155
 21
2.4913263218
  0
LINE
  5
3CE
100
AcDbEntity
  8
0
100
AcDbLine
 62
2
  6
CONTINUOUS
 10
12.7486866155
 20
2.5158783184
 11
12.7486866155
 21
2.5338837399
  0
LINE
  5
3CF
100
AcDbEntity
  8
0
100
AcDbLine
 62
2
  6
CONTINUOUS
 10
12.7486866155
 20
2.5920323691
 11
12.7486866155
 21
2.7168628511
  0
LINE
  5
3D0
100
AcDbEntity
  8
0
100
AcDbLine
 62
2
  6
CONTINUOUS
 10
12.7286866044
 20
2.3647862663
 11
12.7286866044
 21
2.4912273132
  0
LINE
  5
3D1
100
AcDbEntity
  8
0
100
AcDbLine
 62
2
  6
CONTINUOUS
 10
12.7286866044
 20
2.515977327
 11
12.7286866044
 21
2.5527601554
  0
LINE
  5
3D2
100
AcDbEntity
  8
0
100
AcDbLine
 62
2
  6
CONTINUOUS
 10
12.7286866044
 20
2.5920323691
 11
12.7286866044
 21
2.7159704147
  0
LINE
  5
3D3
100
AcDbEntity
  8
0
100
AcDbLine
 62
2
  6
CONTINUOUS
 10
12.7086865933
 20
2.3656787026
 11
12.7086865933
 21
2.4912273132
  0
LINE
  5
3D4
100
AcDbEntity
  8
0
100
AcDbLine
 62
2
  6
CONTINUOUS
 10
12.7086865933
 20
2.5920323691
 11
12.7086865933
 21
2.7150779784
  0
LINE
  5
3D5
100
AcDbEntity
  8
0
100
AcDbLine
 62
2
  6
CONTINUOUS
 10
12.6886865822
 20
2.366571139
 11
12.6886865822
 21
2.4912273132
  0
LINE
  5
3D6
100
AcDbEntity
  8
0
100
AcDbLine
 62
2
  6
CONTINUOUS
 10
12.6886865822
 20
2.515977327
 11
12.6886865822
 21
2.5672823554
  0
LINE
  5
3D7
100
AcDbEntity
  8
0
100
AcDbLine
 62
2
  6
CONTINUOUS
 10
12.6886865822
 20
2.5920323691
 11
12.6886865822
 21
2.714185542
  0
LINE
  5
3D8
100
AcDbEntity
  8
0
100
AcDbLine
 62
2
  6
CONTINUOUS
 10
12.6686865711
 20
2.3677104027
 11
12.6686865711
 21
2.7130462783
  0
LINE
  5
3D9
100
AcDbEntity
  8
0
100
AcDbLine
 62
2
  6
CONTINUOUS
 10
12.64868656
 20
2.3693682721
 11
12.64868656
 21
2.7113884089
  0
LINE
  5
3DA
100
AcDbEntity
  8
0
100
AcDbLine
 62
2
  6
CONTINUOUS
 10
12.6286865489
 20
2.3710261415
 11
12.6286865489
 21
2.4912273132
  0
LINE
  5
3DB
100
AcDbEntity
  8
0
100
AcDbLine
 62
2
  6
CONTINUOUS
 10
12.6286865489
 20
2.515977327
 11
12.6286865489
 21
2.7097305395
  0
LINE
  5
3DC
100
AcDbEntity
  8
0
100
AcDbLine
 62
2
  6
CONTINUOUS
 10
12.6086865378
 20
2.372684011
 11
12.6086865378
 21
2.4912273132
  0
LINE
  5
3DD
100
AcDbEntity
  8
0
100
AcDbLine
 62
2
  6
CONTINUOUS
 10
12.6086865378
 20
2.5351122279
 11
12.6086865378
 21
2.70807267
  0
LINE
  5
3DE
100
AcDbEntity
  8
0
100
AcDbLine
 62
2
  6
CONTINUOUS
 10
12.5886865267
 20
2.3743418804
 11
12.5886865267
 21
2.4912273132
  0
LINE
  5
3DF
100
AcDbEntity
  8
0
100
AcDbLine
 62
2
  6
CONTINUOUS
 10
12.5886865267
 20
2.5660172622
 11
12.5886865267
 21
2.7064148006
  0
LINE
  5
3E0
100
AcDbEntity
  8
0
100
AcDbLine
 62
2
  6
CONTINUOUS
 10
12.5686865156
 20
2.3759997498
 11
12.5686865156
 21
2.4912273132
  0
LINE
  5
3E1
100
AcDbEntity
  8
0
100
AcDbLine
 62
2
  6
CONTINUOUS
 10
12.5686865156
 20
2.5920323691
 11
12.5686865156
 21
2.7047569312
  0
LINE
  5
3E2
100
AcDbEntity
  8
0
100
AcDbLine
 62
2
  6
CONTINUOUS
 10
12.5486865045
 20
2.3777575277
 11
12.5486865045
 21
2.4912273132
  0
LINE
  5
3E3
100
AcDbEntity
  8
0
100
AcDbLine
 62
2
  6
CONTINUOUS
 10
12.5486865045
 20
2.515977327
 11
12.5486865045
 21
2.5275118824
  0
LINE
  5
3E4
100
AcDbEntity
  8
0
100
AcDbLine
 62
2
  6
CONTINUOUS
 10
12.5486865045
 20
2.5920323691
 11
12.5486865045
 21
2.7029991533
  0
LINE
  5
3E5
100
AcDbEntity
  8
0
100
AcDbLine
 62
2
  6
CONTINUOUS
 10
12.5286864935
 20
2.3802813811
 11
12.5286864935
 21
2.5296213345
  0
LINE
  5
3E6
100
AcDbEntity
  8
0
100
AcDbLine
 62
2
  6
CONTINUOUS
 10
12.5286864935
 20
2.5505713461
 11
12.5286864935
 21
2.5667383551
  0
LINE
  5
3E7
100
AcDbEntity
  8
0
100
AcDbLine
 62
2
  6
CONTINUOUS
 10
12.5286864935
 20
2.5920323691
 11
12.5286864935
 21
2.7004752999
  0
LINE
  5
3E8
100
AcDbEntity
  8
0
100
AcDbLine
 62
2
  6
CONTINUOUS
 10
12.5086864824
 20
2.3828052346
 11
12.5086864824
 21
2.4912273132
  0
LINE
  5
3E9
100
AcDbEntity
  8
0
100
AcDbLine
 62
2
  6
CONTINUOUS
 10
12.5086864824
 20
2.515977327
 11
12.5086864824
 21
2.5279667721
  0
LINE
  5
3EA
100
AcDbEntity
  8
0
100
AcDbLine
 62
2
  6
CONTINUOUS
 10
12.5086864824
 20
2.5868602074
 11
12.5086864824
 21
2.6979514464
  0
LINE
  5
3EB
100
AcDbEntity
  8
0
100
AcDbLine
 62
2
  6
CONTINUOUS
 10
12.4886864713
 20
2.385329088
 11
12.4886864713
 21
2.4912273132
  0
LINE
  5
3EC
100
AcDbEntity
  8
0
100
AcDbLine
 62
2
  6
CONTINUOUS
 10
12.4886864713
 20
2.5553401045
 11
12.4886864713
 21
2.695427593
  0
LINE
  5
3ED
100
AcDbEntity
  8
0
100
AcDbLine
 62
2
  6
CONTINUOUS
 10
12.4686864602
 20
2.3878529415
 11
12.4686864602
 21
2.4912273132
  0
LINE
  5
3EE
100
AcDbEntity
  8
0
100
AcDbLine
 62
2
  6
CONTINUOUS
 10
12.4686864602
 20
2.5238200015
 11
12.4686864602
 21
2.6929037395
  0
LINE
  5
3EF
100
AcDbEntity
  8
0
100
AcDbLine
 62
2
  6
CONTINUOUS
 10
12.4486864491
 20
2.390376795
 11
12.4486864491
 21
2.4912273132
  0
LINE
  5
3F0
100
AcDbEntity
  8
0
100
AcDbLine
 62
2
  6
CONTINUOUS
 10
12.4486864491
 20
2.515977327
 11
12.4486864491
 21
2.690379886
  0
LINE
  5
3F1
100
AcDbEntity
  8
0
100
AcDbLine
 62
2
  6
CONTINUOUS
 10
12.428686438
 20
2.3931794042
 11
12.428686438
 21
2.6875772768
  0
LINE
  5
3F2
100
AcDbEntity
  8
0
100
AcDbLine
 62
2
  6
CONTINUOUS
 10
12.4086864269
 20
2.3964643301
 11
12.4086864269
 21
2.5013773986
  0
LINE
  5
3F3
100
AcDbEntity
  8
0
100
AcDbLine
 62
2
  6
CONTINUOUS
 10
12.4086864269
 20
2.5325739971
 11
12.4086864269
 21
2.5537224311
  0
LINE
  5
3F4
100
AcDbEntity
  8
0
100
AcDbLine
 62
2
  6
CONTINUOUS
 10
12.4086864269
 20
2.5791473398
 11
12.4086864269
 21
2.6842923509
  0
LINE
  5
3F5
100
AcDbEntity
  8
0
100
AcDbLine
 62
2
  6
CONTINUOUS
 10
12.3886864158
 20
2.399749256
 11
12.3886864158
 21
2.4921022658
  0
LINE
  5
3F6
100
AcDbEntity
  8
0
100
AcDbLine
 62
2
  6
CONTINUOUS
 10
12.3886864158
 20
2.5895929958
 11
12.3886864158
 21
2.681007425
  0
LINE
  5
3F7
100
AcDbEntity
  8
0
100
AcDbLine
 62
2
  6
CONTINUOUS
 10
12.3686864047
 20
2.403451877
 11
12.3686864047
 21
2.4912273132
  0
LINE
  5
3F8
100
AcDbEntity
  8
0
100
AcDbLine
 62
2
  6
CONTINUOUS
 10
12.3686864047
 20
2.5920323691
 11
12.3686864047
 21
2.677304804
  0
LINE
  5
3F9
100
AcDbEntity
  8
0
100
AcDbLine
 62
2
  6
CONTINUOUS
 10
12.3486863936
 20
2.407324637
 11
12.3486863936
 21
2.4912273132
  0
LINE
  5
3FA
100
AcDbEntity
  8
0
100
AcDbLine
 62
2
  6
CONTINUOUS
 10
12.3486863936
 20
2.5920323691
 11
12.3486863936
 21
2.673432044
  0
LINE
  5
3FB
100
AcDbEntity
  8
0
100
AcDbLine
 62
2
  6
CONTINUOUS
 10
12.3286863825
 20
2.4113493968
 11
12.3286863825
 21
2.4912273132
  0
LINE
  5
3FC
100
AcDbEntity
  8
0
100
AcDbLine
 62
2
  6
CONTINUOUS
 10
12.3286863825
 20
2.515977327
 11
12.3286863825
 21
2.5333023366
  0
LINE
  5
3FD
100
AcDbEntity
  8
0
100
AcDbLine
 62
2
  6
CONTINUOUS
 10
12.3286863825
 20
2.5499573458
 11
12.3286863825
 21
2.5672823554
  0
LINE
  5
3FE
100
AcDbEntity
  8
0
100
AcDbLine
 62
2
  6
CONTINUOUS
 10
12.3286863825
 20
2.5920323691
 11
12.3286863825
 21
2.6694072842
  0
LINE
  5
3FF
100
AcDbEntity
  8
0
100
AcDbLine
 62
2
  6
CONTINUOUS
 10
12.3086863715
 20
2.4159005505
 11
12.3086863715
 21
2.4912273132
  0
LINE
  5
400
100
AcDbEntity
  8
0
100
AcDbLine
 62
2
  6
CONTINUOUS
 10
12.3086863715
 20
2.515977327
 11
12.3086863715
 21
2.5333023366
  0
LINE
  5
401
100
AcDbEntity
  8
0
100
AcDbLine
 62
2
  6
CONTINUOUS
 10
12.3086863715
 20
2.5499573458
 11
12.3086863715
 21
2.5672823554
  0
LINE
  5
402
100
AcDbEntity
  8
0
100
AcDbLine
 62
2
  6
CONTINUOUS
 10
12.3086863715
 20
2.5920323691
 11
12.3086863715
 21
2.6648561305
  0
LINE
  5
403
100
AcDbEntity
  8
0
100
AcDbLine
 62
2
  6
CONTINUOUS
 10
12.2886863604
 20
2.4204517041
 11
12.2886863604
 21
2.4912273132
  0
LINE
  5
404
100
AcDbEntity
  8
0
100
AcDbLine
 62
2
  6
CONTINUOUS
 10
12.2886863604
 20
2.5920323691
 11
12.2886863604
 21
2.6603049769
  0
LINE
  5
405
100
AcDbEntity
  8
0
100
AcDbLine
 62
2
  6
CONTINUOUS
 10
12.2686863493
 20
2.4257438218
 11
12.2686863493
 21
2.4912273132
  0
LINE
  5
406
100
AcDbEntity
  8
0
100
AcDbLine
 62
2
  6
CONTINUOUS
 10
12.2686863493
 20
2.5920323691
 11
12.2686863493
 21
2.6550128592
  0
LINE
  5
407
100
AcDbEntity
  8
0
100
AcDbLine
 62
2
  6
CONTINUOUS
 10
12.2486863382
 20
2.4310978667
 11
12.2486863382
 21
2.4912273132
  0
LINE
  5
408
100
AcDbEntity
  8
0
100
AcDbLine
 62
2
  6
CONTINUOUS
 10
12.2486863382
 20
2.5920323691
 11
12.2486863382
 21
2.6496588142
  0
LINE
  5
409
100
AcDbEntity
  8
0
100
AcDbLine
 62
2
  6
CONTINUOUS
 10
12.2286863271
 20
2.4372566433
 11
12.2286863271
 21
2.4912273132
  0
LINE
  5
40A
100
AcDbEntity
  8
0
100
AcDbLine
 62
2
  6
CONTINUOUS
 10
12.2286863271
 20
2.515977327
 11
12.2286863271
 21
2.5672823554
  0
LINE
  5
40B
100
AcDbEntity
  8
0
100
AcDbLine
 62
2
  6
CONTINUOUS
 10
12.2286863271
 20
2.5920323691
 11
12.2286863271
 21
2.6435000377
  0
LINE
  5
40C
100
AcDbEntity
  8
0
100
AcDbLine
 62
2
  6
CONTINUOUS
 10
12.208686316
 20
2.443589771
 11
12.208686316
 21
2.4912273132
  0
LINE
  5
40D
100
AcDbEntity
  8
0
100
AcDbLine
 62
2
  6
CONTINUOUS
 10
12.208686316
 20
2.515977327
 11
12.208686316
 21
2.5672823554
  0
LINE
  5
40E
100
AcDbEntity
  8
0
100
AcDbLine
 62
2
  6
CONTINUOUS
 10
12.208686316
 20
2.5920323691
 11
12.208686316
 21
2.63716691
  0
LINE
  5
40F
100
AcDbEntity
  8
0
100
AcDbLine
 62
2
  6
CONTINUOUS
 10
12.1886863049
 20
2.4510806436
 11
12.1886863049
 21
2.6296760373
  0
LINE
  5
410
100
AcDbEntity
  8
0
100
AcDbLine
 62
2
  6
CONTINUOUS
 10
12.1686862938
 20
2.4591016523
 11
12.1686862938
 21
2.6216550287
  0
LINE
  5
411
100
AcDbEntity
  8
0
100
AcDbLine
 62
2
  6
CONTINUOUS
 10
12.1486862827
 20
2.468314272
 11
12.1486862827
 21
2.612442409
  0
LINE
  5
412
100
AcDbEntity
  8
0
100
AcDbLine
 62
2
  6
CONTINUOUS
 10
12.1286862716
 20
2.4794932339
 11
12.1286862716
 21
2.601263447
  0
LINE
  5
413
100
AcDbEntity
  8
0
100
AcDbLine
 62
2
  6
CONTINUOUS
 10
12.1086862605
 20
2.4934150665
 11
12.1086862605
 21
2.5873416144
  0
LINE
  5
414
100
AcDbEntity
  8
0
100
AcDbLine
 62
2
  6
CONTINUOUS
 10
12.0886862494
 20
2.5144449553
 11
12.0886862494
 21
2.5663117257
  0
ENDBLK
  5
415
100
AcDbEntity
  8
0
  6
BYBLOCK
 62
0
100
AcDbBlockEnd
  0
BLOCK
  5
416
100
AcDbEntity
  8
SCHEME_DIMS
100
AcDbBlockBegin
 62
2
  6
CONTINUOUS
  2
*D0
 70
65
 10
0.0
 20
0.0
  3
*D0
  1

  0
TEXT
  5
417
100
AcDbEntity
  8
SCHEME_DIMS
100
AcDbText
 62
2
  6
CONTINUOUS
 10
5.9586833761
 20
7.5879566361
  7
STANDARD
 40
0.1
  1
38,5
 41
1.0
 72
0
100
AcDbText
  0
TEXT
  5
418
100
AcDbEntity
  8
SCHEME_DIMS
100
AcDbText
 62
2
  6
CONTINUOUS
 10
6.0586833761
 20
7.4379566361
  7
STANDARD
 40
0.1
  1
1.52
 41
1.0
 72
0
100
AcDbText
  0
TEXT
  5
419
100
AcDbEntity
  8
SCHEME_DIMS
100
AcDbText
 62
2
  6
CONTINUOUS
 10
5.9586833761
 20
7.4379566361
  7
STANDARD
 40
0.1
  1
[
 41
1.0
 72
0
100
AcDbText
  0
TEXT
  5
41A
100
AcDbEntity
  8
SCHEME_DIMS
100
AcDbText
 62
2
  6
CONTINUOUS
 10
6.4586833761
 20
7.4379566361
  7
STANDARD
 40
0.1
  1
]
 41
1.0
 72
0
100
AcDbText
  0
LINE
  5
41B
100
AcDbEntity
  8
SCHEME_DIMS
100
AcDbLine
 62
2
  6
CONTINUOUS
 10
7.0174904627
 20
6.1351049661
 11
7.0174904627
 21
7.7629566361
  0
LINE
  5
41C
100
AcDbEntity
  8
SCHEME_DIMS
100
AcDbLine
 62
2
  6
CONTINUOUS
 10
5.4998762895
 20
6.3281212532
 11
5.4998762895
 21
7.7629566361
  0
LINE
  5
41D
100
AcDbEntity
  8
SCHEME_DIMS
100
AcDbLine
 62
2
  6
CONTINUOUS
 10
7.0174904627
 20
7.6379566361
 11
6.6586833761
 21
7.6379566361
  0
LINE
  5
41E
100
AcDbEntity
  8
SCHEME_DIMS
100
AcDbLine
 62
2
  6
CONTINUOUS
 10
5.4998762895
 20
7.6379566361
 11
5.8586833761
 21
7.6379566361
  0
INSERT
  5
41F
100
AcDbEntity
  8
SCHEME_DIMS
100
AcDbBlockReference
 62
2
  6
CONTINUOUS
  2
_FILLED
 10
7.0174904627
 20
7.6379566361
 41
0.1875
 42
0.1875
 43
0.1875
  0
INSERT
  5
420
100
AcDbEntity
  8
SCHEME_DIMS
100
AcDbBlockReference
 62
2
  6
CONTINUOUS
  2
_FILLED
 10
5.4998762895
 20
7.6379566361
 41
0.1875
 42
0.1875
 43
0.1875
 50
180.0
  0
ENDBLK
  5
421
100
AcDbEntity
  8
0
  6
BYBLOCK
 62
0
100
AcDbBlockEnd
  0
BLOCK
  5
422
100
AcDbEntity
  8
SCHEME_DIMS
100
AcDbBlockBegin
 62
2
  6
CONTINUOUS
  2
*D1
 70
65
 10
0.0
 20
0.0
  3
*D1
  1

  0
TEXT
  5
423
100
AcDbEntity
  8
SCHEME_DIMS
100
AcDbText
 62
2
  6
CONTINUOUS
 10
5.6149825887
 20
7.0353903576
  7
STANDARD
 40
0.1
  1
18,5
 41
1.0
 72
0
100
AcDbText
  0
TEXT
  5
424
100
AcDbEntity
  8
SCHEME_DIMS
100
AcDbText
 62
2
  6
CONTINUOUS
 10
5.7149825887
 20
6.8853903576
  7
STANDARD
 40
0.1
  1
.73
 41
1.0
 72
0
100
AcDbText
  0
TEXT
  5
425
100
AcDbEntity
  8
SCHEME_DIMS
100
AcDbText
 62
2
  6
CONTINUOUS
 10
5.6149825887
 20
6.8853903576
  7
STANDARD
 40
0.1
  1
[
 41
1.0
 72
0
100
AcDbText
  0
TEXT
  5
426
100
AcDbEntity
  8
SCHEME_DIMS
100
AcDbText
 62
2
  6
CONTINUOUS
 10
6.0149825887
 20
6.8853903576
  7
STANDARD
 40
0.1
  1
]
 41
1.0
 72
0
100
AcDbText
  0
LINE
  5
427
100
AcDbEntity
  8
SCHEME_DIMS
100
AcDbLine
 62
2
  6
CONTINUOUS
 10
6.2300888879
 20
6.5780183427
 11
6.2300888879
 21
7.2103903576
  0
LINE
  5
428
100
AcDbEntity
  8
SCHEME_DIMS
100
AcDbLine
 62
2
  6
CONTINUOUS
 10
5.4998762895
 20
6.3281212532
 11
5.4998762895
 21
7.2103903576
  0
LINE
  5
429
100
AcDbEntity
  8
SCHEME_DIMS
100
AcDbLine
 62
2
  6
CONTINUOUS
 10
6.2300888879
 20
7.0853903576
 11
6.6300888879
 21
7.0853903576
  0
LINE
  5
42A
100
AcDbEntity
  8
SCHEME_DIMS
100
AcDbLine
 62
2
  6
CONTINUOUS
 10
5.4998762895
 20
7.0853903576
 11
5.0998762895
 21
7.0853903576
  0
INSERT
  5
42B
100
AcDbEntity
  8
SCHEME_DIMS
100
AcDbBlockReference
 62
2
  6
CONTINUOUS
  2
_FILLED
 10
6.2300888879
 20
7.0853903576
 41
0.1875
 42
0.1875
 43
0.1875
 50
180.0
  0
INSERT
  5
42C
100
AcDbEntity
  8
SCHEME_DIMS
100
AcDbBlockReference
 62
2
  6
CONTINUOUS
  2
_FILLED
 10
5.4998762895
 20
7.0853903576
 41
0.1875
 42
0.1875
 43
0.1875
  0
ENDBLK
  5
42D
100
AcDbEntity
  8
0
  6
BYBLOCK
 62
0
100
AcDbBlockEnd
  0
BLOCK
  5
42E
100
AcDbEntity
  8
SCHEME_DIMS
100
AcDbBlockBegin
 62
2
  6
CONTINUOUS
  2
*D2
 70
65
 10
0.0
 20
0.0
  3
*D2
  1

  0
TEXT
  5
42F
100
AcDbEntity
  8
SCHEME_DIMS
100
AcDbText
 62
2
  6
CONTINUOUS
 10
4.0280947317
 20
4.0810315876
  7
STANDARD
 40
0.1
  1
%%c
 41
1.3333333333
 72
0
100
AcDbText
  0
TEXT
  5
430
100
AcDbEntity
  8
SCHEME_DIMS
100
AcDbText
 62
2
  6
CONTINUOUS
 10
4.161428065
 20
4.0810315876
  7
STANDARD
 40
0.1
  1
50
 41
1.0
 72
0
100
AcDbText
  0
TEXT
  5
431
100
AcDbEntity
  8
SCHEME_DIMS
100
AcDbText
 62
2
  6
CONTINUOUS
 10
4.261428065
 20
3.9310315876
  7
STANDARD
 40
0.1
  1
1.97
 41
1.0
 72
0
100
AcDbText
  0
TEXT
  5
432
100
AcDbEntity
  8
SCHEME_DIMS
100
AcDbText
 62
2
  6
CONTINUOUS
 10
4.161428065
 20
3.9310315876
  7
STANDARD
 40
0.1
  1
[
 41
1.0
 72
0
100
AcDbText
  0
TEXT
  5
433
100
AcDbEntity
  8
SCHEME_DIMS
100
AcDbText
 62
2
  6
CONTINUOUS
 10
4.661428065
 20
3.9310315876
  7
STANDARD
 40
0.1
  1
]
 41
1.0
 72
0
100
AcDbText
  0
LINE
  5
434
100
AcDbEntity
  8
SCHEME_DIMS
100
AcDbLine
 62
2
  6
CONTINUOUS
 10
3.5974147554
 20
4.6134468849
 11
3.7129377274
 21
4.1310315876
  0
LINE
  5
435
100
AcDbEntity
  8
SCHEME_DIMS
100
AcDbLine
 62
2
  6
CONTINUOUS
 10
3.7129377274
 20
4.1310315876
 11
3.9280947317
 21
4.1310315876
  0
INSERT
  5
436
100
AcDbEntity
  8
SCHEME_DIMS
100
AcDbBlockReference
 62
2
  6
CONTINUOUS
  2
_FILLED
 10
3.5974147554
 20
4.6134468849
 41
0.1875
 42
0.1875
 43
0.1875
 50
103.466902438
  0
ENDBLK
  5
437
100
AcDbEntity
  8
0
  6
BYBLOCK
 62
0
100
AcDbBlockEnd
  0
BLOCK
  5
438
100
AcDbEntity
  8
0
100
AcDbBlockBegin
  2
_FILLED
 70
64
 10
0.0
 20
0.0
  3
_FILLED
  1

  0
SOLID
  5
439
100
AcDbEntity
  8
0
  6
BYBLOCK
 62
0
100
AcDbTrace
 10
0.0
 20
0.0
 11
-1.0
 21
0.1666666667
 12
-1.0
 22
-0.1666666667
 13
-1.0
 23
-0.1666666667
  0
ENDBLK
  5
43A
100
AcDbEntity
  8
0
  6
BYBLOCK
 62
0
100
AcDbBlockEnd
  0
ENDSEC
  0
SECTION
  2
ENTITIES
  0
TEXT
  5
43B
100
AcDbEntity
  8
0
100
AcDbText
 62
2
  6
CONTINUOUS
 10
10.1487658475
 20
1.694867839
  7
STANDARD
 40
0.1
  1
%%uTHIRD ANGLE PROJECTION
 41
0.8
 72
1
 11
11.0287658475
 21
1.694867839
100
AcDbText
  0
TEXT
  5
43C
100
AcDbEntity
  8
0
100
AcDbText
 62
2
  6
CONTINUOUS
 10
12.88
 20
1.377
  7
STANDARD
 40
0.08
  1
DRAWING NO.
 41
1.0
 72
0
100
AcDbText
  0
TEXT
  5
43D
100
AcDbEntity
  8
0
100
AcDbText
 62
2
  6
CONTINUOUS
 10
10.044
 20
2.436432
  7
STANDARD
 40
0.08
  1
and is proprietary in general
 41
0.85
 72
1
 11
11.03
 21
2.436432
100
AcDbText
  0
TEXT
  5
43E
100
AcDbEntity
  8
0
100
AcDbText
 62
2
  6
CONTINUOUS
 10
10.078
 20
2.316432
  7
STANDARD
 40
0.08
  1
and in detail.  Its contents
 41
0.85
 72
1
 11
11.03
 21
2.316432
100
AcDbText
  0
TEXT
  5
43F
100
AcDbEntity
  8
0
100
AcDbText
 62
2
  6
CONTINUOUS
 10
10.214
 20
2.196432
  7
STANDARD
 40
0.08
  1
shall not be revealed to
 41
0.85
 72
1
 11
11.03
 21
2.196432
100
AcDbText
  0
TEXT
  5
440
100
AcDbEntity
  8
0
100
AcDbText
 62
2
  6
CONTINUOUS
 10
10.248
 20
2.076432
  7
STANDARD
 40
0.08
  1
outside parties without
 41
0.85
 72
1
 11
11.03
 21
2.076432
100
AcDbText
  0
TEXT
  5
441
100
AcDbEntity
  8
0
100
AcDbText
 62
2
  6
CONTINUOUS
 10
10.146
 20
1.956432
  7
STANDARD
 40
0.08
  1
written consent of BANNER.
 41
0.85
 72
1
 11
11.03
 21
1.956432
100
AcDbText
  0
TEXT
  5
442
100
AcDbEntity
  8
0
100
AcDbText
 62
2
  6
CONTINUOUS
 10
12.08
 20
2.117
  7
STANDARD
 40
0.1
  1
TITLE
 41
0.8
 72
0
100
AcDbText
  0
TEXT
  5
443
100
AcDbEntity
  8
0
100
AcDbText
 62
2
  6
CONTINUOUS
 10
12.08
 20
1.377
  7
STANDARD
 40
0.08
  1
SIZE
 41
1.0
 72
0
100
AcDbText
  0
TEXT
  5
444
100
AcDbEntity
  8
0
100
AcDbText
 62
2
  6
CONTINUOUS
 10
12.08
 20
1.007
  7
STANDARD
 40
0.08
  1
SCALE
 41
1.0
 72
0
100
AcDbText
  0
TEXT
  5
445
100
AcDbEntity
  8
0
100
AcDbText
 62
2
  6
CONTINUOUS
 10
12.46
 20
1.237
  7
STANDARD
 40
0.1
  1
B
 41
0.8
 72
1
 11
12.5
 21
1.237
100
AcDbText
  0
TEXT
  5
446
100
AcDbEntity
  8
0
100
AcDbText
 62
2
  6
CONTINUOUS
 10
10.112
 20
2.556432
  7
STANDARD
 40
0.08
  1
of BANNER ENGINEERING CORP.
 41
0.85
 72
1
 11
11.03
 21
2.556432
100
AcDbText
  0
TEXT
  5
447
100
AcDbEntity
  8
0
100
AcDbText
 62
2
  6
CONTINUOUS
 10
10.078
 20
2.676432
  7
STANDARD
 40
0.08
  1
This drawing is the property
 41
0.85
 72
1
 11
11.03
 21
2.676432
100
AcDbText
  0
TEXT
  5
448
100
AcDbEntity
  8
0
100
AcDbText
 62
2
  6
CONTINUOUS
 10
14.19
 20
2.3134
  7
STANDARD
 40
0.1
  1
MINNEAPOLIS, MN 55440
 41
0.8
 72
1
 11
15.03
 21
2.3134
100
AcDbText
  0
TEXT
  5
449
100
AcDbEntity
  8
0
100
AcDbText
 62
2
  6
CONTINUOUS
 10
14.255
 20
1.007
  7
STANDARD
 40
0.08
  1
SHEET
 41
1.0
 72
0
100
AcDbText
  0
TEXT
  5
44A
100
AcDbEntity
  8
0
100
AcDbText
 62
2
  6
CONTINUOUS
 10
15.63
 20
1.377
  7
STANDARD
 40
0.08
  1
REV.
 41
1.0
 72
0
100
AcDbText
  0
TEXT
  5
44B
100
AcDbEntity
  8
0
100
AcDbText
 62
2
  6
CONTINUOUS
 10
16.03
 20
0.765443
  7
STANDARD
 40
0.07
  1
PRO/E
 41
1.0
 72
2
 11
16.38
 21
0.765443
100
AcDbText
  0
TEXT
  5
44C
100
AcDbEntity
  8
0
100
AcDbText
 62
2
  6
CONTINUOUS
 10
13.7052
 20
2.631049
  7
STANDARD
 40
0.12
  1
BANNER ENGINEERING CORP.
 41
0.92
 72
1
 11
15.03
 21
2.631049
100
AcDbText
  0
TEXT
  5
44D
100
AcDbEntity
  8
0
100
AcDbText
 62
2
  6
CONTINUOUS
 10
14.51
 20
2.4724
  7
STANDARD
 40
0.1
  1
P.O. BOX 9414
 41
0.8
 72
1
 11
15.03
 21
2.4724
100
AcDbText
  0
TEXT
  5
44E
100
AcDbEntity
  8
0
100
AcDbText
 62
2
  6
CONTINUOUS
 10
9.445
 20
10.212
  7
STANDARD
 40
0.1
  1
4
 41
0.8
 72
1
 11
9.485
 21
10.212
100
AcDbText
  0
TEXT
  5
44F
100
AcDbEntity
  8
0
100
AcDbText
 62
2
  6
CONTINUOUS
 10
11.415
 20
10.212
  7
STANDARD
 40
0.1
  1
3
 41
0.8
 72
1
 11
11.455
 21
10.212
100
AcDbText
  0
TEXT
  5
450
100
AcDbEntity
  8
0
100
AcDbText
 62
2
  6
CONTINUOUS
 10
13.385
 20
10.212
  7
STANDARD
 40
0.1
  1
2
 41
0.8
 72
1
 11
13.425
 21
10.212
100
AcDbText
  0
TEXT
  5
451
100
AcDbEntity
  8
0
100
AcDbText
 62
2
  6
CONTINUOUS
 10
15.355
 20
10.212
  7
STANDARD
 40
0.1
  1
1
 41
0.8
 72
1
 11
15.395
 21
10.212
100
AcDbText
  0
TEXT
  5
452
100
AcDbEntity
  8
0
100
AcDbText
 62
2
  6
CONTINUOUS
 10
3.535
 20
10.212
  7
STANDARD
 40
0.1
  1
7
 41
0.8
 72
1
 11
3.575
 21
10.212
100
AcDbText
  0
TEXT
  5
453
100
AcDbEntity
  8
0
100
AcDbText
 62
2
  6
CONTINUOUS
 10
5.505
 20
10.212
  7
STANDARD
 40
0.1
  1
6
 41
0.8
 72
1
 11
5.545
 21
10.212
100
AcDbText
  0
TEXT
  5
454
100
AcDbEntity
  8
0
100
AcDbText
 62
2
  6
CONTINUOUS
 10
7.475
 20
10.212
  7
STANDARD
 40
0.1
  1
5
 41
0.8
 72
1
 11
7.515
 21
10.212
100
AcDbText
  0
TEXT
  5
455
100
AcDbEntity
  8
0
100
AcDbText
 62
2
  6
CONTINUOUS
 10
1.565
 20
10.212
  7
STANDARD
 40
0.1
  1
8
 41
0.8
 72
1
 11
1.605
 21
10.212
100
AcDbText
  0
TEXT
  5
456
100
AcDbEntity
  8
0
100
AcDbText
 62
2
  6
CONTINUOUS
 10
1.565
 20
0.687
  7
STANDARD
 40
0.1
  1
8
 41
0.8
 72
1
 11
1.605
 21
0.687
100
AcDbText
  0
TEXT
  5
457
100
AcDbEntity
  8
0
100
AcDbText
 62
2
  6
CONTINUOUS
 10
3.535
 20
0.687
  7
STANDARD
 40
0.1
  1
7
 41
0.8
 72
1
 11
3.575
 21
0.687
100
AcDbText
  0
TEXT
  5
458
100
AcDbEntity
  8
0
100
AcDbText
 62
2
  6
CONTINUOUS
 10
5.505
 20
0.687
  7
STANDARD
 40
0.1
  1
6
 41
0.8
 72
1
 11
5.545
 21
0.687
100
AcDbText
  0
TEXT
  5
459
100
AcDbEntity
  8
0
100
AcDbText
 62
2
  6
CONTINUOUS
 10
7.475
 20
0.687
  7
STANDARD
 40
0.1
  1
5
 41
0.8
 72
1
 11
7.515
 21
0.687
100
AcDbText
  0
TEXT
  5
45A
100
AcDbEntity
  8
0
100
AcDbText
 62
2
  6
CONTINUOUS
 10
9.445
 20
0.687
  7
STANDARD
 40
0.1
  1
4
 41
0.8
 72
1
 11
9.485
 21
0.687
100
AcDbText
  0
TEXT
  5
45B
100
AcDbEntity
  8
0
100
AcDbText
 62
2
  6
CONTINUOUS
 10
11.415
 20
0.687
  7
STANDARD
 40
0.1
  1
3
 41
0.8
 72
1
 11
11.455
 21
0.687
100
AcDbText
  0
TEXT
  5
45C
100
AcDbEntity
  8
0
100
AcDbText
 62
2
  6
CONTINUOUS
 10
13.385
 20
0.687
  7
STANDARD
 40
0.1
  1
2
 41
0.8
 72
1
 11
13.425
 21
0.687
100
AcDbText
  0
TEXT
  5
45D
100
AcDbEntity
  8
0
100
AcDbText
 62
2
  6
CONTINUOUS
 10
15.355
 20
0.687
  7
STANDARD
 40
0.1
  1
1
 41
0.8
 72
1
 11
15.395
 21
0.687
100
AcDbText
  0
TEXT
  5
45E
100
AcDbEntity
  8
0
100
AcDbText
 62
2
  6
CONTINUOUS
 10
0.44
 20
4.2995
  7
STANDARD
 40
0.1
  1
B
 41
0.8
 72
2
 11
0.52
 21
4.2995
100
AcDbText
  0
TEXT
  5
45F
100
AcDbEntity
  8
0
100
AcDbText
 62
2
  6
CONTINUOUS
 10
0.44
 20
1.9995
  7
STANDARD
 40
0.1
  1
A
 41
0.8
 72
2
 11
0.52
 21
1.9995
100
AcDbText
  0
TEXT
  5
460
100
AcDbEntity
  8
0
100
AcDbText
 62
2
  6
CONTINUOUS
 10
0.44
 20
8.8995
  7
STANDARD
 40
0.1
  1
D
 41
0.8
 72
2
 11
0.52
 21
8.8995
100
AcDbText
  0
TEXT
  5
461
100
AcDbEntity
  8
0
100
AcDbText
 62
2
  6
CONTINUOUS
 10
0.44
 20
6.5995
  7
STANDARD
 40
0.1
  1
C
 41
0.8
 72
2
 11
0.52
 21
6.5995
100
AcDbText
  0
TEXT
  5
462
100
AcDbEntity
  8
0
100
AcDbText
 62
2
  6
CONTINUOUS
 10
16.48
 20
8.8995
  7
STANDARD
 40
0.1
  1
D
 41
0.8
 72
0
100
AcDbText
  0
TEXT
  5
463
100
AcDbEntity
  8
0
100
AcDbText
 62
2
  6
CONTINUOUS
 10
16.48
 20
6.5995
  7
STANDARD
 40
0.1
  1
C
 41
0.8
 72
0
100
AcDbText
  0
TEXT
  5
464
100
AcDbEntity
  8
0
100
AcDbText
 62
2
  6
CONTINUOUS
 10
16.48
 20
4.2995
  7
STANDARD
 40
0.1
  1
B
 41
0.8
 72
0
100
AcDbText
  0
TEXT
  5
465
100
AcDbEntity
  8
0
100
AcDbText
 62
2
  6
CONTINUOUS
 10
16.48
 20
1.9995
  7
STANDARD
 40
0.1
  1
A
 41
0.8
 72
0
100
AcDbText
  0
MTEXT
  5
466
100
AcDbEntity
  8
0
100
AcDbMText
 62
2
  6
CONTINUOUS
  7
STANDARD
 71
1
 72
1
 10
14.819264911
 20
1.0627941725
 30
0.0
 11
1.0
 21
0.0
 31
0.0
  1
1 OF 1
 40
0.1
 41
0.6
  0
TEXT
  5
467
100
AcDbEntity
  8
0
100
AcDbText
 62
7
  6
CONTINUOUS
 10
13.8911999818
 20
1.2547321586
  7
STANDARD
 40
0.12
  1
144873
 41
1.0
 72
0
100
AcDbText
  0
TEXT
  5
468
100
AcDbEntity
  8
0
100
AcDbText
 62
2
  6
CONTINUOUS
 10
12.644264911
 20
0.9627941725
  7
STANDARD
 40
0.1
  1
1:1
 41
1.0
 72
0
100
AcDbText
  0
MTEXT
  5
469
100
AcDbEntity
  8
0
100
AcDbMText
 62
2
  6
CONTINUOUS
  7
STANDARD
 71
1
 72
1
 10
1.0597007627
 20
1.6202922458
 30
0.0
 11
1.0
 21
0.0
 31
0.0
  1
NOTES:\P1. ALL DIMENSIONS ARE MILLIMETERS [INCHES] UNLESS OTHERWISE NOTED.
 40
0.1
 41
6.6
  0
INSERT
  5
46A
100
AcDbEntity
  8
0
100
AcDbBlockReference
 62
2
  6
CONTINUOUS
  2
BANNER_LOGO_TITLEBLOCK_BL0
 10
12.9046655056
 20
2.5403783448
  0
DIMENSION
  5
46B
100
AcDbEntity
  8
SCHEME_DIMS
100
AcDbDimension
 62
2
  6
CONTINUOUS
  2
*D0
 10
5.4998762895
 20
7.6379566361
 11
6.2586833761
 21
7.5629566361
 70
160
 42
38.5474
  3
DIMSTYLE_1
100
AcDbAlignedDimension
 13
7.0174904627
 23
6.1351049661
 14
5.4998762895
 24
6.3281212532
 50
180.0
100
AcDbRotatedDimension
  0
DIMENSION
  5
46C
100
AcDbEntity
  8
SCHEME_DIMS
100
AcDbDimension
 62
2
  6
CONTINUOUS
  2
*D1
 10
5.4998762895
 20
7.0853903576
 11
5.8649825887
 21
7.0103903576
 70
160
 42
18.5474
  3
DIMSTYLE_1
100
AcDbAlignedDimension
 13
6.2300888879
 23
6.5780183427
 14
5.4998762895
 24
6.3281212532
 50
180.0
100
AcDbRotatedDimension
  0
DIMENSION
  5
46D
100
AcDbEntity
  8
SCHEME_DIMS
100
AcDbDimension
 62
2
  6
CONTINUOUS
  2
*D2
 10
3.5974147554
 20
4.6134468849
 11
4.3947613984
 21
4.0560315876
 70
163
 42
50.0
  1
<>
  3
DIMSTYLE_2
100
AcDbDiametricDimension
 15
3.1389824241
 25
6.5278260395
  0
LINE
  5
46E
100
AcDbEntity
  8
0
100
AcDbLine
 62
2
  6
CONTINUOUS
 10
16.38
 20
0.887
 11
12.03
 21
0.887
  0
LINE
  5
46F
100
AcDbEntity
  8
0
100
AcDbLine
 62
2
  6
CONTINUOUS
 10
16.38
 20
0.887
 11
16.38
 21
2.807
  0
LINE
  5
470
100
AcDbEntity
  8
0
100
AcDbLine
 62
2
  6
CONTINUOUS
 10
16.38
 20
2.807
 11
12.03
 21
2.807
  0
LINE
  5
471
100
AcDbEntity
  8
0
100
AcDbLine
 62
2
  6
CONTINUOUS
 10
12.03
 20
0.887
 11
12.03
 21
2.807
  0
TEXT
  5
472
100
AcDbEntity
  8
0
100
AcDbText
 62
7
  6
CONTINUOUS
 10
16.105
 20
1.267
  7
STANDARD
 40
0.1
  1
-
 41
1.0
 72
1
 11
16.155
 21
1.267
100
AcDbText
  0
MTEXT
  5
473
100
AcDbEntity
  8
0
100
AcDbMText
 62
7
  6
CONTINUOUS
  7
STANDARD
 71
2
 72
1
 10
14.205
 20
1.967
 30
0.0
 11
1.0
 21
0.0
 31
0.0
  1
K50L DAYLIGHT CABLE/PIGTAIL\PWEB CAD DRAWINGS 2D/3D
 40
0.1
 41
2.7
  0
TEXT
  5
474
100
AcDbEntity
  8
NOTES
100
AcDbText
 62
2
  6
CONTINUOUS
 10
7.2275473899
 20
4.2889523777
  7
STANDARD
 40
0.1
  1
M30 X 1.5
 41
1.0
 72
0
100
AcDbText
  0
LINE
  5
475
100
AcDbEntity
  8
NOTES
100
AcDbLine
 62
2
  6
CONTINUOUS
 10
6.732031426
 20
5.0292978795
 11
6.9775473899
 21
4.3389523777
  0
LINE
  5
476
100
AcDbEntity
  8
NOTES
100
AcDbLine
 62
2
  6
CONTINUOUS
 10
6.9775473899
 20
4.3389523777
 11
7.2275473899
 21
4.3389523777
  0
SOLID
  5
477
100
AcDbEntity
  8
NOTES
100
AcDbTrace
 62
2
  6
CONTINUOUS
 10
6.8243027248
 20
4.8631087706
 11
6.732031426
 21
5.0292978795
 12
6.7654159166
 22
4.842166139
 13
6.7654159166
 23
4.842166139
  0
MTEXT
  5
478
100
AcDbEntity
  8
NOTES
100
AcDbMText
 62
2
  6
CONTINUOUS
  7
STANDARD
 71
2
 72
1
 10
14.9229133703
 20
5.3414829172
 30
0.0
 11
1.0
 21
0.0
 31
0.0
  1
ISOMETRIC VIEW\P\H0.1;SCALE  1:1
 40
0.12
 41
1.68
  0
LINE
  5
479
100
AcDbEntity
  8
0
100
AcDbLine
 62
2
  6
CONTINUOUS
 10
0.47
 20
5.586103
 11
0.47
 21
5.412897
  0
LINE
  5
47A
100
AcDbEntity
  8
0
100
AcDbLine
 62
2
  6
CONTINUOUS
 10
0.62
 20
10.112
 11
0.62
 21
0.887
  0
LINE
  5
47B
100
AcDbEntity
  8
0
100
AcDbLine
 62
2
  6
CONTINUOUS
 10
2.59
 20
0.887
 11
2.59
 21
0.637
  0
LINE
  5
47C
100
AcDbEntity
  8
0
100
AcDbLine
 62
2
  6
CONTINUOUS
 10
2.59
 20
10.112
 11
2.59
 21
10.362
  0
LINE
  5
47D
100
AcDbEntity
  8
0
100
AcDbLine
 62
2
  6
CONTINUOUS
 10
8.413397
 20
0.737
 11
8.586603
 21
0.737
  0
LINE
  5
47E
100
AcDbEntity
  8
0
100
AcDbLine
 62
7
  6
CONTINUOUS
 10
11.1389508475
 20
1.425992839
 11
11.7453418475
 21
1.495385839
  0
LINE
  5
47F
100
AcDbEntity
  8
0
100
AcDbLine
 62
2
  6
CONTINUOUS
 10
0.62
 20
0.887
 11
16.38
 21
0.887
  0
LINE
  5
480
100
AcDbEntity
  8
0
100
AcDbLine
 62
2
  6
CONTINUOUS
 10
12.03
 20
1.137
 11
16.38
 21
1.137
  0
LINE
  5
481
100
AcDbEntity
  8
0
100
AcDbLine
 62
7
  6
CONTINUOUS
 10
10.2121898475
 20
1.243294839
 11
10.4342808475
 21
1.243294839
  0
LINE
  5
482
100
AcDbEntity
  8
0
100
AcDbLine
 62
7
  6
CONTINUOUS
 10
10.4842808475
 20
1.243294839
 11
10.5842808475
 21
1.243294839
  0
LINE
  5
483
100
AcDbEntity
  8
0
100
AcDbLine
 62
7
  6
CONTINUOUS
 10
10.6342808475
 20
1.243294839
 11
10.8563718475
 21
1.243294839
  0
LINE
  5
484
100
AcDbEntity
  8
0
100
AcDbLine
 62
7
  6
CONTINUOUS
 10
11.0389508475
 20
1.243294839
 11
11.3171028475
 21
1.243294839
  0
LINE
  5
485
100
AcDbEntity
  8
0
100
AcDbLine
 62
7
  6
CONTINUOUS
 10
11.3671028475
 20
1.243294839
 11
11.5171888475
 21
1.243294839
  0
LINE
  5
486
100
AcDbEntity
  8
0
100
AcDbLine
 62
7
  6
CONTINUOUS
 10
11.5671888475
 20
1.243294839
 11
11.8453418475
 21
1.243294839
  0
LINE
  5
487
100
AcDbEntity
  8
0
100
AcDbLine
 62
7
  6
CONTINUOUS
 10
11.7453418475
 20
0.991203839
 11
11.1389508475
 21
1.060596839
  0
LINE
  5
488
100
AcDbEntity
  8
0
100
AcDbLine
 62
2
  6
CONTINUOUS
 10
4.56
 20
0.887
 11
4.56
 21
0.637
  0
LINE
  5
489
100
AcDbEntity
  8
0
100
AcDbLine
 62
2
  6
CONTINUOUS
 10
4.56
 20
10.112
 11
4.56
 21
10.362
  0
LINE
  5
48A
100
AcDbEntity
  8
0
100
AcDbLine
 62
2
  6
CONTINUOUS
 10
0.47
 20
5.412897
 11
0.62
 21
5.4995
  0
LINE
  5
48B
100
AcDbEntity
  8
0
100
AcDbLine
 62
2
  6
CONTINUOUS
 10
12.03
 20
1.507
 11
16.38
 21
1.507
  0
LINE
  5
48C
100
AcDbEntity
  8
0
100
AcDbLine
 62
2
  6
CONTINUOUS
 10
10.03
 20
1.907
 11
12.03
 21
1.907
  0
LINE
  5
48D
100
AcDbEntity
  8
0
100
AcDbLine
 62
2
  6
CONTINUOUS
 10
0.62
 20
5.4995
 11
0.47
 21
5.586103
  0
LINE
  5
48E
100
AcDbEntity
  8
0
100
AcDbLine
 62
2
  6
CONTINUOUS
 10
12.03
 20
2.267
 11
16.38
 21
2.267
  0
LINE
  5
48F
100
AcDbEntity
  8
0
100
AcDbLine
 62
2
  6
CONTINUOUS
 10
8.5
 20
10.112
 11
8.586603
 21
10.262
  0
LINE
  5
490
100
AcDbEntity
  8
0
100
AcDbLine
 62
2
  6
CONTINUOUS
 10
16.38
 20
2.807
 11
10.03
 21
2.807
  0
LINE
  5
491
100
AcDbEntity
  8
0
100
AcDbLine
 62
2
  6
CONTINUOUS
 10
0.62
 20
3.1995
 11
0.37
 21
3.1995
  0
LINE
  5
492
100
AcDbEntity
  8
0
100
AcDbLine
 62
2
  6
CONTINUOUS
 10
16.38
 20
3.1995
 11
16.63
 21
3.1995
  0
LINE
  5
493
100
AcDbEntity
  8
0
100
AcDbLine
 62
2
  6
CONTINUOUS
 10
8.586603
 20
0.737
 11
8.5
 21
0.887
  0
LINE
  5
494
100
AcDbEntity
  8
0
100
AcDbLine
 62
2
  6
CONTINUOUS
 10
6.53
 20
0.887
 11
6.53
 21
0.637
  0
LINE
  5
495
100
AcDbEntity
  8
0
100
AcDbLine
 62
2
  6
CONTINUOUS
 10
6.53
 20
10.112
 11
6.53
 21
10.362
  0
LINE
  5
496
100
AcDbEntity
  8
0
100
AcDbLine
 62
2
  6
CONTINUOUS
 10
8.5
 20
0.887
 11
8.5
 21
0.637
  0
LINE
  5
497
100
AcDbEntity
  8
0
100
AcDbLine
 62
2
  6
CONTINUOUS
 10
8.5
 20
10.112
 11
8.5
 21
10.362
  0
LINE
  5
498
100
AcDbEntity
  8
0
100
AcDbLine
 62
2
  6
CONTINUOUS
 10
0.62
 20
5.4995
 11
0.37
 21
5.4995
  0
LINE
  5
499
100
AcDbEntity
  8
0
100
AcDbLine
 62
2
  6
CONTINUOUS
 10
16.38
 20
5.4995
 11
16.63
 21
5.4995
  0
LINE
  5
49A
100
AcDbEntity
  8
0
100
AcDbLine
 62
2
  6
CONTINUOUS
 10
10.03
 20
2.807
 11
10.03
 21
0.887
  0
LINE
  5
49B
100
AcDbEntity
  8
0
100
AcDbLine
 62
2
  6
CONTINUOUS
 10
10.47
 20
0.887
 11
10.47
 21
0.637
  0
LINE
  5
49C
100
AcDbEntity
  8
0
100
AcDbLine
 62
2
  6
CONTINUOUS
 10
10.47
 20
10.112
 11
10.47
 21
10.362
  0
LINE
  5
49D
100
AcDbEntity
  8
0
100
AcDbLine
 62
7
  6
CONTINUOUS
 10
10.5342808475
 20
1.143294839
 11
10.5342808475
 21
0.921203839
  0
LINE
  5
49E
100
AcDbEntity
  8
0
100
AcDbLine
 62
7
  6
CONTINUOUS
 10
10.5342808475
 20
1.193294839
 11
10.5342808475
 21
1.293294839
  0
LINE
  5
49F
100
AcDbEntity
  8
0
100
AcDbLine
 62
7
  6
CONTINUOUS
 10
10.5342808475
 20
1.343294839
 11
10.5342808475
 21
1.565385839
  0
LINE
  5
4A0
100
AcDbEntity
  8
0
100
AcDbLine
 62
2
  6
CONTINUOUS
 10
8.5
 20
0.887
 11
8.413397
 21
0.737
  0
LINE
  5
4A1
100
AcDbEntity
  8
0
100
AcDbLine
 62
2
  6
CONTINUOUS
 10
0.62
 20
7.7995
 11
0.37
 21
7.7995
  0
LINE
  5
4A2
100
AcDbEntity
  8
0
100
AcDbLine
 62
2
  6
CONTINUOUS
 10
16.38
 20
7.7995
 11
16.63
 21
7.7995
  0
LINE
  5
4A3
100
AcDbEntity
  8
0
100
AcDbLine
 62
2
  6
CONTINUOUS
 10
8.413397
 20
10.262
 11
8.5
 21
10.112
  0
LINE
  5
4A4
100
AcDbEntity
  8
0
100
AcDbLine
 62
7
  6
CONTINUOUS
 10
11.1389508475
 20
1.060596839
 11
11.1389508475
 21
1.425992839
  0
LINE
  5
4A5
100
AcDbEntity
  8
0
100
AcDbLine
 62
7
  6
CONTINUOUS
 10
11.7453418475
 20
1.495385839
 11
11.7453418475
 21
0.991203839
  0
LINE
  5
4A6
100
AcDbEntity
  8
0
100
AcDbLine
 62
1
  6
CONTINUOUS
 10
12.03
 20
2.807
 11
12.03
 21
0.887
  0
LINE
  5
4A7
100
AcDbEntity
  8
0
100
AcDbLine
 62
2
  6
CONTINUOUS
 10
12.44
 20
0.887
 11
12.44
 21
0.637
  0
LINE
  5
4A8
100
AcDbEntity
  8
0
100
AcDbLine
 62
2
  6
CONTINUOUS
 10
12.44
 20
10.112
 11
12.44
 21
10.362
  0
LINE
  5
4A9
100
AcDbEntity
  8
0
100
AcDbLine
 62
2
  6
CONTINUOUS
 10
16.53
 20
5.586103
 11
16.38
 21
5.4995
  0
LINE
  5
4AA
100
AcDbEntity
  8
0
100
AcDbLine
 62
2
  6
CONTINUOUS
 10
16.38
 20
5.4995
 11
16.53
 21
5.412897
  0
LINE
  5
4AB
100
AcDbEntity
  8
0
100
AcDbLine
 62
2
  6
CONTINUOUS
 10
12.83
 20
1.507
 11
12.83
 21
1.137
  0
LINE
  5
4AC
100
AcDbEntity
  8
0
100
AcDbLine
 62
2
  6
CONTINUOUS
 10
16.38
 20
10.112
 11
0.62
 21
10.112
  0
LINE
  5
4AD
100
AcDbEntity
  8
0
100
AcDbLine
 62
2
  6
CONTINUOUS
 10
8.586603
 20
10.262
 11
8.413397
 21
10.262
  0
LINE
  5
4AE
100
AcDbEntity
  8
0
100
AcDbLine
 62
2
  6
CONTINUOUS
 10
14.205
 20
1.137
 11
14.205
 21
0.887
  0
LINE
  5
4AF
100
AcDbEntity
  8
0
100
AcDbLine
 62
2
  6
CONTINUOUS
 10
14.41
 20
0.887
 11
14.41
 21
0.637
  0
LINE
  5
4B0
100
AcDbEntity
  8
0
100
AcDbLine
 62
2
  6
CONTINUOUS
 10
14.41
 20
10.112
 11
14.41
 21
10.362
  0
LINE
  5
4B1
100
AcDbEntity
  8
0
100
AcDbLine
 62
2
  6
CONTINUOUS
 10
15.58
 20
1.507
 11
15.58
 21
1.137
  0
LINE
  5
4B2
100
AcDbEntity
  8
0
100
AcDbLine
 62
2
  6
CONTINUOUS
 10
16.38
 20
0.887
 11
16.38
 21
10.112
  0
LINE
  5
4B3
100
AcDbEntity
  8
0
100
AcDbLine
 62
2
  6
CONTINUOUS
 10
16.53
 20
5.412897
 11
16.53
 21
5.586103
  0
LINE
  5
4B4
100
AcDbEntity
  8
02___PRT_ALL_AXES
100
AcDbLine
 62
9
  6
CONTINUOUS
 10
5.5983014863
 20
4.7322112253
 11
5.5983014863
 21
5.1017594769
  0
LINE
  5
4B5
100
AcDbEntity
  8
02___PRT_ALL_AXES
100
AcDbLine
 62
9
  6
CONTINUOUS
 10
5.5983014863
 20
5.1022114653
 11
5.5983014863
 21
5.299061859
  0
LINE
  5
4B6
100
AcDbEntity
  8
02___PRT_ALL_AXES
100
AcDbLine
 62
9
  6
CONTINUOUS
 10
5.5983014863
 20
5.3432111853
 11
5.5983014863
 21
5.540061579
  0
LINE
  5
4B7
100
AcDbEntity
  8
02___PRT_ALL_AXES
100
AcDbLine
 62
9
  6
CONTINUOUS
 10
5.5983014863
 20
5.6002111853
 11
5.5983014863
 21
5.797061579
  0
LINE
  5
4B8
100
AcDbEntity
  8
02___PRT_ALL_AXES
100
AcDbLine
 62
9
  6
CONTINUOUS
 10
5.5983014863
 20
5.8422114253
 11
5.5983014863
 21
6.409061659
  0
LINE
  5
4B9
100
AcDbEntity
  8
02___PRT_ALL_AXES
100
AcDbLine
 62
7
  6
CONTINUOUS
 10
5.7182778643
 20
6.5548884307
 11
5.7182778643
 21
4.5863844937
  0
LINE
  5
4BA
100
AcDbEntity
  8
0
100
AcDbLine
 62
9
  6
CONTINUOUS
 10
6.1907188092
 20
4.5863844937
 11
6.1907188092
 21
6.5548884307
  0
LINE
  5
4BB
100
AcDbEntity
  8
0
100
AcDbLine
 62
7
  6
CONTINUOUS
 10
6.2300888879
 20
4.6257545724
 11
6.2300888879
 21
6.5155183519
  0
LINE
  5
4BC
100
AcDbEntity
  8
0
100
AcDbLine
 62
9
  6
CONTINUOUS
 10
6.2694589667
 20
6.1119750449
 11
6.2694589667
 21
5.0292978795
  0
LWPOLYLINE
  5
4BD
100
AcDbEntity
  8
02___PRT_ALL_AXES
100
AcDbPolyline
 62
7
  6
CONTINUOUS
 90
10
 70
0
 10
6.3258297679
 20
6.1119750449
 10
6.3272638878
 20
6.0899244149
 10
6.3286957508
 20
6.0558700837
 10
6.3301297227
 20
6.0105014413
 10
6.3315738384
 20
5.954487261
 10
6.3330351323
 20
5.8886068414
 10
6.3344944497
 20
5.8151596723
 10
6.3359355766
 20
5.7368469966
 10
6.3373658709
 20
5.6552621752
 10
6.3402381374
 20
5.4874784838
  0
LWPOLYLINE
  5
4BE
100
AcDbEntity
  8
02___PRT_ALL_AXES
100
AcDbPolyline
 62
7
  6
CONTINUOUS
 90
9
 70
0
 10
6.4000960394
 20
5.0292978795
 10
6.3986462143
 20
5.0516579808
 10
6.3972058958
 20
5.0860764881
 10
6.3957768185
 20
5.1314532413
 10
6.3943320705
 20
5.1876239384
 10
6.3928707212
 20
5.2536226046
 10
6.3914114991
 20
5.3271574911
 10
6.3899705619
 20
5.405526037
 10
6.3885346131
 20
5.4874784838
  0
LWPOLYLINE
  5
4BF
100
AcDbEntity
  8
02___PRT_ALL_AXES
100
AcDbPolyline
 62
7
  6
CONTINUOUS
 90
9
 70
0
 10
6.384884886
 20
6.1119750449
 10
6.3863455597
 20
6.0894003267
 10
6.387801762
 20
6.0544473543
 10
6.3892400261
 20
6.0085437057
 10
6.3906733697
 20
5.9526138715
 10
6.3921091267
 20
5.8877020085
 10
6.3935382474
 20
5.8157544523
 10
6.3949691357
 20
5.7380519917
 10
6.3964104553
 20
5.6558725248
  0
LWPOLYLINE
  5
4C0
100
AcDbEntity
  8
02___PRT_ALL_AXES
100
AcDbPolyline
 62
7
  6
CONTINUOUS
 90
9
 70
0
 10
6.4591511575
 20
5.0292978795
 10
6.4576905053
 20
5.0518721731
 10
6.4562342457
 20
5.0868265752
 10
6.4547959161
 20
5.1327328286
 10
6.4533624012
 20
5.1886705785
 10
6.4519262639
 20
5.2536022342
 10
6.4504972043
 20
5.3255495587
 10
6.4490664743
 20
5.4032451587
 10
6.4476252128
 20
5.4854221521
  0
LWPOLYLINE
  5
4C1
100
AcDbEntity
  8
02___PRT_ALL_AXES
100
AcDbPolyline
 62
7
  6
CONTINUOUS
 90
16
 70
0
 10
6.3703188276
 20
5.0292978795
 10
6.3688459118
 20
5.0712009513
 10
6.3673729959
 20
5.1253442919
 10
6.3659000801
 20
5.1904009452
 10
6.3644271642
 20
5.2647764892
 10
6.3629542484
 20
5.3466481128
 10
6.3614813326
 20
5.4340092891
 10
6.3600084167
 20
5.5247189526
 10
6.3585355009
 20
5.6165539718
 10
6.357062585
 20
5.7072636352
 10
6.3555896692
 20
5.7946248116
 10
6.3541167533
 20
5.8764964351
 10
6.3526438375
 20
5.9508719792
 10
6.3511709216
 20
6.0159286325
 10
6.3496980058
 20
6.0700719731
 10
6.3482250899
 20
6.1119750449
  0
LWPOLYLINE
  5
4C2
100
AcDbEntity
  8
02___PRT_ALL_AXES
100
AcDbPolyline
 62
7
  6
CONTINUOUS
 90
16
 70
0
 10
6.3777007174
 20
5.0292978795
 10
6.3762278015
 20
5.0712009513
 10
6.3747548857
 20
5.1253442919
 10
6.3732819699
 20
5.1904009452
 10
6.371809054
 20
5.2647764892
 10
6.3703361382
 20
5.3466481128
 10
6.3688632223
 20
5.4340092891
 10
6.3673903065
 20
5.5247189526
 10
6.3659173906
 20
5.6165539718
 10
6.3644444748
 20
5.7072636352
 10
6.3629715589
 20
5.7946248116
 10
6.3614986431
 20
5.8764964351
 10
6.3600257272
 20
5.9508719792
 10
6.3585528114
 20
6.0159286325
 10
6.3570798956
 20
6.0700719731
 10
6.3556069797
 20
6.1119750449
  0
LWPOLYLINE
  5
4C3
100
AcDbEntity
  8
02___PRT_ALL_AXES
100
AcDbPolyline
 62
7
  6
CONTINUOUS
 90
16
 70
0
 10
6.4293739457
 20
5.0292978795
 10
6.4279010299
 20
5.0712009513
 10
6.426428114
 20
5.1253442919
 10
6.4249551982
 20
5.1904009452
 10
6.4234822824
 20
5.2647764892
 10
6.4220093665
 20
5.3466481128
 10
6.4205364507
 20
5.4340092891
 10
6.4190635348
 20
5.5247189526
 10
6.417590619
 20
5.6165539718
 10
6.4161177031
 20
5.7072636352
 10
6.4146447873
 20
5.7946248116
 10
6.4131718714
 20
5.8764964351
 10
6.4116989556
 20
5.9508719792
 10
6.4102260397
 20
6.0159286325
 10
6.4087531239
 20
6.0700719731
 10
6.4072802081
 20
6.1119750449
  0
LWPOLYLINE
  5
4C4
100
AcDbEntity
  8
02___PRT_ALL_AXES
100
AcDbPolyline
 62
7
  6
CONTINUOUS
 90
5
 70
0
 10
6.4367558355
 20
5.0292978795
 10
6.4352829197
 20
5.0712009513
 10
6.4338100038
 20
5.1253442919
 10
6.432337088
 20
5.1904009452
 10
6.4308641721
 20
5.2647764892
  0
LWPOLYLINE
  5
4C5
100
AcDbEntity
  8
02___PRT_ALL_AXES
100
AcDbPolyline
 62
7
  6
CONTINUOUS
 90
4
 70
0
 10
6.4308641721
 20
5.2647764892
 10
6.4293912563
 20
5.3466481128
 10
6.4279183404
 20
5.4340092891
 10
6.4264454246
 20
5.5247189526
  0
LWPOLYLINE
  5
4C6
100
AcDbEntity
  8
02___PRT_ALL_AXES
100
AcDbPolyline
 62
7
  6
CONTINUOUS
 90
9
 70
0
 10
6.3402381374
 20
5.4874784838
 10
6.3416740862
 20
5.405526037
 10
6.3431150233
 20
5.3271574911
 10
6.3445742454
 20
5.2536226046
 10
6.3460355947
 20
5.1876239384
 10
6.3474803427
 20
5.1314532413
 10
6.34890942
 20
5.0860764881
 10
6.3503497385
 20
5.0516579808
 10
6.3517995637
 20
5.0292978795
  0
LWPOLYLINE
  5
4C7
100
AcDbEntity
  8
02___PRT_ALL_AXES
100
AcDbPolyline
 62
7
  6
CONTINUOUS
 90
10
 70
0
 10
6.3885346131
 20
5.4874784838
 10
6.3856623466
 20
5.6552621752
 10
6.3842320524
 20
5.7368469966
 10
6.3827909254
 20
5.8151596723
 10
6.3813316081
 20
5.8886068414
 10
6.3798703142
 20
5.954487261
 10
6.3784261985
 20
6.0105014413
 10
6.3769922266
 20
6.0558700837
 10
6.3755603636
 20
6.0899244149
 10
6.3741262437
 20
6.1119750449
  0
LWPOLYLINE
  5
4C8
100
AcDbEntity
  8
02___PRT_ALL_AXES
100
AcDbPolyline
 62
7
  6
CONTINUOUS
 90
10
 70
0
 10
6.3964104553
 20
5.6558725248
 10
6.399328737
 20
5.4854221521
 10
6.4007699985
 20
5.4032451587
 10
6.4022007285
 20
5.3255495587
 10
6.4036297882
 20
5.2536022342
 10
6.4050659254
 20
5.1886705785
 10
6.4064994403
 20
5.1327328286
 10
6.40793777
 20
5.0868265752
 10
6.4093940295
 20
5.0518721731
 10
6.4108546818
 20
5.0292978795
  0
LWPOLYLINE
  5
4C9
100
AcDbEntity
  8
02___PRT_ALL_AXES
100
AcDbPolyline
 62
7
  6
CONTINUOUS
 90
9
 70
0
 10
6.4264454246
 20
5.5247189526
 10
6.4249725087
 20
5.6165539718
 10
6.4234995929
 20
5.7072636352
 10
6.422026677
 20
5.7946248116
 10
6.4205537612
 20
5.8764964351
 10
6.4190808454
 20
5.9508719792
 10
6.4176079295
 20
6.0159286325
 10
6.4161350137
 20
6.0700719731
 10
6.4146620978
 20
6.1119750449
  0
LWPOLYLINE
  5
4CA
100
AcDbEntity
  8
02___PRT_ALL_AXES
100
AcDbPolyline
 62
7
  6
CONTINUOUS
 90
10
 70
0
 10
6.5182062756
 20
5.0292978795
 10
6.5167717598
 20
5.0513562929
 10
6.5153400917
 20
5.0854084324
 10
6.513906157
 20
5.1307772707
 10
6.5124619937
 20
5.1867945625
 10
6.5110006287
 20
5.2526796146
 10
6.5095411599
 20
5.3261360589
 10
6.5080998679
 20
5.4044594242
 10
6.5066693201
 20
5.4860601546
 10
6.5037974569
 20
5.6538204841
  0
LWPOLYLINE
  5
4CB
100
AcDbEntity
  8
02___PRT_ALL_AXES
100
AcDbPolyline
 62
7
  6
CONTINUOUS
 90
9
 70
0
 10
6.4439400041
 20
6.1119750449
 10
6.4453894661
 20
6.089622116
 10
6.446829253
 20
6.0552214397
 10
6.4482584025
 20
6.0098488272
 10
6.449703324
 20
5.9536763555
 10
6.4511648072
 20
5.8876750307
 10
6.4526240857
 20
5.8141395668
 10
6.4540650765
 20
5.7357695514
 10
6.4555009812
 20
5.6538204841
  0
LWPOLYLINE
  5
4CC
100
AcDbEntity
  8
02___PRT_ALL_AXES
100
AcDbPolyline
 62
7
  6
CONTINUOUS
 90
9
 70
0
 10
6.5029951222
 20
6.1119750449
 10
6.5044537794
 20
6.0894402707
 10
6.5059079558
 20
6.0545608816
 10
6.5073448149
 20
6.0087376291
 10
6.5087819126
 20
5.9526854582
 10
6.510229772
 20
5.8872025038
 10
6.5116698359
 20
5.8146322934
 10
6.5130954148
 20
5.73715539
 10
6.5145351099
 20
5.6550370603
  0
LWPOLYLINE
  5
4CD
100
AcDbEntity
  8
02___PRT_ALL_AXES
100
AcDbPolyline
 62
7
  6
CONTINUOUS
 90
10
 70
0
 10
6.5772613938
 20
5.0292978795
 10
6.5758027547
 20
5.0518322946
 10
6.5743484327
 20
5.0867156225
 10
6.5729125231
 20
5.132506043
 10
6.5714860932
 20
5.1881020813
 10
6.5700565535
 20
5.2526409765
 10
6.5686178052
 20
5.3250052863
 10
6.5671848481
 20
5.4027905498
 10
6.5657458593
 20
5.4848190565
 10
6.5628315856
 20
5.6550370603
  0
LWPOLYLINE
  5
4CE
100
AcDbEntity
  8
02___PRT_ALL_AXES
100
AcDbPolyline
 62
7
  6
CONTINUOUS
 90
16
 70
0
 10
6.4884290638
 20
5.0292978795
 10
6.486956148
 20
5.0712009513
 10
6.4854832322
 20
5.1253442919
 10
6.4840103163
 20
5.1904009452
 10
6.4825374005
 20
5.2647764892
 10
6.4810644846
 20
5.3466481128
 10
6.4795915688
 20
5.4340092891
 10
6.4781186529
 20
5.5247189526
 10
6.4766457371
 20
5.6165539718
 10
6.4751728212
 20
5.7072636352
 10
6.4736999054
 20
5.7946248116
 10
6.4722269895
 20
5.8764964351
 10
6.4707540737
 20
5.9508719792
 10
6.4692811579
 20
6.0159286325
 10
6.467808242
 20
6.0700719731
 10
6.4663353262
 20
6.1119750449
  0
LWPOLYLINE
  5
4CF
100
AcDbEntity
  8
02___PRT_ALL_AXES
100
AcDbPolyline
 62
7
  6
CONTINUOUS
 90
16
 70
0
 10
6.4958109536
 20
5.0292978795
 10
6.4943380378
 20
5.0712009513
 10
6.4928651219
 20
5.1253442919
 10
6.4913922061
 20
5.1904009452
 10
6.4899192902
 20
5.2647764892
 10
6.4884463744
 20
5.3466481128
 10
6.4869734585
 20
5.4340092891
 10
6.4855005427
 20
5.5247189526
 10
6.4840276268
 20
5.6165539718
 10
6.482554711
 20
5.7072636352
 10
6.4810817952
 20
5.7946248116
 10
6.4796088793
 20
5.8764964351
 10
6.4781359635
 20
5.9508719792
 10
6.4766630476
 20
6.0159286325
 10
6.4751901318
 20
6.0700719731
 10
6.4737172159
 20
6.1119750449
  0
LWPOLYLINE
  5
4D0
100
AcDbEntity
  8
02___PRT_ALL_AXES
100
AcDbPolyline
 62
7
  6
CONTINUOUS
 90
16
 70
0
 10
6.547484182
 20
5.0292978795
 10
6.5460112661
 20
5.0712009513
 10
6.5445383503
 20
5.1253442919
 10
6.5430654344
 20
5.1904009452
 10
6.5415925186
 20
5.2647764892
 10
6.5401196027
 20
5.3466481128
 10
6.5386466869
 20
5.4340092891
 10
6.537173771
 20
5.5247189526
 10
6.5357008552
 20
5.6165539718
 10
6.5342279393
 20
5.7072636352
 10
6.5327550235
 20
5.7946248116
 10
6.5312821077
 20
5.8764964351
 10
6.5298091918
 20
5.9508719792
 10
6.528336276
 20
6.0159286325
 10
6.5268633601
 20
6.0700719731
 10
6.5253904443
 20
6.1119750449
  0
LWPOLYLINE
  5
4D1
100
AcDbEntity
  8
02___PRT_ALL_AXES
100
AcDbPolyline
 62
7
  6
CONTINUOUS
 90
16
 70
0
 10
6.5548660717
 20
5.0292978795
 10
6.5533931559
 20
5.0712009513
 10
6.55192024
 20
5.1253442919
 10
6.5504473242
 20
5.1904009452
 10
6.5489744083
 20
5.2647764892
 10
6.5475014925
 20
5.3466481128
 10
6.5460285766
 20
5.4340092891
 10
6.5445556608
 20
5.5247189526
 10
6.543082745
 20
5.6165539718
 10
6.5416098291
 20
5.7072636352
 10
6.5401369133
 20
5.7946248116
 10
6.5386639974
 20
5.8764964351
 10
6.5371910816
 20
5.9508719792
 10
6.5357181657
 20
6.0159286325
 10
6.5342452499
 20
6.0700719731
 10
6.532772334
 20
6.1119750449
  0
LWPOLYLINE
  5
4D2
100
AcDbEntity
  8
02___PRT_ALL_AXES
100
AcDbPolyline
 62
7
  6
CONTINUOUS
 90
16
 70
0
 10
6.6065393001
 20
5.0292978795
 10
6.6050663842
 20
5.0712009513
 10
6.6035934684
 20
5.1253442919
 10
6.6021205525
 20
5.1904009452
 10
6.6006476367
 20
5.2647764892
 10
6.5991747208
 20
5.3466481128
 10
6.597701805
 20
5.4340092891
 10
6.5962288891
 20
5.5247189526
 10
6.5947559733
 20
5.6165539718
 10
6.5932830575
 20
5.7072636352
 10
6.5918101416
 20
5.7946248116
 10
6.5903372258
 20
5.8764964351
 10
6.5888643099
 20
5.9508719792
 10
6.5873913941
 20
6.0159286325
 10
6.5859184782
 20
6.0700719731
 10
6.5844455624
 20
6.1119750449
  0
LWPOLYLINE
  5
4D3
100
AcDbEntity
  8
02___PRT_ALL_AXES
100
AcDbPolyline
 62
7
  6
CONTINUOUS
 90
9
 70
0
 10
6.5037974569
 20
5.6538204841
 10
6.5023615523
 20
5.7357695514
 10
6.5009205615
 20
5.8141395668
 10
6.499461283
 20
5.8876750307
 10
6.4979997998
 20
5.9536763555
 10
6.4965548783
 20
6.0098488272
 10
6.4951257288
 20
6.0552214397
 10
6.4936859419
 20
6.089622116
 10
6.4922364799
 20
6.1119750449
  0
LWPOLYLINE
  5
4D4
100
AcDbEntity
  8
02___PRT_ALL_AXES
100
AcDbPolyline
 62
7
  6
CONTINUOUS
 90
9
 70
0
 10
6.5628315856
 20
5.6550370603
 10
6.5613918906
 20
5.73715539
 10
6.5599663117
 20
5.8146322934
 10
6.5585262478
 20
5.8872025038
 10
6.5570783883
 20
5.9526854582
 10
6.5556412907
 20
6.0087376291
 10
6.5542044316
 20
6.0545608816
 10
6.5527502552
 20
6.0894402707
 10
6.551291598
 20
6.1119750449
  0
LWPOLYLINE
  5
4D5
100
AcDbEntity
  8
02___PRT_ALL_AXES
100
AcDbPolyline
 62
7
  6
CONTINUOUS
 90
10
 70
0
 10
6.4476252128
 20
5.4854221521
 10
6.4447069311
 20
5.6558725248
 10
6.4432656115
 20
5.7380519917
 10
6.4418347232
 20
5.8157544523
 10
6.4404056025
 20
5.8877020085
 10
6.4389698455
 20
5.9526138715
 10
6.4375365019
 20
6.0085437057
 10
6.4360982378
 20
6.0544473543
 10
6.4346420355
 20
6.0894003267
 10
6.4331813618
 20
6.1119750449
  0
LWPOLYLINE
  5
4D6
100
AcDbEntity
  8
02___PRT_ALL_AXES
100
AcDbPolyline
 62
7
  6
CONTINUOUS
 90
10
 70
0
 10
6.4555009812
 20
5.6538204841
 10
6.4583728443
 20
5.4860601546
 10
6.4598033921
 20
5.4044594242
 10
6.4612446842
 20
5.3261360589
 10
6.4627041529
 20
5.2526796146
 10
6.4641655179
 20
5.1867945625
 10
6.4656096813
 20
5.1307772707
 10
6.467043616
 20
5.0854084324
 10
6.4684752841
 20
5.0513562929
 10
6.4699097999
 20
5.0292978795
  0
LWPOLYLINE
  5
4D7
100
AcDbEntity
  8
02___PRT_ALL_AXES
100
AcDbPolyline
 62
7
  6
CONTINUOUS
 90
10
 70
0
 10
6.5145351099
 20
5.6550370603
 10
6.5174493835
 20
5.4848190565
 10
6.5188883723
 20
5.4027905498
 10
6.5203213294
 20
5.3250052863
 10
6.5217600777
 20
5.2526409765
 10
6.5231896175
 20
5.1881020813
 10
6.5246160474
 20
5.132506043
 10
6.5260519569
 20
5.0867156225
 10
6.5275062789
 20
5.0518322946
 10
6.528964918
 20
5.0292978795
  0
LWPOLYLINE
  5
4D8
100
AcDbEntity
  8
02___PRT_ALL_AXES
100
AcDbPolyline
 62
7
  6
CONTINUOUS
 90
10
 70
0
 10
6.5736055436
 20
5.6541493847
 10
6.576500428
 20
5.4850550396
 10
6.5779271894
 20
5.4037013414
 10
6.5793640511
 20
5.3256562884
 10
6.5808188189
 20
5.2524674581
 10
6.5822754298
 20
5.1868082108
 10
6.5837145982
 20
5.1309653204
 10
6.585147344
 20
5.0855895842
 10
6.5865873072
 20
5.0513211686
 10
6.5880200361
 20
5.0292978795
  0
LWPOLYLINE
  5
4D9
100
AcDbEntity
  8
02___PRT_ALL_AXES
100
AcDbPolyline
 62
7
  6
CONTINUOUS
 90
10
 70
0
 10
6.6363165119
 20
5.0292978795
 10
6.634883783
 20
5.0513211686
 10
6.6334438198
 20
5.0855895842
 10
6.632011074
 20
5.1309653204
 10
6.6305719056
 20
5.1868082108
 10
6.6291152946
 20
5.2524674581
 10
6.6276605268
 20
5.3256562884
 10
6.6262236652
 20
5.4037013414
 10
6.6247969038
 20
5.4850550396
 10
6.6219020194
 20
5.6541493847
  0
LWPOLYLINE
  5
4DA
100
AcDbEntity
  8
02___PRT_ALL_AXES
100
AcDbPolyline
 62
7
  6
CONTINUOUS
 90
10
 70
0
 10
6.6211053585
 20
6.1119750449
 10
6.6225386295
 20
6.0899411
 10
6.6239788763
 20
6.0556603379
 10
6.6254116684
 20
6.0102767604
 10
6.6268508578
 20
5.9544271248
 10
6.6283074601
 20
5.8887631119
 10
6.6297621238
 20
5.8155756451
 10
6.6311988764
 20
5.7375340666
 10
6.6326260688
 20
5.6561540273
 10
6.6355219395
 20
5.4870024741
  0
LWPOLYLINE
  5
4DB
100
AcDbEntity
  8
02___PRT_ALL_AXES
100
AcDbPolyline
 62
7
  6
CONTINUOUS
 90
9
 70
0
 10
6.5620502404
 20
6.1119750449
 10
6.5635075924
 20
6.0894661127
 10
6.5649605119
 20
6.0546327857
 10
6.5663957446
 20
6.0088866333
 10
6.567829423
 20
5.9530069086
 10
6.5692818147
 20
5.8873501242
 10
6.5707337377
 20
5.8141703046
 10
6.5721693828
 20
5.7361012979
 10
6.5736055436
 20
5.6541493847
  0
LWPOLYLINE
  5
4DC
100
AcDbEntity
  8
02___PRT_ALL_AXES
100
AcDbPolyline
 62
7
  6
CONTINUOUS
 90
9
 70
0
 10
6.69537163
 20
5.0292978795
 10
6.6939143467
 20
5.051805451
 10
6.6924614089
 20
5.0866387214
 10
6.6910262569
 20
5.1323816264
 10
6.6895934075
 20
5.1882254652
 10
6.6881417313
 20
5.2538423807
 10
6.6866901628
 20
5.326995822
 10
6.6852546061
 20
5.4050531211
 10
6.6838184153
 20
5.4870024741
  0
LWPOLYLINE
  5
4DD
100
AcDbEntity
  8
02___PRT_ALL_AXES
100
AcDbPolyline
 62
7
  6
CONTINUOUS
 90
10
 70
0
 10
6.6801604766
 20
6.1119750449
 10
6.6816190311
 20
6.0894423042
 10
6.6830731921
 20
6.0545641948
 10
6.6845089305
 20
6.008781707
 10
6.6859351351
 20
5.953197948
 10
6.6873649226
 20
5.8886508341
 10
6.6888039454
 20
5.8162739236
 10
6.6902369545
 20
5.7384861606
 10
6.6916758545
 20
5.6564629373
 10
6.694589918
 20
5.486257112
  0
LWPOLYLINE
  5
4DE
100
AcDbEntity
  8
02___PRT_ALL_AXES
100
AcDbPolyline
 62
7
  6
CONTINUOUS
 90
9
 70
0
 10
6.7544267481
 20
5.0292978795
 10
6.7529683511
 20
5.0518275005
 10
6.7515143027
 20
5.0867011453
 10
6.7500775818
 20
5.1325165628
 10
6.7486403793
 20
5.1885696486
 10
6.7471922093
 20
5.2540650911
 10
6.7457515782
 20
5.3266646197
 10
6.7443259563
 20
5.4041454429
 10
6.7428863938
 20
5.486257112
  0
LWPOLYLINE
  5
4DF
100
AcDbEntity
  8
02___PRT_ALL_AXES
100
AcDbPolyline
 62
7
  6
CONTINUOUS
 90
16
 70
0
 10
6.6139211898
 20
5.0292978795
 10
6.612448274
 20
5.0712009513
 10
6.6109753581
 20
5.1253442919
 10
6.6095024423
 20
5.1904009452
 10
6.6080295264
 20
5.2647764892
 10
6.6065566106
 20
5.3466481128
 10
6.6050836948
 20
5.4340092891
 10
6.6036107789
 20
5.5247189526
 10
6.6021378631
 20
5.6165539718
 10
6.6006649472
 20
5.7072636352
 10
6.5991920314
 20
5.7946248116
 10
6.5977191155
 20
5.8764964351
 10
6.5962461997
 20
5.9508719792
 10
6.5947732838
 20
6.0159286325
 10
6.593300368
 20
6.0700719731
 10
6.5918274522
 20
6.1119750449
  0
LWPOLYLINE
  5
4E0
100
AcDbEntity
  8
02___PRT_ALL_AXES
100
AcDbPolyline
 62
7
  6
CONTINUOUS
 90
16
 70
0
 10
6.6655944182
 20
5.0292978795
 10
6.6641215023
 20
5.0712009513
 10
6.6626485865
 20
5.1253442919
 10
6.6611756706
 20
5.1904009452
 10
6.6597027548
 20
5.2647764892
 10
6.6582298389
 20
5.3466481128
 10
6.6567569231
 20
5.4340092891
 10
6.6552840073
 20
5.5247189526
 10
6.6538110914
 20
5.6165539718
 10
6.6523381756
 20
5.7072636352
 10
6.6508652597
 20
5.7946248116
 10
6.6493923439
 20
5.8764964351
 10
6.647919428
 20
5.9508719792
 10
6.6464465122
 20
6.0159286325
 10
6.6449735963
 20
6.0700719731
 10
6.6435006805
 20
6.1119750449
  0
LWPOLYLINE
  5
4E1
100
AcDbEntity
  8
02___PRT_ALL_AXES
100
AcDbPolyline
 62
7
  6
CONTINUOUS
 90
7
 70
0
 10
6.6729763079
 20
5.0292978795
 10
6.6715033921
 20
5.0712009513
 10
6.6700304762
 20
5.1253442919
 10
6.6685575604
 20
5.1904009452
 10
6.6670846446
 20
5.2647764892
 10
6.6656117287
 20
5.3466481128
 10
6.6641388129
 20
5.4340092891
  0
LWPOLYLINE
  5
4E2
100
AcDbEntity
  8
02___PRT_ALL_AXES
100
AcDbPolyline
 62
7
  6
CONTINUOUS
 90
16
 70
0
 10
6.7246495363
 20
5.0292978795
 10
6.7231766204
 20
5.0712009513
 10
6.7217037046
 20
5.1253442919
 10
6.7202307887
 20
5.1904009452
 10
6.7187578729
 20
5.2647764892
 10
6.7172849571
 20
5.3466481128
 10
6.7158120412
 20
5.4340092891
 10
6.7143391254
 20
5.5247189526
 10
6.7128662095
 20
5.6165539718
 10
6.7113932937
 20
5.7072636352
 10
6.7099203778
 20
5.7946248116
 10
6.708447462
 20
5.8764964351
 10
6.7069745461
 20
5.9508719792
 10
6.7055016303
 20
6.0159286325
 10
6.7040287145
 20
6.0700719731
 10
6.7025557986
 20
6.1119750449
  0
LWPOLYLINE
  5
4E3
100
AcDbEntity
  8
02___PRT_ALL_AXES
100
AcDbPolyline
 62
7
  6
CONTINUOUS
 90
16
 70
0
 10
6.732031426
 20
5.0292978795
 10
6.7305585102
 20
5.0712009513
 10
6.7290855944
 20
5.1253442919
 10
6.7276126785
 20
5.1904009452
 10
6.7261397627
 20
5.2647764892
 10
6.7246668468
 20
5.3466481128
 10
6.723193931
 20
5.4340092891
 10
6.7217210151
 20
5.5247189526
 10
6.7202480993
 20
5.6165539718
 10
6.7187751834
 20
5.7072636352
 10
6.7173022676
 20
5.7946248116
 10
6.7158293518
 20
5.8764964351
 10
6.7143564359
 20
5.9508719792
 10
6.7128835201
 20
6.0159286325
 10
6.7114106042
 20
6.0700719731
 10
6.7099376884
 20
6.1119750449
  0
LWPOLYLINE
  5
4E4
100
AcDbEntity
  8
02___PRT_ALL_AXES
100
AcDbPolyline
 62
7
  6
CONTINUOUS
 90
9
 70
0
 10
6.6219020194
 20
5.6541493847
 10
6.6204658585
 20
5.7361012979
 10
6.6190302135
 20
5.8141703046
 10
6.6175782905
 20
5.8873501242
 10
6.6161258987
 20
5.9530069086
 10
6.6146922204
 20
6.0088866333
 10
6.6132569877
 20
6.0546327857
 10
6.6118040681
 20
6.0894661127
 10
6.6103467161
 20
6.1119750449
  0
LWPOLYLINE
  5
4E5
100
AcDbEntity
  8
02___PRT_ALL_AXES
100
AcDbPolyline
 62
7
  6
CONTINUOUS
 90
9
 70
0
 10
6.6355219395
 20
5.4870024741
 10
6.6369581304
 20
5.4050531211
 10
6.638393687
 20
5.326995822
 10
6.6398452555
 20
5.2538423807
 10
6.6412969317
 20
5.1882254652
 10
6.6427297811
 20
5.1323816264
 10
6.6441649332
 20
5.0866387214
 10
6.6456178709
 20
5.051805451
 10
6.6470751542
 20
5.0292978795
  0
LWPOLYLINE
  5
4E6
100
AcDbEntity
  8
02___PRT_ALL_AXES
100
AcDbPolyline
 62
7
  6
CONTINUOUS
 90
9
 70
0
 10
6.694589918
 20
5.486257112
 10
6.6960294805
 20
5.4041454429
 10
6.6974551025
 20
5.3266646197
 10
6.6988957336
 20
5.2540650911
 10
6.7003439035
 20
5.1885696486
 10
6.7017811061
 20
5.1325165628
 10
6.703217827
 20
5.0867011453
 10
6.7046718753
 20
5.0518275005
 10
6.7061302723
 20
5.0292978795
  0
LWPOLYLINE
  5
4E7
100
AcDbEntity
  8
02___PRT_ALL_AXES
100
AcDbPolyline
 62
7
  6
CONTINUOUS
 90
9
 70
0
 10
6.7536239642
 20
5.4874784838
 10
6.7550599129
 20
5.405526037
 10
6.7565008501
 20
5.3271574911
 10
6.7579600722
 20
5.2536226046
 10
6.7594214215
 20
5.1876239384
 10
6.7608661695
 20
5.1314532413
 10
6.7622952468
 20
5.0860764881
 10
6.7637355653
 20
5.0516579808
 10
6.7651853904
 20
5.0292978795
  0
LWPOLYLINE
  5
4E8
100
AcDbEntity
  8
02___PRT_ALL_AXES
100
AcDbPolyline
 62
7
  6
CONTINUOUS
 90
10
 70
0
 10
6.6838184153
 20
5.4870024741
 10
6.6809225446
 20
5.6561540273
 10
6.6794953522
 20
5.7375340666
 10
6.6780585996
 20
5.8155756451
 10
6.6766039359
 20
5.8887631119
 10
6.6751473336
 20
5.9544271248
 10
6.6737081442
 20
6.0102767604
 10
6.6722753521
 20
6.0556603379
 10
6.6708351053
 20
6.0899411
 10
6.6694018342
 20
6.1119750449
  0
LWPOLYLINE
  5
4E9
100
AcDbEntity
  8
02___PRT_ALL_AXES
100
AcDbPolyline
 62
7
  6
CONTINUOUS
 90
10
 70
0
 10
6.7428863938
 20
5.486257112
 10
6.7399723303
 20
5.6564629373
 10
6.7385334303
 20
5.7384861606
 10
6.7371004212
 20
5.8162739236
 10
6.7356613983
 20
5.8886508341
 10
6.7342316109
 20
5.953197948
 10
6.7328054063
 20
6.008781707
 10
6.7313696679
 20
6.0545641948
 10
6.7299155069
 20
6.0894423042
 10
6.7284569523
 20
6.1119750449
  0
LWPOLYLINE
  5
4EA
100
AcDbEntity
  8
02___PRT_ALL_AXES
100
AcDbPolyline
 62
7
  6
CONTINUOUS
 90
3
 70
0
 10
6.6641388129
 20
5.4340092891
 10
6.662665897
 20
5.5247189526
 10
6.6611929812
 20
5.6165539718
  0
LWPOLYLINE
  5
4EB
100
AcDbEntity
  8
02___PRT_ALL_AXES
100
AcDbPolyline
 62
7
  6
CONTINUOUS
 90
8
 70
0
 10
6.6611929812
 20
5.6165539718
 10
6.6597200653
 20
5.7072636352
 10
6.6582471495
 20
5.7946248116
 10
6.6567742336
 20
5.8764964351
 10
6.6553013178
 20
5.9508719792
 10
6.653828402
 20
6.0159286325
 10
6.6523554861
 20
6.0700719731
 10
6.6508825703
 20
6.1119750449
  0
LINE
  5
4EC
100
AcDbEntity
  8
02___PRT_ALL_AXES
100
AcDbLine
 62
7
  6
CONTINUOUS
 10
5.7182778643
 20
4.5863844937
 11
6.1907188092
 21
4.5863844937
  0
LWPOLYLINE
  5
4ED
100
AcDbEntity
  8
02___PRT_ALL_AXES
100
AcDbPolyline
 62
7
  6
CONTINUOUS
 90
10
 70
0
 10
6.7392155947
 20
6.1119750449
 10
6.7406497146
 20
6.0899244149
 10
6.7420815776
 20
6.0558700837
 10
6.7435155495
 20
6.0105014413
 10
6.7449596652
 20
5.954487261
 10
6.7464209591
 20
5.8886068414
 10
6.7478802764
 20
5.8151596723
 10
6.7493214034
 20
5.7368469966
 10
6.7507516976
 20
5.6552621752
 10
6.7536239642
 20
5.4874784838
  0
LWPOLYLINE
  5
4EE
100
AcDbEntity
  8
02___PRT_ALL_AXES
100
AcDbPolyline
 62
7
  6
CONTINUOUS
 90
10
 70
0
 10
6.9315921024
 20
5.0292978795
 10
6.9301575866
 20
5.0513562929
 10
6.9287259185
 20
5.0854084324
 10
6.9272919838
 20
5.1307772707
 10
6.9258478205
 20
5.1867945625
 10
6.9243864555
 20
5.2526796146
 10
6.9229269867
 20
5.3261360589
 10
6.9214856947
 20
5.4044594242
 10
6.9200551469
 20
5.4860601546
 10
6.9171832837
 20
5.6538204841
  0
LWPOLYLINE
  5
4EF
100
AcDbEntity
  8
02___PRT_ALL_AXES
100
AcDbPolyline
 62
7
  6
CONTINUOUS
 90
9
 70
0
 10
6.8134818662
 20
5.0292978795
 10
6.8120320411
 20
5.0516579808
 10
6.8105917226
 20
5.0860764881
 10
6.8091626453
 20
5.1314532413
 10
6.8077178973
 20
5.1876239384
 10
6.806256548
 20
5.2536226046
 10
6.8047973259
 20
5.3271574911
 10
6.8033563887
 20
5.405526037
 10
6.8019204399
 20
5.4874784838
  0
LWPOLYLINE
  5
4F0
100
AcDbEntity
  8
02___PRT_ALL_AXES
100
AcDbPolyline
 62
7
  6
CONTINUOUS
 90
9
 70
0
 10
6.8573258309
 20
6.1119750449
 10
6.8587752929
 20
6.089622116
 10
6.8602150798
 20
6.0552214397
 10
6.8616442293
 20
6.0098488273
 10
6.8630891508
 20
5.9536763555
 10
6.864550634
 20
5.8876750307
 10
6.8660099125
 20
5.8141395668
 10
6.8674509033
 20
5.7357695514
 10
6.8688868079
 20
5.6538204841
  0
LWPOLYLINE
  5
4F1
100
AcDbEntity
  8
02___PRT_ALL_AXES
100
AcDbPolyline
 62
7
  6
CONTINUOUS
 90
9
 70
0
 10
6.7982707128
 20
6.1119750449
 10
6.7997313865
 20
6.0894003267
 10
6.8011875888
 20
6.0544473543
 10
6.8026258529
 20
6.0085437057
 10
6.8040591965
 20
5.9526138715
 10
6.8054949535
 20
5.8877020085
 10
6.8069240742
 20
5.8157544523
 10
6.8083549625
 20
5.7380519917
 10
6.8097962821
 20
5.6558725248
  0
LWPOLYLINE
  5
4F2
100
AcDbEntity
  8
02___PRT_ALL_AXES
100
AcDbPolyline
 62
7
  6
CONTINUOUS
 90
9
 70
0
 10
6.8725369843
 20
5.0292978795
 10
6.8710763321
 20
5.0518721731
 10
6.8696200725
 20
5.0868265752
 10
6.8681817429
 20
5.1327328286
 10
6.866748228
 20
5.1886705785
 10
6.8653120907
 20
5.2536022342
 10
6.8638830311
 20
5.3255495587
 10
6.8624523011
 20
5.4032451587
 10
6.8610110396
 20
5.4854221521
  0
LWPOLYLINE
  5
4F3
100
AcDbEntity
  8
02___PRT_ALL_AXES
100
AcDbPolyline
 62
7
  6
CONTINUOUS
 90
16
 70
0
 10
6.7837046544
 20
5.0292978795
 10
6.7822317385
 20
5.0712009513
 10
6.7807588227
 20
5.1253442919
 10
6.7792859069
 20
5.1904009452
 10
6.777812991
 20
5.2647764892
 10
6.7763400752
 20
5.3466481128
 10
6.7748671593
 20
5.4340092891
 10
6.7733942435
 20
5.5247189526
 10
6.7719213276
 20
5.6165539718
 10
6.7704484118
 20
5.7072636352
 10
6.7689754959
 20
5.7946248116
 10
6.7675025801
 20
5.8764964351
 10
6.7660296643
 20
5.9508719792
 10
6.7645567484
 20
6.0159286325
 10
6.7630838326
 20
6.0700719731
 10
6.7616109167
 20
6.1119750449
  0
LWPOLYLINE
  5
4F4
100
AcDbEntity
  8
02___PRT_ALL_AXES
100
AcDbPolyline
 62
7
  6
CONTINUOUS
 90
16
 70
0
 10
6.7910865442
 20
5.0292978795
 10
6.7896136283
 20
5.0712009513
 10
6.7881407125
 20
5.1253442919
 10
6.7866677966
 20
5.1904009452
 10
6.7851948808
 20
5.2647764892
 10
6.7837219649
 20
5.3466481128
 10
6.7822490491
 20
5.4340092891
 10
6.7807761332
 20
5.5247189526
 10
6.7793032174
 20
5.6165539718
 10
6.7778303016
 20
5.7072636352
 10
6.7763573857
 20
5.7946248116
 10
6.7748844699
 20
5.8764964351
 10
6.773411554
 20
5.9508719792
 10
6.7719386382
 20
6.0159286325
 10
6.7704657223
 20
6.0700719731
 10
6.7689928065
 20
6.1119750449
  0
LWPOLYLINE
  5
4F5
100
AcDbEntity
  8
02___PRT_ALL_AXES
100
AcDbPolyline
 62
7
  6
CONTINUOUS
 90
16
 70
0
 10
6.8427597725
 20
5.0292978795
 10
6.8412868567
 20
5.0712009513
 10
6.8398139408
 20
5.1253442919
 10
6.838341025
 20
5.1904009452
 10
6.8368681091
 20
5.2647764892
 10
6.8353951933
 20
5.3466481128
 10
6.8339222774
 20
5.4340092891
 10
6.8324493616
 20
5.5247189526
 10
6.8309764457
 20
5.6165539718
 10
6.8295035299
 20
5.7072636352
 10
6.8280306141
 20
5.7946248116
 10
6.8265576982
 20
5.8764964351
 10
6.8250847824
 20
5.9508719792
 10
6.8236118665
 20
6.0159286325
 10
6.8221389507
 20
6.0700719731
 10
6.8206660348
 20
6.1119750449
  0
LWPOLYLINE
  5
4F6
100
AcDbEntity
  8
02___PRT_ALL_AXES
100
AcDbPolyline
 62
7
  6
CONTINUOUS
 90
16
 70
0
 10
6.8501416623
 20
5.0292978795
 10
6.8486687464
 20
5.0712009513
 10
6.8471958306
 20
5.1253442919
 10
6.8457229147
 20
5.1904009452
 10
6.8442499989
 20
5.2647764892
 10
6.842777083
 20
5.3466481128
 10
6.8413041672
 20
5.4340092891
 10
6.8398312514
 20
5.5247189526
 10
6.8383583355
 20
5.6165539718
 10
6.8368854197
 20
5.7072636352
 10
6.8354125038
 20
5.7946248116
 10
6.833939588
 20
5.8764964351
 10
6.8324666721
 20
5.9508719792
 10
6.8309937563
 20
6.0159286325
 10
6.8295208404
 20
6.0700719731
 10
6.8280479246
 20
6.1119750449
  0
LWPOLYLINE
  5
4F7
100
AcDbEntity
  8
02___PRT_ALL_AXES
100
AcDbPolyline
 62
7
  6
CONTINUOUS
 90
16
 70
0
 10
6.9018148906
 20
5.0292978795
 10
6.9003419748
 20
5.0712009513
 10
6.8988690589
 20
5.1253442919
 10
6.8973961431
 20
5.1904009452
 10
6.8959232272
 20
5.2647764892
 10
6.8944503114
 20
5.3466481128
 10
6.8929773955
 20
5.4340092891
 10
6.8915044797
 20
5.5247189526
 10
6.8900315639
 20
5.6165539718
 10
6.888558648
 20
5.7072636352
 10
6.8870857322
 20
5.7946248116
 10
6.8856128163
 20
5.8764964351
 10
6.8841399005
 20
5.9508719792
 10
6.8826669846
 20
6.0159286325
 10
6.8811940688
 20
6.0700719731
 10
6.8797211529
 20
6.1119750449
  0
LWPOLYLINE
  5
4F8
100
AcDbEntity
  8
02___PRT_ALL_AXES
100
AcDbPolyline
 62
7
  6
CONTINUOUS
 90
16
 70
0
 10
6.9091967804
 20
5.0292978795
 10
6.9077238645
 20
5.0712009513
 10
6.9062509487
 20
5.1253442919
 10
6.9047780328
 20
5.1904009452
 10
6.903305117
 20
5.2647764892
 10
6.9018322012
 20
5.3466481128
 10
6.9003592853
 20
5.4340092891
 10
6.8988863695
 20
5.5247189526
 10
6.8974134536
 20
5.6165539718
 10
6.8959405378
 20
5.7072636352
 10
6.8944676219
 20
5.7946248116
 10
6.8929947061
 20
5.8764964351
 10
6.8915217902
 20
5.9508719792
 10
6.8900488744
 20
6.0159286325
 10
6.8885759586
 20
6.0700719731
 10
6.8871030427
 20
6.1119750449
  0
LWPOLYLINE
  5
4F9
100
AcDbEntity
  8
02___PRT_ALL_AXES
100
AcDbPolyline
 62
7
  6
CONTINUOUS
 90
10
 70
0
 10
6.8019204399
 20
5.4874784838
 10
6.7990481734
 20
5.6552621752
 10
6.7976178791
 20
5.7368469966
 10
6.7961767522
 20
5.8151596723
 10
6.7947174349
 20
5.8886068414
 10
6.793256141
 20
5.954487261
 10
6.7918120253
 20
6.0105014413
 10
6.7903780533
 20
6.0558700837
 10
6.7889461904
 20
6.0899244149
 10
6.7875120705
 20
6.1119750449
  0
LWPOLYLINE
  5
4FA
100
AcDbEntity
  8
02___PRT_ALL_AXES
100
AcDbPolyline
 62
7
  6
CONTINUOUS
 90
10
 70
0
 10
6.8097962821
 20
5.6558725248
 10
6.8127145638
 20
5.4854221521
 10
6.8141558253
 20
5.4032451587
 10
6.8155865553
 20
5.3255495587
 10
6.8170156149
 20
5.2536022342
 10
6.8184517522
 20
5.1886705785
 10
6.8198852671
 20
5.1327328286
 10
6.8213235967
 20
5.0868265752
 10
6.8227798563
 20
5.0518721731
 10
6.8242405085
 20
5.0292978795
  0
LWPOLYLINE
  5
4FB
100
AcDbEntity
  8
02___PRT_ALL_AXES
100
AcDbPolyline
 62
7
  6
CONTINUOUS
 90
10
 70
0
 10
6.8610110396
 20
5.4854221521
 10
6.8580927578
 20
5.6558725248
 10
6.8566514382
 20
5.7380519917
 10
6.85522055
 20
5.8157544523
 10
6.8537914293
 20
5.8877020085
 10
6.8523556723
 20
5.9526138715
 10
6.8509223287
 20
6.0085437057
 10
6.8494840646
 20
6.0544473543
 10
6.8480278622
 20
6.0894003267
 10
6.8465671886
 20
6.1119750449
  0
LWPOLYLINE
  5
4FC
100
AcDbEntity
  8
02___PRT_ALL_AXES
100
AcDbPolyline
 62
7
  6
CONTINUOUS
 90
10
 70
0
 10
6.8688868079
 20
5.6538204841
 10
6.8717586711
 20
5.4860601546
 10
6.8731892189
 20
5.4044594242
 10
6.8746305109
 20
5.3261360589
 10
6.8760899797
 20
5.2526796146
 10
6.8775513447
 20
5.1867945625
 10
6.878995508
 20
5.1307772707
 10
6.8804294427
 20
5.0854084324
 10
6.8818611108
 20
5.0513562929
 10
6.8832956266
 20
5.0292978795
  0
LINE
  5
4FD
100
AcDbEntity
  8
02___PRT_ALL_AXES
100
AcDbLine
 62
7
  6
CONTINUOUS
 10
5.5983014863
 20
4.7322112253
 11
5.7182778643
 21
4.7322112253
  0
LINE
  5
4FE
100
AcDbEntity
  8
02___PRT_ALL_AXES
100
AcDbLine
 62
7
  6
CONTINUOUS
 10
5.5983014863
 20
4.7772266743
 11
5.7182778643
 21
4.7772266743
  0
LWPOLYLINE
  5
4FF
100
AcDbEntity
  8
02___PRT_ALL_AXES
100
AcDbPolyline
 62
7
  6
CONTINUOUS
 90
9
 70
0
 10
6.9171832837
 20
5.6538204841
 10
6.9157473791
 20
5.7357695514
 10
6.9143063883
 20
5.8141395668
 10
6.9128471098
 20
5.8876750307
 10
6.9113856265
 20
5.9536763555
 10
6.9099407051
 20
6.0098488273
 10
6.9085115556
 20
6.0552214397
 10
6.9070717686
 20
6.089622116
 10
6.9056223067
 20
6.1119750449
  0
LINE
  5
500
100
AcDbEntity
  8
0
100
AcDbLine
 62
9
  6
CONTINUOUS
 10
6.978120384
 20
5.0292978795
 11
6.978120384
 21
6.1119750449
  0
LINE
  5
501
100
AcDbEntity
  8
0
100
AcDbLine
 62
7
  6
CONTINUOUS
 10
7.0174904627
 20
5.0686679582
 11
7.0174904627
 21
6.0726049661
  0
LINE
  5
502
100
AcDbEntity
  8
0
100
AcDbLine
 62
7
  6
CONTINUOUS
 10
7.0593014863
 20
5.3095070354
 11
7.0593014863
 21
5.831765889
  0
LINE
  5
503
100
AcDbEntity
  8
02___PRT_ALL_AXES
100
AcDbLine
 62
7
  6
CONTINUOUS
 10
5.5983014863
 20
4.9049090832
 11
5.7182778643
 21
4.9049090832
  0
LINE
  5
504
100
AcDbEntity
  8
0
100
AcDbLine
 62
7
  6
CONTINUOUS
 10
6.2694589667
 20
5.0292978795
 11
6.3517995637
 21
5.0292978795
  0
LINE
  5
505
100
AcDbEntity
  8
02___PRT_ALL_AXES
100
AcDbLine
 62
7
  6
CONTINUOUS
 10
6.3517995637
 20
5.0292978795
 11
6.9315921024
 21
5.0292978795
  0
LINE
  5
506
100
AcDbEntity
  8
0
100
AcDbLine
 62
7
  6
CONTINUOUS
 10
6.9315921024
 20
5.0292978795
 11
6.978120384
 21
5.0292978795
  0
LINE
  5
507
100
AcDbEntity
  8
02___PRT_ALL_AXES
100
AcDbLine
 62
7
  6
CONTINUOUS
 10
5.5983014863
 20
5.1017594769
 11
5.7182778643
 21
5.1017594769
  0
LINE
  5
508
100
AcDbEntity
  8
02___PRT_ALL_AXES
100
AcDbLine
 62
7
  6
CONTINUOUS
 10
5.5983014863
 20
5.1022114653
 11
5.7182778643
 21
5.1022114653
  0
LINE
  5
509
100
AcDbEntity
  8
02___PRT_ALL_AXES
100
AcDbLine
 62
7
  6
CONTINUOUS
 10
5.5983014863
 20
5.299061859
 11
5.7182778643
 21
5.299061859
  0
LINE
  5
50A
100
AcDbEntity
  8
02___PRT_ALL_AXES
100
AcDbLine
 62
7
  6
CONTINUOUS
 10
5.5983014863
 20
5.3432111853
 11
5.7182778643
 21
5.3432111853
  0
LINE
  5
50B
100
AcDbEntity
  8
0
100
AcDbLine
 62
7
  6
CONTINUOUS
 10
7.0174904627
 20
5.2853643699
 11
7.0593014863
 21
5.3095039756
  0
LINE
  5
50C
100
AcDbEntity
  8
AXIS_COSMETIC_THREADS
100
AcDbLine
 62
7
  6
CONTINUOUS
 10
7.0593014863
 20
5.4541364622
 11
9.5844195966
 21
5.4541364622
  0
LINE
  5
50D
100
AcDbEntity
  8
AXIS
100
AcDbLine
 62
7
  6
CONTINUOUS
 10
9.5844195966
 20
5.5056364622
 11
9.8844195966
 21
5.5056364622
  0
LINE
  5
50E
100
AcDbEntity
  8
02___PRT_ALL_AXES
100
AcDbLine
 62
7
  6
CONTINUOUS
 10
5.5983014863
 20
5.540061579
 11
5.7182778643
 21
5.540061579
  0
LINE
  5
50F
100
AcDbEntity
  8
AXIS
100
AcDbLine
 62
7
  6
CONTINUOUS
 10
9.5844195966
 20
5.5556364622
 11
9.8844195966
 21
5.5556364622
  0
LINE
  5
510
100
AcDbEntity
  8
AXIS_COSMETIC_THREADS
100
AcDbLine
 62
7
  6
CENTER
 10
9.6844195966
 20
5.5706364622
 11
5.4486706811
 21
5.5706364622
  0
LINE
  5
511
100
AcDbEntity
  8
AXIS
100
AcDbLine
 62
7
  6
CONTINUOUS
 10
9.5844195966
 20
5.5856364622
 11
9.8844195966
 21
5.5856364622
  0
LINE
  5
512
100
AcDbEntity
  8
0
100
AcDbLine
 62
7
  6
CONTINUOUS
 10
7.0174904627
 20
5.8559085545
 11
7.0593014863
 21
5.8317689487
  0
LINE
  5
513
100
AcDbEntity
  8
02___PRT_ALL_AXES
100
AcDbLine
 62
7
  6
CONTINUOUS
 10
5.5983014863
 20
5.6002111853
 11
5.7182778643
 21
5.6002111853
  0
LINE
  5
514
100
AcDbEntity
  8
AXIS
100
AcDbLine
 62
7
  6
CONTINUOUS
 10
9.5844195966
 20
5.6356364622
 11
9.8844195966
 21
5.6356364622
  0
LINE
  5
515
100
AcDbEntity
  8
AXIS_COSMETIC_THREADS
100
AcDbLine
 62
7
  6
CONTINUOUS
 10
7.0593014863
 20
5.6871364622
 11
9.5844195966
 21
5.6871364622
  0
LINE
  5
516
100
AcDbEntity
  8
02___PRT_ALL_AXES
100
AcDbLine
 62
7
  6
CONTINUOUS
 10
5.5983014863
 20
5.797061579
 11
5.7182778643
 21
5.797061579
  0
LINE
  5
517
100
AcDbEntity
  8
02___PRT_ALL_AXES
100
AcDbLine
 62
7
  6
CONTINUOUS
 10
5.5983014863
 20
5.8422114253
 11
5.7182778643
 21
5.8422114253
  0
LINE
  5
518
100
AcDbEntity
  8
02___PRT_ALL_AXES
100
AcDbLine
 62
7
  6
CONTINUOUS
 10
5.5983014863
 20
6.039061819
 11
5.7182778643
 21
6.039061819
  0
LINE
  5
519
100
AcDbEntity
  8
0
100
AcDbLine
 62
7
  6
CONTINUOUS
 10
6.2694589667
 20
6.1119750449
 11
6.3258297679
 21
6.1119750449
  0
LINE
  5
51A
100
AcDbEntity
  8
02___PRT_ALL_AXES
100
AcDbLine
 62
7
  6
CONTINUOUS
 10
6.3258297679
 20
6.1119750449
 11
6.9056223067
 21
6.1119750449
  0
LINE
  5
51B
100
AcDbEntity
  8
0
100
AcDbLine
 62
7
  6
CONTINUOUS
 10
6.9056223067
 20
6.1119750449
 11
6.978120384
 21
6.1119750449
  0
LINE
  5
51C
100
AcDbEntity
  8
02___PRT_ALL_AXES
100
AcDbLine
 62
7
  6
CONTINUOUS
 10
5.5983014863
 20
6.2353643112
 11
5.7182778643
 21
6.2353643112
  0
LINE
  5
51D
100
AcDbEntity
  8
02___PRT_ALL_AXES
100
AcDbLine
 62
7
  6
CONTINUOUS
 10
5.5983014863
 20
6.3640464501
 11
5.7182778643
 21
6.3640464501
  0
LINE
  5
51E
100
AcDbEntity
  8
02___PRT_ALL_AXES
100
AcDbLine
 62
7
  6
CONTINUOUS
 10
5.5983014863
 20
6.409061659
 11
5.7182778643
 21
6.409061659
  0
LINE
  5
51F
100
AcDbEntity
  8
02___PRT_ALL_AXES
100
AcDbLine
 62
7
  6
CONTINUOUS
 10
5.7182778643
 20
6.5548884307
 11
6.1907188092
 21
6.5548884307
  0
LINE
  5
520
100
AcDbEntity
  8
AXIS_COSMETIC_THREADS
100
AcDbLine
 62
7
  6
CONTINUOUS
 10
9.5844195966
 20
5.6871364622
 11
9.5844195966
 21
5.4541364622
  0
LINE
  5
521
100
AcDbEntity
  8
AXIS
100
AcDbLine
 62
7
  6
CONTINUOUS
 10
9.8844195966
 20
5.6356364622
 11
9.8844195966
 21
5.5856364622
  0
LINE
  5
522
100
AcDbEntity
  8
AXIS
100
AcDbLine
 62
7
  6
CONTINUOUS
 10
9.8844195966
 20
5.5556364622
 11
9.8844195966
 21
5.5056364622
  0
LWPOLYLINE
  5
523
100
AcDbEntity
  8
02___PRT_ALL_AXES
100
AcDbPolyline
 62
7
  6
CONTINUOUS
 90
3
 70
0
 10
11.0860642015
 20
5.8764964351
 10
11.1399339445
 20
5.9508719792
 10
11.2047514006
 20
6.0159286325
  0
LINE
  5
524
100
AcDbEntity
  8
02___PRT_ALL_AXES
100
AcDbLine
 62
7
  6
CONTINUOUS
 10
11.2047514006
 20
6.0159286325
 11
11.2789280103
 21
6.0700719731
  0
LINE
  5
525
100
AcDbEntity
  8
02___PRT_ALL_AXES
100
AcDbLine
 62
7
  6
CONTINUOUS
 10
11.2789280103
 20
6.0700719731
 11
11.3606458378
 21
6.1119750449
  0
LINE
  5
526
100
AcDbEntity
  8
0
100
AcDbLine
 62
9
  6
CONTINUOUS
 10
11.4792605331
 20
4.9899278008
 11
11.6939989606
 21
4.9899278008
  0
LINE
  5
527
100
AcDbEntity
  8
02___PRT_ALL_AXES
100
AcDbLine
 62
7
  6
CONTINUOUS
 10
11.3606458378
 20
5.0292978795
 11
11.2789280103
 21
5.0712009513
  0
LINE
  5
528
100
AcDbEntity
  8
02___PRT_ALL_AXES
100
AcDbLine
 62
7
  6
CONTINUOUS
 10
11.2789280103
 20
5.0712009513
 11
11.2047514006
 21
5.1253442919
  0
LWPOLYLINE
  5
529
100
AcDbEntity
  8
02___PRT_ALL_AXES
100
AcDbPolyline
 62
7
  6
CONTINUOUS
 90
4
 70
0
 10
11.2047514006
 20
5.1253442919
 10
11.1399339445
 20
5.1904009452
 10
11.0860642015
 20
5.2647764892
 10
11.0444624225
 20
5.3466481128
  0
LWPOLYLINE
  5
52A
100
AcDbEntity
  8
02___PRT_ALL_AXES
100
AcDbPolyline
 62
7
  6
CONTINUOUS
 90
7
 70
0
 10
11.0444624225
 20
5.3466481128
 10
11.0161481925
 20
5.4340092891
 10
11.0018154425
 20
5.5247189526
 10
11.0018154425
 20
5.6165539718
 10
11.0161481925
 20
5.7072636352
 10
11.0444624225
 20
5.7946248116
 10
11.0860642015
 20
5.8764964351
  0
LINE
  5
52B
100
AcDbEntity
  8
02___PRT_ALL_AXES
100
AcDbLine
 62
7
  6
CONTINUOUS
 10
11.3606458378
 20
5.0292978795
 11
11.4829323674
 21
5.0292978795
  0
LINE
  5
52C
100
AcDbEntity
  8
0
100
AcDbLine
 62
7
  6
CONTINUOUS
 10
11.4829323674
 20
5.0292978795
 11
11.6903271263
 21
5.0292978795
  0
LINE
  5
52D
100
AcDbEntity
  8
02___PRT_ALL_AXES
100
AcDbLine
 62
7
  6
CONTINUOUS
 10
11.6903271263
 20
5.0292978795
 11
11.8126136559
 21
5.0292978795
  0
LINE
  5
52E
100
AcDbEntity
  8
0
100
AcDbLine
 62
9
  6
CONTINUOUS
 10
11.4867390818
 20
5.0686679582
 11
11.6865204118
 21
5.0686679582
  0
LWPOLYLINE
  5
52F
100
AcDbEntity
  8
0
100
AcDbPolyline
 62
7
  6
CONTINUOUS
 90
20
 70
0
 10
11.5973988104
 20
5.1353820388
 10
11.5278645887
 20
5.1424349531
 10
11.4607847056
 20
5.1604690199
 10
11.3975799368
 20
5.1890574542
 10
11.3404881316
 20
5.2270434844
 10
11.2902730263
 20
5.2737990001
 10
11.2487177442
 20
5.3275749001
 10
11.2166274919
 20
5.3870605984
 10
11.1947376865
 20
5.4507621499
 10
11.1836505662
 20
5.5164852829
 10
11.1834572234
 20
5.5830678565
 10
11.1940768433
 20
5.6481490025
 10
11.2151296511
 20
5.7103120473
 10
11.2459606241
 20
5.7678559083
 10
11.2855227495
 20
5.8191042617
 10
11.3328127265
 20
5.8629370933
 10
11.3863045766
 20
5.8980699254
 10
11.4444239346
 20
5.9236521664
 10
11.5056868026
 20
5.9391506413
 10
11.5681332768
 20
5.9441945706
  0
LWPOLYLINE
  5
530
100
AcDbEntity
  8
0
100
AcDbPolyline
 62
7
  6
CONTINUOUS
 90
4
 70
0
 10
11.4836513441
 20
6.1044264147
 10
11.4844883545
 20
6.0957046954
 10
11.4855505726
 20
6.084738775
 10
11.4867390818
 20
6.0726049661
  0
LWPOLYLINE
  5
531
100
AcDbEntity
  8
0
100
AcDbPolyline
 62
7
  6
CONTINUOUS
 90
6
 70
0
 10
11.4792605331
 20
6.1513451236
 10
11.4803791858
 20
6.1392056341
 10
11.481399994
 20
6.1282388874
 10
11.4822187204
 20
6.1195196539
 10
11.4827487869
 20
6.1139108972
 10
11.4836513441
 20
6.1044264147
  0
LINE
  5
532
100
AcDbEntity
  8
02___PRT_ALL_AXES
100
AcDbLine
 62
7
  6
CENTER
 10
11.5866297468
 20
5.5706364622
 11
11.5866297468
 21
4.4863844937
  0
LINE
  5
533
100
AcDbEntity
  8
02___PRT_ALL_AXES
100
AcDbLine
 62
7
  6
CENTER
 10
11.5866297468
 20
5.5706364622
 11
11.5866297468
 21
6.6548884307
  0
LWPOLYLINE
  5
534
100
AcDbEntity
  8
0
100
AcDbPolyline
 62
7
  6
CONTINUOUS
 90
4
 70
0
 10
11.4822187204
 20
5.0217532705
 10
11.481399994
 20
5.013034037
 10
11.4803791858
 20
5.0020672902
 10
11.4792605331
 20
4.9899278008
  0
LWPOLYLINE
  5
535
100
AcDbEntity
  8
0
100
AcDbPolyline
 62
7
  6
CONTINUOUS
 90
6
 70
0
 10
11.4822187204
 20
5.0217532705
 10
11.4831163846
 20
5.031234901
 10
11.4836513441
 20
5.0368465097
 10
11.4844883545
 20
5.045568229
 10
11.4855505726
 20
5.0565341493
 10
11.4867390818
 20
5.0686679582
  0
LINE
  5
536
100
AcDbEntity
  8
02___PRT_ALL_AXES
100
AcDbLine
 62
7
  6
CENTER
 10
11.5866297468
 20
5.5706364622
 11
10.5023777783
 21
5.5706364622
  0
LINE
  5
537
100
AcDbEntity
  8
02___PRT_ALL_AXES
100
AcDbLine
 62
7
  6
CENTER
 10
11.5866297468
 20
5.5706364622
 11
12.6708817153
 21
5.5706364622
  0
LWPOLYLINE
  5
538
100
AcDbEntity
  8
0
100
AcDbPolyline
 62
7
  6
CONTINUOUS
 90
4
 70
0
 10
11.6896081495
 20
5.0368465097
 10
11.6887711392
 20
5.045568229
 10
11.6877089211
 20
5.0565341493
 10
11.6865204118
 20
5.0686679582
  0
LWPOLYLINE
  5
539
100
AcDbEntity
  8
0
100
AcDbPolyline
 62
7
  6
CONTINUOUS
 90
6
 70
0
 10
11.6896081495
 20
5.0368465097
 10
11.6905107068
 20
5.0273620272
 10
11.6910407732
 20
5.0217532705
 10
11.6918594997
 20
5.013034037
 10
11.6928803079
 20
5.0020672902
 10
11.6939989606
 20
4.9899278008
  0
LWPOLYLINE
  5
53A
100
AcDbEntity
  8
0
100
AcDbPolyline
 62
7
  6
CONTINUOUS
 90
4
 70
0
 10
11.6910407732
 20
6.1195196539
 10
11.6918594997
 20
6.1282388874
 10
11.6928803079
 20
6.1392056341
 10
11.6939989606
 20
6.1513451236
  0
LWPOLYLINE
  5
53B
100
AcDbEntity
  8
0
100
AcDbPolyline
 62
7
  6
CONTINUOUS
 90
6
 70
0
 10
11.6910407732
 20
6.1195196539
 10
11.6901431091
 20
6.1100380234
 10
11.6896081495
 20
6.1044264147
 10
11.6887711392
 20
6.0957046954
 10
11.6877089211
 20
6.084738775
 10
11.6865204118
 20
6.0726049661
  0
LWPOLYLINE
  5
53C
100
AcDbEntity
  8
0
100
AcDbPolyline
 62
7
  6
CONTINUOUS
 90
20
 70
0
 10
11.5866297468
 20
5.9446522102
 10
11.6492930002
 20
5.942697625
 10
11.7113999612
 20
5.9301959336
 10
11.7706053946
 20
5.9075335765
 10
11.825906392
 20
5.8749722755
 10
11.875112424
 20
5.8336596087
 10
11.9172407757
 20
5.7843064105
 10
11.9508561597
 20
5.7283341586
 10
11.9748887868
 20
5.6674020434
 10
11.9887268671
 20
5.6027385383
 10
11.9917950486
 20
5.5365146214
 10
11.983937905
 20
5.4701280665
 10
11.9652379756
 20
5.405531142
 10
11.9361513804
 20
5.3445881192
 10
11.8972402334
 20
5.2887414027
 10
11.8495794778
 20
5.2397389857
 10
11.7943319684
 20
5.1988817788
 10
11.7326984751
 20
5.1672331212
 10
11.6666444761
 20
5.1458993132
 10
11.5973988104
 20
5.1353820388
  0
LINE
  5
53D
100
AcDbEntity
  8
0
100
AcDbLine
 62
9
  6
CONTINUOUS
 10
11.6865204118
 20
6.0726049661
 11
11.4867390818
 21
6.0726049661
  0
LINE
  5
53E
100
AcDbEntity
  8
02___PRT_ALL_AXES
100
AcDbLine
 62
7
  6
CONTINUOUS
 10
11.8126136559
 20
6.1119750449
 11
11.6903271263
 21
6.1119750449
  0
LINE
  5
53F
100
AcDbEntity
  8
0
100
AcDbLine
 62
7
  6
CONTINUOUS
 10
11.6903271263
 20
6.1119750449
 11
11.4829323674
 21
6.1119750449
  0
LINE
  5
540
100
AcDbEntity
  8
02___PRT_ALL_AXES
100
AcDbLine
 62
7
  6
CONTINUOUS
 10
11.4829323674
 20
6.1119750449
 11
11.3606458378
 21
6.1119750449
  0
LWPOLYLINE
  5
541
100
AcDbEntity
  8
02___PRT_ALL_AXES
100
AcDbPolyline
 62
7
  6
CONTINUOUS
 90
3
 70
0
 10
12.0333255492
 20
5.1904009452
 10
11.9685080931
 20
5.1253442919
 10
11.8943314834
 20
5.0712009513
  0
LINE
  5
542
100
AcDbEntity
  8
02___PRT_ALL_AXES
100
AcDbLine
 62
7
  6
CONTINUOUS
 10
11.8943314834
 20
5.0712009513
 11
11.8126136559
 21
5.0292978795
  0
LINE
  5
543
100
AcDbEntity
  8
0
100
AcDbLine
 62
9
  6
CONTINUOUS
 10
11.6939989606
 20
6.1513451236
 11
11.4792605331
 21
6.1513451236
  0
LINE
  5
544
100
AcDbEntity
  8
02___PRT_ALL_AXES
100
AcDbLine
 62
7
  6
CONTINUOUS
 10
11.8126136559
 20
6.1119750449
 11
11.8943314834
 21
6.0700719731
  0
LINE
  5
545
100
AcDbEntity
  8
02___PRT_ALL_AXES
100
AcDbLine
 62
7
  6
CONTINUOUS
 10
11.8943314834
 20
6.0700719731
 11
11.9685080931
 21
6.0159286325
  0
LWPOLYLINE
  5
546
100
AcDbEntity
  8
02___PRT_ALL_AXES
100
AcDbPolyline
 62
7
  6
CONTINUOUS
 90
11
 70
0
 10
11.9685080931
 20
6.0159286325
 10
12.0333255492
 20
5.9508719792
 10
12.0871952922
 20
5.8764964351
 10
12.1287970712
 20
5.7946248116
 10
12.1571113012
 20
5.7072636352
 10
12.1714440512
 20
5.6165539718
 10
12.1714440512
 20
5.5247189526
 10
12.1571113012
 20
5.4340092891
 10
12.1287970712
 20
5.3466481128
 10
12.0871952922
 20
5.2647764892
 10
12.0333255492
 20
5.1904009452
  0
LWPOLYLINE
  5
547
100
AcDbEntity
  8
02___PRT_ALL_AXES
100
AcDbPolyline
 62
7
  6
CONTINUOUS
 90
17
 70
0
 10
14.4487273502
 20
9.3983032708
 10
14.4608069872
 20
9.4042163778
 10
14.4733667523
 20
9.4083728076
 10
14.485620818
 20
9.4107156584
 10
14.4974394939
 20
9.4114883484
 10
14.5089287575
 20
9.4108742413
 10
14.5200892596
 20
9.4089649839
 10
14.5311005217
 20
9.4057352442
 10
14.5423133556
 20
9.4009194202
 10
14.5529449992
 20
9.3946851281
 10
14.5632747748
 20
9.3866772686
 10
14.5728615492
 20
9.3768941974
 10
14.5806650504
 20
9.3663939687
 10
14.5872562593
 20
9.354417496
 10
14.5921971195
 20
9.3414027994
 10
14.5952531518
 20
9.32781627
 10
14.5963649252
 20
9.3130644227
  0
LWPOLYLINE
  5
548
100
AcDbEntity
  8
02___PRT_ALL_AXES
100
AcDbPolyline
 62
7
  6
CONTINUOUS
 90
17
 70
0
 10
14.267001353
 20
9.2933846049
 10
14.2790809899
 20
9.2992977119
 10
14.291640755
 20
9.3034541417
 10
14.3038948207
 20
9.3057969925
 10
14.3157134966
 20
9.3065696825
 10
14.3272027602
 20
9.3059555754
 10
14.3383632623
 20
9.3040463181
 10
14.3493745245
 20
9.3008165783
 10
14.3605873583
 20
9.2960007543
 10
14.3712190019
 20
9.2897664622
 10
14.3815487775
 20
9.2817586027
 10
14.3911355519
 20
9.2719755315
 10
14.3989390531
 20
9.2614753028
 10
14.405530262
 20
9.2494988302
 10
14.4104711222
 20
9.2364841335
 10
14.4135271545
 20
9.2228976041
 10
14.4146389279
 20
9.2081457568
  0
LWPOLYLINE
  5
549
100
AcDbEntity
  8
02___PRT_ALL_AXES
100
AcDbPolyline
 62
7
  6
CONTINUOUS
 90
3
 70
0
 10
14.4061088643
 20
9.3477242274
 10
14.3583662769
 20
9.330722463
 10
14.303672893
 20
9.3057545622
  0
LINE
  5
54A
100
AcDbEntity
  8
0
100
AcDbLine
 62
7
  6
CONTINUOUS
 10
14.2177885342
 20
9.1849032794
 11
14.2008459536
 21
9.1719981738
  0
LINE
  5
54B
100
AcDbEntity
  8
AXIS
100
AcDbLine
 62
7
  6
CONTINUOUS
 10
14.2177885342
 20
9.1842950377
 11
14.1990366157
 21
9.1718007505
  0
LWPOLYLINE
  5
54C
100
AcDbEntity
  8
02___PRT_ALL_AXES
100
AcDbPolyline
 62
7
  6
CONTINUOUS
 90
9
 70
0
 10
14.2454910856
 20
9.2764036636
 10
14.1876497491
 20
9.2430091518
 10
14.1166590077
 20
9.1911735391
 10
14.0565714735
 20
9.1349302433
 10
14.0081997272
 20
9.0750398585
 10
13.9721979137
 20
9.0123122995
 10
13.9490528959
 20
8.9475958488
 10
13.9390776703
 20
8.8817656854
 10
13.9386637766
 20
8.8652546576
  0
LWPOLYLINE
  5
54D
100
AcDbEntity
  8
0
100
AcDbPolyline
 62
7
  6
CONTINUOUS
 90
10
 70
0
 10
14.2186815476
 20
9.2203175452
 10
14.2180882916
 20
9.2199750345
 10
14.140878061
 20
9.1611640058
 10
14.0782845084
 20
9.0968265743
 10
14.0314529133
 20
9.0281257387
 10
14.0012894204
 20
8.9563580864
 10
13.9883794186
 20
8.8829864669
 10
13.9928955486
 20
8.8093680436
 10
14.0148064774
 20
8.7366075019
 10
14.0538977277
 20
8.6659864606
  0
LWPOLYLINE
  5
54E
100
AcDbEntity
  8
02___PRT_ALL_AXES
100
AcDbPolyline
 62
9
  6
CONTINUOUS
 90
16
 70
0
 10
14.5675371422
 20
9.2728832461
 10
14.5551326618
 20
9.2668176056
 10
14.5411681072
 20
9.2620134577
 10
14.5260243951
 20
9.2586018471
 10
14.5101146066
 20
9.2566758335
 10
14.4938727191
 20
9.2562879537
 10
14.477741769
 20
9.257448788
 10
14.4621617665
 20
9.2601266717
 10
14.4475576937
 20
9.2642485594
 10
14.4343279113
 20
9.2697020165
 10
14.4228332936
 20
9.276338287
 10
14.4133873836
 20
9.2839763508
 10
14.4062478411
 20
9.2924078613
 10
14.4016094143
 20
9.301402829
 10
14.3995986273
 20
9.3107158946
 10
14.3995145315
 20
9.3130644227
  0
LINE
  5
54F
100
AcDbEntity
  8
0
100
AcDbLine
 62
7
  6
CONTINUOUS
 10
14.3999054764
 20
9.3121710436
 11
14.3615985148
 21
9.295407822
  0
LINE
  5
550
100
AcDbEntity
  8
0
100
AcDbLine
 62
7
  6
CONTINUOUS
 10
14.3995145315
 20
9.2816997683
 11
14.3869810657
 21
9.2762150841
  0
LINE
  5
551
100
AcDbEntity
  8
AXIS
100
AcDbLine
 62
7
  6
CONTINUOUS
 10
14.3995145315
 20
9.2815642052
 11
14.3864789353
 21
9.2767274961
  0
LWPOLYLINE
  5
552
100
AcDbEntity
  8
AXIS
100
AcDbPolyline
 62
7
  6
CONTINUOUS
 90
5
 70
0
 10
14.1112684526
 20
9.0919986082
 10
14.06527105
 20
9.0338479282
 10
14.0284769447
 20
8.9615005392
 10
14.0098909856
 20
8.886866379
 10
14.0075679453
 20
8.8491677799
  0
LWPOLYLINE
  5
553
100
AcDbEntity
  8
0
100
AcDbPolyline
 62
7
  6
CONTINUOUS
 90
4
 70
0
 10
14.1111277074
 20
9.0913595424
 10
14.0960678307
 20
9.0758802192
 10
14.0502220701
 20
9.0086264909
 10
14.0206930718
 20
8.9383705649
  0
LWPOLYLINE
  5
554
100
AcDbEntity
  8
02___PRT_ALL_AXES
100
AcDbPolyline
 62
9
  6
CONTINUOUS
 90
6
 70
0
 10
14.385811145
 20
9.1679645802
 10
14.3963171894
 20
9.1751262585
 10
14.4046382203
 20
9.1831886225
 10
14.4105472616
 20
9.1919317522
 10
14.4138831301
 20
9.2011171576
 10
14.4146389279
 20
9.2081457568
  0
LWPOLYLINE
  5
555
100
AcDbEntity
  8
02___PRT_ALL_AXES
100
AcDbPolyline
 62
9
  6
CONTINUOUS
 90
6
 70
0
 10
14.5675371422
 20
9.2728832461
 10
14.5780431867
 20
9.2800449244
 10
14.5863642176
 20
9.2881072884
 10
14.5922732589
 20
9.2968504181
 10
14.5956091274
 20
9.3060358235
 10
14.5963649252
 20
9.3130644227
  0
LWPOLYLINE
  5
556
100
AcDbEntity
  8
02___PRT_ALL_AXES
100
AcDbPolyline
 62
9
  6
CONTINUOUS
 90
16
 70
0
 10
14.385811145
 20
9.1679645802
 10
14.3734066645
 20
9.1618989397
 10
14.3594421099
 20
9.1570947918
 10
14.3442983978
 20
9.1536831812
 10
14.3283886093
 20
9.1517571676
 10
14.3121467218
 20
9.1513692878
 10
14.2960157717
 20
9.1525301221
 10
14.2804357693
 20
9.1552080058
 10
14.2658316964
 20
9.1593298935
 10
14.2526019141
 20
9.1647833506
 10
14.2411072963
 20
9.1714196211
 10
14.2316613863
 20
9.1790576849
 10
14.2245218438
 20
9.1874891955
 10
14.219883417
 20
9.1964841631
 10
14.21787263
 20
9.2057972287
 10
14.2177885342
 20
9.2081457568
  0
LWPOLYLINE
  5
557
100
AcDbEntity
  8
AXIS
100
AcDbPolyline
 62
7
  6
CONTINUOUS
 90
9
 70
0
 10
14.567537112
 20
9.1588493438
 10
14.548859125
 20
9.1504008708
 10
14.527221886
 20
9.1447785762
 10
14.5038828727
 20
9.1423092074
 10
14.4801984636
 20
9.1431362751
 10
14.4575451107
 20
9.1472117132
 10
14.4372393443
 20
9.1542986721
 10
14.4204612618
 20
9.1639852833
 10
14.4146389279
 20
9.1695457948
  0
LWPOLYLINE
  5
558
100
AcDbEntity
  8
AXIS
100
AcDbPolyline
 62
7
  6
CONTINUOUS
 90
5
 70
0
 10
14.3858111147
 20
9.0539306779
 10
14.3671331277
 20
9.0454822049
 10
14.3454958887
 20
9.0398599103
 10
14.3221568754
 20
9.0373905415
 10
14.3062398673
 20
9.0379463689
  0
LWPOLYLINE
  5
559
100
AcDbEntity
  8
AXIS_COSMETIC_THREADS
100
AcDbPolyline
 62
7
  6
CONTINUOUS
 90
5
 70
0
 10
14.9636264016
 20
5.6455071253
 10
14.9476777004
 20
5.6428034134
 10
14.9312248689
 20
5.6414376358
 10
14.9146028392
 20
5.6414375959
 10
14.898149988
 20
5.6428032944
  0
LWPOLYLINE
  5
55A
100
AcDbEntity
  8
AXIS_COSMETIC_THREADS
100
AcDbPolyline
 62
7
  6
CONTINUOUS
 90
4
 70
0
 10
14.898149988
 20
5.6428032944
 10
14.8822012478
 20
5.6455069296
 10
14.867081289
 20
5.6494934633
 10
14.8530979104
 20
5.6546817413
  0
LWPOLYLINE
  5
55B
100
AcDbEntity
  8
AXIS_COSMETIC_THREADS
100
AcDbPolyline
 62
7
  6
CONTINUOUS
 90
8
 70
0
 10
14.8530979104
 20
5.6546817413
 10
14.8405357732
 20
5.6609661451
 10
14.8296506064
 20
5.6682187424
 10
14.8206640004
 20
5.6762918911
 10
14.8137588968
 20
5.6850212454
 10
14.8090758635
 20
5.6942291007
 10
14.8067102335
 20
5.7037280116
 10
14.8064145037
 20
5.7085265895
  0
LWPOLYLINE
  5
55C
100
AcDbEntity
  8
02___PRT_ALL_AXES
100
AcDbPolyline
 62
7
  6
CONTINUOUS
 90
20
 70
0
 10
14.1185358201
 20
9.1153910484
 10
14.1260227939
 20
9.1287071058
 10
14.1360550366
 20
9.1413219183
 10
14.1497269873
 20
9.1534132193
 10
14.1638404664
 20
9.1620122878
 10
14.1775129057
 20
9.1676013479
 10
14.1908294227
 20
9.1709052343
 10
14.2034923502
 20
9.1722869317
 10
14.2155959061
 20
9.1720738202
 10
14.2272735316
 20
9.1704391838
 10
14.2389899288
 20
9.1673141866
 10
14.249946371
 20
9.16290858
 10
14.2611662349
 20
9.1566678109
 10
14.2717624972
 20
9.1487777729
 10
14.2814482828
 20
9.1392683289
 10
14.2895345287
 20
9.1288145415
 10
14.2968809218
 20
9.1158460924
 10
14.3017632618
 20
9.1033025827
 10
14.3050479702
 20
9.0892277314
 10
14.3062398673
 20
9.0739566875
  0
LINE
  5
55D
100
AcDbEntity
  8
AXIS
100
AcDbLine
 62
7
  6
CONTINUOUS
 10
14.2940272715
 20
8.9325072354
 11
14.2842214536
 21
8.9246486739
  0
LWPOLYLINE
  5
55E
100
AcDbEntity
  8
AXIS
100
AcDbPolyline
 62
7
  6
CONTINUOUS
 90
3
 70
0
 10
14.8486672318
 20
5.4533696241
 10
14.8432478793
 20
5.4580521918
 10
14.8413448278
 20
5.4635757264
  0
LWPOLYLINE
  5
55F
100
AcDbEntity
  8
AXIS
100
AcDbPolyline
 62
7
  6
CONTINUOUS
 90
3
 70
0
 10
14.9052360098
 20
5.4207103637
 10
14.8998166573
 20
5.4253929314
 10
14.8979136058
 20
5.430916466
  0
LWPOLYLINE
  5
560
100
AcDbEntity
  8
02___PRT_ALL_AXES
100
AcDbPolyline
 62
9
  6
CONTINUOUS
 90
9
 70
0
 10
14.3028862161
 20
9.0592495234
 10
14.2973966948
 20
9.0504157107
 10
14.2894636093
 20
9.0422240346
 10
14.2793033537
 20
9.0348979425
 10
14.2671930731
 20
9.0286372711
 10
14.2534631045
 20
9.0236127953
 10
14.2384879656
 20
9.0199615696
 10
14.2226761392
 20
9.01778319
 10
14.2203248114
 20
9.0176895103
  0
LINE
  5
561
100
AcDbEntity
  8
AXIS
100
AcDbLine
 62
7
  6
CONTINUOUS
 10
14.3028861859
 20
8.9452156211
 11
14.2940272715
 21
8.9325072354
  0
LWPOLYLINE
  5
562
100
AcDbEntity
  8
AXIS
100
AcDbPolyline
 62
7
  6
CONTINUOUS
 90
7
 70
0
 10
15.4948846281
 20
9.1023533196
 10
15.4865655427
 20
9.0994498032
 10
15.4639122485
 20
9.0953742562
 10
15.4402278514
 20
9.0945470746
 10
15.4168888025
 20
9.0970163312
 10
15.3952514823
 20
9.1026385218
 10
15.3765733735
 20
9.111086905
  0
LWPOLYLINE
  5
563
100
AcDbEntity
  8
AXIS
100
AcDbPolyline
 62
7
  6
CONTINUOUS
 90
3
 70
0
 10
14.9618043168
 20
5.453369896
 10
14.9563849643
 20
5.4580524637
 10
14.9544819127
 20
5.4635759983
  0
LWPOLYLINE
  5
564
100
AcDbEntity
  8
02___PRT_ALL_AXES
100
AcDbPolyline
 62
9
  6
CONTINUOUS
 90
8
 70
0
 10
15.651289103
 20
9.097887771
 10
15.655531763
 20
9.0995696013
 10
15.6672355112
 20
9.1060828932
 10
15.6769227594
 20
9.1136195287
 10
15.6843292647
 20
9.1219739281
 10
15.6892529969
 20
9.1309182051
 10
15.6915596496
 20
9.1402083832
 10
15.6917350218
 20
9.1435990745
  0
LWPOLYLINE
  5
565
100
AcDbEntity
  8
0
100
AcDbPolyline
 62
7
  6
CONTINUOUS
 90
3
 70
0
 10
14.0206930718
 20
8.9383705649
 10
14.0080539858
 20
8.866544371
 10
14.0075590395
 20
8.8491661131
  0
LWPOLYLINE
  5
566
100
AcDbEntity
  8
02___PRT_ALL_AXES
100
AcDbPolyline
 62
9
  6
CONTINUOUS
 90
3
 70
0
 10
14.3028862161
 20
9.0592495234
 10
14.3057824335
 20
9.0684845091
 10
14.3062398673
 20
9.0739566875
  0
LWPOLYLINE
  5
567
100
AcDbEntity
  8
0
100
AcDbPolyline
 62
9
  6
CONTINUOUS
 90
8
 70
0
 10
13.9386614017
 20
8.4794914849
 10
13.9391327936
 20
8.4619065669
 10
13.9523619534
 20
8.3850084723
 10
13.9837215084
 20
8.3095227563
 10
14.0318067593
 20
8.2381922578
 10
14.0926100774
 20
8.1743464962
 10
14.160093941
 20
8.1203966066
 10
14.2269450265
 20
8.0776763729
  0
LINE
  5
568
100
AcDbEntity
  8
02___PRT_ALL_AXES
100
AcDbLine
 62
7
  6
CONTINUOUS
 10
13.9386614017
 20
8.8652406584
 11
13.9386614017
 21
8.4794914849
  0
LWPOLYLINE
  5
569
100
AcDbEntity
  8
02___PRT_ALL_AXES
100
AcDbPolyline
 62
7
  6
CONTINUOUS
 90
4
 70
0
 10
14.1093894736
 20
9.0739566875
 10
14.1104130828
 20
9.0881147277
 10
14.1134769578
 20
9.1020265172
 10
14.1185358201
 20
9.1153910484
  0
LWPOLYLINE
  5
56A
100
AcDbEntity
  8
02___PRT_ALL_AXES
100
AcDbPolyline
 62
7
  6
CONTINUOUS
 90
22
 70
0
 10
14.0873710599
 20
8.9255751535
 10
14.0885360116
 20
8.940673633
 10
14.0922328913
 20
8.9561270113
 10
14.0984815763
 20
8.9710027437
 10
14.1083807115
 20
8.9863563407
 10
14.1194181002
 20
8.9982488055
 10
14.1336598251
 20
9.009057558
 10
14.1475278277
 20
9.0162561697
 10
14.1606043638
 20
9.0207218187
 10
14.1733710849
 20
9.0232129253
 10
14.1855554267
 20
9.0240000557
 10
14.1971782791
 20
9.0233400191
 10
14.2086274907
 20
9.0213157099
 10
14.2194645128
 20
9.018062817
 10
14.2303450665
 20
9.0133414507
 10
14.2412095929
 20
9.00691937
 10
14.2511890976
 20
8.9991366635
 10
14.2602628534
 20
8.9899354314
 10
14.2688229183
 20
8.9784343329
 10
14.2749178502
 20
8.9673466864
 10
14.2798672862
 20
8.9545261605
 10
14.2831103556
 20
8.9403225449
  0
LINE
  5
56B
100
AcDbEntity
  8
AXIS
100
AcDbLine
 62
7
  6
CONTINUOUS
 10
14.3062391077
 20
8.9599142801
 11
14.3028861859
 21
8.9452156211
  0
LWPOLYLINE
  5
56C
100
AcDbEntity
  8
AXIS
100
AcDbPolyline
 62
7
  6
CONTINUOUS
 90
4
 70
0
 10
14.414459351
 20
9.0906810825
 10
14.410182412
 20
9.0772064689
 10
14.400444353
 20
9.064714335
 10
14.3858111147
 20
9.0539306779
  0
LWPOLYLINE
  5
56D
100
AcDbEntity
  8
02___PRT_ALL_AXES
100
AcDbPolyline
 62
7
  6
CONTINUOUS
 90
17
 70
0
 10
15.4796933012
 20
8.803088169
 10
15.4917729382
 20
8.809001276
 10
15.5043327033
 20
8.8131577058
 10
15.516586769
 20
8.8155005566
 10
15.5284054449
 20
8.8162732466
 10
15.5398947085
 20
8.8156591396
 10
15.5510552105
 20
8.8137498822
 10
15.5620664727
 20
8.8105201425
 10
15.5732793066
 20
8.8057043185
 10
15.5839109502
 20
8.7994700264
 10
15.5942407258
 20
8.7914621669
 10
15.6038275002
 20
8.7816790956
 10
15.6116310014
 20
8.7711788669
 10
15.6182222103
 20
8.7592023943
 10
15.6231630705
 20
8.7461876977
 10
15.6262191028
 20
8.7326011683
 10
15.6273308762
 20
8.717849321
  0
LWPOLYLINE
  5
56E
100
AcDbEntity
  8
02___PRT_ALL_AXES
100
AcDbPolyline
 62
7
  6
CONTINUOUS
 90
17
 70
0
 10
15.2979674736
 20
8.6981695031
 10
15.3100471106
 20
8.7040826102
 10
15.3226068757
 20
8.7082390399
 10
15.3348609414
 20
8.7105818907
 10
15.3466796173
 20
8.7113545807
 10
15.3581688809
 20
8.7107404737
 10
15.3693293829
 20
8.7088312163
 10
15.3803406451
 20
8.7056014766
 10
15.391553479
 20
8.7007856526
 10
15.4021851226
 20
8.6945513605
 10
15.4125148982
 20
8.686543501
 10
15.4221016726
 20
8.6767604297
 10
15.4299051738
 20
8.666260201
 10
15.4364963827
 20
8.6542837284
 10
15.4414372429
 20
8.6412690318
 10
15.4444932752
 20
8.6276825024
 10
15.4456050486
 20
8.6129306551
  0
LWPOLYLINE
  5
56F
100
AcDbEntity
  8
0
100
AcDbPolyline
 62
7
  6
CONTINUOUS
 90
3
 70
0
 10
14.0075590395
 20
8.8491661131
 10
14.0124739956
 20
8.7944763846
 10
14.0339223577
 20
8.7232480968
  0
LWPOLYLINE
  5
570
100
AcDbEntity
  8
02___PRT_ALL_AXES
100
AcDbPolyline
 62
7
  6
CONTINUOUS
 90
8
 70
0
 10
13.9386637766
 20
8.8652546576
 10
13.9424071348
 20
8.8157120494
 10
13.9589962641
 20
8.7503282029
 10
13.9886207187
 20
8.6864983502
 10
14.0308798786
 20
8.6250856805
 10
14.0852022613
 20
8.566920695
 10
14.1508532496
 20
8.5127899752
 10
14.2269450265
 20
8.4634255463
  0
LINE
  5
571
100
AcDbEntity
  8
AXIS
100
AcDbLine
 62
7
  6
CONTINUOUS
 10
14.087745603
 20
8.8065883903
 11
14.0873811064
 21
8.8115912834
  0
LINE
  5
572
100
AcDbEntity
  8
AXIS
100
AcDbLine
 62
7
  6
CONTINUOUS
 10
14.0075679453
 20
8.8491677799
 11
14.0098915294
 21
8.811464784
  0
LINE
  5
573
100
AcDbEntity
  8
02___PRT_ALL_AXES
100
AcDbLine
 62
7
  6
CONTINUOUS
 10
14.0873710599
 20
8.9255751535
 11
14.0873710599
 21
8.8115912834
  0
LINE
  5
574
100
AcDbEntity
  8
02___PRT_ALL_AXES
100
AcDbLine
 62
7
  6
CONTINUOUS
 10
14.1093894736
 20
9.0739566875
 11
14.1093894736
 21
8.9874432525
  0
LINE
  5
575
100
AcDbEntity
  8
02___PRT_ALL_AXES
100
AcDbLine
 62
7
  6
CONTINUOUS
 10
14.1540919096
 20
8.7828042679
 11
14.1540919096
 21
8.6687831924
  0
LWPOLYLINE
  5
576
100
AcDbEntity
  8
02___PRT_ALL_AXES
100
AcDbPolyline
 62
9
  6
CONTINUOUS
 90
8
 70
0
 10
14.2842214536
 20
8.9255751535
 10
14.2839216101
 20
8.9211429707
 10
14.281319736
 20
8.9118788254
 10
14.2761122304
 20
8.9029882802
 10
14.2684411404
 20
8.8947138461
 10
14.2585157135
 20
8.8872812279
 10
14.2466066894
 20
8.8808931683
 10
14.2465136924
 20
8.8808577369
  0
LWPOLYLINE
  5
577
100
AcDbEntity
  8
02___PRT_ALL_AXES
100
AcDbPolyline
 62
7
  6
CONTINUOUS
 90
8
 70
0
 10
14.2177885342
 20
9.2081457568
 10
14.2188424647
 20
9.2225108486
 10
14.2220352423
 20
9.2367452607
 10
14.2273458266
 20
9.2504543249
 10
14.2347138697
 20
9.2633299209
 10
14.2439724922
 20
9.274994263
 10
14.2549315651
 20
9.2851653356
 10
14.267001353
 20
9.2933846049
  0
LWPOLYLINE
  5
578
100
AcDbEntity
  8
02___PRT_ALL_AXES
100
AcDbPolyline
 62
7
  6
CONTINUOUS
 90
18
 70
0
 10
14.1540919096
 20
8.7828042679
 10
14.1553184955
 20
8.7982945682
 10
14.1590569083
 20
8.8136702805
 10
14.1656528322
 20
8.8290872804
 10
14.175044841
 20
8.8435131426
 10
14.1869805076
 20
8.8562377316
 10
14.2001355881
 20
8.8661331099
 10
14.2143589696
 20
8.8735317498
 10
14.2276849
 20
8.8780454402
 10
14.2402744855
 20
8.8804650974
 10
14.2524198405
 20
8.8812294167
 10
14.2641922221
 20
8.8805345654
 10
14.2757780939
 20
8.8784413206
 10
14.2867457567
 20
8.8750860043
 10
14.2978002552
 20
8.8701939458
 10
14.3093770796
 20
8.8631439395
 10
14.3191263433
 20
8.8552661816
 10
14.3290862485
 20
8.8446483126
  0
LWPOLYLINE
  5
579
100
AcDbEntity
  8
AXIS
100
AcDbPolyline
 62
7
  6
CONTINUOUS
 90
4
 70
0
 10
14.5961853483
 20
9.1955997484
 10
14.5919084093
 20
9.1821251348
 10
14.5821703503
 20
9.1696330008
 10
14.567537112
 20
9.1588493438
  0
LWPOLYLINE
  5
57A
100
AcDbEntity
  8
AXIS
100
AcDbPolyline
 62
7
  6
CONTINUOUS
 90
6
 70
0
 10
14.8290976683
 20
9.2562538305
 10
14.8238844291
 20
9.2428895718
 10
14.8132830207
 20
9.2306339517
 10
14.7979095584
 20
9.2201992224
 10
14.7786574919
 20
9.2121918123
 10
14.7566456814
 20
9.207077083
  0
LINE
  5
57B
100
AcDbEntity
  8
AXIS
100
AcDbLine
 62
7
  6
CONTINUOUS
 10
15.7391113811
 20
8.8521468608
 11
15.7364373235
 21
8.8505177845
  0
LWPOLYLINE
  5
57C
100
AcDbEntity
  8
AXIS
100
AcDbPolyline
 62
7
  6
CONTINUOUS
 90
9
 70
0
 10
15.598503063
 20
8.5636342421
 10
15.579825076
 20
8.555185769
 10
15.558187837
 20
8.5495634744
 10
15.5348488237
 20
8.5470941056
 10
15.5111644146
 20
8.5479211734
 10
15.4885110616
 20
8.5519966115
 10
15.4682052953
 20
8.5590835703
 10
15.4514272128
 20
8.5687701816
 10
15.4456050486
 20
8.574330531
  0
LWPOLYLINE
  5
57D
100
AcDbEntity
  8
02___PRT_ALL_AXES
100
AcDbPolyline
 62
9
  6
CONTINUOUS
 90
4
 70
0
 10
14.1540919096
 20
8.7828042679
 10
14.1546406283
 20
8.7768122919
 10
14.15768379
 20
8.7675930701
 10
14.1633137573
 20
8.7587887701
  0
LINE
  5
57E
100
AcDbEntity
  8
02___PRT_ALL_AXES
100
AcDbLine
 62
9
  6
CONTINUOUS
 10
14.0873710599
 20
8.9255751535
 11
14.0877456332
 21
8.9206222926
  0
LINE
  5
57F
100
AcDbEntity
  8
02___PRT_ALL_AXES
100
AcDbLine
 62
7
  6
CONTINUOUS
 10
14.2177885342
 20
9.2081457568
 11
14.2177885342
 21
9.1717668957
  0
LINE
  5
580
100
AcDbEntity
  8
02___PRT_ALL_AXES
100
AcDbLine
 62
7
  6
CONTINUOUS
 10
14.2842214536
 20
8.9255751535
 11
14.2842214536
 21
8.8758582596
  0
LINE
  5
581
100
AcDbEntity
  8
02___PRT_ALL_AXES
100
AcDbLine
 62
7
  6
CONTINUOUS
 10
14.3012312773
 20
8.6611009871
 11
14.3012312773
 21
8.547054509
  0
LINE
  5
582
100
AcDbEntity
  8
02___PRT_ALL_AXES
100
AcDbLine
 62
7
  6
CONTINUOUS
 10
14.3062398673
 20
9.0739566875
 11
14.3062398673
 21
8.9599142801
  0
LINE
  5
583
100
AcDbEntity
  8
AXIS
100
AcDbLine
 62
7
  6
CONTINUOUS
 10
14.414634497
 20
9.0940992782
 11
14.414459351
 21
9.0906810825
  0
LWPOLYLINE
  5
584
100
AcDbEntity
  8
02___PRT_ALL_AXES
100
AcDbPolyline
 62
9
  6
CONTINUOUS
 90
18
 70
0
 10
14.3509423033
 20
8.7828042679
 10
14.350766931
 20
8.7794135766
 10
14.3484602784
 20
8.7701233986
 10
14.3435365461
 20
8.7611791216
 10
14.3361300408
 20
8.7528247222
 10
14.3264427926
 20
8.7452880866
 10
14.3147390444
 20
8.7387747947
 10
14.3013380439
 20
8.7334625121
 10
14.2866053356
 20
8.7294961439
 10
14.2709427892
 20
8.7269838824
 10
14.2547776382
 20
8.7259942555
 10
14.2385508258
 20
8.7265542576
 10
14.2227049771
 20
8.7286486134
 10
14.2076723256
 20
8.7322201943
 10
14.1938629228
 20
8.7371715768
 10
14.1816534532
 20
8.7433677002
 10
14.1713769594
 20
8.7506395503
 10
14.1633137573
 20
8.7587887701
  0
LINE
  5
585
100
AcDbEntity
  8
02___PRT_ALL_AXES
100
AcDbLine
 62
7
  6
CONTINUOUS
 10
14.337763894
 20
8.0068552725
 11
14.336299197
 21
7.9862548797
  0
LINE
  5
586
100
AcDbEntity
  8
02___PRT_ALL_AXES
100
AcDbLine
 62
7
  6
CONTINUOUS
 10
14.337763894
 20
7.9586366258
 11
14.336299197
 21
7.938036233
  0
LINE
  5
587
100
AcDbEntity
  8
02___PRT_ALL_AXES
100
AcDbLine
 62
7
  6
CONTINUOUS
 10
14.337763894
 20
7.9104179791
 11
14.336299197
 21
7.8898175863
  0
LWPOLYLINE
  5
588
100
AcDbEntity
  8
02___PRT_ALL_AXES
100
AcDbPolyline
 62
7
  6
CONTINUOUS
 90
8
 70
0
 10
14.3995145315
 20
9.3130644227
 10
14.400568462
 20
9.3274295145
 10
14.4037612396
 20
9.3416639266
 10
14.4090718239
 20
9.3553729908
 10
14.416439867
 20
9.3682485868
 10
14.4256984895
 20
9.3799129289
 10
14.4366575624
 20
9.3900840015
 10
14.4487273502
 20
9.3983032708
  0
LWPOLYLINE
  5
589
100
AcDbEntity
  8
02___PRT_ALL_AXES
100
AcDbPolyline
 62
7
  6
CONTINUOUS
 90
15
 70
0
 10
14.3012312773
 20
8.6611009871
 10
14.3025358208
 20
8.6770727766
 10
14.3064233156
 20
8.6926461536
 10
14.3134593347
 20
8.7086149064
 10
14.3227352503
 20
8.7225065626
 10
14.3354432186
 20
8.7356943997
 10
14.3494567352
 20
8.7457621092
 10
14.3633974007
 20
8.7526039869
 10
14.3766471025
 20
8.7567988878
 10
14.3894028822
 20
8.7589906353
 10
14.4017705711
 20
8.7595034768
 10
14.4137614637
 20
8.7585102713
 10
14.4254283942
 20
8.7560921841
 10
14.4370033094
 20
8.7521654328
 10
14.4488682376
 20
8.74634019
  0
LWPOLYLINE
  5
58A
100
AcDbEntity
  8
AXIS
100
AcDbPolyline
 62
7
  6
CONTINUOUS
 90
11
 70
0
 10
14.4980772393
 20
8.5470796607
 10
14.4964695008
 20
8.5368243248
 10
14.489410534
 20
8.5237455923
 10
14.4771353857
 20
8.5120222202
 10
14.4603574429
 20
8.5023355283
 10
14.4400517788
 20
8.4952484718
 10
14.4173984846
 20
8.4911729248
 10
14.3937140875
 20
8.4903457432
 10
14.3703750385
 20
8.4928149998
 10
14.3487377184
 20
8.4984371904
 10
14.3300596096
 20
8.5068855736
  0
LINE
  5
58B
100
AcDbEntity
  8
0
100
AcDbLine
 62
7
  6
CONTINUOUS
 10
15.5373973955
 20
8.4583450575
 11
15.5840943866
 21
8.4835298743
  0
LWPOLYLINE
  5
58C
100
AcDbEntity
  8
AXIS
100
AcDbPolyline
 62
7
  6
CONTINUOUS
 90
10
 70
0
 10
15.4167772354
 20
8.4587155762
 10
15.3980992484
 20
8.4502671031
 10
15.3764620094
 20
8.4446448085
 10
15.3531229961
 20
8.4421754397
 10
15.329438587
 20
8.4430025075
 10
15.3067852341
 20
8.4470779456
 10
15.2864794677
 20
8.4541649044
 10
15.2697013852
 20
8.4638515157
 10
15.2574260679
 20
8.4755748288
 10
15.2503669124
 20
8.4886535273
  0
LINE
  5
58D
100
AcDbEntity
  8
0
100
AcDbLine
 62
7
  6
CONTINUOUS
 10
15.4356572946
 20
8.4138085205
 11
15.5373973955
 21
8.4583450575
  0
LWPOLYLINE
  5
58E
100
AcDbEntity
  8
02___PRT_ALL_AXES
100
AcDbPolyline
 62
9
  6
CONTINUOUS
 90
6
 70
0
 10
14.3012312773
 20
8.6611009871
 10
14.3019871764
 20
8.6540719184
 10
14.3053231774
 20
8.644886529
 10
14.3112323449
 20
8.6361434277
 10
14.3195534921
 20
8.6280811037
 10
14.3300596398
 20
8.6209194759
  0
LWPOLYLINE
  5
58F
100
AcDbEntity
  8
02___PRT_ALL_AXES
100
AcDbPolyline
 62
7
  6
CONTINUOUS
 90
4
 70
0
 10
14.336299197
 20
7.8837902555
 10
14.3380156755
 20
7.8584878519
 10
14.3521817137
 20
7.8073048739
 10
14.3803353614
 20
7.7580402816
  0
LWPOLYLINE
  5
590
100
AcDbEntity
  8
02___PRT_ALL_AXES
100
AcDbPolyline
 62
7
  6
CONTINUOUS
 90
4
 70
0
 10
14.336299197
 20
7.8898175863
 10
14.3380156755
 20
7.8645151827
 10
14.3521817137
 20
7.8133322047
 10
14.3803353614
 20
7.7640676124
  0
LINE
  5
591
100
AcDbEntity
  8
02___PRT_ALL_AXES
100
AcDbLine
 62
7
  6
CONTINUOUS
 10
14.336299197
 20
7.9320089021
 11
14.3380156755
 21
7.9067064986
  0
LWPOLYLINE
  5
592
100
AcDbEntity
  8
02___PRT_ALL_AXES
100
AcDbPolyline
 62
7
  6
CONTINUOUS
 90
3
 70
0
 10
14.336299197
 20
7.938036233
 10
14.3380156755
 20
7.9127338294
 10
14.3521817137
 20
7.8615508514
  0
LINE
  5
593
100
AcDbEntity
  8
02___PRT_ALL_AXES
100
AcDbLine
 62
7
  6
CONTINUOUS
 10
14.336299197
 20
7.9802275488
 11
14.3380156755
 21
7.9549251453
  0
LWPOLYLINE
  5
594
100
AcDbEntity
  8
02___PRT_ALL_AXES
100
AcDbPolyline
 62
7
  6
CONTINUOUS
 90
4
 70
0
 10
14.336299197
 20
7.9862548797
 10
14.3380156755
 20
7.9609524761
 10
14.3521817137
 20
7.9097694981
 10
14.3803353614
 20
7.8605049058
  0
LINE
  5
595
100
AcDbEntity
  8
02___PRT_ALL_AXES
100
AcDbLine
 62
7
  6
CONTINUOUS
 10
14.3376737243
 20
8.0081844536
 11
14.3380156755
 21
8.0031437919
  0
LINE
  5
596
100
AcDbEntity
  8
02___PRT_ALL_AXES
100
AcDbLine
 62
7
  6
CONTINUOUS
 10
14.3509423033
 20
8.7828042679
 11
14.3509423033
 21
8.7464912046
  0
LINE
  5
597
100
AcDbEntity
  8
02___PRT_ALL_AXES
100
AcDbLine
 62
7
  6
CONTINUOUS
 10
14.3803353614
 20
7.7580402816
 11
14.3803353614
 21
7.7640676124
  0
LINE
  5
598
100
AcDbEntity
  8
02___PRT_ALL_AXES
100
AcDbLine
 62
7
  6
CONTINUOUS
 10
14.3803353614
 20
7.8062589282
 11
14.3803353614
 21
7.8122862591
  0
LINE
  5
599
100
AcDbEntity
  8
02___PRT_ALL_AXES
100
AcDbLine
 62
7
  6
CONTINUOUS
 10
14.3803353614
 20
7.8544775749
 11
14.3803353614
 21
7.8605049058
  0
LINE
  5
59A
100
AcDbEntity
  8
02___PRT_ALL_AXES
100
AcDbLine
 62
7
  6
CONTINUOUS
 10
14.3803353614
 20
7.9026962216
 11
14.3803353614
 21
7.9087235524
  0
LINE
  5
59B
100
AcDbEntity
  8
02___PRT_ALL_AXES
100
AcDbLine
 62
7
  6
CONTINUOUS
 10
14.3803353614
 20
7.9509148683
 11
14.3803353614
 21
7.9569421991
  0
LINE
  5
59C
100
AcDbEntity
  8
02___PRT_ALL_AXES
100
AcDbLine
 62
7
  6
CONTINUOUS
 10
14.3995145315
 20
9.3130644227
 11
14.3995145315
 21
9.260429637
  0
LINE
  5
59D
100
AcDbEntity
  8
02___PRT_ALL_AXES
100
AcDbLine
 62
7
  6
CONTINUOUS
 10
14.4146389279
 20
9.2081457568
 11
14.4146389279
 21
9.0940992782
  0
LINE
  5
59E
100
AcDbEntity
  8
02___PRT_ALL_AXES
100
AcDbLine
 62
7
  6
CONTINUOUS
 10
14.4668053557
 20
7.9340901461
 11
14.4668053557
 21
7.9253056886
  0
LINE
  5
59F
100
AcDbEntity
  8
02___PRT_ALL_AXES
100
AcDbLine
 62
7
  6
CONTINUOUS
 10
14.4668053557
 20
7.8858714994
 11
14.4668053557
 21
7.8770870419
  0
LINE
  5
5A0
100
AcDbEntity
  8
02___PRT_ALL_AXES
100
AcDbLine
 62
7
  6
CONTINUOUS
 10
14.4668053557
 20
7.8376528527
 11
14.4668053557
 21
7.8288683952
  0
LINE
  5
5A1
100
AcDbEntity
  8
02___PRT_ALL_AXES
100
AcDbLine
 62
7
  6
CONTINUOUS
 10
14.4668053557
 20
7.789434206
 11
14.4668053557
 21
7.7806497486
  0
LINE
  5
5A2
100
AcDbEntity
  8
02___PRT_ALL_AXES
100
AcDbLine
 62
7
  6
CONTINUOUS
 10
14.4668053557
 20
7.7412155594
 11
14.4668053557
 21
7.7324311019
  0
LINE
  5
5A3
100
AcDbEntity
  8
0
100
AcDbLine
 62
7
  6
CONTINUOUS
 10
14.4668053557
 20
7.6929969127
 11
14.4668053557
 21
7.6579113807
  0
LWPOLYLINE
  5
5A4
100
AcDbEntity
  8
02___PRT_ALL_AXES
100
AcDbPolyline
 62
9
  6
CONTINUOUS
 90
16
 70
0
 10
14.498081671
 20
8.6611009871
 10
14.497997609
 20
8.6587529318
 10
14.4959869564
 20
8.6494398565
 10
14.4913486593
 20
8.6404448665
 10
14.4842092385
 20
8.6320133217
 10
14.4747634386
 20
8.6243752125
 10
14.4632689166
 20
8.6177388867
 10
14.4500392129
 20
8.612285366
 10
14.4354351995
 20
8.6081634081
 10
14.4198552357
 20
8.6054854494
 10
14.4037243023
 20
8.6043245377
 10
14.3874824092
 20
8.6047123394
 10
14.3715725929
 20
8.6066382765
 10
14.3564288316
 20
8.6100498143
 10
14.3424642077
 20
8.6148538951
 10
14.3300596398
 20
8.6209194759
  0
LWPOLYLINE
  5
5A5
100
AcDbEntity
  8
02___PRT_ALL_AXES
100
AcDbPolyline
 62
7
  6
CONTINUOUS
 90
14
 70
0
 10
14.5120319727
 20
8.5761521838
 10
14.5131417608
 20
8.5908909283
 10
14.5164595744
 20
8.6053407343
 10
14.5224232568
 20
8.620169789
 10
14.5304876014
 20
8.6335315141
 10
14.5409128162
 20
8.6458020387
 10
14.5533396102
 20
8.6563089289
 10
14.566319544
 20
8.6641259833
 10
14.5788376893
 20
8.6693601655
 10
14.5908264777
 20
8.6725998656
 10
14.6024984503
 20
8.6742550796
 10
14.6139215639
 20
8.6745163915
 10
14.6250985008
 20
8.6734822963
 10
14.6360438079
 20
8.6711934555
  0
LWPOLYLINE
  5
5A6
100
AcDbEntity
  8
02___PRT_ALL_AXES
100
AcDbPolyline
 62
7
  6
CONTINUOUS
 90
10
 70
0
 10
14.6327458035
 20
9.3759996606
 10
14.633995381
 20
9.3916335466
 10
14.6378407384
 20
9.4072563652
 10
14.6443006989
 20
9.4222713594
 10
14.653279284
 20
9.4361694197
 10
14.6645103907
 20
9.4484143172
 10
14.6775236972
 20
9.4585192719
 10
14.6909638091
 20
9.4658378549
 10
14.7037282936
 20
9.4705217068
 10
14.7161235297
 20
9.4732678106
  0
LWPOLYLINE
  5
5A7
100
AcDbEntity
  8
AXIS
100
AcDbPolyline
 62
7
  6
CONTINUOUS
 90
9
 70
0
 10
14.7086141581
 20
8.457926323
 10
14.704024273
 20
8.4444860741
 10
14.6939966061
 20
8.432070545
 10
14.6791139292
 20
8.4214012811
 10
14.6602411691
 20
8.4130983413
 10
14.6384751422
 20
8.4076442622
 10
14.6150808108
 20
8.4053560152
 10
14.5914177685
 20
8.4063665847
 10
14.5688612252
 20
8.4106172402
  0
LINE
  5
5A8
100
AcDbEntity
  8
AXIS
100
AcDbLine
 62
7
  6
CONTINUOUS
 10
15.583526288
 20
8.484382499
 11
15.6556945459
 21
8.5324677625
  0
LINE
  5
5A9
100
AcDbEntity
  8
0
100
AcDbLine
 62
7
  6
CONTINUOUS
 10
15.5838430337
 20
8.4839364494
 11
15.6128509346
 21
8.5018697125
  0
LWPOLYLINE
  5
5AA
100
AcDbEntity
  8
0
100
AcDbPolyline
 62
7
  6
CONTINUOUS
 90
4
 70
0
 10
15.5840943866
 20
8.4835298743
 10
15.6276863499
 20
8.5104725836
 10
15.7048271935
 20
8.5692113824
 10
15.7673793045
 20
8.633457776
  0
LINE
  5
5AB
100
AcDbEntity
  8
02___PRT_ALL_AXES
100
AcDbLine
 62
7
  6
CONTINUOUS
 10
14.3380156755
 20
7.9067064986
 11
14.3521817137
 21
7.8555235205
  0
LINE
  5
5AC
100
AcDbEntity
  8
AXIS
100
AcDbLine
 62
7
  6
CONTINUOUS
 10
14.0098915294
 20
8.811464784
 11
14.0284785648
 21
8.7368307132
  0
LINE
  5
5AD
100
AcDbEntity
  8
AXIS
100
AcDbLine
 62
7
  6
CONTINUOUS
 10
14.1559510827
 20
8.6577776727
 11
14.1540949493
 21
8.6687831924
  0
LWPOLYLINE
  5
5AE
100
AcDbEntity
  8
02___PRT_ALL_AXES
100
AcDbPolyline
 62
7
  6
CONTINUOUS
 90
4
 70
0
 10
14.2831103556
 20
8.9403225449
 10
14.2837269863
 20
8.9354286602
 10
14.2840977025
 20
8.9305092344
 10
14.2842214536
 20
8.9255751535
  0
LINE
  5
5AF
100
AcDbEntity
  8
02___PRT_ALL_AXES
100
AcDbLine
 62
7
  6
CONTINUOUS
 10
14.498081671
 20
8.6611009871
 11
14.498081671
 21
8.5470796607
  0
LINE
  5
5B0
100
AcDbEntity
  8
02___PRT_ALL_AXES
100
AcDbLine
 62
7
  6
CONTINUOUS
 10
14.5120319727
 20
8.5761521838
 11
14.5120319727
 21
8.4621293612
  0
LINE
  5
5B1
100
AcDbEntity
  8
02___PRT_ALL_AXES
100
AcDbLine
 62
7
  6
CONTINUOUS
 10
14.5963649252
 20
9.3130644227
 11
14.5963649252
 21
9.1990179441
  0
LINE
  5
5B2
100
AcDbEntity
  8
02___PRT_ALL_AXES
100
AcDbLine
 62
7
  6
CONTINUOUS
 10
14.6134562067
 20
7.9005467222
 11
14.6134562067
 21
7.8917622648
  0
LINE
  5
5B3
100
AcDbEntity
  8
02___PRT_ALL_AXES
100
AcDbLine
 62
7
  6
CONTINUOUS
 10
14.6134562067
 20
7.8523280756
 11
14.6134562067
 21
7.8435436181
  0
LINE
  5
5B4
100
AcDbEntity
  8
02___PRT_ALL_AXES
100
AcDbLine
 62
7
  6
CONTINUOUS
 10
14.6134562067
 20
7.8041094289
 11
14.6134562067
 21
7.7953249714
  0
LINE
  5
5B5
100
AcDbEntity
  8
02___PRT_ALL_AXES
100
AcDbLine
 62
7
  6
CONTINUOUS
 10
14.6134562067
 20
7.7558907822
 11
14.6134562067
 21
7.7471063247
  0
LINE
  5
5B6
100
AcDbEntity
  8
02___PRT_ALL_AXES
100
AcDbLine
 62
7
  6
CONTINUOUS
 10
14.6134562067
 20
7.7076721355
 11
14.6134562067
 21
7.698887678
  0
LINE
  5
5B7
100
AcDbEntity
  8
02___PRT_ALL_AXES
100
AcDbLine
 62
7
  6
CONTINUOUS
 10
14.6134562067
 20
7.6594534888
 11
14.6134562067
 21
7.6506690314
  0
LINE
  5
5B8
100
AcDbEntity
  8
0
100
AcDbLine
 62
7
  6
CONTINUOUS
 10
14.6134562067
 20
7.6112348422
 11
14.6134562067
 21
7.5732443878
  0
LINE
  5
5B9
100
AcDbEntity
  8
02___PRT_ALL_AXES
100
AcDbLine
 62
7
  6
CONTINUOUS
 10
14.6327458035
 20
9.3759996606
 11
14.6327458035
 21
9.261971204
  0
LINE
  5
5BA
100
AcDbEntity
  8
AXIS
100
AcDbLine
 62
7
  6
CONTINUOUS
 10
14.5963604943
 20
9.1990179441
 11
14.5961853483
 21
9.1955997484
  0
LINE
  5
5BB
100
AcDbEntity
  8
AXIS
100
AcDbLine
 62
7
  6
CONTINUOUS
 10
15.6556945459
 20
8.5324677625
 11
15.7263024607
 21
8.5958997904
  0
LWPOLYLINE
  5
5BC
100
AcDbEntity
  8
0
100
AcDbPolyline
 62
7
  6
CONTINUOUS
 90
3
 70
0
 10
15.6128509346
 20
8.5018697125
 10
15.6883693776
 20
8.5593735684
 10
15.7496051008
 20
8.6222690397
  0
LINE
  5
5BD
100
AcDbEntity
  8
02___PRT_ALL_AXES
100
AcDbLine
 62
7
  6
CONTINUOUS
 10
14.3521817137
 20
7.8555235205
 11
14.3803353614
 21
7.8062589282
  0
LINE
  5
5BE
100
AcDbEntity
  8
02___PRT_ALL_AXES
100
AcDbLine
 62
7
  6
CONTINUOUS
 10
14.3521817137
 20
7.8615508514
 11
14.3803353614
 21
7.8122862591
  0
LWPOLYLINE
  5
5BF
100
AcDbEntity
  8
0
100
AcDbPolyline
 62
9
  6
CONTINUOUS
 90
4
 70
0
 10
14.3941714225
 20
7.7470228013
 10
14.3946123786
 20
7.745842219
 10
14.4248526387
 20
7.7002744208
 10
14.4668053557
 20
7.6579113807
  0
LINE
  5
5C0
100
AcDbEntity
  8
AXIS
100
AcDbLine
 62
7
  6
CONTINUOUS
 10
14.0926478003
 20
8.7931849521
 11
14.087745603
 21
8.8065883903
  0
LWPOLYLINE
  5
5C1
100
AcDbEntity
  8
02___PRT_ALL_AXES
100
AcDbPolyline
 62
7
  6
CONTINUOUS
 90
3
 70
0
 10
14.3380156755
 20
7.9549251453
 10
14.3521817137
 20
7.9037421672
 10
14.3803353614
 20
7.8544775749
  0
LINE
  5
5C2
100
AcDbEntity
  8
02___PRT_ALL_AXES
100
AcDbLine
 62
7
  6
CONTINUOUS
 10
14.3380156755
 20
8.0031437919
 11
14.3521817137
 21
7.9519608139
  0
LWPOLYLINE
  5
5C3
100
AcDbEntity
  8
02___PRT_ALL_AXES
100
AcDbPolyline
 62
7
  6
CONTINUOUS
 90
3
 70
0
 10
14.3383879467
 20
8.0078260786
 10
14.3521817137
 20
7.9579881447
 10
14.3803353614
 20
7.9087235524
  0
LINE
  5
5C4
100
AcDbEntity
  8
02___PRT_ALL_AXES
100
AcDbLine
 62
7
  6
CONTINUOUS
 10
14.3514344338
 20
8.0028794399
 11
14.3521817137
 21
8.0001794606
  0
LWPOLYLINE
  5
5C5
100
AcDbEntity
  8
0
100
AcDbPolyline
 62
7
  6
CONTINUOUS
 90
4
 70
0
 10
14.4668053557
 20
7.6579113807
 10
14.4683051514
 20
7.6486680709
 10
14.4726514166
 20
7.6417715066
 10
14.4733968483
 20
7.6410927074
  0
LWPOLYLINE
  5
5C6
100
AcDbEntity
  8
0
100
AcDbPolyline
 62
7
  6
CONTINUOUS
 90
4
 70
0
 10
14.6134562067
 20
7.5732443878
 10
14.6146957616
 20
7.5641513247
 10
14.6182854766
 20
7.5576915449
 10
14.6208327353
 20
7.5556701907
  0
LINE
  5
5C7
100
AcDbEntity
  8
02___PRT_ALL_AXES
100
AcDbLine
 62
7
  6
CONTINUOUS
 10
14.699926201
 20
7.8749375426
 11
14.699926201
 21
7.8689102117
  0
LINE
  5
5C8
100
AcDbEntity
  8
02___PRT_ALL_AXES
100
AcDbLine
 62
7
  6
CONTINUOUS
 10
14.699926201
 20
7.8267188959
 11
14.699926201
 21
7.820691565
  0
LINE
  5
5C9
100
AcDbEntity
  8
02___PRT_ALL_AXES
100
AcDbLine
 62
7
  6
CONTINUOUS
 10
14.699926201
 20
7.7785002492
 11
14.699926201
 21
7.7724729184
  0
LINE
  5
5CA
100
AcDbEntity
  8
02___PRT_ALL_AXES
100
AcDbLine
 62
7
  6
CONTINUOUS
 10
14.699926201
 20
7.7302816025
 11
14.699926201
 21
7.7242542717
  0
LINE
  5
5CB
100
AcDbEntity
  8
02___PRT_ALL_AXES
100
AcDbLine
 62
7
  6
CONTINUOUS
 10
14.699926201
 20
7.6820629558
 11
14.699926201
 21
7.676035625
  0
LINE
  5
5CC
100
AcDbEntity
  8
02___PRT_ALL_AXES
100
AcDbLine
 62
7
  6
CONTINUOUS
 10
14.699926201
 20
7.6338443091
 11
14.699926201
 21
7.6278169783
  0
LINE
  5
5CD
100
AcDbEntity
  8
02___PRT_ALL_AXES
100
AcDbLine
 62
7
  6
CONTINUOUS
 10
14.699926201
 20
7.5856256625
 11
14.699926201
 21
7.5795983316
  0
LINE
  5
5CE
100
AcDbEntity
  8
02___PRT_ALL_AXES
100
AcDbLine
 62
7
  6
CONTINUOUS
 10
14.7088823664
 20
8.5761521838
 11
14.7088823664
 21
8.462107202
  0
LINE
  5
5CF
100
AcDbEntity
  8
02___PRT_ALL_AXES
100
AcDbLine
 62
7
  6
CONTINUOUS
 10
14.7600293252
 20
8.5372244107
 11
14.7600293252
 21
8.423178948
  0
LWPOLYLINE
  5
5D0
100
AcDbEntity
  8
02___PRT_ALL_AXES
100
AcDbPolyline
 62
9
  6
CONTINUOUS
 90
14
 70
0
 10
14.7088823664
 20
8.5761521838
 10
14.708856423
 20
8.5748475569
 10
14.707142449
 20
8.5655147279
 10
14.7027911527
 20
8.5564720608
 10
14.6959212259
 20
8.5479662162
 10
14.6867200625
 20
8.5402292114
 10
14.6754386462
 20
8.5334720916
 10
14.6623847046
 20
8.5278791734
 10
14.6479143152
 20
8.5236030172
 10
14.6324221925
 20
8.5207602652
 10
14.6163309212
 20
8.5194284604
 10
14.6000794293
 20
8.5196439308
 10
14.5841110152
 20
8.5214007991
 10
14.5688612554
 20
8.5246511425
  0
LINE
  5
5D1
100
AcDbEntity
  8
AXIS
100
AcDbLine
 62
7
  6
CONTINUOUS
 10
14.7088766986
 20
8.462107202
 11
14.7086141581
 21
8.457926323
  0
LWPOLYLINE
  5
5D2
100
AcDbEntity
  8
02___PRT_ALL_AXES
100
AcDbPolyline
 62
7
  6
CONTINUOUS
 90
12
 70
0
 10
14.7600293252
 20
8.5372244107
 10
14.7611832342
 20
8.5522515841
 10
14.7647229218
 20
8.567256169
 10
14.7706576571
 20
8.5817129473
 10
14.7791742582
 20
8.5955524412
 10
14.7898620315
 20
8.6078118715
 10
14.8023134001
 20
8.6180680487
 10
14.8153230636
 20
8.6256958562
 10
14.8277842882
 20
8.6307490392
 10
14.8399841911
 20
8.6339010172
 10
14.8518163579
 20
8.6354255011
 10
14.863419498
 20
8.6355243008
  0
LWPOLYLINE
  5
5D3
100
AcDbEntity
  8
02___PRT_ALL_AXES
100
AcDbPolyline
 62
7
  6
CONTINUOUS
 90
12
 70
0
 10
14.8882398895
 20
9.3887706835
 10
14.8893937986
 20
9.4037978569
 10
14.8929334862
 20
9.4188024418
 10
14.8988682215
 20
9.4332592201
 10
14.9073848225
 20
9.447098714
 10
14.9180725959
 20
9.4593581442
 10
14.9305239645
 20
9.4696143215
 10
14.943533628
 20
9.477242129
 10
14.9559948525
 20
9.4822953119
 10
14.9681947555
 20
9.48544729
 10
14.9800269223
 20
9.4869717738
 10
14.9916300624
 20
9.4870705735
  0
LINE
  5
5D4
100
AcDbEntity
  8
AXIS
100
AcDbLine
 62
7
  6
CONTINUOUS
 10
14.8295887672
 20
9.2619603126
 11
14.8290976683
 21
9.2562538305
  0
LWPOLYLINE
  5
5D5
100
AcDbEntity
  8
AXIS
100
AcDbPolyline
 62
7
  6
CONTINUOUS
 90
8
 70
0
 10
15.0850884633
 20
9.2747483416
 10
15.082966898
 20
9.262997065
 10
15.0753022787
 20
9.2500324644
 10
15.0624863862
 20
9.2385035889
 10
15.0452640337
 20
9.2290804548
 10
15.0246361215
 20
9.2223107005
 10
15.001801469
 20
9.2185877594
 10
14.9780871433
 20
9.2181279953
  0
LWPOLYLINE
  5
5D6
100
AcDbEntity
  8
AXIS
100
AcDbPolyline
 62
7
  6
CONTINUOUS
 90
8
 70
0
 10
14.9568778989
 20
8.4232020688
 10
14.9547563337
 20
8.4114507923
 10
14.9470917144
 20
8.3984861917
 10
14.9342758219
 20
8.3869573161
 10
14.9170534693
 20
8.3775341821
 10
14.8964255571
 20
8.3707644277
 10
14.8735909046
 20
8.3670414866
 10
14.8498765789
 20
8.3665817226
  0
LWPOLYLINE
  5
5D7
100
AcDbEntity
  8
AXIS
100
AcDbPolyline
 62
7
  6
CONTINUOUS
 90
9
 70
0
 10
15.3335267503
 20
9.2320251671
 10
15.3289368652
 20
9.2185849181
 10
15.3189091984
 20
9.206169389
 10
15.3040265214
 20
9.1955001251
 10
15.2851537613
 20
9.1871971853
 10
15.2633877344
 20
9.1817431063
 10
15.2399934031
 20
9.1794548592
 10
15.2163303607
 20
9.1804654288
 10
15.1937738174
 20
9.1847160843
  0
LWPOLYLINE
  5
5D8
100
AcDbEntity
  8
02___PRT_ALL_AXES
100
AcDbPolyline
 62
7
  6
CONTINUOUS
 90
20
 70
0
 10
15.5487332763
 20
8.8938811914
 10
15.5562202501
 20
8.9071972488
 10
15.5662524928
 20
8.9198120613
 10
15.5799244435
 20
8.9319033623
 10
15.5940379226
 20
8.9405024308
 10
15.6077103619
 20
8.9460914909
 10
15.6210268789
 20
8.9493953773
 10
15.6336898064
 20
8.9507770747
 10
15.6457933623
 20
8.9505639633
 10
15.6574709878
 20
8.9489293268
 10
15.669187385
 20
8.9458043296
 10
15.6801438272
 20
8.941398723
 10
15.6913636911
 20
8.9351579539
 10
15.7019599534
 20
8.9272679159
 10
15.711645739
 20
8.9177584719
 10
15.7197319849
 20
8.9073046845
 10
15.727078378
 20
8.8943362354
 10
15.731960718
 20
8.8817927257
 10
15.7352454264
 20
8.8677178745
 10
15.7364373235
 20
8.8524468305
  0
LWPOLYLINE
  5
5D9
100
AcDbEntity
  8
02___PRT_ALL_AXES
100
AcDbPolyline
 62
7
  6
CONTINUOUS
 90
5
 70
0
 10
15.2632517128
 20
7.8189012264
 10
15.2483998089
 20
7.8112698957
 10
15.1767267324
 20
7.7844313639
 10
15.0998855532
 20
7.7643689525
 10
15.0181138062
 20
7.7511263732
  0
LWPOLYLINE
  5
5DA
100
AcDbEntity
  8
02___PRT_ALL_AXES
100
AcDbPolyline
 62
7
  6
CONTINUOUS
 90
8
 70
0
 10
15.2628756111
 20
7.9151745455
 10
15.2474171814
 20
7.9072760873
 10
15.1763130562
 20
7.8807384
 10
15.0988196977
 20
7.8605826556
 10
15.0161885027
 20
7.847343571
 10
14.9312191001
 20
7.841600681
 10
14.8470636346
 20
7.8434169905
 10
14.7650438895
 20
7.8525517512
  0
LWPOLYLINE
  5
5DB
100
AcDbEntity
  8
0
100
AcDbPolyline
 62
7
  6
CONTINUOUS
 90
8
 70
0
 10
15.5886020586
 20
8.047272441
 10
15.4819713309
 20
7.9970763676
 10
15.3650303826
 20
7.9562613564
 10
15.2399447898
 20
7.9254230072
 10
15.1091028604
 20
7.9050395482
 10
14.9749039277
 20
7.895408366
 10
14.8397775169
 20
7.8966671035
 10
14.7062142308
 20
7.908787952
  0
LWPOLYLINE
  5
5DC
100
AcDbEntity
  8
02___PRT_ALL_AXES
100
AcDbPolyline
 62
7
  6
CONTINUOUS
 90
7
 70
0
 10
15.2300616998
 20
7.7562122747
 10
15.1780108778
 20
7.7366187178
 10
15.1004058838
 20
7.716259971
 10
15.0175811664
 20
7.7028464286
 10
14.9323544378
 20
7.6969711044
 10
14.8478643057
 20
7.6987084256
 10
14.7660246966
 20
7.707741352
  0
LWPOLYLINE
  5
5DD
100
AcDbEntity
  8
02___PRT_ALL_AXES
100
AcDbPolyline
 62
7
  6
CONTINUOUS
 90
7
 70
0
 10
15.2298699167
 20
7.8525659538
 10
15.1775713173
 20
7.8329167562
 10
15.1002352553
 20
7.8126612655
 10
15.0178457775
 20
7.7993141352
 10
14.9331901773
 20
7.7934286678
 10
14.8493839553
 20
7.7950477313
 10
14.7671537516
 20
7.8040022463
  0
LWPOLYLINE
  5
5DE
100
AcDbEntity
  8
02___PRT_ALL_AXES
100
AcDbPolyline
 62
7
  6
CONTINUOUS
 90
7
 70
0
 10
15.1886683588
 20
7.6924991759
 10
15.1758878222
 20
7.6877301865
 10
15.0987067731
 20
7.6676844626
 10
15.0175566347
 20
7.6546249663
 10
14.9338078012
 20
7.6487881782
 10
14.8499575338
 20
7.6503554507
 10
14.7675301649
 20
7.659287831
  0
LWPOLYLINE
  5
5DF
100
AcDbEntity
  8
02___PRT_ALL_AXES
100
AcDbPolyline
 62
7
  6
CONTINUOUS
 90
8
 70
0
 10
15.1479021366
 20
7.7367722207
 10
15.229696827
 20
7.7620805269
 10
15.303972805
 20
7.7944636434
 10
15.3689096995
 20
7.8331573925
 10
15.4229160236
 20
7.8772429343
 10
15.4646681793
 20
7.9256692858
 10
15.493142896
 20
7.9772790785
 10
15.5009169889
 20
8.0059949754
  0
LWPOLYLINE
  5
5E0
100
AcDbEntity
  8
02___PRT_ALL_AXES
100
AcDbPolyline
 62
7
  6
CONTINUOUS
 90
7
 70
0
 10
15.1479021366
 20
7.688553574
 10
15.229696827
 20
7.7138618803
 10
15.303972805
 20
7.7462449967
 10
15.3689096995
 20
7.7849387458
 10
15.4229160236
 20
7.8290242876
 10
15.4646681793
 20
7.8774506391
 10
15.493142896
 20
7.9290604318
  0
LWPOLYLINE
  5
5E1
100
AcDbEntity
  8
02___PRT_ALL_AXES
100
AcDbPolyline
 62
7
  6
CONTINUOUS
 90
7
 70
0
 10
15.1479021366
 20
7.6825262432
 10
15.229696827
 20
7.7078345494
 10
15.303972805
 20
7.7402176659
 10
15.3689096995
 20
7.778911415
 10
15.4229160236
 20
7.8229969568
 10
15.4646681793
 20
7.8714233083
 10
15.493142896
 20
7.9230331009
  0
LWPOLYLINE
  5
5E2
100
AcDbEntity
  8
0
100
AcDbPolyline
 62
7
  6
CONTINUOUS
 90
4
 70
0
 10
14.4733973969
 20
7.641092397
 10
14.4291425596
 20
7.6860769684
 10
14.3970482371
 20
7.7348793578
 10
14.3917455221
 20
7.7489545151
  0
LINE
  5
5E3
100
AcDbEntity
  8
02___PRT_ALL_AXES
100
AcDbLine
 62
7
  6
CONTINUOUS
 10
14.3521817137
 20
7.9519608139
 11
14.3803353614
 21
7.9026962216
  0
LINE
  5
5E4
100
AcDbEntity
  8
02___PRT_ALL_AXES
100
AcDbLine
 62
7
  6
CONTINUOUS
 10
14.3521817137
 20
8.0001794606
 11
14.3803353614
 21
7.9509148683
  0
LINE
  5
5E5
100
AcDbEntity
  8
02___PRT_ALL_AXES
100
AcDbLine
 62
7
  6
CONTINUOUS
 10
14.354804592
 20
8.0016171542
 11
14.3803353614
 21
7.9569421991
  0
LWPOLYLINE
  5
5E6
100
AcDbEntity
  8
0
100
AcDbPolyline
 62
7
  6
CONTINUOUS
 90
5
 70
0
 10
14.0339223577
 20
8.7232480968
 10
14.0721885583
 20
8.6541144344
 10
14.1264003451
 20
8.5887610118
 10
14.194953168
 20
8.528784298
 10
14.2622747333
 20
8.4843207187
  0
LINE
  5
5E7
100
AcDbEntity
  8
AXIS
100
AcDbLine
 62
7
  6
CONTINUOUS
 10
14.0284785648
 20
8.7368307132
 11
14.0652737136
 21
8.664483501
  0
LWPOLYLINE
  5
5E8
100
AcDbEntity
  8
AXIS
100
AcDbPolyline
 62
7
  6
CONTINUOUS
 90
3
 70
0
 10
14.3056879766
 20
8.5301612475
 10
14.3014108433
 20
8.5436358405
 10
14.3012356486
 20
8.547054509
  0
LINE
  5
5E9
100
AcDbEntity
  8
AXIS
100
AcDbLine
 62
7
  6
CONTINUOUS
 10
14.5134147647
 20
8.4526263698
 11
14.5120375802
 21
8.4621293612
  0
LWPOLYLINE
  5
5EA
100
AcDbEntity
  8
02___PRT_ALL_AXES
100
AcDbPolyline
 62
9
  6
CONTINUOUS
 90
8
 70
0
 10
14.5120319727
 20
8.5761521838
 10
14.5130280173
 20
8.5680883948
 10
14.5166557317
 20
8.5589399381
 10
14.5228421049
 20
8.5502609865
 10
14.5314183886
 20
8.5422882793
 10
14.5421506442
 20
8.5352392911
 10
14.5547461237
 20
8.5293063
 10
14.5688612554
 20
8.5246511425
  0
LINE
  5
5EB
100
AcDbEntity
  8
AXIS_COSMETIC_THREADS
100
AcDbLine
 62
7
  6
CONTINUOUS
 10
14.8064133703
 20
7.5100612577
 11
14.8064133703
 21
5.708526589
  0
LINE
  5
5EC
100
AcDbEntity
  8
02___PRT_ALL_AXES
100
AcDbLine
 62
7
  6
CONTINUOUS
 10
14.8295961972
 20
9.3759996606
 11
14.8295961972
 21
9.2619603126
  0
LINE
  5
5ED
100
AcDbEntity
  8
AXIS
100
AcDbLine
 62
7
  6
CONTINUOUS
 10
14.8413448278
 20
5.660561403
 11
14.8413448278
 21
5.4635757279
  0
LINE
  5
5EE
100
AcDbEntity
  8
02___PRT_ALL_AXES
100
AcDbLine
 62
7
  6
CONTINUOUS
 10
14.8882398895
 20
9.3887706835
 11
14.8882398895
 21
9.2747252208
  0
LINE
  5
5EF
100
AcDbEntity
  8
AXIS
100
AcDbLine
 62
7
  6
CONTINUOUS
 10
14.8913448278
 20
5.6439569072
 11
14.8913448278
 21
5.4635757279
  0
LINE
  5
5F0
100
AcDbEntity
  8
AXIS
100
AcDbLine
 62
7
  6
CONTINUOUS
 10
14.8979136058
 20
5.6428433659
 11
14.8979136058
 21
5.4309164675
  0
LWPOLYLINE
  5
5F1
100
AcDbEntity
  8
02___PRT_ALL_AXES
100
AcDbPolyline
 62
7
  6
CONTINUOUS
 90
10
 70
0
 10
15.0156230937
 20
8.5507543647
 10
15.0168726712
 20
8.5663882508
 10
15.0207180286
 20
8.5820110693
 10
15.0271779891
 20
8.5970260636
 10
15.0361565742
 20
8.6109241238
 10
15.0473876809
 20
8.6231690213
 10
15.0604009874
 20
8.633273976
 10
15.0738410993
 20
8.640592559
 10
15.0866055838
 20
8.6452764109
 10
15.0990008199
 20
8.6480225147
  0
LWPOLYLINE
  5
5F2
100
AcDbEntity
  8
02___PRT_ALL_AXES
100
AcDbPolyline
 62
9
  6
CONTINUOUS
 90
11
 70
0
 10
14.9568797189
 20
8.5372244107
 10
14.9554619657
 20
8.5276142196
 10
14.9513991387
 20
8.5185269276
 10
14.9448010248
 20
8.5099496542
 10
14.9358476033
 20
8.502116365
 10
14.9247831004
 20
8.4952407318
 10
14.9119093268
 20
8.489510304
 10
14.8975774454
 20
8.4850813926
 10
14.8821783927
 20
8.4820748067
 10
14.8661322146
 20
8.4805725584
 10
14.8498766091
 20
8.4806156248
  0
LWPOLYLINE
  5
5F3
100
AcDbEntity
  8
AXIS
100
AcDbPolyline
 62
7
  6
CONTINUOUS
 90
6
 70
0
 10
15.2119749585
 20
8.4310085346
 10
15.2067617193
 20
8.4176442759
 10
15.1961603109
 20
8.4053886558
 10
15.1807868486
 20
8.3949539265
 10
15.1615347821
 20
8.3869465164
 10
15.1395229716
 20
8.3818317871
  0
LWPOLYLINE
  5
5F4
100
AcDbEntity
  8
AXIS
100
AcDbPolyline
 62
7
  6
CONTINUOUS
 90
7
 70
0
 10
15.7330836421
 20
8.7237057641
 10
15.7242247277
 20
8.7109973785
 10
15.7103554487
 20
8.6998822849
 10
15.6922818369
 20
8.6910064523
 10
15.6710542651
 20
8.6848857118
 10
15.6479064025
 20
8.6818757785
 10
15.6273308762
 20
8.6821149879
  0
LINE
  5
5F5
100
AcDbEntity
  8
AXIS
100
AcDbLine
 62
7
  6
CONTINUOUS
 10
15.7263024607
 20
8.5958997904
 11
15.7805556905
 21
8.6644876241
  0
LWPOLYLINE
  5
5F6
100
AcDbEntity
  8
02___PRT_ALL_AXES
100
AcDbPolyline
 62
7
  6
CONTINUOUS
 90
8
 70
0
 10
15.2634431903
 20
7.6743287674
 10
15.2482389388
 20
7.6665432448
 10
15.1770190266
 20
7.6398676169
 10
15.0993270645
 20
7.6195956794
 10
15.0164445172
 20
7.6062793696
 10
14.9312000846
 20
7.6005070175
 10
14.8467546766
 20
7.6023442478
 10
14.7646782588
 20
7.611516389
  0
LWPOLYLINE
  5
5F7
100
AcDbEntity
  8
0
100
AcDbPolyline
 62
9
  6
CONTINUOUS
 90
14
 70
0
 10
14.6134562067
 20
7.5732443878
 10
14.6868325919
 20
7.5490236609
 10
14.7657589239
 20
7.5315652083
 10
14.8483860391
 20
7.5212785813
 10
14.932766898
 20
7.5184070416
 10
15.0169148249
 20
7.5230181732
 10
15.0988514348
 20
7.5350033169
 10
15.1766508591
 20
7.5540807392
 10
15.2484830905
 20
7.5798017752
 10
15.3126587038
 20
7.6115615004
 10
15.3676684741
 20
7.6486130127
 10
15.412218724
 20
7.6900849701
 10
15.4452616778
 20
7.7350019731
 10
15.4608787437
 20
7.7705908277
  0
LINE
  5
5F8
100
AcDbEntity
  8
0
100
AcDbLine
 62
7
  6
CONTINUOUS
 10
14.6208327353
 20
7.5556701907
 11
14.6222925403
 21
7.5549694993
  0
LINE
  5
5F9
100
AcDbEntity
  8
0
100
AcDbLine
 62
7
  6
CONTINUOUS
 10
14.6208083151
 20
7.5556842893
 11
14.475761304
 21
7.6394253257
  0
LINE
  5
5FA
100
AcDbEntity
  8
0
100
AcDbLine
 62
9
  6
CONTINUOUS
 10
14.6134562067
 20
7.5732443878
 11
14.4668053557
 21
7.6579113807
  0
LWPOLYLINE
  5
5FB
100
AcDbEntity
  8
02___PRT_ALL_AXES
100
AcDbPolyline
 62
7
  6
CONTINUOUS
 90
5
 70
0
 10
14.4668053557
 20
7.7412155594
 10
14.4454136425
 20
7.7562131654
 10
14.4233659636
 20
7.7724438445
 10
14.4013906171
 20
7.7893710874
 10
14.3803353614
 20
7.8062589282
  0
LINE
  5
5FC
100
AcDbEntity
  8
0
100
AcDbLine
 62
7
  6
CONTINUOUS
 10
14.4733968483
 20
7.6410927074
 11
14.4757390684
 21
7.6394381633
  0
LWPOLYLINE
  5
5FD
100
AcDbEntity
  8
02___PRT_ALL_AXES
100
AcDbPolyline
 62
7
  6
CONTINUOUS
 90
3
 70
0
 10
14.4668053557
 20
7.6929969127
 10
14.4381474208
 20
7.7132583503
 10
14.4093090267
 20
7.7349689188
  0
LWPOLYLINE
  5
5FE
100
AcDbEntity
  8
02___PRT_ALL_AXES
100
AcDbPolyline
 62
7
  6
CONTINUOUS
 90
4
 70
0
 10
14.6134562067
 20
7.6506690314
 10
14.6421421048
 20
7.6303871731
 10
14.6709861966
 20
7.6086709377
 10
14.699926201
 20
7.5856256625
  0
LWPOLYLINE
  5
5FF
100
AcDbEntity
  8
02___PRT_ALL_AXES
100
AcDbPolyline
 62
7
  6
CONTINUOUS
 90
4
 70
0
 10
14.4668053557
 20
7.789434206
 10
14.4381474208
 20
7.8096956437
 10
14.4093090267
 20
7.8314062122
 10
14.3803353614
 20
7.8544775749
  0
LINE
  5
600
100
AcDbEntity
  8
02___PRT_ALL_AXES
100
AcDbLine
 62
7
  6
CONTINUOUS
 10
14.4093090267
 20
7.7349689188
 11
14.3803353614
 21
7.7580402816
  0
LINE
  5
601
100
AcDbEntity
  8
02___PRT_ALL_AXES
100
AcDbLine
 62
7
  6
CONTINUOUS
 10
14.4668053557
 20
7.7806497486
 11
14.4339958626
 21
7.8128210843
  0
LINE
  5
602
100
AcDbEntity
  8
02___PRT_ALL_AXES
100
AcDbLine
 62
7
  6
CONTINUOUS
 10
14.4668053557
 20
7.9253056886
 11
14.4342779854
 21
7.9572646323
  0
LINE
  5
603
100
AcDbEntity
  8
02___PRT_ALL_AXES
100
AcDbLine
 62
7
  6
CONTINUOUS
 10
14.4668053557
 20
7.7324311019
 11
14.4343401628
 21
7.7643650483
  0
LINE
  5
604
100
AcDbEntity
  8
02___PRT_ALL_AXES
100
AcDbLine
 62
7
  6
CONTINUOUS
 10
14.4668053557
 20
7.8288683952
 11
14.4344140184
 21
7.8607249284
  0
LINE
  5
605
100
AcDbEntity
  8
02___PRT_ALL_AXES
100
AcDbLine
 62
7
  6
CONTINUOUS
 10
14.4668053557
 20
7.8770870419
 11
14.4344364312
 21
7.908926702
  0
LINE
  5
606
100
AcDbEntity
  8
AXIS
100
AcDbLine
 62
7
  6
CONTINUOUS
 10
14.1633137271
 20
8.6447548679
 11
14.1559510827
 21
8.6577776727
  0
LWPOLYLINE
  5
607
100
AcDbEntity
  8
02___PRT_ALL_AXES
100
AcDbPolyline
 62
9
  6
CONTINUOUS
 90
10
 70
0
 10
14.7600293252
 20
8.5372244107
 10
14.7612983991
 20
8.528128623
 10
14.7652166025
 20
8.5190201866
 10
14.7716780933
 20
8.510408314
 10
14.7805066189
 20
8.5025279146
 10
14.7914613601
 20
8.4955939452
 10
14.8042435001
 20
8.4897955463
 10
14.8185043755
 20
8.4852908832
 10
14.8338549867
 20
8.4822028314
 10
14.8498766091
 20
8.4806156248
  0
LINE
  5
608
100
AcDbEntity
  8
AXIS
100
AcDbLine
 62
7
  6
CONTINUOUS
 10
14.9479136058
 20
5.6428434054
 11
14.9479136058
 21
5.4309164675
  0
LINE
  5
609
100
AcDbEntity
  8
AXIS
100
AcDbLine
 62
7
  6
CONTINUOUS
 10
14.9544819127
 20
5.6439569011
 11
14.9544819127
 21
5.4635759999
  0
LINE
  5
60A
100
AcDbEntity
  8
02___PRT_ALL_AXES
100
AcDbLine
 62
7
  6
CONTINUOUS
 10
14.9568797189
 20
8.5372244107
 11
14.9568797189
 21
8.4232020688
  0
LINE
  5
60B
100
AcDbEntity
  8
AXIS
100
AcDbLine
 62
7
  6
CONTINUOUS
 10
15.0044819127
 20
5.6605614491
 11
15.0044819127
 21
5.4635759999
  0
LINE
  5
60C
100
AcDbEntity
  8
02___PRT_ALL_AXES
100
AcDbLine
 62
7
  6
CONTINUOUS
 10
15.0156230937
 20
8.5507543647
 11
15.0156230937
 21
8.4367259081
  0
LINE
  5
60D
100
AcDbEntity
  8
AXIS_COSMETIC_THREADS
100
AcDbLine
 62
7
  6
CONTINUOUS
 10
15.0394133703
 20
7.5097108418
 11
15.0394133703
 21
5.708526589
  0
LINE
  5
60E
100
AcDbEntity
  8
02___PRT_ALL_AXES
100
AcDbLine
 62
7
  6
CONTINUOUS
 10
15.0850902832
 20
9.3887706835
 11
15.0850902832
 21
9.2747483416
  0
LWPOLYLINE
  5
60F
100
AcDbEntity
  8
02___PRT_ALL_AXES
100
AcDbPolyline
 62
7
  6
CONTINUOUS
 90
14
 70
0
 10
15.136944565
 20
9.3502510279
 10
15.138054353
 20
9.3649897724
 10
15.1413721666
 20
9.3794395783
 10
15.147335849
 20
9.3942686331
 10
15.1554001937
 20
9.4076303582
 10
15.1658254084
 20
9.4199008828
 10
15.1782522024
 20
9.430407773
 10
15.1912321362
 20
9.4382248273
 10
15.2037502815
 20
9.4434590095
 10
15.2157390699
 20
9.4466987096
 10
15.2274110426
 20
9.4483539237
 10
15.2388341561
 20
9.4486152356
 10
15.250011093
 20
9.4475811404
 10
15.2609564001
 20
9.4452922995
  0
LWPOLYLINE
  5
610
100
AcDbEntity
  8
02___PRT_ALL_AXES
100
AcDbPolyline
 62
9
  6
CONTINUOUS
 90
9
 70
0
 10
15.2124734874
 20
8.5507543647
 10
15.2113451569
 20
8.5421746821
 10
15.2075721704
 20
8.5330458322
 10
15.2012480963
 20
8.524400025
 10
15.1925454388
 20
8.5164730954
 10
15.1817015838
 20
8.5094812695
 10
15.1690123232
 20
8.503615266
 10
15.1548237871
 20
8.4990350943
 10
15.1395230018
 20
8.4958656894
  0
LWPOLYLINE
  5
611
100
AcDbEntity
  8
AXIS
100
AcDbPolyline
 62
7
  6
CONTINUOUS
 90
3
 70
0
 10
15.7572851606
 20
8.8772397128
 10
15.7508369354
 20
8.8640562776
 10
15.7391113811
 20
8.8521468608
  0
LWPOLYLINE
  5
612
100
AcDbEntity
  8
0
100
AcDbPolyline
 62
7
  6
CONTINUOUS
 90
4
 70
0
 10
15.7496051008
 20
8.6222690397
 10
15.7954333412
 20
8.6893972752
 10
15.8250073485
 20
8.7595412638
 10
15.837747739
 20
8.8313590645
  0
LWPOLYLINE
  5
613
100
AcDbEntity
  8
0
100
AcDbPolyline
 62
7
  6
CONTINUOUS
 90
9
 70
0
 10
15.7673793045
 20
8.633457776
 10
15.814193381
 20
8.7020278627
 10
15.844403495
 20
8.7736776982
 10
15.8574192505
 20
8.8470375709
 10
15.8530171236
 20
8.9206378382
 10
15.8313184806
 20
8.9931704559
 10
15.7925921655
 20
9.0635249805
 10
15.7374238631
 20
9.1303555072
 10
15.6862707392
 20
9.1752671067
  0
LWPOLYLINE
  5
614
100
AcDbEntity
  8
02___PRT_ALL_AXES
100
AcDbPolyline
 62
7
  6
CONTINUOUS
 90
9
 70
0
 10
14.8780754604
 20
7.5635988649
 10
14.9699103232
 20
7.5648993754
 10
15.0605933749
 20
7.5744735713
 10
15.1479021366
 20
7.5921162806
 10
15.229696827
 20
7.6174245869
 10
15.303972805
 20
7.6498077034
 10
15.3689096995
 20
7.6885014524
 10
15.4229160236
 20
7.7325869942
 10
15.4646681793
 20
7.7810133457
  0
LINE
  5
615
100
AcDbEntity
  8
02___PRT_ALL_AXES
100
AcDbLine
 62
7
  6
CONTINUOUS
 10
14.7873394944
 20
7.5705744383
 11
14.8780754604
 21
7.5635988649
  0
LWPOLYLINE
  5
616
100
AcDbEntity
  8
02___PRT_ALL_AXES
100
AcDbPolyline
 62
7
  6
CONTINUOUS
 90
10
 70
0
 10
14.699926201
 20
7.5795983316
 10
14.7873394944
 20
7.5645471075
 10
14.8780754604
 20
7.557571534
 10
14.9699103232
 20
7.5588720445
 10
15.0605933749
 20
7.5684462404
 10
15.1479021366
 20
7.5860889498
 10
15.229696827
 20
7.6113972561
 10
15.303972805
 20
7.6437803725
 10
15.3689096995
 20
7.6824741216
 10
15.4229160236
 20
7.7265596634
  0
LINE
  5
617
100
AcDbEntity
  8
02___PRT_ALL_AXES
100
AcDbLine
 62
7
  6
CONTINUOUS
 10
14.699926201
 20
7.5856256625
 11
14.7873394944
 21
7.5705744383
  0
LWPOLYLINE
  5
618
100
AcDbEntity
  8
02___PRT_ALL_AXES
100
AcDbPolyline
 62
7
  6
CONTINUOUS
 90
11
 70
0
 10
14.699926201
 20
7.6278169783
 10
14.7873394944
 20
7.6127657542
 10
14.8780754604
 20
7.6057901807
 10
14.9699103232
 20
7.6070906912
 10
15.0605933749
 20
7.6166648871
 10
15.1479021366
 20
7.6343075965
 10
15.229696827
 20
7.6596159027
 10
15.303972805
 20
7.6919990192
 10
15.3689096995
 20
7.7306927683
 10
15.4229160236
 20
7.7747783101
 10
15.4646681793
 20
7.8232046616
  0
LWPOLYLINE
  5
619
100
AcDbEntity
  8
02___PRT_ALL_AXES
100
AcDbPolyline
 62
7
  6
CONTINUOUS
 90
11
 70
0
 10
14.699926201
 20
7.6338443091
 10
14.7873394944
 20
7.618793085
 10
14.8780754604
 20
7.6118175115
 10
14.9699103232
 20
7.6131180221
 10
15.0605933749
 20
7.6226922179
 10
15.1479021366
 20
7.6403349273
 10
15.229696827
 20
7.6656432336
 10
15.303972805
 20
7.69802635
 10
15.3689096995
 20
7.7367200991
 10
15.4229160236
 20
7.7808056409
 10
15.4646681793
 20
7.8292319924
  0
LWPOLYLINE
  5
61A
100
AcDbEntity
  8
02___PRT_ALL_AXES
100
AcDbPolyline
 62
7
  6
CONTINUOUS
 90
3
 70
0
 10
14.7646782588
 20
7.611516389
 10
14.6863977958
 20
7.6277387102
 10
14.6134562067
 20
7.6506690314
  0
LWPOLYLINE
  5
61B
100
AcDbEntity
  8
02___PRT_ALL_AXES
100
AcDbPolyline
 62
7
  6
CONTINUOUS
 90
4
 70
0
 10
14.699926201
 20
7.5795983316
 10
14.6709770541
 20
7.5889584754
 10
14.6421354433
 20
7.5994889026
 10
14.6134562067
 20
7.6112348422
  0
LWPOLYLINE
  5
61C
100
AcDbEntity
  8
02___PRT_ALL_AXES
100
AcDbPolyline
 62
7
  6
CONTINUOUS
 90
4
 70
0
 10
14.699926201
 20
7.6278169783
 10
14.6709509095
 20
7.6371861099
 10
14.642114767
 20
7.6477155504
 10
14.6134562067
 20
7.6594534888
  0
LWPOLYLINE
  5
61D
100
AcDbEntity
  8
02___PRT_ALL_AXES
100
AcDbPolyline
 62
7
  6
CONTINUOUS
 90
4
 70
0
 10
14.3803353614
 20
7.7640676124
 10
14.4093063014
 20
7.7546999768
 10
14.4381421149
 20
7.7441708516
 10
14.4668053557
 20
7.7324311019
  0
LWPOLYLINE
  5
61E
100
AcDbEntity
  8
02___PRT_ALL_AXES
100
AcDbPolyline
 62
7
  6
CONTINUOUS
 90
4
 70
0
 10
14.699926201
 20
7.676035625
 10
14.6709509095
 20
7.6854047565
 10
14.642114767
 20
7.6959341971
 10
14.6134562067
 20
7.7076721355
  0
LWPOLYLINE
  5
61F
100
AcDbEntity
  8
0
100
AcDbPolyline
 62
7
  6
CONTINUOUS
 90
7
 70
0
 10
14.2350990549
 20
8.0596532962
 10
14.1471569401
 20
8.1177995611
 10
14.0730773369
 20
8.1826298602
 10
14.0144050474
 20
8.2528102986
 10
13.9722474456
 20
8.32669962
 10
13.9470292692
 20
8.4026710531
 10
13.9386614017
 20
8.4794914849
  0
LWPOLYLINE
  5
620
100
AcDbEntity
  8
02___PRT_ALL_AXES
100
AcDbPolyline
 62
7
  6
CONTINUOUS
 90
4
 70
0
 10
14.6134562067
 20
7.698887678
 10
14.6421190348
 20
7.6786226671
 10
14.6709570595
 20
7.656912166
 10
14.699926201
 20
7.6338443091
  0
LWPOLYLINE
  5
621
100
AcDbEntity
  8
02___PRT_ALL_AXES
100
AcDbPolyline
 62
7
  6
CONTINUOUS
 90
4
 70
0
 10
14.4668053557
 20
7.8376528527
 10
14.4381474208
 20
7.8579142904
 10
14.4093090267
 20
7.8796248589
 10
14.3803353614
 20
7.9026962216
  0
LWPOLYLINE
  5
622
100
AcDbEntity
  8
02___PRT_ALL_AXES
100
AcDbPolyline
 62
7
  6
CONTINUOUS
 90
4
 70
0
 10
14.6134562067
 20
7.7471063247
 10
14.6421190348
 20
7.7268413138
 10
14.6709570595
 20
7.7051308127
 10
14.699926201
 20
7.6820629558
  0
LWPOLYLINE
  5
623
100
AcDbEntity
  8
02___PRT_ALL_AXES
100
AcDbPolyline
 62
7
  6
CONTINUOUS
 90
4
 70
0
 10
14.4668053557
 20
7.8858714994
 10
14.4381474208
 20
7.9061329371
 10
14.4093090267
 20
7.9278435055
 10
14.3803353614
 20
7.9509148683
  0
LWPOLYLINE
  5
624
100
AcDbEntity
  8
02___PRT_ALL_AXES
100
AcDbPolyline
 62
7
  6
CONTINUOUS
 90
4
 70
0
 10
14.6134562067
 20
7.7953249714
 10
14.6421190348
 20
7.7750599605
 10
14.6709570595
 20
7.7533494594
 10
14.699926201
 20
7.7302816025
  0
LWPOLYLINE
  5
625
100
AcDbEntity
  8
02___PRT_ALL_AXES
100
AcDbPolyline
 62
7
  6
CONTINUOUS
 90
4
 70
0
 10
14.4668053557
 20
7.9340901461
 10
14.4381474208
 20
7.9543515837
 10
14.4093090267
 20
7.9760621522
 10
14.3971202685
 20
7.985767906
  0
LWPOLYLINE
  5
626
100
AcDbEntity
  8
02___PRT_ALL_AXES
100
AcDbPolyline
 62
7
  6
CONTINUOUS
 90
4
 70
0
 10
14.6134562067
 20
7.8435436181
 10
14.6421190348
 20
7.8232786072
 10
14.6709570595
 20
7.8015681061
 10
14.699926201
 20
7.7785002492
  0
LWPOLYLINE
  5
627
100
AcDbEntity
  8
0
100
AcDbPolyline
 62
7
  6
CONTINUOUS
 90
4
 70
0
 10
14.0538977277
 20
8.6659864606
 10
14.1092768202
 20
8.5992277595
 10
14.1793068658
 20
8.5379607527
 10
14.2617264976
 20
8.4835260587
  0
LINE
  5
628
100
AcDbEntity
  8
AXIS
100
AcDbLine
 62
7
  6
CONTINUOUS
 10
14.0652737136
 20
8.664483501
 11
14.1195279326
 21
8.5958959281
  0
LWPOLYLINE
  5
629
100
AcDbEntity
  8
AXIS
100
AcDbPolyline
 62
7
  6
CONTINUOUS
 90
3
 70
0
 10
14.7637337295
 20
8.407747321
 10
14.7600847436
 20
8.4212833543
 10
14.7600310846
 20
8.423178948
  0
LINE
  5
62A
100
AcDbEntity
  8
02___PRT_ALL_AXES
100
AcDbLine
 62
7
  6
CONTINUOUS
 10
15.136944565
 20
9.3502510279
 11
15.136944565
 21
9.2362282053
  0
LINE
  5
62B
100
AcDbEntity
  8
02___PRT_ALL_AXES
100
AcDbLine
 62
7
  6
CONTINUOUS
 10
15.2124734874
 20
8.5507543647
 11
15.2124734874
 21
8.4367150168
  0
LWPOLYLINE
  5
62C
100
AcDbEntity
  8
AXIS_COSMETIC_THREADS
100
AcDbPolyline
 62
7
  6
CONTINUOUS
 90
7
 70
0
 10
15.0394122368
 20
5.7085265885
 10
15.0391165762
 20
5.7037285703
 10
15.0367510832
 20
5.694229648
 10
15.0320681827
 20
5.6850217702
 10
15.025163205
 20
5.6762923827
 10
15.0161767155
 20
5.6682191907
 10
15.0052916532
 20
5.6609665411
  0
LINE
  5
62D
100
AcDbEntity
  8
AXIS
100
AcDbLine
 62
7
  6
CONTINUOUS
 10
15.3337892908
 20
9.236206046
 11
15.3335267503
 21
9.2320251671
  0
LWPOLYLINE
  5
62E
100
AcDbEntity
  8
02___PRT_ALL_AXES
100
AcDbPolyline
 62
7
  6
CONTINUOUS
 90
8
 70
0
 10
15.2487546549
 20
8.6129306551
 10
15.2498085854
 20
8.6272957468
 10
15.2530013629
 20
8.641530159
 10
15.2583119473
 20
8.6552392232
 10
15.2656799904
 20
8.6681148192
 10
15.2749386129
 20
8.6797791613
 10
15.2858976858
 20
8.6899502338
 10
15.2979674736
 20
8.6981695031
  0
LWPOLYLINE
  5
62F
100
AcDbEntity
  8
02___PRT_ALL_AXES
100
AcDbPolyline
 62
7
  6
CONTINUOUS
 90
15
 70
0
 10
15.3477450412
 20
9.2653023185
 10
15.3490495847
 20
9.281274108
 10
15.3529370796
 20
9.296847485
 10
15.3599730986
 20
9.3128162378
 10
15.3692490142
 20
9.326707894
 10
15.3819569826
 20
9.3398957311
 10
15.3959704992
 20
9.3499634406
 10
15.4099111646
 20
9.3568053183
 10
15.4231608664
 20
9.3610002192
 10
15.4359166461
 20
9.3631919667
 10
15.448284335
 20
9.3637048082
 10
15.4602752276
 20
9.3627116027
 10
15.4719421581
 20
9.3602935155
 10
15.4835170733
 20
9.3563667642
 10
15.4953820015
 20
9.3505415214
  0
LINE
  5
630
100
AcDbEntity
  8
AXIS
100
AcDbLine
 62
7
  6
CONTINUOUS
 10
15.2124660574
 20
8.4367150168
 11
15.2119749585
 21
8.4310085346
  0
LWPOLYLINE
  5
631
100
AcDbEntity
  8
AXIS
100
AcDbPolyline
 62
7
  6
CONTINUOUS
 90
4
 70
0
 10
15.4454254717
 20
8.4954659808
 10
15.4411485327
 20
8.4819913672
 10
15.4314104737
 20
8.4694992332
 10
15.4167772354
 20
8.4587155762
  0
LINE
  5
632
100
AcDbEntity
  8
AXIS
100
AcDbLine
 62
7
  6
CONTINUOUS
 10
15.7805556905
 20
8.6644876241
 11
15.8173497958
 21
8.7368350131
  0
LINE
  5
633
100
AcDbEntity
  8
02___PRT_ALL_AXES
100
AcDbLine
 62
7
  6
CONTINUOUS
 10
15.4646681793
 20
7.9678606016
 11
15.4805050664
 21
7.9965646084
  0
LWPOLYLINE
  5
634
100
AcDbEntity
  8
02___PRT_ALL_AXES
100
AcDbPolyline
 62
7
  6
CONTINUOUS
 90
3
 70
0
 10
15.4646681793
 20
7.9196419549
 10
15.493142896
 20
7.9712517476
 10
15.5026070591
 20
8.0062104159
  0
LINE
  5
635
100
AcDbEntity
  8
02___PRT_ALL_AXES
100
AcDbLine
 62
7
  6
CONTINUOUS
 10
15.4646681793
 20
7.8292319924
 11
15.493142896
 21
7.8808417851
  0
LINE
  5
636
100
AcDbEntity
  8
02___PRT_ALL_AXES
100
AcDbLine
 62
7
  6
CONTINUOUS
 10
15.4646681793
 20
7.8232046616
 11
15.493142896
 21
7.8748144543
  0
LWPOLYLINE
  5
637
100
AcDbEntity
  8
02___PRT_ALL_AXES
100
AcDbPolyline
 62
7
  6
CONTINUOUS
 90
4
 70
0
 10
15.4646681793
 20
7.7810133457
 10
15.493142896
 20
7.8326231384
 10
15.5076423094
 20
7.8861809833
 10
15.5095275435
 20
7.9139269096
  0
LWPOLYLINE
  5
638
100
AcDbEntity
  8
02___PRT_ALL_AXES
100
AcDbPolyline
 62
7
  6
CONTINUOUS
 90
5
 70
0
 10
15.4229160236
 20
7.7265596634
 10
15.4646681793
 20
7.7749860149
 10
15.493142896
 20
7.8265958076
 10
15.5076423094
 20
7.8801536525
 10
15.5095275435
 20
7.9078995788
  0
LWPOLYLINE
  5
639
100
AcDbEntity
  8
02___PRT_ALL_AXES
100
AcDbPolyline
 62
7
  6
CONTINUOUS
 90
3
 70
0
 10
15.0181138062
 20
7.7511263732
 10
14.9336678138
 20
7.7452219346
 10
14.8496044152
 20
7.7468150751
  0
LINE
  5
63A
100
AcDbEntity
  8
02___PRT_ALL_AXES
100
AcDbLine
 62
7
  6
CONTINUOUS
 10
14.8496044152
 20
7.7468150751
 11
14.7672788797
 21
7.7557641426
  0
LWPOLYLINE
  5
63B
100
AcDbEntity
  8
02___PRT_ALL_AXES
100
AcDbPolyline
 62
7
  6
CONTINUOUS
 90
6
 70
0
 10
14.699926201
 20
7.676035625
 10
14.7873394944
 20
7.6609844009
 10
14.8780754604
 20
7.6540088274
 10
14.9699103232
 20
7.6553093379
 10
15.0605933749
 20
7.6648835338
 10
15.1479021366
 20
7.6825262432
  0
LWPOLYLINE
  5
63C
100
AcDbEntity
  8
02___PRT_ALL_AXES
100
AcDbPolyline
 62
7
  6
CONTINUOUS
 90
6
 70
0
 10
14.699926201
 20
7.6820629558
 10
14.7873394944
 20
7.6670117317
 10
14.8780754604
 20
7.6600361582
 10
14.9699103232
 20
7.6613366687
 10
15.0605933749
 20
7.6709108646
 10
15.1479021366
 20
7.688553574
  0
LWPOLYLINE
  5
63D
100
AcDbEntity
  8
02___PRT_ALL_AXES
100
AcDbPolyline
 62
7
  6
CONTINUOUS
 90
11
 70
0
 10
14.699926201
 20
7.7242542717
 10
14.7873394944
 20
7.7092030475
 10
14.8780754604
 20
7.7022274741
 10
14.9699103232
 20
7.7035279846
 10
15.0605933749
 20
7.7131021805
 10
15.1479021366
 20
7.7307448898
 10
15.229696827
 20
7.7560531961
 10
15.303972805
 20
7.7884363126
 10
15.3689096995
 20
7.8271300616
 10
15.4229160236
 20
7.8712156034
 10
15.4646681793
 20
7.9196419549
  0
LWPOLYLINE
  5
63E
100
AcDbEntity
  8
02___PRT_ALL_AXES
100
AcDbPolyline
 62
7
  6
CONTINUOUS
 90
6
 70
0
 10
14.699926201
 20
7.7302816025
 10
14.7873394944
 20
7.7152303784
 10
14.8780754604
 20
7.7082548049
 10
14.9699103232
 20
7.7095553154
 10
15.0605933749
 20
7.7191295113
 10
15.1479021366
 20
7.7367722207
  0
LWPOLYLINE
  5
63F
100
AcDbEntity
  8
02___PRT_ALL_AXES
100
AcDbPolyline
 62
7
  6
CONTINUOUS
 90
11
 70
0
 10
14.699926201
 20
7.7724729184
 10
14.7873394944
 20
7.7574216942
 10
14.8780754604
 20
7.7504461207
 10
14.9699103232
 20
7.7517466313
 10
15.0605933749
 20
7.7613208271
 10
15.1479021366
 20
7.7789635365
 10
15.229696827
 20
7.8042718428
 10
15.303972805
 20
7.8366549592
 10
15.3689096995
 20
7.8753487083
 10
15.4229160236
 20
7.9194342501
 10
15.4646681793
 20
7.9678606016
  0
LWPOLYLINE
  5
640
100
AcDbEntity
  8
02___PRT_ALL_AXES
100
AcDbPolyline
 62
7
  6
CONTINUOUS
 90
12
 70
0
 10
14.699926201
 20
7.7785002492
 10
14.7873394944
 20
7.7634490251
 10
14.8780754604
 20
7.7564734516
 10
14.9699103232
 20
7.7577739621
 10
15.0605933749
 20
7.767348158
 10
15.1479021366
 20
7.7849908674
 10
15.229696827
 20
7.8102991736
 10
15.303972805
 20
7.8426822901
 10
15.3689096995
 20
7.8813760392
 10
15.4229160236
 20
7.925461581
 10
15.4646681793
 20
7.9738879325
 10
15.4763865051
 20
7.9951271383
  0
LWPOLYLINE
  5
641
100
AcDbEntity
  8
02___PRT_ALL_AXES
100
AcDbPolyline
 62
7
  6
CONTINUOUS
 90
3
 70
0
 10
14.7675301649
 20
7.659287831
 10
14.6877831444
 20
7.6756000907
 10
14.6134562067
 20
7.698887678
  0
LWPOLYLINE
  5
642
100
AcDbEntity
  8
02___PRT_ALL_AXES
100
AcDbPolyline
 62
7
  6
CONTINUOUS
 90
3
 70
0
 10
14.7672788797
 20
7.7557641426
 10
14.6876635332
 20
7.7720681243
 10
14.6134562067
 20
7.7953249714
  0
LWPOLYLINE
  5
643
100
AcDbEntity
  8
02___PRT_ALL_AXES
100
AcDbPolyline
 62
7
  6
CONTINUOUS
 90
3
 70
0
 10
14.7671537516
 20
7.8040022463
 10
14.687604471
 20
7.8203019574
 10
14.6134562067
 20
7.8435436181
  0
LWPOLYLINE
  5
644
100
AcDbEntity
  8
02___PRT_ALL_AXES
100
AcDbPolyline
 62
7
  6
CONTINUOUS
 90
3
 70
0
 10
14.7660246966
 20
7.707741352
 10
14.6872090372
 20
7.7239664664
 10
14.6134562067
 20
7.7471063247
  0
LWPOLYLINE
  5
645
100
AcDbEntity
  8
02___PRT_ALL_AXES
100
AcDbPolyline
 62
7
  6
CONTINUOUS
 90
5
 70
0
 10
14.3803353614
 20
7.8122862591
 10
14.4014018572
 20
7.8055911368
 10
14.4232773816
 20
7.7979727403
 10
14.4452916906
 20
7.7895830234
 10
14.4668053557
 20
7.7806497486
  0
LWPOLYLINE
  5
646
100
AcDbEntity
  8
02___PRT_ALL_AXES
100
AcDbPolyline
 62
7
  6
CONTINUOUS
 90
5
 70
0
 10
14.699926201
 20
7.820691565
 10
14.6788873137
 20
7.8273775091
 10
14.6569198738
 20
7.8350285172
 10
14.6348672997
 20
7.8434356452
 10
14.6134562067
 20
7.8523280756
  0
LWPOLYLINE
  5
647
100
AcDbEntity
  8
02___PRT_ALL_AXES
100
AcDbPolyline
 62
7
  6
CONTINUOUS
 90
4
 70
0
 10
14.699926201
 20
7.7242542717
 10
14.6709509095
 20
7.7336234032
 10
14.642114767
 20
7.7441528438
 10
14.6134562067
 20
7.7558907822
  0
LWPOLYLINE
  5
648
100
AcDbEntity
  8
02___PRT_ALL_AXES
100
AcDbPolyline
 62
7
  6
CONTINUOUS
 90
4
 70
0
 10
14.3803353614
 20
7.8605049058
 10
14.4093063014
 20
7.8511372702
 10
14.4381421149
 20
7.8406081449
 10
14.4668053557
 20
7.8288683952
  0
LWPOLYLINE
  5
649
100
AcDbEntity
  8
02___PRT_ALL_AXES
100
AcDbPolyline
 62
7
  6
CONTINUOUS
 90
4
 70
0
 10
14.699926201
 20
7.7724729184
 10
14.6709509095
 20
7.7818420499
 10
14.642114767
 20
7.7923714905
 10
14.6134562067
 20
7.8041094289
  0
LWPOLYLINE
  5
64A
100
AcDbEntity
  8
02___PRT_ALL_AXES
100
AcDbPolyline
 62
7
  6
CONTINUOUS
 90
4
 70
0
 10
14.3803353614
 20
7.9087235524
 10
14.4093063014
 20
7.8993559169
 10
14.4381421149
 20
7.8888267916
 10
14.4668053557
 20
7.8770870419
  0
LWPOLYLINE
  5
64B
100
AcDbEntity
  8
02___PRT_ALL_AXES
100
AcDbPolyline
 62
7
  6
CONTINUOUS
 90
4
 70
0
 10
14.3803353614
 20
7.9569421991
 10
14.4093063014
 20
7.9475745636
 10
14.4381421149
 20
7.9370454383
 10
14.4668053557
 20
7.9253056886
  0
LWPOLYLINE
  5
64C
100
AcDbEntity
  8
0
100
AcDbPolyline
 62
9
  6
CONTINUOUS
 90
3
 70
0
 10
14.2269450265
 20
8.0776763729
 10
14.300885382
 20
8.0391066215
 10
14.3942767279
 20
8.0001601695
  0
LWPOLYLINE
  5
64D
100
AcDbEntity
  8
02___PRT_ALL_AXES
100
AcDbPolyline
 62
7
  6
CONTINUOUS
 90
5
 70
0
 10
14.6134562067
 20
7.8917622648
 10
14.6349472889
 20
7.8766932463
 10
14.6569517865
 20
7.8604916394
 10
14.678834242
 20
7.8436356134
 10
14.699926201
 20
7.8267188959
  0
LWPOLYLINE
  5
64E
100
AcDbEntity
  8
02___PRT_ALL_AXES
100
AcDbPolyline
 62
7
  6
CONTINUOUS
 90
4
 70
0
 10
14.6414683497
 20
7.9201759438
 10
14.6421190348
 20
7.9197159005
 10
14.6709570595
 20
7.8980053995
 10
14.699926201
 20
7.8749375426
  0
LINE
  5
64F
100
AcDbEntity
  8
AXIS
100
AcDbLine
 62
7
  6
CONTINUOUS
 10
14.1195279326
 20
8.5958959281
 11
14.1901367623
 21
8.5324642397
  0
LWPOLYLINE
  5
650
100
AcDbEntity
  8
02___PRT_ALL_AXES
100
AcDbPolyline
 62
7
  6
CONTINUOUS
 90
6
 70
0
 10
14.3290862485
 20
8.8446483126
 10
14.3367361044
 20
8.8337422671
 10
14.3428301519
 20
8.8219331982
 10
14.3472914023
 20
8.809362736
 10
14.3500201576
 20
8.796245785
 10
14.3509423033
 20
8.7828042679
  0
LWPOLYLINE
  5
651
100
AcDbEntity
  8
02___PRT_ALL_AXES
100
AcDbPolyline
 62
9
  6
CONTINUOUS
 90
12
 70
0
 10
15.0156230937
 20
8.5507543647
 10
15.0171979888
 20
8.5406296484
 10
15.0214053588
 20
8.5315643066
 10
15.0281397864
 20
8.5230224196
 10
15.0372175741
 20
8.5152369878
 10
15.0483911034
 20
8.5084203774
 10
15.0613555897
 20
8.5027585279
 10
15.0757573955
 20
8.4984058796
 10
15.0912036771
 20
8.4954811616
 10
15.1072731001
 20
8.4940641524
 10
15.1235273327
 20
8.4941935045
 10
15.1395230018
 20
8.4958656894
  0
LWPOLYLINE
  5
652
100
AcDbEntity
  8
02___PRT_ALL_AXES
100
AcDbPolyline
 62
9
  6
CONTINUOUS
 90
16
 70
0
 10
15.2487546549
 20
8.6129306551
 10
15.2488387507
 20
8.610582127
 10
15.2508495377
 20
8.6012690614
 10
15.2554879645
 20
8.5922740937
 10
15.2626275069
 20
8.5838425832
 10
15.272073417
 20
8.5762045194
 10
15.2835680347
 20
8.5695682489
 10
15.2967978171
 20
8.5641147917
 10
15.3114018899
 20
8.5599929041
 10
15.3269818924
 20
8.5573150203
 10
15.3431128425
 20
8.5561541861
 10
15.35935473
 20
8.5565420659
 10
15.3752645185
 20
8.5584680794
 10
15.3904082306
 20
8.5618796901
 10
15.4043727852
 20
8.566683838
 10
15.4167772656
 20
8.5727494785
  0
LINE
  5
653
100
AcDbEntity
  8
02___PRT_ALL_AXES
100
AcDbLine
 62
7
  6
CONTINUOUS
 10
15.2487546549
 20
8.6129306551
 11
15.2487546549
 21
8.4989093292
  0
LINE
  5
654
100
AcDbEntity
  8
02___PRT_ALL_AXES
100
AcDbLine
 62
7
  6
CONTINUOUS
 10
15.3337949587
 20
9.3502510279
 11
15.3337949587
 21
9.236206046
  0
LINE
  5
655
100
AcDbEntity
  8
02___PRT_ALL_AXES
100
AcDbLine
 62
7
  6
CONTINUOUS
 10
15.3477450412
 20
9.2653023185
 11
15.3477450412
 21
9.1512558404
  0
LINE
  5
656
100
AcDbEntity
  8
AXIS
100
AcDbLine
 62
7
  6
CONTINUOUS
 10
15.4456006177
 20
8.4988841764
 11
15.4454254717
 21
8.4954659808
  0
LWPOLYLINE
  5
657
100
AcDbEntity
  8
02___PRT_ALL_AXES
100
AcDbPolyline
 62
7
  6
CONTINUOUS
 90
8
 70
0
 10
15.4304804825
 20
8.717849321
 10
15.431534413
 20
8.7322144127
 10
15.4347271905
 20
8.7464488249
 10
15.4400377749
 20
8.7601578891
 10
15.4474058179
 20
8.7730334851
 10
15.4566644405
 20
8.7846978272
 10
15.4676235134
 20
8.7948688997
 10
15.4796933012
 20
8.803088169
  0
LWPOLYLINE
  5
658
100
AcDbEntity
  8
02___PRT_ALL_AXES
100
AcDbPolyline
 62
7
  6
CONTINUOUS
 90
18
 70
0
 10
15.4948846281
 20
9.1435990745
 10
15.496111214
 20
9.1590893747
 10
15.4998496268
 20
9.1744650871
 10
15.5064455508
 20
9.1898820869
 10
15.5158375595
 20
9.2043079491
 10
15.5277732262
 20
9.2170325382
 10
15.5409283067
 20
9.2269279165
 10
15.5551516882
 20
9.2343265564
 10
15.5684776185
 20
9.2388402467
 10
15.5810672041
 20
9.2412599039
 10
15.593212559
 20
9.2420242233
 10
15.6049849406
 20
9.241329372
 10
15.6165708125
 20
9.2392361271
 10
15.6275384753
 20
9.2358808109
 10
15.6385929738
 20
9.2309887524
 10
15.6501697982
 20
9.223938746
 10
15.6599190619
 20
9.2160609882
 10
15.669878967
 20
9.2054431192
  0
LWPOLYLINE
  5
659
100
AcDbEntity
  8
02___PRT_ALL_AXES
100
AcDbPolyline
 62
9
  6
CONTINUOUS
 90
6
 70
0
 10
15.4456050486
 20
8.6129306551
 10
15.4448492508
 20
8.6059020559
 10
15.4415133823
 20
8.5967166505
 10
15.435604341
 20
8.5879735208
 10
15.4272833101
 20
8.5799111567
 10
15.4167772656
 20
8.5727494785
  0
LWPOLYLINE
  5
65A
100
AcDbEntity
  8
02___PRT_ALL_AXES
100
AcDbPolyline
 62
7
  6
CONTINUOUS
 90
3
 70
0
 10
15.493142896
 20
7.9290604318
 10
15.5076423094
 20
7.9826182767
 10
15.5095053745
 20
8.0100379304
  0
LINE
  5
65B
100
AcDbEntity
  8
02___PRT_ALL_AXES
100
AcDbLine
 62
7
  6
CONTINUOUS
 10
15.493142896
 20
7.9230331009
 11
15.5076423094
 21
7.9765909458
  0
LWPOLYLINE
  5
65C
100
AcDbEntity
  8
02___PRT_ALL_AXES
100
AcDbPolyline
 62
7
  6
CONTINUOUS
 90
3
 70
0
 10
15.493142896
 20
7.8808417851
 10
15.5076423094
 20
7.93439963
 10
15.5095275435
 20
7.9621455563
  0
LINE
  5
65D
100
AcDbEntity
  8
02___PRT_ALL_AXES
100
AcDbLine
 62
7
  6
CONTINUOUS
 10
15.493142896
 20
7.8748144543
 11
15.5076423094
 21
7.9283722992
  0
LWPOLYLINE
  5
65E
100
AcDbEntity
  8
AXIS
100
AcDbPolyline
 62
7
  6
CONTINUOUS
 90
4
 70
0
 10
15.6271512993
 20
8.6003846467
 10
15.6228743603
 20
8.5869100331
 10
15.6131363013
 20
8.5744178991
 10
15.598503063
 20
8.5636342421
  0
LWPOLYLINE
  5
65F
100
AcDbEntity
  8
0
100
AcDbPolyline
 62
7
  6
CONTINUOUS
 90
14
 70
0
 10
15.4632426788
 20
7.7733326443
 10
15.4492901247
 20
7.7358842469
 10
15.417978345
 20
7.6876781702
 10
15.3743361749
 20
7.6427307592
 10
15.319551726
 20
7.6025728152
 10
15.2554308059
 20
7.5683939842
 10
15.1837647931
 20
7.5408691016
 10
15.1063227232
 20
7.5204332048
 10
15.0248723292
 20
7.5073806097
 10
14.9412097905
 20
7.5018969424
 10
14.8572025735
 20
7.5040565541
 10
14.7746700691
 20
7.5138142033
 10
14.695417493
 20
7.5310140506
 10
14.6222937516
 20
7.5549688108
  0
LWPOLYLINE
  5
660
100
AcDbEntity
  8
02___PRT_ALL_AXES
100
AcDbPolyline
 62
7
  6
CONTINUOUS
 90
6
 70
0
 10
15.0481613928
 20
7.900665904
 10
15.0163978995
 20
7.8955859579
 10
14.9330188536
 20
7.8898617462
 10
14.8495872318
 20
7.8914721052
 10
14.7673078925
 20
7.9004155739
 10
14.7425014408
 20
7.905494893
  0
LWPOLYLINE
  5
661
100
AcDbEntity
  8
02___PRT_ALL_AXES
100
AcDbPolyline
 62
7
  6
CONTINUOUS
 90
3
 70
0
 10
14.8601914521
 20
7.8964769424
 10
14.8780754604
 20
7.8951020608
 10
14.9295430619
 20
7.8958309142
  0
LWPOLYLINE
  5
662
100
AcDbEntity
  8
02___PRT_ALL_AXES
100
AcDbPolyline
 62
7
  6
CONTINUOUS
 90
11
 70
0
 10
14.699926201
 20
7.820691565
 10
14.7873394944
 20
7.8056403409
 10
14.8780754604
 20
7.7986647674
 10
14.9699103232
 20
7.7999652779
 10
15.0605933749
 20
7.8095394738
 10
15.1479021366
 20
7.8271821832
 10
15.229696827
 20
7.8524904895
 10
15.303972805
 20
7.8848736059
 10
15.3689096995
 20
7.923567355
 10
15.4229160236
 20
7.9676528968
 10
15.4337837048
 20
7.9802578064
  0
LWPOLYLINE
  5
663
100
AcDbEntity
  8
02___PRT_ALL_AXES
100
AcDbPolyline
 62
7
  6
CONTINUOUS
 90
11
 70
0
 10
14.699926201
 20
7.8267188959
 10
14.7873394944
 20
7.8116676717
 10
14.8780754604
 20
7.8046920983
 10
14.9699103232
 20
7.8059926088
 10
15.0605933749
 20
7.8155668047
 10
15.1479021366
 20
7.833209514
 10
15.229696827
 20
7.8585178203
 10
15.303972805
 20
7.8909009368
 10
15.3689096995
 20
7.9295946858
 10
15.4229160236
 20
7.9736802276
 10
15.4263501756
 20
7.9776633381
  0
LWPOLYLINE
  5
664
100
AcDbEntity
  8
02___PRT_ALL_AXES
100
AcDbPolyline
 62
7
  6
CONTINUOUS
 90
9
 70
0
 10
14.699926201
 20
7.8689102117
 10
14.7873394944
 20
7.8538589876
 10
14.8780754604
 20
7.8468834141
 10
14.9699103232
 20
7.8481839246
 10
15.0605933749
 20
7.8577581205
 10
15.1479021366
 20
7.8754008299
 10
15.229696827
 20
7.9007091362
 10
15.303972805
 20
7.9330922526
 10
15.3272061832
 20
7.9469362547
  0
LWPOLYLINE
  5
665
100
AcDbEntity
  8
02___PRT_ALL_AXES
100
AcDbPolyline
 62
7
  6
CONTINUOUS
 90
9
 70
0
 10
14.699926201
 20
7.8749375426
 10
14.7873394944
 20
7.8598863184
 10
14.8780754604
 20
7.8529107449
 10
14.9699103232
 20
7.8542112555
 10
15.0605933749
 20
7.8637854513
 10
15.1479021366
 20
7.8814281607
 10
15.229696827
 20
7.906736467
 10
15.303972805
 20
7.9391195834
 10
15.3099521579
 20
7.9426824822
  0
LWPOLYLINE
  5
666
100
AcDbEntity
  8
0
100
AcDbPolyline
 62
7
  6
CONTINUOUS
 90
5
 70
0
 10
14.7062142308
 20
7.908787952
 10
14.5766031984
 20
7.9315849138
 10
14.45339863
 20
7.9646889634
 10
14.338860384
 20
8.0075890239
 10
14.2350990549
 20
8.0596532962
  0
LWPOLYLINE
  5
667
100
AcDbEntity
  8
02___PRT_ALL_AXES
100
AcDbPolyline
 62
7
  6
CONTINUOUS
 90
3
 70
0
 10
14.7650438895
 20
7.8525517512
 10
14.6863031458
 20
7.8688564512
 10
14.6134562067
 20
7.8917622648
  0
LWPOLYLINE
  5
668
100
AcDbEntity
  8
0
100
AcDbPolyline
 62
9
  6
CONTINUOUS
 90
14
 70
0
 10
14.5048199364
 20
7.9650574536
 10
14.6283447071
 20
7.9372873343
 10
14.7590836016
 20
7.9191687167
 10
14.8922761472
 20
7.9115168298
 10
15.0258446143
 20
7.9143573707
 10
15.1576931859
 20
7.9276448113
 10
15.285259291
 20
7.9511502357
 10
15.406080091
 20
7.9844221854
 10
15.5179470545
 20
8.0268439851
 10
15.6188211851
 20
8.0776414303
 10
15.7068246012
 20
8.135871059
 10
15.7803227415
 20
8.2004488188
 10
15.8379742376
 20
8.2701976012
 10
15.8787106821
 20
8.3438426026
  0
LINE
  5
669
100
AcDbEntity
  8
0
100
AcDbLine
 62
9
  6
CONTINUOUS
 10
14.3942767279
 20
8.0001601695
 11
14.5048199364
 21
7.9650574536
  0
LWPOLYLINE
  5
66A
100
AcDbEntity
  8
02___PRT_ALL_AXES
100
AcDbPolyline
 62
7
  6
CONTINUOUS
 90
4
 70
0
 10
14.699926201
 20
7.8689102117
 10
14.6709509095
 20
7.8782793433
 10
14.642114767
 20
7.8888087838
 10
14.6134562067
 20
7.9005467222
  0
LWPOLYLINE
  5
66B
100
AcDbEntity
  8
AXIS
100
AcDbPolyline
 62
7
  6
CONTINUOUS
 90
3
 70
0
 10
14.8919442939
 20
9.2592935937
 10
14.888295308
 20
9.2728296271
 10
14.888241649
 20
9.2747252208
  0
LINE
  5
66C
100
AcDbEntity
  8
AXIS
100
AcDbLine
 62
7
  6
CONTINUOUS
 10
15.1383273569
 20
9.2267252139
 11
15.1369501724
 21
9.2362282053
  0
LINE
  5
66D
100
AcDbEntity
  8
02___PRT_ALL_AXES
100
AcDbLine
 62
7
  6
CONTINUOUS
 10
15.5095275435
 20
7.9139269096
 11
15.5081278191
 21
7.9355177867
  0
LINE
  5
66E
100
AcDbEntity
  8
02___PRT_ALL_AXES
100
AcDbLine
 62
7
  6
CONTINUOUS
 10
15.5095275435
 20
7.9621455563
 11
15.5081278191
 21
7.9837364334
  0
LWPOLYLINE
  5
66F
100
AcDbEntity
  8
02___PRT_ALL_AXES
100
AcDbPolyline
 62
9
  6
CONTINUOUS
 90
16
 70
0
 10
15.4304804825
 20
8.717849321
 10
15.4305645783
 20
8.7155007929
 10
15.4325753653
 20
8.7061877273
 10
15.4372137921
 20
8.6971927596
 10
15.4443533345
 20
8.6887612491
 10
15.4537992446
 20
8.6811231853
 10
15.4652938623
 20
8.6744869147
 10
15.4785236446
 20
8.6690334576
 10
15.4931277175
 20
8.66491157
 10
15.5087077199
 20
8.6622336862
 10
15.52483867
 20
8.661072852
 10
15.5410805576
 20
8.6614607318
 10
15.5569903461
 20
8.6633867453
 10
15.5721340582
 20
8.666798356
 10
15.5860986128
 20
8.6716025039
 10
15.5985030932
 20
8.6776681444
  0
LINE
  5
670
100
AcDbEntity
  8
02___PRT_ALL_AXES
100
AcDbLine
 62
7
  6
CONTINUOUS
 10
15.4304804825
 20
8.717849321
 11
15.4304804825
 21
8.6652148436
  0
LINE
  5
671
100
AcDbEntity
  8
02___PRT_ALL_AXES
100
AcDbLine
 62
7
  6
CONTINUOUS
 10
15.4456050486
 20
8.6129306551
 11
15.4456050486
 21
8.4988841764
  0
LINE
  5
672
100
AcDbEntity
  8
02___PRT_ALL_AXES
100
AcDbLine
 62
7
  6
CONTINUOUS
 10
15.4948846281
 20
9.1435990745
 11
15.4948846281
 21
9.0295779989
  0
LINE
  5
673
100
AcDbEntity
  8
02___PRT_ALL_AXES
100
AcDbLine
 62
7
  6
CONTINUOUS
 10
15.5395869298
 20
8.8524468305
 11
15.5395869298
 21
8.8156755905
  0
LINE
  5
674
100
AcDbEntity
  8
02___PRT_ALL_AXES
100
AcDbLine
 62
7
  6
CONTINUOUS
 10
15.5445954349
 20
9.2653023185
 11
15.5445954349
 21
9.228835463
  0
LINE
  5
675
100
AcDbEntity
  8
02___PRT_ALL_AXES
100
AcDbLine
 62
7
  6
CONTINUOUS
 10
15.5076423094
 20
7.9765909458
 11
15.5095275435
 21
8.0043368722
  0
LINE
  5
676
100
AcDbEntity
  8
02___PRT_ALL_AXES
100
AcDbLine
 62
7
  6
CONTINUOUS
 10
15.5076423094
 20
7.9283722992
 11
15.5095275435
 21
7.9561182255
  0
LWPOLYLINE
  5
677
100
AcDbEntity
  8
02___PRT_ALL_AXES
100
AcDbPolyline
 62
7
  6
CONTINUOUS
 90
4
 70
0
 10
15.5395869298
 20
8.8524468305
 10
15.540610539
 20
8.8666048707
 10
15.543674414
 20
8.8805166602
 10
15.5487332763
 20
8.8938811914
  0
LWPOLYLINE
  5
678
100
AcDbEntity
  8
02___PRT_ALL_AXES
100
AcDbPolyline
 62
7
  6
CONTINUOUS
 90
22
 70
0
 10
15.561605519
 20
9.0000120347
 10
15.5627704707
 20
9.0151105142
 10
15.5664673504
 20
9.0305638925
 10
15.5727160354
 20
9.0454396249
 10
15.5826151705
 20
9.0607932218
 10
15.5936525593
 20
9.0726856867
 10
15.6078942842
 20
9.0834944392
 10
15.6217622868
 20
9.0906930509
 10
15.6348388229
 20
9.0951586999
 10
15.647605544
 20
9.0976498064
 10
15.6597898858
 20
9.0984369369
 10
15.6714127382
 20
9.0977769002
 10
15.6828619498
 20
9.095752591
 10
15.6936989719
 20
9.0924996982
 10
15.7045795256
 20
9.0877783319
 10
15.715444052
 20
9.0813562512
 10
15.7254235567
 20
9.0735735446
 10
15.7344973125
 20
9.0643723125
 10
15.7430573774
 20
9.052871214
 10
15.7491523093
 20
9.0417835675
 10
15.7541017453
 20
9.0289630416
 10
15.7573448147
 20
9.0147594261
  0
LWPOLYLINE
  5
679
100
AcDbEntity
  8
02___PRT_ALL_AXES
100
AcDbPolyline
 62
9
  6
CONTINUOUS
 90
6
 70
0
 10
15.6273308762
 20
8.717849321
 10
15.6265750784
 20
8.7108207218
 10
15.6232392099
 20
8.7016353164
 10
15.6173301685
 20
8.6928921867
 10
15.6090091377
 20
8.6848298226
 10
15.5985030932
 20
8.6776681444
  0
LINE
  5
67A
100
AcDbEntity
  8
AXIS
100
AcDbLine
 62
7
  6
CONTINUOUS
 10
15.7364365639
 20
8.7384044231
 11
15.7330836421
 21
8.7237057641
  0
LINE
  5
67B
100
AcDbEntity
  8
AXIS
100
AcDbLine
 62
7
  6
CONTINUOUS
 10
15.8173497958
 20
8.7368350131
 11
15.8359357549
 21
8.8114691733
  0
LWPOLYLINE
  5
67C
100
AcDbEntity
  8
AXIS
100
AcDbPolyline
 62
7
  6
CONTINUOUS
 90
7
 70
0
 10
14.8913448278
 20
5.4635757294
 10
14.8894418559
 20
5.4580523028
 10
14.8840225709
 20
5.453369709
 10
14.8759120097
 20
5.4502408891
 10
14.8663449318
 20
5.4491421775
 10
14.8567778381
 20
5.4502408431
 10
14.8486672318
 20
5.4533696241
  0
LINE
  5
67D
100
AcDbEntity
  8
0
100
AcDbLine
 62
7
  6
CONTINUOUS
 10
14.2617264976
 20
8.4835260587
 11
14.2617434437
 21
8.4835163019
  0
LINE
  5
67E
100
AcDbEntity
  8
AXIS
100
AcDbLine
 62
7
  6
CONTINUOUS
 10
14.1901367623
 20
8.5324642397
 11
14.262314541
 21
8.4843734417
  0
LWPOLYLINE
  5
67F
100
AcDbEntity
  8
AXIS
100
AcDbPolyline
 62
7
  6
CONTINUOUS
 90
3
 70
0
 10
14.3300596096
 20
8.5068855736
 10
14.3154262157
 20
8.5176691603
 10
14.3056879766
 20
8.5301612475
  0
LWPOLYLINE
  5
680
100
AcDbEntity
  8
AXIS
100
AcDbPolyline
 62
7
  6
CONTINUOUS
 90
3
 70
0
 10
15.022740741
 20
8.4155039777
 10
15.0165994667
 20
8.4287361751
 10
15.0156304632
 20
8.4367259081
  0
LWPOLYLINE
  5
681
100
AcDbEntity
  8
AXIS
100
AcDbPolyline
 62
7
  6
CONTINUOUS
 90
3
 70
0
 10
14.6398634508
 20
9.2407492736
 10
14.6337221765
 20
9.253981471
 10
14.632753173
 20
9.261971204
  0
LINE
  5
682
100
AcDbEntity
  8
AXIS
100
AcDbLine
 62
7
  6
CONTINUOUS
 10
15.2503669124
 20
8.4886535273
 11
15.2487590254
 21
8.4989093292
  0
LINE
  5
683
100
AcDbEntity
  8
02___PRT_ALL_AXES
100
AcDbLine
 62
9
  6
CONTINUOUS
 10
15.5619800923
 20
8.9950591738
 11
15.561605519
 21
9.0000120347
  0
LWPOLYLINE
  5
684
100
AcDbEntity
  8
02___PRT_ALL_AXES
100
AcDbPolyline
 62
9
  6
CONTINUOUS
 90
19
 70
0
 10
15.5395869298
 20
8.8524468305
 10
15.5398204514
 20
8.8485347564
 10
15.5422749521
 20
8.839257215
 10
15.5473409134
 20
8.8303394521
 10
15.554880149
 20
8.8220247207
 10
15.5646870083
 20
8.8145398253
 10
15.5764939856
 20
8.8080889341
 10
15.5899790175
 20
8.8028480106
 10
15.6047742673
 20
8.7989600137
 10
15.6204761594
 20
8.7965309978
 10
15.6366563869
 20
8.79562722
 10
15.6528735954
 20
8.796273333
 10
15.6686854218
 20
8.7984517126
 10
15.6836605607
 20
8.8021029383
 10
15.6973905293
 20
8.8071274141
 10
15.7095008099
 20
8.8133880855
 10
15.7196610655
 20
8.8207141776
 10
15.727594151
 20
8.8289058537
 10
15.7330836723
 20
8.8377396664
  0
LINE
  5
685
100
AcDbEntity
  8
02___PRT_ALL_AXES
100
AcDbLine
 62
7
  6
CONTINUOUS
 10
15.561605519
 20
9.0000120347
 11
15.561605519
 21
8.9139688312
  0
LINE
  5
686
100
AcDbEntity
  8
02___PRT_ALL_AXES
100
AcDbLine
 62
7
  6
CONTINUOUS
 10
15.6273308762
 20
8.717849321
 11
15.6273308762
 21
8.6038028423
  0
LINE
  5
687
100
AcDbEntity
  8
02___PRT_ALL_AXES
100
AcDbLine
 62
7
  6
CONTINUOUS
 10
15.6917350218
 20
9.1435990745
 11
15.6917350218
 21
9.0930892069
  0
LINE
  5
688
100
AcDbEntity
  8
AXIS
100
AcDbLine
 62
7
  6
CONTINUOUS
 10
15.6273264453
 20
8.6038028423
 11
15.6271512993
 21
8.6003846467
  0
LWPOLYLINE
  5
689
100
AcDbEntity
  8
02___PRT_ALL_AXES
100
AcDbPolyline
 62
9
  6
CONTINUOUS
 90
3
 70
0
 10
15.7364373235
 20
8.8524468305
 10
15.7359798897
 20
8.8469746521
 10
15.7330836723
 20
8.8377396664
  0
LINE
  5
68A
100
AcDbEntity
  8
AXIS
100
AcDbLine
 62
7
  6
CONTINUOUS
 10
15.7584458059
 20
8.8859281003
 11
15.7572851606
 21
8.8772397128
  0
LWPOLYLINE
  5
68B
100
AcDbEntity
  8
0
100
AcDbPolyline
 62
9
  6
CONTINUOUS
 90
3
 70
0
 10
15.8787106821
 20
8.3438426026
 10
15.9017496324
 20
8.4199622051
 10
15.9071653387
 20
8.4794861627
  0
LWPOLYLINE
  5
68C
100
AcDbEntity
  8
AXIS
100
AcDbPolyline
 62
7
  6
CONTINUOUS
 90
7
 70
0
 10
14.9479136058
 20
5.4309164691
 10
14.9460106339
 20
5.4253930425
 10
14.9405913489
 20
5.4207104487
 10
14.9324807877
 20
5.4175816288
 10
14.9229137099
 20
5.4164829172
 10
14.9133466161
 20
5.4175815828
 10
14.9052360098
 20
5.4207103637
  0
LWPOLYLINE
  5
68D
100
AcDbEntity
  8
AXIS
100
AcDbPolyline
 62
7
  6
CONTINUOUS
 90
7
 70
0
 10
15.0044819127
 20
5.4635760014
 10
15.0025789409
 20
5.4580525748
 10
14.9971596559
 20
5.453369981
 10
14.9890490947
 20
5.4502411611
 10
14.9794820168
 20
5.4491424495
 10
14.9699149231
 20
5.4502411151
 10
14.9618043168
 20
5.453369896
  0
LWPOLYLINE
  5
68E
100
AcDbEntity
  8
0
100
AcDbPolyline
 62
7
  6
CONTINUOUS
 90
3
 70
0
 10
14.2617434437
 20
8.4835163019
 10
14.3569867257
 20
8.435508276
 10
14.4637115899
 20
8.3949904924
  0
LINE
  5
68F
100
AcDbEntity
  8
02___PRT_ALL_AXES
100
AcDbLine
 62
7
  6
CONTINUOUS
 10
15.7364373235
 20
8.8524468305
 11
15.7364373235
 21
8.7384044231
  0
LINE
  5
690
100
AcDbEntity
  8
02___PRT_ALL_AXES
100
AcDbLine
 62
7
  6
CONTINUOUS
 10
15.7584559127
 20
9.0000120347
 11
15.7584559127
 21
8.8859281003
  0
LINE
  5
691
100
AcDbEntity
  8
0
100
AcDbLine
 62
7
  6
CONTINUOUS
 10
15.837747739
 20
8.8313590645
 11
15.8382677009
 21
8.8491765608
  0
LINE
  5
692
100
AcDbEntity
  8
AXIS
100
AcDbLine
 62
7
  6
CONTINUOUS
 10
15.8359357549
 20
8.8114691733
 11
15.8382587952
 21
8.8491677724
  0
LWPOLYLINE
  5
693
100
AcDbEntity
  8
0
100
AcDbPolyline
 62
7
  6
CONTINUOUS
 90
7
 70
0
 10
15.9071653388
 20
8.4794914849
 10
15.8981327946
 20
8.3996935909
 10
15.8708277062
 20
8.320689713
 10
15.8253756594
 20
8.2443485322
 10
15.7622255044
 20
8.1721783077
 10
15.6827093094
 20
8.1060106336
 10
15.5886020586
 20
8.047272441
  0
LWPOLYLINE
  5
694
100
AcDbEntity
  8
0
100
AcDbPolyline
 62
7
  6
CONTINUOUS
 90
3
 70
0
 10
15.2056089216
 20
8.3506670148
 10
15.3243776852
 20
8.3776946789
 10
15.4356572946
 20
8.4138085205
  0
LWPOLYLINE
  5
695
100
AcDbEntity
  8
AXIS
100
AcDbPolyline
 62
7
  6
CONTINUOUS
 90
7
 70
0
 10
15.1395229716
 20
8.3818317871
 10
15.1160306634
 20
8.3799069881
 10
15.0924231452
 20
8.3812839818
 10
15.0700724001
 20
8.3858827422
 10
15.0502773721
 20
8.3934360061
 10
15.0341884763
 20
8.4035048053
 10
15.022740741
 20
8.4155039777
  0
LWPOLYLINE
  5
696
100
AcDbEntity
  8
0
100
AcDbPolyline
 62
7
  6
CONTINUOUS
 90
5
 70
0
 10
14.7013283012
 20
8.340780361
 10
14.8269608514
 20
8.3282527079
 10
14.9544411476
 20
8.3257111299
 10
15.0815056448
 20
8.3332255259
 10
15.2056089216
 20
8.3506670148
  0
LWPOLYLINE
  5
697
100
AcDbEntity
  8
AXIS
100
AcDbPolyline
 62
7
  6
CONTINUOUS
 90
6
 70
0
 10
14.8498765789
 20
8.3665817226
 10
14.8266607702
 20
8.3694118554
 10
14.8052926971
 20
8.3753674081
 10
14.7870141943
 20
8.3841022655
 10
14.7728875419
 20
8.3951087895
 10
14.7637337295
 20
8.407747321
  0
LWPOLYLINE
  5
698
100
AcDbEntity
  8
0
100
AcDbPolyline
 62
7
  6
CONTINUOUS
 90
3
 70
0
 10
14.4637115899
 20
8.3949904924
 10
14.5794670527
 20
8.3631392019
 10
14.7013283012
 20
8.340780361
  0
LWPOLYLINE
  5
699
100
AcDbEntity
  8
AXIS
100
AcDbPolyline
 62
7
  6
CONTINUOUS
 90
5
 70
0
 10
14.5688612252
 20
8.4106172402
 10
14.5487220852
 20
8.4178609491
 10
14.5321707622
 20
8.4276767332
 10
14.5201691588
 20
8.4394941349
 10
14.5134147647
 20
8.4526263698
  0
LWPOLYLINE
  5
69A
100
AcDbEntity
  8
02___PRT_ALL_AXES
100
AcDbPolyline
 62
7
  6
CONTINUOUS
 90
8
 70
0
 10
14.4488682376
 20
8.74634019
 10
14.4609035442
 20
8.7381484776
 10
14.4716220086
 20
8.728246212
 10
14.4807180282
 20
8.716927001
 10
14.4881095404
 20
8.7042701249
 10
14.4935514793
 20
8.6906178871
 10
14.4969301197
 20
8.6761128911
 10
14.498081671
 20
8.6611009871
  0
LWPOLYLINE
  5
69B
100
AcDbEntity
  8
AXIS
100
AcDbPolyline
 62
7
  6
CONTINUOUS
 90
3
 70
0
 10
15.3522017406
 20
9.1343625789
 10
15.3479246072
 20
9.1478371719
 10
15.3477494125
 20
9.1512558404
  0
LINE
  5
69C
100
AcDbEntity
  8
AXIS
100
AcDbLine
 62
7
  6
CONTINUOUS
 10
15.4967438012
 20
9.0185724792
 11
15.4948876679
 21
9.0295779989
  0
LINE
  5
69D
100
AcDbEntity
  8
0
100
AcDbLine
 62
7
  6
CONTINUOUS
 10
15.8382677009
 20
8.8491765608
 11
15.833433408
 21
8.9034091993
  0
LWPOLYLINE
  5
69E
100
AcDbEntity
  8
AXIS
100
AcDbPolyline
 62
7
  6
CONTINUOUS
 90
6
 70
0
 10
15.8382587952
 20
8.8491677724
 10
15.8359352112
 20
8.8868707683
 10
15.8173481757
 20
8.9615048391
 10
15.7805530269
 20
9.0338520513
 10
15.7262988079
 20
9.1024396242
 10
15.6917350218
 20
9.133490122
  0
LINE
  5
69F
100
AcDbEntity
  8
0
100
AcDbLine
 62
9
  6
CONTINUOUS
 10
15.9071653387
 20
8.4794861627
 11
15.9071653388
 21
8.4794914849
  0
LINE
  5
6A0
100
AcDbEntity
  8
02___PRT_ALL_AXES
100
AcDbLine
 62
7
  6
CONTINUOUS
 10
15.9071653388
 20
8.8652406584
 11
15.9071653388
 21
8.4794914849
  0
LWPOLYLINE
  5
6A1
100
AcDbEntity
  8
02___PRT_ALL_AXES
100
AcDbPolyline
 62
7
  6
CONTINUOUS
 90
22
 70
0
 10
15.9071629639
 20
8.8652266591
 10
15.9067490702
 20
8.8487156314
 10
15.8967738446
 20
8.782885468
 10
15.8736288268
 20
8.7181690173
 10
15.8376270133
 20
8.6554414583
 10
15.789255267
 20
8.5955510735
 10
15.7291677328
 20
8.5393077777
 10
15.6581769914
 20
8.487472165
 10
15.5772430708
 20
8.4407452231
 10
15.4874604636
 20
8.3997588538
 10
15.3900433253
 20
8.3650673273
 10
15.2863090558
 20
8.3371397871
 10
15.1776604831
 20
8.3163539052
 10
15.0655668926
 20
8.3029907751
 10
14.951544158
 20
8.2972311101
 10
14.8371342411
 20
8.2991527998
 10
14.7238843398
 20
8.3087298568
 10
14.6133259647
 20
8.3258327676
 10
14.5069542281
 20
8.3502302448
 10
14.4062076254
 20
8.3815923543
 10
14.3124485814
 20
8.4194949775
 10
14.2269450265
 20
8.4634255463
  0
LWPOLYLINE
  5
6A2
100
AcDbEntity
  8
02___PRT_ALL_AXES
100
AcDbPolyline
 62
7
  6
CONTINUOUS
 90
10
 70
0
 10
14.6360438079
 20
8.6711934555
 10
14.647820029
 20
8.6672100562
 10
14.6595814401
 20
8.6614418399
 10
14.6714910448
 20
8.6533686682
 10
14.6821820959
 20
8.6435543672
 10
14.6913096438
 20
8.6322805795
 10
14.6987384749
 20
8.6196714958
 10
14.7042689781
 20
8.605932445
 10
14.70770715
 20
8.5913166386
 10
14.7088823664
 20
8.5761521838
  0
LWPOLYLINE
  5
6A3
100
AcDbEntity
  8
02___PRT_ALL_AXES
100
AcDbPolyline
 62
9
  6
CONTINUOUS
 90
8
 70
0
 10
15.5619800923
 20
8.9950591738
 10
15.5647293875
 20
8.9858092312
 10
15.5700782544
 20
8.9769467041
 10
15.5778807901
 20
8.9687133391
 10
15.5879241615
 20
8.9613337209
 10
15.5999344118
 20
8.9550091463
 10
15.6135839326
 20
8.9499121331
 10
15.6183278571
 20
8.9487257381
  0
LWPOLYLINE
  5
6A4
100
AcDbEntity
  8
02___PRT_ALL_AXES
100
AcDbPolyline
 62
7
  6
CONTINUOUS
 90
4
 70
0
 10
15.7573448147
 20
9.0147594261
 10
15.7579614454
 20
9.0098655414
 10
15.7583321615
 20
9.0049461156
 10
15.7584559127
 20
9.0000120347
  0
LWPOLYLINE
  5
6A5
100
AcDbEntity
  8
02___PRT_ALL_AXES
100
AcDbPolyline
 62
7
  6
CONTINUOUS
 90
14
 70
0
 10
15.0990008199
 20
8.6480225147
 10
15.110640031
 20
8.6491205334
 10
15.122277442
 20
8.6488349461
 10
15.1336323787
 20
8.6472115203
 10
15.1448174305
 20
8.6442465002
 10
15.1559605649
 20
8.6398098565
 10
15.167188675
 20
8.6336013255
 10
15.1780517386
 20
8.6255278761
 10
15.1879762402
 20
8.6157326506
 10
15.1963204098
 20
8.6047804489
 10
15.2030298418
 20
8.5928233902
 10
15.2082196287
 20
8.5793774052
 10
15.2113571262
 20
8.5655364439
 10
15.2124734874
 20
8.5507543647
  0
LWPOLYLINE
  5
6A6
100
AcDbEntity
  8
02___PRT_ALL_AXES
100
AcDbPolyline
 62
7
  6
CONTINUOUS
 90
12
 70
0
 10
14.863419498
 20
8.6355243008
 10
14.87507566
 20
8.6342360448
 10
14.8865592007
 20
8.6315517472
 10
14.8979499592
 20
8.627377779
 10
14.9094557784
 20
8.6214051164
 10
14.9208349797
 20
8.6133571755
 10
14.9311330355
 20
8.6035972444
 10
14.9399497142
 20
8.5924154699
 10
14.9471729425
 20
8.5798455468
 10
14.9523872651
 20
8.5666209948
 10
14.95572903
 20
8.5522307249
 10
14.9568797189
 20
8.5372244107
  0
LWPOLYLINE
  5
6A7
100
AcDbEntity
  8
AXIS
100
AcDbPolyline
 62
7
  6
CONTINUOUS
 90
5
 70
0
 10
14.1540919096
 20
8.7580513738
 10
14.1371572798
 20
8.7621396221
 10
14.1180930308
 20
8.7702954404
 10
14.1029634455
 20
8.7808483153
 10
14.0926478003
 20
8.7931849521
  0
LWPOLYLINE
  5
6A8
100
AcDbEntity
  8
AXIS
100
AcDbPolyline
 62
7
  6
CONTINUOUS
 90
8
 70
0
 10
14.3012312773
 20
8.6196428737
 10
14.2830581712
 20
8.614750275
 10
14.2597786826
 20
8.6121002296
 10
14.2360771759
 20
8.6127436464
 10
14.2133310964
 20
8.6166431326
 10
14.1928623636
 20
8.6235720641
 10
14.1758605459
 20
8.6331277565
 10
14.1633137271
 20
8.6447548679
  0
LWPOLYLINE
  5
6A9
100
AcDbEntity
  8
02___PRT_ALL_AXES
100
AcDbPolyline
 62
9
  6
CONTINUOUS
 90
9
 70
0
 10
14.168072673
 20
9.0221790726
 10
14.1597815613
 20
9.0243578676
 10
14.1462965294
 20
9.0295987911
 10
14.1344895521
 20
9.0360496822
 10
14.1246826928
 20
9.0435345777
 10
14.1171434572
 20
9.0518493091
 10
14.1120774959
 20
9.060767072
 10
14.1096229952
 20
9.0700446133
 10
14.1093894736
 20
9.0739566875
  0
LINE
  5
6AA
100
AcDbEntity
  8
AXIS
100
AcDbLine
 62
7
  6
CONTINUOUS
 10
15.5041064456
 20
9.0055496744
 11
15.4967438012
 21
9.0185724792
  0
LINE
  5
6AB
100
AcDbEntity
  8
0
100
AcDbLine
 62
7
  6
CONTINUOUS
 10
15.833433408
 20
8.9034091993
 11
15.8121888059
 21
8.9744157594
  0
LWPOLYLINE
  5
6AC
100
AcDbEntity
  8
02___PRT_ALL_AXES
100
AcDbPolyline
 62
9
  6
CONTINUOUS
 90
12
 70
0
 10
14.2084661266
 20
8.8704664433
 10
14.2024426418
 20
8.8695687605
 10
14.1862487291
 20
8.8687507524
 10
14.1700424742
 20
8.8694827659
 10
14.1542659414
 20
8.8717448336
 10
14.1393494735
 20
8.875475252
 10
14.1256999527
 20
8.8805722651
 10
14.1136897024
 20
8.8868968397
 10
14.103646331
 20
8.8942764579
 10
14.0958437953
 20
8.9025098229
 10
14.0904949284
 20
8.91137235
 10
14.0877456332
 20
8.9206222926
  0
LWPOLYLINE
  5
6AD
100
AcDbEntity
  8
02___PRT_ALL_AXES
100
AcDbPolyline
 62
9
  6
CONTINUOUS
 90
11
 70
0
 10
15.6739972502
 20
8.9438702735
 10
15.6766771008
 20
8.9440056416
 10
15.6924169435
 20
8.946351358
 10
15.7072733743
 20
8.9501607978
 10
15.7208411485
 20
8.9553300494
 10
15.7327501726
 20
8.9617181091
 10
15.7426755995
 20
8.9691507272
 10
15.7503466895
 20
8.9774251614
 10
15.7555541951
 20
8.9863157066
 10
15.7581560692
 20
8.9955798519
 10
15.7584559127
 20
9.0000120347
  0
LWPOLYLINE
  5
6AE
100
AcDbEntity
  8
02___PRT_ALL_AXES
100
AcDbPolyline
 62
9
  6
CONTINUOUS
 90
4
 70
0
 10
15.5041064758
 20
9.1195835767
 10
15.4984765085
 20
9.1283878767
 10
15.4954333469
 20
9.1376070985
 10
15.4948846281
 20
9.1435990745
  0
LINE
  5
6AF
100
AcDbEntity
  8
0
100
AcDbLine
 62
7
  6
CONTINUOUS
 10
15.8121888059
 20
8.9744157594
 11
15.7742762224
 21
9.0432928367
  0
LWPOLYLINE
  5
6B0
100
AcDbEntity
  8
AXIS_COSMETIC_THREADS
100
AcDbPolyline
 62
7
  6
CONTINUOUS
 90
4
 70
0
 10
15.0052916532
 20
5.6609665411
 10
14.9927296067
 20
5.6546820769
 10
14.9787463029
 20
5.6494937318
 10
14.9636264016
 20
5.6455071253
  0
LWPOLYLINE
  5
6B1
100
AcDbEntity
  8
AXIS
100
AcDbPolyline
 62
7
  6
CONTINUOUS
 90
5
 70
0
 10
15.561605519
 20
8.9761553092
 10
15.5541238149
 20
8.9774379391
 10
15.5336550821
 20
8.9843668706
 10
15.5166532644
 20
8.9939225631
 10
15.5041064456
 20
9.0055496744
  0
LWPOLYLINE
  5
6B2
100
AcDbEntity
  8
AXIS
100
AcDbPolyline
 62
7
  6
CONTINUOUS
 90
3
 70
0
 10
15.3765733735
 20
9.111086905
 10
15.3619399797
 20
9.1218704917
 10
15.3522017406
 20
9.1343625789
  0
LWPOLYLINE
  5
6B3
100
AcDbEntity
  8
02___PRT_ALL_AXES
100
AcDbPolyline
 62
9
  6
CONTINUOUS
 90
10
 70
0
 10
15.5041064758
 20
9.1195835767
 10
15.512169678
 20
9.1114343569
 10
15.5224461718
 20
9.1041625067
 10
15.5346556413
 20
9.0979663833
 10
15.5484650441
 20
9.0930150008
 10
15.5634976956
 20
9.08944342
 10
15.5793435443
 20
9.0873490642
 10
15.5955703567
 20
9.086789062
 10
15.6117355077
 20
9.087778689
 10
15.6181209666
 20
9.0888029121
  0
LWPOLYLINE
  5
6B4
100
AcDbEntity
  8
0
100
AcDbPolyline
 62
7
  6
CONTINUOUS
 90
3
 70
0
 10
15.7742762224
 20
9.0432928367
 10
15.7202657629
 20
9.1087199528
 10
15.6917350218
 20
9.1337646617
  0
LWPOLYLINE
  5
6B5
100
AcDbEntity
  8
02___PRT_ALL_AXES
100
AcDbPolyline
 62
7
  6
CONTINUOUS
 90
6
 70
0
 10
15.669878967
 20
9.2054431192
 10
15.6775288229
 20
9.1945370737
 10
15.6836228705
 20
9.1827280048
 10
15.6880841208
 20
9.1701575425
 10
15.6908128762
 20
9.1570405916
 10
15.6917350218
 20
9.1435990745
  0
LWPOLYLINE
  5
6B6
100
AcDbEntity
  8
AXIS
100
AcDbPolyline
 62
7
  6
CONTINUOUS
 90
7
 70
0
 10
14.7566456814
 20
9.207077083
 10
14.7331533732
 20
9.205152284
 10
14.709545855
 20
9.2065292777
 10
14.6871951099
 20
9.211128038
 10
14.6674000819
 20
9.218681302
 10
14.6513111862
 20
9.2287501011
 10
14.6398634508
 20
9.2407492736
  0
LWPOLYLINE
  5
6B7
100
AcDbEntity
  8
AXIS
100
AcDbPolyline
 62
7
  6
CONTINUOUS
 90
6
 70
0
 10
14.9780871433
 20
9.2181279953
 10
14.9548713346
 20
9.2209581282
 10
14.9335032615
 20
9.2269136808
 10
14.9152247587
 20
9.2356485383
 10
14.9010981062
 20
9.2466550623
 10
14.8919442939
 20
9.2592935937
  0
LWPOLYLINE
  5
6B8
100
AcDbEntity
  8
AXIS
100
AcDbPolyline
 62
7
  6
CONTINUOUS
 90
5
 70
0
 10
15.1937738174
 20
9.1847160843
 10
15.1736346774
 20
9.1919597931
 10
15.1570833544
 20
9.2017755773
 10
15.145081751
 20
9.213592979
 10
15.1383273569
 20
9.2267252139
  0
LWPOLYLINE
  5
6B9
100
AcDbEntity
  8
02___PRT_ALL_AXES
100
AcDbPolyline
 62
9
  6
CONTINUOUS
 90
16
 70
0
 10
15.3765734037
 20
9.2251208073
 10
15.3889779716
 20
9.2190552265
 10
15.4029425955
 20
9.2142511457
 10
15.4180863568
 20
9.2108396079
 10
15.4339961731
 20
9.2089136708
 10
15.4502380662
 20
9.2085258691
 10
15.4663689996
 20
9.2096867808
 10
15.4819489634
 20
9.2123647395
 10
15.4965529768
 20
9.2164866974
 10
15.5097826805
 20
9.2219402181
 10
15.5212772025
 20
9.2285765439
 10
15.5307230024
 20
9.2362146531
 10
15.5378624233
 20
9.2446461979
 10
15.5425007203
 20
9.2536411879
 10
15.544511373
 20
9.2629542632
 10
15.5445954349
 20
9.2653023185
  0
LWPOLYLINE
  5
6BA
100
AcDbEntity
  8
02___PRT_ALL_AXES
100
AcDbPolyline
 62
9
  6
CONTINUOUS
 90
6
 70
0
 10
15.3765734037
 20
9.2251208073
 10
15.366067256
 20
9.2322824351
 10
15.3577461088
 20
9.2403447591
 10
15.3518369414
 20
9.2490878604
 10
15.3485009404
 20
9.2582732498
 10
15.3477450412
 20
9.2653023185
  0
LINE
  5
6BB
100
AcDbEntity
  8
0
100
AcDbLine
 62
7
  6
CONTINUOUS
 10
14.6327458035
 20
9.3498340186
 11
14.5923645023
 21
9.3406586478
  0
LINE
  5
6BC
100
AcDbEntity
  8
0
100
AcDbLine
 62
7
  6
CONTINUOUS
 10
14.6329161056
 20
9.378130368
 11
14.5807315221
 21
9.366273187
  0
LWPOLYLINE
  5
6BD
100
AcDbEntity
  8
02___PRT_ALL_AXES
100
AcDbPolyline
 62
9
  6
CONTINUOUS
 90
9
 70
0
 10
14.7566457116
 20
9.3211109853
 10
14.7719464969
 20
9.3242803901
 10
14.786135033
 20
9.3288605619
 10
14.7988242936
 20
9.3347265653
 10
14.8096681486
 20
9.3417183913
 10
14.8183708061
 20
9.3496453208
 10
14.8246948802
 20
9.3582911281
 10
14.8284678667
 20
9.367419978
 10
14.8295961972
 20
9.3759996606
  0
LWPOLYLINE
  5
6BE
100
AcDbEntity
  8
02___PRT_ALL_AXES
100
AcDbPolyline
 62
7
  6
CONTINUOUS
 90
3
 70
0
 10
14.6383420882
 20
9.408421661
 10
14.5595176847
 20
9.3933415297
 10
14.5559256402
 20
9.3923744725
  0
LWPOLYLINE
  5
6BF
100
AcDbEntity
  8
AXIS
100
AcDbPolyline
 62
7
  6
CONTINUOUS
 90
3
 70
0
 10
14.6327458035
 20
9.349357407
 10
14.6030262493
 20
9.3443191841
 10
14.592176031
 20
9.3414583486
  0
LWPOLYLINE
  5
6C0
100
AcDbEntity
  8
02___PRT_ALL_AXES
100
AcDbPolyline
 62
9
  6
CONTINUOUS
 90
12
 70
0
 10
14.7566457116
 20
9.3211109853
 10
14.7406500425
 20
9.3194388004
 10
14.7243958099
 20
9.3193094483
 10
14.7083263869
 20
9.3207264575
 10
14.6928801053
 20
9.3236511755
 10
14.6784782995
 20
9.3280038237
 10
14.6655138133
 20
9.3336656733
 10
14.6543402839
 20
9.3404822837
 10
14.6452624962
 20
9.3482677155
 10
14.6385280686
 20
9.3568096025
 10
14.6343206986
 20
9.3658749443
 10
14.6327458035
 20
9.3759996606
  0
LINE
  5
6C1
100
AcDbEntity
  8
0
100
AcDbLine
 62
7
  6
CONTINUOUS
 10
14.8882398895
 20
9.3770860612
 11
14.8297337427
 21
9.3736545523
  0
LINE
  5
6C2
100
AcDbEntity
  8
0
100
AcDbLine
 62
7
  6
CONTINUOUS
 10
14.8895912112
 20
9.4046346804
 11
14.8261826049
 21
9.4009158949
  0
LWPOLYLINE
  5
6C3
100
AcDbEntity
  8
AXIS
100
AcDbPolyline
 62
7
  6
CONTINUOUS
 90
3
 70
0
 10
14.8882398895
 20
9.3762937196
 10
14.8576089387
 20
9.376293646
 10
14.8297636731
 20
9.373982163
  0
LWPOLYLINE
  5
6C4
100
AcDbEntity
  8
02___PRT_ALL_AXES
100
AcDbPolyline
 62
9
  6
CONTINUOUS
 90
11
 70
0
 10
14.9780871735
 20
9.3321618976
 10
14.994342779
 20
9.3321188311
 10
15.0103889571
 20
9.3336210795
 10
15.0257880098
 20
9.3366276653
 10
15.0401198912
 20
9.3410565768
 10
15.0529936648
 20
9.3467870046
 10
15.0640581677
 20
9.3536626378
 10
15.0730115891
 20
9.361495927
 10
15.079609703
 20
9.3700732004
 10
15.0836725301
 20
9.3791604924
 10
15.0850902832
 20
9.3887706835
  0
LWPOLYLINE
  5
6C5
100
AcDbEntity
  8
02___PRT_ALL_AXES
100
AcDbPolyline
 62
9
  6
CONTINUOUS
 90
10
 70
0
 10
14.9780871735
 20
9.3321618976
 10
14.9620655511
 20
9.3337491042
 10
14.9467149398
 20
9.336837156
 10
14.9324540645
 20
9.3413418191
 10
14.9196719245
 20
9.347140218
 10
14.9087171833
 20
9.3540741874
 10
14.8998886577
 20
9.3619545868
 10
14.8934271669
 20
9.3705664594
 10
14.8895089635
 20
9.3796748958
 10
14.8882398895
 20
9.3887706835
  0
LINE
  5
6C6
100
AcDbEntity
  8
0
100
AcDbLine
 62
7
  6
CONTINUOUS
 10
15.1378844666
 20
9.3627335642
 11
15.0850902832
 21
9.3680327837
  0
LINE
  5
6C7
100
AcDbEntity
  8
0
100
AcDbLine
 62
7
  6
CONTINUOUS
 10
15.1454407475
 20
9.3895563492
 11
15.0845614469
 21
9.3956673215
  0
LWPOLYLINE
  5
6C8
100
AcDbEntity
  8
02___PRT_ALL_AXES
100
AcDbPolyline
 62
7
  6
CONTINUOUS
 90
3
 70
0
 10
15.1621174136
 20
9.4155365563
 10
15.1219424007
 20
9.42175146
 10
15.0777097429
 20
9.4254920256
  0
LWPOLYLINE
  5
6C9
100
AcDbEntity
  8
AXIS
100
AcDbPolyline
 62
7
  6
CONTINUOUS
 90
3
 70
0
 10
15.137837727
 20
9.3621128306
 10
15.1174822047
 20
9.3655635048
 10
15.0850902832
 20
9.3682522545
  0
LWPOLYLINE
  5
6CA
100
AcDbEntity
  8
02___PRT_ALL_AXES
100
AcDbPolyline
 62
9
  6
CONTINUOUS
 90
14
 70
0
 10
15.1937738476
 20
9.2987499865
 10
15.2090236074
 20
9.2954996432
 10
15.2249920216
 20
9.2937427749
 10
15.2412435135
 20
9.2935273044
 10
15.2573347847
 20
9.2948591092
 10
15.2728269074
 20
9.2977018612
 10
15.2872972968
 20
9.3019780175
 10
15.3003512384
 20
9.3075709356
 10
15.3116326547
 20
9.3143280555
 10
15.3208338181
 20
9.3220650603
 10
15.3277037449
 20
9.3305709049
 10
15.3320550413
 20
9.3396135719
 10
15.3337690153
 20
9.348946401
 10
15.3337949587
 20
9.3502510279
  0
LINE
  5
6CB
100
AcDbEntity
  8
AXIS
100
AcDbLine
 62
7
  6
CONTINUOUS
 10
15.3603187759
 20
9.3133339258
 11
15.3337949587
 21
9.320327205
  0
LINE
  5
6CC
100
AcDbEntity
  8
0
100
AcDbLine
 62
7
  6
CONTINUOUS
 10
15.3600172445
 20
9.3128823509
 11
15.3337949587
 21
9.3201329576
  0
LINE
  5
6CD
100
AcDbEntity
  8
0
100
AcDbLine
 62
7
  6
CONTINUOUS
 10
15.3785820512
 20
9.3363933581
 11
15.3334164242
 21
9.3488820496
  0
LWPOLYLINE
  5
6CE
100
AcDbEntity
  8
02___PRT_ALL_AXES
100
AcDbPolyline
 62
7
  6
CONTINUOUS
 90
3
 70
0
 10
15.4120319444
 20
9.3574767644
 10
15.3388725124
 20
9.380251072
 10
15.3280983588
 20
9.3827222375
  0
LWPOLYLINE
  5
6CF
100
AcDbEntity
  8
02___PRT_ALL_AXES
100
AcDbPolyline
 62
9
  6
CONTINUOUS
 90
8
 70
0
 10
15.1937738476
 20
9.2987499865
 10
15.1796587159
 20
9.3034051441
 10
15.1670632364
 20
9.3093381352
 10
15.1563309808
 20
9.3163871233
 10
15.1477546971
 20
9.3243598305
 10
15.141568324
 20
9.3330387821
 10
15.1379406095
 20
9.3421872389
 10
15.136944565
 20
9.3502510279
  0
LINE
  5
6D0
100
AcDbEntity
  8
AXIS
100
AcDbLine
 62
7
  6
CONTINUOUS
 10
15.5512704021
 20
9.2323076105
 11
15.5445954349
 21
9.2356468662
  0
LINE
  5
6D1
100
AcDbEntity
  8
0
100
AcDbLine
 62
7
  6
CONTINUOUS
 10
15.5513522962
 20
9.2323502097
 11
15.5445954349
 21
9.2357604507
  0
LINE
  5
6D2
100
AcDbEntity
  8
0
100
AcDbLine
 62
7
  6
CONTINUOUS
 10
15.5840832968
 20
9.2469650149
 11
15.5444683949
 21
9.2669584436
  0
LWPOLYLINE
  5
6D3
100
AcDbEntity
  8
02___PRT_ALL_AXES
100
AcDbPolyline
 62
7
  6
CONTINUOUS
 90
3
 70
0
 10
15.618881714
 20
9.2670557705
 10
15.5333781591
 20
9.3109863393
 10
15.5330855545
 20
9.3111046264
  0
LWPOLYLINE
  5
6D4
100
AcDbEntity
  8
02___PRT_ALL_AXES
100
AcDbPolyline
 62
7
  6
CONTINUOUS
 90
8
 70
0
 10
15.618881714
 20
9.2670557705
 10
15.6949734909
 20
9.2176913416
 10
15.7606244793
 20
9.1635606218
 10
15.8149468619
 20
9.1053956362
 10
15.8572060218
 20
9.0439829666
 10
15.8868304764
 20
8.9801531139
 10
15.9034196057
 20
8.9147692674
 10
15.9071629639
 20
8.8652266591
  0
LINE
  5
6D5
100
AcDbEntity
  8
0
100
AcDbLine
 62
7
  6
CONTINUOUS
 10
15.5916989442
 20
9.24192897
 11
15.5840832968
 21
9.2469650149
  0
LWPOLYLINE
  5
6D6
100
AcDbEntity
  8
02___PRT_ALL_AXES
100
AcDbPolyline
 62
7
  6
CONTINUOUS
 90
8
 70
0
 10
15.4953820015
 20
9.3505415214
 10
15.5074173081
 20
9.342349809
 10
15.5181357725
 20
9.3324475434
 10
15.5272317921
 20
9.3211283324
 10
15.5346233043
 20
9.3084714563
 10
15.5400652432
 20
9.2948192185
 10
15.5434438836
 20
9.2803142225
 10
15.5445954349
 20
9.2653023185
  0
LWPOLYLINE
  5
6D7
100
AcDbEntity
  8
02___PRT_ALL_AXES
100
AcDbPolyline
 62
7
  6
CONTINUOUS
 90
14
 70
0
 10
14.7161235297
 20
9.4732678106
 10
14.7277627408
 20
9.4743658293
 10
14.7394001518
 20
9.4740802419
 10
14.7507550885
 20
9.4724568162
 10
14.7619401403
 20
9.4694917961
 10
14.7730832748
 20
9.4650551524
 10
14.7843113848
 20
9.4588466214
 10
14.7951744484
 20
9.450773172
 10
14.80509895
 20
9.4409779465
 10
14.8134431196
 20
9.4300257447
 10
14.8201525516
 20
9.418068686
 10
14.8253423385
 20
9.4046227011
 10
14.828479836
 20
9.3907817398
 10
14.8295961972
 20
9.3759996606
  0
LWPOLYLINE
  5
6D8
100
AcDbEntity
  8
02___PRT_ALL_AXES
100
AcDbPolyline
 62
7
  6
CONTINUOUS
 90
3
 70
0
 10
14.8988331441
 20
9.433173773
 10
14.8942825825
 20
9.4332502067
 10
14.8139118457
 20
9.4291904153
  0
LWPOLYLINE
  5
6D9
100
AcDbEntity
  8
02___PRT_ALL_AXES
100
AcDbPolyline
 62
7
  6
CONTINUOUS
 90
12
 70
0
 10
14.9916300624
 20
9.4870705735
 10
15.0032862244
 20
9.4857823175
 10
15.0147697651
 20
9.48309802
 10
15.0261605236
 20
9.4789240518
 10
15.0376663428
 20
9.4729513892
 10
15.049045544
 20
9.4649034483
 10
15.0593435999
 20
9.4551435172
 10
15.0681602786
 20
9.4439617427
 10
15.0753835068
 20
9.4313918196
 10
15.0805978294
 20
9.4181672676
 10
15.0839395944
 20
9.4037769977
 10
15.0850902832
 20
9.3887706835
  0
LWPOLYLINE
  5
6DA
100
AcDbEntity
  8
02___PRT_ALL_AXES
100
AcDbPolyline
 62
7
  6
CONTINUOUS
 90
10
 70
0
 10
15.2609564001
 20
9.4452922995
 10
15.2727326213
 20
9.4413089002
 10
15.2844940323
 20
9.4355406839
 10
15.2964036371
 20
9.4274675122
 10
15.3070946881
 20
9.4176532112
 10
15.316222236
 20
9.4063794235
 10
15.3236510671
 20
9.3937703398
 10
15.3291815704
 20
9.380031289
 10
15.3326197422
 20
9.3654154827
 10
15.3337949587
 20
9.3502510279
  0
LINE
  5
6DB
100
AcDbEntity
  8
02___PRT_ALL_AXES
100
AcDbLine
 62
7
  6
CENTER
 10
3.3681985898
 20
5.5706364622
 11
3.3681985898
 21
4.4863844937
  0
LINE
  5
6DC
100
AcDbEntity
  8
02___PRT_ALL_AXES
100
AcDbLine
 62
7
  6
CENTER
 10
3.3681985898
 20
5.5706364622
 11
3.3681985898
 21
6.6548884307
  0
LINE
  5
6DD
100
AcDbEntity
  8
02___PRT_ALL_AXES
100
AcDbLine
 62
7
  6
CENTER
 10
3.3681985898
 20
5.5706364622
 11
2.2839466213
 21
5.5706364622
  0
LINE
  5
6DE
100
AcDbEntity
  8
02___PRT_ALL_AXES
100
AcDbLine
 62
7
  6
CENTER
 10
3.3681985898
 20
5.5706364622
 11
4.4524505583
 21
5.5706364622
  0
CIRCLE
  5
6DF
100
AcDbEntity
  8
0
100
AcDbCircle
 62
7
  6
CONTINUOUS
 10
10.5342808475
 20
1.243294839
 40
0.252091
  0
CIRCLE
  5
6E0
100
AcDbEntity
  8
0
100
AcDbCircle
 62
7
  6
CONTINUOUS
 10
10.5342808475
 20
1.243294839
 40
0.182698
  0
CIRCLE
  5
6E1
100
AcDbEntity
  8
02___PRT_ALL_AXES
100
AcDbCircle
 62
7
  6
CONTINUOUS
 10
2.6391983098
 20
5.4416363822
 40
0.0984251969
  0
CIRCLE
  5
6E2
100
AcDbEntity
  8
02___PRT_ALL_AXES
100
AcDbCircle
 62
7
  6
CONTINUOUS
 10
2.8930592493
 20
5.0033344
 40
0.0984251969
  0
CIRCLE
  5
6E3
100
AcDbEntity
  8
02___PRT_ALL_AXES
100
AcDbCircle
 62
7
  6
CONTINUOUS
 10
3.1150978926
 20
4.8756518311
 40
0.0984251969
  0
CIRCLE
  5
6E4
100
AcDbEntity
  8
02___PRT_ALL_AXES
100
AcDbCircle
 62
7
  6
CONTINUOUS
 10
2.7268973196
 20
5.2006365822
 40
0.0984251969
  0
ARC
  5
6E5
100
AcDbEntity
  8
AXIS
100
AcDbCircle
 62
7
  6
CONTINUOUS
 10
3.1150978926
 20
4.8756517884
 40
0.0984251969
100
AcDbArc
 50
250.0
 51
57.676309728
  0
ARC
  5
6E6
100
AcDbEntity
  8
AXIS
100
AcDbCircle
 62
7
  6
CONTINUOUS
 10
2.7268973196
 20
5.2006365394
 40
0.0984251969
100
AcDbArc
 50
210.0
 51
17.6764177758
  0
ARC
  5
6E7
100
AcDbEntity
  8
AXIS
100
AcDbCircle
 62
7
  6
CONTINUOUS
 10
2.6391983098
 20
5.4416363394
 40
0.0984251969
100
AcDbArc
 50
180.0
 51
360.0
  0
ARC
  5
6E8
100
AcDbEntity
  8
AXIS
100
AcDbCircle
 62
7
  6
CONTINUOUS
 10
2.8930592493
 20
5.0033343573
 40
0.0984251969
100
AcDbArc
 50
230.0
 51
37.6763568843
  0
CIRCLE
  5
6E9
100
AcDbEntity
  8
02___PRT_ALL_AXES
100
AcDbCircle
 62
7
  6
CONTINUOUS
 10
2.6391986298
 20
5.6986365022
 40
0.0984251969
  0
CIRCLE
  5
6EA
100
AcDbEntity
  8
02___PRT_ALL_AXES
100
AcDbCircle
 62
7
  6
CONTINUOUS
 10
2.8920592893
 20
6.1369386443
 40
0.0984251969
  0
CIRCLE
  5
6EB
100
AcDbEntity
  8
02___PRT_ALL_AXES
100
AcDbCircle
 62
7
  6
CONTINUOUS
 10
3.1150980126
 20
6.2656210532
 40
0.0984251969
  0
CIRCLE
  5
6EC
100
AcDbEntity
  8
02___PRT_ALL_AXES
100
AcDbCircle
 62
7
  6
CONTINUOUS
 10
2.7270383396
 20
5.9406362622
 40
0.0984251969
  0
ARC
  5
6ED
100
AcDbEntity
  8
AXIS
100
AcDbCircle
 62
7
  6
CONTINUOUS
 10
2.6391986298
 20
5.6986364594
 40
0.0984251969
100
AcDbArc
 50
180.0
 51
360.0
  0
ARC
  5
6EE
100
AcDbEntity
  8
AXIS
100
AcDbCircle
 62
7
  6
CONTINUOUS
 10
2.7270383396
 20
5.9406362194
 40
0.0984251969
100
AcDbArc
 50
162.3235822241
 51
330.0
  0
ARC
  5
6EF
100
AcDbEntity
  8
AXIS
100
AcDbCircle
 62
7
  6
CONTINUOUS
 10
2.8920592893
 20
6.1369386016
 40
0.0984251969
100
AcDbArc
 50
142.3236431156
 51
310.0
  0
ARC
  5
6F0
100
AcDbEntity
  8
AXIS
100
AcDbCircle
 62
7
  6
CONTINUOUS
 10
3.1150980126
 20
6.2656210105
 40
0.0984251969
100
AcDbArc
 50
122.323690272
 51
290.0
  0
CIRCLE
  5
6F1
100
AcDbEntity
  8
02___PRT_ALL_AXES
100
AcDbCircle
 62
7
  6
CONTINUOUS
 10
3.3681985498
 20
4.8306364222
 40
0.0984251969
  0
CIRCLE
  5
6F2
100
AcDbEntity
  8
02___PRT_ALL_AXES
100
AcDbCircle
 62
7
  6
CONTINUOUS
 10
4.0971985098
 20
5.4416363822
 40
0.0984251969
  0
CIRCLE
  5
6F3
100
AcDbEntity
  8
02___PRT_ALL_AXES
100
AcDbCircle
 62
7
  6
CONTINUOUS
 10
3.8443378502
 20
5.00333428
 40
0.0984251969
  0
CIRCLE
  5
6F4
100
AcDbEntity
  8
02___PRT_ALL_AXES
100
AcDbCircle
 62
7
  6
CONTINUOUS
 10
3.6212994369
 20
4.8756518711
 40
0.0984251969
  0
CIRCLE
  5
6F5
100
AcDbEntity
  8
02___PRT_ALL_AXES
100
AcDbCircle
 62
7
  6
CONTINUOUS
 10
4.00849978
 20
5.2006366622
 40
0.0984251969
  0
ARC
  5
6F6
100
AcDbEntity
  8
AXIS
100
AcDbCircle
 62
7
  6
CONTINUOUS
 10
3.6212994369
 20
4.8756518284
 40
0.0984251969
100
AcDbArc
 50
122.323690272
 51
290.0
  0
ARC
  5
6F7
100
AcDbEntity
  8
AXIS
100
AcDbCircle
 62
7
  6
CONTINUOUS
 10
3.8443378502
 20
5.0033342373
 40
0.0984251969
100
AcDbArc
 50
142.3236431156
 51
310.0
  0
ARC
  5
6F8
100
AcDbEntity
  8
AXIS
100
AcDbCircle
 62
7
  6
CONTINUOUS
 10
4.00849978
 20
5.2006366194
 40
0.0984251969
100
AcDbArc
 50
162.3235822241
 51
330.0
  0
ARC
  5
6F9
100
AcDbEntity
  8
AXIS
100
AcDbCircle
 62
7
  6
CONTINUOUS
 10
4.0971985098
 20
5.4416363394
 40
0.0984251969
100
AcDbArc
 50
180.0
 51
360.0
  0
CIRCLE
  5
6FA
100
AcDbEntity
  8
02___PRT_ALL_AXES
100
AcDbCircle
 62
7
  6
CONTINUOUS
 10
3.3681985898
 20
5.5706364622
 40
0.9842519685
  0
CIRCLE
  5
6FB
100
AcDbEntity
  8
0
100
AcDbCircle
 62
7
  6
CONTINUOUS
 10
3.3681985898
 20
5.5706364622
 40
0.9350385957
  0
CIRCLE
  5
6FC
100
AcDbEntity
  8
AXIS
100
AcDbCircle
 62
7
  6
CONTINUOUS
 10
3.3681985898
 20
5.5706364622
 40
0.9153543307
  0
CIRCLE
  5
6FD
100
AcDbEntity
  8
0
100
AcDbCircle
 62
7
  6
CONTINUOUS
 10
3.3681985898
 20
5.5706364622
 40
0.9153543307
  0
CIRCLE
  5
6FE
100
AcDbEntity
  8
02___PRT_ALL_AXES
100
AcDbCircle
 62
7
  6
CONTINUOUS
 10
3.3681986298
 20
6.3106364622
 40
0.0984251969
  0
CIRCLE
  5
6FF
100
AcDbEntity
  8
02___PRT_ALL_AXES
100
AcDbCircle
 62
7
  6
CONTINUOUS
 10
3.6212993969
 20
6.2656212532
 40
0.0984251969
  0
ARC
  5
700
100
AcDbEntity
  8
AXIS
100
AcDbCircle
 62
7
  6
CONTINUOUS
 10
3.6212993969
 20
6.2656212105
 40
0.0984251969
100
AcDbArc
 50
250.0
 51
57.676309728
  0
CIRCLE
  5
701
100
AcDbEntity
  8
02___PRT_ALL_AXES
100
AcDbCircle
 62
7
  6
CONTINUOUS
 10
4.0971987098
 20
5.6986363822
 40
0.0984251969
  0
ARC
  5
702
100
AcDbEntity
  8
AXIS
100
AcDbCircle
 62
7
  6
CONTINUOUS
 10
4.0971987098
 20
5.6986363394
 40
0.0984251969
100
AcDbArc
 50
180.0
 51
360.0
  0
CIRCLE
  5
703
100
AcDbEntity
  8
02___PRT_ALL_AXES
100
AcDbCircle
 62
7
  6
CONTINUOUS
 10
3.8443376602
 20
6.1369391143
 40
0.0984251969
  0
CIRCLE
  5
704
100
AcDbEntity
  8
02___PRT_ALL_AXES
100
AcDbCircle
 62
7
  6
CONTINUOUS
 10
4.00949966
 20
5.9406366222
 40
0.0984251969
  0
ARC
  5
705
100
AcDbEntity
  8
AXIS
100
AcDbCircle
 62
7
  6
CONTINUOUS
 10
4.00949966
 20
5.9406365794
 40
0.0984251969
100
AcDbArc
 50
210.0
 51
17.6764177758
  0
ARC
  5
706
100
AcDbEntity
  8
AXIS
100
AcDbCircle
 62
7
  6
CONTINUOUS
 10
3.8443376602
 20
6.1369390716
 40
0.0984251969
100
AcDbArc
 50
230.0
 51
37.6763568843
  0
ARC
  5
707
100
AcDbEntity
  8
02___PRT_ALL_AXES
100
AcDbCircle
 62
7
  6
CONTINUOUS
 10
5.5983014863
 20
5.0033344
 40
0.0984251969
100
AcDbArc
 50
90.0
 51
270.0
  0
ARC
  5
708
100
AcDbEntity
  8
02___PRT_ALL_AXES
100
AcDbCircle
 62
7
  6
CONTINUOUS
 10
5.5983014863
 20
4.8306364222
 40
0.0984251969
100
AcDbArc
 50
166.7387248464
 51
270.0
  0
ARC
  5
709
100
AcDbEntity
  8
02___PRT_ALL_AXES
100
AcDbCircle
 62
7
  6
CONTINUOUS
 10
5.5983014863
 20
6.3106364622
 40
0.0984251969
100
AcDbArc
 50
90.0
 51
193.2612032397
  0
ARC
  5
70A
100
AcDbEntity
  8
02___PRT_ALL_AXES
100
AcDbCircle
 62
7
  6
CONTINUOUS
 10
5.5983014863
 20
6.2656212532
 40
0.0984251969
100
AcDbArc
 50
90.0
 51
220.9721129507
  0
ARC
  5
70B
100
AcDbEntity
  8
02___PRT_ALL_AXES
100
AcDbCircle
 62
7
  6
CONTINUOUS
 10
5.5983014863
 20
4.8756518711
 40
0.0984251969
100
AcDbArc
 50
139.4109499887
 51
270.0
  0
ARC
  5
70C
100
AcDbEntity
  8
02___PRT_ALL_AXES
100
AcDbCircle
 62
7
  6
CONTINUOUS
 10
5.5983014863
 20
6.1369391143
 40
0.0984251969
100
AcDbArc
 50
90.0
 51
267.9653385619
  0
ARC
  5
70D
100
AcDbEntity
  8
02___PRT_ALL_AXES
100
AcDbCircle
 62
7
  6
CONTINUOUS
 10
5.5983014863
 20
5.2006366622
 40
0.0984251969
100
AcDbArc
 50
90.0
 51
270.0
  0
ARC
  5
70E
100
AcDbEntity
  8
02___PRT_ALL_AXES
100
AcDbCircle
 62
7
  6
CONTINUOUS
 10
5.5983014863
 20
5.9406366222
 40
0.0984251969
100
AcDbArc
 50
90.0
 51
270.0
  0
ARC
  5
70F
100
AcDbEntity
  8
02___PRT_ALL_AXES
100
AcDbCircle
 62
7
  6
CONTINUOUS
 10
5.5983014863
 20
5.4416363822
 40
0.0984251969
100
AcDbArc
 50
90.0
 51
270.0
  0
ARC
  5
710
100
AcDbEntity
  8
02___PRT_ALL_AXES
100
AcDbCircle
 62
7
  6
CONTINUOUS
 10
5.5983014863
 20
5.6986363822
 40
0.0984251969
100
AcDbArc
 50
90.0
 51
270.0
  0
ARC
  5
711
100
AcDbEntity
  8
0
100
AcDbCircle
 62
7
  6
CONTINUOUS
 10
6.1907188092
 20
6.5155183519
 40
0.0393700787
100
AcDbArc
 50
0.0
 51
90.0
  0
ARC
  5
712
100
AcDbEntity
  8
0
100
AcDbCircle
 62
7
  6
CONTINUOUS
 10
6.1907188092
 20
4.6257545724
 40
0.0393700787
100
AcDbArc
 50
270.0
 51
360.0
  0
ARC
  5
713
100
AcDbEntity
  8
0
100
AcDbCircle
 62
7
  6
CONTINUOUS
 10
6.2694589667
 20
6.1513451236
 40
0.0393700787
100
AcDbArc
 50
180.0
 51
270.0
  0
ARC
  5
714
100
AcDbEntity
  8
0
100
AcDbCircle
 62
7
  6
CONTINUOUS
 10
6.2694589667
 20
4.9899278008
 40
0.0393700787
100
AcDbArc
 50
90.0
 51
180.0
  0
ARC
  5
715
100
AcDbEntity
  8
0
100
AcDbCircle
 62
7
  6
CONTINUOUS
 10
6.978120384
 20
5.0686679582
 40
0.0393700787
100
AcDbArc
 50
270.0
 51
360.0
  0
ARC
  5
716
100
AcDbEntity
  8
0
100
AcDbCircle
 62
7
  6
CONTINUOUS
 10
6.978120384
 20
6.0726049661
 40
0.0393700787
100
AcDbArc
 50
0.0
 51
90.0
  0
ARC
  5
717
100
AcDbEntity
  8
0
100
AcDbCircle
 62
7
  6
CONTINUOUS
 10
11.2572360356
 20
5.5115813441
 40
0.0354330709
100
AcDbArc
 50
190.1642486217
 51
10.1642486217
  0
CIRCLE
  5
718
100
AcDbEntity
  8
AXIS
100
AcDbCircle
 62
7
  6
CONTINUOUS
 10
11.5466297468
 20
5.5306364622
 40
0.025
  0
ARC
  5
719
100
AcDbEntity
  8
02___PRT_ALL_AXES
100
AcDbCircle
 62
7
  6
CONTINUOUS
 10
11.2396297468
 20
5.5706364622
 40
0.05
100
AcDbArc
 50
246.6864727434
 51
345.4237533068
  0
ARC
  5
71A
100
AcDbEntity
  8
02___PRT_ALL_AXES
100
AcDbCircle
 62
7
  6
CONTINUOUS
 10
11.2396297468
 20
5.5706364622
 40
0.05
100
AcDbArc
 50
14.5712524757
 51
113.3135272566
  0
ARC
  5
71B
100
AcDbEntity
  8
0
100
AcDbCircle
 62
7
  6
CONTINUOUS
 10
11.2572360356
 20
5.6296915803
 40
0.0354330709
100
AcDbArc
 50
349.8357513783
 51
169.8357513783
  0
CIRCLE
  5
71C
100
AcDbEntity
  8
0
100
AcDbCircle
 62
7
  6
CONTINUOUS
 10
11.5866297468
 20
5.5706364622
 40
0.9842519685
  0
CIRCLE
  5
71D
100
AcDbEntity
  8
0
100
AcDbCircle
 62
9
  6
CONTINUOUS
 10
11.5866297468
 20
5.5706364622
 40
0.9448818805
  0
ARC
  5
71E
100
AcDbEntity
  8
0
100
AcDbCircle
 62
9
  6
CONTINUOUS
 10
11.5866297468
 20
5.5706364622
 40
0.5905511811
100
AcDbArc
 50
280.4753138432
 51
79.5246861568
  0
ARC
  5
71F
100
AcDbEntity
  8
0
100
AcDbCircle
 62
9
  6
CONTINUOUS
 10
11.5866297468
 20
5.5706364622
 40
0.5905511811
100
AcDbArc
 50
100.4753138432
 51
259.5246861568
  0
ARC
  5
720
100
AcDbEntity
  8
0
100
AcDbCircle
 62
7
  6
CONTINUOUS
 10
11.5866297468
 20
5.5706364622
 40
0.5511811024
100
AcDbArc
 50
100.8440625637
 51
259.1559374363
  0
ARC
  5
721
100
AcDbEntity
  8
0
100
AcDbCircle
 62
7
  6
CONTINUOUS
 10
11.5866297468
 20
5.5706364622
 40
0.5511811024
100
AcDbArc
 50
280.8440625637
 51
79.1559374363
  0
ARC
  5
722
100
AcDbEntity
  8
0
100
AcDbCircle
 62
9
  6
CONTINUOUS
 10
11.5866297468
 20
5.5706364622
 40
0.5118110236
100
AcDbArc
 50
281.2547126182
 51
78.7452873818
  0
ARC
  5
723
100
AcDbEntity
  8
0
100
AcDbCircle
 62
9
  6
CONTINUOUS
 10
11.5866297468
 20
5.5706364622
 40
0.5118110236
100
AcDbArc
 50
101.2547126182
 51
258.7452873818
  0
CIRCLE
  5
724
100
AcDbEntity
  8
0
100
AcDbCircle
 62
7
  6
CONTINUOUS
 10
11.5866297468
 20
5.5706364622
 40
0.374015748
  0
ARC
  5
725
100
AcDbEntity
  8
02___PRT_ALL_AXES
100
AcDbCircle
 62
7
  6
CONTINUOUS
 10
11.5866297468
 20
5.5706364622
 40
0.3700787402
100
AcDbArc
 50
349.8357513783
 51
10.1642486217
  0
ARC
  5
726
100
AcDbEntity
  8
02___PRT_ALL_AXES
100
AcDbCircle
 62
7
  6
CONTINUOUS
 10
11.5866297468
 20
5.5706364622
 40
0.3700787402
100
AcDbArc
 50
169.8357513783
 51
190.1642486217
  0
ARC
  5
727
100
AcDbEntity
  8
0
100
AcDbCircle
 62
9
  6
CONTINUOUS
 10
11.5866297468
 20
5.5706364622
 40
0.3051181102
100
AcDbArc
 50
193.675172929
 51
346.3247431807
  0
ARC
  5
728
100
AcDbEntity
  8
0
100
AcDbCircle
 62
9
  6
CONTINUOUS
 10
11.5866297468
 20
5.5706364622
 40
0.3051181102
100
AcDbArc
 50
13.6751729346
 51
166.324743187
  0
ARC
  5
729
100
AcDbEntity
  8
0
100
AcDbCircle
 62
7
  6
CONTINUOUS
 10
11.5866297468
 20
5.5706364622
 40
0.2992125984
100
AcDbArc
 50
349.8357513783
 51
10.1642486217
  0
ARC
  5
72A
100
AcDbEntity
  8
0
100
AcDbCircle
 62
7
  6
CONTINUOUS
 10
11.5866297468
 20
5.5706364622
 40
0.2992125984
100
AcDbArc
 50
169.8357513783
 51
190.1642486217
  0
CIRCLE
  5
72B
100
AcDbEntity
  8
0
100
AcDbCircle
 62
7
  6
CONTINUOUS
 10
11.5866297468
 20
5.5706364622
 40
0.29
  0
CIRCLE
  5
72C
100
AcDbEntity
  8
0
100
AcDbCircle
 62
7
  6
CONTINUOUS
 10
11.5866297468
 20
5.5706364622
 40
0.2611324865
  0
CIRCLE
  5
72D
100
AcDbEntity
  8
0
100
AcDbCircle
 62
7
  6
CONTINUOUS
 10
11.5866297468
 20
5.5706364622
 40
0.17
  0
CIRCLE
  5
72E
100
AcDbEntity
  8
AXIS_COSMETIC_THREADS
100
AcDbCircle
 62
7
  6
CONTINUOUS
 10
11.5866297468
 20
5.5706364622
 40
0.1165
  0
CIRCLE
  5
72F
100
AcDbEntity
  8
AXIS
100
AcDbCircle
 62
7
  6
CONTINUOUS
 10
11.5466297468
 20
5.6106364622
 40
0.025
  0
ARC
  5
730
100
AcDbEntity
  8
0
100
AcDbCircle
 62
7
  6
CONTINUOUS
 10
11.9160234581
 20
5.5115813441
 40
0.0354330709
100
AcDbArc
 50
169.8357513783
 51
349.8357513783
  0
CIRCLE
  5
731
100
AcDbEntity
  8
AXIS
100
AcDbCircle
 62
7
  6
CONTINUOUS
 10
11.6266297468
 20
5.5306364622
 40
0.025
  0
ARC
  5
732
100
AcDbEntity
  8
02___PRT_ALL_AXES
100
AcDbCircle
 62
7
  6
CONTINUOUS
 10
11.9476297468
 20
5.5706364622
 40
0.05
100
AcDbArc
 50
83.9417425193
 51
276.0582574807
  0
ARC
  5
733
100
AcDbEntity
  8
0
100
AcDbCircle
 62
7
  6
CONTINUOUS
 10
11.9160234581
 20
5.6296915803
 40
0.0354330709
100
AcDbArc
 50
10.1642486217
 51
190.1642486217
  0
CIRCLE
  5
734
100
AcDbEntity
  8
AXIS
100
AcDbCircle
 62
7
  6
CONTINUOUS
 10
11.6266297468
 20
5.6106364622
 40
0.025
  0
ENDSEC
  0
SECTION
  2
OBJECTS
  0
DICTIONARY
  5
C
100
AcDbDictionary
280
0
281
1
  3
ACAD_GROUP
350
D
  3
ACAD_MLINESTYLE
350
17
  3
ACAD_LAYOUT
350
1A
  3
ACAD_PLOTSETTINGS
350
19
  3
ACAD_PLOTSTYLENAME
350
E
  0
DICTIONARY
  5
D
102
{ACAD_REACTORS
330
C
102
}
100
AcDbDictionary
280
0
281
1
  0
ACDBDICTIONARYWDFLT
  5
E
102
{ACAD_REACTORS
330
C
102
}
100
AcDbDictionary
281
1
  3
Normal
350
F
100
AcDbDictionaryWithDefault
340
F
  0
DICTIONARY
  5
17
102
{ACAD_REACTORS
330
C
102
}
100
AcDbDictionary
280
0
281
1
  3
Standard
350
18
  0
DICTIONARY
  5
19
102
{ACAD_REACTORS
330
C
102
}
100
AcDbDictionary
281
1
  0
DICTIONARY
  5
1A
102
{ACAD_REACTORS
330
C
102
}
100
AcDbDictionary
281
1
  3
Layout1
350
1E
  3
Model
350
22
  0
ACDBPLACEHOLDER
  5
F
102
{ACAD_REACTORS
330
E
102
}
  0
MLINESTYLE
  5
18
102
{ACAD_REACTORS
330
17
102
}
100
AcDbMlineStyle
  2
STANDARD
 70
0
  3

 62
256
 51
90.0
 52
90.0
 71
2
 49
0.5
 62
256
  6
BYLAYER
 49
-0.5
 62
256
  6
BYLAYER
  0
LAYOUT
  5
1E
102
{ACAD_REACTORS
330
1A
102
}
100
AcDbPlotSettings
  1

  2

  4

  6

 40
0.0
 41
0.0
 42
0.0
 43
0.0
 44
0.0
 45
0.0
 46
0.0
 47
0.0
 48
0.0
 49
0.0
140
0.0
141
0.0
142
1.0
143
1.0
 70
0
 72
0
 73
0
 74
0
  7

 75
0
147
1.0
148
0.0
149
0.0
100
AcDbLayout
  1
Layout1
 70
0
 71
0
 10
0.0
 20
0.0
 11
0.0
 21
0.0
 12
0.0
 22
0.0
 32
0.0
 14
0.0
 24
0.0
 34
0.0
 15
0.0
 25
0.0
 35
0.0
146
0.0
 13
0.0
 23
0.0
 33
0.0
 16
0.0
 26
0.0
 36
0.0
 17
0.0
 27
0.0
 37
0.0
 76
0
330
1B
331
0
345
0
346
0
  0
LAYOUT
  5
22
102
{ACAD_REACTORS
330
1A
102
}
100
AcDbPlotSettings
  1

  2

  4

  6

 40
0.0
 41
0.0
 42
0.0
 43
0.0
 44
0.0
 45
0.0
 46
0.0
 47
0.0
 48
0.0
 49
0.0
140
0.0
141
0.0
142
1.0
143
1.0
 70
0
 72
0
 73
0
 74
0
  7

 75
0
147
1.0
148
0.0
149
0.0
100
AcDbLayout
  1
Model
 70
0
 71
0
 10
0.0
 20
0.0
 11
0.0
 21
0.0
 12
0.0
 22
0.0
 32
0.0
 14
0.0
 24
0.0
 34
0.0
 15
0.0
 25
0.0
 35
0.0
146
0.0
 13
0.0
 23
0.0
 33
0.0
 16
0.0
 26
0.0
 36
0.0
 17
0.0
 27
0.0
 37
0.0
 76
0
330
1F
331
0
345
0
346
0
  0
ENDSEC
  0
EOF
