999
DXF file: 144872_1.dxf
999
Pro/ENGINEER 2009141 by Parametric Technology Corporation
  0
SECTION
  2
HEADER
  9
$ACADVER
  1
AC1021
  9
$DWGCODEPAGE
  3
ANSI_1252
  9
$EXTMAX
 10
17.0
 20
11.0
 30
0.0
  9
$EXTMIN
 10
0.0
 20
0.0
 30
0.0
  9
$LIMMIN
 10
0.0
 20
0.0
  9
$LIMMAX
 10
17.0
 20
11.0
  9
$VIEWCTR
 10
8.5
 20
5.5
  9
$VIEWSIZE
 40
11.0
  9
$CLAYER
  8
0
  9
$LTSCALE
 40
0.935
  9
$CELTYPE
  6
BYLAYER
  9
$DIMSCALE
 40
1.0
  9
$DIMASZ
 40
0.1875
  9
$DIMEXO
 40
0.10625
  9
$DIMDLI
 40
0.646
  9
$DIMEXE
 40
0.306
  9
$DIMCEN
 40
0.153
  9
$DIMLFAC
 40
1.0
  9
$DIMBLK
  1
_FILLED
  9
$DIMTXT
 40
0.1
  9
$DIMTOL
 70
1
  9
$DIMLIM
 70
0
  9
$DIMTFAC
 40
1.0
  9
$DIMTP
 40
0.005
  9
$DIMTM
 40
0.005
  9
$PDMODE
 70
3
  9
$PDSIZE
 40
0.3125
  9
$HANDSEED
  5
7D7
  9
$TILEMODE
 70
1
  9
$MEASUREMENT
 70
0
  9
$INSUNITS
 70
1
  0
ENDSEC
  0
SECTION
  2
CLASSES
  0
CLASS
  1
ACDBDICTIONARYWDFLT
  2
AcDbDictionaryWithDefault
  3
AutoCAD 2000
 90
0
 91
1
280
0
281
0
  0
CLASS
  1
ACDBPLACEHOLDER
  2
AcDbPlaceHolder
  3
AutoCAD 2000
 90
0
 91
1
280
0
281
0
  0
CLASS
  1
LAYOUT
  2
AcDbLayout
  3
AutoCAD 2000
 90
0
 91
0
280
0
281
0
  0
CLASS
  1
TABLESTYLE
  2
AcDbTableStyle
  3
ObjectDBX Classes
 90
2047
 91
1
280
0
281
0
  0
CLASS
  1
ACAD_TABLE
  2
AcDbTable
  3
ObjectDBX Classes
 90
1025
 91
1
280
0
281
1
  0
ENDSEC
  0
SECTION
  2
TABLES
  0
TABLE
  2
VPORT
  5
8
100
AcDbSymbolTable
 70
2
  0
VPORT
  5
1F4
100
AcDbSymbolTableRecord
100
AcDbViewportTableRecord
  2
*ACTIVE
 70
0
 10
0.0
 20
0.0
 11
1.0
 21
1.0
 12
8.5
 22
5.5
 13
0.0
 23
0.0
 14
1.0
 24
1.0
 15
0.0
 25
0.0
 16
0.0
 26
0.0
 36
1.0
 17
0.0
 27
0.0
 37
0.0
 40
11.0
 41
1.5454545455
 42
50.0
 43
0.0
 44
0.0
 50
0.0
 51
0.0
 71
0
 72
100
 73
1
 74
1
 75
0
 76
0
 77
0
 78
0
  0
ENDTAB
  0
TABLE
  2
LTYPE
  5
5
100
AcDbSymbolTable
 70
6
  0
LTYPE
  5
14
100
AcDbSymbolTableRecord
100
AcDbLinetypeTableRecord
  2
BYBLOCK
 70
0
  3

 72
65
 73
0
 40
0.0
  0
LTYPE
  5
15
100
AcDbSymbolTableRecord
100
AcDbLinetypeTableRecord
  2
BYLAYER
 70
0
  3

 72
65
 73
0
 40
0.0
  0
LTYPE
  5
16
100
AcDbSymbolTableRecord
100
AcDbLinetypeTableRecord
  2
CONTINUOUS
 70
64
  3
Solid line
 72
65
 73
0
 40
0.0
  0
LTYPE
  5
1F5
100
AcDbSymbolTableRecord
100
AcDbLinetypeTableRecord
  2
CENTER
 70
64
  3
____ _ ____ _ ____ _ ____ _ ____ _ ____ _ ____
 72
65
 73
4
 40
0.6
 49
0.375
 74
0
 49
-0.075
 74
0
 49
0.075
 74
0
 49
-0.075
 74
0
  0
LTYPE
  5
1F6
100
AcDbSymbolTableRecord
100
AcDbLinetypeTableRecord
  2
HIDDEN
 70
64
  3
- - - - - - - - - - - - - - - - - - - -
 72
65
 73
2
 40
0.2
 49
0.1
 74
0
 49
-0.1
 74
0
  0
LTYPE
  5
1F7
100
AcDbSymbolTableRecord
100
AcDbLinetypeTableRecord
  2
PHANTOM
 70
64
  3
_____ _ _ _____ _ _ _____ _ _ _____
 72
65
 73
6
 40
0.8
 49
0.45
 74
0
 49
-0.05
 74
0
 49
0.1
 74
0
 49
-0.05
 74
0
 49
0.1
 74
0
 49
-0.05
 74
0
  0
LTYPE
  5
1F8
100
AcDbSymbolTableRecord
100
AcDbLinetypeTableRecord
  2
DOT
 70
64
  3
. . . . . . . . . . . . . . . . . . . .
 72
65
 73
2
 40
0.2
 49
0.1
 74
0
 49
-0.1
 74
0
  0
LTYPE
  5
1F9
100
AcDbSymbolTableRecord
100
AcDbLinetypeTableRecord
  2
DASHED
 70
64
  3
- - - - - - - - - - - - - - - - - - - -
 72
65
 73
2
 40
0.2
 49
0.1
 74
0
 49
-0.1
 74
0
  0
ENDTAB
  0
TABLE
  2
LAYER
  5
2
100
AcDbSymbolTable
 70
36
  0
LAYER
  5
10
100
AcDbSymbolTableRecord
100
AcDbLayerTableRecord
  2
0
 70
0
 62
7
  6
CONTINUOUS
370
-3
390
F
  0
LAYER
  5
1FA
100
AcDbSymbolTableRecord
100
AcDbLayerTableRecord
  2
DEFAULT_1
 70
0
 62
7
  6
CENTER
370
-3
390
F
  0
LAYER
  5
1FB
100
AcDbSymbolTableRecord
100
AcDbLayerTableRecord
  2
DEFAULT_2
 70
0
 62
8
  6
HIDDEN
370
-3
390
F
  0
LAYER
  5
1FC
100
AcDbSymbolTableRecord
100
AcDbLayerTableRecord
  2
DEFAULT_3
 70
0
 62
7
  6
PHANTOM
370
-3
390
F
  0
LAYER
  5
1FD
100
AcDbSymbolTableRecord
100
AcDbLayerTableRecord
  2
01_ALL_DTM_PLN
 70
0
 62
7
  6
CONTINUOUS
370
-3
390
F
  0
LAYER
  5
1FE
100
AcDbSymbolTableRecord
100
AcDbLayerTableRecord
  2
01__ASM_ALL_DTM_PLN
 70
0
 62
7
  6
CONTINUOUS
370
-3
390
F
  0
LAYER
  5
1FF
100
AcDbSymbolTableRecord
100
AcDbLayerTableRecord
  2
01__ASM_DEF_DTM_PLN
 70
0
 62
7
  6
CONTINUOUS
370
-3
390
F
  0
LAYER
  5
200
100
AcDbSymbolTableRecord
100
AcDbLayerTableRecord
  2
01___PRT_ALL_DTM_PLN
 70
0
 62
7
  6
CONTINUOUS
370
-3
390
F
  0
LAYER
  5
201
100
AcDbSymbolTableRecord
100
AcDbLayerTableRecord
  2
01___PRT_DEF_DTM_PLN
 70
0
 62
7
  6
CONTINUOUS
370
-3
390
F
  0
LAYER
  5
202
100
AcDbSymbolTableRecord
100
AcDbLayerTableRecord
  2
02_ALL_AXES
 70
0
 62
7
  6
CONTINUOUS
370
-3
390
F
  0
LAYER
  5
203
100
AcDbSymbolTableRecord
100
AcDbLayerTableRecord
  2
02__ASM_ALL_AXES
 70
0
 62
7
  6
CONTINUOUS
370
-3
390
F
  0
LAYER
  5
204
100
AcDbSymbolTableRecord
100
AcDbLayerTableRecord
  2
02___PRT_ALL_AXES
 70
0
 62
7
  6
CONTINUOUS
370
-3
390
F
  0
LAYER
  5
205
100
AcDbSymbolTableRecord
100
AcDbLayerTableRecord
  2
03_ALL_CURVES
 70
0
 62
7
  6
CONTINUOUS
370
-3
390
F
  0
LAYER
  5
206
100
AcDbSymbolTableRecord
100
AcDbLayerTableRecord
  2
03__ASM_ALL_CURVES
 70
0
 62
7
  6
CONTINUOUS
370
-3
390
F
  0
LAYER
  5
207
100
AcDbSymbolTableRecord
100
AcDbLayerTableRecord
  2
03___PRT_ALL_CURVES
 70
0
 62
7
  6
CONTINUOUS
370
-3
390
F
  0
LAYER
  5
208
100
AcDbSymbolTableRecord
100
AcDbLayerTableRecord
  2
04_ALL_DTM_PNT
 70
0
 62
7
  6
CONTINUOUS
370
-3
390
F
  0
LAYER
  5
209
100
AcDbSymbolTableRecord
100
AcDbLayerTableRecord
  2
04__ASM_ALL_DTM_PNT
 70
0
 62
7
  6
CONTINUOUS
370
-3
390
F
  0
LAYER
  5
20A
100
AcDbSymbolTableRecord
100
AcDbLayerTableRecord
  2
04___PRT_ALL_DTM_PNT
 70
0
 62
7
  6
CONTINUOUS
370
-3
390
F
  0
LAYER
  5
20B
100
AcDbSymbolTableRecord
100
AcDbLayerTableRecord
  2
05_ALL_DTM_CSYS
 70
0
 62
7
  6
CONTINUOUS
370
-3
390
F
  0
LAYER
  5
20C
100
AcDbSymbolTableRecord
100
AcDbLayerTableRecord
  2
05__ASM_ALL_DTM_CSYS
 70
0
 62
7
  6
CONTINUOUS
370
-3
390
F
  0
LAYER
  5
20D
100
AcDbSymbolTableRecord
100
AcDbLayerTableRecord
  2
05__ASM_DEF_DTM_CSYS
 70
0
 62
7
  6
CONTINUOUS
370
-3
390
F
  0
LAYER
  5
20E
100
AcDbSymbolTableRecord
100
AcDbLayerTableRecord
  2
05___PRT_ALL_DTM_CSYS
 70
0
 62
7
  6
CONTINUOUS
370
-3
390
F
  0
LAYER
  5
20F
100
AcDbSymbolTableRecord
100
AcDbLayerTableRecord
  2
05___PRT_DEF_DTM_CSYS
 70
0
 62
7
  6
CONTINUOUS
370
-3
390
F
  0
LAYER
  5
210
100
AcDbSymbolTableRecord
100
AcDbLayerTableRecord
  2
06_ALL_SURFS
 70
0
 62
7
  6
CONTINUOUS
370
-3
390
F
  0
LAYER
  5
211
100
AcDbSymbolTableRecord
100
AcDbLayerTableRecord
  2
06__ASM_ALL_SURFS
 70
0
 62
7
  6
CONTINUOUS
370
-3
390
F
  0
LAYER
  5
212
100
AcDbSymbolTableRecord
100
AcDbLayerTableRecord
  2
06___PRT_ALL_SURFS
 70
0
 62
7
  6
CONTINUOUS
370
-3
390
F
  0
LAYER
  5
213
100
AcDbSymbolTableRecord
100
AcDbLayerTableRecord
  2
07__ASM_ALL_SKELETONS
 70
0
 62
7
  6
CONTINUOUS
370
-3
390
F
  0
LAYER
  5
214
100
AcDbSymbolTableRecord
100
AcDbLayerTableRecord
  2
AXIS
 70
0
 62
7
  6
CONTINUOUS
370
-3
390
F
  0
LAYER
  5
215
100
AcDbSymbolTableRecord
100
AcDbLayerTableRecord
  2
AXIS_COSMETIC_THREADS
 70
0
 62
7
  6
CONTINUOUS
370
-3
390
F
  0
LAYER
  5
216
100
AcDbSymbolTableRecord
100
AcDbLayerTableRecord
  2
CSY
 70
0
 62
7
  6
CONTINUOUS
370
-3
390
F
  0
LAYER
  5
217
100
AcDbSymbolTableRecord
100
AcDbLayerTableRecord
  2
CYS
 70
0
 62
7
  6
CONTINUOUS
370
-3
390
F
  0
LAYER
  5
218
100
AcDbSymbolTableRecord
100
AcDbLayerTableRecord
  2
DATUM_CURVES
 70
0
 62
7
  6
CONTINUOUS
370
-3
390
F
  0
LAYER
  5
219
100
AcDbSymbolTableRecord
100
AcDbLayerTableRecord
  2
DATUM_PLANES
 70
0
 62
7
  6
CONTINUOUS
370
-3
390
F
  0
LAYER
  5
21A
100
AcDbSymbolTableRecord
100
AcDbLayerTableRecord
  2
ECAD_0603
 70
0
 62
7
  6
CONTINUOUS
370
-3
390
F
  0
LAYER
  5
21B
100
AcDbSymbolTableRecord
100
AcDbLayerTableRecord
  2
ECAD_0603F
 70
0
 62
7
  6
CONTINUOUS
370
-3
390
F
  0
LAYER
  5
21C
100
AcDbSymbolTableRecord
100
AcDbLayerTableRecord
  2
ECAD_0805
 70
0
 62
7
  6
CONTINUOUS
370
-3
390
F
  0
LAYER
  5
21D
100
AcDbSymbolTableRecord
100
AcDbLayerTableRecord
  2
ECAD_1206
 70
0
 62
7
  6
CONTINUOUS
370
-3
390
F
  0
LAYER
  5
21E
100
AcDbSymbolTableRecord
100
AcDbLayerTableRecord
  2
ECAD_LED1A
 70
0
 62
7
  6
CONTINUOUS
370
-3
390
F
  0
LAYER
  5
21F
100
AcDbSymbolTableRecord
100
AcDbLayerTableRecord
  2
ECAD_SOT323
 70
0
 62
7
  6
CONTINUOUS
370
-3
390
F
  0
LAYER
  5
220
100
AcDbSymbolTableRecord
100
AcDbLayerTableRecord
  2
ECAD_SOT89
 70
0
 62
7
  6
CONTINUOUS
370
-3
390
F
  0
LAYER
  5
221
100
AcDbSymbolTableRecord
100
AcDbLayerTableRecord
  2
ECAD_SP7512
 70
0
 62
7
  6
CONTINUOUS
370
-3
390
F
  0
LAYER
  5
222
100
AcDbSymbolTableRecord
100
AcDbLayerTableRecord
  2
ECAD_UMT
 70
0
 62
7
  6
CONTINUOUS
370
-3
390
F
  0
LAYER
  5
223
100
AcDbSymbolTableRecord
100
AcDbLayerTableRecord
  2
INTF_YELLOW
 70
0
 62
7
  6
CONTINUOUS
370
-3
390
F
  0
LAYER
  5
224
100
AcDbSymbolTableRecord
100
AcDbLayerTableRecord
  2
NOTES
 70
0
 62
7
  6
CONTINUOUS
370
-3
390
F
  0
LAYER
  5
225
100
AcDbSymbolTableRecord
100
AcDbLayerTableRecord
  2
QUILTS
 70
0
 62
7
  6
CONTINUOUS
370
-3
390
F
  0
LAYER
  5
226
100
AcDbSymbolTableRecord
100
AcDbLayerTableRecord
  2
SCHEME_DIMS
 70
0
 62
7
  6
CONTINUOUS
370
-3
390
F
  0
LAYER
  5
227
100
AcDbSymbolTableRecord
100
AcDbLayerTableRecord
  2
SYMBOLS
 70
0
 62
7
  6
CONTINUOUS
370
-3
390
F
  0
LAYER
  5
228
100
AcDbSymbolTableRecord
100
AcDbLayerTableRecord
  2
YELLOW
 70
0
 62
7
  6
CONTINUOUS
370
-3
390
F
  0
ENDTAB
  0
TABLE
  2
STYLE
  5
3
100
AcDbSymbolTable
 70
1
  0
STYLE
  5
11
100
AcDbSymbolTableRecord
100
AcDbTextStyleTableRecord
  2
STANDARD
 70
0
 40
0.0
 41
1.0
 50
0.0
 71
0
 42
0.2
  3
txt
  4

  0
STYLE
  5
229
100
AcDbSymbolTableRecord
100
AcDbTextStyleTableRecord
  2
TEXTSTYLE_1
 70
0
 40
0.0
 41
0.8
 50
0.0
 71
0
 42
0.2
  3
gdt
  4

  0
STYLE
  5
22A
100
AcDbSymbolTableRecord
100
AcDbTextStyleTableRecord
  2
TEXTSTYLE_2
 70
0
 40
0.0
 41
0.8
 50
0.0
 71
0
 42
0.2
  3
txt
  4

  0
STYLE
  5
22B
100
AcDbSymbolTableRecord
100
AcDbTextStyleTableRecord
  2
TEXTSTYLE_3
 70
0
 40
0.0
 41
0.85
 50
0.0
 71
0
 42
0.2
  3
txt
  4

  0
STYLE
  5
22C
100
AcDbSymbolTableRecord
100
AcDbTextStyleTableRecord
  2
TEXTSTYLE_4
 70
0
 40
0.0
 41
0.92
 50
0.0
 71
0
 42
0.2
  3
txt
  4

  0
STYLE
  5
22D
100
AcDbSymbolTableRecord
100
AcDbTextStyleTableRecord
  2
TEXTSTYLE_5
 70
0
 40
0.0
 41
1.0
 50
0.0
 71
0
 42
0.2
  3
gdt
  4

  0
ENDTAB
  0
TABLE
  2
VIEW
  5
6
100
AcDbSymbolTable
 70
0
  0
ENDTAB
  0
TABLE
  2
UCS
  5
7
100
AcDbSymbolTable
 70
0
  0
ENDTAB
  0
TABLE
  2
APPID
  5
9
100
AcDbSymbolTable
 70
1
  0
APPID
  5
22E
100
AcDbSymbolTableRecord
100
AcDbRegAppTableRecord
  2
ACAD
 70
0
  0
ENDTAB
  0
TABLE
  2
BLOCK_RECORD
  5
1
100
AcDbSymbolTable
 70
0
  0
BLOCK_RECORD
  5
22F
100
AcDbSymbolTableRecord
100
AcDbBlockTableRecord
  2
*Model_Space
  0
BLOCK_RECORD
  5
230
100
AcDbSymbolTableRecord
100
AcDbBlockTableRecord
  2
*Paper_Space
  0
BLOCK_RECORD
  5
231
100
AcDbSymbolTableRecord
100
AcDbBlockTableRecord
  2
_FILLED
  0
BLOCK_RECORD
  5
232
100
AcDbSymbolTableRecord
100
AcDbBlockTableRecord
  2
*D0
  0
BLOCK_RECORD
  5
233
100
AcDbSymbolTableRecord
100
AcDbBlockTableRecord
  2
*D1
  0
BLOCK_RECORD
  5
234
100
AcDbSymbolTableRecord
100
AcDbBlockTableRecord
  2
*D2
  0
BLOCK_RECORD
  5
235
100
AcDbSymbolTableRecord
100
AcDbBlockTableRecord
  2
*D3
  0
BLOCK_RECORD
  5
236
100
AcDbSymbolTableRecord
100
AcDbBlockTableRecord
  2
BANNER_LOGO_TITLEBLOCK_BL0
  0
BLOCK_RECORD
  5
237
100
AcDbSymbolTableRecord
100
AcDbBlockTableRecord
  2
*T1
  0
ENDTAB
  0
TABLE
  2
DIMSTYLE
  5
A
100
AcDbSymbolTable
 70
1
100
AcDbDimStyleTable
 71
0
  0
DIMSTYLE
105
238
100
AcDbSymbolTableRecord
100
AcDbDimStyleTableRecord
  2
STANDARD
 70
0
  3

  4

 40
1.0
 41
0.1875
 42
0.0625
 43
0.38
 44
0.18
 45
0.0
 46
0.0
 47
0.005
 48
0.005
140
0.1
141
0.09
142
0.0
143
25.4
144
1.0
145
0.0
146
1.0
147
0.09
 71
1.0
 72
0.0
 73
1
 74
1
 75
0
 76
0
 77
0
 78
4
170
0
171
2
172
0
173
0
174
0
175
0
176
0
177
0
178
0
270
2
271
3
272
3
273
2
274
2
275
0
280
0
281
0
282
0
283
1
284
4
285
0
286
0
287
3
288
0
340
11
341
231
342
231
343
231
344
231
  0
DIMSTYLE
105
239
100
AcDbSymbolTableRecord
100
AcDbDimStyleTableRecord
  2
DIMSTYLE_1
 70
0
  3

  4

 40
1.0
 41
0.1875
 42
0.0625
 43
0.38
 44
0.18
 45
0.0
 46
0.0
 47
0.1
 48
0.1
140
0.1
141
0.09
142
0.0
143
25.4
144
1.0
145
0.0
146
1.0
147
0.09
 71
0.0
 72
0.0
 73
1
 74
1
 75
0
 76
0
 77
0
 78
4
170
0
171
2
172
0
173
0
174
0
175
0
176
0
177
0
178
0
270
2
271
1
272
1
273
2
274
2
275
0
280
0
281
0
282
0
283
1
284
4
285
0
286
0
287
3
288
0
340
11
341
231
342
231
343
231
344
231
  0
DIMSTYLE
105
23A
100
AcDbSymbolTableRecord
100
AcDbDimStyleTableRecord
  2
DIMSTYLE_2
 70
0
  3

  4

 40
1.0
 41
0.1875
 42
0.0625
 43
0.38
 44
0.18
 45
0.0
 46
0.0
 47
0.1
 48
0.1
140
0.1
141
0.09
142
0.0
143
25.4
144
1.0
145
0.0
146
1.0
147
0.09
 71
0.0
 72
0.0
 73
1
 74
1
 75
0
 76
0
 77
0
 78
4
170
0
171
2
172
0
173
0
174
0
175
0
176
0
177
0
178
0
270
2
271
1
272
1
273
2
274
2
275
0
280
0
281
0
282
0
283
1
284
4
285
0
286
0
287
3
288
0
340
11
341
231
342
231
343
231
344
231
  0
ENDTAB
  0
ENDSEC
  0
SECTION
  2
BLOCKS
  0
BLOCK
  5
20
100
AcDbEntity
  8
0
100
AcDbBlockBegin
  2
*Model_Space
 70
0
 10
0.0
 20
0.0
 30
0.0
  3
*Model_Space
  1

  0
ENDBLK
  5
21
100
AcDbEntity
  8
0
100
AcDbBlockEnd
  0
BLOCK
  5
1C
100
AcDbEntity
  8
0
100
AcDbBlockBegin
  2
*Paper_Space
 70
0
 10
0.0
 20
0.0
 30
0.0
  3
*Paper_Space
  1

  0
ENDBLK
  5
1D
100
AcDbEntity
  8
0
100
AcDbBlockEnd
  0
BLOCK
  5
23B
100
AcDbEntity
  8
0
100
AcDbBlockBegin
 62
2
  6
CONTINUOUS
  2
BANNER_LOGO_TITLEBLOCK_BL0
 70
64
 10
12.9086867042
 20
2.5403783405
  3
BANNER_LOGO_TITLEBLOCK_BL0
  1

  0
ELLIPSE
  5
23C
100
AcDbEntity
  8
0
100
AcDbEllipse
 62
2
  6
CONTINUOUS
 10
12.9046654608
 20
2.5403783405
 30
0.0
 11
-0.8250004575
 21
0.0
 31
0.0
 40
0.218572
 41
0.0
 42
6.2831853072
  0
ARC
  5
23D
100
AcDbEntity
  8
0
100
AcDbCircle
 62
2
  6
CONTINUOUS
 10
12.400005721
 20
2.5168763464
 40
0.0153945295
100
AcDbArc
 50
354.0454548824
 51
5.1878013979
  0
ARC
  5
23E
100
AcDbEntity
  8
0
100
AcDbCircle
 62
2
  6
CONTINUOUS
 10
12.3931760319
 20
2.5166878286
 40
0.0222174455
100
AcDbArc
 50
4.0793399388
 51
69.834329283
  0
LINE
  5
23F
100
AcDbEntity
  8
0
100
AcDbLine
 62
2
  6
CONTINUOUS
 10
12.4008351814
 20
2.5375433389
 11
12.3907841758
 21
2.5410923409
  0
LINE
  5
240
100
AcDbEntity
  8
0
100
AcDbLine
 62
2
  6
CONTINUOUS
 10
12.3907841758
 20
2.5410923409
 11
12.3990241804
 21
2.5458683435
  0
ARC
  5
241
100
AcDbEntity
  8
0
100
AcDbCircle
 62
2
  6
CONTINUOUS
 10
12.3771587979
 20
2.5826952352
 40
0.0428289026
100
AcDbArc
 50
300.6990502959
 51
319.0591802498
  0
ARC
  5
242
100
AcDbEntity
  8
0
100
AcDbCircle
 62
2
  6
CONTINUOUS
 10
12.3971873948
 20
2.5665668817
 40
0.0171568255
100
AcDbArc
 50
315.9145124245
 51
16.0049121282
  0
ARC
  5
243
100
AcDbEntity
  8
0
100
AcDbCircle
 62
2
  6
CONTINUOUS
 10
12.3922357827
 20
2.5632132173
 40
0.0229166529
100
AcDbArc
 50
20.6563876465
 51
62.3316896973
  0
ARC
  5
244
100
AcDbEntity
  8
0
100
AcDbCircle
 62
2
  6
CONTINUOUS
 10
12.371573659
 20
2.5302846524
 40
0.061747717
100
AcDbArc
 50
59.5385584989
 51
90.0050977555
  0
LINE
  5
245
100
AcDbEntity
  8
0
100
AcDbLine
 62
2
  6
CONTINUOUS
 10
12.3715681652
 20
2.5920323691
 11
12.2055050731
 21
2.5920323691
  0
ARC
  5
246
100
AcDbEntity
  8
0
100
AcDbCircle
 62
2
  6
CONTINUOUS
 10
12.2055050712
 20
2.5895573696
 40
0.0024749995
100
AcDbArc
 50
89.9999571957
 51
180.0000428043
  0
LINE
  5
247
100
AcDbEntity
  8
0
100
AcDbLine
 62
2
  6
CONTINUOUS
 10
12.2030300717
 20
2.5895573678
 11
12.2030300717
 21
2.5697573568
  0
ARC
  5
248
100
AcDbEntity
  8
0
100
AcDbCircle
 62
2
  6
CONTINUOUS
 10
12.2055050712
 20
2.5697573549
 40
0.0024749995
100
AcDbArc
 50
179.9999571957
 51
270.0000428043
  0
LINE
  5
249
100
AcDbEntity
  8
0
100
AcDbLine
 62
2
  6
CONTINUOUS
 10
12.2055050731
 20
2.5672823554
 11
12.2294470864
 21
2.5672823554
  0
ARC
  5
24A
100
AcDbEntity
  8
0
100
AcDbCircle
 62
2
  6
CONTINUOUS
 10
12.2294470882
 20
2.5648073559
 40
0.0024749995
100
AcDbArc
 50
359.9999571957
 51
90.0000428043
  0
LINE
  5
24B
100
AcDbEntity
  8
0
100
AcDbLine
 62
2
  6
CONTINUOUS
 10
12.2319220877
 20
2.564807354
 11
12.2319220877
 21
2.5184523283
  0
ARC
  5
24C
100
AcDbEntity
  8
0
100
AcDbCircle
 62
2
  6
CONTINUOUS
 10
12.2294470882
 20
2.5184523265
 40
0.0024749995
100
AcDbArc
 50
269.9999571957
 51
0.0000428043
  0
LINE
  5
24D
100
AcDbEntity
  8
0
100
AcDbLine
 62
2
  6
CONTINUOUS
 10
12.2294470864
 20
2.515977327
 11
12.2055050731
 21
2.515977327
  0
ARC
  5
24E
100
AcDbEntity
  8
0
100
AcDbCircle
 62
2
  6
CONTINUOUS
 10
12.2055050712
 20
2.5135023274
 40
0.0024749995
100
AcDbArc
 50
89.9999571957
 51
180.0000428043
  0
LINE
  5
24F
100
AcDbEntity
  8
0
100
AcDbLine
 62
2
  6
CONTINUOUS
 10
12.2030300717
 20
2.5135023256
 11
12.2030300717
 21
2.4937023146
  0
ARC
  5
250
100
AcDbEntity
  8
0
100
AcDbCircle
 62
2
  6
CONTINUOUS
 10
12.2055050712
 20
2.4937023128
 40
0.0024749995
100
AcDbArc
 50
179.9999571957
 51
270.0000428043
  0
LINE
  5
251
100
AcDbEntity
  8
0
100
AcDbLine
 62
2
  6
CONTINUOUS
 10
12.2055050731
 20
2.4912273132
 11
12.3819511709
 21
2.4912273132
  0
ARC
  5
252
100
AcDbEntity
  8
0
100
AcDbCircle
 62
2
  6
CONTINUOUS
 10
12.3792298263
 20
2.539634765
 40
0.048483885
100
AcDbArc
 50
273.21763719
 51
303.0749121182
  0
ARC
  5
253
100
AcDbEntity
  8
0
100
AcDbCircle
 62
2
  6
CONTINUOUS
 10
12.3940692204
 20
2.5168671561
 40
0.0213072145
100
AcDbArc
 50
303.0488228549
 51
355.7263138674
  0
LINE
  5
254
100
AcDbEntity
  8
0
100
AcDbLine
 62
2
  6
CONTINUOUS
 10
12.2949101227
 20
2.5499573458
 11
12.3362731456
 21
2.5499573458
  0
ARC
  5
255
100
AcDbEntity
  8
0
100
AcDbCircle
 62
2
  6
CONTINUOUS
 10
12.3362731456
 20
2.5586198506
 40
0.0086625048
100
AcDbArc
 50
270.0
 51
90.0
  0
LINE
  5
256
100
AcDbEntity
  8
0
100
AcDbLine
 62
2
  6
CONTINUOUS
 10
12.3362731456
 20
2.5672823554
 11
12.2949101227
 21
2.5672823554
  0
ARC
  5
257
100
AcDbEntity
  8
0
100
AcDbCircle
 62
2
  6
CONTINUOUS
 10
12.2949101208
 20
2.5648073559
 40
0.0024749995
100
AcDbArc
 50
89.9999571957
 51
180.0000428043
  0
LINE
  5
258
100
AcDbEntity
  8
0
100
AcDbLine
 62
2
  6
CONTINUOUS
 10
12.2924351213
 20
2.564807354
 11
12.2924351213
 21
2.5524323472
  0
ARC
  5
259
100
AcDbEntity
  8
0
100
AcDbCircle
 62
2
  6
CONTINUOUS
 10
12.2949101208
 20
2.5524323453
 40
0.0024749995
100
AcDbArc
 50
179.9999571957
 51
270.0000428043
  0
LINE
  5
25A
100
AcDbEntity
  8
0
100
AcDbLine
 62
2
  6
CONTINUOUS
 10
12.2924351213
 20
2.5184523283
 11
12.2924351213
 21
2.5308273352
  0
ARC
  5
25B
100
AcDbEntity
  8
0
100
AcDbCircle
 62
2
  6
CONTINUOUS
 10
12.2949101208
 20
2.530827337
 40
0.0024749995
100
AcDbArc
 50
89.9999571957
 51
180.0000428043
  0
LINE
  5
25C
100
AcDbEntity
  8
0
100
AcDbLine
 62
2
  6
CONTINUOUS
 10
12.2949101227
 20
2.5333023366
 11
12.3362731456
 21
2.5333023366
  0
ARC
  5
25D
100
AcDbEntity
  8
0
100
AcDbCircle
 62
2
  6
CONTINUOUS
 10
12.3362731456
 20
2.5246398318
 40
0.0086625048
100
AcDbArc
 50
270.0
 51
90.0
  0
LINE
  5
25E
100
AcDbEntity
  8
0
100
AcDbLine
 62
2
  6
CONTINUOUS
 10
12.3362731456
 20
2.515977327
 11
12.2949101227
 21
2.515977327
  0
ARC
  5
25F
100
AcDbEntity
  8
0
100
AcDbCircle
 62
2
  6
CONTINUOUS
 10
12.2949101208
 20
2.5184523265
 40
0.0024749995
100
AcDbArc
 50
179.9999571957
 51
270.0000428043
  0
ARC
  5
260
100
AcDbEntity
  8
0
100
AcDbCircle
 62
2
  6
CONTINUOUS
 10
13.5806801742
 20
2.5212486481
 40
0.044722495
100
AcDbArc
 50
195.531588407
 51
204.7624440448
  0
LINE
  5
261
100
AcDbEntity
  8
0
100
AcDbLine
 62
2
  6
CONTINUOUS
 10
13.5375908118
 20
2.5092733232
 11
13.5357868108
 21
2.5153423266
  0
ARC
  5
262
100
AcDbEntity
  8
0
100
AcDbCircle
 62
2
  6
CONTINUOUS
 10
13.4974076135
 20
2.5055452462
 40
0.0396099176
100
AcDbArc
 50
14.3201081283
 51
22.4984722084
  0
ARC
  5
263
100
AcDbEntity
  8
0
100
AcDbCircle
 62
2
  6
CONTINUOUS
 10
13.5201739219
 20
2.5145168728
 40
0.0151491919
100
AcDbArc
 50
24.098260853
 51
63.0369451818
  0
ARC
  5
264
100
AcDbEntity
  8
0
100
AcDbCircle
 62
2
  6
CONTINUOUS
 10
13.5161192671
 20
2.5062372524
 40
0.0243676582
100
AcDbArc
 50
63.3666028271
 51
90.3937697637
  0
LINE
  5
265
100
AcDbEntity
  8
0
100
AcDbLine
 62
2
  6
CONTINUOUS
 10
13.5159517998
 20
2.5306043351
 11
13.4883447845
 21
2.5306043351
  0
ARC
  5
266
100
AcDbEntity
  8
0
100
AcDbCircle
 62
2
  6
CONTINUOUS
 10
13.4883447827
 20
2.5281293355
 40
0.0024749995
100
AcDbArc
 50
89.9999571957
 51
180.0000428043
  0
LINE
  5
267
100
AcDbEntity
  8
0
100
AcDbLine
 62
2
  6
CONTINUOUS
 10
13.4858697831
 20
2.5281293337
 11
13.4858697831
 21
2.5184303283
  0
ARC
  5
268
100
AcDbEntity
  8
0
100
AcDbCircle
 62
2
  6
CONTINUOUS
 10
13.4883447827
 20
2.5184303265
 40
0.0024749995
100
AcDbArc
 50
179.9999571957
 51
270.0000428043
  0
LINE
  5
269
100
AcDbEntity
  8
0
100
AcDbLine
 62
2
  6
CONTINUOUS
 10
13.4883447845
 20
2.5159553269
 11
13.5130037982
 21
2.5159553269
  0
ARC
  5
26A
100
AcDbEntity
  8
0
100
AcDbCircle
 62
2
  6
CONTINUOUS
 10
13.5130038
 20
2.5134803274
 40
0.0024749995
100
AcDbArc
 50
359.9999571957
 51
90.0000428043
  0
LINE
  5
26B
100
AcDbEntity
  8
0
100
AcDbLine
 62
2
  6
CONTINUOUS
 10
13.5154787995
 20
2.5134803256
 11
13.5154787995
 21
2.4937023146
  0
ARC
  5
26C
100
AcDbEntity
  8
0
100
AcDbCircle
 62
2
  6
CONTINUOUS
 10
13.5130038
 20
2.4937023128
 40
0.0024749995
100
AcDbArc
 50
269.9999571957
 51
0.0000428043
  0
LINE
  5
26D
100
AcDbEntity
  8
0
100
AcDbLine
 62
2
  6
CONTINUOUS
 10
13.5130037982
 20
2.4912273132
 11
13.3994327352
 21
2.4912273132
  0
ARC
  5
26E
100
AcDbEntity
  8
0
100
AcDbCircle
 62
2
  6
CONTINUOUS
 10
13.3994327333
 20
2.4937023128
 40
0.0024749995
100
AcDbArc
 50
179.9999571957
 51
270.0000428043
  0
LINE
  5
26F
100
AcDbEntity
  8
0
100
AcDbLine
 62
2
  6
CONTINUOUS
 10
13.3969577338
 20
2.4937023146
 11
13.3969577338
 21
2.5135023256
  0
ARC
  5
270
100
AcDbEntity
  8
0
100
AcDbCircle
 62
2
  6
CONTINUOUS
 10
13.3994327333
 20
2.5135023274
 40
0.0024749995
100
AcDbArc
 50
89.9999571957
 51
180.0000428043
  0
LINE
  5
271
100
AcDbEntity
  8
0
100
AcDbLine
 62
2
  6
CONTINUOUS
 10
13.3994327352
 20
2.515977327
 11
13.4221787478
 21
2.515977327
  0
ARC
  5
272
100
AcDbEntity
  8
0
100
AcDbCircle
 62
2
  6
CONTINUOUS
 10
13.4221787497
 20
2.5184523265
 40
0.0024749995
100
AcDbArc
 50
269.9999571957
 51
0.0000428042
  0
LINE
  5
273
100
AcDbEntity
  8
0
100
AcDbLine
 62
2
  6
CONTINUOUS
 10
13.4246537492
 20
2.5184523283
 11
13.4246537492
 21
2.564807354
  0
ARC
  5
274
100
AcDbEntity
  8
0
100
AcDbCircle
 62
2
  6
CONTINUOUS
 10
13.4221787497
 20
2.5648073559
 40
0.0024749995
100
AcDbArc
 50
359.9999571957
 51
90.0000428043
  0
LINE
  5
275
100
AcDbEntity
  8
0
100
AcDbLine
 62
2
  6
CONTINUOUS
 10
13.4221787478
 20
2.5672823554
 11
13.3994327352
 21
2.5672823554
  0
ARC
  5
276
100
AcDbEntity
  8
0
100
AcDbCircle
 62
2
  6
CONTINUOUS
 10
13.3994327333
 20
2.5697573549
 40
0.0024749995
100
AcDbArc
 50
179.9999571957
 51
270.0000428043
  0
LINE
  5
277
100
AcDbEntity
  8
0
100
AcDbLine
 62
2
  6
CONTINUOUS
 10
13.3969577338
 20
2.5697573568
 11
13.3969577338
 21
2.5895573678
  0
ARC
  5
278
100
AcDbEntity
  8
0
100
AcDbCircle
 62
2
  6
CONTINUOUS
 10
13.3994327333
 20
2.5895573696
 40
0.0024749995
100
AcDbArc
 50
89.9999571957
 51
180.0000428043
  0
LINE
  5
279
100
AcDbEntity
  8
0
100
AcDbLine
 62
2
  6
CONTINUOUS
 10
13.3994327352
 20
2.5920323691
 11
13.5490138181
 21
2.5920323691
  0
ARC
  5
27A
100
AcDbEntity
  8
0
100
AcDbCircle
 62
2
  6
CONTINUOUS
 10
13.5463505148
 20
2.4094934586
 40
0.1825583387
100
AcDbArc
 50
79.8618509324
 51
89.1640948679
  0
ARC
  5
27B
100
AcDbEntity
  8
0
100
AcDbCircle
 62
2
  6
CONTINUOUS
 10
13.5726548052
 20
2.5503169747
 40
0.039319019
100
AcDbArc
 50
59.1202086415
 51
81.4730239328
  0
ARC
  5
27C
100
AcDbEntity
  8
0
100
AcDbCircle
 62
2
  6
CONTINUOUS
 10
13.5783142014
 20
2.5566516438
 40
0.0310192946
100
AcDbArc
 50
34.7540871
 51
62.0879016178
  0
ARC
  5
27D
100
AcDbEntity
  8
0
100
AcDbCircle
 62
2
  6
CONTINUOUS
 10
13.5900029525
 20
2.565201245
 40
0.0165459396
100
AcDbArc
 50
1.548452892
 51
33.5033152417
  0
ARC
  5
27E
100
AcDbEntity
  8
0
100
AcDbCircle
 62
2
  6
CONTINUOUS
 10
13.5932995477
 20
2.5653696972
 40
0.0132462337
100
AcDbArc
 50
331.1510006998
 51
1.205404301
  0
ARC
  5
27F
100
AcDbEntity
  8
0
100
AcDbCircle
 62
2
  6
CONTINUOUS
 10
13.5822888914
 20
2.5720482849
 40
0.0261183659
100
AcDbArc
 50
305.6373831893
 51
329.9727629745
  0
ARC
  5
280
100
AcDbEntity
  8
0
100
AcDbCircle
 62
2
  6
CONTINUOUS
 10
13.5519569538
 20
2.6152551345
 40
0.0789082104
100
AcDbArc
 50
292.906155071
 51
305.2574666259
  0
ARC
  5
281
100
AcDbEntity
  8
0
100
AcDbCircle
 62
2
  6
CONTINUOUS
 10
13.5282557878
 20
2.4386010294
 40
0.117346916
100
AcDbArc
 50
58.614769177
 51
62.3737227606
  0
ARC
  5
282
100
AcDbEntity
  8
0
100
AcDbCircle
 62
2
  6
CONTINUOUS
 10
13.5761387404
 20
2.5167282896
 40
0.0257145923
100
AcDbArc
 50
39.3804255939
 51
59.0361096173
  0
ARC
  5
283
100
AcDbEntity
  8
0
100
AcDbCircle
 62
2
  6
CONTINUOUS
 10
13.5750183849
 20
2.5166552064
 40
0.0266349791
100
AcDbArc
 50
20.3630922153
 51
37.9727053099
  0
ARC
  5
284
100
AcDbEntity
  8
0
100
AcDbCircle
 62
2
  6
CONTINUOUS
 10
13.5571178432
 20
2.509473798
 40
0.0459185159
100
AcDbArc
 50
15.6740290068
 51
20.9917271228
  0
ARC
  5
285
100
AcDbEntity
  8
0
100
AcDbCircle
 62
2
  6
CONTINUOUS
 10
13.6156881783
 20
2.525116781
 40
0.0147197649
100
AcDbArc
 50
192.7054516565
 51
206.0594861022
  0
ARC
  5
286
100
AcDbEntity
  8
0
100
AcDbCircle
 62
2
  6
CONTINUOUS
 10
13.6071938412
 20
2.5209082945
 40
0.0052403997
100
AcDbArc
 50
205.5232099488
 51
227.5054868079
  0
ARC
  5
287
100
AcDbEntity
  8
0
100
AcDbCircle
 62
2
  6
CONTINUOUS
 10
13.6054655419
 20
2.5190929218
 40
0.0027347709
100
AcDbArc
 50
228.5117626737
 51
266.1485845754
  0
LINE
  5
288
100
AcDbEntity
  8
0
100
AcDbLine
 62
2
  6
CONTINUOUS
 10
13.6052818493
 20
2.5163643272
 11
13.60639085
 21
2.5163643272
  0
ARC
  5
289
100
AcDbEntity
  8
0
100
AcDbCircle
 62
2
  6
CONTINUOUS
 10
13.6063292954
 20
2.5296129864
 40
0.0132488022
100
AcDbArc
 50
270.266200055
 51
281.2404888597
  0
ARC
  5
28A
100
AcDbEntity
  8
0
100
AcDbCircle
 62
2
  6
CONTINUOUS
 10
13.6075235364
 20
2.5238762928
 40
0.0073895522
100
AcDbArc
 50
280.8288201977
 51
305.0837508495
  0
ARC
  5
28B
100
AcDbEntity
  8
0
100
AcDbCircle
 62
2
  6
CONTINUOUS
 10
13.607924718
 20
2.5230254464
 40
0.0064647042
100
AcDbArc
 50
306.5086174083
 51
340.2162360092
  0
ARC
  5
28C
100
AcDbEntity
  8
0
100
AcDbCircle
 62
2
  6
CONTINUOUS
 10
13.6027235414
 20
2.524769508
 40
0.0119498009
100
AcDbArc
 50
340.7883861657
 51
1.1691452593
  0
LINE
  5
28D
100
AcDbEntity
  8
0
100
AcDbLine
 62
2
  6
CONTINUOUS
 10
13.6146708546
 20
2.525013332
 11
13.6146708546
 21
2.5276393334
  0
ARC
  5
28E
100
AcDbEntity
  8
0
100
AcDbCircle
 62
2
  6
CONTINUOUS
 10
13.6171458541
 20
2.5276393353
 40
0.0024749995
100
AcDbArc
 50
89.9999571957
 51
180.0000428043
  0
LINE
  5
28F
100
AcDbEntity
  8
0
100
AcDbLine
 62
2
  6
CONTINUOUS
 10
13.6171458559
 20
2.5301143348
 11
13.6292558626
 21
2.5301143348
  0
ARC
  5
290
100
AcDbEntity
  8
0
100
AcDbCircle
 62
2
  6
CONTINUOUS
 10
13.6292558645
 20
2.5276393353
 40
0.0024749995
100
AcDbArc
 50
359.9999571957
 51
90.0000428043
  0
LINE
  5
291
100
AcDbEntity
  8
0
100
AcDbLine
 62
2
  6
CONTINUOUS
 10
13.631730864
 20
2.5276393334
 11
13.631730864
 21
2.516087327
  0
ARC
  5
292
100
AcDbEntity
  8
0
100
AcDbCircle
 62
2
  6
CONTINUOUS
 10
13.6141751675
 20
2.5161916447
 40
0.0175560065
100
AcDbArc
 50
332.2279060967
 51
359.6595469939
  0
ARC
  5
293
100
AcDbEntity
  8
0
100
AcDbCircle
 62
2
  6
CONTINUOUS
 10
13.6048681567
 20
2.5210861501
 40
0.0280715479
100
AcDbArc
 50
308.5071794988
 51
332.2400656899
  0
ARC
  5
294
100
AcDbEntity
  8
0
100
AcDbCircle
 62
2
  6
CONTINUOUS
 10
13.5978759713
 20
2.5286873679
 40
0.0383802683
100
AcDbArc
 50
288.7656836787
 51
309.6104317088
  0
ARC
  5
295
100
AcDbEntity
  8
0
100
AcDbCircle
 62
2
  6
CONTINUOUS
 10
13.6036139387
 20
2.5111006186
 40
0.0198837666
100
AcDbArc
 50
271.8586572978
 51
289.4131338543
  0
LINE
  5
296
100
AcDbEntity
  8
0
100
AcDbLine
 62
2
  6
CONTINUOUS
 10
13.6042588488
 20
2.4912273132
 11
13.5568948225
 21
2.4912273132
  0
ARC
  5
297
100
AcDbEntity
  8
0
100
AcDbCircle
 62
2
  6
CONTINUOUS
 10
13.5577001432
 20
2.5085494649
 40
0.0173408616
100
AcDbArc
 50
232.4713476722
 51
267.338189944
  0
ARC
  5
298
100
AcDbEntity
  8
0
100
AcDbCircle
 62
2
  6
CONTINUOUS
 10
13.5607987082
 20
2.5143997688
 40
0.0238935861
100
AcDbArc
 50
209.8247607259
 51
235.1255079367
  0
ARC
  5
299
100
AcDbEntity
  8
0
100
AcDbCircle
 62
2
  6
CONTINUOUS
 10
13.5295131508
 20
2.5629115009
 40
0.0110815393
100
AcDbArc
 50
306.758405961
 51
320.4502234234
  0
ARC
  5
29A
100
AcDbEntity
  8
0
100
AcDbCircle
 62
2
  6
CONTINUOUS
 10
13.5238839599
 20
2.5706523294
 40
0.0206523367
100
AcDbArc
 50
289.6883413472
 51
306.4184925496
  0
ARC
  5
29B
100
AcDbEntity
  8
0
100
AcDbCircle
 62
2
  6
CONTINUOUS
 10
13.5219564542
 20
2.5750459767
 40
0.0254407115
100
AcDbArc
 50
270.7327484175
 51
290.441894219
  0
LINE
  5
29C
100
AcDbEntity
  8
0
100
AcDbLine
 62
2
  6
CONTINUOUS
 10
13.5222818033
 20
2.5496073456
 11
13.4883447845
 21
2.5496073456
  0
ARC
  5
29D
100
AcDbEntity
  8
0
100
AcDbCircle
 62
2
  6
CONTINUOUS
 10
13.4883447827
 20
2.5520823451
 40
0.0024749995
100
AcDbArc
 50
179.9999571957
 51
270.0000428043
  0
LINE
  5
29E
100
AcDbEntity
  8
0
100
AcDbLine
 62
2
  6
CONTINUOUS
 10
13.4858697831
 20
2.552082347
 11
13.4858697831
 21
2.564807354
  0
ARC
  5
29F
100
AcDbEntity
  8
0
100
AcDbCircle
 62
2
  6
CONTINUOUS
 10
13.4883447827
 20
2.5648073559
 40
0.0024749995
100
AcDbArc
 50
89.9999571957
 51
180.0000428043
  0
LINE
  5
2A0
100
AcDbEntity
  8
0
100
AcDbLine
 62
2
  6
CONTINUOUS
 10
13.4883447845
 20
2.5672823554
 11
13.5251458049
 21
2.5672823554
  0
ARC
  5
2A1
100
AcDbEntity
  8
0
100
AcDbCircle
 62
2
  6
CONTINUOUS
 10
13.5236009174
 20
2.5388278764
 40
0.0284963867
100
AcDbArc
 50
70.3834917948
 51
86.8922743861
  0
ARC
  5
2A2
100
AcDbEntity
  8
0
100
AcDbCircle
 62
2
  6
CONTINUOUS
 10
13.5284605274
 20
2.5518696094
 40
0.0145814632
100
AcDbArc
 50
54.6746025112
 51
71.1660573124
  0
ARC
  5
2A3
100
AcDbEntity
  8
0
100
AcDbCircle
 62
2
  6
CONTINUOUS
 10
13.5335900184
 20
2.5587235346
 40
0.0060275915
100
AcDbArc
 50
20.9055592135
 51
56.7851676243
  0
ARC
  5
2A4
100
AcDbEntity
  8
0
100
AcDbCircle
 62
2
  6
CONTINUOUS
 10
13.5348905773
 20
2.5593838168
 40
0.0045795888
100
AcDbArc
 50
355.6235353944
 51
18.9942678268
  0
ARC
  5
2A5
100
AcDbEntity
  8
0
100
AcDbCircle
 62
2
  6
CONTINUOUS
 10
13.533683767
 20
2.559677593
 40
0.0058087709
100
AcDbArc
 50
318.8515287446
 51
353.6422345323
  0
LINE
  5
2A6
100
AcDbEntity
  8
0
100
AcDbLine
 62
2
  6
CONTINUOUS
 10
12.672340332
 20
2.5920323691
 11
12.7727983877
 21
2.5920323691
  0
ARC
  5
2A7
100
AcDbEntity
  8
0
100
AcDbCircle
 62
2
  6
CONTINUOUS
 10
12.7727985224
 20
2.5895582013
 40
0.0024741678
100
AcDbArc
 50
46.3477981899
 51
90.0031206038
  0
LINE
  5
2A8
100
AcDbEntity
  8
0
100
AcDbLine
 62
2
  6
CONTINUOUS
 10
12.7745063886
 20
2.5913483688
 11
12.8345394219
 21
2.534068337
  0
ARC
  5
2A9
100
AcDbEntity
  8
0
100
AcDbCircle
 62
2
  6
CONTINUOUS
 10
12.8362481229
 20
2.5358592748
 40
0.0024753014
100
AcDbArc
 50
226.3461263059
 51
0.0014637321
  0
LINE
  5
2AA
100
AcDbEntity
  8
0
100
AcDbLine
 62
2
  6
CONTINUOUS
 10
12.8387234242
 20
2.535859338
 11
12.8387234242
 21
2.564807354
  0
ARC
  5
2AB
100
AcDbEntity
  8
0
100
AcDbCircle
 62
2
  6
CONTINUOUS
 10
12.8362484247
 20
2.5648073559
 40
0.0024749995
100
AcDbArc
 50
359.9999571957
 51
90.0000428043
  0
LINE
  5
2AC
100
AcDbEntity
  8
0
100
AcDbLine
 62
2
  6
CONTINUOUS
 10
12.8362484229
 20
2.5672823554
 11
12.8174724125
 21
2.5672823554
  0
ARC
  5
2AD
100
AcDbEntity
  8
0
100
AcDbCircle
 62
2
  6
CONTINUOUS
 10
12.8174724106
 20
2.5697573549
 40
0.0024749995
100
AcDbArc
 50
179.9999571957
 51
270.0000428043
  0
LINE
  5
2AE
100
AcDbEntity
  8
0
100
AcDbLine
 62
2
  6
CONTINUOUS
 10
12.8149974111
 20
2.5697573568
 11
12.8149974111
 21
2.5895573678
  0
ARC
  5
2AF
100
AcDbEntity
  8
0
100
AcDbCircle
 62
2
  6
CONTINUOUS
 10
12.8174724106
 20
2.5895573696
 40
0.0024749995
100
AcDbArc
 50
89.9999571957
 51
180.0000428043
  0
LINE
  5
2B0
100
AcDbEntity
  8
0
100
AcDbLine
 62
2
  6
CONTINUOUS
 10
12.8174724125
 20
2.5920323691
 11
12.8914734535
 21
2.5920323691
  0
ARC
  5
2B1
100
AcDbEntity
  8
0
100
AcDbCircle
 62
2
  6
CONTINUOUS
 10
12.8914734553
 20
2.5895573696
 40
0.0024749995
100
AcDbArc
 50
359.9999571957
 51
90.0000428043
  0
LINE
  5
2B2
100
AcDbEntity
  8
0
100
AcDbLine
 62
2
  6
CONTINUOUS
 10
12.8939484549
 20
2.5895573678
 11
12.8939484549
 21
2.5697573568
  0
ARC
  5
2B3
100
AcDbEntity
  8
0
100
AcDbCircle
 62
2
  6
CONTINUOUS
 10
12.8914734553
 20
2.5697573549
 40
0.0024749995
100
AcDbArc
 50
269.9999571957
 51
0.0000428043
  0
LINE
  5
2B4
100
AcDbEntity
  8
0
100
AcDbLine
 62
2
  6
CONTINUOUS
 10
12.8914734535
 20
2.5672823554
 11
12.8735404436
 21
2.5672823554
  0
ARC
  5
2B5
100
AcDbEntity
  8
0
100
AcDbCircle
 62
2
  6
CONTINUOUS
 10
12.8735404417
 20
2.5648073559
 40
0.0024749995
100
AcDbArc
 50
89.9999571957
 51
180.0000428043
  0
LINE
  5
2B6
100
AcDbEntity
  8
0
100
AcDbLine
 62
2
  6
CONTINUOUS
 10
12.8710654422
 20
2.564807354
 11
12.8710654422
 21
2.4937023146
  0
ARC
  5
2B7
100
AcDbEntity
  8
0
100
AcDbCircle
 62
2
  6
CONTINUOUS
 10
12.8685904427
 20
2.4937023128
 40
0.0024749995
100
AcDbArc
 50
269.9999571957
 51
0.0000428043
  0
LINE
  5
2B8
100
AcDbEntity
  8
0
100
AcDbLine
 62
2
  6
CONTINUOUS
 10
12.8685904408
 20
2.4912273132
 11
12.7943853997
 21
2.4912273132
  0
ARC
  5
2B9
100
AcDbEntity
  8
0
100
AcDbCircle
 62
2
  6
CONTINUOUS
 10
12.7943847649
 20
2.4937027294
 40
0.0024754162
100
AcDbArc
 50
226.3593695813
 51
270.0146919953
  0
LINE
  5
2BA
100
AcDbEntity
  8
0
100
AcDbLine
 62
2
  6
CONTINUOUS
 10
12.7926763987
 20
2.4919113136
 11
12.7293963636
 21
2.5522893471
  0
ARC
  5
2BB
100
AcDbEntity
  8
0
100
AcDbCircle
 62
2
  6
CONTINUOUS
 10
12.7276876627
 20
2.5504984093
 40
0.0024753014
100
AcDbArc
 50
46.3461263059
 51
180.0014637321
  0
LINE
  5
2BC
100
AcDbEntity
  8
0
100
AcDbLine
 62
2
  6
CONTINUOUS
 10
12.7252123613
 20
2.5504983461
 11
12.7252123613
 21
2.5184523283
  0
ARC
  5
2BD
100
AcDbEntity
  8
0
100
AcDbCircle
 62
2
  6
CONTINUOUS
 10
12.7276873608
 20
2.5184523265
 40
0.0024749995
100
AcDbArc
 50
179.9999571957
 51
270.0000428043
  0
LINE
  5
2BE
100
AcDbEntity
  8
0
100
AcDbLine
 62
2
  6
CONTINUOUS
 10
12.7276873627
 20
2.515977327
 11
12.7480043739
 21
2.515977327
  0
ARC
  5
2BF
100
AcDbEntity
  8
0
100
AcDbCircle
 62
2
  6
CONTINUOUS
 10
12.7480043758
 20
2.5135023274
 40
0.0024749995
100
AcDbArc
 50
359.9999571957
 51
90.0000428043
  0
LINE
  5
2C0
100
AcDbEntity
  8
0
100
AcDbLine
 62
2
  6
CONTINUOUS
 10
12.7504793753
 20
2.5135023256
 11
12.7504793753
 21
2.4937023146
  0
ARC
  5
2C1
100
AcDbEntity
  8
0
100
AcDbCircle
 62
2
  6
CONTINUOUS
 10
12.7480043758
 20
2.4937023128
 40
0.0024749995
100
AcDbArc
 50
269.9999571957
 51
0.0000428043
  0
LINE
  5
2C2
100
AcDbEntity
  8
0
100
AcDbLine
 62
2
  6
CONTINUOUS
 10
12.7480043739
 20
2.4912273132
 11
12.672340332
 21
2.4912273132
  0
ARC
  5
2C3
100
AcDbEntity
  8
0
100
AcDbCircle
 62
2
  6
CONTINUOUS
 10
12.6723403301
 20
2.4937023128
 40
0.0024749995
100
AcDbArc
 50
179.9999571957
 51
270.0000428043
  0
LINE
  5
2C4
100
AcDbEntity
  8
0
100
AcDbLine
 62
2
  6
CONTINUOUS
 10
12.6698653306
 20
2.4937023146
 11
12.6698653306
 21
2.5135023256
  0
ARC
  5
2C5
100
AcDbEntity
  8
0
100
AcDbCircle
 62
2
  6
CONTINUOUS
 10
12.6723403301
 20
2.5135023274
 40
0.0024749995
100
AcDbArc
 50
89.9999571957
 51
180.0000428043
  0
LINE
  5
2C6
100
AcDbEntity
  8
0
100
AcDbLine
 62
2
  6
CONTINUOUS
 10
12.672340332
 20
2.515977327
 11
12.6909873423
 21
2.515977327
  0
ARC
  5
2C7
100
AcDbEntity
  8
0
100
AcDbCircle
 62
2
  6
CONTINUOUS
 10
12.6909873442
 20
2.5184523265
 40
0.0024749995
100
AcDbArc
 50
269.9999571957
 51
0.0000428043
  0
LINE
  5
2C8
100
AcDbEntity
  8
0
100
AcDbLine
 62
2
  6
CONTINUOUS
 10
12.6934623437
 20
2.5184523283
 11
12.6934623437
 21
2.564807354
  0
ARC
  5
2C9
100
AcDbEntity
  8
0
100
AcDbCircle
 62
2
  6
CONTINUOUS
 10
12.6909873442
 20
2.5648073559
 40
0.0024749995
100
AcDbArc
 50
359.9999571957
 51
90.0000428043
  0
LINE
  5
2CA
100
AcDbEntity
  8
0
100
AcDbLine
 62
2
  6
CONTINUOUS
 10
12.6909873423
 20
2.5672823554
 11
12.672340332
 21
2.5672823554
  0
ARC
  5
2CB
100
AcDbEntity
  8
0
100
AcDbCircle
 62
2
  6
CONTINUOUS
 10
12.6723403301
 20
2.5697573549
 40
0.0024749995
100
AcDbArc
 50
179.9999571957
 51
270.0000428043
  0
LINE
  5
2CC
100
AcDbEntity
  8
0
100
AcDbLine
 62
2
  6
CONTINUOUS
 10
12.6698653306
 20
2.5697573568
 11
12.6698653306
 21
2.5895573678
  0
ARC
  5
2CD
100
AcDbEntity
  8
0
100
AcDbCircle
 62
2
  6
CONTINUOUS
 10
12.6723403301
 20
2.5895573696
 40
0.0024749995
100
AcDbArc
 50
89.9999571957
 51
180.0000428043
  0
LINE
  5
2CE
100
AcDbEntity
  8
0
100
AcDbLine
 62
2
  6
CONTINUOUS
 10
12.5246402501
 20
2.5655893545
 11
12.5175232461
 21
2.5543723483
  0
ARC
  5
2CF
100
AcDbEntity
  8
0
100
AcDbCircle
 62
2
  6
CONTINUOUS
 10
12.519613138
 20
2.5530463862
 40
0.0024750401
100
AcDbArc
 50
147.6063258012
 51
270.0025305754
  0
LINE
  5
2D0
100
AcDbEntity
  8
0
100
AcDbLine
 62
2
  6
CONTINUOUS
 10
12.5196132473
 20
2.5505713461
 11
12.5401702587
 21
2.5505713461
  0
ARC
  5
2D1
100
AcDbEntity
  8
0
100
AcDbCircle
 62
2
  6
CONTINUOUS
 10
12.5401702375
 20
2.5530465533
 40
0.0024752071
100
AcDbArc
 50
270.0004896793
 51
32.9089806818
  0
LINE
  5
2D2
100
AcDbEntity
  8
0
100
AcDbLine
 62
2
  6
CONTINUOUS
 10
12.5422482598
 20
2.5543913483
 11
12.5349892558
 21
2.5656073545
  0
ARC
  5
2D3
100
AcDbEntity
  8
0
100
AcDbCircle
 62
2
  6
CONTINUOUS
 10
12.532910715
 20
2.564262895
 40
0.0024754602
100
AcDbArc
 50
32.8959418573
 51
89.9875097202
  0
LINE
  5
2D4
100
AcDbEntity
  8
0
100
AcDbLine
 62
2
  6
CONTINUOUS
 10
12.5329112547
 20
2.5667383551
 11
12.5267302512
 21
2.5667383551
  0
ARC
  5
2D5
100
AcDbEntity
  8
0
100
AcDbCircle
 62
2
  6
CONTINUOUS
 10
12.5267301809
 20
2.5642631548
 40
0.0024752003
100
AcDbArc
 50
89.998372645
 51
147.602165307
  0
LINE
  5
2D6
100
AcDbEntity
  8
0
100
AcDbLine
 62
2
  6
CONTINUOUS
 10
12.548053263
 20
2.5284903339
 11
12.5536792662
 21
2.5197973291
  0
ARC
  5
2D7
100
AcDbEntity
  8
0
100
AcDbCircle
 62
2
  6
CONTINUOUS
 10
12.5516012439
 20
2.5184525341
 40
0.0024752071
100
AcDbArc
 50
270.0004896794
 51
32.9089806818
  0
LINE
  5
2D8
100
AcDbEntity
  8
0
100
AcDbLine
 62
2
  6
CONTINUOUS
 10
12.551601265
 20
2.515977327
 11
12.537150257
 21
2.515977327
  0
ARC
  5
2D9
100
AcDbEntity
  8
0
100
AcDbCircle
 62
2
  6
CONTINUOUS
 10
12.5371502552
 20
2.5135023274
 40
0.0024749995
100
AcDbArc
 50
89.9999571957
 51
180.0000428043
  0
LINE
  5
2DA
100
AcDbEntity
  8
0
100
AcDbLine
 62
2
  6
CONTINUOUS
 10
12.5346752556
 20
2.5135023256
 11
12.5346752556
 21
2.4937023146
  0
ARC
  5
2DB
100
AcDbEntity
  8
0
100
AcDbCircle
 62
2
  6
CONTINUOUS
 10
12.5371502552
 20
2.4937023128
 40
0.0024749995
100
AcDbArc
 50
179.9999571957
 51
270.0000428043
  0
LINE
  5
2DC
100
AcDbEntity
  8
0
100
AcDbLine
 62
2
  6
CONTINUOUS
 10
12.537150257
 20
2.4912273132
 11
12.6424313154
 21
2.4912273132
  0
ARC
  5
2DD
100
AcDbEntity
  8
0
100
AcDbCircle
 62
2
  6
CONTINUOUS
 10
12.6424313172
 20
2.4937023128
 40
0.0024749995
100
AcDbArc
 50
269.9999571957
 51
0.0000428043
  0
LINE
  5
2DE
100
AcDbEntity
  8
0
100
AcDbLine
 62
2
  6
CONTINUOUS
 10
12.6449063168
 20
2.4937023146
 11
12.6449063168
 21
2.5135023256
  0
ARC
  5
2DF
100
AcDbEntity
  8
0
100
AcDbCircle
 62
2
  6
CONTINUOUS
 10
12.6424313172
 20
2.5135023274
 40
0.0024749995
100
AcDbArc
 50
359.9999571957
 51
90.0000428043
  0
LINE
  5
2E0
100
AcDbEntity
  8
0
100
AcDbLine
 62
2
  6
CONTINUOUS
 10
12.6424313154
 20
2.515977327
 11
12.6224153043
 21
2.515977327
  0
ARC
  5
2E1
100
AcDbEntity
  8
0
100
AcDbCircle
 62
2
  6
CONTINUOUS
 10
12.6224154248
 20
2.518451368
 40
0.002474041
100
AcDbArc
 50
212.9056413127
 51
269.9972091756
  0
LINE
  5
2E2
100
AcDbEntity
  8
0
100
AcDbLine
 62
2
  6
CONTINUOUS
 10
12.6203383031
 20
2.5171073276
 11
12.5725822767
 21
2.5909023685
  0
ARC
  5
2E3
100
AcDbEntity
  8
0
100
AcDbCircle
 62
2
  6
CONTINUOUS
 10
12.570504655
 20
2.589557409
 40
0.0024749602
100
AcDbArc
 50
32.9172174468
 51
90.0087853097
  0
LINE
  5
2E4
100
AcDbEntity
  8
0
100
AcDbLine
 62
2
  6
CONTINUOUS
 10
12.5705042755
 20
2.5920323691
 11
12.5133292438
 21
2.5920323691
  0
ARC
  5
2E5
100
AcDbEntity
  8
0
100
AcDbCircle
 62
2
  6
CONTINUOUS
 10
12.5133291735
 20
2.5895571688
 40
0.0024752003
100
AcDbArc
 50
89.9983726451
 51
147.602165307
  0
LINE
  5
2E6
100
AcDbEntity
  8
0
100
AcDbLine
 62
2
  6
CONTINUOUS
 10
12.5112392426
 20
2.5908833685
 11
12.4644392167
 21
2.5171263276
  0
ARC
  5
2E7
100
AcDbEntity
  8
0
100
AcDbCircle
 62
2
  6
CONTINUOUS
 10
12.4623492858
 20
2.5184525273
 40
0.0024752003
100
AcDbArc
 50
269.9983726451
 51
327.602165307
  0
LINE
  5
2E8
100
AcDbEntity
  8
0
100
AcDbLine
 62
2
  6
CONTINUOUS
 10
12.4623492155
 20
2.515977327
 11
12.4394882028
 21
2.515977327
  0
ARC
  5
2E9
100
AcDbEntity
  8
0
100
AcDbCircle
 62
2
  6
CONTINUOUS
 10
12.439488201
 20
2.5135023274
 40
0.0024749995
100
AcDbArc
 50
89.9999571957
 51
180.0000428043
  0
LINE
  5
2EA
100
AcDbEntity
  8
0
100
AcDbLine
 62
2
  6
CONTINUOUS
 10
12.4370132015
 20
2.5135023256
 11
12.4370132015
 21
2.4937023146
  0
ARC
  5
2EB
100
AcDbEntity
  8
0
100
AcDbCircle
 62
2
  6
CONTINUOUS
 10
12.439488201
 20
2.4937023128
 40
0.0024749995
100
AcDbArc
 50
179.9999571957
 51
270.0000428043
  0
LINE
  5
2EC
100
AcDbEntity
  8
0
100
AcDbLine
 62
2
  6
CONTINUOUS
 10
12.4394882028
 20
2.4912273132
 11
12.5168642458
 21
2.4912273132
  0
ARC
  5
2ED
100
AcDbEntity
  8
0
100
AcDbCircle
 62
2
  6
CONTINUOUS
 10
12.5168642476
 20
2.4937023128
 40
0.0024749995
100
AcDbArc
 50
269.9999571957
 51
0.0000428043
  0
LINE
  5
2EE
100
AcDbEntity
  8
0
100
AcDbLine
 62
2
  6
CONTINUOUS
 10
12.5193392471
 20
2.4937023146
 11
12.5193392471
 21
2.5135023256
  0
ARC
  5
2EF
100
AcDbEntity
  8
0
100
AcDbCircle
 62
2
  6
CONTINUOUS
 10
12.5168642476
 20
2.5135023274
 40
0.0024749995
100
AcDbArc
 50
359.9999571957
 51
90.0000428043
  0
LINE
  5
2F0
100
AcDbEntity
  8
0
100
AcDbLine
 62
2
  6
CONTINUOUS
 10
12.5168642458
 20
2.515977327
 11
12.5055812395
 21
2.515977327
  0
ARC
  5
2F1
100
AcDbEntity
  8
0
100
AcDbCircle
 62
2
  6
CONTINUOUS
 10
12.5055811302
 20
2.518452367
 40
0.0024750401
100
AcDbArc
 50
147.6063258011
 51
270.0025305754
  0
LINE
  5
2F2
100
AcDbEntity
  8
0
100
AcDbLine
 62
2
  6
CONTINUOUS
 10
12.5034912383
 20
2.5197783291
 11
12.5090072414
 21
2.5284723339
  0
ARC
  5
2F3
100
AcDbEntity
  8
0
100
AcDbCircle
 62
2
  6
CONTINUOUS
 10
12.5110971723
 20
2.5271461342
 40
0.0024752003
100
AcDbArc
 50
89.998372645
 51
147.602165307
  0
LINE
  5
2F4
100
AcDbEntity
  8
0
100
AcDbLine
 62
2
  6
CONTINUOUS
 10
12.5110972426
 20
2.5296213345
 11
12.5459752619
 21
2.5296213345
  0
ARC
  5
2F5
100
AcDbEntity
  8
0
100
AcDbCircle
 62
2
  6
CONTINUOUS
 10
12.5459747223
 20
2.5271458744
 40
0.0024754602
100
AcDbArc
 50
32.8959418573
 51
89.9875097202
  0
LINE
  5
2F6
100
AcDbEntity
  8
0
100
AcDbLine
 62
2
  6
CONTINUOUS
 10
12.9205934696
 20
2.5920323691
 11
13.0210515254
 21
2.5920323691
  0
ARC
  5
2F7
100
AcDbEntity
  8
0
100
AcDbCircle
 62
2
  6
CONTINUOUS
 10
13.0210516601
 20
2.5895582013
 40
0.0024741678
100
AcDbArc
 50
46.3477981899
 51
90.0031206038
  0
LINE
  5
2F8
100
AcDbEntity
  8
0
100
AcDbLine
 62
2
  6
CONTINUOUS
 10
13.0227595263
 20
2.5913483688
 11
13.0827925596
 21
2.534068337
  0
ARC
  5
2F9
100
AcDbEntity
  8
0
100
AcDbCircle
 62
2
  6
CONTINUOUS
 10
13.0845012605
 20
2.5358592748
 40
0.0024753014
100
AcDbArc
 50
226.3461263059
 51
0.0014637321
  0
LINE
  5
2FA
100
AcDbEntity
  8
0
100
AcDbLine
 62
2
  6
CONTINUOUS
 10
13.0869765619
 20
2.535859338
 11
13.0869765619
 21
2.564807354
  0
ARC
  5
2FB
100
AcDbEntity
  8
0
100
AcDbCircle
 62
2
  6
CONTINUOUS
 10
13.0845015624
 20
2.5648073559
 40
0.0024749995
100
AcDbArc
 50
359.9999571957
 51
90.0000428043
  0
LINE
  5
2FC
100
AcDbEntity
  8
0
100
AcDbLine
 62
2
  6
CONTINUOUS
 10
13.0845015605
 20
2.5672823554
 11
13.0657255501
 21
2.5672823554
  0
ARC
  5
2FD
100
AcDbEntity
  8
0
100
AcDbCircle
 62
2
  6
CONTINUOUS
 10
13.0657255483
 20
2.5697573549
 40
0.0024749995
100
AcDbArc
 50
179.9999571957
 51
270.0000428043
  0
LINE
  5
2FE
100
AcDbEntity
  8
0
100
AcDbLine
 62
2
  6
CONTINUOUS
 10
13.0632505488
 20
2.5697573568
 11
13.0632505488
 21
2.5895573678
  0
ARC
  5
2FF
100
AcDbEntity
  8
0
100
AcDbCircle
 62
2
  6
CONTINUOUS
 10
13.0657255483
 20
2.5895573696
 40
0.0024749995
100
AcDbArc
 50
89.9999571957
 51
180.0000428043
  0
LINE
  5
300
100
AcDbEntity
  8
0
100
AcDbLine
 62
2
  6
CONTINUOUS
 10
13.0657255501
 20
2.5920323691
 11
13.1397265912
 21
2.5920323691
  0
ARC
  5
301
100
AcDbEntity
  8
0
100
AcDbCircle
 62
2
  6
CONTINUOUS
 10
13.139726593
 20
2.5895573696
 40
0.0024749995
100
AcDbArc
 50
359.9999571957
 51
90.0000428043
  0
LINE
  5
302
100
AcDbEntity
  8
0
100
AcDbLine
 62
2
  6
CONTINUOUS
 10
13.1422015925
 20
2.5895573678
 11
13.1422015925
 21
2.5697573568
  0
ARC
  5
303
100
AcDbEntity
  8
0
100
AcDbCircle
 62
2
  6
CONTINUOUS
 10
13.139726593
 20
2.5697573549
 40
0.0024749995
100
AcDbArc
 50
269.9999571957
 51
0.0000428042
  0
LINE
  5
304
100
AcDbEntity
  8
0
100
AcDbLine
 62
2
  6
CONTINUOUS
 10
13.1397265912
 20
2.5672823554
 11
13.1217935812
 21
2.5672823554
  0
ARC
  5
305
100
AcDbEntity
  8
0
100
AcDbCircle
 62
2
  6
CONTINUOUS
 10
13.1217935794
 20
2.5648073559
 40
0.0024749995
100
AcDbArc
 50
89.9999571957
 51
180.0000428042
  0
LINE
  5
306
100
AcDbEntity
  8
0
100
AcDbLine
 62
2
  6
CONTINUOUS
 10
13.1193185799
 20
2.564807354
 11
13.1193185799
 21
2.4937023146
  0
ARC
  5
307
100
AcDbEntity
  8
0
100
AcDbCircle
 62
2
  6
CONTINUOUS
 10
13.1168435803
 20
2.4937023128
 40
0.0024749995
100
AcDbArc
 50
269.9999571957
 51
0.0000428043
  0
LINE
  5
308
100
AcDbEntity
  8
0
100
AcDbLine
 62
2
  6
CONTINUOUS
 10
13.1168435785
 20
2.4912273132
 11
13.0426375373
 21
2.4912273132
  0
ARC
  5
309
100
AcDbEntity
  8
0
100
AcDbCircle
 62
2
  6
CONTINUOUS
 10
13.0426374026
 20
2.493701481
 40
0.0024741678
100
AcDbArc
 50
226.3477981898
 51
270.0031206038
  0
LINE
  5
30A
100
AcDbEntity
  8
0
100
AcDbLine
 62
2
  6
CONTINUOUS
 10
13.0409295364
 20
2.4919113136
 11
12.9776495013
 21
2.5522893471
  0
ARC
  5
30B
100
AcDbEntity
  8
0
100
AcDbCircle
 62
2
  6
CONTINUOUS
 10
12.9759408003
 20
2.5504984093
 40
0.0024753014
100
AcDbArc
 50
46.3461263059
 51
180.0014637321
  0
LINE
  5
30C
100
AcDbEntity
  8
0
100
AcDbLine
 62
2
  6
CONTINUOUS
 10
12.973465499
 20
2.5504983461
 11
12.973465499
 21
2.5184523283
  0
ARC
  5
30D
100
AcDbEntity
  8
0
100
AcDbCircle
 62
2
  6
CONTINUOUS
 10
12.9759404985
 20
2.5184523265
 40
0.0024749995
100
AcDbArc
 50
179.9999571957
 51
270.0000428043
  0
LINE
  5
30E
100
AcDbEntity
  8
0
100
AcDbLine
 62
2
  6
CONTINUOUS
 10
12.9759405003
 20
2.515977327
 11
12.9962575116
 21
2.515977327
  0
ARC
  5
30F
100
AcDbEntity
  8
0
100
AcDbCircle
 62
2
  6
CONTINUOUS
 10
12.9962575135
 20
2.5135023274
 40
0.0024749995
100
AcDbArc
 50
359.9999571957
 51
90.0000428043
  0
LINE
  5
310
100
AcDbEntity
  8
0
100
AcDbLine
 62
2
  6
CONTINUOUS
 10
12.998732513
 20
2.5135023256
 11
12.998732513
 21
2.4937023146
  0
ARC
  5
311
100
AcDbEntity
  8
0
100
AcDbCircle
 62
2
  6
CONTINUOUS
 10
12.9962575135
 20
2.4937023128
 40
0.0024749995
100
AcDbArc
 50
269.9999571957
 51
0.0000428043
  0
LINE
  5
312
100
AcDbEntity
  8
0
100
AcDbLine
 62
2
  6
CONTINUOUS
 10
12.9962575116
 20
2.4912273132
 11
12.9205934696
 21
2.4912273132
  0
ARC
  5
313
100
AcDbEntity
  8
0
100
AcDbCircle
 62
2
  6
CONTINUOUS
 10
12.9205934678
 20
2.4937023128
 40
0.0024749995
100
AcDbArc
 50
179.9999571957
 51
270.0000428043
  0
LINE
  5
314
100
AcDbEntity
  8
0
100
AcDbLine
 62
2
  6
CONTINUOUS
 10
12.9181184683
 20
2.4937023146
 11
12.9181184683
 21
2.5135023256
  0
ARC
  5
315
100
AcDbEntity
  8
0
100
AcDbCircle
 62
2
  6
CONTINUOUS
 10
12.9205934678
 20
2.5135023274
 40
0.0024749995
100
AcDbArc
 50
89.9999571957
 51
180.0000428042
  0
LINE
  5
316
100
AcDbEntity
  8
0
100
AcDbLine
 62
2
  6
CONTINUOUS
 10
12.9205934696
 20
2.515977327
 11
12.93923948
 21
2.515977327
  0
ARC
  5
317
100
AcDbEntity
  8
0
100
AcDbCircle
 62
2
  6
CONTINUOUS
 10
12.9392394818
 20
2.5184523265
 40
0.0024749995
100
AcDbArc
 50
269.9999571957
 51
0.0000428043
  0
LINE
  5
318
100
AcDbEntity
  8
0
100
AcDbLine
 62
2
  6
CONTINUOUS
 10
12.9417144814
 20
2.5184523283
 11
12.9417144814
 21
2.564807354
  0
ARC
  5
319
100
AcDbEntity
  8
0
100
AcDbCircle
 62
2
  6
CONTINUOUS
 10
12.9392394818
 20
2.5648073559
 40
0.0024749995
100
AcDbArc
 50
359.9999571957
 51
90.0000428043
  0
LINE
  5
31A
100
AcDbEntity
  8
0
100
AcDbLine
 62
2
  6
CONTINUOUS
 10
12.93923948
 20
2.5672823554
 11
12.9205934696
 21
2.5672823554
  0
ARC
  5
31B
100
AcDbEntity
  8
0
100
AcDbCircle
 62
2
  6
CONTINUOUS
 10
12.9205934678
 20
2.5697573549
 40
0.0024749995
100
AcDbArc
 50
179.9999571957
 51
270.0000428043
  0
LINE
  5
31C
100
AcDbEntity
  8
0
100
AcDbLine
 62
2
  6
CONTINUOUS
 10
12.9181184683
 20
2.5697573568
 11
12.9181184683
 21
2.5895573678
  0
ARC
  5
31D
100
AcDbEntity
  8
0
100
AcDbCircle
 62
2
  6
CONTINUOUS
 10
12.9205934678
 20
2.5895573696
 40
0.0024749995
100
AcDbArc
 50
89.9999571957
 51
180.0000428042
  0
LINE
  5
31E
100
AcDbEntity
  8
0
100
AcDbLine
 62
2
  6
CONTINUOUS
 10
13.2934226764
 20
2.5324773361
 11
13.2582556569
 21
2.5324773361
  0
ARC
  5
31F
100
AcDbEntity
  8
0
100
AcDbCircle
 62
2
  6
CONTINUOUS
 10
13.2582556551
 20
2.5300023366
 40
0.0024749995
100
AcDbArc
 50
89.9999571957
 51
180.0000428043
  0
LINE
  5
320
100
AcDbEntity
  8
0
100
AcDbLine
 62
2
  6
CONTINUOUS
 10
13.2557806555
 20
2.5300023347
 11
13.2557806555
 21
2.5184523283
  0
ARC
  5
321
100
AcDbEntity
  8
0
100
AcDbCircle
 62
2
  6
CONTINUOUS
 10
13.2582556551
 20
2.5184523265
 40
0.0024749995
100
AcDbArc
 50
179.9999571957
 51
270.0000428043
  0
LINE
  5
322
100
AcDbEntity
  8
0
100
AcDbLine
 62
2
  6
CONTINUOUS
 10
13.2582556569
 20
2.515977327
 11
13.3232596929
 21
2.515977327
  0
ARC
  5
323
100
AcDbEntity
  8
0
100
AcDbCircle
 62
2
  6
CONTINUOUS
 10
13.3232596948
 20
2.5184523265
 40
0.0024749995
100
AcDbArc
 50
269.9999571957
 51
0.0000428043
  0
LINE
  5
324
100
AcDbEntity
  8
0
100
AcDbLine
 62
2
  6
CONTINUOUS
 10
13.3257346943
 20
2.5184523283
 11
13.3257346943
 21
2.5267023329
  0
ARC
  5
325
100
AcDbEntity
  8
0
100
AcDbCircle
 62
2
  6
CONTINUOUS
 10
13.3282096938
 20
2.5267023348
 40
0.0024749995
100
AcDbArc
 50
89.9999571957
 51
180.0000428043
  0
LINE
  5
326
100
AcDbEntity
  8
0
100
AcDbLine
 62
2
  6
CONTINUOUS
 10
13.3282096957
 20
2.5291773343
 11
13.3705287192
 21
2.5291773343
  0
ARC
  5
327
100
AcDbEntity
  8
0
100
AcDbCircle
 62
2
  6
CONTINUOUS
 10
13.370528721
 20
2.5267023348
 40
0.0024749995
100
AcDbArc
 50
359.9999571957
 51
90.0000428043
  0
LINE
  5
328
100
AcDbEntity
  8
0
100
AcDbLine
 62
2
  6
CONTINUOUS
 10
13.3730037205
 20
2.5267023329
 11
13.3730037205
 21
2.4937023146
  0
ARC
  5
329
100
AcDbEntity
  8
0
100
AcDbCircle
 62
2
  6
CONTINUOUS
 10
13.370528721
 20
2.4937023128
 40
0.0024749995
100
AcDbArc
 50
269.9999571957
 51
0.0000428043
  0
LINE
  5
32A
100
AcDbEntity
  8
0
100
AcDbLine
 62
2
  6
CONTINUOUS
 10
13.3705287192
 20
2.4912273132
 11
13.1673166065
 21
2.4912273132
  0
ARC
  5
32B
100
AcDbEntity
  8
0
100
AcDbCircle
 62
2
  6
CONTINUOUS
 10
13.1673166046
 20
2.4937023128
 40
0.0024749995
100
AcDbArc
 50
179.9999571957
 51
270.0000428043
  0
LINE
  5
32C
100
AcDbEntity
  8
0
100
AcDbLine
 62
2
  6
CONTINUOUS
 10
13.1648416051
 20
2.4937023146
 11
13.1648416051
 21
2.5135023256
  0
ARC
  5
32D
100
AcDbEntity
  8
0
100
AcDbCircle
 62
2
  6
CONTINUOUS
 10
13.1673166046
 20
2.5135023274
 40
0.0024749995
100
AcDbArc
 50
89.9999571957
 51
180.0000428043
  0
LINE
  5
32E
100
AcDbEntity
  8
0
100
AcDbLine
 62
2
  6
CONTINUOUS
 10
13.1673166065
 20
2.515977327
 11
13.1912396197
 21
2.515977327
  0
ARC
  5
32F
100
AcDbEntity
  8
0
100
AcDbCircle
 62
2
  6
CONTINUOUS
 10
13.1912396216
 20
2.5184523265
 40
0.0024749995
100
AcDbArc
 50
269.9999571957
 51
0.0000428042
  0
LINE
  5
330
100
AcDbEntity
  8
0
100
AcDbLine
 62
2
  6
CONTINUOUS
 10
13.1937146211
 20
2.5184523283
 11
13.1937146211
 21
2.564807354
  0
ARC
  5
331
100
AcDbEntity
  8
0
100
AcDbCircle
 62
2
  6
CONTINUOUS
 10
13.1912396216
 20
2.5648073559
 40
0.0024749995
100
AcDbArc
 50
359.9999571957
 51
90.0000428043
  0
LINE
  5
332
100
AcDbEntity
  8
0
100
AcDbLine
 62
2
  6
CONTINUOUS
 10
13.1912396197
 20
2.5672823554
 11
13.1673166065
 21
2.5672823554
  0
ARC
  5
333
100
AcDbEntity
  8
0
100
AcDbCircle
 62
2
  6
CONTINUOUS
 10
13.1673166046
 20
2.5697573549
 40
0.0024749995
100
AcDbArc
 50
179.9999571957
 51
270.0000428043
  0
LINE
  5
334
100
AcDbEntity
  8
0
100
AcDbLine
 62
2
  6
CONTINUOUS
 10
13.1648416051
 20
2.5697573568
 11
13.1648416051
 21
2.5895573678
  0
ARC
  5
335
100
AcDbEntity
  8
0
100
AcDbCircle
 62
2
  6
CONTINUOUS
 10
13.1673166046
 20
2.5895573696
 40
0.0024749995
100
AcDbArc
 50
89.9999571957
 51
180.0000428043
  0
LINE
  5
336
100
AcDbEntity
  8
0
100
AcDbLine
 62
2
  6
CONTINUOUS
 10
13.1673166065
 20
2.5920323691
 11
13.3691097184
 21
2.5920323691
  0
ARC
  5
337
100
AcDbEntity
  8
0
100
AcDbCircle
 62
2
  6
CONTINUOUS
 10
13.3691097202
 20
2.5895573696
 40
0.0024749995
100
AcDbArc
 50
359.9999571957
 51
90.0000428043
  0
LINE
  5
338
100
AcDbEntity
  8
0
100
AcDbLine
 62
2
  6
CONTINUOUS
 10
13.3715847197
 20
2.5895573678
 11
13.3715847197
 21
2.5565573495
  0
ARC
  5
339
100
AcDbEntity
  8
0
100
AcDbCircle
 62
2
  6
CONTINUOUS
 10
13.3691097202
 20
2.5565573476
 40
0.0024749995
100
AcDbArc
 50
269.9999571957
 51
0.0000428042
  0
LINE
  5
33A
100
AcDbEntity
  8
0
100
AcDbLine
 62
2
  6
CONTINUOUS
 10
13.3691097184
 20
2.5540823481
 11
13.3272456952
 21
2.5540823481
  0
ARC
  5
33B
100
AcDbEntity
  8
0
100
AcDbCircle
 62
2
  6
CONTINUOUS
 10
13.3272456933
 20
2.5565573476
 40
0.0024749995
100
AcDbArc
 50
179.9999571957
 51
270.0000428043
  0
LINE
  5
33C
100
AcDbEntity
  8
0
100
AcDbLine
 62
2
  6
CONTINUOUS
 10
13.3247706938
 20
2.5565573495
 11
13.3247706938
 21
2.564807354
  0
ARC
  5
33D
100
AcDbEntity
  8
0
100
AcDbCircle
 62
2
  6
CONTINUOUS
 10
13.3222956943
 20
2.5648073559
 40
0.0024749995
100
AcDbArc
 50
359.9999571957
 51
90.0000428043
  0
LINE
  5
33E
100
AcDbEntity
  8
0
100
AcDbLine
 62
2
  6
CONTINUOUS
 10
13.3222956924
 20
2.5672823554
 11
13.2582556569
 21
2.5672823554
  0
ARC
  5
33F
100
AcDbEntity
  8
0
100
AcDbCircle
 62
2
  6
CONTINUOUS
 10
13.2582556551
 20
2.5648073559
 40
0.0024749995
100
AcDbArc
 50
89.9999571957
 51
180.0000428043
  0
LINE
  5
340
100
AcDbEntity
  8
0
100
AcDbLine
 62
2
  6
CONTINUOUS
 10
13.2557806555
 20
2.564807354
 11
13.2557806555
 21
2.5532573476
  0
ARC
  5
341
100
AcDbEntity
  8
0
100
AcDbCircle
 62
2
  6
CONTINUOUS
 10
13.2582556551
 20
2.5532573458
 40
0.0024749995
100
AcDbArc
 50
179.9999571957
 51
270.0000428043
  0
LINE
  5
342
100
AcDbEntity
  8
0
100
AcDbLine
 62
2
  6
CONTINUOUS
 10
13.2582556569
 20
2.5507823463
 11
13.2934226764
 21
2.5507823463
  0
ARC
  5
343
100
AcDbEntity
  8
0
100
AcDbCircle
 62
2
  6
CONTINUOUS
 10
13.2934226783
 20
2.5483073467
 40
0.0024749995
100
AcDbArc
 50
359.9999571957
 51
90.0000428043
  0
LINE
  5
344
100
AcDbEntity
  8
0
100
AcDbLine
 62
2
  6
CONTINUOUS
 10
13.2958976778
 20
2.5483073449
 11
13.2958976778
 21
2.5349523375
  0
ARC
  5
345
100
AcDbEntity
  8
0
100
AcDbCircle
 62
2
  6
CONTINUOUS
 10
13.2934226783
 20
2.5349523356
 40
0.0024749995
100
AcDbArc
 50
269.9999571957
 51
0.0000428042
  0
LINE
  5
346
100
AcDbEntity
  8
0
100
AcDbLine
 62
2
  6
CONTINUOUS
 10
13.7286871589
 20
2.5350697372
 11
13.7286871589
 21
2.5456869438
  0
LINE
  5
347
100
AcDbEntity
  8
0
100
AcDbLine
 62
2
  6
CONTINUOUS
 10
13.7086871478
 20
2.5004302075
 11
13.7086871478
 21
2.5803264735
  0
LINE
  5
348
100
AcDbEntity
  8
0
100
AcDbLine
 62
2
  6
CONTINUOUS
 10
13.6886871368
 20
2.4843919416
 11
13.6886871368
 21
2.5963647394
  0
LINE
  5
349
100
AcDbEntity
  8
0
100
AcDbLine
 62
2
  6
CONTINUOUS
 10
13.6686871257
 20
2.4726017898
 11
13.6686871257
 21
2.6081548911
  0
LINE
  5
34A
100
AcDbEntity
  8
0
100
AcDbLine
 62
2
  6
CONTINUOUS
 10
13.6486871146
 20
2.4628062688
 11
13.6486871146
 21
2.6179504122
  0
LINE
  5
34B
100
AcDbEntity
  8
0
100
AcDbLine
 62
2
  6
CONTINUOUS
 10
13.6286871035
 20
2.4541253507
 11
13.6286871035
 21
2.5062483056
  0
LINE
  5
34C
100
AcDbEntity
  8
0
100
AcDbLine
 62
2
  6
CONTINUOUS
 10
13.6286871035
 20
2.5301143348
 11
13.6286871035
 21
2.6266313303
  0
LINE
  5
34D
100
AcDbEntity
  8
0
100
AcDbLine
 62
2
  6
CONTINUOUS
 10
13.6086870924
 20
2.4465537903
 11
13.6086870924
 21
2.4918774918
  0
LINE
  5
34E
100
AcDbEntity
  8
0
100
AcDbLine
 62
2
  6
CONTINUOUS
 10
13.6086870924
 20
2.5165781173
 11
13.6086870924
 21
2.6342028907
  0
LINE
  5
34F
100
AcDbEntity
  8
0
100
AcDbLine
 62
2
  6
CONTINUOUS
 10
13.5886870813
 20
2.4398033466
 11
13.5886870813
 21
2.4912273132
  0
LINE
  5
350
100
AcDbEntity
  8
0
100
AcDbLine
 62
2
  6
CONTINUOUS
 10
13.5886870813
 20
2.5391840845
 11
13.5886870813
 21
2.5454298327
  0
LINE
  5
351
100
AcDbEntity
  8
0
100
AcDbLine
 62
2
  6
CONTINUOUS
 10
13.5886870813
 20
2.5862063472
 11
13.5886870813
 21
2.6409533343
  0
LINE
  5
352
100
AcDbEntity
  8
0
100
AcDbLine
 62
2
  6
CONTINUOUS
 10
13.5686870702
 20
2.4334702189
 11
13.5686870702
 21
2.4912273132
  0
LINE
  5
353
100
AcDbEntity
  8
0
100
AcDbLine
 62
2
  6
CONTINUOUS
 10
13.5686870702
 20
2.5906587765
 11
13.5686870702
 21
2.647286462
  0
LINE
  5
354
100
AcDbEntity
  8
0
100
AcDbLine
 62
2
  6
CONTINUOUS
 10
13.5486870591
 20
2.4278968124
 11
13.5486870591
 21
2.4937461006
  0
LINE
  5
355
100
AcDbEntity
  8
0
100
AcDbLine
 62
2
  6
CONTINUOUS
 10
13.5486870591
 20
2.5920323691
 11
13.5486870591
 21
2.6528598686
  0
LINE
  5
356
100
AcDbEntity
  8
0
100
AcDbLine
 62
2
  6
CONTINUOUS
 10
13.528687048
 20
2.4225427674
 11
13.528687048
 21
2.5270426993
  0
LINE
  5
357
100
AcDbEntity
  8
0
100
AcDbLine
 62
2
  6
CONTINUOUS
 10
13.528687048
 20
2.5505166259
 11
13.528687048
 21
2.5668657091
  0
LINE
  5
358
100
AcDbEntity
  8
0
100
AcDbLine
 62
2
  6
CONTINUOUS
 10
13.528687048
 20
2.5920323691
 11
13.528687048
 21
2.6582139136
  0
LINE
  5
359
100
AcDbEntity
  8
0
100
AcDbLine
 62
2
  6
CONTINUOUS
 10
13.5086870369
 20
2.4177306791
 11
13.5086870369
 21
2.4912273132
  0
LINE
  5
35A
100
AcDbEntity
  8
0
100
AcDbLine
 62
2
  6
CONTINUOUS
 10
13.5086870369
 20
2.5159553269
 11
13.5086870369
 21
2.5306043351
  0
LINE
  5
35B
100
AcDbEntity
  8
0
100
AcDbLine
 62
2
  6
CONTINUOUS
 10
13.5086870369
 20
2.5496073456
 11
13.5086870369
 21
2.5672823554
  0
LINE
  5
35C
100
AcDbEntity
  8
0
100
AcDbLine
 62
2
  6
CONTINUOUS
 10
13.5086870369
 20
2.5920323691
 11
13.5086870369
 21
2.6630260019
  0
LINE
  5
35D
100
AcDbEntity
  8
0
100
AcDbLine
 62
2
  6
CONTINUOUS
 10
13.4886870258
 20
2.4131795254
 11
13.4886870258
 21
2.4912273132
  0
LINE
  5
35E
100
AcDbEntity
  8
0
100
AcDbLine
 62
2
  6
CONTINUOUS
 10
13.4886870258
 20
2.5159553269
 11
13.4886870258
 21
2.5306043351
  0
LINE
  5
35F
100
AcDbEntity
  8
0
100
AcDbLine
 62
2
  6
CONTINUOUS
 10
13.4886870258
 20
2.5496073456
 11
13.4886870258
 21
2.5672823554
  0
LINE
  5
360
100
AcDbEntity
  8
0
100
AcDbLine
 62
2
  6
CONTINUOUS
 10
13.4886870258
 20
2.5920323691
 11
13.4886870258
 21
2.6675771555
  0
LINE
  5
361
100
AcDbEntity
  8
0
100
AcDbLine
 62
2
  6
CONTINUOUS
 10
13.4686870147
 20
2.4088819672
 11
13.4686870147
 21
2.4912273132
  0
LINE
  5
362
100
AcDbEntity
  8
0
100
AcDbLine
 62
2
  6
CONTINUOUS
 10
13.4686870147
 20
2.5920323691
 11
13.4686870147
 21
2.6718747138
  0
LINE
  5
363
100
AcDbEntity
  8
0
100
AcDbLine
 62
2
  6
CONTINUOUS
 10
13.4486870037
 20
2.4050092072
 11
13.4486870037
 21
2.4912273132
  0
LINE
  5
364
100
AcDbEntity
  8
0
100
AcDbLine
 62
2
  6
CONTINUOUS
 10
13.4486870037
 20
2.5920323691
 11
13.4486870037
 21
2.6757474738
  0
LINE
  5
365
100
AcDbEntity
  8
0
100
AcDbLine
 62
2
  6
CONTINUOUS
 10
13.4286869926
 20
2.4011364471
 11
13.4286869926
 21
2.4912273132
  0
LINE
  5
366
100
AcDbEntity
  8
0
100
AcDbLine
 62
2
  6
CONTINUOUS
 10
13.4286869926
 20
2.5920323691
 11
13.4286869926
 21
2.6796202339
  0
LINE
  5
367
100
AcDbEntity
  8
0
100
AcDbLine
 62
2
  6
CONTINUOUS
 10
13.4086869815
 20
2.3980226662
 11
13.4086869815
 21
2.4912273132
  0
LINE
  5
368
100
AcDbEntity
  8
0
100
AcDbLine
 62
2
  6
CONTINUOUS
 10
13.4086869815
 20
2.515977327
 11
13.4086869815
 21
2.5672823554
  0
LINE
  5
369
100
AcDbEntity
  8
0
100
AcDbLine
 62
2
  6
CONTINUOUS
 10
13.4086869815
 20
2.5920323691
 11
13.4086869815
 21
2.6827340148
  0
LINE
  5
36A
100
AcDbEntity
  8
0
100
AcDbLine
 62
2
  6
CONTINUOUS
 10
13.3886869704
 20
2.3950052774
 11
13.3886869704
 21
2.6857514036
  0
LINE
  5
36B
100
AcDbEntity
  8
0
100
AcDbLine
 62
2
  6
CONTINUOUS
 10
13.3686869593
 20
2.3919878885
 11
13.3686869593
 21
2.4912273132
  0
LINE
  5
36C
100
AcDbEntity
  8
0
100
AcDbLine
 62
2
  6
CONTINUOUS
 10
13.3686869593
 20
2.5291773343
 11
13.3686869593
 21
2.5540823481
  0
LINE
  5
36D
100
AcDbEntity
  8
0
100
AcDbLine
 62
2
  6
CONTINUOUS
 10
13.3686869593
 20
2.5920323691
 11
13.3686869593
 21
2.6887687924
  0
LINE
  5
36E
100
AcDbEntity
  8
0
100
AcDbLine
 62
2
  6
CONTINUOUS
 10
13.3486869482
 20
2.3889704997
 11
13.3486869482
 21
2.4912273132
  0
LINE
  5
36F
100
AcDbEntity
  8
0
100
AcDbLine
 62
2
  6
CONTINUOUS
 10
13.3486869482
 20
2.5291773343
 11
13.3486869482
 21
2.5540823481
  0
LINE
  5
370
100
AcDbEntity
  8
0
100
AcDbLine
 62
2
  6
CONTINUOUS
 10
13.3486869482
 20
2.5920323691
 11
13.3486869482
 21
2.6917861813
  0
LINE
  5
371
100
AcDbEntity
  8
0
100
AcDbLine
 62
2
  6
CONTINUOUS
 10
13.3286869371
 20
2.3859531109
 11
13.3286869371
 21
2.4912273132
  0
LINE
  5
372
100
AcDbEntity
  8
0
100
AcDbLine
 62
2
  6
CONTINUOUS
 10
13.3286869371
 20
2.5291773343
 11
13.3286869371
 21
2.5540823481
  0
LINE
  5
373
100
AcDbEntity
  8
0
100
AcDbLine
 62
2
  6
CONTINUOUS
 10
13.3286869371
 20
2.5920323691
 11
13.3286869371
 21
2.6948035701
  0
LINE
  5
374
100
AcDbEntity
  8
0
100
AcDbLine
 62
2
  6
CONTINUOUS
 10
13.308686926
 20
2.3833355437
 11
13.308686926
 21
2.4912273132
  0
LINE
  5
375
100
AcDbEntity
  8
0
100
AcDbLine
 62
2
  6
CONTINUOUS
 10
13.308686926
 20
2.515977327
 11
13.308686926
 21
2.5672823554
  0
LINE
  5
376
100
AcDbEntity
  8
0
100
AcDbLine
 62
2
  6
CONTINUOUS
 10
13.308686926
 20
2.5920323691
 11
13.308686926
 21
2.6974211373
  0
LINE
  5
377
100
AcDbEntity
  8
0
100
AcDbLine
 62
2
  6
CONTINUOUS
 10
13.2886869149
 20
2.3812612684
 11
13.2886869149
 21
2.4912273132
  0
LINE
  5
378
100
AcDbEntity
  8
0
100
AcDbLine
 62
2
  6
CONTINUOUS
 10
13.2886869149
 20
2.515977327
 11
13.2886869149
 21
2.5324773361
  0
LINE
  5
379
100
AcDbEntity
  8
0
100
AcDbLine
 62
2
  6
CONTINUOUS
 10
13.2886869149
 20
2.5507823463
 11
13.2886869149
 21
2.5672823554
  0
LINE
  5
37A
100
AcDbEntity
  8
0
100
AcDbLine
 62
2
  6
CONTINUOUS
 10
13.2886869149
 20
2.5920323691
 11
13.2886869149
 21
2.6994954125
  0
LINE
  5
37B
100
AcDbEntity
  8
0
100
AcDbLine
 62
2
  6
CONTINUOUS
 10
13.2686869038
 20
2.3791869932
 11
13.2686869038
 21
2.4912273132
  0
LINE
  5
37C
100
AcDbEntity
  8
0
100
AcDbLine
 62
2
  6
CONTINUOUS
 10
13.2686869038
 20
2.515977327
 11
13.2686869038
 21
2.5324773361
  0
LINE
  5
37D
100
AcDbEntity
  8
0
100
AcDbLine
 62
2
  6
CONTINUOUS
 10
13.2686869038
 20
2.5507823463
 11
13.2686869038
 21
2.5672823554
  0
LINE
  5
37E
100
AcDbEntity
  8
0
100
AcDbLine
 62
2
  6
CONTINUOUS
 10
13.2686869038
 20
2.5920323691
 11
13.2686869038
 21
2.7015696878
  0
LINE
  5
37F
100
AcDbEntity
  8
0
100
AcDbLine
 62
2
  6
CONTINUOUS
 10
13.2486868927
 20
2.377112718
 11
13.2486868927
 21
2.4912273132
  0
LINE
  5
380
100
AcDbEntity
  8
0
100
AcDbLine
 62
2
  6
CONTINUOUS
 10
13.2486868927
 20
2.5920323691
 11
13.2486868927
 21
2.703643963
  0
LINE
  5
381
100
AcDbEntity
  8
0
100
AcDbLine
 62
2
  6
CONTINUOUS
 10
13.2286868817
 20
2.3750384428
 11
13.2286868817
 21
2.4912273132
  0
LINE
  5
382
100
AcDbEntity
  8
0
100
AcDbLine
 62
2
  6
CONTINUOUS
 10
13.2286868817
 20
2.5920323691
 11
13.2286868817
 21
2.7057182382
  0
LINE
  5
383
100
AcDbEntity
  8
0
100
AcDbLine
 62
2
  6
CONTINUOUS
 10
13.2086868706
 20
2.3729641676
 11
13.2086868706
 21
2.4912273132
  0
LINE
  5
384
100
AcDbEntity
  8
0
100
AcDbLine
 62
2
  6
CONTINUOUS
 10
13.2086868706
 20
2.5920323691
 11
13.2086868706
 21
2.7077925134
  0
LINE
  5
385
100
AcDbEntity
  8
0
100
AcDbLine
 62
2
  6
CONTINUOUS
 10
13.1886868595
 20
2.3712344456
 11
13.1886868595
 21
2.4912273132
  0
LINE
  5
386
100
AcDbEntity
  8
0
100
AcDbLine
 62
2
  6
CONTINUOUS
 10
13.1886868595
 20
2.515977327
 11
13.1886868595
 21
2.5672823554
  0
LINE
  5
387
100
AcDbEntity
  8
0
100
AcDbLine
 62
2
  6
CONTINUOUS
 10
13.1886868595
 20
2.5920323691
 11
13.1886868595
 21
2.7095222354
  0
LINE
  5
388
100
AcDbEntity
  8
0
100
AcDbLine
 62
2
  6
CONTINUOUS
 10
13.1686868484
 20
2.3699682418
 11
13.1686868484
 21
2.4912273132
  0
LINE
  5
389
100
AcDbEntity
  8
0
100
AcDbLine
 62
2
  6
CONTINUOUS
 10
13.1686868484
 20
2.515977327
 11
13.1686868484
 21
2.5672823554
  0
LINE
  5
38A
100
AcDbEntity
  8
0
100
AcDbLine
 62
2
  6
CONTINUOUS
 10
13.1686868484
 20
2.5920323691
 11
13.1686868484
 21
2.7107884392
  0
LINE
  5
38B
100
AcDbEntity
  8
0
100
AcDbLine
 62
2
  6
CONTINUOUS
 10
13.1486868373
 20
2.3687020381
 11
13.1486868373
 21
2.7120546429
  0
LINE
  5
38C
100
AcDbEntity
  8
0
100
AcDbLine
 62
2
  6
CONTINUOUS
 10
13.1286868262
 20
2.3674358343
 11
13.1286868262
 21
2.5672823554
  0
LINE
  5
38D
100
AcDbEntity
  8
0
100
AcDbLine
 62
2
  6
CONTINUOUS
 10
13.1286868262
 20
2.5920323691
 11
13.1286868262
 21
2.7133208466
  0
LINE
  5
38E
100
AcDbEntity
  8
0
100
AcDbLine
 62
2
  6
CONTINUOUS
 10
13.1086868151
 20
2.3661696306
 11
13.1086868151
 21
2.4912273132
  0
LINE
  5
38F
100
AcDbEntity
  8
0
100
AcDbLine
 62
2
  6
CONTINUOUS
 10
13.1086868151
 20
2.5920323691
 11
13.1086868151
 21
2.7145870504
  0
LINE
  5
390
100
AcDbEntity
  8
0
100
AcDbLine
 62
2
  6
CONTINUOUS
 10
13.088686804
 20
2.3649034269
 11
13.088686804
 21
2.4912273132
  0
LINE
  5
391
100
AcDbEntity
  8
0
100
AcDbLine
 62
2
  6
CONTINUOUS
 10
13.088686804
 20
2.5920323691
 11
13.088686804
 21
2.7158532541
  0
LINE
  5
392
100
AcDbEntity
  8
0
100
AcDbLine
 62
2
  6
CONTINUOUS
 10
13.0686867929
 20
2.3636739922
 11
13.0686867929
 21
2.4912273132
  0
LINE
  5
393
100
AcDbEntity
  8
0
100
AcDbLine
 62
2
  6
CONTINUOUS
 10
13.0686867929
 20
2.5475272398
 11
13.0686867929
 21
2.5672823554
  0
LINE
  5
394
100
AcDbEntity
  8
0
100
AcDbLine
 62
2
  6
CONTINUOUS
 10
13.0686867929
 20
2.5920323691
 11
13.0686867929
 21
2.7170826887
  0
LINE
  5
395
100
AcDbEntity
  8
0
100
AcDbLine
 62
2
  6
CONTINUOUS
 10
13.0486867818
 20
2.363143203
 11
13.0486867818
 21
2.4912273132
  0
LINE
  5
396
100
AcDbEntity
  8
0
100
AcDbLine
 62
2
  6
CONTINUOUS
 10
13.0486867818
 20
2.5666100882
 11
13.0486867818
 21
2.717613478
  0
LINE
  5
397
100
AcDbEntity
  8
0
100
AcDbLine
 62
2
  6
CONTINUOUS
 10
13.0286867707
 20
2.3626124138
 11
13.0286867707
 21
2.50359263
  0
LINE
  5
398
100
AcDbEntity
  8
0
100
AcDbLine
 62
2
  6
CONTINUOUS
 10
13.0286867707
 20
2.5856929366
 11
13.0286867707
 21
2.7181442672
  0
LINE
  5
399
100
AcDbEntity
  8
0
100
AcDbLine
 62
2
  6
CONTINUOUS
 10
13.0086867596
 20
2.3620816246
 11
13.0086867596
 21
2.5226754472
  0
LINE
  5
39A
100
AcDbEntity
  8
0
100
AcDbLine
 62
2
  6
CONTINUOUS
 10
13.0086867596
 20
2.5920323691
 11
13.0086867596
 21
2.7186750564
  0
LINE
  5
39B
100
AcDbEntity
  8
0
100
AcDbLine
 62
2
  6
CONTINUOUS
 10
12.9886867486
 20
2.3615508354
 11
12.9886867486
 21
2.4912273132
  0
LINE
  5
39C
100
AcDbEntity
  8
0
100
AcDbLine
 62
2
  6
CONTINUOUS
 10
12.9886867486
 20
2.515977327
 11
12.9886867486
 21
2.5417582644
  0
LINE
  5
39D
100
AcDbEntity
  8
0
100
AcDbLine
 62
2
  6
CONTINUOUS
 10
12.9886867486
 20
2.5920323691
 11
12.9886867486
 21
2.7192058456
  0
LINE
  5
39E
100
AcDbEntity
  8
0
100
AcDbLine
 62
2
  6
CONTINUOUS
 10
12.9686867375
 20
2.3610200462
 11
12.9686867375
 21
2.4912273132
  0
LINE
  5
39F
100
AcDbEntity
  8
0
100
AcDbLine
 62
2
  6
CONTINUOUS
 10
12.9686867375
 20
2.5920323691
 11
12.9686867375
 21
2.7197366348
  0
LINE
  5
3A0
100
AcDbEntity
  8
0
100
AcDbLine
 62
2
  6
CONTINUOUS
 10
12.9486867264
 20
2.360489257
 11
12.9486867264
 21
2.4912273132
  0
LINE
  5
3A1
100
AcDbEntity
  8
0
100
AcDbLine
 62
2
  6
CONTINUOUS
 10
12.9486867264
 20
2.5920323691
 11
12.9486867264
 21
2.720267424
  0
LINE
  5
3A2
100
AcDbEntity
  8
0
100
AcDbLine
 62
2
  6
CONTINUOUS
 10
12.9286867153
 20
2.3602836008
 11
12.9286867153
 21
2.4912273132
  0
LINE
  5
3A3
100
AcDbEntity
  8
0
100
AcDbLine
 62
2
  6
CONTINUOUS
 10
12.9286867153
 20
2.515977327
 11
12.9286867153
 21
2.5672823554
  0
LINE
  5
3A4
100
AcDbEntity
  8
0
100
AcDbLine
 62
2
  6
CONTINUOUS
 10
12.9286867153
 20
2.5920323691
 11
12.9286867153
 21
2.7204730802
  0
LINE
  5
3A5
100
AcDbEntity
  8
0
100
AcDbLine
 62
2
  6
CONTINUOUS
 10
12.9086867042
 20
2.3604597639
 11
12.9086867042
 21
2.7202969171
  0
LINE
  5
3A6
100
AcDbEntity
  8
0
100
AcDbLine
 62
2
  6
CONTINUOUS
 10
12.8886866931
 20
2.360635927
 11
12.8886866931
 21
2.5672823554
  0
LINE
  5
3A7
100
AcDbEntity
  8
0
100
AcDbLine
 62
2
  6
CONTINUOUS
 10
12.8886866931
 20
2.5920323691
 11
12.8886866931
 21
2.720120754
  0
LINE
  5
3A8
100
AcDbEntity
  8
0
100
AcDbLine
 62
2
  6
CONTINUOUS
 10
12.868686682
 20
2.3608120901
 11
12.868686682
 21
2.491232357
  0
LINE
  5
3A9
100
AcDbEntity
  8
0
100
AcDbLine
 62
2
  6
CONTINUOUS
 10
12.868686682
 20
2.5920323691
 11
12.868686682
 21
2.7199445909
  0
LINE
  5
3AA
100
AcDbEntity
  8
0
100
AcDbLine
 62
2
  6
CONTINUOUS
 10
12.8486866709
 20
2.3609882532
 11
12.8486866709
 21
2.4912273132
  0
LINE
  5
3AB
100
AcDbEntity
  8
0
100
AcDbLine
 62
2
  6
CONTINUOUS
 10
12.8486866709
 20
2.5920323691
 11
12.8486866709
 21
2.7197684278
  0
LINE
  5
3AC
100
AcDbEntity
  8
0
100
AcDbLine
 62
2
  6
CONTINUOUS
 10
12.8286866598
 20
2.3611644163
 11
12.8286866598
 21
2.4912273132
  0
LINE
  5
3AD
100
AcDbEntity
  8
0
100
AcDbLine
 62
2
  6
CONTINUOUS
 10
12.8286866598
 20
2.5396527025
 11
12.8286866598
 21
2.5672823554
  0
LINE
  5
3AE
100
AcDbEntity
  8
0
100
AcDbLine
 62
2
  6
CONTINUOUS
 10
12.8286866598
 20
2.5920323691
 11
12.8286866598
 21
2.7195922647
  0
LINE
  5
3AF
100
AcDbEntity
  8
0
100
AcDbLine
 62
2
  6
CONTINUOUS
 10
12.8086866487
 20
2.3613405794
 11
12.8086866487
 21
2.4912273132
  0
LINE
  5
3B0
100
AcDbEntity
  8
0
100
AcDbLine
 62
2
  6
CONTINUOUS
 10
12.8086866487
 20
2.5587355508
 11
12.8086866487
 21
2.7194161016
  0
LINE
  5
3B1
100
AcDbEntity
  8
0
100
AcDbLine
 62
2
  6
CONTINUOUS
 10
12.7886866376
 20
2.3621089572
 11
12.7886866376
 21
2.4957181055
  0
LINE
  5
3B2
100
AcDbEntity
  8
0
100
AcDbLine
 62
2
  6
CONTINUOUS
 10
12.7886866376
 20
2.5778183992
 11
12.7886866376
 21
2.7186477238
  0
LINE
  5
3B3
100
AcDbEntity
  8
0
100
AcDbLine
 62
2
  6
CONTINUOUS
 10
12.7686866266
 20
2.3630013935
 11
12.7686866266
 21
2.5148009227
  0
LINE
  5
3B4
100
AcDbEntity
  8
0
100
AcDbLine
 62
2
  6
CONTINUOUS
 10
12.7686866266
 20
2.5920323691
 11
12.7686866266
 21
2.7177552874
  0
LINE
  5
3B5
100
AcDbEntity
  8
0
100
AcDbLine
 62
2
  6
CONTINUOUS
 10
12.7486866155
 20
2.3638938299
 11
12.7486866155
 21
2.4913263218
  0
LINE
  5
3B6
100
AcDbEntity
  8
0
100
AcDbLine
 62
2
  6
CONTINUOUS
 10
12.7486866155
 20
2.5158783184
 11
12.7486866155
 21
2.5338837399
  0
LINE
  5
3B7
100
AcDbEntity
  8
0
100
AcDbLine
 62
2
  6
CONTINUOUS
 10
12.7486866155
 20
2.5920323691
 11
12.7486866155
 21
2.7168628511
  0
LINE
  5
3B8
100
AcDbEntity
  8
0
100
AcDbLine
 62
2
  6
CONTINUOUS
 10
12.7286866044
 20
2.3647862663
 11
12.7286866044
 21
2.4912273132
  0
LINE
  5
3B9
100
AcDbEntity
  8
0
100
AcDbLine
 62
2
  6
CONTINUOUS
 10
12.7286866044
 20
2.515977327
 11
12.7286866044
 21
2.5527601554
  0
LINE
  5
3BA
100
AcDbEntity
  8
0
100
AcDbLine
 62
2
  6
CONTINUOUS
 10
12.7286866044
 20
2.5920323691
 11
12.7286866044
 21
2.7159704147
  0
LINE
  5
3BB
100
AcDbEntity
  8
0
100
AcDbLine
 62
2
  6
CONTINUOUS
 10
12.7086865933
 20
2.3656787026
 11
12.7086865933
 21
2.4912273132
  0
LINE
  5
3BC
100
AcDbEntity
  8
0
100
AcDbLine
 62
2
  6
CONTINUOUS
 10
12.7086865933
 20
2.5920323691
 11
12.7086865933
 21
2.7150779784
  0
LINE
  5
3BD
100
AcDbEntity
  8
0
100
AcDbLine
 62
2
  6
CONTINUOUS
 10
12.6886865822
 20
2.366571139
 11
12.6886865822
 21
2.4912273132
  0
LINE
  5
3BE
100
AcDbEntity
  8
0
100
AcDbLine
 62
2
  6
CONTINUOUS
 10
12.6886865822
 20
2.515977327
 11
12.6886865822
 21
2.5672823554
  0
LINE
  5
3BF
100
AcDbEntity
  8
0
100
AcDbLine
 62
2
  6
CONTINUOUS
 10
12.6886865822
 20
2.5920323691
 11
12.6886865822
 21
2.714185542
  0
LINE
  5
3C0
100
AcDbEntity
  8
0
100
AcDbLine
 62
2
  6
CONTINUOUS
 10
12.6686865711
 20
2.3677104027
 11
12.6686865711
 21
2.7130462783
  0
LINE
  5
3C1
100
AcDbEntity
  8
0
100
AcDbLine
 62
2
  6
CONTINUOUS
 10
12.64868656
 20
2.3693682721
 11
12.64868656
 21
2.7113884089
  0
LINE
  5
3C2
100
AcDbEntity
  8
0
100
AcDbLine
 62
2
  6
CONTINUOUS
 10
12.6286865489
 20
2.3710261415
 11
12.6286865489
 21
2.4912273132
  0
LINE
  5
3C3
100
AcDbEntity
  8
0
100
AcDbLine
 62
2
  6
CONTINUOUS
 10
12.6286865489
 20
2.515977327
 11
12.6286865489
 21
2.7097305395
  0
LINE
  5
3C4
100
AcDbEntity
  8
0
100
AcDbLine
 62
2
  6
CONTINUOUS
 10
12.6086865378
 20
2.372684011
 11
12.6086865378
 21
2.4912273132
  0
LINE
  5
3C5
100
AcDbEntity
  8
0
100
AcDbLine
 62
2
  6
CONTINUOUS
 10
12.6086865378
 20
2.5351122279
 11
12.6086865378
 21
2.70807267
  0
LINE
  5
3C6
100
AcDbEntity
  8
0
100
AcDbLine
 62
2
  6
CONTINUOUS
 10
12.5886865267
 20
2.3743418804
 11
12.5886865267
 21
2.4912273132
  0
LINE
  5
3C7
100
AcDbEntity
  8
0
100
AcDbLine
 62
2
  6
CONTINUOUS
 10
12.5886865267
 20
2.5660172622
 11
12.5886865267
 21
2.7064148006
  0
LINE
  5
3C8
100
AcDbEntity
  8
0
100
AcDbLine
 62
2
  6
CONTINUOUS
 10
12.5686865156
 20
2.3759997498
 11
12.5686865156
 21
2.4912273132
  0
LINE
  5
3C9
100
AcDbEntity
  8
0
100
AcDbLine
 62
2
  6
CONTINUOUS
 10
12.5686865156
 20
2.5920323691
 11
12.5686865156
 21
2.7047569312
  0
LINE
  5
3CA
100
AcDbEntity
  8
0
100
AcDbLine
 62
2
  6
CONTINUOUS
 10
12.5486865045
 20
2.3777575277
 11
12.5486865045
 21
2.4912273132
  0
LINE
  5
3CB
100
AcDbEntity
  8
0
100
AcDbLine
 62
2
  6
CONTINUOUS
 10
12.5486865045
 20
2.515977327
 11
12.5486865045
 21
2.5275118824
  0
LINE
  5
3CC
100
AcDbEntity
  8
0
100
AcDbLine
 62
2
  6
CONTINUOUS
 10
12.5486865045
 20
2.5920323691
 11
12.5486865045
 21
2.7029991533
  0
LINE
  5
3CD
100
AcDbEntity
  8
0
100
AcDbLine
 62
2
  6
CONTINUOUS
 10
12.5286864935
 20
2.3802813811
 11
12.5286864935
 21
2.5296213345
  0
LINE
  5
3CE
100
AcDbEntity
  8
0
100
AcDbLine
 62
2
  6
CONTINUOUS
 10
12.5286864935
 20
2.5505713461
 11
12.5286864935
 21
2.5667383551
  0
LINE
  5
3CF
100
AcDbEntity
  8
0
100
AcDbLine
 62
2
  6
CONTINUOUS
 10
12.5286864935
 20
2.5920323691
 11
12.5286864935
 21
2.7004752999
  0
LINE
  5
3D0
100
AcDbEntity
  8
0
100
AcDbLine
 62
2
  6
CONTINUOUS
 10
12.5086864824
 20
2.3828052346
 11
12.5086864824
 21
2.4912273132
  0
LINE
  5
3D1
100
AcDbEntity
  8
0
100
AcDbLine
 62
2
  6
CONTINUOUS
 10
12.5086864824
 20
2.515977327
 11
12.5086864824
 21
2.5279667721
  0
LINE
  5
3D2
100
AcDbEntity
  8
0
100
AcDbLine
 62
2
  6
CONTINUOUS
 10
12.5086864824
 20
2.5868602074
 11
12.5086864824
 21
2.6979514464
  0
LINE
  5
3D3
100
AcDbEntity
  8
0
100
AcDbLine
 62
2
  6
CONTINUOUS
 10
12.4886864713
 20
2.385329088
 11
12.4886864713
 21
2.4912273132
  0
LINE
  5
3D4
100
AcDbEntity
  8
0
100
AcDbLine
 62
2
  6
CONTINUOUS
 10
12.4886864713
 20
2.5553401045
 11
12.4886864713
 21
2.695427593
  0
LINE
  5
3D5
100
AcDbEntity
  8
0
100
AcDbLine
 62
2
  6
CONTINUOUS
 10
12.4686864602
 20
2.3878529415
 11
12.4686864602
 21
2.4912273132
  0
LINE
  5
3D6
100
AcDbEntity
  8
0
100
AcDbLine
 62
2
  6
CONTINUOUS
 10
12.4686864602
 20
2.5238200015
 11
12.4686864602
 21
2.6929037395
  0
LINE
  5
3D7
100
AcDbEntity
  8
0
100
AcDbLine
 62
2
  6
CONTINUOUS
 10
12.4486864491
 20
2.390376795
 11
12.4486864491
 21
2.4912273132
  0
LINE
  5
3D8
100
AcDbEntity
  8
0
100
AcDbLine
 62
2
  6
CONTINUOUS
 10
12.4486864491
 20
2.515977327
 11
12.4486864491
 21
2.690379886
  0
LINE
  5
3D9
100
AcDbEntity
  8
0
100
AcDbLine
 62
2
  6
CONTINUOUS
 10
12.428686438
 20
2.3931794042
 11
12.428686438
 21
2.6875772768
  0
LINE
  5
3DA
100
AcDbEntity
  8
0
100
AcDbLine
 62
2
  6
CONTINUOUS
 10
12.4086864269
 20
2.3964643301
 11
12.4086864269
 21
2.5013773986
  0
LINE
  5
3DB
100
AcDbEntity
  8
0
100
AcDbLine
 62
2
  6
CONTINUOUS
 10
12.4086864269
 20
2.5325739971
 11
12.4086864269
 21
2.5537224311
  0
LINE
  5
3DC
100
AcDbEntity
  8
0
100
AcDbLine
 62
2
  6
CONTINUOUS
 10
12.4086864269
 20
2.5791473398
 11
12.4086864269
 21
2.6842923509
  0
LINE
  5
3DD
100
AcDbEntity
  8
0
100
AcDbLine
 62
2
  6
CONTINUOUS
 10
12.3886864158
 20
2.399749256
 11
12.3886864158
 21
2.4921022658
  0
LINE
  5
3DE
100
AcDbEntity
  8
0
100
AcDbLine
 62
2
  6
CONTINUOUS
 10
12.3886864158
 20
2.5895929958
 11
12.3886864158
 21
2.681007425
  0
LINE
  5
3DF
100
AcDbEntity
  8
0
100
AcDbLine
 62
2
  6
CONTINUOUS
 10
12.3686864047
 20
2.403451877
 11
12.3686864047
 21
2.4912273132
  0
LINE
  5
3E0
100
AcDbEntity
  8
0
100
AcDbLine
 62
2
  6
CONTINUOUS
 10
12.3686864047
 20
2.5920323691
 11
12.3686864047
 21
2.677304804
  0
LINE
  5
3E1
100
AcDbEntity
  8
0
100
AcDbLine
 62
2
  6
CONTINUOUS
 10
12.3486863936
 20
2.407324637
 11
12.3486863936
 21
2.4912273132
  0
LINE
  5
3E2
100
AcDbEntity
  8
0
100
AcDbLine
 62
2
  6
CONTINUOUS
 10
12.3486863936
 20
2.5920323691
 11
12.3486863936
 21
2.673432044
  0
LINE
  5
3E3
100
AcDbEntity
  8
0
100
AcDbLine
 62
2
  6
CONTINUOUS
 10
12.3286863825
 20
2.4113493968
 11
12.3286863825
 21
2.4912273132
  0
LINE
  5
3E4
100
AcDbEntity
  8
0
100
AcDbLine
 62
2
  6
CONTINUOUS
 10
12.3286863825
 20
2.515977327
 11
12.3286863825
 21
2.5333023366
  0
LINE
  5
3E5
100
AcDbEntity
  8
0
100
AcDbLine
 62
2
  6
CONTINUOUS
 10
12.3286863825
 20
2.5499573458
 11
12.3286863825
 21
2.5672823554
  0
LINE
  5
3E6
100
AcDbEntity
  8
0
100
AcDbLine
 62
2
  6
CONTINUOUS
 10
12.3286863825
 20
2.5920323691
 11
12.3286863825
 21
2.6694072842
  0
LINE
  5
3E7
100
AcDbEntity
  8
0
100
AcDbLine
 62
2
  6
CONTINUOUS
 10
12.3086863715
 20
2.4159005505
 11
12.3086863715
 21
2.4912273132
  0
LINE
  5
3E8
100
AcDbEntity
  8
0
100
AcDbLine
 62
2
  6
CONTINUOUS
 10
12.3086863715
 20
2.515977327
 11
12.3086863715
 21
2.5333023366
  0
LINE
  5
3E9
100
AcDbEntity
  8
0
100
AcDbLine
 62
2
  6
CONTINUOUS
 10
12.3086863715
 20
2.5499573458
 11
12.3086863715
 21
2.5672823554
  0
LINE
  5
3EA
100
AcDbEntity
  8
0
100
AcDbLine
 62
2
  6
CONTINUOUS
 10
12.3086863715
 20
2.5920323691
 11
12.3086863715
 21
2.6648561305
  0
LINE
  5
3EB
100
AcDbEntity
  8
0
100
AcDbLine
 62
2
  6
CONTINUOUS
 10
12.2886863604
 20
2.4204517041
 11
12.2886863604
 21
2.4912273132
  0
LINE
  5
3EC
100
AcDbEntity
  8
0
100
AcDbLine
 62
2
  6
CONTINUOUS
 10
12.2886863604
 20
2.5920323691
 11
12.2886863604
 21
2.6603049769
  0
LINE
  5
3ED
100
AcDbEntity
  8
0
100
AcDbLine
 62
2
  6
CONTINUOUS
 10
12.2686863493
 20
2.4257438218
 11
12.2686863493
 21
2.4912273132
  0
LINE
  5
3EE
100
AcDbEntity
  8
0
100
AcDbLine
 62
2
  6
CONTINUOUS
 10
12.2686863493
 20
2.5920323691
 11
12.2686863493
 21
2.6550128592
  0
LINE
  5
3EF
100
AcDbEntity
  8
0
100
AcDbLine
 62
2
  6
CONTINUOUS
 10
12.2486863382
 20
2.4310978667
 11
12.2486863382
 21
2.4912273132
  0
LINE
  5
3F0
100
AcDbEntity
  8
0
100
AcDbLine
 62
2
  6
CONTINUOUS
 10
12.2486863382
 20
2.5920323691
 11
12.2486863382
 21
2.6496588142
  0
LINE
  5
3F1
100
AcDbEntity
  8
0
100
AcDbLine
 62
2
  6
CONTINUOUS
 10
12.2286863271
 20
2.4372566433
 11
12.2286863271
 21
2.4912273132
  0
LINE
  5
3F2
100
AcDbEntity
  8
0
100
AcDbLine
 62
2
  6
CONTINUOUS
 10
12.2286863271
 20
2.515977327
 11
12.2286863271
 21
2.5672823554
  0
LINE
  5
3F3
100
AcDbEntity
  8
0
100
AcDbLine
 62
2
  6
CONTINUOUS
 10
12.2286863271
 20
2.5920323691
 11
12.2286863271
 21
2.6435000377
  0
LINE
  5
3F4
100
AcDbEntity
  8
0
100
AcDbLine
 62
2
  6
CONTINUOUS
 10
12.208686316
 20
2.443589771
 11
12.208686316
 21
2.4912273132
  0
LINE
  5
3F5
100
AcDbEntity
  8
0
100
AcDbLine
 62
2
  6
CONTINUOUS
 10
12.208686316
 20
2.515977327
 11
12.208686316
 21
2.5672823554
  0
LINE
  5
3F6
100
AcDbEntity
  8
0
100
AcDbLine
 62
2
  6
CONTINUOUS
 10
12.208686316
 20
2.5920323691
 11
12.208686316
 21
2.63716691
  0
LINE
  5
3F7
100
AcDbEntity
  8
0
100
AcDbLine
 62
2
  6
CONTINUOUS
 10
12.1886863049
 20
2.4510806436
 11
12.1886863049
 21
2.6296760373
  0
LINE
  5
3F8
100
AcDbEntity
  8
0
100
AcDbLine
 62
2
  6
CONTINUOUS
 10
12.1686862938
 20
2.4591016523
 11
12.1686862938
 21
2.6216550287
  0
LINE
  5
3F9
100
AcDbEntity
  8
0
100
AcDbLine
 62
2
  6
CONTINUOUS
 10
12.1486862827
 20
2.468314272
 11
12.1486862827
 21
2.612442409
  0
LINE
  5
3FA
100
AcDbEntity
  8
0
100
AcDbLine
 62
2
  6
CONTINUOUS
 10
12.1286862716
 20
2.4794932339
 11
12.1286862716
 21
2.601263447
  0
LINE
  5
3FB
100
AcDbEntity
  8
0
100
AcDbLine
 62
2
  6
CONTINUOUS
 10
12.1086862605
 20
2.4934150665
 11
12.1086862605
 21
2.5873416144
  0
LINE
  5
3FC
100
AcDbEntity
  8
0
100
AcDbLine
 62
2
  6
CONTINUOUS
 10
12.0886862494
 20
2.5144449553
 11
12.0886862494
 21
2.5663117257
  0
ENDBLK
  5
3FD
100
AcDbEntity
  8
0
  6
BYBLOCK
 62
0
100
AcDbBlockEnd
  0
BLOCK
  5
3FE
100
AcDbEntity
  8
0
100
AcDbBlockBegin
  2
_FILLED
 70
64
 10
0.0
 20
0.0
  3
_FILLED
  1

  0
SOLID
  5
3FF
100
AcDbEntity
  8
0
  6
BYBLOCK
 62
0
100
AcDbTrace
 10
0.0
 20
0.0
 11
-1.0
 21
0.1666666667
 12
-1.0
 22
-0.1666666667
 13
-1.0
 23
-0.1666666667
  0
ENDBLK
  5
400
100
AcDbEntity
  8
0
  6
BYBLOCK
 62
0
100
AcDbBlockEnd
  0
BLOCK
  5
401
100
AcDbEntity
  8
SCHEME_DIMS
100
AcDbBlockBegin
 62
2
  6
CONTINUOUS
  2
*D0
 70
65
 10
0.0
 20
0.0
  3
*D0
  1

  0
MTEXT
  5
402
100
AcDbEntity
  8
SCHEME_DIMS
100
AcDbMText
 62
2
  6
CONTINUOUS
  7
STANDARD
 71
2
 72
1
 10
7.7645174051
 20
8.5335701835
 30
0.0
 11
1.0
 21
0.0
 31
0.0
 44
0.9
  1
49,5\P[1.95]
 40
0.1
 41
0.6
  0
LINE
  5
403
100
AcDbEntity
  8
SCHEME_DIMS
100
AcDbLine
 62
2
  6
CONTINUOUS
 10
8.8398599247
 20
6.061285648
 11
8.8398599247
 21
8.6085701835
  0
LINE
  5
404
100
AcDbEntity
  8
SCHEME_DIMS
100
AcDbLine
 62
2
  6
CONTINUOUS
 10
6.8891748854
 20
6.5525301215
 11
6.8891748854
 21
8.6085701835
  0
LINE
  5
405
100
AcDbEntity
  8
SCHEME_DIMS
100
AcDbLine
 62
2
  6
CONTINUOUS
 10
8.8398599247
 20
8.4835701835
 11
8.2645174051
 21
8.4835701835
  0
LINE
  5
406
100
AcDbEntity
  8
SCHEME_DIMS
100
AcDbLine
 62
2
  6
CONTINUOUS
 10
6.8891748854
 20
8.4835701835
 11
7.4645174051
 21
8.4835701835
  0
INSERT
  5
407
100
AcDbEntity
  8
SCHEME_DIMS
100
AcDbBlockReference
 62
2
  6
CONTINUOUS
  2
_FILLED
 10
8.8398599247
 20
8.4835701835
 41
0.1875
 42
0.1875
 43
0.1875
  0
INSERT
  5
408
100
AcDbEntity
  8
SCHEME_DIMS
100
AcDbBlockReference
 62
2
  6
CONTINUOUS
  2
_FILLED
 10
6.8891748854
 20
8.4835701835
 41
0.1875
 42
0.1875
 43
0.1875
 50
180.0
  0
ENDBLK
  5
409
100
AcDbEntity
  8
0
  6
BYBLOCK
 62
0
100
AcDbBlockEnd
  0
BLOCK
  5
40A
100
AcDbEntity
  8
SCHEME_DIMS
100
AcDbBlockBegin
 62
2
  6
CONTINUOUS
  2
*D1
 70
65
 10
0.0
 20
0.0
  3
*D1
  1

  0
MTEXT
  5
40B
100
AcDbEntity
  8
SCHEME_DIMS
100
AcDbMText
 62
2
  6
CONTINUOUS
  7
STANDARD
 71
2
 72
1
 10
7.2042811846
 20
7.4555518349
 30
0.0
 11
1.0
 21
0.0
 31
0.0
 44
0.9
  1
18,5\P[.73]
 40
0.1
 41
0.5
  0
LINE
  5
40C
100
AcDbEntity
  8
SCHEME_DIMS
100
AcDbLine
 62
2
  6
CONTINUOUS
 10
7.6193874838
 20
6.802427371
 11
7.6193874838
 21
7.5305518349
  0
LINE
  5
40D
100
AcDbEntity
  8
SCHEME_DIMS
100
AcDbLine
 62
2
  6
CONTINUOUS
 10
6.8891748854
 20
6.5525301215
 11
6.8891748854
 21
7.5305518349
  0
LINE
  5
40E
100
AcDbEntity
  8
SCHEME_DIMS
100
AcDbLine
 62
2
  6
CONTINUOUS
 10
7.6193874838
 20
7.4055518349
 11
8.0193874838
 21
7.4055518349
  0
LINE
  5
40F
100
AcDbEntity
  8
SCHEME_DIMS
100
AcDbLine
 62
2
  6
CONTINUOUS
 10
6.8891748854
 20
7.4055518349
 11
6.4891748854
 21
7.4055518349
  0
INSERT
  5
410
100
AcDbEntity
  8
SCHEME_DIMS
100
AcDbBlockReference
 62
2
  6
CONTINUOUS
  2
_FILLED
 10
7.6193874838
 20
7.4055518349
 41
0.1875
 42
0.1875
 43
0.1875
 50
180.0
  0
INSERT
  5
411
100
AcDbEntity
  8
SCHEME_DIMS
100
AcDbBlockReference
 62
2
  6
CONTINUOUS
  2
_FILLED
 10
6.8891748854
 20
7.4055518349
 41
0.1875
 42
0.1875
 43
0.1875
  0
ENDBLK
  5
412
100
AcDbEntity
  8
0
  6
BYBLOCK
 62
0
100
AcDbBlockEnd
  0
BLOCK
  5
413
100
AcDbEntity
  8
SCHEME_DIMS
100
AcDbBlockBegin
 62
2
  6
CONTINUOUS
  2
*D2
 70
65
 10
0.0
 20
0.0
  3
*D2
  1

  0
MTEXT
  5
414
100
AcDbEntity
  8
SCHEME_DIMS
100
AcDbMText
 62
2
  6
CONTINUOUS
  7
STANDARD
 71
2
 72
1
 10
7.547981972
 20
8.0448685321
 30
0.0
 11
1.0
 21
0.0
 31
0.0
 44
0.9
  1
38,5\P[1.52]
 40
0.1
 41
0.6
  0
LINE
  5
415
100
AcDbEntity
  8
SCHEME_DIMS
100
AcDbLine
 62
2
  6
CONTINUOUS
 10
8.4067890586
 20
6.3595139944
 11
8.4067890586
 21
8.1198685321
  0
LINE
  5
416
100
AcDbEntity
  8
SCHEME_DIMS
100
AcDbLine
 62
2
  6
CONTINUOUS
 10
6.8891748854
 20
6.5525301215
 11
6.8891748854
 21
8.1198685321
  0
LINE
  5
417
100
AcDbEntity
  8
SCHEME_DIMS
100
AcDbLine
 62
2
  6
CONTINUOUS
 10
8.4067890586
 20
7.9948685321
 11
8.047981972
 21
7.9948685321
  0
LINE
  5
418
100
AcDbEntity
  8
SCHEME_DIMS
100
AcDbLine
 62
2
  6
CONTINUOUS
 10
6.8891748854
 20
7.9948685321
 11
7.247981972
 21
7.9948685321
  0
INSERT
  5
419
100
AcDbEntity
  8
SCHEME_DIMS
100
AcDbBlockReference
 62
2
  6
CONTINUOUS
  2
_FILLED
 10
8.4067890586
 20
7.9948685321
 41
0.1875
 42
0.1875
 43
0.1875
  0
INSERT
  5
41A
100
AcDbEntity
  8
SCHEME_DIMS
100
AcDbBlockReference
 62
2
  6
CONTINUOUS
  2
_FILLED
 10
6.8891748854
 20
7.9948685321
 41
0.1875
 42
0.1875
 43
0.1875
 50
180.0
  0
ENDBLK
  5
41B
100
AcDbEntity
  8
0
  6
BYBLOCK
 62
0
100
AcDbBlockEnd
  0
BLOCK
  5
41C
100
AcDbEntity
  8
SCHEME_DIMS
100
AcDbBlockBegin
 62
2
  6
CONTINUOUS
  2
*D3
 70
65
 10
0.0
 20
0.0
  3
*D3
  1

  0
MTEXT
  5
41D
100
AcDbEntity
  8
SCHEME_DIMS
100
AcDbMText
 62
2
  6
CONTINUOUS
  7
TEXTSTYLE_5
 71
1
 72
1
 10
4.6485823394
 20
4.7173852294
 30
0.0
 11
1.0
 21
0.0
 31
0.0
 44
0.9
  1
{\Fgdt;n}\Ftxt;50\P[1.97]
 40
0.1
 41
0.6
  0
LINE
  5
41E
100
AcDbEntity
  8
SCHEME_DIMS
100
AcDbLine
 62
2
  6
CONTINUOUS
 10
4.1303929795
 20
5.0154162887
 11
4.3985823394
 21
4.6673852294
  0
LINE
  5
41F
100
AcDbEntity
  8
SCHEME_DIMS
100
AcDbLine
 62
2
  6
CONTINUOUS
 10
4.3985823394
 20
4.6673852294
 11
4.5485823394
 21
4.6673852294
  0
INSERT
  5
420
100
AcDbEntity
  8
SCHEME_DIMS
100
AcDbBlockReference
 62
2
  6
CONTINUOUS
  2
_FILLED
 10
4.1303929795
 20
5.0154162887
 41
0.1875
 42
0.1875
 43
0.1875
 50
127.617498037
  0
ENDBLK
  5
421
100
AcDbEntity
  8
0
  6
BYBLOCK
 62
0
100
AcDbBlockEnd
  0
BLOCK
  5
422
100
AcDbEntity
  8
0
100
AcDbBlockBegin
  2
*T1
 70
1
 10
0.0
 20
0.0
  3
*T1
  1

  0
LINE
  5
423
100
AcDbEntity
  8
0
100
AcDbLine
 62
2
  6
CONTINUOUS
 10
4.35
 20
0.0
 11
0.0
 21
0.0
  0
LINE
  5
424
100
AcDbEntity
  8
0
100
AcDbLine
 62
2
  6
CONTINUOUS
 10
4.35
 20
0.0
 11
4.35
 21
1.92
  0
LINE
  5
425
100
AcDbEntity
  8
0
100
AcDbLine
 62
2
  6
CONTINUOUS
 10
4.35
 20
1.92
 11
0.0
 21
1.92
  0
LINE
  5
426
100
AcDbEntity
  8
0
100
AcDbLine
 62
2
  6
CONTINUOUS
 10
0.0
 20
0.0
 11
0.0
 21
1.92
  0
MTEXT
  5
427
100
AcDbEntity
  8
NOTES
100
AcDbMText
 62
7
  6
CONTINUOUS
  7
STANDARD
 71
2
 72
1
 10
4.125
 20
0.48
 30
0.0
 11
1.0
 21
0.0
 31
0.0
 44
0.9
  1
-
 40
0.1
 41
0.1
  0
MTEXT
  5
428
100
AcDbEntity
  8
NOTES
100
AcDbMText
 62
7
  6
CONTINUOUS
  7
STANDARD
 71
2
 72
1
 10
2.175
 20
1.08
 30
0.0
 11
1.0
 21
0.0
 31
0.0
 44
0.9
  1
K50L GENERAL PURPOSE/MULTI-FUNCTION QD\PWEB CAD DRAWINGS 2D/3D
 40
0.1
 41
3.8
  0
ENDBLK
  5
429
100
AcDbEntity
  8
0
100
AcDbBlockEnd
  0
ENDSEC
  0
SECTION
  2
ENTITIES
  0
MTEXT
  5
42A
100
AcDbEntity
  8
0
100
AcDbMText
 62
2
  6
CONTINUOUS
  7
TEXTSTYLE_2
 71
2
 72
1
 10
11.0287658475
 20
1.794867839
 30
0.0
 11
1.0
 21
0.0
 31
0.0
 44
0.9
  1
THIRD ANGLE PROJECTION
 40
0.1
 41
1.76
  0
MTEXT
  5
42B
100
AcDbEntity
  8
0
100
AcDbMText
 62
2
  6
CONTINUOUS
  7
STANDARD
 71
1
 72
1
 10
12.88
 20
1.457
 30
0.0
 11
1.0
 21
0.0
 31
0.0
 44
0.9
  1
DRAWING NO.
 40
0.08
 41
0.88
  0
MTEXT
  5
42C
100
AcDbEntity
  8
0
100
AcDbMText
 62
2
  6
CONTINUOUS
  7
TEXTSTYLE_3
 71
2
 72
1
 10
11.03
 20
2.516432
 30
0.0
 11
1.0
 21
0.0
 31
0.0
 44
0.9
  1
and is proprietary in general
 40
0.08
 41
1.972
  0
MTEXT
  5
42D
100
AcDbEntity
  8
0
100
AcDbMText
 62
2
  6
CONTINUOUS
  7
TEXTSTYLE_3
 71
2
 72
1
 10
11.03
 20
2.396432
 30
0.0
 11
1.0
 21
0.0
 31
0.0
 44
0.9
  1
and in detail.  Its contents
 40
0.08
 41
1.904
  0
MTEXT
  5
42E
100
AcDbEntity
  8
0
100
AcDbMText
 62
2
  6
CONTINUOUS
  7
TEXTSTYLE_3
 71
2
 72
1
 10
11.03
 20
2.276432
 30
0.0
 11
1.0
 21
0.0
 31
0.0
 44
0.9
  1
shall not be revealed to
 40
0.08
 41
1.632
  0
MTEXT
  5
42F
100
AcDbEntity
  8
0
100
AcDbMText
 62
2
  6
CONTINUOUS
  7
TEXTSTYLE_3
 71
2
 72
1
 10
11.03
 20
2.156432
 30
0.0
 11
1.0
 21
0.0
 31
0.0
 44
0.9
  1
outside parties without
 40
0.08
 41
1.564
  0
MTEXT
  5
430
100
AcDbEntity
  8
0
100
AcDbMText
 62
2
  6
CONTINUOUS
  7
TEXTSTYLE_3
 71
2
 72
1
 10
11.03
 20
2.036432
 30
0.0
 11
1.0
 21
0.0
 31
0.0
 44
0.9
  1
written consent of BANNER.
 40
0.08
 41
1.768
  0
MTEXT
  5
431
100
AcDbEntity
  8
0
100
AcDbMText
 62
2
  6
CONTINUOUS
  7
TEXTSTYLE_2
 71
1
 72
1
 10
12.08
 20
2.217
 30
0.0
 11
1.0
 21
0.0
 31
0.0
 44
0.9
  1
TITLE
 40
0.1
 41
0.4
  0
MTEXT
  5
432
100
AcDbEntity
  8
0
100
AcDbMText
 62
2
  6
CONTINUOUS
  7
STANDARD
 71
1
 72
1
 10
12.08
 20
1.457
 30
0.0
 11
1.0
 21
0.0
 31
0.0
 44
0.9
  1
SIZE
 40
0.08
 41
0.32
  0
MTEXT
  5
433
100
AcDbEntity
  8
0
100
AcDbMText
 62
2
  6
CONTINUOUS
  7
STANDARD
 71
1
 72
1
 10
12.08
 20
1.087
 30
0.0
 11
1.0
 21
0.0
 31
0.0
 44
0.9
  1
SCALE
 40
0.08
 41
0.4
  0
MTEXT
  5
434
100
AcDbEntity
  8
0
100
AcDbMText
 62
2
  6
CONTINUOUS
  7
TEXTSTYLE_2
 71
2
 72
1
 10
12.5
 20
1.337
 30
0.0
 11
1.0
 21
0.0
 31
0.0
 44
0.9
  1
B
 40
0.1
 41
0.08
  0
MTEXT
  5
435
100
AcDbEntity
  8
0
100
AcDbMText
 62
2
  6
CONTINUOUS
  7
TEXTSTYLE_3
 71
2
 72
1
 10
11.03
 20
2.636432
 30
0.0
 11
1.0
 21
0.0
 31
0.0
 44
0.9
  1
of BANNER ENGINEERING CORP.
 40
0.08
 41
1.836
  0
MTEXT
  5
436
100
AcDbEntity
  8
0
100
AcDbMText
 62
2
  6
CONTINUOUS
  7
TEXTSTYLE_3
 71
2
 72
1
 10
11.03
 20
2.756432
 30
0.0
 11
1.0
 21
0.0
 31
0.0
 44
0.9
  1
This drawing is the property
 40
0.08
 41
1.904
  0
MTEXT
  5
437
100
AcDbEntity
  8
0
100
AcDbMText
 62
2
  6
CONTINUOUS
  7
TEXTSTYLE_2
 71
2
 72
1
 10
15.03
 20
2.4134
 30
0.0
 11
1.0
 21
0.0
 31
0.0
 44
0.9
  1
MINNEAPOLIS, MN 55440
 40
0.1
 41
1.68
  0
MTEXT
  5
438
100
AcDbEntity
  8
0
100
AcDbMText
 62
2
  6
CONTINUOUS
  7
STANDARD
 71
1
 72
1
 10
14.255
 20
1.087
 30
0.0
 11
1.0
 21
0.0
 31
0.0
 44
0.9
  1
SHEET
 40
0.08
 41
0.4
  0
MTEXT
  5
439
100
AcDbEntity
  8
0
100
AcDbMText
 62
2
  6
CONTINUOUS
  7
STANDARD
 71
1
 72
1
 10
15.63
 20
1.457
 30
0.0
 11
1.0
 21
0.0
 31
0.0
 44
0.9
  1
REV.
 40
0.08
 41
0.32
  0
MTEXT
  5
43A
100
AcDbEntity
  8
0
100
AcDbMText
 62
2
  6
CONTINUOUS
  7
STANDARD
 71
3
 72
1
 10
16.38
 20
0.835443
 30
0.0
 11
1.0
 21
0.0
 31
0.0
 44
0.9
  1
PRO/E
 40
0.07
 41
0.35
  0
MTEXT
  5
43B
100
AcDbEntity
  8
0
100
AcDbMText
 62
2
  6
CONTINUOUS
  7
TEXTSTYLE_4
 71
2
 72
1
 10
15.03
 20
2.751049
 30
0.0
 11
1.0
 21
0.0
 31
0.0
 44
0.9
  1
BANNER ENGINEERING CORP.
 40
0.12
 41
2.6496
  0
MTEXT
  5
43C
100
AcDbEntity
  8
0
100
AcDbMText
 62
2
  6
CONTINUOUS
  7
TEXTSTYLE_2
 71
2
 72
1
 10
15.03
 20
2.5724
 30
0.0
 11
1.0
 21
0.0
 31
0.0
 44
0.9
  1
P.O. BOX 9414
 40
0.1
 41
1.04
  0
MTEXT
  5
43D
100
AcDbEntity
  8
0
100
AcDbMText
 62
2
  6
CONTINUOUS
  7
TEXTSTYLE_2
 71
2
 72
1
 10
9.485
 20
10.312
 30
0.0
 11
1.0
 21
0.0
 31
0.0
 44
0.9
  1
4
 40
0.1
 41
0.08
  0
MTEXT
  5
43E
100
AcDbEntity
  8
0
100
AcDbMText
 62
2
  6
CONTINUOUS
  7
TEXTSTYLE_2
 71
2
 72
1
 10
11.455
 20
10.312
 30
0.0
 11
1.0
 21
0.0
 31
0.0
 44
0.9
  1
3
 40
0.1
 41
0.08
  0
MTEXT
  5
43F
100
AcDbEntity
  8
0
100
AcDbMText
 62
2
  6
CONTINUOUS
  7
TEXTSTYLE_2
 71
2
 72
1
 10
13.425
 20
10.312
 30
0.0
 11
1.0
 21
0.0
 31
0.0
 44
0.9
  1
2
 40
0.1
 41
0.08
  0
MTEXT
  5
440
100
AcDbEntity
  8
0
100
AcDbMText
 62
2
  6
CONTINUOUS
  7
TEXTSTYLE_2
 71
2
 72
1
 10
15.395
 20
10.312
 30
0.0
 11
1.0
 21
0.0
 31
0.0
 44
0.9
  1
1
 40
0.1
 41
0.08
  0
MTEXT
  5
441
100
AcDbEntity
  8
0
100
AcDbMText
 62
2
  6
CONTINUOUS
  7
TEXTSTYLE_2
 71
2
 72
1
 10
3.575
 20
10.312
 30
0.0
 11
1.0
 21
0.0
 31
0.0
 44
0.9
  1
7
 40
0.1
 41
0.08
  0
MTEXT
  5
442
100
AcDbEntity
  8
0
100
AcDbMText
 62
2
  6
CONTINUOUS
  7
TEXTSTYLE_2
 71
2
 72
1
 10
5.545
 20
10.312
 30
0.0
 11
1.0
 21
0.0
 31
0.0
 44
0.9
  1
6
 40
0.1
 41
0.08
  0
MTEXT
  5
443
100
AcDbEntity
  8
0
100
AcDbMText
 62
2
  6
CONTINUOUS
  7
TEXTSTYLE_2
 71
2
 72
1
 10
7.515
 20
10.312
 30
0.0
 11
1.0
 21
0.0
 31
0.0
 44
0.9
  1
5
 40
0.1
 41
0.08
  0
MTEXT
  5
444
100
AcDbEntity
  8
0
100
AcDbMText
 62
2
  6
CONTINUOUS
  7
TEXTSTYLE_2
 71
2
 72
1
 10
1.605
 20
10.312
 30
0.0
 11
1.0
 21
0.0
 31
0.0
 44
0.9
  1
8
 40
0.1
 41
0.08
  0
MTEXT
  5
445
100
AcDbEntity
  8
0
100
AcDbMText
 62
2
  6
CONTINUOUS
  7
TEXTSTYLE_2
 71
2
 72
1
 10
1.605
 20
0.787
 30
0.0
 11
1.0
 21
0.0
 31
0.0
 44
0.9
  1
8
 40
0.1
 41
0.08
  0
MTEXT
  5
446
100
AcDbEntity
  8
0
100
AcDbMText
 62
2
  6
CONTINUOUS
  7
TEXTSTYLE_2
 71
2
 72
1
 10
3.575
 20
0.787
 30
0.0
 11
1.0
 21
0.0
 31
0.0
 44
0.9
  1
7
 40
0.1
 41
0.08
  0
MTEXT
  5
447
100
AcDbEntity
  8
0
100
AcDbMText
 62
2
  6
CONTINUOUS
  7
TEXTSTYLE_2
 71
2
 72
1
 10
5.545
 20
0.787
 30
0.0
 11
1.0
 21
0.0
 31
0.0
 44
0.9
  1
6
 40
0.1
 41
0.08
  0
MTEXT
  5
448
100
AcDbEntity
  8
0
100
AcDbMText
 62
2
  6
CONTINUOUS
  7
TEXTSTYLE_2
 71
2
 72
1
 10
7.515
 20
0.787
 30
0.0
 11
1.0
 21
0.0
 31
0.0
 44
0.9
  1
5
 40
0.1
 41
0.08
  0
MTEXT
  5
449
100
AcDbEntity
  8
0
100
AcDbMText
 62
2
  6
CONTINUOUS
  7
TEXTSTYLE_2
 71
2
 72
1
 10
9.485
 20
0.787
 30
0.0
 11
1.0
 21
0.0
 31
0.0
 44
0.9
  1
4
 40
0.1
 41
0.08
  0
MTEXT
  5
44A
100
AcDbEntity
  8
0
100
AcDbMText
 62
2
  6
CONTINUOUS
  7
TEXTSTYLE_2
 71
2
 72
1
 10
11.455
 20
0.787
 30
0.0
 11
1.0
 21
0.0
 31
0.0
 44
0.9
  1
3
 40
0.1
 41
0.08
  0
MTEXT
  5
44B
100
AcDbEntity
  8
0
100
AcDbMText
 62
2
  6
CONTINUOUS
  7
TEXTSTYLE_2
 71
2
 72
1
 10
13.425
 20
0.787
 30
0.0
 11
1.0
 21
0.0
 31
0.0
 44
0.9
  1
2
 40
0.1
 41
0.08
  0
MTEXT
  5
44C
100
AcDbEntity
  8
0
100
AcDbMText
 62
2
  6
CONTINUOUS
  7
TEXTSTYLE_2
 71
2
 72
1
 10
15.395
 20
0.787
 30
0.0
 11
1.0
 21
0.0
 31
0.0
 44
0.9
  1
1
 40
0.1
 41
0.08
  0
MTEXT
  5
44D
100
AcDbEntity
  8
0
100
AcDbMText
 62
2
  6
CONTINUOUS
  7
TEXTSTYLE_2
 71
3
 72
1
 10
0.52
 20
4.3995
 30
0.0
 11
1.0
 21
0.0
 31
0.0
 44
0.9
  1
B
 40
0.1
 41
0.08
  0
MTEXT
  5
44E
100
AcDbEntity
  8
0
100
AcDbMText
 62
2
  6
CONTINUOUS
  7
TEXTSTYLE_2
 71
3
 72
1
 10
0.52
 20
2.0995
 30
0.0
 11
1.0
 21
0.0
 31
0.0
 44
0.9
  1
A
 40
0.1
 41
0.08
  0
MTEXT
  5
44F
100
AcDbEntity
  8
0
100
AcDbMText
 62
2
  6
CONTINUOUS
  7
TEXTSTYLE_2
 71
3
 72
1
 10
0.52
 20
8.9995
 30
0.0
 11
1.0
 21
0.0
 31
0.0
 44
0.9
  1
D
 40
0.1
 41
0.08
  0
MTEXT
  5
450
100
AcDbEntity
  8
0
100
AcDbMText
 62
2
  6
CONTINUOUS
  7
TEXTSTYLE_2
 71
3
 72
1
 10
0.52
 20
6.6995
 30
0.0
 11
1.0
 21
0.0
 31
0.0
 44
0.9
  1
C
 40
0.1
 41
0.08
  0
MTEXT
  5
451
100
AcDbEntity
  8
0
100
AcDbMText
 62
2
  6
CONTINUOUS
  7
TEXTSTYLE_2
 71
1
 72
1
 10
16.48
 20
8.9995
 30
0.0
 11
1.0
 21
0.0
 31
0.0
 44
0.9
  1
D
 40
0.1
 41
0.08
  0
MTEXT
  5
452
100
AcDbEntity
  8
0
100
AcDbMText
 62
2
  6
CONTINUOUS
  7
TEXTSTYLE_2
 71
1
 72
1
 10
16.48
 20
6.6995
 30
0.0
 11
1.0
 21
0.0
 31
0.0
 44
0.9
  1
C
 40
0.1
 41
0.08
  0
MTEXT
  5
453
100
AcDbEntity
  8
0
100
AcDbMText
 62
2
  6
CONTINUOUS
  7
TEXTSTYLE_2
 71
1
 72
1
 10
16.48
 20
4.3995
 30
0.0
 11
1.0
 21
0.0
 31
0.0
 44
0.9
  1
B
 40
0.1
 41
0.08
  0
MTEXT
  5
454
100
AcDbEntity
  8
0
100
AcDbMText
 62
2
  6
CONTINUOUS
  7
TEXTSTYLE_2
 71
1
 72
1
 10
16.48
 20
2.0995
 30
0.0
 11
1.0
 21
0.0
 31
0.0
 44
0.9
  1
A
 40
0.1
 41
0.08
  0
MTEXT
  5
455
100
AcDbEntity
  8
0
100
AcDbMText
 62
2
  6
CONTINUOUS
  7
STANDARD
 71
1
 72
1
 10
14.819264911
 20
1.0627941725
 30
0.0
 11
1.0
 21
0.0
 31
0.0
 44
0.9
  1
1 OF 1
 40
0.1
 41
0.6
  0
MTEXT
  5
456
100
AcDbEntity
  8
0
100
AcDbMText
 62
7
  6
CONTINUOUS
  7
STANDARD
 71
1
 72
1
 10
13.8911999818
 20
1.3747321586
 30
0.0
 11
1.0
 21
0.0
 31
0.0
 44
0.9
  1
144872
 40
0.12
 41
0.72
  0
MTEXT
  5
457
100
AcDbEntity
  8
0
100
AcDbMText
 62
2
  6
CONTINUOUS
  7
STANDARD
 71
1
 72
1
 10
12.644264911
 20
1.0627941725
 30
0.0
 11
1.0
 21
0.0
 31
0.0
 44
0.9
  1
1:1
 40
0.1
 41
0.3
  0
MTEXT
  5
458
100
AcDbEntity
  8
0
100
AcDbMText
 62
2
  6
CONTINUOUS
  7
STANDARD
 71
1
 72
1
 10
1.0597007627
 20
1.6202922458
 30
0.0
 11
1.0
 21
0.0
 31
0.0
 44
0.9
  1
NOTES:\P1. ALL DIMENSIONS ARE MILLIMETERS [INCHES] UNLESS OTHERWISE NOTED.
 40
0.1
 41
6.6
  0
INSERT
  5
459
100
AcDbEntity
  8
0
100
AcDbBlockReference
 62
2
  6
CONTINUOUS
  2
BANNER_LOGO_TITLEBLOCK_BL0
 10
12.9086867042
 20
2.5403783405
  0
DIMENSION
  5
45A
100
AcDbEntity
  8
SCHEME_DIMS
100
AcDbDimension
 62
2
  6
CONTINUOUS
  2
*D0
 10
6.8891748854
 20
8.4835701835
 11
7.7395174051
 21
8.4085701835
 70
160
 71
2
 42
49.5474
  3
DIMSTYLE_1
100
AcDbAlignedDimension
 13
8.8398599247
 23
6.061285648
 14
6.8891748854
 24
6.5525301215
 50
180.0
100
AcDbRotatedDimension
  0
DIMENSION
  5
45B
100
AcDbEntity
  8
SCHEME_DIMS
100
AcDbDimension
 62
2
  6
CONTINUOUS
  2
*D1
 10
6.8891748854
 20
7.4055518349
 11
7.1292811846
 21
7.3305518349
 70
160
 71
2
 42
18.5474
  3
DIMSTYLE_1
100
AcDbAlignedDimension
 13
7.6193874838
 23
6.802427371
 14
6.8891748854
 24
6.5525301215
 50
180.0
100
AcDbRotatedDimension
  0
DIMENSION
  5
45C
100
AcDbEntity
  8
SCHEME_DIMS
100
AcDbDimension
 62
2
  6
CONTINUOUS
  2
*D2
 10
6.8891748854
 20
7.9948685321
 11
7.522981972
 21
7.9198685321
 70
160
 71
2
 42
38.5474
  3
DIMSTYLE_1
100
AcDbAlignedDimension
 13
8.4067890586
 23
6.3595139944
 14
6.8891748854
 24
6.5525301215
 50
180.0
100
AcDbRotatedDimension
  0
DIMENSION
  5
45D
100
AcDbEntity
  8
SCHEME_DIMS
100
AcDbDimension
 62
2
  6
CONTINUOUS
  2
*D3
 10
4.1303929795
 20
5.0154162887
 11
5.0152490061
 21
4.5923852294
 70
163
 71
1
 42
50.0
  1
<>
  3
DIMSTYLE_2
100
AcDbDiametricDimension
 15
2.9288435712
 25
6.5746746924
  0
ACAD_TABLE
  5
45E
100
AcDbEntity
  8
0
 62
2
  6
CONTINUOUS
100
AcDbBlockReference
  2
*T1
 10
12.03
 20
0.887
 30
0.0
100
AcDbTable
342
       7D6
343
237
 11
1.0
 21
0.0
 31
0.0
 90
6
 91
3
 92
5
 93
4
 94
0
 95
0
 96
0
 70
1
141
0.33
141
0.45
141
1.14
142
0.65
142
1.15
142
1.025
142
1.075
142
0.45
171
1
172
0
173
0
174
0
175
1
176
1
 91
1
178
0
145
0.0
170
1
171
1
172
0
173
0
174
0
175
1
176
1
 91
1
178
0
145
0.0
170
1
171
1
172
0
173
0
174
0
175
1
176
1
 91
1
178
0
145
0.0
170
1
171
1
172
0
173
0
174
0
175
1
176
1
 91
1
178
0
145
0.0
170
1
171
1
172
0
173
0
174
0
175
1
176
1
 91
1
178
0
145
0.0
170
1
171
1
172
0
173
0
174
0
175
1
176
1
 91
1
178
0
145
0.0
170
1
171
1
172
0
173
0
174
0
175
1
176
1
 91
1
178
0
145
0.0
170
1
171
1
172
0
173
0
174
0
175
1
176
1
 91
1
178
0
145
0.0
170
1
171
1
172
0
173
0
174
0
175
1
176
1
 91
1
178
0
145
0.0
170
1
171
1
172
0
173
0
174
0
175
1
176
1
 91
41
178
0
145
0.0
301
CELL_VALUE
 90
4
  1
-
304
ACVALUE_END
170
8
140
0.1
 64
7
171
1
172
0
173
0
174
0
175
5
176
1
 91
33
178
0
145
0.0
301
CELL_VALUE
 90
4
  1
K50L GENERAL PURPOSE/MULTI-FUNCTION QD\PWEB CAD DRAWINGS 2D/3D
304
ACVALUE_END
170
8
140
0.1
171
1
172
0
173
1
174
0
175
1
176
1
 91
1
178
0
145
0.0
170
1
171
1
172
0
173
1
174
0
175
1
176
1
 91
1
178
0
145
0.0
170
1
171
1
172
0
173
1
174
0
175
1
176
1
 91
1
178
0
145
0.0
170
1
171
1
172
0
173
1
174
0
175
1
176
1
 91
1
178
0
145
0.0
170
8
  0
LEADER
  5
45F
100
AcDbEntity
  8
NOTES
100
AcDbLeader
 62
2
  6
CONTINUOUS
  3
STANDARD
 71
1
 72
0
 73
0
 75
0
 40
0.1
 41
0.7
 76
3
 10
8.6774600667
 20
5.5537707657
 30
0.0
 10
9.1965582658
 20
4.7397475513
 30
0.0
 10
9.4465582658
 20
4.7397475513
 30
0.0
340
460
1001
ACAD
1000
DSTYLE
1002
{
1070
77
1070
0
1002
}
  0
MTEXT
  5
460
102
{ACAD_REACTORS
330
45F
102
}
100
AcDbEntity
  8
NOTES
100
AcDbMText
 62
2
  6
CONTINUOUS
  7
STANDARD
 71
1
 72
1
 10
9.4465582658
 20
4.7897475513
 30
0.0
 11
1.0
 21
0.0
 31
0.0
 44
0.9
  1
M12 X 1
 40
0.1
 41
0.7
  0
LEADER
  5
461
100
AcDbEntity
  8
NOTES
100
AcDbLeader
 62
2
  6
CONTINUOUS
  3
STANDARD
 71
1
 72
0
 73
0
 75
0
 40
0.1
 41
0.9
 76
3
 10
8.0017468699
 20
5.2956099796
 30
0.0
 10
8.6130853939
 20
4.3190757943
 30
0.0
 10
8.8630853939
 20
4.3190757943
 30
0.0
340
462
1001
ACAD
1000
DSTYLE
1002
{
1070
77
1070
0
1002
}
  0
MTEXT
  5
462
102
{ACAD_REACTORS
330
461
102
}
100
AcDbEntity
  8
NOTES
100
AcDbMText
 62
2
  6
CONTINUOUS
  7
STANDARD
 71
1
 72
1
 10
8.8630853939
 20
4.3690757943
 30
0.0
 11
1.0
 21
0.0
 31
0.0
 44
0.9
  1
M30 X 1.5
 40
0.1
 41
0.9
  0
MTEXT
  5
463
100
AcDbEntity
  8
NOTES
100
AcDbMText
 62
2
  6
CONTINUOUS
  7
STANDARD
 71
2
 72
1
 10
14.741874283
 20
7.0783488999
 30
0.0
 11
1.0
 21
0.0
 31
0.0
 44
0.9
  1
ISOMETRIC VIEW\P\H0.1;SCALE  1:1
 40
0.12
 41
1.68
  0
LINE
  5
464
100
AcDbEntity
  8
0
100
AcDbLine
 62
2
  6
CONTINUOUS
 10
0.47
 20
5.586103
 11
0.47
 21
5.412897
  0
LINE
  5
465
100
AcDbEntity
  8
0
100
AcDbLine
 62
2
  6
CONTINUOUS
 10
0.62
 20
10.112
 11
0.62
 21
0.887
  0
LINE
  5
466
100
AcDbEntity
  8
0
100
AcDbLine
 62
2
  6
CONTINUOUS
 10
2.59
 20
0.887
 11
2.59
 21
0.637
  0
LINE
  5
467
100
AcDbEntity
  8
0
100
AcDbLine
 62
2
  6
CONTINUOUS
 10
2.59
 20
10.112
 11
2.59
 21
10.362
  0
LINE
  5
468
100
AcDbEntity
  8
0
100
AcDbLine
 62
2
  6
CONTINUOUS
 10
8.413397
 20
0.737
 11
8.586603
 21
0.737
  0
LINE
  5
469
100
AcDbEntity
  8
0
100
AcDbLine
 62
7
  6
CONTINUOUS
 10
11.1389508475
 20
1.425992839
 11
11.7453418475
 21
1.495385839
  0
LINE
  5
46A
100
AcDbEntity
  8
0
100
AcDbLine
 62
2
  6
CONTINUOUS
 10
0.62
 20
0.887
 11
16.38
 21
0.887
  0
LINE
  5
46B
100
AcDbEntity
  8
0
100
AcDbLine
 62
2
  6
CONTINUOUS
 10
12.03
 20
1.137
 11
16.38
 21
1.137
  0
LINE
  5
46C
100
AcDbEntity
  8
0
100
AcDbLine
 62
7
  6
CONTINUOUS
 10
10.2121898475
 20
1.243294839
 11
10.4342808475
 21
1.243294839
  0
LINE
  5
46D
100
AcDbEntity
  8
0
100
AcDbLine
 62
7
  6
CONTINUOUS
 10
10.4842808475
 20
1.243294839
 11
10.5842808475
 21
1.243294839
  0
LINE
  5
46E
100
AcDbEntity
  8
0
100
AcDbLine
 62
7
  6
CONTINUOUS
 10
10.6342808475
 20
1.243294839
 11
10.8563718475
 21
1.243294839
  0
LINE
  5
46F
100
AcDbEntity
  8
0
100
AcDbLine
 62
7
  6
CONTINUOUS
 10
11.0389508475
 20
1.243294839
 11
11.3171028475
 21
1.243294839
  0
LINE
  5
470
100
AcDbEntity
  8
0
100
AcDbLine
 62
7
  6
CONTINUOUS
 10
11.3671028475
 20
1.243294839
 11
11.5171888475
 21
1.243294839
  0
LINE
  5
471
100
AcDbEntity
  8
0
100
AcDbLine
 62
7
  6
CONTINUOUS
 10
11.5671888475
 20
1.243294839
 11
11.8453418475
 21
1.243294839
  0
LINE
  5
472
100
AcDbEntity
  8
0
100
AcDbLine
 62
7
  6
CONTINUOUS
 10
11.7453418475
 20
0.991203839
 11
11.1389508475
 21
1.060596839
  0
LINE
  5
473
100
AcDbEntity
  8
0
100
AcDbLine
 62
2
  6
CONTINUOUS
 10
4.56
 20
0.887
 11
4.56
 21
0.637
  0
LINE
  5
474
100
AcDbEntity
  8
0
100
AcDbLine
 62
2
  6
CONTINUOUS
 10
4.56
 20
10.112
 11
4.56
 21
10.362
  0
LINE
  5
475
100
AcDbEntity
  8
0
100
AcDbLine
 62
2
  6
CONTINUOUS
 10
0.47
 20
5.412897
 11
0.62
 21
5.4995
  0
LINE
  5
476
100
AcDbEntity
  8
0
100
AcDbLine
 62
2
  6
CONTINUOUS
 10
12.03
 20
1.507
 11
16.38
 21
1.507
  0
LINE
  5
477
100
AcDbEntity
  8
0
100
AcDbLine
 62
2
  6
CONTINUOUS
 10
10.03
 20
1.907
 11
12.03
 21
1.907
  0
LINE
  5
478
100
AcDbEntity
  8
0
100
AcDbLine
 62
2
  6
CONTINUOUS
 10
0.62
 20
5.4995
 11
0.47
 21
5.586103
  0
LINE
  5
479
100
AcDbEntity
  8
0
100
AcDbLine
 62
2
  6
CONTINUOUS
 10
12.03
 20
2.267
 11
16.38
 21
2.267
  0
LINE
  5
47A
100
AcDbEntity
  8
0
100
AcDbLine
 62
2
  6
CONTINUOUS
 10
8.5
 20
10.112
 11
8.586603
 21
10.262
  0
LINE
  5
47B
100
AcDbEntity
  8
0
100
AcDbLine
 62
2
  6
CONTINUOUS
 10
16.38
 20
2.807
 11
10.03
 21
2.807
  0
LINE
  5
47C
100
AcDbEntity
  8
0
100
AcDbLine
 62
2
  6
CONTINUOUS
 10
0.62
 20
3.1995
 11
0.37
 21
3.1995
  0
LINE
  5
47D
100
AcDbEntity
  8
0
100
AcDbLine
 62
2
  6
CONTINUOUS
 10
16.38
 20
3.1995
 11
16.63
 21
3.1995
  0
LINE
  5
47E
100
AcDbEntity
  8
0
100
AcDbLine
 62
2
  6
CONTINUOUS
 10
8.586603
 20
0.737
 11
8.5
 21
0.887
  0
LINE
  5
47F
100
AcDbEntity
  8
0
100
AcDbLine
 62
2
  6
CONTINUOUS
 10
6.53
 20
0.887
 11
6.53
 21
0.637
  0
LINE
  5
480
100
AcDbEntity
  8
0
100
AcDbLine
 62
2
  6
CONTINUOUS
 10
6.53
 20
10.112
 11
6.53
 21
10.362
  0
LINE
  5
481
100
AcDbEntity
  8
0
100
AcDbLine
 62
2
  6
CONTINUOUS
 10
8.5
 20
0.887
 11
8.5
 21
0.637
  0
LINE
  5
482
100
AcDbEntity
  8
0
100
AcDbLine
 62
2
  6
CONTINUOUS
 10
8.5
 20
10.112
 11
8.5
 21
10.362
  0
LINE
  5
483
100
AcDbEntity
  8
0
100
AcDbLine
 62
2
  6
CONTINUOUS
 10
0.62
 20
5.4995
 11
0.37
 21
5.4995
  0
LINE
  5
484
100
AcDbEntity
  8
0
100
AcDbLine
 62
2
  6
CONTINUOUS
 10
16.38
 20
5.4995
 11
16.63
 21
5.4995
  0
LINE
  5
485
100
AcDbEntity
  8
0
100
AcDbLine
 62
2
  6
CONTINUOUS
 10
10.03
 20
2.807
 11
10.03
 21
0.887
  0
LINE
  5
486
100
AcDbEntity
  8
0
100
AcDbLine
 62
2
  6
CONTINUOUS
 10
10.47
 20
0.887
 11
10.47
 21
0.637
  0
LINE
  5
487
100
AcDbEntity
  8
0
100
AcDbLine
 62
2
  6
CONTINUOUS
 10
10.47
 20
10.112
 11
10.47
 21
10.362
  0
LINE
  5
488
100
AcDbEntity
  8
0
100
AcDbLine
 62
7
  6
CONTINUOUS
 10
10.5342808475
 20
1.143294839
 11
10.5342808475
 21
0.921203839
  0
LINE
  5
489
100
AcDbEntity
  8
0
100
AcDbLine
 62
7
  6
CONTINUOUS
 10
10.5342808475
 20
1.193294839
 11
10.5342808475
 21
1.293294839
  0
LINE
  5
48A
100
AcDbEntity
  8
0
100
AcDbLine
 62
7
  6
CONTINUOUS
 10
10.5342808475
 20
1.343294839
 11
10.5342808475
 21
1.565385839
  0
LINE
  5
48B
100
AcDbEntity
  8
0
100
AcDbLine
 62
2
  6
CONTINUOUS
 10
8.5
 20
0.887
 11
8.413397
 21
0.737
  0
LINE
  5
48C
100
AcDbEntity
  8
0
100
AcDbLine
 62
2
  6
CONTINUOUS
 10
0.62
 20
7.7995
 11
0.37
 21
7.7995
  0
LINE
  5
48D
100
AcDbEntity
  8
0
100
AcDbLine
 62
2
  6
CONTINUOUS
 10
16.38
 20
7.7995
 11
16.63
 21
7.7995
  0
LINE
  5
48E
100
AcDbEntity
  8
0
100
AcDbLine
 62
2
  6
CONTINUOUS
 10
8.413397
 20
10.262
 11
8.5
 21
10.112
  0
LINE
  5
48F
100
AcDbEntity
  8
0
100
AcDbLine
 62
7
  6
CONTINUOUS
 10
11.1389508475
 20
1.060596839
 11
11.1389508475
 21
1.425992839
  0
LINE
  5
490
100
AcDbEntity
  8
0
100
AcDbLine
 62
7
  6
CONTINUOUS
 10
11.7453418475
 20
1.495385839
 11
11.7453418475
 21
0.991203839
  0
LINE
  5
491
100
AcDbEntity
  8
0
100
AcDbLine
 62
1
  6
CONTINUOUS
 10
12.03
 20
2.807
 11
12.03
 21
0.887
  0
LINE
  5
492
100
AcDbEntity
  8
0
100
AcDbLine
 62
2
  6
CONTINUOUS
 10
12.44
 20
0.887
 11
12.44
 21
0.637
  0
LINE
  5
493
100
AcDbEntity
  8
0
100
AcDbLine
 62
2
  6
CONTINUOUS
 10
12.44
 20
10.112
 11
12.44
 21
10.362
  0
LINE
  5
494
100
AcDbEntity
  8
0
100
AcDbLine
 62
2
  6
CONTINUOUS
 10
16.53
 20
5.586103
 11
16.38
 21
5.4995
  0
LINE
  5
495
100
AcDbEntity
  8
0
100
AcDbLine
 62
2
  6
CONTINUOUS
 10
16.38
 20
5.4995
 11
16.53
 21
5.412897
  0
LINE
  5
496
100
AcDbEntity
  8
0
100
AcDbLine
 62
2
  6
CONTINUOUS
 10
12.83
 20
1.507
 11
12.83
 21
1.137
  0
LINE
  5
497
100
AcDbEntity
  8
0
100
AcDbLine
 62
2
  6
CONTINUOUS
 10
16.38
 20
10.112
 11
0.62
 21
10.112
  0
LINE
  5
498
100
AcDbEntity
  8
0
100
AcDbLine
 62
2
  6
CONTINUOUS
 10
8.586603
 20
10.262
 11
8.413397
 21
10.262
  0
LINE
  5
499
100
AcDbEntity
  8
0
100
AcDbLine
 62
2
  6
CONTINUOUS
 10
14.205
 20
1.137
 11
14.205
 21
0.887
  0
LINE
  5
49A
100
AcDbEntity
  8
0
100
AcDbLine
 62
2
  6
CONTINUOUS
 10
14.41
 20
0.887
 11
14.41
 21
0.637
  0
LINE
  5
49B
100
AcDbEntity
  8
0
100
AcDbLine
 62
2
  6
CONTINUOUS
 10
14.41
 20
10.112
 11
14.41
 21
10.362
  0
LINE
  5
49C
100
AcDbEntity
  8
0
100
AcDbLine
 62
2
  6
CONTINUOUS
 10
15.58
 20
1.507
 11
15.58
 21
1.137
  0
LINE
  5
49D
100
AcDbEntity
  8
0
100
AcDbLine
 62
2
  6
CONTINUOUS
 10
16.38
 20
0.887
 11
16.38
 21
10.112
  0
LINE
  5
49E
100
AcDbEntity
  8
0
100
AcDbLine
 62
2
  6
CONTINUOUS
 10
16.53
 20
5.412897
 11
16.53
 21
5.586103
  0
LINE
  5
49F
100
AcDbEntity
  8
02___PRT_ALL_AXES
100
AcDbLine
 62
7
  6
CONTINUOUS
 10
7.1075764602
 20
4.810793522
 11
7.5800174051
 21
4.810793522
  0
LINE
  5
4A0
100
AcDbEntity
  8
ECAD_LED1A
100
AcDbLine
 62
9
  6
CONTINUOUS
 10
6.9876000822
 20
4.9566202937
 11
6.9876000822
 21
5.5234708874
  0
LINE
  5
4A1
100
AcDbEntity
  8
ECAD_LED1A
100
AcDbLine
 62
9
  6
CONTINUOUS
 10
6.9876000822
 20
5.5686202537
 11
6.9876000822
 21
5.7654706474
  0
LINE
  5
4A2
100
AcDbEntity
  8
ECAD_LED1A
100
AcDbLine
 62
9
  6
CONTINUOUS
 10
6.9876000822
 20
5.8256203737
 11
6.9876000822
 21
6.0224707674
  0
LINE
  5
4A3
100
AcDbEntity
  8
ECAD_LED1A
100
AcDbLine
 62
9
  6
CONTINUOUS
 10
6.9876000822
 20
6.0666201737
 11
6.9876000822
 21
6.2634705674
  0
LINE
  5
4A4
100
AcDbEntity
  8
ECAD_LED1A
100
AcDbLine
 62
9
  6
CONTINUOUS
 10
6.9876000822
 20
6.2639223558
 11
6.9876000822
 21
6.6334707274
  0
LINE
  5
4A5
100
AcDbEntity
  8
ECAD_LED1A
100
AcDbLine
 62
7
  6
CONTINUOUS
 10
6.9876000822
 20
4.9566202937
 11
7.1075764602
 21
4.9566202937
  0
LINE
  5
4A6
100
AcDbEntity
  8
02___PRT_ALL_AXES
100
AcDbLine
 62
7
  6
CONTINUOUS
 10
7.1075764602
 20
6.779297459
 11
7.1075764602
 21
4.810793522
  0
LINE
  5
4A7
100
AcDbEntity
  8
ECAD_LED1A
100
AcDbLine
 62
7
  6
CONTINUOUS
 10
6.9876000822
 20
5.0016357026
 11
7.1075764602
 21
5.0016357026
  0
LINE
  5
4A8
100
AcDbEntity
  8
ECAD_LED1A
100
AcDbLine
 62
7
  6
CONTINUOUS
 10
6.9876000822
 20
5.1303181115
 11
7.1075764602
 21
5.1303181115
  0
LINE
  5
4A9
100
AcDbEntity
  8
0
100
AcDbLine
 62
7
  6
CONTINUOUS
 10
7.6587575625
 20
5.2537069078
 11
7.7410981595
 21
5.2537069078
  0
LINE
  5
4AA
100
AcDbEntity
  8
02___PRT_ALL_AXES
100
AcDbLine
 62
7
  6
CONTINUOUS
 10
7.7410981595
 20
5.2537069078
 11
8.3208906983
 21
5.2537069078
  0
LINE
  5
4AB
100
AcDbEntity
  8
0
100
AcDbLine
 62
7
  6
CONTINUOUS
 10
8.3208906983
 20
5.2537069078
 11
8.3674189799
 21
5.2537069078
  0
LINE
  5
4AC
100
AcDbEntity
  8
ECAD_LED1A
100
AcDbLine
 62
7
  6
CONTINUOUS
 10
6.9876000822
 20
5.3266204937
 11
7.1075764602
 21
5.3266204937
  0
LINE
  5
4AD
100
AcDbEntity
  8
0
100
AcDbLine
 62
9
  6
CONTINUOUS
 10
7.5800174051
 20
4.810793522
 11
7.5800174051
 21
6.779297459
  0
LINE
  5
4AE
100
AcDbEntity
  8
ECAD_LED1A
100
AcDbLine
 62
7
  6
CONTINUOUS
 10
6.9876000822
 20
5.5234708874
 11
7.1075764602
 21
5.5234708874
  0
LINE
  5
4AF
100
AcDbEntity
  8
0
100
AcDbLine
 62
7
  6
CONTINUOUS
 10
7.6193874838
 20
4.8501636007
 11
7.6193874838
 21
6.7399273803
  0
LINE
  5
4B0
100
AcDbEntity
  8
0
100
AcDbLine
 62
9
  6
CONTINUOUS
 10
7.6587575625
 20
6.3363840732
 11
7.6587575625
 21
5.2537069078
  0
LINE
  5
4B1
100
AcDbEntity
  8
02___PRT_ALL_AXES
100
AcDbLine
 62
7
  6
CONTINUOUS
 10
8.4219696013
 20
5.550773837
 11
8.4461591373
 21
5.550773837
  0
LINE
  5
4B2
100
AcDbEntity
  8
02___PRT_ALL_AXES
100
AcDbLine
 62
7
  6
CONTINUOUS
 10
8.4815922082
 20
5.550773837
 11
8.4855292161
 21
5.550773837
  0
LINE
  5
4B3
100
AcDbEntity
  8
02___PRT_ALL_AXES
100
AcDbLine
 62
7
  6
CONTINUOUS
 10
8.520962287
 20
5.550773837
 11
8.5248992948
 21
5.550773837
  0
LINE
  5
4B4
100
AcDbEntity
  8
02___PRT_ALL_AXES
100
AcDbLine
 62
7
  6
CONTINUOUS
 10
8.5603323657
 20
5.550773837
 11
8.5642693736
 21
5.550773837
  0
LINE
  5
4B5
100
AcDbEntity
  8
02___PRT_ALL_AXES
100
AcDbLine
 62
7
  6
CONTINUOUS
 10
8.5997024444
 20
5.550773837
 11
8.6036394523
 21
5.550773837
  0
LINE
  5
4B6
100
AcDbEntity
  8
02___PRT_ALL_AXES
100
AcDbLine
 62
7
  6
CONTINUOUS
 10
8.6390725232
 20
5.550773837
 11
8.643009531
 21
5.550773837
  0
LINE
  5
4B7
100
AcDbEntity
  8
02___PRT_ALL_AXES
100
AcDbLine
 62
7
  6
CONTINUOUS
 10
8.6784426019
 20
5.550773837
 11
8.6823796098
 21
5.550773837
  0
LINE
  5
4B8
100
AcDbEntity
  8
02___PRT_ALL_AXES
100
AcDbLine
 62
7
  6
CONTINUOUS
 10
8.7178126807
 20
5.550773837
 11
8.7217496885
 21
5.550773837
  0
LINE
  5
4B9
100
AcDbEntity
  8
02___PRT_ALL_AXES
100
AcDbLine
 62
7
  6
CONTINUOUS
 10
8.7571827594
 20
5.550773837
 11
8.7611197673
 21
5.550773837
  0
LINE
  5
4BA
100
AcDbEntity
  8
ECAD_LED1A
100
AcDbLine
 62
7
  6
CONTINUOUS
 10
6.9876000822
 20
5.5686202537
 11
7.1075764602
 21
5.5686202537
  0
LINE
  5
4BB
100
AcDbEntity
  8
0
100
AcDbLine
 62
7
  6
CONTINUOUS
 10
8.800489846
 20
5.591305333
 11
8.8398599247
 21
5.591305333
  0
LWPOLYLINE
  5
4BC
100
AcDbEntity
  8
02___PRT_ALL_AXES
100
AcDbPolyline
 62
7
  6
CONTINUOUS
 90
10
 70
0
 10
7.7151283638
 20
6.3363840732
 10
7.7165624837
 20
6.3143334433
 10
7.7179943467
 20
6.280279112
 10
7.7194283186
 20
6.2349104697
 10
7.7208724343
 20
6.1788962893
 10
7.7223337282
 20
6.1130158697
 10
7.7237930456
 20
6.0395687007
 10
7.7252341725
 20
5.9612560249
 10
7.7266644667
 20
5.8796712035
 10
7.7295367333
 20
5.7118875121
  0
LWPOLYLINE
  5
4BD
100
AcDbEntity
  8
02___PRT_ALL_AXES
100
AcDbPolyline
 62
7
  6
CONTINUOUS
 90
9
 70
0
 10
7.7893946353
 20
5.2537069078
 10
7.7879448102
 20
5.2760670092
 10
7.7865044917
 20
5.3104855165
 10
7.7850754144
 20
5.3558622697
 10
7.7836306664
 20
5.4120329668
 10
7.7821693171
 20
5.4780316329
 10
7.780710095
 20
5.5515665195
 10
7.7792691578
 20
5.6299350654
 10
7.777833209
 20
5.7118875121
  0
LWPOLYLINE
  5
4BE
100
AcDbEntity
  8
02___PRT_ALL_AXES
100
AcDbPolyline
 62
7
  6
CONTINUOUS
 90
16
 70
0
 10
7.7596174235
 20
5.2537069078
 10
7.7581445077
 20
5.2956099796
 10
7.7566715918
 20
5.3497533202
 10
7.755198676
 20
5.4148099735
 10
7.7537257601
 20
5.4891855176
 10
7.7522528443
 20
5.5710571411
 10
7.7507799284
 20
5.6584183175
 10
7.7493070126
 20
5.7491279809
 10
7.7478340967
 20
5.8409630001
 10
7.7463611809
 20
5.9316726635
 10
7.7448882651
 20
6.0190338399
 10
7.7434153492
 20
6.1009054635
 10
7.7419424334
 20
6.1752810075
 10
7.7404695175
 20
6.2403376608
 10
7.7389966017
 20
6.2944810014
 10
7.7375236858
 20
6.3363840732
  0
LWPOLYLINE
  5
4BF
100
AcDbEntity
  8
02___PRT_ALL_AXES
100
AcDbPolyline
 62
7
  6
CONTINUOUS
 90
16
 70
0
 10
7.7669993133
 20
5.2537069078
 10
7.7655263974
 20
5.2956099796
 10
7.7640534816
 20
5.3497533202
 10
7.7625805657
 20
5.4148099735
 10
7.7611076499
 20
5.4891855176
 10
7.759634734
 20
5.5710571411
 10
7.7581618182
 20
5.6584183175
 10
7.7566889024
 20
5.7491279809
 10
7.7552159865
 20
5.8409630001
 10
7.7537430707
 20
5.9316726635
 10
7.7522701548
 20
6.0190338399
 10
7.750797239
 20
6.1009054635
 10
7.7493243231
 20
6.1752810075
 10
7.7478514073
 20
6.2403376608
 10
7.7463784914
 20
6.2944810014
 10
7.7449055756
 20
6.3363840732
  0
LWPOLYLINE
  5
4C0
100
AcDbEntity
  8
02___PRT_ALL_AXES
100
AcDbPolyline
 62
7
  6
CONTINUOUS
 90
9
 70
0
 10
7.7295367333
 20
5.7118875121
 10
7.730972682
 20
5.6299350654
 10
7.7324136192
 20
5.5515665195
 10
7.7338728413
 20
5.4780316329
 10
7.7353341906
 20
5.4120329668
 10
7.7367789386
 20
5.3558622697
 10
7.7382080159
 20
5.3104855165
 10
7.7396483344
 20
5.2760670092
 10
7.7410981595
 20
5.2537069078
  0
LWPOLYLINE
  5
4C1
100
AcDbEntity
  8
02___PRT_ALL_AXES
100
AcDbPolyline
 62
7
  6
CONTINUOUS
 90
10
 70
0
 10
7.777833209
 20
5.7118875121
 10
7.7749609425
 20
5.8796712035
 10
7.7735306482
 20
5.9612560249
 10
7.7720895213
 20
6.0395687007
 10
7.770630204
 20
6.1130158697
 10
7.7691689101
 20
6.1788962893
 10
7.7677247944
 20
6.2349104697
 10
7.7662908224
 20
6.280279112
 10
7.7648589595
 20
6.3143334433
 10
7.7634248396
 20
6.3363840732
  0
LWPOLYLINE
  5
4C2
100
AcDbEntity
  8
02___PRT_ALL_AXES
100
AcDbPolyline
 62
7
  6
CONTINUOUS
 90
9
 70
0
 10
7.9075048715
 20
5.2537069078
 10
7.9060703557
 20
5.2757653212
 10
7.9046386876
 20
5.3098174607
 10
7.9032047529
 20
5.355186299
 10
7.9017605896
 20
5.4112035908
 10
7.9002992246
 20
5.4770886429
 10
7.8988397558
 20
5.5505450872
 10
7.8973984638
 20
5.6288684526
 10
7.895967916
 20
5.710469183
  0
LWPOLYLINE
  5
4C3
100
AcDbEntity
  8
02___PRT_ALL_AXES
100
AcDbPolyline
 62
7
  6
CONTINUOUS
 90
10
 70
0
 10
7.8332386
 20
6.3363840732
 10
7.834688062
 20
6.3140311444
 10
7.8361278489
 20
6.279630468
 10
7.8375569984
 20
6.2342578556
 10
7.8390019199
 20
6.1780853838
 10
7.8404634031
 20
6.112084059
 10
7.8419226816
 20
6.0385485951
 10
7.8433636724
 20
5.9601785798
 10
7.844799577
 20
5.8782295124
 10
7.8476714402
 20
5.710469183
  0
LWPOLYLINE
  5
4C4
100
AcDbEntity
  8
02___PRT_ALL_AXES
100
AcDbPolyline
 62
7
  6
CONTINUOUS
 90
9
 70
0
 10
7.7741834819
 20
6.3363840732
 10
7.7756441556
 20
6.313809355
 10
7.7771003579
 20
6.2788563827
 10
7.778538622
 20
6.232952734
 10
7.7799719656
 20
6.1770228999
 10
7.7814077226
 20
6.1121110368
 10
7.7828368433
 20
6.0401634807
 10
7.7842677316
 20
5.96246102
 10
7.7857090512
 20
5.8802815532
  0
LWPOLYLINE
  5
4C5
100
AcDbEntity
  8
02___PRT_ALL_AXES
100
AcDbPolyline
 62
7
  6
CONTINUOUS
 90
9
 70
0
 10
7.8484497534
 20
5.2537069078
 10
7.8469891012
 20
5.2762812015
 10
7.8455328416
 20
5.3112356036
 10
7.844094512
 20
5.357141857
 10
7.8426609971
 20
5.4130796069
 10
7.8412248598
 20
5.4780112626
 10
7.8397958002
 20
5.549958587
 10
7.8383650702
 20
5.627654187
 10
7.8369238087
 20
5.7098311804
  0
LWPOLYLINE
  5
4C6
100
AcDbEntity
  8
02___PRT_ALL_AXES
100
AcDbPolyline
 62
7
  6
CONTINUOUS
 90
16
 70
0
 10
7.8186725416
 20
5.2537069078
 10
7.8171996258
 20
5.2956099796
 10
7.8157267099
 20
5.3497533202
 10
7.8142537941
 20
5.4148099735
 10
7.8127808782
 20
5.4891855176
 10
7.8113079624
 20
5.5710571411
 10
7.8098350465
 20
5.6584183175
 10
7.8083621307
 20
5.7491279809
 10
7.8068892149
 20
5.8409630001
 10
7.805416299
 20
5.9316726635
 10
7.8039433832
 20
6.0190338399
 10
7.8024704673
 20
6.1009054635
 10
7.8009975515
 20
6.1752810075
 10
7.7995246356
 20
6.2403376608
 10
7.7980517198
 20
6.2944810014
 10
7.7965788039
 20
6.3363840732
  0
LWPOLYLINE
  5
4C7
100
AcDbEntity
  8
02___PRT_ALL_AXES
100
AcDbPolyline
 62
7
  6
CONTINUOUS
 90
5
 70
0
 10
7.8260544314
 20
5.2537069078
 10
7.8245815155
 20
5.2956099796
 10
7.8231085997
 20
5.3497533202
 10
7.8216356838
 20
5.4148099735
 10
7.820162768
 20
5.4891855176
  0
LWPOLYLINE
  5
4C8
100
AcDbEntity
  8
02___PRT_ALL_AXES
100
AcDbPolyline
 62
7
  6
CONTINUOUS
 90
16
 70
0
 10
7.8777276597
 20
5.2537069078
 10
7.8762547439
 20
5.2956099796
 10
7.874781828
 20
5.3497533202
 10
7.8733089122
 20
5.4148099735
 10
7.8718359963
 20
5.4891855176
 10
7.8703630805
 20
5.5710571411
 10
7.8688901647
 20
5.6584183175
 10
7.8674172488
 20
5.7491279809
 10
7.865944333
 20
5.8409630001
 10
7.8644714171
 20
5.9316726635
 10
7.8629985013
 20
6.0190338399
 10
7.8615255854
 20
6.1009054635
 10
7.8600526696
 20
6.1752810075
 10
7.8585797537
 20
6.2403376608
 10
7.8571068379
 20
6.2944810014
 10
7.8556339221
 20
6.3363840732
  0
LWPOLYLINE
  5
4C9
100
AcDbEntity
  8
02___PRT_ALL_AXES
100
AcDbPolyline
 62
7
  6
CONTINUOUS
 90
16
 70
0
 10
7.8851095495
 20
5.2537069078
 10
7.8836366336
 20
5.2956099796
 10
7.8821637178
 20
5.3497533202
 10
7.880690802
 20
5.4148099735
 10
7.8792178861
 20
5.4891855176
 10
7.8777449703
 20
5.5710571411
 10
7.8762720544
 20
5.6584183175
 10
7.8747991386
 20
5.7491279809
 10
7.8733262227
 20
5.8409630001
 10
7.8718533069
 20
5.9316726635
 10
7.870380391
 20
6.0190338399
 10
7.8689074752
 20
6.1009054635
 10
7.8674345594
 20
6.1752810075
 10
7.8659616435
 20
6.2403376608
 10
7.8644887277
 20
6.2944810014
 10
7.8630158118
 20
6.3363840732
  0
LWPOLYLINE
  5
4CA
100
AcDbEntity
  8
02___PRT_ALL_AXES
100
AcDbPolyline
 62
7
  6
CONTINUOUS
 90
4
 70
0
 10
7.820162768
 20
5.4891855176
 10
7.8186898522
 20
5.5710571411
 10
7.8172169363
 20
5.6584183175
 10
7.8157440205
 20
5.7491279809
  0
LWPOLYLINE
  5
4CB
100
AcDbEntity
  8
02___PRT_ALL_AXES
100
AcDbPolyline
 62
7
  6
CONTINUOUS
 90
9
 70
0
 10
7.8476714402
 20
5.710469183
 10
7.849101988
 20
5.6288684526
 10
7.85054328
 20
5.5505450872
 10
7.8520027488
 20
5.4770886429
 10
7.8534641138
 20
5.4112035908
 10
7.8549082771
 20
5.355186299
 10
7.8563422119
 20
5.3098174607
 10
7.85777388
 20
5.2757653212
 10
7.8592083958
 20
5.2537069078
  0
LWPOLYLINE
  5
4CC
100
AcDbEntity
  8
02___PRT_ALL_AXES
100
AcDbPolyline
 62
7
  6
CONTINUOUS
 90
10
 70
0
 10
7.7857090512
 20
5.8802815532
 10
7.7886273329
 20
5.7098311804
 10
7.7900685944
 20
5.627654187
 10
7.7914993244
 20
5.549958587
 10
7.7929283841
 20
5.4780112626
 10
7.7943645213
 20
5.4130796069
 10
7.7957980362
 20
5.357141857
 10
7.7972363658
 20
5.3112356036
 10
7.7986926254
 20
5.2762812015
 10
7.8001532776
 20
5.2537069078
  0
LWPOLYLINE
  5
4CD
100
AcDbEntity
  8
02___PRT_ALL_AXES
100
AcDbPolyline
 62
7
  6
CONTINUOUS
 90
10
 70
0
 10
7.8369238087
 20
5.7098311804
 10
7.8340055269
 20
5.8802815532
 10
7.8325642073
 20
5.96246102
 10
7.8311333191
 20
6.0401634807
 10
7.8297041984
 20
6.1121110368
 10
7.8282684414
 20
6.1770228999
 10
7.8268350978
 20
6.232952734
 10
7.8253968337
 20
6.2788563827
 10
7.8239406313
 20
6.313809355
 10
7.8224799577
 20
6.3363840732
  0
LWPOLYLINE
  5
4CE
100
AcDbEntity
  8
02___PRT_ALL_AXES
100
AcDbPolyline
 62
7
  6
CONTINUOUS
 90
9
 70
0
 10
7.8157440205
 20
5.7491279809
 10
7.8142711046
 20
5.8409630001
 10
7.8127981888
 20
5.9316726635
 10
7.8113252729
 20
6.0190338399
 10
7.8098523571
 20
6.1009054635
 10
7.8083794412
 20
6.1752810075
 10
7.8069065254
 20
6.2403376608
 10
7.8054336096
 20
6.2944810014
 10
7.8039606937
 20
6.3363840732
  0
LINE
  5
4CF
100
AcDbEntity
  8
ECAD_LED1A
100
AcDbLine
 62
7
  6
CONTINUOUS
 10
6.9876000822
 20
5.7654706474
 11
7.1075764602
 21
5.7654706474
  0
LWPOLYLINE
  5
4D0
100
AcDbEntity
  8
02___PRT_ALL_AXES
100
AcDbPolyline
 62
7
  6
CONTINUOUS
 90
10
 70
0
 10
7.8922937181
 20
6.3363840732
 10
7.8937523753
 20
6.313849299
 10
7.8952065517
 20
6.2789699099
 10
7.8966434108
 20
6.2331466574
 10
7.8980805084
 20
6.1770944865
 10
7.8995283679
 20
6.1116115321
 10
7.9009684318
 20
6.0390413217
 10
7.9023940107
 20
5.9615644183
 10
7.9038337057
 20
5.8794460887
 10
7.9067479794
 20
5.7092280849
  0
LWPOLYLINE
  5
4D1
100
AcDbEntity
  8
02___PRT_ALL_AXES
100
AcDbPolyline
 62
7
  6
CONTINUOUS
 90
9
 70
0
 10
7.9665599896
 20
5.2537069078
 10
7.9651013506
 20
5.2762413229
 10
7.9636470286
 20
5.3111246508
 10
7.962211119
 20
5.3569150714
 10
7.9607846891
 20
5.4125111096
 10
7.9593551493
 20
5.4770500048
 10
7.9579164011
 20
5.5494143146
 10
7.9564834439
 20
5.6271995781
 10
7.9550444552
 20
5.7092280849
  0
LWPOLYLINE
  5
4D2
100
AcDbEntity
  8
02___PRT_ALL_AXES
100
AcDbPolyline
 62
7
  6
CONTINUOUS
 90
16
 70
0
 10
7.9367827778
 20
5.2537069078
 10
7.935309862
 20
5.2956099796
 10
7.9338369461
 20
5.3497533202
 10
7.9323640303
 20
5.4148099735
 10
7.9308911145
 20
5.4891855176
 10
7.9294181986
 20
5.5710571411
 10
7.9279452828
 20
5.6584183175
 10
7.9264723669
 20
5.7491279809
 10
7.9249994511
 20
5.8409630001
 10
7.9235265352
 20
5.9316726635
 10
7.9220536194
 20
6.0190338399
 10
7.9205807035
 20
6.1009054635
 10
7.9191077877
 20
6.1752810075
 10
7.9176348719
 20
6.2403376608
 10
7.916161956
 20
6.2944810014
 10
7.9146890402
 20
6.3363840732
  0
LWPOLYLINE
  5
4D3
100
AcDbEntity
  8
02___PRT_ALL_AXES
100
AcDbPolyline
 62
7
  6
CONTINUOUS
 90
16
 70
0
 10
7.9441646676
 20
5.2537069078
 10
7.9426917518
 20
5.2956099796
 10
7.9412188359
 20
5.3497533202
 10
7.9397459201
 20
5.4148099735
 10
7.9382730042
 20
5.4891855176
 10
7.9368000884
 20
5.5710571411
 10
7.9353271725
 20
5.6584183175
 10
7.9338542567
 20
5.7491279809
 10
7.9323813408
 20
5.8409630001
 10
7.930908425
 20
5.9316726635
 10
7.9294355092
 20
6.0190338399
 10
7.9279625933
 20
6.1009054635
 10
7.9264896775
 20
6.1752810075
 10
7.9250167616
 20
6.2403376608
 10
7.9235438458
 20
6.2944810014
 10
7.9220709299
 20
6.3363840732
  0
LWPOLYLINE
  5
4D4
100
AcDbEntity
  8
02___PRT_ALL_AXES
100
AcDbPolyline
 62
7
  6
CONTINUOUS
 90
9
 70
0
 10
7.9067479794
 20
5.7092280849
 10
7.9081869682
 20
5.6271995781
 10
7.9096199253
 20
5.5494143146
 10
7.9110586736
 20
5.4770500048
 10
7.9124882133
 20
5.4125111096
 10
7.9139146433
 20
5.3569150714
 10
7.9153505528
 20
5.3111246508
 10
7.9168048748
 20
5.2762413229
 10
7.9182635139
 20
5.2537069078
  0
LWPOLYLINE
  5
4D5
100
AcDbEntity
  8
02___PRT_ALL_AXES
100
AcDbPolyline
 62
7
  6
CONTINUOUS
 90
9
 70
0
 10
7.9657990239
 20
5.709464068
 10
7.9672257853
 20
5.6281103697
 10
7.9686626469
 20
5.5500653167
 10
7.9701174148
 20
5.4768764864
 10
7.9715740257
 20
5.4112172392
 10
7.9730131941
 20
5.3553743487
 10
7.9744459399
 20
5.3099986125
 10
7.9758859031
 20
5.2757301969
 10
7.977318632
 20
5.2537069078
  0
LWPOLYLINE
  5
4D6
100
AcDbEntity
  8
02___PRT_ALL_AXES
100
AcDbPolyline
 62
7
  6
CONTINUOUS
 90
10
 70
0
 10
7.895967916
 20
5.710469183
 10
7.8930960528
 20
5.8782295124
 10
7.8916601482
 20
5.9601785798
 10
7.8902191574
 20
6.0385485951
 10
7.8887598789
 20
6.112084059
 10
7.8872983957
 20
6.1780853838
 10
7.8858534742
 20
6.2342578556
 10
7.8844243247
 20
6.279630468
 10
7.8829845377
 20
6.3140311444
 10
7.8815350758
 20
6.3363840732
  0
LWPOLYLINE
  5
4D7
100
AcDbEntity
  8
02___PRT_ALL_AXES
100
AcDbPolyline
 62
7
  6
CONTINUOUS
 90
10
 70
0
 10
7.9550444552
 20
5.7092280849
 10
7.9521301815
 20
5.8794460887
 10
7.9506904865
 20
5.9615644183
 10
7.9492649076
 20
6.0390413217
 10
7.9478248437
 20
6.1116115321
 10
7.9463769842
 20
6.1770944865
 10
7.9449398866
 20
6.2331466574
 10
7.9435030275
 20
6.2789699099
 10
7.9420488511
 20
6.313849299
 10
7.9405901939
 20
6.3363840732
  0
LINE
  5
4D8
100
AcDbEntity
  8
0
100
AcDbLine
 62
7
  6
CONTINUOUS
 10
8.7723628745
 20
6.0317629595
 11
8.7725446838
 21
6.0318292894
  0
LINE
  5
4D9
100
AcDbEntity
  8
ECAD_LED1A
100
AcDbLine
 62
7
  6
CONTINUOUS
 10
6.9876000822
 20
5.8256203737
 11
7.1075764602
 21
5.8256203737
  0
LINE
  5
4DA
100
AcDbEntity
  8
0
100
AcDbLine
 62
7
  6
CONTINUOUS
 10
8.7848326047
 20
5.5708114913
 11
8.7850244977
 21
5.5707415083
  0
LWPOLYLINE
  5
4DB
100
AcDbEntity
  8
02___PRT_ALL_AXES
100
AcDbPolyline
 62
7
  6
CONTINUOUS
 90
9
 70
0
 10
8.0256151078
 20
5.2537069078
 10
8.0241823789
 20
5.2757301969
 10
8.0227424157
 20
5.3099986125
 10
8.0213096699
 20
5.3553743487
 10
8.0198705015
 20
5.4112172392
 10
8.0184138905
 20
5.4768764864
 10
8.0169591227
 20
5.5500653167
 10
8.015522261
 20
5.6281103697
 10
8.0140954997
 20
5.709464068
  0
LWPOLYLINE
  5
4DC
100
AcDbEntity
  8
02___PRT_ALL_AXES
100
AcDbPolyline
 62
7
  6
CONTINUOUS
 90
9
 70
0
 10
8.0104039543
 20
6.3363840732
 10
8.0118372254
 20
6.3143501284
 10
8.0132774722
 20
6.2800693663
 10
8.0147102643
 20
6.2346857887
 10
8.0161494537
 20
6.1788361531
 10
8.017606056
 20
6.1131721402
 10
8.0190607197
 20
6.0399846734
 10
8.0204974723
 20
5.9619430949
 10
8.0219246647
 20
5.8805630557
  0
LWPOLYLINE
  5
4DD
100
AcDbEntity
  8
02___PRT_ALL_AXES
100
AcDbPolyline
 62
7
  6
CONTINUOUS
 90
10
 70
0
 10
7.9513488362
 20
6.3363840732
 10
7.9528061882
 20
6.3138751411
 10
7.9542591078
 20
6.279041814
 10
7.9556943405
 20
6.2332956616
 10
7.9571280188
 20
6.1774159369
 10
7.9585804106
 20
6.1117591525
 10
7.9600323336
 20
6.038579333
 10
7.9614679786
 20
5.9605103262
 10
7.9629041395
 20
5.8785584131
 10
7.9657990239
 20
5.709464068
  0
LWPOLYLINE
  5
4DE
100
AcDbEntity
  8
02___PRT_ALL_AXES
100
AcDbPolyline
 62
7
  6
CONTINUOUS
 90
10
 70
0
 10
8.0846702259
 20
5.2537069078
 10
8.0832129426
 20
5.2762144793
 10
8.0817600048
 20
5.3110477497
 10
8.0803248528
 20
5.3567906548
 10
8.0788920034
 20
5.4126344936
 10
8.0774403271
 20
5.478251409
 10
8.0759887587
 20
5.5514048504
 10
8.074553202
 20
5.6294621494
 10
8.0731170112
 20
5.7114115024
 10
8.0702211405
 20
5.8805630557
  0
LWPOLYLINE
  5
4DF
100
AcDbEntity
  8
02___PRT_ALL_AXES
100
AcDbPolyline
 62
7
  6
CONTINUOUS
 90
16
 70
0
 10
7.9958378959
 20
5.2537069078
 10
7.9943649801
 20
5.2956099796
 10
7.9928920643
 20
5.3497533202
 10
7.9914191484
 20
5.4148099735
 10
7.9899462326
 20
5.4891855176
 10
7.9884733167
 20
5.5710571411
 10
7.9870004009
 20
5.6584183175
 10
7.985527485
 20
5.7491279809
 10
7.9840545692
 20
5.8409630001
 10
7.9825816533
 20
5.9316726635
 10
7.9811087375
 20
6.0190338399
 10
7.9796358217
 20
6.1009054635
 10
7.9781629058
 20
6.1752810075
 10
7.97668999
 20
6.2403376608
 10
7.9752170741
 20
6.2944810014
 10
7.9737441583
 20
6.3363840732
  0
LWPOLYLINE
  5
4E0
100
AcDbEntity
  8
02___PRT_ALL_AXES
100
AcDbPolyline
 62
7
  6
CONTINUOUS
 90
16
 70
0
 10
8.0032197857
 20
5.2537069078
 10
8.0017468699
 20
5.2956099796
 10
8.000273954
 20
5.3497533202
 10
7.9988010382
 20
5.4148099735
 10
7.9973281223
 20
5.4891855176
 10
7.9958552065
 20
5.5710571411
 10
7.9943822906
 20
5.6584183175
 10
7.9929093748
 20
5.7491279809
 10
7.991436459
 20
5.8409630001
 10
7.9899635431
 20
5.9316726635
 10
7.9884906273
 20
6.0190338399
 10
7.9870177114
 20
6.1009054635
 10
7.9855447956
 20
6.1752810075
 10
7.9840718797
 20
6.2403376608
 10
7.9825989639
 20
6.2944810014
 10
7.981126048
 20
6.3363840732
  0
LWPOLYLINE
  5
4E1
100
AcDbEntity
  8
02___PRT_ALL_AXES
100
AcDbPolyline
 62
7
  6
CONTINUOUS
 90
16
 70
0
 10
8.0548930141
 20
5.2537069078
 10
8.0534200982
 20
5.2956099796
 10
8.0519471824
 20
5.3497533202
 10
8.0504742665
 20
5.4148099735
 10
8.0490013507
 20
5.4891855176
 10
8.0475284348
 20
5.5710571411
 10
8.046055519
 20
5.6584183175
 10
8.0445826031
 20
5.7491279809
 10
8.0431096873
 20
5.8409630001
 10
8.0416367715
 20
5.9316726635
 10
8.0401638556
 20
6.0190338399
 10
8.0386909398
 20
6.1009054635
 10
8.0372180239
 20
6.1752810075
 10
8.0357451081
 20
6.2403376608
 10
8.0342721922
 20
6.2944810014
 10
8.0327992764
 20
6.3363840732
  0
LWPOLYLINE
  5
4E2
100
AcDbEntity
  8
02___PRT_ALL_AXES
100
AcDbPolyline
 62
7
  6
CONTINUOUS
 90
7
 70
0
 10
8.0622749038
 20
5.2537069078
 10
8.060801988
 20
5.2956099796
 10
8.0593290721
 20
5.3497533202
 10
8.0578561563
 20
5.4148099735
 10
8.0563832404
 20
5.4891855176
 10
8.0549103246
 20
5.5710571411
 10
8.0534374088
 20
5.6584183175
  0
LWPOLYLINE
  5
4E3
100
AcDbEntity
  8
02___PRT_ALL_AXES
100
AcDbPolyline
 62
7
  6
CONTINUOUS
 90
10
 70
0
 10
8.0140954997
 20
5.709464068
 10
8.0112006153
 20
5.8785584131
 10
8.0097644544
 20
5.9605103262
 10
8.0083288094
 20
6.038579333
 10
8.0068768864
 20
6.1117591525
 10
8.0054244946
 20
6.1774159369
 10
8.0039908163
 20
6.2332956616
 10
8.0025555836
 20
6.279041814
 10
8.001102664
 20
6.3138751411
 10
7.999645312
 20
6.3363840732
  0
LWPOLYLINE
  5
4E4
100
AcDbEntity
  8
02___PRT_ALL_AXES
100
AcDbPolyline
 62
7
  6
CONTINUOUS
 90
10
 70
0
 10
8.0219246647
 20
5.8805630557
 10
8.0248205354
 20
5.7114115024
 10
8.0262567263
 20
5.6294621494
 10
8.0276922829
 20
5.5514048504
 10
8.0291438514
 20
5.478251409
 10
8.0305955276
 20
5.4126344936
 10
8.032028377
 20
5.3567906548
 10
8.033463529
 20
5.3110477497
 10
8.0349164668
 20
5.2762144793
 10
8.0363737501
 20
5.2537069078
  0
LWPOLYLINE
  5
4E5
100
AcDbEntity
  8
02___PRT_ALL_AXES
100
AcDbPolyline
 62
7
  6
CONTINUOUS
 90
3
 70
0
 10
8.0534374088
 20
5.6584183175
 10
8.0519644929
 20
5.7491279809
 10
8.0504915771
 20
5.8409630001
  0
LWPOLYLINE
  5
4E6
100
AcDbEntity
  8
02___PRT_ALL_AXES
100
AcDbPolyline
 62
7
  6
CONTINUOUS
 90
8
 70
0
 10
8.0504915771
 20
5.8409630001
 10
8.0490186612
 20
5.9316726635
 10
8.0475457454
 20
6.0190338399
 10
8.0460728295
 20
6.1009054635
 10
8.0445999137
 20
6.1752810075
 10
8.0431269978
 20
6.2403376608
 10
8.041654082
 20
6.2944810014
 10
8.0401811661
 20
6.3363840732
  0
LWPOLYLINE
  5
4E7
100
AcDbEntity
  8
02___PRT_ALL_AXES
100
AcDbPolyline
 62
7
  6
CONTINUOUS
 90
9
 70
0
 10
8.0694590725
 20
6.3363840732
 10
8.070917627
 20
6.3138513325
 10
8.072371788
 20
6.2789732231
 10
8.0738075264
 20
6.2331907353
 10
8.075233731
 20
6.1776069763
 10
8.0766635185
 20
6.1130598624
 10
8.0781025413
 20
6.0406829519
 10
8.0795355504
 20
5.9628951889
 10
8.0809744504
 20
5.8808719656
  0
LWPOLYLINE
  5
4E8
100
AcDbEntity
  8
02___PRT_ALL_AXES
100
AcDbPolyline
 62
7
  6
CONTINUOUS
 90
10
 70
0
 10
8.143725344
 20
5.2537069078
 10
8.142266947
 20
5.2762365288
 10
8.1408128986
 20
5.3111101737
 10
8.1393761777
 20
5.3569255911
 10
8.1379389752
 20
5.4129786769
 10
8.1364908052
 20
5.4784741194
 10
8.1350501741
 20
5.551073648
 10
8.1336245521
 20
5.6285544713
 10
8.1321849897
 20
5.7106661403
 10
8.1292709261
 20
5.8808719656
  0
LWPOLYLINE
  5
4E9
100
AcDbEntity
  8
02___PRT_ALL_AXES
100
AcDbPolyline
 62
7
  6
CONTINUOUS
 90
16
 70
0
 10
8.1139481322
 20
5.2537069078
 10
8.1124752163
 20
5.2956099796
 10
8.1110023005
 20
5.3497533202
 10
8.1095293846
 20
5.4148099735
 10
8.1080564688
 20
5.4891855176
 10
8.1065835529
 20
5.5710571411
 10
8.1051106371
 20
5.6584183175
 10
8.1036377213
 20
5.7491279809
 10
8.1021648054
 20
5.8409630001
 10
8.1006918896
 20
5.9316726635
 10
8.0992189737
 20
6.0190338399
 10
8.0977460579
 20
6.1009054635
 10
8.096273142
 20
6.1752810075
 10
8.0948002262
 20
6.2403376608
 10
8.0933273103
 20
6.2944810014
 10
8.0918543945
 20
6.3363840732
  0
LWPOLYLINE
  5
4EA
100
AcDbEntity
  8
02___PRT_ALL_AXES
100
AcDbPolyline
 62
7
  6
CONTINUOUS
 90
16
 70
0
 10
8.1213300219
 20
5.2537069078
 10
8.1198571061
 20
5.2956099796
 10
8.1183841902
 20
5.3497533202
 10
8.1169112744
 20
5.4148099735
 10
8.1154383586
 20
5.4891855176
 10
8.1139654427
 20
5.5710571411
 10
8.1124925269
 20
5.6584183175
 10
8.111019611
 20
5.7491279809
 10
8.1095466952
 20
5.8409630001
 10
8.1080737793
 20
5.9316726635
 10
8.1066008635
 20
6.0190338399
 10
8.1051279476
 20
6.1009054635
 10
8.1036550318
 20
6.1752810075
 10
8.1021821159
 20
6.2403376608
 10
8.1007092001
 20
6.2944810014
 10
8.0992362843
 20
6.3363840732
  0
LWPOLYLINE
  5
4EB
100
AcDbEntity
  8
02___PRT_ALL_AXES
100
AcDbPolyline
 62
7
  6
CONTINUOUS
 90
16
 70
0
 10
8.1730032503
 20
5.2537069078
 10
8.1715303344
 20
5.2956099796
 10
8.1700574186
 20
5.3497533202
 10
8.1685845027
 20
5.4148099735
 10
8.1671115869
 20
5.4891855176
 10
8.1656386711
 20
5.5710571411
 10
8.1641657552
 20
5.6584183175
 10
8.1626928394
 20
5.7491279809
 10
8.1612199235
 20
5.8409630001
 10
8.1597470077
 20
5.9316726635
 10
8.1582740918
 20
6.0190338399
 10
8.156801176
 20
6.1009054635
 10
8.1553282601
 20
6.1752810075
 10
8.1538553443
 20
6.2403376608
 10
8.1523824284
 20
6.2944810014
 10
8.1509095126
 20
6.3363840732
  0
LWPOLYLINE
  5
4EC
100
AcDbEntity
  8
02___PRT_ALL_AXES
100
AcDbPolyline
 62
7
  6
CONTINUOUS
 90
9
 70
0
 10
8.0702211405
 20
5.8805630557
 10
8.0687939481
 20
5.9619430949
 10
8.0673571954
 20
6.0399846734
 10
8.0659025318
 20
6.1131721402
 10
8.0644459295
 20
6.1788361531
 10
8.0630067401
 20
6.2346857887
 10
8.061573948
 20
6.2800693663
 10
8.0601337012
 20
6.3143501284
 10
8.0587004301
 20
6.3363840732
  0
LWPOLYLINE
  5
4ED
100
AcDbEntity
  8
02___PRT_ALL_AXES
100
AcDbPolyline
 62
7
  6
CONTINUOUS
 90
9
 70
0
 10
8.1292709261
 20
5.8808719656
 10
8.1278320261
 20
5.9628951889
 10
8.1263990171
 20
6.0406829519
 10
8.1249599942
 20
6.1130598624
 10
8.1235302067
 20
6.1776069763
 10
8.1221040022
 20
6.2331907353
 10
8.1206682638
 20
6.2789732231
 10
8.1192141027
 20
6.3138513325
 10
8.1177555482
 20
6.3363840732
  0
LWPOLYLINE
  5
4EE
100
AcDbEntity
  8
02___PRT_ALL_AXES
100
AcDbPolyline
 62
7
  6
CONTINUOUS
 90
10
 70
0
 10
8.0809744504
 20
5.8808719656
 10
8.0838885139
 20
5.7106661403
 10
8.0853280764
 20
5.6285544713
 10
8.0867536983
 20
5.551073648
 10
8.0881943294
 20
5.4784741194
 10
8.0896424994
 20
5.4129786769
 10
8.0910797019
 20
5.3569255911
 10
8.0925164228
 20
5.3111101737
 10
8.0939704712
 20
5.2762365288
 10
8.0954288682
 20
5.2537069078
  0
LWPOLYLINE
  5
4EF
100
AcDbEntity
  8
02___PRT_ALL_AXES
100
AcDbPolyline
 62
7
  6
CONTINUOUS
 90
10
 70
0
 10
8.1400502935
 20
5.8796712035
 10
8.14292256
 20
5.7118875121
 10
8.1443585088
 20
5.6299350654
 10
8.145799446
 20
5.5515665195
 10
8.1472586681
 20
5.4780316329
 10
8.1487200174
 20
5.4120329668
 10
8.1501647654
 20
5.3558622697
 10
8.1515938427
 20
5.3104855165
 10
8.1530341612
 20
5.2760670092
 10
8.1544839863
 20
5.2537069078
  0
LINE
  5
4F0
100
AcDbEntity
  8
0
100
AcDbLine
 62
7
  6
CONTINUOUS
 10
8.5009990365
 20
6.0390764043
 11
8.5012772476
 21
6.039317144
  0
LINE
  5
4F1
100
AcDbEntity
  8
0
100
AcDbLine
 62
7
  6
CONTINUOUS
 10
8.5403691152
 20
6.0390764043
 11
8.5406473263
 21
6.039317144
  0
LINE
  5
4F2
100
AcDbEntity
  8
0
100
AcDbLine
 62
7
  6
CONTINUOUS
 10
8.579739194
 20
6.0390764043
 11
8.5800174051
 21
6.039317144
  0
LINE
  5
4F3
100
AcDbEntity
  8
0
100
AcDbLine
 62
7
  6
CONTINUOUS
 10
8.800489846
 20
5.998785648
 11
8.8398599247
 21
5.998785648
  0
LINE
  5
4F4
100
AcDbEntity
  8
ECAD_LED1A
100
AcDbLine
 62
7
  6
CONTINUOUS
 10
6.9876000822
 20
6.0224707674
 11
7.1075764602
 21
6.0224707674
  0
LINE
  5
4F5
100
AcDbEntity
  8
02___PRT_ALL_AXES
100
AcDbLine
 62
7
  6
CONTINUOUS
 10
8.4219696013
 20
6.039317144
 11
8.426474098
 21
6.039317144
  0
LINE
  5
4F6
100
AcDbEntity
  8
02___PRT_ALL_AXES
100
AcDbLine
 62
7
  6
CONTINUOUS
 10
8.4619071688
 20
6.039317144
 11
8.4658441767
 21
6.039317144
  0
LINE
  5
4F7
100
AcDbEntity
  8
02___PRT_ALL_AXES
100
AcDbLine
 62
7
  6
CONTINUOUS
 10
8.5012772476
 20
6.039317144
 11
8.5052142555
 21
6.039317144
  0
LINE
  5
4F8
100
AcDbEntity
  8
02___PRT_ALL_AXES
100
AcDbLine
 62
7
  6
CONTINUOUS
 10
8.5406473263
 20
6.039317144
 11
8.5445843342
 21
6.039317144
  0
LINE
  5
4F9
100
AcDbEntity
  8
02___PRT_ALL_AXES
100
AcDbLine
 62
7
  6
CONTINUOUS
 10
8.5800174051
 20
6.039317144
 11
8.5839544129
 21
6.039317144
  0
LINE
  5
4FA
100
AcDbEntity
  8
02___PRT_ALL_AXES
100
AcDbLine
 62
7
  6
CONTINUOUS
 10
8.6193874838
 20
6.039317144
 11
8.6233244917
 21
6.039317144
  0
LINE
  5
4FB
100
AcDbEntity
  8
02___PRT_ALL_AXES
100
AcDbLine
 62
7
  6
CONTINUOUS
 10
8.6587575625
 20
6.039317144
 11
8.6626945704
 21
6.039317144
  0
LINE
  5
4FC
100
AcDbEntity
  8
02___PRT_ALL_AXES
100
AcDbLine
 62
7
  6
CONTINUOUS
 10
8.6981276413
 20
6.039317144
 11
8.7020646492
 21
6.039317144
  0
LINE
  5
4FD
100
AcDbEntity
  8
02___PRT_ALL_AXES
100
AcDbLine
 62
7
  6
CONTINUOUS
 10
8.73749772
 20
6.039317144
 11
8.7414347279
 21
6.039317144
  0
LINE
  5
4FE
100
AcDbEntity
  8
ECAD_LED1A
100
AcDbLine
 62
7
  6
CONTINUOUS
 10
6.9876000822
 20
6.0666201737
 11
7.1075764602
 21
6.0666201737
  0
LINE
  5
4FF
100
AcDbEntity
  8
0
100
AcDbLine
 62
7
  6
CONTINUOUS
 10
8.4813139971
 20
5.5510145767
 11
8.4815922082
 21
5.550773837
  0
LINE
  5
500
100
AcDbEntity
  8
0
100
AcDbLine
 62
7
  6
CONTINUOUS
 10
8.5206840759
 20
5.5510145767
 11
8.520962287
 21
5.550773837
  0
LINE
  5
501
100
AcDbEntity
  8
0
100
AcDbLine
 62
7
  6
CONTINUOUS
 10
8.5600541546
 20
5.5510145767
 11
8.5603323657
 21
5.550773837
  0
LWPOLYLINE
  5
502
100
AcDbEntity
  8
02___PRT_ALL_AXES
100
AcDbPolyline
 62
7
  6
CONTINUOUS
 90
9
 70
0
 10
8.1285141906
 20
6.3363840732
 10
8.1299483105
 20
6.3143334433
 10
8.1313801734
 20
6.280279112
 10
8.1328141454
 20
6.2349104697
 10
8.1342582611
 20
6.1788962893
 10
8.135719555
 20
6.1130158697
 10
8.1371788723
 20
6.0395687007
 10
8.1386199992
 20
5.9612560249
 10
8.1400502935
 20
5.8796712035
  0
LWPOLYLINE
  5
503
100
AcDbEntity
  8
02___PRT_ALL_AXES
100
AcDbPolyline
 62
7
  6
CONTINUOUS
 90
9
 70
0
 10
8.2027804621
 20
5.2537069078
 10
8.201330637
 20
5.2760670092
 10
8.1998903185
 20
5.3104855165
 10
8.1984612412
 20
5.3558622697
 10
8.1970164932
 20
5.4120329668
 10
8.1955551439
 20
5.4780316329
 10
8.1940959217
 20
5.5515665195
 10
8.1926549846
 20
5.6299350654
 10
8.1912190358
 20
5.7118875121
  0
LWPOLYLINE
  5
504
100
AcDbEntity
  8
02___PRT_ALL_AXES
100
AcDbPolyline
 62
7
  6
CONTINUOUS
 90
9
 70
0
 10
8.1875693087
 20
6.3363840732
 10
8.1890299823
 20
6.313809355
 10
8.1904861847
 20
6.2788563827
 10
8.1919244488
 20
6.232952734
 10
8.1933577924
 20
6.1770228999
 10
8.1947935494
 20
6.1121110368
 10
8.1962226701
 20
6.0401634807
 10
8.1976535583
 20
5.96246102
 10
8.199094878
 20
5.8802815532
  0
LWPOLYLINE
  5
505
100
AcDbEntity
  8
02___PRT_ALL_AXES
100
AcDbPolyline
 62
7
  6
CONTINUOUS
 90
9
 70
0
 10
8.2618355802
 20
5.2537069078
 10
8.2603749279
 20
5.2762812015
 10
8.2589186684
 20
5.3112356036
 10
8.2574803387
 20
5.357141857
 10
8.2560468238
 20
5.4130796069
 10
8.2546106866
 20
5.4780112626
 10
8.253181627
 20
5.549958587
 10
8.2517508969
 20
5.627654187
 10
8.2503096355
 20
5.7098311804
  0
LWPOLYLINE
  5
506
100
AcDbEntity
  8
02___PRT_ALL_AXES
100
AcDbPolyline
 62
7
  6
CONTINUOUS
 90
16
 70
0
 10
8.18038514
 20
5.2537069078
 10
8.1789122242
 20
5.2956099796
 10
8.1774393084
 20
5.3497533202
 10
8.1759663925
 20
5.4148099735
 10
8.1744934767
 20
5.4891855176
 10
8.1730205608
 20
5.5710571411
 10
8.171547645
 20
5.6584183175
 10
8.1700747291
 20
5.7491279809
 10
8.1686018133
 20
5.8409630001
 10
8.1671288974
 20
5.9316726635
 10
8.1656559816
 20
6.0190338399
 10
8.1641830657
 20
6.1009054635
 10
8.1627101499
 20
6.1752810075
 10
8.1612372341
 20
6.2403376608
 10
8.1597643182
 20
6.2944810014
 10
8.1582914024
 20
6.3363840732
  0
LWPOLYLINE
  5
507
100
AcDbEntity
  8
02___PRT_ALL_AXES
100
AcDbPolyline
 62
7
  6
CONTINUOUS
 90
16
 70
0
 10
8.2320583684
 20
5.2537069078
 10
8.2305854525
 20
5.2956099796
 10
8.2291125367
 20
5.3497533202
 10
8.2276396209
 20
5.4148099735
 10
8.226166705
 20
5.4891855176
 10
8.2246937892
 20
5.5710571411
 10
8.2232208733
 20
5.6584183175
 10
8.2217479575
 20
5.7491279809
 10
8.2202750416
 20
5.8409630001
 10
8.2188021258
 20
5.9316726635
 10
8.2173292099
 20
6.0190338399
 10
8.2158562941
 20
6.1009054635
 10
8.2143833782
 20
6.1752810075
 10
8.2129104624
 20
6.2403376608
 10
8.2114375466
 20
6.2944810014
 10
8.2099646307
 20
6.3363840732
  0
LWPOLYLINE
  5
508
100
AcDbEntity
  8
02___PRT_ALL_AXES
100
AcDbPolyline
 62
7
  6
CONTINUOUS
 90
16
 70
0
 10
8.2394402582
 20
5.2537069078
 10
8.2379673423
 20
5.2956099796
 10
8.2364944265
 20
5.3497533202
 10
8.2350215106
 20
5.4148099735
 10
8.2335485948
 20
5.4891855176
 10
8.2320756789
 20
5.5710571411
 10
8.2306027631
 20
5.6584183175
 10
8.2291298472
 20
5.7491279809
 10
8.2276569314
 20
5.8409630001
 10
8.2261840155
 20
5.9316726635
 10
8.2247110997
 20
6.0190338399
 10
8.2232381839
 20
6.1009054635
 10
8.221765268
 20
6.1752810075
 10
8.2202923522
 20
6.2403376608
 10
8.2188194363
 20
6.2944810014
 10
8.2173465205
 20
6.3363840732
  0
LWPOLYLINE
  5
509
100
AcDbEntity
  8
02___PRT_ALL_AXES
100
AcDbPolyline
 62
7
  6
CONTINUOUS
 90
10
 70
0
 10
8.1912190358
 20
5.7118875121
 10
8.1883467693
 20
5.8796712035
 10
8.186916475
 20
5.9612560249
 10
8.1854753481
 20
6.0395687007
 10
8.1840160308
 20
6.1130158697
 10
8.1825547368
 20
6.1788962893
 10
8.1811106212
 20
6.2349104697
 10
8.1796766492
 20
6.280279112
 10
8.1782447862
 20
6.3143334433
 10
8.1768106663
 20
6.3363840732
  0
LWPOLYLINE
  5
50A
100
AcDbEntity
  8
02___PRT_ALL_AXES
100
AcDbPolyline
 62
7
  6
CONTINUOUS
 90
10
 70
0
 10
8.199094878
 20
5.8802815532
 10
8.2020131597
 20
5.7098311804
 10
8.2034544212
 20
5.627654187
 10
8.2048851512
 20
5.549958587
 10
8.2063142108
 20
5.4780112626
 10
8.2077503481
 20
5.4130796069
 10
8.209183863
 20
5.357141857
 10
8.2106221926
 20
5.3112356036
 10
8.2120784522
 20
5.2762812015
 10
8.2135391044
 20
5.2537069078
  0
LWPOLYLINE
  5
50B
100
AcDbEntity
  8
0
100
AcDbPolyline
 62
7
  6
CONTINUOUS
 90
3
 70
0
 10
8.4568808299
 20
6.035028051
 10
8.4580570312
 20
6.036797487
 10
8.4619071688
 20
6.039317144
  0
LINE
  5
50C
100
AcDbEntity
  8
0
100
AcDbLine
 62
7
  6
CONTINUOUS
 10
8.6191092727
 20
6.0390764043
 11
8.6193874838
 21
6.039317144
  0
LINE
  5
50D
100
AcDbEntity
  8
0
100
AcDbLine
 62
7
  6
CONTINUOUS
 10
8.6584793515
 20
6.0390764043
 11
8.6587575625
 21
6.039317144
  0
LINE
  5
50E
100
AcDbEntity
  8
0
100
AcDbLine
 62
7
  6
CONTINUOUS
 10
8.6978494302
 20
6.0390764043
 11
8.6981276413
 21
6.039317144
  0
LINE
  5
50F
100
AcDbEntity
  8
0
100
AcDbLine
 62
7
  6
CONTINUOUS
 10
8.5994242333
 20
5.5510145767
 11
8.5997024444
 21
5.550773837
  0
LINE
  5
510
100
AcDbEntity
  8
0
100
AcDbLine
 62
7
  6
CONTINUOUS
 10
8.6387943121
 20
5.5510145767
 11
8.6390725232
 21
5.550773837
  0
LINE
  5
511
100
AcDbEntity
  8
0
100
AcDbLine
 62
7
  6
CONTINUOUS
 10
8.6781643908
 20
5.5510145767
 11
8.6784426019
 21
5.550773837
  0
LINE
  5
512
100
AcDbEntity
  8
0
100
AcDbLine
 62
7
  6
CONTINUOUS
 10
8.7175344696
 20
5.5510145767
 11
8.7178126807
 21
5.550773837
  0
LWPOLYLINE
  5
513
100
AcDbEntity
  8
02___PRT_ALL_AXES
100
AcDbPolyline
 62
7
  6
CONTINUOUS
 90
9
 70
0
 10
8.3208906983
 20
5.2537069078
 10
8.3194561825
 20
5.2757653212
 10
8.3180245144
 20
5.3098174607
 10
8.3165905797
 20
5.355186299
 10
8.3151464163
 20
5.4112035908
 10
8.3136850514
 20
5.4770886429
 10
8.3122255826
 20
5.5505450872
 10
8.3107842905
 20
5.6288684526
 10
8.3093537428
 20
5.710469183
  0
LWPOLYLINE
  5
514
100
AcDbEntity
  8
02___PRT_ALL_AXES
100
AcDbPolyline
 62
7
  6
CONTINUOUS
 90
10
 70
0
 10
8.2466244268
 20
6.3363840732
 10
8.2480738887
 20
6.3140311444
 10
8.2495136757
 20
6.279630468
 10
8.2509428252
 20
6.2342578556
 10
8.2523877467
 20
6.1780853838
 10
8.2538492299
 20
6.112084059
 10
8.2553085084
 20
6.0385485951
 10
8.2567494992
 20
5.9601785798
 10
8.2581854038
 20
5.8782295124
 10
8.261057267
 20
5.710469183
  0
LWPOLYLINE
  5
515
100
AcDbEntity
  8
02___PRT_ALL_AXES
100
AcDbPolyline
 62
7
  6
CONTINUOUS
 90
16
 70
0
 10
8.2911134865
 20
5.2537069078
 10
8.2896405707
 20
5.2956099796
 10
8.2881676548
 20
5.3497533202
 10
8.286694739
 20
5.4148099735
 10
8.2852218231
 20
5.4891855176
 10
8.2837489073
 20
5.5710571411
 10
8.2822759914
 20
5.6584183175
 10
8.2808030756
 20
5.7491279809
 10
8.2793301597
 20
5.8409630001
 10
8.2778572439
 20
5.9316726635
 10
8.276384328
 20
6.0190338399
 10
8.2749114122
 20
6.1009054635
 10
8.2734384964
 20
6.1752810075
 10
8.2719655805
 20
6.2403376608
 10
8.2704926647
 20
6.2944810014
 10
8.2690197488
 20
6.3363840732
  0
LWPOLYLINE
  5
516
100
AcDbEntity
  8
02___PRT_ALL_AXES
100
AcDbPolyline
 62
7
  6
CONTINUOUS
 90
16
 70
0
 10
8.2984953763
 20
5.2537069078
 10
8.2970224604
 20
5.2956099796
 10
8.2955495446
 20
5.3497533202
 10
8.2940766287
 20
5.4148099735
 10
8.2926037129
 20
5.4891855176
 10
8.291130797
 20
5.5710571411
 10
8.2896578812
 20
5.6584183175
 10
8.2881849653
 20
5.7491279809
 10
8.2867120495
 20
5.8409630001
 10
8.2852391337
 20
5.9316726635
 10
8.2837662178
 20
6.0190338399
 10
8.282293302
 20
6.1009054635
 10
8.2808203861
 20
6.1752810075
 10
8.2793474703
 20
6.2403376608
 10
8.2778745544
 20
6.2944810014
 10
8.2764016386
 20
6.3363840732
  0
LWPOLYLINE
  5
517
100
AcDbEntity
  8
02___PRT_ALL_AXES
100
AcDbPolyline
 62
7
  6
CONTINUOUS
 90
9
 70
0
 10
8.261057267
 20
5.710469183
 10
8.2624878148
 20
5.6288684526
 10
8.2639291068
 20
5.5505450872
 10
8.2653885756
 20
5.4770886429
 10
8.2668499406
 20
5.4112035908
 10
8.2682941039
 20
5.355186299
 10
8.2697280386
 20
5.3098174607
 10
8.2711597067
 20
5.2757653212
 10
8.2725942225
 20
5.2537069078
  0
LWPOLYLINE
  5
518
100
AcDbEntity
  8
02___PRT_ALL_AXES
100
AcDbPolyline
 62
7
  6
CONTINUOUS
 90
10
 70
0
 10
8.2503096355
 20
5.7098311804
 10
8.2473913537
 20
5.8802815532
 10
8.2459500341
 20
5.96246102
 10
8.2445191458
 20
6.0401634807
 10
8.2430900252
 20
6.1121110368
 10
8.2416542682
 20
6.1770228999
 10
8.2402209245
 20
6.232952734
 10
8.2387826605
 20
6.2788563827
 10
8.2373264581
 20
6.313809355
 10
8.2358657844
 20
6.3363840732
  0
LWPOLYLINE
  5
519
100
AcDbEntity
  8
02___PRT_ALL_AXES
100
AcDbPolyline
 62
7
  6
CONTINUOUS
 90
10
 70
0
 10
8.3093537428
 20
5.710469183
 10
8.3064818796
 20
5.8782295124
 10
8.305045975
 20
5.9601785798
 10
8.3036049842
 20
6.0385485951
 10
8.3021457057
 20
6.112084059
 10
8.3006842224
 20
6.1780853838
 10
8.2992393009
 20
6.2342578556
 10
8.2978101515
 20
6.279630468
 10
8.2963703645
 20
6.3140311444
 10
8.2949209026
 20
6.3363840732
  0
LINE
  5
51A
100
AcDbEntity
  8
0
100
AcDbLine
 62
7
  6
CONTINUOUS
 10
8.4619071688
 20
6.039317144
 11
8.4442701008
 21
6.0087688461
  0
LINE
  5
51B
100
AcDbEntity
  8
0
100
AcDbLine
 62
7
  6
CONTINUOUS
 10
8.5009990365
 20
6.0390764043
 11
8.483560712
 21
6.0089063177
  0
LINE
  5
51C
100
AcDbEntity
  8
0
100
AcDbLine
 62
7
  6
CONTINUOUS
 10
8.5403691152
 20
6.0390764043
 11
8.5229307908
 21
6.0089063177
  0
LWPOLYLINE
  5
51D
100
AcDbEntity
  8
0
100
AcDbPolyline
 62
7
  6
CONTINUOUS
 90
4
 70
0
 10
8.4568808299
 20
6.035028051
 10
8.4548872405
 20
6.0316365003
 10
8.4483397483
 20
6.0205098886
 10
8.4431868709
 20
6.0117680182
  0
LINE
  5
51E
100
AcDbEntity
  8
0
100
AcDbLine
 62
7
  6
CONTINUOUS
 10
8.7372195089
 20
6.0390764043
 11
8.73749772
 21
6.039317144
  0
LINE
  5
51F
100
AcDbEntity
  8
ECAD_LED1A
100
AcDbLine
 62
7
  6
CONTINUOUS
 10
6.9876000822
 20
6.2634705674
 11
7.1075764602
 21
6.2634705674
  0
LINE
  5
520
100
AcDbEntity
  8
ECAD_LED1A
100
AcDbLine
 62
7
  6
CONTINUOUS
 10
6.9876000822
 20
6.2639223558
 11
7.1075764602
 21
6.2639223558
  0
LINE
  5
521
100
AcDbEntity
  8
0
100
AcDbLine
 62
7
  6
CONTINUOUS
 10
8.7571827709
 20
5.550773837
 11
8.7569045483
 21
5.5510145767
  0
LINE
  5
522
100
AcDbEntity
  8
0
100
AcDbLine
 62
7
  6
CONTINUOUS
 10
8.4635575553
 20
5.5817349782
 11
8.4638756727
 21
5.5811846633
  0
LINE
  5
523
100
AcDbEntity
  8
0
100
AcDbLine
 62
7
  6
CONTINUOUS
 10
8.4638756727
 20
5.5811846633
 11
8.4813139971
 21
5.5510145767
  0
LINE
  5
524
100
AcDbEntity
  8
0
100
AcDbLine
 62
7
  6
CONTINUOUS
 10
8.502927634
 20
5.5817349782
 11
8.5032457514
 21
5.5811846633
  0
LINE
  5
525
100
AcDbEntity
  8
0
100
AcDbLine
 62
7
  6
CONTINUOUS
 10
8.5032457514
 20
5.5811846633
 11
8.5206840759
 21
5.5510145767
  0
LWPOLYLINE
  5
526
100
AcDbEntity
  8
0
100
AcDbPolyline
 62
7
  6
CONTINUOUS
 90
21
 70
0
 10
8.4635575553
 20
5.5817349782
 10
8.4632935883
 20
5.5823807117
 10
8.4622881696
 20
5.5882780478
 10
8.4612827509
 20
5.5994875448
 10
8.4602773322
 20
5.6157212142
 10
8.4592719136
 20
5.636561989
 10
8.4582664949
 20
5.661474439
 10
8.4572610762
 20
5.6898185265
 10
8.4562556575
 20
5.7208660501
 10
8.4552502389
 20
5.753819353
 10
8.4542448202
 20
5.7878318163
 10
8.4532394015
 20
5.8220296095
 10
8.4522339828
 20
5.8555341409
 10
8.4512285642
 20
5.8874846295
 10
8.4502231455
 20
5.9170602201
 10
8.4492177268
 20
5.9435010722
 10
8.4482123081
 20
5.9661278812
 10
8.4472068894
 20
5.984359331
 10
8.4462014708
 20
5.9977270287
 10
8.4451960521
 20
6.0058875384
 10
8.4445087509
 20
6.0083560028
  0
LINE
  5
527
100
AcDbEntity
  8
0
100
AcDbLine
 62
9
  6
CONTINUOUS
 10
8.3674189799
 20
5.2537069078
 11
8.3674189799
 21
6.3363840732
  0
LINE
  5
528
100
AcDbEntity
  8
0
100
AcDbLine
 62
7
  6
CONTINUOUS
 10
8.4067890586
 20
5.2930769866
 11
8.4067890586
 21
6.2970139944
  0
LINE
  5
529
100
AcDbEntity
  8
0
100
AcDbLine
 62
9
  6
CONTINUOUS
 10
8.4219696013
 20
6.039317144
 11
8.4219696013
 21
5.550773837
  0
LINE
  5
52A
100
AcDbEntity
  8
0
100
AcDbLine
 62
7
  6
CONTINUOUS
 10
8.579739194
 20
6.0390764043
 11
8.5623008695
 21
6.0089063177
  0
LINE
  5
52B
100
AcDbEntity
  8
0
100
AcDbLine
 62
7
  6
CONTINUOUS
 10
8.6191092727
 20
6.0390764043
 11
8.6016709483
 21
6.0089063177
  0
LINE
  5
52C
100
AcDbEntity
  8
0
100
AcDbLine
 62
7
  6
CONTINUOUS
 10
8.6584793515
 20
6.0390764043
 11
8.641041027
 21
6.0089063177
  0
LINE
  5
52D
100
AcDbEntity
  8
0
100
AcDbLine
 62
7
  6
CONTINUOUS
 10
8.4464373484
 20
5.5510145767
 11
8.4461591373
 21
5.550773837
  0
LINE
  5
52E
100
AcDbEntity
  8
0
100
AcDbLine
 62
7
  6
CONTINUOUS
 10
7.6587575625
 20
6.3363840732
 11
7.7151283638
 21
6.3363840732
  0
LINE
  5
52F
100
AcDbEntity
  8
02___PRT_ALL_AXES
100
AcDbLine
 62
7
  6
CONTINUOUS
 10
7.7151283638
 20
6.3363840732
 11
8.2949209026
 21
6.3363840732
  0
LINE
  5
530
100
AcDbEntity
  8
0
100
AcDbLine
 62
7
  6
CONTINUOUS
 10
8.2949209026
 20
6.3363840732
 11
8.3674189799
 21
6.3363840732
  0
LINE
  5
531
100
AcDbEntity
  8
0
100
AcDbLine
 62
7
  6
CONTINUOUS
 10
8.426474098
 20
6.039317144
 11
8.4279092225
 21
6.038079543
  0
LINE
  5
532
100
AcDbEntity
  8
0
100
AcDbLine
 62
7
  6
CONTINUOUS
 10
8.5422977128
 20
5.5817349782
 11
8.5426158301
 21
5.5811846633
  0
LINE
  5
533
100
AcDbEntity
  8
0
100
AcDbLine
 62
7
  6
CONTINUOUS
 10
8.5426158301
 20
5.5811846633
 11
8.5600541546
 21
5.5510145767
  0
LINE
  5
534
100
AcDbEntity
  8
0
100
AcDbLine
 62
7
  6
CONTINUOUS
 10
8.5816677915
 20
5.5817349782
 11
8.5819859089
 21
5.5811846633
  0
LINE
  5
535
100
AcDbEntity
  8
0
100
AcDbLine
 62
7
  6
CONTINUOUS
 10
8.5819859089
 20
5.5811846633
 11
8.5994242333
 21
5.5510145767
  0
LINE
  5
536
100
AcDbEntity
  8
0
100
AcDbLine
 62
7
  6
CONTINUOUS
 10
8.6210378702
 20
5.5817349782
 11
8.6213559876
 21
5.5811846633
  0
LINE
  5
537
100
AcDbEntity
  8
0
100
AcDbLine
 62
7
  6
CONTINUOUS
 10
8.6213559876
 20
5.5811846633
 11
8.6387943121
 21
5.5510145767
  0
LWPOLYLINE
  5
538
100
AcDbEntity
  8
0
100
AcDbPolyline
 62
7
  6
CONTINUOUS
 90
10
 70
0
 10
8.502927634
 20
5.5817349782
 10
8.5025049167
 20
5.5829508744
 10
8.501499498
 20
5.5897006117
 10
8.5004940793
 20
5.6017259622
 10
8.4994886607
 20
5.6187179768
 10
8.498483242
 20
5.6402401055
 10
8.4974778233
 20
5.6657394132
 10
8.4964724046
 20
5.6945607849
 10
8.495466986
 20
5.7259637571
 10
8.4944615673
 20
5.759141541
  0
LWPOLYLINE
  5
539
100
AcDbEntity
  8
0
100
AcDbPolyline
 62
7
  6
CONTINUOUS
 90
10
 70
0
 10
8.4461591373
 20
5.550773837
 10
8.445177867
 20
5.5537630704
 10
8.4441841536
 20
5.5628075279
 10
8.4431903519
 20
5.577682263
 10
8.4422083822
 20
5.5977410557
 10
8.4412294378
 20
5.6225521516
 10
8.4402461558
 20
5.6517019044
 10
8.4392697929
 20
5.6841339147
 10
8.4382954584
 20
5.7191782543
 10
8.437312868
 20
5.7563710689
  0
LWPOLYLINE
  5
53A
100
AcDbEntity
  8
0
100
AcDbPolyline
 62
7
  6
CONTINUOUS
 90
10
 70
0
 10
8.4855292161
 20
5.550773837
 10
8.4845472939
 20
5.5537670349
 10
8.4835530829
 20
5.5628214219
 10
8.482559017
 20
5.5777074124
 10
8.4815770213
 20
5.5977741474
 10
8.4805982331
 20
5.6225875813
 10
8.479615339
 20
5.6517301742
 10
8.4786393347
 20
5.6841525643
 10
8.4776649418
 20
5.7192003149
 10
8.4766823939
 20
5.7563923495
  0
LWPOLYLINE
  5
53B
100
AcDbEntity
  8
0
100
AcDbPolyline
 62
7
  6
CONTINUOUS
 90
10
 70
0
 10
8.5248992948
 20
5.550773837
 10
8.5239166349
 20
5.553771525
 10
8.5229218719
 20
5.5628370221
 10
8.5219274886
 20
5.5777360192
 10
8.5209454173
 20
5.5978128414
 10
8.5199667293
 20
5.6226312811
 10
8.5189841698
 20
5.651769573
 10
8.5180084401
 20
5.6841863774
 10
8.5170339366
 20
5.7192404848
 10
8.5160513674
 20
5.7564348942
  0
LWPOLYLINE
  5
53C
100
AcDbEntity
  8
0
100
AcDbPolyline
 62
7
  6
CONTINUOUS
 90
11
 70
0
 10
8.4944615673
 20
5.759141541
 10
8.4924507299
 20
5.8273883005
 10
8.4914453113
 20
5.8607039161
 10
8.4904398926
 20
5.8923326698
 10
8.4894344739
 20
5.9214619722
 10
8.4884290552
 20
5.9473434485
 10
8.4874236365
 20
5.9693121654
 10
8.4864182179
 20
5.9868037142
 10
8.4854127992
 20
5.999368711
 10
8.4844073805
 20
6.0066843426
 10
8.4838788296
 20
6.0083560028
  0
LWPOLYLINE
  5
53D
100
AcDbEntity
  8
0
100
AcDbPolyline
 62
7
  6
CONTINUOUS
 90
10
 70
0
 10
8.4727459389
 20
5.7563710689
 10
8.4737285293
 20
5.7191782543
 10
8.4747028638
 20
5.6841339147
 10
8.4756792266
 20
5.6517019044
 10
8.4766625087
 20
5.6225521516
 10
8.477641453
 20
5.5977410557
 10
8.4786234227
 20
5.577682263
 10
8.4796172244
 20
5.5628075279
 10
8.4806109379
 20
5.5537630704
 10
8.4813139971
 20
5.5510145767
  0
LWPOLYLINE
  5
53E
100
AcDbEntity
  8
0
100
AcDbPolyline
 62
7
  6
CONTINUOUS
 90
11
 70
0
 10
8.437312868
 20
5.7563710689
 10
8.4353229665
 20
5.833619861
 10
8.4343402894
 20
5.8708196174
 10
8.4333655658
 20
5.9058833052
 10
8.4323901248
 20
5.9382929325
 10
8.4314079904
 20
5.9674230532
 10
8.4304294002
 20
5.9922453657
 10
8.42944726
 20
6.0123308194
 10
8.42845263
 20
6.0272405358
 10
8.4274574018
 20
6.0363155339
 10
8.4267523091
 20
6.0390764043
  0
LWPOLYLINE
  5
53F
100
AcDbEntity
  8
0
100
AcDbPolyline
 62
7
  6
CONTINUOUS
 90
11
 70
0
 10
8.4766823939
 20
5.7563923495
 10
8.4746925992
 20
5.8336370304
 10
8.4737099824
 20
5.8708339145
 10
8.472735422
 20
5.905891038
 10
8.4717598099
 20
5.9383053621
 10
8.4707773945
 20
5.967441689
 10
8.4697987456
 20
5.9922622373
 10
8.468816676
 20
6.0123426221
 10
8.4678221956
 20
6.0272467469
 10
8.4668271905
 20
6.0363173007
 10
8.4661223878
 20
6.0390764043
  0
LWPOLYLINE
  5
540
100
AcDbEntity
  8
0
100
AcDbPolyline
 62
7
  6
CONTINUOUS
 90
11
 70
0
 10
8.5101256701
 20
5.8336370304
 10
8.5121154648
 20
5.7563923495
 10
8.5130980127
 20
5.7192003149
 10
8.5140724056
 20
5.6841525643
 10
8.5150484098
 20
5.6517301742
 10
8.516031304
 20
5.6225875813
 10
8.5170100922
 20
5.5977741474
 10
8.5179920879
 20
5.5777074124
 10
8.5189861538
 20
5.5628214219
 10
8.5199803648
 20
5.5537670349
 10
8.5206840759
 20
5.5510145767
  0
LWPOLYLINE
  5
541
100
AcDbEntity
  8
0
100
AcDbPolyline
 62
7
  6
CONTINUOUS
 90
11
 70
0
 10
8.5160513674
 20
5.7564348942
 10
8.5140615705
 20
5.8336796605
 10
8.5130789727
 20
5.8708742502
 10
8.512104521
 20
5.905925072
 10
8.5111286466
 20
5.9383445782
 10
8.5101458939
 20
5.9674853011
 10
8.5091671417
 20
5.9923009348
 10
8.5081851445
 20
6.0123712903
 10
8.5071909782
 20
6.0272624289
 10
8.5061965219
 20
6.0363218513
 10
8.5054924666
 20
6.0390764043
  0
LINE
  5
542
100
AcDbEntity
  8
0
100
AcDbLine
 62
7
  6
CONTINUOUS
 10
8.6978494302
 20
6.0390764043
 11
8.6804111057
 21
6.0089063177
  0
LINE
  5
543
100
AcDbEntity
  8
0
100
AcDbLine
 62
7
  6
CONTINUOUS
 10
8.4464373484
 20
5.5510145767
 11
8.4638756727
 21
5.5811846633
  0
LINE
  5
544
100
AcDbEntity
  8
0
100
AcDbLine
 62
7
  6
CONTINUOUS
 10
8.7372195089
 20
6.0390764043
 11
8.7197811845
 21
6.0089063177
  0
LINE
  5
545
100
AcDbEntity
  8
0
100
AcDbLine
 62
7
  6
CONTINUOUS
 10
8.4858074272
 20
5.5510145767
 11
8.4855292161
 21
5.550773837
  0
LINE
  5
546
100
AcDbEntity
  8
0
100
AcDbLine
 62
7
  6
CONTINUOUS
 10
8.5251775059
 20
5.5510145767
 11
8.5248992948
 21
5.550773837
  0
LINE
  5
547
100
AcDbEntity
  8
0
100
AcDbLine
 62
7
  6
CONTINUOUS
 10
8.5645475847
 20
5.5510145767
 11
8.5642693736
 21
5.550773837
  0
LWPOLYLINE
  5
548
100
AcDbEntity
  8
0
100
AcDbPolyline
 62
7
  6
CONTINUOUS
 90
3
 70
0
 10
8.7611197859
 20
5.550773837
 10
8.7612784095
 20
5.5508521231
 10
8.7613979784
 20
5.5510145767
  0
LINE
  5
549
100
AcDbEntity
  8
0
100
AcDbLine
 62
7
  6
CONTINUOUS
 10
8.4661223878
 20
6.0390764043
 11
8.4658441767
 21
6.039317144
  0
LINE
  5
54A
100
AcDbEntity
  8
0
100
AcDbLine
 62
7
  6
CONTINUOUS
 10
8.5054924666
 20
6.0390764043
 11
8.5052142555
 21
6.039317144
  0
LINE
  5
54B
100
AcDbEntity
  8
0
100
AcDbLine
 62
7
  6
CONTINUOUS
 10
8.5448625453
 20
6.0390764043
 11
8.5445843342
 21
6.039317144
  0
LINE
  5
54C
100
AcDbEntity
  8
0
100
AcDbLine
 62
7
  6
CONTINUOUS
 10
8.584232624
 20
6.0390764043
 11
8.5839544129
 21
6.039317144
  0
LINE
  5
54D
100
AcDbEntity
  8
0
100
AcDbLine
 62
7
  6
CONTINUOUS
 10
8.4434828933
 20
6.0112584309
 11
8.4382261188
 21
6.0203076954
  0
LINE
  5
54E
100
AcDbEntity
  8
0
100
AcDbLine
 62
7
  6
CONTINUOUS
 10
8.4382261188
 20
6.0203076954
 11
8.4279092225
 21
6.038079543
  0
LINE
  5
54F
100
AcDbEntity
  8
0
100
AcDbLine
 62
7
  6
CONTINUOUS
 10
8.660407949
 20
5.5817349782
 11
8.6607260664
 21
5.5811846633
  0
LINE
  5
550
100
AcDbEntity
  8
0
100
AcDbLine
 62
7
  6
CONTINUOUS
 10
8.6607260664
 20
5.5811846633
 11
8.6781643908
 21
5.5510145767
  0
LINE
  5
551
100
AcDbEntity
  8
0
100
AcDbLine
 62
7
  6
CONTINUOUS
 10
8.4445087509
 20
6.0083560028
 11
8.4267523091
 21
6.0390764043
  0
LINE
  5
552
100
AcDbEntity
  8
0
100
AcDbLine
 62
7
  6
CONTINUOUS
 10
8.6997780277
 20
5.5817349782
 11
8.7000961451
 21
5.5811846633
  0
LINE
  5
553
100
AcDbEntity
  8
0
100
AcDbLine
 62
7
  6
CONTINUOUS
 10
8.7000961451
 20
5.5811846633
 11
8.7175344696
 21
5.5510145767
  0
LINE
  5
554
100
AcDbEntity
  8
0
100
AcDbLine
 62
7
  6
CONTINUOUS
 10
8.4838788296
 20
6.0083560028
 11
8.483560712
 21
6.0089063177
  0
LINE
  5
555
100
AcDbEntity
  8
0
100
AcDbLine
 62
7
  6
CONTINUOUS
 10
8.483560712
 20
6.0089063177
 11
8.4661223878
 21
6.0390764043
  0
LINE
  5
556
100
AcDbEntity
  8
0
100
AcDbLine
 62
7
  6
CONTINUOUS
 10
8.7391481065
 20
5.5817349782
 11
8.7394662238
 21
5.5811846633
  0
LINE
  5
557
100
AcDbEntity
  8
0
100
AcDbLine
 62
7
  6
CONTINUOUS
 10
8.7394662238
 20
5.5811846633
 11
8.7569045483
 21
5.5510145767
  0
LWPOLYLINE
  5
558
100
AcDbEntity
  8
0
100
AcDbPolyline
 62
7
  6
CONTINUOUS
 90
15
 70
0
 10
8.5642693736
 20
5.550773837
 10
8.5633349109
 20
5.5534852086
 10
8.5623886188
 20
5.5616950676
 10
8.5614411572
 20
5.5752368394
 10
8.5605030161
 20
5.5935890158
 10
8.5595719344
 20
5.6162610295
 10
8.5586349216
 20
5.6430543193
 10
8.557702009
 20
5.6731016394
 10
8.5567737998
 20
5.7056764398
 10
8.5558431261
 20
5.7403024174
 10
8.5548989229
 20
5.7766597439
 10
8.5539494601
 20
5.8136382208
 10
8.5530053838
 20
5.8499860244
 10
8.5520747343
 20
5.8846022187
 10
8.551146014
 20
5.9171813173
  0
LWPOLYLINE
  5
559
100
AcDbEntity
  8
0
100
AcDbPolyline
 62
7
  6
CONTINUOUS
 90
10
 70
0
 10
8.6036394523
 20
5.550773837
 10
8.6026576506
 20
5.5537663019
 10
8.6016635323
 20
5.5628188445
 10
8.6006695199
 20
5.5777026663
 10
8.5996875375
 20
5.5977677108
 10
8.5987087333
 20
5.6225802942
 10
8.597725784
 20
5.6517235831
 10
8.5967497313
 20
5.6841469932
 10
8.5957753575
 20
5.7191936642
 10
8.5947928137
 20
5.7563852823
  0
LWPOLYLINE
  5
55A
100
AcDbEntity
  8
0
100
AcDbPolyline
 62
7
  6
CONTINUOUS
 90
11
 70
0
 10
8.4619071688
 20
6.039317144
 10
8.4628904727
 20
6.0363155339
 10
8.4638857008
 20
6.0272405358
 10
8.4648803308
 20
6.0123308194
 10
8.4658624711
 20
5.9922453657
 10
8.4668410613
 20
5.9674230532
 10
8.4678231957
 20
5.9382929325
 10
8.4687986367
 20
5.9058833052
 10
8.4697733603
 20
5.8708196174
 10
8.4707560373
 20
5.833619861
 10
8.4727459389
 20
5.7563710689
  0
LWPOLYLINE
  5
55B
100
AcDbEntity
  8
0
100
AcDbPolyline
 62
7
  6
CONTINUOUS
 90
21
 70
0
 10
8.5422977128
 20
5.5817349782
 10
8.5417162451
 20
5.5836571699
 10
8.5407108265
 20
5.5912549761
 10
8.5397054078
 20
5.6040884616
 10
8.5386999891
 20
5.621827915
 10
8.5376945704
 20
5.6440175837
 10
8.5366891517
 20
5.6700873824
 10
8.5356837331
 20
5.6993675393
 10
8.5346783144
 20
5.7311058041
 10
8.5336728957
 20
5.7644867739
 10
8.532667477
 20
5.7986528422
 10
8.5316620584
 20
5.8327262323
 10
8.5306566397
 20
5.8658315485
 10
8.529651221
 20
5.8971182663
 10
8.5286458023
 20
5.9257825839
 10
8.5276403836
 20
5.9510880724
 10
8.526634965
 20
5.9723845967
 10
8.5256295463
 20
5.9891250174
 10
8.5246241276
 20
6.0008792486
 10
8.5236187089
 20
6.0073453066
 10
8.5232489084
 20
6.0083560028
  0
LINE
  5
55C
100
AcDbEntity
  8
0
100
AcDbLine
 62
7
  6
CONTINUOUS
 10
8.4441906334
 20
6.0086312045
 11
8.4434828933
 21
6.0112584309
  0
LWPOLYLINE
  5
55D
100
AcDbEntity
  8
0
100
AcDbPolyline
 62
7
  6
CONTINUOUS
 90
14
 70
0
 10
8.5816677915
 20
5.5817349782
 10
8.5809275736
 20
5.5844991449
 10
8.5799221549
 20
5.5929401434
 10
8.5789167362
 20
5.6065735266
 10
8.5779113175
 20
5.6250490329
 10
8.5769058988
 20
5.6478919991
 10
8.5759004802
 20
5.6745155559
 10
8.5748950615
 20
5.7042357046
 10
8.5738896428
 20
5.7362888908
 10
8.5728842241
 20
5.7698516208
 10
8.5718788055
 20
5.8040616186
 10
8.5708733868
 20
5.8380399787
 10
8.5698679681
 20
5.8709137469
 10
8.5688625494
 20
5.9018383475
  0
LWPOLYLINE
  5
55E
100
AcDbEntity
  8
0
100
AcDbPolyline
 62
7
  6
CONTINUOUS
 90
8
 70
0
 10
8.5688625494
 20
5.9018383475
 10
8.5678571307
 20
5.930019282
 10
8.5668517121
 20
5.9547325405
 10
8.5658462934
 20
5.9753432029
 10
8.5648408747
 20
5.9913217509
 10
8.563835456
 20
6.0022576719
 10
8.5628300374
 20
6.007870006
 10
8.5626189871
 20
6.0083560028
  0
LWPOLYLINE
  5
55F
100
AcDbEntity
  8
0
100
AcDbPolyline
 62
7
  6
CONTINUOUS
 90
8
 70
0
 10
8.551146014
 20
5.9171813173
 10
8.550214359
 20
5.9471717347
 10
8.5492783644
 20
5.973920478
 10
8.5483480853
 20
5.9965594083
 10
8.5474108578
 20
6.0148829189
 10
8.5464640905
 20
6.0284074196
 10
8.5455183488
 20
6.0366083668
 10
8.5448625453
 20
6.0390764043
  0
LWPOLYLINE
  5
560
100
AcDbEntity
  8
0
100
AcDbPolyline
 62
7
  6
CONTINUOUS
 90
15
 70
0
 10
8.5865790849
 20
5.9171813173
 10
8.5875078051
 20
5.8846022187
 10
8.5884384547
 20
5.8499860244
 10
8.589382531
 20
5.8136382208
 10
8.5903319938
 20
5.7766597439
 10
8.5912761969
 20
5.7403024174
 10
8.5922068707
 20
5.7056764398
 10
8.5931350798
 20
5.6731016394
 10
8.5940679925
 20
5.6430543193
 10
8.5950050053
 20
5.6162610295
 10
8.595936087
 20
5.5935890158
 10
8.5968742281
 20
5.5752368394
 10
8.5978216896
 20
5.5616950676
 10
8.5987679818
 20
5.5534852086
 10
8.5994242333
 20
5.5510145767
  0
LWPOLYLINE
  5
561
100
AcDbEntity
  8
0
100
AcDbPolyline
 62
7
  6
CONTINUOUS
 90
11
 70
0
 10
8.5494946413
 20
5.8336796605
 10
8.5514844383
 20
5.7564348942
 10
8.5524670074
 20
5.7192404848
 10
8.5534415109
 20
5.6841863774
 10
8.5544172407
 20
5.651769573
 10
8.5553998001
 20
5.6226312811
 10
8.5563784882
 20
5.5978128414
 10
8.5573605594
 20
5.5777360192
 10
8.5583549428
 20
5.5628370221
 10
8.5593497058
 20
5.553771525
 10
8.5600541546
 20
5.5510145767
  0
LWPOLYLINE
  5
562
100
AcDbEntity
  8
0
100
AcDbPolyline
 62
7
  6
CONTINUOUS
 90
11
 70
0
 10
8.5947928137
 20
5.7563852823
 10
8.5928030206
 20
5.8336299024
 10
8.5918204012
 20
5.8708271484
 10
8.5908458233
 20
5.9058853017
 10
8.5898702524
 20
5.938298851
 10
8.5888878937
 20
5.9674344248
 10
8.5879092627
 20
5.9922557757
 10
8.5869271817
 20
6.0123378226
 10
8.5859326496
 20
6.0272441108
 10
8.5849375538
 20
6.036316527
 10
8.584232624
 20
6.0390764043
  0
LINE
  5
563
100
AcDbEntity
  8
0
100
AcDbLine
 62
7
  6
CONTINUOUS
 10
8.4858074272
 20
5.5510145767
 11
8.5032457514
 21
5.5811846633
  0
LINE
  5
564
100
AcDbEntity
  8
0
100
AcDbLine
 62
7
  6
CONTINUOUS
 10
8.7723628745
 20
6.0317629595
 11
8.7591512632
 21
6.0089063177
  0
LINE
  5
565
100
AcDbEntity
  8
0
100
AcDbLine
 62
7
  6
CONTINUOUS
 10
8.5251775059
 20
5.5510145767
 11
8.5426158301
 21
5.5811846633
  0
LINE
  5
566
100
AcDbEntity
  8
0
100
AcDbLine
 62
7
  6
CONTINUOUS
 10
8.5645475847
 20
5.5510145767
 11
8.5819859089
 21
5.5811846633
  0
LINE
  5
567
100
AcDbEntity
  8
0
100
AcDbLine
 62
7
  6
CONTINUOUS
 10
8.6039176634
 20
5.5510145767
 11
8.6036394523
 21
5.550773837
  0
LINE
  5
568
100
AcDbEntity
  8
0
100
AcDbLine
 62
7
  6
CONTINUOUS
 10
8.6432877421
 20
5.5510145767
 11
8.643009531
 21
5.550773837
  0
LINE
  5
569
100
AcDbEntity
  8
0
100
AcDbLine
 62
7
  6
CONTINUOUS
 10
8.6826578209
 20
5.5510145767
 11
8.6823796098
 21
5.550773837
  0
LINE
  5
56A
100
AcDbEntity
  8
0
100
AcDbLine
 62
7
  6
CONTINUOUS
 10
8.7220278996
 20
5.5510145767
 11
8.7217496885
 21
5.550773837
  0
LINE
  5
56B
100
AcDbEntity
  8
ECAD_LED1A
100
AcDbLine
 62
7
  6
CONTINUOUS
 10
6.9876000822
 20
6.4607727495
 11
7.1075764602
 21
6.4607727495
  0
LINE
  5
56C
100
AcDbEntity
  8
0
100
AcDbLine
 62
7
  6
CONTINUOUS
 10
8.6236027028
 20
6.0390764043
 11
8.6233244917
 21
6.039317144
  0
LINE
  5
56D
100
AcDbEntity
  8
0
100
AcDbLine
 62
7
  6
CONTINUOUS
 10
8.6629727815
 20
6.0390764043
 11
8.6626945704
 21
6.039317144
  0
LINE
  5
56E
100
AcDbEntity
  8
0
100
AcDbLine
 62
7
  6
CONTINUOUS
 10
8.7023428603
 20
6.0390764043
 11
8.7020646492
 21
6.039317144
  0
LINE
  5
56F
100
AcDbEntity
  8
0
100
AcDbLine
 62
7
  6
CONTINUOUS
 10
8.5232489084
 20
6.0083560028
 11
8.5229307908
 21
6.0089063177
  0
LINE
  5
570
100
AcDbEntity
  8
0
100
AcDbLine
 62
7
  6
CONTINUOUS
 10
8.5229307908
 20
6.0089063177
 11
8.5054924666
 21
6.0390764043
  0
LINE
  5
571
100
AcDbEntity
  8
0
100
AcDbLine
 62
7
  6
CONTINUOUS
 10
8.7785181852
 20
5.5817349782
 11
8.7848326047
 21
5.5708114913
  0
LINE
  5
572
100
AcDbEntity
  8
0
100
AcDbLine
 62
7
  6
CONTINUOUS
 10
8.5626189871
 20
6.0083560028
 11
8.5623008695
 21
6.0089063177
  0
LINE
  5
573
100
AcDbEntity
  8
0
100
AcDbLine
 62
7
  6
CONTINUOUS
 10
8.5623008695
 20
6.0089063177
 11
8.5448625453
 21
6.0390764043
  0
LINE
  5
574
100
AcDbEntity
  8
0
100
AcDbLine
 62
7
  6
CONTINUOUS
 10
8.6019890658
 20
6.0083560028
 11
8.6016709483
 21
6.0089063177
  0
LINE
  5
575
100
AcDbEntity
  8
0
100
AcDbLine
 62
7
  6
CONTINUOUS
 10
8.6016709483
 20
6.0089063177
 11
8.584232624
 21
6.0390764043
  0
LWPOLYLINE
  5
576
100
AcDbEntity
  8
0
100
AcDbPolyline
 62
7
  6
CONTINUOUS
 90
8
 70
0
 10
8.6997780277
 20
5.5817349782
 10
8.6995467183
 20
5.5822803378
 10
8.6985446761
 20
5.5879735959
 10
8.697542634
 20
5.5989512401
 10
8.6965405918
 20
5.6149331256
 10
8.6955385497
 20
5.6355114016
 10
8.6945365076
 20
5.6601609193
 10
8.6935344654
 20
5.6882526335
  0
LWPOLYLINE
  5
577
100
AcDbEntity
  8
0
100
AcDbPolyline
 62
7
  6
CONTINUOUS
 90
8
 70
0
 10
8.6823796098
 20
5.550773837
 10
8.6814460227
 20
5.5534801396
 10
8.6805005914
 20
5.5616750622
 10
8.679553936
 20
5.5751936213
 10
8.6786167607
 20
5.5935116984
 10
8.6776862088
 20
5.6161537994
 10
8.6767499316
 20
5.6429086768
 10
8.67581793
 20
5.6729096637
  0
LWPOLYLINE
  5
578
100
AcDbEntity
  8
0
100
AcDbPolyline
 62
7
  6
CONTINUOUS
 90
10
 70
0
 10
8.7217496885
 20
5.550773837
 10
8.7207680044
 20
5.5537655868
 10
8.7197739767
 20
5.5628163278
 10
8.7187800159
 20
5.5776980456
 10
8.7177980448
 20
5.5977614795
 10
8.7168192225
 20
5.622573312
 10
8.7158362159
 20
5.6517174041
 10
8.714860112
 20
5.6841419747
 10
8.7138857553
 20
5.7191876764
 10
8.7129032132
 20
5.7563789963
  0
LWPOLYLINE
  5
579
100
AcDbEntity
  8
0
100
AcDbPolyline
 62
7
  6
CONTINUOUS
 90
10
 70
0
 10
8.643009531
 20
5.550773837
 10
8.6420269959
 20
5.5537707657
 10
8.6410323244
 20
5.5628344059
 10
8.6400379935
 20
5.5777312359
 10
8.6390559344
 20
5.5978063835
 10
8.6380772291
 20
5.6226240006
 10
8.6370946134
 20
5.6517630241
 10
8.6361188398
 20
5.6841806959
 10
8.6351443543
 20
5.7192337582
 10
8.6341617883
 20
5.7564277865
  0
LWPOLYLINE
  5
57A
100
AcDbEntity
  8
0
100
AcDbPolyline
 62
7
  6
CONTINUOUS
 90
10
 70
0
 10
8.5406473263
 20
6.039317144
 10
8.5416295927
 20
6.0363218513
 10
8.5426240491
 20
6.0272624289
 10
8.5436182153
 20
6.0123712903
 10
8.5446002126
 20
5.9923009348
 10
8.5455789648
 20
5.9674853011
 10
8.5465617175
 20
5.9383445782
 10
8.5475375919
 20
5.905925072
 10
8.5485120436
 20
5.8708742502
 10
8.5494946413
 20
5.8336796605
  0
LWPOLYLINE
  5
57B
100
AcDbEntity
  8
0
100
AcDbPolyline
 62
7
  6
CONTINUOUS
 90
10
 70
0
 10
8.5012772476
 20
6.039317144
 10
8.5022602614
 20
6.0363173007
 10
8.5032552664
 20
6.0272467469
 10
8.5042497469
 20
6.0123426221
 10
8.5052318164
 20
5.9922622373
 10
8.5062104653
 20
5.967441689
 10
8.5071928808
 20
5.9383053621
 10
8.5081684928
 20
5.905891038
 10
8.5091430533
 20
5.8708339145
 10
8.5101256701
 20
5.8336370304
  0
LWPOLYLINE
  5
57C
100
AcDbEntity
  8
0
100
AcDbPolyline
 62
7
  6
CONTINUOUS
 90
20
 70
0
 10
8.6210378702
 20
5.5817349782
 10
8.620138902
 20
5.5854762589
 10
8.6191334833
 20
5.5947550318
 10
8.6181280646
 20
5.6091795622
 10
8.6171226459
 20
5.6283792628
 10
8.6161172273
 20
5.6518608649
 10
8.6151118086
 20
5.6790210915
 10
8.6141063899
 20
5.7091621561
 10
8.6131009712
 20
5.7415096904
 10
8.6120955526
 20
5.7752326385
 10
8.6110901339
 20
5.809464608
 10
8.6100847152
 20
5.8433261291
 10
8.6090792965
 20
5.8759472493
 10
8.6080738778
 20
5.9064898838
 10
8.6070684592
 20
5.9341693473
 10
8.6060630405
 20
5.9582745136
 10
8.6050576218
 20
5.9781860852
 10
8.6040522031
 20
5.9933925045
 10
8.6030467845
 20
6.0035030962
 10
8.6019890658
 20
6.0083560028
  0
LWPOLYLINE
  5
57D
100
AcDbEntity
  8
0
100
AcDbPolyline
 62
7
  6
CONTINUOUS
 90
20
 70
0
 10
8.660407949
 20
5.5817349782
 10
8.6593502304
 20
5.5865878848
 10
8.6583448117
 20
5.5966984765
 10
8.657339393
 20
5.6119048958
 10
8.6563339744
 20
5.6318164674
 10
8.6553285557
 20
5.6559216337
 10
8.654323137
 20
5.6836010972
 10
8.6533177183
 20
5.7141437318
 10
8.6523122997
 20
5.7467648519
 10
8.651306881
 20
5.780626373
 10
8.6503014623
 20
5.8148583425
 10
8.6492960436
 20
5.8485812906
 10
8.6482906249
 20
5.8809288249
 10
8.6472852063
 20
5.9110698896
 10
8.6462797876
 20
5.9382301161
 10
8.6452743689
 20
5.9617117182
 10
8.6442689502
 20
5.9809114188
 10
8.6432635316
 20
5.9953359492
 10
8.6422581129
 20
6.0046147221
 10
8.6413591446
 20
6.0083560028
  0
LWPOLYLINE
  5
57E
100
AcDbEntity
  8
0
100
AcDbPolyline
 62
7
  6
CONTINUOUS
 90
14
 70
0
 10
8.6935344654
 20
5.6882526335
 10
8.6925290468
 20
5.7191772342
 10
8.6915236281
 20
5.7520510024
 10
8.6905182094
 20
5.7860293624
 10
8.6895127907
 20
5.8202393602
 10
8.688507372
 20
5.8538020902
 10
8.6875019534
 20
5.8858552764
 10
8.6864965347
 20
5.9155754251
 10
8.685491116
 20
5.9421989819
 10
8.6844856973
 20
5.9650419481
 10
8.6834802787
 20
5.9835174544
 10
8.68247486
 20
5.9971508377
 10
8.6814694413
 20
6.0055918361
 10
8.6807292233
 20
6.0083560028
  0
LWPOLYLINE
  5
57F
100
AcDbEntity
  8
0
100
AcDbPolyline
 62
7
  6
CONTINUOUS
 90
8
 70
0
 10
8.7112510009
 20
5.6729096637
 10
8.7121830024
 20
5.6429086768
 10
8.7131192796
 20
5.6161537994
 10
8.7140498316
 20
5.5935116984
 10
8.7149870069
 20
5.5751936213
 10
8.7159336622
 20
5.5616750622
 10
8.7168790936
 20
5.5534801396
 10
8.7175344696
 20
5.5510145767
  0
LWPOLYLINE
  5
580
100
AcDbEntity
  8
0
100
AcDbPolyline
 62
7
  6
CONTINUOUS
 90
15
 70
0
 10
8.67581793
 20
5.6729096637
 10
8.6748893459
 20
5.7054838247
 10
8.6739588035
 20
5.7400957122
 10
8.6730147766
 20
5.7764413814
 10
8.6720653592
 20
5.8134180925
 10
8.6711211693
 20
5.8497752134
 10
8.6701905285
 20
5.8844005975
 10
8.6692622974
 20
5.9169771013
 10
8.6683297271
 20
5.9470151554
 10
8.667392958
 20
5.9738047562
 10
8.6664620151
 20
5.9964779915
 10
8.6655238256
 20
6.014836474
 10
8.6645761919
 20
6.0283859214
 10
8.6636295255
 20
6.0366029191
 10
8.6629727815
 20
6.0390764043
  0
LWPOLYLINE
  5
581
100
AcDbEntity
  8
0
100
AcDbPolyline
 62
7
  6
CONTINUOUS
 90
11
 70
0
 10
8.6282360914
 20
5.8336299024
 10
8.6302258846
 20
5.7563852823
 10
8.6312084284
 20
5.7191936642
 10
8.6321828022
 20
5.6841469932
 10
8.6331588548
 20
5.6517235831
 10
8.6341418042
 20
5.6225802942
 10
8.6351206084
 20
5.5977677108
 10
8.6361025908
 20
5.5777026663
 10
8.6370966032
 20
5.5628188445
 10
8.6380907215
 20
5.5537663019
 10
8.6387943121
 20
5.5510145767
  0
LWPOLYLINE
  5
582
100
AcDbEntity
  8
0
100
AcDbPolyline
 62
7
  6
CONTINUOUS
 90
11
 70
0
 10
8.6341617883
 20
5.7564277865
 10
8.6321719909
 20
5.8336725719
 10
8.6311893895
 20
5.8708675587
 10
8.6302149192
 20
5.9059194454
 10
8.6292390904
 20
5.9383380243
 10
8.6282563935
 20
5.9674780293
 10
8.627277658
 20
5.9922944938
 10
8.6262956483
 20
6.0123665276
 10
8.6253014292
 20
6.0272598312
 10
8.6243068809
 20
6.0363211038
 10
8.6236027028
 20
6.0390764043
  0
LWPOLYLINE
  5
583
100
AcDbEntity
  8
0
100
AcDbPolyline
 62
7
  6
CONTINUOUS
 90
11
 70
0
 10
8.6676050617
 20
5.8336725719
 10
8.6695948591
 20
5.7564277865
 10
8.6705774252
 20
5.7192337582
 10
8.6715519107
 20
5.6841806959
 10
8.6725276843
 20
5.6517630241
 10
8.6735103
 20
5.6226240006
 10
8.6744890052
 20
5.5978063835
 10
8.6754710643
 20
5.5777312359
 10
8.6764653953
 20
5.5628344059
 10
8.6774600667
 20
5.5537707657
 10
8.6781643908
 20
5.5510145767
  0
LINE
  5
584
100
AcDbEntity
  8
0
100
AcDbLine
 62
7
  6
CONTINUOUS
 10
8.6039176634
 20
5.5510145767
 11
8.6213559876
 21
5.5811846633
  0
LINE
  5
585
100
AcDbEntity
  8
0
100
AcDbLine
 62
7
  6
CONTINUOUS
 10
8.6432877421
 20
5.5510145767
 11
8.6607260664
 21
5.5811846633
  0
LINE
  5
586
100
AcDbEntity
  8
0
100
AcDbLine
 62
7
  6
CONTINUOUS
 10
8.6826578209
 20
5.5510145767
 11
8.7000961451
 21
5.5811846633
  0
LINE
  5
587
100
AcDbEntity
  8
0
100
AcDbLine
 62
7
  6
CONTINUOUS
 10
8.8004898698
 20
5.586206884
 11
8.7850244977
 21
5.5707415083
  0
LINE
  5
588
100
AcDbEntity
  8
ECAD_LED1A
100
AcDbLine
 62
7
  6
CONTINUOUS
 10
6.9876000822
 20
6.5884553184
 11
7.1075764602
 21
6.5884553184
  0
LINE
  5
589
100
AcDbEntity
  8
ECAD_LED1A
100
AcDbLine
 62
7
  6
CONTINUOUS
 10
6.9876000822
 20
6.6334707274
 11
7.1075764602
 21
6.6334707274
  0
LINE
  5
58A
100
AcDbEntity
  8
0
100
AcDbLine
 62
7
  6
CONTINUOUS
 10
8.7414347279
 20
6.039317144
 11
8.741712939
 21
6.0390764043
  0
LINE
  5
58B
100
AcDbEntity
  8
0
100
AcDbLine
 62
7
  6
CONTINUOUS
 10
8.8004898698
 20
6.003884097
 11
8.7725446838
 21
6.0318292894
  0
LINE
  5
58C
100
AcDbEntity
  8
0
100
AcDbLine
 62
7
  6
CONTINUOUS
 10
8.6413591446
 20
6.0083560028
 11
8.641041027
 21
6.0089063177
  0
LINE
  5
58D
100
AcDbEntity
  8
0
100
AcDbLine
 62
7
  6
CONTINUOUS
 10
8.641041027
 20
6.0089063177
 11
8.6236027028
 21
6.0390764043
  0
LINE
  5
58E
100
AcDbEntity
  8
0
100
AcDbLine
 62
7
  6
CONTINUOUS
 10
8.6807292233
 20
6.0083560028
 11
8.6804111057
 21
6.0089063177
  0
LINE
  5
58F
100
AcDbEntity
  8
0
100
AcDbLine
 62
7
  6
CONTINUOUS
 10
8.6804111057
 20
6.0089063177
 11
8.6629727815
 21
6.0390764043
  0
LWPOLYLINE
  5
590
100
AcDbEntity
  8
0
100
AcDbPolyline
 62
7
  6
CONTINUOUS
 90
8
 70
0
 10
8.5800174051
 20
6.039317144
 10
8.5809514197
 20
6.0366083668
 10
8.5818971614
 20
6.0284074196
 10
8.5828439286
 20
6.0148829189
 10
8.5837811562
 20
5.9965594083
 10
8.5847114353
 20
5.973920478
 10
8.5856474298
 20
5.9471717347
 10
8.5865790849
 20
5.9171813173
  0
LWPOLYLINE
  5
591
100
AcDbEntity
  8
0
100
AcDbPolyline
 62
7
  6
CONTINUOUS
 90
22
 70
0
 10
8.7569045483
 20
5.5510145767
 10
8.7565050972
 20
5.5522009995
 10
8.7555547234
 20
5.5589727007
 10
8.7546043497
 20
5.571164775
 10
8.7536539905
 20
5.5884969833
 10
8.7527036408
 20
5.6105712821
 10
8.75175329
 20
5.6368810398
 10
8.7508029414
 20
5.6668221019
 10
8.7498525988
 20
5.6997068782
 10
8.7489022527
 20
5.7347806726
 10
8.7479518925
 20
5.771238655
 10
8.7470015168
 20
5.8082438423
 10
8.7460511405
 20
5.844946009
 10
8.7451007802
 20
5.8805018403
 10
8.7441504301
 20
5.9140952497
 10
8.7432000755
 20
5.9449554791
 10
8.742249706
 20
5.9723742226
 10
8.74129934
 20
5.9957213487
 10
8.7403489621
 20
6.0144611159
 10
8.7393985476
 20
6.0281633504
 10
8.738448121
 20
6.0365126712
 10
8.73749772
 20
6.039317144
  0
LWPOLYLINE
  5
592
100
AcDbEntity
  8
0
100
AcDbPolyline
 62
7
  6
CONTINUOUS
 90
10
 70
0
 10
8.6587575625
 20
6.039317144
 10
8.6597399518
 20
6.0363211038
 10
8.6607345
 20
6.0272598312
 10
8.6617287191
 20
6.0123665276
 10
8.6627107289
 20
5.9922944938
 10
8.6636894643
 20
5.9674780293
 10
8.6646721613
 20
5.9383380243
 10
8.6656479901
 20
5.9059194454
 10
8.6666224604
 20
5.8708675587
 10
8.6676050617
 20
5.8336725719
  0
LWPOLYLINE
  5
593
100
AcDbEntity
  8
0
100
AcDbPolyline
 62
7
  6
CONTINUOUS
 90
10
 70
0
 10
8.6193874838
 20
6.039317144
 10
8.6203706246
 20
6.036316527
 10
8.6213657205
 20
6.0272441108
 10
8.6223602526
 20
6.0123378226
 10
8.6233423336
 20
5.9922557757
 10
8.6243209646
 20
5.9674344248
 10
8.6253033232
 20
5.938298851
 10
8.6262788942
 20
5.9058853017
 10
8.627253472
 20
5.8708271484
 10
8.6282360914
 20
5.8336299024
  0
LWPOLYLINE
  5
594
100
AcDbEntity
  8
0
100
AcDbPolyline
 62
7
  6
CONTINUOUS
 90
11
 70
0
 10
8.7391481065
 20
5.5817349782
 10
8.7386263616
 20
5.583375511
 10
8.7376243194
 20
5.5906214346
 10
8.7366222773
 20
5.6030841726
 10
8.7356202352
 20
5.6204456813
 10
8.734618193
 20
5.6422629024
 10
8.7336161509
 20
5.6679790697
 10
8.7326141088
 20
5.6969379177
 10
8.7316120666
 20
5.728400429
 10
8.7306100245
 20
5.7615636937
 10
8.7286059402
 20
5.8295854292
  0
LWPOLYLINE
  5
595
100
AcDbEntity
  8
0
100
AcDbPolyline
 62
7
  6
CONTINUOUS
 90
21
 70
0
 10
8.7785181852
 20
5.5817349782
 10
8.7777060049
 20
5.5849253663
 10
8.7767039628
 20
5.5937083907
 10
8.7757019206
 20
5.6076294516
 10
8.7746998785
 20
5.6263332897
 10
8.7736978364
 20
5.6493425909
 10
8.7726957942
 20
5.6760701677
 10
8.7716937521
 20
5.7058339439
 10
8.77069171
 20
5.7378743605
 10
8.7696896678
 20
5.7713737599
 10
8.7686876257
 20
5.8054772518
 10
8.7676855835
 20
5.8393145296
 10
8.7666835414
 20
5.8720220804
 10
8.7656814993
 20
5.9027652216
 10
8.7646794571
 20
5.9307594014
 10
8.763677415
 20
5.9552902202
 10
8.7626753729
 20
5.9757316622
 10
8.7616733307
 20
5.9915620703
 10
8.7606712886
 20
6.0023774595
 10
8.7596692464
 20
6.0079018255
 10
8.7594693808
 20
6.0083560028
  0
LWPOLYLINE
  5
596
100
AcDbEntity
  8
0
100
AcDbPolyline
 62
7
  6
CONTINUOUS
 90
10
 70
0
 10
8.7286059402
 20
5.8295854292
 10
8.7276038981
 20
5.8627080144
 10
8.7266018559
 20
5.894103881
 10
8.7255998138
 20
5.9229718198
 10
8.7245977717
 20
5.9485751335
 10
8.7235957295
 20
5.9702604364
 10
8.7225936874
 20
5.9874743289
 10
8.7215916453
 20
5.9997775197
 10
8.7205896031
 20
6.0068560369
 10
8.7200993021
 20
6.0083560028
  0
LWPOLYLINE
  5
597
100
AcDbEntity
  8
0
100
AcDbPolyline
 62
7
  6
CONTINUOUS
 90
11
 70
0
 10
8.7129032132
 20
5.7563789963
 10
8.7109134176
 20
5.8336237145
 10
8.709930794
 20
5.8708213455
 10
8.7089561966
 20
5.90588054
 10
8.7079806636
 20
5.9382933247
 10
8.7069983596
 20
5.9674280802
 10
8.7060197448
 20
5.9922501191
 10
8.7050376525
 20
6.0123336459
 10
8.7040430747
 20
6.0272418247
 10
8.7030479001
 20
6.0363158563
 10
8.7023428603
 20
6.0390764043
  0
LINE
  5
598
100
AcDbEntity
  8
0
100
AcDbLine
 62
7
  6
CONTINUOUS
 10
8.800489846
 20
5.5862069078
 11
8.800489846
 21
6.0038840732
  0
LINE
  5
599
100
AcDbEntity
  8
0
100
AcDbLine
 62
7
  6
CONTINUOUS
 10
8.7220278996
 20
5.5510145767
 11
8.7394662238
 21
5.5811846633
  0
LINE
  5
59A
100
AcDbEntity
  8
0
100
AcDbLine
 62
7
  6
CONTINUOUS
 10
8.7613979784
 20
5.5510145767
 11
8.7788363026
 21
5.5811846633
  0
LINE
  5
59B
100
AcDbEntity
  8
0
100
AcDbLine
 62
7
  6
CONTINUOUS
 10
8.7200993021
 20
6.0083560028
 11
8.7197811845
 21
6.0089063177
  0
LINE
  5
59C
100
AcDbEntity
  8
0
100
AcDbLine
 62
7
  6
CONTINUOUS
 10
8.7197811845
 20
6.0089063177
 11
8.7023428603
 21
6.0390764043
  0
LINE
  5
59D
100
AcDbEntity
  8
0
100
AcDbLine
 62
7
  6
CONTINUOUS
 10
8.7594693808
 20
6.0083560028
 11
8.7591512632
 21
6.0089063177
  0
LINE
  5
59E
100
AcDbEntity
  8
0
100
AcDbLine
 62
7
  6
CONTINUOUS
 10
8.7591512632
 20
6.0089063177
 11
8.741712939
 21
6.0390764043
  0
LWPOLYLINE
  5
59F
100
AcDbEntity
  8
0
100
AcDbPolyline
 62
7
  6
CONTINUOUS
 90
15
 70
0
 10
8.6981276413
 20
6.039317144
 10
8.6990625964
 20
6.0366029191
 10
8.7000092628
 20
6.0283859214
 10
8.7009568965
 20
6.014836474
 10
8.701895086
 20
5.9964779915
 10
8.7028260288
 20
5.9738047562
 10
8.7037627979
 20
5.9470151554
 10
8.7046953682
 20
5.9169771013
 10
8.7056235993
 20
5.8844005975
 10
8.7065542402
 20
5.8497752134
 10
8.7074984301
 20
5.8134180925
 10
8.7084478475
 20
5.7764413814
 10
8.7093918744
 20
5.7400957122
 10
8.7103224167
 20
5.7054838247
 10
8.7112510009
 20
5.6729096637
  0
LWPOLYLINE
  5
5A0
100
AcDbEntity
  8
0
100
AcDbPolyline
 62
7
  6
CONTINUOUS
 90
22
 70
0
 10
8.741712939
 20
6.0390764043
 10
8.7423797009
 20
6.0365445535
 10
8.7433246975
 20
6.0282894487
 10
8.7442696804
 20
6.0147394702
 10
8.7452146266
 20
5.9962029511
 10
8.7461595604
 20
5.9731005731
 10
8.7471044965
 20
5.9459564506
 10
8.748049418
 20
5.9153872789
 10
8.7489943338
 20
5.8820867485
 10
8.7499392578
 20
5.8468102303
 10
8.7508841957
 20
5.8103581865
 10
8.751829135
 20
5.7735585068
 10
8.7527740626
 20
5.7372470059
 10
8.7537189767
 20
5.7022479411
 10
8.754663886
 20
5.6693553638
 10
8.7556088006
 20
5.6393155187
 10
8.7565537214
 20
5.6128102814
 10
8.7574986411
 20
5.5904415149
 10
8.7584435708
 20
5.5727167508
 10
8.7593885234
 20
5.5600383419
 10
8.7603334827
 20
5.5526945379
 10
8.7611197859
 20
5.550773837
  0
LWPOLYLINE
  5
5A1
100
AcDbEntity
  8
0
100
AcDbPolyline
 62
7
  6
CONTINUOUS
 90
21
 70
0
 10
8.7725446838
 20
6.0318292894
 10
8.7731636441
 20
6.0283493448
 10
8.7737906547
 20
6.0190920854
 10
8.7744178748
 20
6.004319641
 10
8.775037915
 20
5.9846851919
 10
8.7756559564
 20
5.9606376013
 10
8.7762770526
 20
5.9325784973
 10
8.7768943048
 20
5.9015220552
 10
8.7775110736
 20
5.8680967576
 10
8.7781330086
 20
5.8327975902
 10
8.7787634153
 20
5.796274533
 10
8.7793944549
 20
5.7598837197
 10
8.780018355
 20
5.7249657375
 10
8.780637137
 20
5.692219472
 10
8.7812571347
 20
5.6620786038
 10
8.7818820031
 20
5.6351317315
 10
8.7825049318
 20
5.612336789
 10
8.7831300457
 20
5.5940855627
 10
8.783763514
 20
5.5807497566
 10
8.784397668
 20
5.5729091539
 10
8.7848326047
 20
5.5708114913
  0
LINE
  5
5A2
100
AcDbEntity
  8
0
100
AcDbLine
 62
7
  6
CONTINUOUS
 10
8.8398599247
 20
5.998785648
 11
8.8398599247
 21
5.591305333
  0
LINE
  5
5A3
100
AcDbEntity
  8
02___PRT_ALL_AXES
100
AcDbLine
 62
7
  6
CONTINUOUS
 10
7.1075764602
 20
6.779297459
 11
7.5800174051
 21
6.779297459
  0
LINE
  5
5A4
100
AcDbEntity
  8
0
100
AcDbLine
 62
9
  6
CONTINUOUS
 10
11.6608269888
 20
5.2143368291
 11
11.8755654163
 21
5.2143368291
  0
LWPOLYLINE
  5
5A5
100
AcDbEntity
  8
02___PRT_ALL_AXES
100
AcDbPolyline
 62
7
  6
CONTINUOUS
 90
16
 70
0
 10
11.5422122935
 20
5.2537069078
 10
11.460494466
 20
5.2956099796
 10
11.3863178563
 20
5.3497533202
 10
11.3215004002
 20
5.4148099735
 10
11.2676306572
 20
5.4891855176
 10
11.2260288782
 20
5.5710571411
 10
11.1977146482
 20
5.6584183175
 10
11.1833818982
 20
5.7491279809
 10
11.1833818982
 20
5.8409630001
 10
11.1977146482
 20
5.9316726635
 10
11.2260288782
 20
6.0190338399
 10
11.2676306572
 20
6.1009054635
 10
11.3215004002
 20
6.1752810075
 10
11.3863178563
 20
6.2403376608
 10
11.460494466
 20
6.2944810014
 10
11.5422122935
 20
6.3363840732
  0
LINE
  5
5A6
100
AcDbEntity
  8
02___PRT_ALL_AXES
100
AcDbLine
 62
7
  6
CONTINUOUS
 10
11.5422122935
 20
5.2537069078
 11
11.6644988231
 21
5.2537069078
  0
LINE
  5
5A7
100
AcDbEntity
  8
0
100
AcDbLine
 62
7
  6
CONTINUOUS
 10
11.6644988231
 20
5.2537069078
 11
11.871893582
 21
5.2537069078
  0
LINE
  5
5A8
100
AcDbEntity
  8
02___PRT_ALL_AXES
100
AcDbLine
 62
7
  6
CONTINUOUS
 10
11.871893582
 20
5.2537069078
 11
11.9941801116
 21
5.2537069078
  0
LINE
  5
5A9
100
AcDbEntity
  8
0
100
AcDbLine
 62
9
  6
CONTINUOUS
 10
11.6683055375
 20
5.2930769866
 11
11.8680868675
 21
5.2930769866
  0
LWPOLYLINE
  5
5AA
100
AcDbEntity
  8
0
100
AcDbPolyline
 62
7
  6
CONTINUOUS
 90
20
 70
0
 10
11.7789652661
 20
5.3597910672
 10
11.7094310444
 20
5.3668439814
 10
11.6423511613
 20
5.3848780483
 10
11.5791463925
 20
5.4134664825
 10
11.5220545873
 20
5.4514525127
 10
11.471839482
 20
5.4982080284
 10
11.4302841999
 20
5.5519839285
 10
11.3981939476
 20
5.6114696267
 10
11.3763041422
 20
5.6751711782
 10
11.3652170219
 20
5.7408943113
 10
11.3650236791
 20
5.8074768848
 10
11.375643299
 20
5.8725580309
 10
11.3966961068
 20
5.9347210756
 10
11.4275270798
 20
5.9922649367
 10
11.4670892052
 20
6.04351329
 10
11.5143791822
 20
6.0873461217
 10
11.5678710323
 20
6.1224789537
 10
11.6259903903
 20
6.1480611947
 10
11.6872532583
 20
6.1635596696
 10
11.7496997325
 20
6.1686035989
  0
LWPOLYLINE
  5
5AB
100
AcDbEntity
  8
0
100
AcDbPolyline
 62
7
  6
CONTINUOUS
 90
19
 70
0
 10
11.7681962025
 20
5.5707415083
 10
11.80137117
 20
5.5738062514
 10
11.8340530058
 20
5.5818727825
 10
11.8651121414
 20
5.5947464839
 10
11.8935106079
 20
5.6118927417
 10
11.9188659574
 20
5.6329178821
 10
11.9408613099
 20
5.6575280045
 10
11.9588311068
 20
5.684945599
 10
11.9724630216
 20
5.7145496194
 10
11.9815777782
 20
5.7459225585
 10
11.9859409262
 20
5.7786235496
 10
11.9853135839
 20
5.8117500765
 10
11.9797379101
 20
5.8441165163
 10
11.9695145668
 20
5.8748648945
 10
11.9549306341
 20
5.9035561913
 10
11.9362012174
 20
5.9298126967
 10
11.913708958
 20
5.9530231467
 10
11.8881306273
 20
5.9725025328
 10
11.8598352804
 20
5.9879732922
  0
LWPOLYLINE
  5
5AC
100
AcDbEntity
  8
0
100
AcDbPolyline
 62
7
  6
CONTINUOUS
 90
4
 70
0
 10
11.6652177998
 20
6.328835443
 10
11.6660548102
 20
6.3201137237
 10
11.6671170283
 20
6.3091478034
 10
11.6683055375
 20
6.2970139944
  0
LWPOLYLINE
  5
5AD
100
AcDbEntity
  8
0
100
AcDbPolyline
 62
7
  6
CONTINUOUS
 90
6
 70
0
 10
11.6608269888
 20
6.3757541519
 10
11.6619456415
 20
6.3636146625
 10
11.6629664497
 20
6.3526479157
 10
11.6637851761
 20
6.3439286822
 10
11.6643152426
 20
6.3383199255
 10
11.6652177998
 20
6.328835443
  0
LINE
  5
5AE
100
AcDbEntity
  8
02___PRT_ALL_AXES
100
AcDbLine
 62
7
  6
CENTER
 10
11.7681962025
 20
5.7950454905
 11
11.7681962025
 21
4.710793522
  0
LINE
  5
5AF
100
AcDbEntity
  8
02___PRT_ALL_AXES
100
AcDbLine
 62
7
  6
CENTER
 10
11.7681962025
 20
5.7950454905
 11
11.7681962025
 21
6.879297459
  0
LWPOLYLINE
  5
5B0
100
AcDbEntity
  8
0
100
AcDbPolyline
 62
7
  6
CONTINUOUS
 90
4
 70
0
 10
11.6637851761
 20
5.2461622988
 10
11.6629664497
 20
5.2374430653
 10
11.6619456415
 20
5.2264763185
 10
11.6608269888
 20
5.2143368291
  0
LWPOLYLINE
  5
5B1
100
AcDbEntity
  8
0
100
AcDbPolyline
 62
7
  6
CONTINUOUS
 90
6
 70
0
 10
11.6637851761
 20
5.2461622988
 10
11.6646828403
 20
5.2556439293
 10
11.6652177998
 20
5.261255538
 10
11.6660548102
 20
5.2699772573
 10
11.6671170283
 20
5.2809431776
 10
11.6683055375
 20
5.2930769866
  0
LINE
  5
5B2
100
AcDbEntity
  8
02___PRT_ALL_AXES
100
AcDbLine
 62
7
  6
CENTER
 10
11.7681962025
 20
5.7950454905
 11
10.683944234
 21
5.7950454905
  0
LINE
  5
5B3
100
AcDbEntity
  8
02___PRT_ALL_AXES
100
AcDbLine
 62
7
  6
CENTER
 10
11.7681962025
 20
5.7950454905
 11
12.852448171
 21
5.7950454905
  0
LINE
  5
5B4
100
AcDbEntity
  8
AXIS_COSMETIC_THREADS
100
AcDbLine
 62
7
  6
CONTINUOUS
 10
11.8336174992
 20
5.6962175742
 11
11.8657095398
 21
5.6641255336
  0
LWPOLYLINE
  5
5B5
100
AcDbEntity
  8
0
100
AcDbPolyline
 62
7
  6
CONTINUOUS
 90
4
 70
0
 10
11.8711746052
 20
5.261255538
 10
11.8703375949
 20
5.2699772573
 10
11.8692753768
 20
5.2809431776
 10
11.8680868675
 20
5.2930769866
  0
LWPOLYLINE
  5
5B6
100
AcDbEntity
  8
0
100
AcDbPolyline
 62
7
  6
CONTINUOUS
 90
6
 70
0
 10
11.8711746052
 20
5.261255538
 10
11.8720771625
 20
5.2517710555
 10
11.8726072289
 20
5.2461622988
 10
11.8734259554
 20
5.2374430653
 10
11.8744467636
 20
5.2264763185
 10
11.8755654163
 20
5.2143368291
  0
LWPOLYLINE
  5
5B7
100
AcDbEntity
  8
0
100
AcDbPolyline
 62
7
  6
CONTINUOUS
 90
4
 70
0
 10
11.8726072289
 20
6.3439286822
 10
11.8734259554
 20
6.3526479157
 10
11.8744467636
 20
6.3636146625
 10
11.8755654163
 20
6.3757541519
  0
LWPOLYLINE
  5
5B8
100
AcDbEntity
  8
0
100
AcDbPolyline
 62
7
  6
CONTINUOUS
 90
6
 70
0
 10
11.8726072289
 20
6.3439286822
 10
11.8717095648
 20
6.3344470517
 10
11.8711746052
 20
6.328835443
 10
11.8703375949
 20
6.3201137237
 10
11.8692753768
 20
6.3091478034
 10
11.8680868675
 20
6.2970139944
  0
LINE
  5
5B9
100
AcDbEntity
  8
AXIS_COSMETIC_THREADS
100
AcDbLine
 62
7
  6
CONTINUOUS
 10
11.8992168935
 20
5.6974314191
 11
11.8670241188
 21
5.7296241938
  0
LINE
  5
5BA
100
AcDbEntity
  8
AXIS_COSMETIC_THREADS
100
AcDbLine
 62
7
  6
CONTINUOUS
 10
11.8670241188
 20
5.7296241938
 11
11.8336174992
 21
5.6962175742
  0
LWPOLYLINE
  5
5BB
100
AcDbEntity
  8
0
100
AcDbPolyline
 62
7
  6
CONTINUOUS
 90
13
 70
0
 10
12.0005130217
 20
5.7195634643
 10
12.0088130287
 20
5.7567114002
 10
12.0112189852
 20
5.7951016545
 10
12.0075503721
 20
5.8333129535
 10
11.9980725884
 20
5.8699503343
 10
11.9831768729
 20
5.904312989
 10
11.9631467852
 20
5.9359448364
 10
11.938311146
 20
5.964219957
 10
11.9095439083
 20
5.9881321467
 10
11.8773652422
 20
6.0072858474
 10
11.8422131287
 20
6.0212853084
 10
11.8053548271
 20
6.0295275892
 10
11.7681962025
 20
6.0318292894
  0
LWPOLYLINE
  5
5BC
100
AcDbEntity
  8
0
100
AcDbPolyline
 62
7
  6
CONTINUOUS
 90
21
 70
0
 10
11.7681962025
 20
6.0318292894
 10
11.7315472941
 20
6.0283493448
 10
11.695524395
 20
6.0190920854
 10
11.6614848001
 20
6.004319641
 10
11.6306140326
 20
5.9846851919
 10
11.6033262475
 20
5.9606376013
 10
11.5800535952
 20
5.9325784973
 10
11.561584519
 20
5.9015220552
 10
11.5481897867
 20
5.8680967576
 10
11.5401038405
 20
5.8327975902
 10
11.5376344123
 20
5.796274533
 10
11.5409665691
 20
5.7598837197
 10
11.5498571036
 20
5.7249657375
 10
11.5639254492
 20
5.692219472
 10
11.5828955121
 20
5.6620786038
 10
11.6064572468
 20
5.6351317315
 10
11.6337846978
 20
5.612336789
 10
11.6643653823
 20
5.5940855627
 10
11.6977910011
 20
5.5807497566
 10
11.7328505079
 20
5.5729091539
 10
11.7681962025
 20
5.5707415083
  0
LWPOLYLINE
  5
5BD
100
AcDbEntity
  8
0
100
AcDbPolyline
 62
7
  6
CONTINUOUS
 90
15
 70
0
 10
11.8598352804
 20
5.9879732922
 10
11.8887384864
 20
5.9740383669
 10
11.9155212307
 20
5.9557457391
 10
11.939551675
 20
5.9333873238
 10
11.9600517503
 20
5.907598383
 10
11.9765517057
 20
5.8789692849
 10
11.9887736118
 20
5.8478695971
 10
11.9963782992
 20
5.8146889438
 10
11.9989707798
 20
5.780242462
 10
11.9963810654
 20
5.7457190739
 10
11.9887542303
 20
5.7121242583
 10
11.9762912191
 20
5.6799833906
 10
11.9590849107
 20
5.6496596523
 10
11.9373826204
 20
5.621850831
 10
11.9117772355
 20
5.5974268484
  0
LWPOLYLINE
  5
5BE
100
AcDbEntity
  8
0
100
AcDbPolyline
 62
7
  6
CONTINUOUS
 90
20
 70
0
 10
11.7681962025
 20
6.1690612385
 10
11.8308594559
 20
6.1671066534
 10
11.8929664169
 20
6.1546049619
 10
11.9521718503
 20
6.1319426048
 10
12.0074728477
 20
6.0993813039
 10
12.0566788797
 20
6.058068637
 10
12.0988072314
 20
6.0087154388
 10
12.1324226154
 20
5.9527431869
 10
12.1564552425
 20
5.8918110718
 10
12.1702933228
 20
5.8271475666
 10
12.1733615043
 20
5.7609236497
 10
12.1655043607
 20
5.6945370948
 10
12.1468044313
 20
5.6299401703
 10
12.1177178361
 20
5.5689971476
 10
12.0788066891
 20
5.5131504311
 10
12.0311459335
 20
5.464148014
 10
11.9758984241
 20
5.4232908071
 10
11.9142649308
 20
5.3916421495
 10
11.8482109318
 20
5.3703083415
 10
11.7789652661
 20
5.3597910672
  0
LINE
  5
5BF
100
AcDbEntity
  8
0
100
AcDbLine
 62
9
  6
CONTINUOUS
 10
11.8680868675
 20
6.2970139944
 11
11.6683055375
 21
6.2970139944
  0
LINE
  5
5C0
100
AcDbEntity
  8
02___PRT_ALL_AXES
100
AcDbLine
 62
7
  6
CONTINUOUS
 10
11.9941801116
 20
6.3363840732
 11
11.871893582
 21
6.3363840732
  0
LINE
  5
5C1
100
AcDbEntity
  8
0
100
AcDbLine
 62
7
  6
CONTINUOUS
 10
11.871893582
 20
6.3363840732
 11
11.6644988231
 21
6.3363840732
  0
LINE
  5
5C2
100
AcDbEntity
  8
02___PRT_ALL_AXES
100
AcDbLine
 62
7
  6
CONTINUOUS
 10
11.6644988231
 20
6.3363840732
 11
11.5422122935
 21
6.3363840732
  0
LINE
  5
5C3
100
AcDbEntity
  8
0
100
AcDbLine
 62
9
  6
CONTINUOUS
 10
11.8755654163
 20
6.3757541519
 11
11.6608269888
 21
6.3757541519
  0
LWPOLYLINE
  5
5C4
100
AcDbEntity
  8
02___PRT_ALL_AXES
100
AcDbPolyline
 62
7
  6
CONTINUOUS
 90
16
 70
0
 10
11.9941801116
 20
6.3363840732
 10
12.0758979391
 20
6.2944810014
 10
12.1500745488
 20
6.2403376608
 10
12.2148920049
 20
6.1752810075
 10
12.2687617479
 20
6.1009054635
 10
12.3103635269
 20
6.0190338399
 10
12.3386777569
 20
5.9316726635
 10
12.3530105069
 20
5.8409630001
 10
12.3530105069
 20
5.7491279809
 10
12.3386777569
 20
5.6584183175
 10
12.3103635269
 20
5.5710571411
 10
12.2687617479
 20
5.4891855176
 10
12.2148920049
 20
5.4148099735
 10
12.1500745488
 20
5.3497533202
 10
12.0758979391
 20
5.2956099796
 10
11.9941801116
 20
5.2537069078
  0
LWPOLYLINE
  5
5C5
100
AcDbEntity
  8
AXIS
100
AcDbPolyline
 62
7
  6
CONTINUOUS
 90
5
 70
0
 10
13.9750935922
 20
9.0413562697
 10
13.9290962083
 20
8.9832056133
 10
13.8923021029
 20
8.9108582242
 10
13.8737161438
 20
8.8362240641
 10
13.8713931035
 20
8.7985254649
  0
LWPOLYLINE
  5
5C6
100
AcDbEntity
  8
0
100
AcDbPolyline
 62
7
  6
CONTINUOUS
 90
4
 70
0
 10
13.9749528483
 20
9.0407172096
 10
13.9598929889
 20
9.0252379042
 10
13.9140472283
 20
8.9579841759
 10
13.88451823
 20
8.88772825
  0
LWPOLYLINE
  5
5C7
100
AcDbEntity
  8
02___PRT_ALL_AXES
100
AcDbPolyline
 62
7
  6
CONTINUOUS
 90
9
 70
0
 10
14.1100239464
 20
9.2261699385
 10
14.0514749074
 20
9.1923668368
 10
13.980484166
 20
9.1405312241
 10
13.9203966317
 20
9.0842879283
 10
13.8720248854
 20
9.0243975435
 10
13.8360230719
 20
8.9616699845
 10
13.8128780541
 20
8.8969535338
 10
13.8029028285
 20
8.8311233704
 10
13.8024889349
 20
8.8146123427
  0
LWPOLYLINE
  5
5C8
100
AcDbEntity
  8
ECAD_LED1A
100
AcDbPolyline
 62
7
  6
CONTINUOUS
 90
17
 70
0
 10
14.3132596689
 20
9.3480692
 10
14.3253393059
 20
9.353982307
 10
14.3378990709
 20
9.3581387368
 10
14.3501531367
 20
9.3604815876
 10
14.3619718125
 20
9.3612542776
 10
14.3734610761
 20
9.3606401705
 10
14.3846215782
 20
9.3587309131
 10
14.3956328404
 20
9.3555011734
 10
14.4068456742
 20
9.3506853494
 10
14.4174773179
 20
9.3444510573
 10
14.4278070934
 20
9.3364431978
 10
14.4373938679
 20
9.3266601266
 10
14.445197369
 20
9.3161598979
 10
14.4517885779
 20
9.3041834252
 10
14.4567294381
 20
9.2911687286
 10
14.4597854704
 20
9.2775821992
 10
14.4608972438
 20
9.2628303519
  0
LWPOLYLINE
  5
5C9
100
AcDbEntity
  8
ECAD_LED1A
100
AcDbPolyline
 62
7
  6
CONTINUOUS
 90
17
 70
0
 10
14.1315338413
 20
9.2431505341
 10
14.1436134783
 20
9.2490636411
 10
14.1561732433
 20
9.2532200709
 10
14.1684273091
 20
9.2555629217
 10
14.1802459849
 20
9.2563356117
 10
14.1917352485
 20
9.2557215046
 10
14.2028957506
 20
9.2538122472
 10
14.2139070128
 20
9.2505825075
 10
14.2251198466
 20
9.2457666835
 10
14.2357514903
 20
9.2395323914
 10
14.2460812658
 20
9.2315245319
 10
14.2556680403
 20
9.2217414607
 10
14.2634715414
 20
9.211241232
 10
14.2700627504
 20
9.1992647593
 10
14.2750036105
 20
9.1862500627
 10
14.2780596428
 20
9.1726635333
 10
14.2791714163
 20
9.157911686
  0
LWPOLYLINE
  5
5CA
100
AcDbEntity
  8
0
100
AcDbPolyline
 62
9
  6
CONTINUOUS
 90
8
 70
0
 10
13.80248656
 20
8.42884917
 10
13.8029579519
 20
8.411264252
 10
13.8161871116
 20
8.3343661574
 10
13.8475466667
 20
8.2588804413
 10
13.8956319176
 20
8.1875499428
 10
13.9564352357
 20
8.1237041812
 10
14.0239190992
 20
8.0697542916
 10
14.0907701848
 20
8.0270340579
  0
LINE
  5
5CB
100
AcDbEntity
  8
02___PRT_ALL_AXES
100
AcDbLine
 62
7
  6
CONTINUOUS
 10
13.80248656
 20
8.8145983434
 11
13.80248656
 21
8.42884917
  0
LWPOLYLINE
  5
5CC
100
AcDbEntity
  8
0
100
AcDbPolyline
 62
7
  6
CONTINUOUS
 90
3
 70
0
 10
13.88451823
 20
8.88772825
 10
13.871879144
 20
8.815902056
 10
13.8713841978
 20
8.7985237982
  0
LWPOLYLINE
  5
5CD
100
AcDbEntity
  8
ECAD_LED1A
100
AcDbPolyline
 62
7
  6
CONTINUOUS
 90
20
 70
0
 10
13.9823609218
 20
9.0647485375
 10
13.9898478956
 20
9.0780645949
 10
13.9998801383
 20
9.0906794074
 10
14.013552089
 20
9.1027707083
 10
14.0276655681
 20
9.1113697769
 10
14.0413380073
 20
9.116958837
 10
14.0546545244
 20
9.1202627234
 10
14.0673174519
 20
9.1216444207
 10
14.0794210078
 20
9.1214313093
 10
14.0910986333
 20
9.1197966729
 10
14.1028150305
 20
9.1166716756
 10
14.1137714726
 20
9.1122660691
 10
14.1249913366
 20
9.1060253
 10
14.1355875989
 20
9.098135262
 10
14.1452733845
 20
9.088625818
 10
14.1533596303
 20
9.0781720305
 10
14.1607060235
 20
9.0652035815
 10
14.1655883634
 20
9.0526600717
 10
14.1688730719
 20
9.0385852205
 10
14.1700649689
 20
9.0233141765
  0
LINE
  5
5CE
100
AcDbEntity
  8
0
100
AcDbLine
 62
7
  6
CONTINUOUS
 10
14.0823210226
 20
9.1347997354
 11
14.064670821
 21
9.1213556374
  0
LINE
  5
5CF
100
AcDbEntity
  8
AXIS
100
AcDbLine
 62
7
  6
CONTINUOUS
 10
14.0823210226
 20
9.1341240124
 11
14.0628614333
 21
9.1211582086
  0
LWPOLYLINE
  5
5D0
100
AcDbEntity
  8
0
100
AcDbPolyline
 62
7
  6
CONTINUOUS
 90
10
 70
0
 10
14.0832140456
 20
9.170083606
 10
14.0819134498
 20
9.1693327196
 10
14.0047032192
 20
9.1105216908
 10
13.9421096666
 20
9.0461842593
 10
13.8952780715
 20
8.9774834237
 10
13.8651145786
 20
8.9057157714
 10
13.8522045769
 20
8.832344152
 10
13.8567207068
 20
8.7587257286
 10
13.8786316356
 20
8.685965187
 10
13.917722886
 20
8.6153441456
  0
LINE
  5
5D1
100
AcDbEntity
  8
0
100
AcDbLine
 62
7
  6
CONTINUOUS
 10
14.2644740775
 20
9.261854061
 11
14.2262274049
 21
9.2451172221
  0
LINE
  5
5D2
100
AcDbEntity
  8
0
100
AcDbLine
 62
7
  6
CONTINUOUS
 10
14.2640468501
 20
9.231366909
 11
14.2515812557
 21
9.2259119254
  0
LINE
  5
5D3
100
AcDbEntity
  8
AXIS
100
AcDbLine
 62
7
  6
CONTINUOUS
 10
14.2640468501
 20
9.231184274
 11
14.2511161997
 21
9.2263865038
  0
LWPOLYLINE
  5
5D4
100
AcDbEntity
  8
02___PRT_ALL_AXES
100
AcDbPolyline
 62
7
  6
CONTINUOUS
 90
3
 70
0
 10
14.270570895
 20
9.2973087112
 10
14.2221914352
 20
9.2800801481
 10
14.1684949645
 20
9.2555673449
  0
LWPOLYLINE
  5
5D5
100
AcDbEntity
  8
0
100
AcDbPolyline
 62
7
  6
CONTINUOUS
 90
8
 70
0
 10
14.8252585301
 20
7.362186603
 10
14.8622166436
 20
7.3681203625
 10
14.8972860853
 20
7.3772832009
 10
14.9299464553
 20
7.3895954271
 10
14.9594332597
 20
7.4049172991
 10
14.9845764865
 20
7.4227490344
 10
15.0045257568
 20
7.4424050708
 10
15.019033494
 20
7.4634501595
  0
LWPOLYLINE
  5
5D6
100
AcDbEntity
  8
0
100
AcDbPolyline
 62
7
  6
CONTINUOUS
 90
8
 70
0
 10
14.8499616669
 20
7.3689714903
 10
14.8142977406
 20
7.3643053693
 10
14.7778586494
 20
7.3627336772
 10
14.7418368223
 20
7.3642837635
 10
14.7065595445
 20
7.3689290715
 10
14.6727455507
 20
7.3766405484
 10
14.6415668755
 20
7.3871782079
 10
14.6140131049
 20
7.4001141027
  0
LINE
  5
5D7
100
AcDbEntity
  8
0
100
AcDbLine
 62
7
  6
CONTINUOUS
 10
14.6546583569
 20
7.3403543603
 11
14.628132322
 21
7.3533871768
  0
LWPOLYLINE
  5
5D8
100
AcDbEntity
  8
0
100
AcDbPolyline
 62
7
  6
CONTINUOUS
 90
12
 70
0
 10
14.6390679653
 20
7.3470733414
 10
14.6625878996
 20
7.3353781162
 10
14.688949938
 20
7.3257941151
 10
14.7175559282
 20
7.3185672605
 10
14.7477351814
 20
7.3138806339
 10
14.7787811855
 20
7.3118467424
 10
14.8099988555
 20
7.3125093845
 10
14.8406962671
 20
7.3158530759
 10
14.8701887341
 20
7.3218035984
 10
14.8978129139
 20
7.3302273541
 10
14.9229518157
 20
7.3409361294
 10
14.9344111286
 20
7.3470764987
  0
LWPOLYLINE
  5
5D9
100
AcDbEntity
  8
0
100
AcDbPolyline
 62
7
  6
CONTINUOUS
 90
3
 70
0
 10
13.8713841978
 20
8.7985237982
 10
13.8762991538
 20
8.7438340696
 10
13.8977475159
 20
8.6726057818
  0
LWPOLYLINE
  5
5DA
100
AcDbEntity
  8
02___PRT_ALL_AXES
100
AcDbPolyline
 62
7
  6
CONTINUOUS
 90
8
 70
0
 10
13.8024889349
 20
8.8146123427
 10
13.806232293
 20
8.7650697344
 10
13.8228214223
 20
8.6996858879
 10
13.8524458769
 20
8.6358560352
 10
13.8947050368
 20
8.5744433656
 10
13.9490274195
 20
8.51627838
 10
14.0146784078
 20
8.4621476603
 10
14.0907701848
 20
8.4127832313
  0
LINE
  5
5DB
100
AcDbEntity
  8
AXIS
100
AcDbLine
 62
7
  6
CONTINUOUS
 10
13.8713931035
 20
8.7985254649
 11
13.8737166876
 21
8.7608224691
  0
LWPOLYLINE
  5
5DC
100
AcDbEntity
  8
ECAD_LED1A
100
AcDbPolyline
 62
7
  6
CONTINUOUS
 90
22
 70
0
 10
13.951195986
 20
8.8757489723
 10
13.9523609377
 20
8.8908474519
 10
13.9560578174
 20
8.9063008302
 10
13.9623065024
 20
8.9211765626
 10
13.9722056375
 20
8.9365301595
 10
13.9832430262
 20
8.9484226244
 10
13.9974847511
 20
8.9592313769
 10
14.0113527537
 20
8.9664299886
 10
14.0244292899
 20
8.9708956376
 10
14.037196011
 20
8.9733867441
 10
14.0493803528
 20
8.9741738746
 10
14.0610032052
 20
8.9735138379
 10
14.0724524168
 20
8.9714895287
 10
14.0832894389
 20
8.9682366359
 10
14.0941699926
 20
8.9635152695
 10
14.105034519
 20
8.9570931888
 10
14.1150140236
 20
8.9493104823
 10
14.1240877795
 20
8.9401092502
 10
14.1326478444
 20
8.9286081517
 10
14.1387427763
 20
8.9175205052
 10
14.1436922122
 20
8.9046999793
 10
14.1469352816
 20
8.8904963638
  0
LWPOLYLINE
  5
5DD
100
AcDbEntity
  8
ECAD_LED1A
100
AcDbPolyline
 62
9
  6
CONTINUOUS
 90
9
 70
0
 10
14.1667113178
 20
9.0086070124
 10
14.1612217964
 20
8.9997731998
 10
14.153288711
 20
8.9915815236
 10
14.1431284553
 20
8.9842554315
 10
14.1310181748
 20
8.9779947602
 10
14.1172882062
 20
8.9729702844
 10
14.1023130673
 20
8.9693190587
 10
14.0865012409
 20
8.9671406791
 10
14.0858728094
 20
8.9671156416
  0
LWPOLYLINE
  5
5DE
100
AcDbEntity
  8
ECAD_LED1A
100
AcDbPolyline
 62
9
  6
CONTINUOUS
 90
6
 70
0
 10
14.2503436333
 20
9.1177305094
 10
14.2608496777
 20
9.1248921876
 10
14.2691707086
 20
9.1329545517
 10
14.27507975
 20
9.1416976814
 10
14.2784156185
 20
9.1508830868
 10
14.2791714163
 20
9.157911686
  0
LWPOLYLINE
  5
5DF
100
AcDbEntity
  8
ECAD_LED1A
100
AcDbPolyline
 62
9
  6
CONTINUOUS
 90
6
 70
0
 10
14.4320694609
 20
9.2226491753
 10
14.4425755053
 20
9.2298108535
 10
14.4508965362
 20
9.2378732176
 10
14.4568055775
 20
9.2466163473
 10
14.4601414461
 20
9.2558017527
 10
14.4608972438
 20
9.2628303519
  0
LWPOLYLINE
  5
5E0
100
AcDbEntity
  8
ECAD_LED1A
100
AcDbPolyline
 62
9
  6
CONTINUOUS
 90
16
 70
0
 10
14.4320694609
 20
9.2226491753
 10
14.4196649804
 20
9.2165835348
 10
14.4057004258
 20
9.2117793869
 10
14.3905567138
 20
9.2083677763
 10
14.3746469252
 20
9.2064417627
 10
14.3584050377
 20
9.2060538829
 10
14.3422740876
 20
9.2072147171
 10
14.3266940852
 20
9.2098926009
 10
14.3120900123
 20
9.2140144885
 10
14.29886023
 20
9.2194679457
 10
14.2873656122
 20
9.2261042162
 10
14.2779197022
 20
9.23374228
 10
14.2707801597
 20
9.2421737905
 10
14.2661417329
 20
9.2511687582
 10
14.264130946
 20
9.2604818238
 10
14.2640468501
 20
9.2628303519
  0
LWPOLYLINE
  5
5E1
100
AcDbEntity
  8
ECAD_LED1A
100
AcDbPolyline
 62
9
  6
CONTINUOUS
 90
16
 70
0
 10
14.2503436333
 20
9.1177305094
 10
14.2379391528
 20
9.1116648689
 10
14.2239745983
 20
9.106860721
 10
14.2088308862
 20
9.1034491104
 10
14.1929210976
 20
9.1015230968
 10
14.1766792101
 20
9.101135217
 10
14.16054826
 20
9.1022960512
 10
14.1449682576
 20
9.104973935
 10
14.1303641847
 20
9.1090958226
 10
14.1171344024
 20
9.1145492798
 10
14.1056397846
 20
9.1211855503
 10
14.0961938746
 20
9.1288236141
 10
14.0890543321
 20
9.1372551246
 10
14.0844159053
 20
9.1462500923
 10
14.0824051184
 20
9.1555631579
 10
14.0823210226
 20
9.157911686
  0
LWPOLYLINE
  5
5E2
100
AcDbEntity
  8
0
100
AcDbPolyline
 62
7
  6
CONTINUOUS
 90
5
 70
0
 10
14.8499616669
 20
7.3979026783
 10
14.8841072622
 20
7.4055435469
 10
14.916183113
 20
7.416044721
 10
14.9458086666
 20
7.4293871537
 10
14.9719674666
 20
7.4452507076
  0
LWPOLYLINE
  5
5E3
100
AcDbEntity
  8
0
100
AcDbPolyline
 62
9
  6
CONTINUOUS
 90
14
 70
0
 10
14.4772813649
 20
7.5226020728
 10
14.5506577501
 20
7.4983813459
 10
14.6295840822
 20
7.4809228933
 10
14.7122111973
 20
7.4706362664
 10
14.7965920562
 20
7.4677647266
 10
14.8807399831
 20
7.4723758583
 10
14.962676593
 20
7.4843610019
 10
15.0404760173
 20
7.5034384243
 10
15.1123082487
 20
7.5291594602
 10
15.176483862
 20
7.5609191854
 10
15.2314936323
 20
7.5979706977
 10
15.2760438822
 20
7.6394426552
 10
15.3090868361
 20
7.6843596581
 10
15.324703902
 20
7.7199485128
  0
LWPOLYLINE
  5
5E4
100
AcDbEntity
  8
0
100
AcDbPolyline
 62
7
  6
CONTINUOUS
 90
7
 70
0
 10
14.6140131049
 20
7.3968995263
 10
14.6430791011
 20
7.3833629011
 10
14.6760928646
 20
7.3725042157
 10
14.7118828848
 20
7.3648035243
 10
14.7490906712
 20
7.3605052893
 10
14.7870984414
 20
7.3596196026
 10
14.8252585301
 20
7.362186603
  0
LWPOLYLINE
  5
5E5
100
AcDbEntity
  8
0
100
AcDbPolyline
 62
7
  6
CONTINUOUS
 90
11
 70
0
 10
14.6140131049
 20
7.4611910552
 10
14.6431059357
 20
7.4476438607
 10
14.676144821
 20
7.4367817292
 10
14.711952092
 20
7.4290837192
 10
14.7491658977
 20
7.424791645
 10
14.7871700102
 20
7.4239126974
 10
14.825314157
 20
7.4264844442
 10
14.8622579724
 20
7.4324205561
 10
14.8973293118
 20
7.4415884138
 10
14.9299864823
 20
7.4539047181
 10
14.9562682803
 20
7.4675666548
  0
LWPOLYLINE
  5
5E6
100
AcDbEntity
  8
0
100
AcDbPolyline
 62
7
  6
CONTINUOUS
 90
8
 70
0
 10
14.6140131049
 20
7.4290452907
 10
14.6415668755
 20
7.4161093959
 10
14.6727455507
 20
7.4055717364
 10
14.7065595445
 20
7.3978602595
 10
14.7418368223
 20
7.3932149515
 10
14.7778586494
 20
7.3916648652
 10
14.8142977406
 20
7.3932365573
 10
14.8499616669
 20
7.3979026783
  0
LINE
  5
5E7
100
AcDbEntity
  8
0
100
AcDbLine
 62
7
  6
CONTINUOUS
 10
14.4846578935
 20
7.5050278758
 11
14.4861176985
 21
7.5043271843
  0
LINE
  5
5E8
100
AcDbEntity
  8
0
100
AcDbLine
 62
7
  6
CONTINUOUS
 10
14.628132322
 20
7.3533871768
 11
14.628128394
 21
7.3533894446
  0
LINE
  5
5E9
100
AcDbEntity
  8
0
100
AcDbLine
 62
7
  6
CONTINUOUS
 10
14.4846334733
 20
7.5050419744
 11
14.3395864623
 21
7.5887830108
  0
LINE
  5
5EA
100
AcDbEntity
  8
0
100
AcDbLine
 62
9
  6
CONTINUOUS
 10
14.4772813649
 20
7.5226020728
 11
14.330630514
 21
7.6072690657
  0
LINE
  5
5EB
100
AcDbEntity
  8
0
100
AcDbLine
 62
7
  6
CONTINUOUS
 10
14.6390641977
 20
7.3470755179
 11
14.6390679653
 21
7.3470733414
  0
LINE
  5
5EC
100
AcDbEntity
  8
0
100
AcDbLine
 62
7
  6
CONTINUOUS
 10
14.6140131049
 20
7.4322598672
 11
14.589170298
 21
7.448245111
  0
LWPOLYLINE
  5
5ED
100
AcDbEntity
  8
0
100
AcDbPolyline
 62
7
  6
CONTINUOUS
 90
3
 70
0
 10
14.6140131049
 20
7.4001141027
 10
14.5891412336
 20
7.4161213946
 10
14.5689146131
 20
7.4343957535
  0
LWPOLYLINE
  5
5EE
100
AcDbEntity
  8
0
100
AcDbPolyline
 62
7
  6
CONTINUOUS
 90
3
 70
0
 10
14.628128394
 20
7.3533894446
 10
14.6068410714
 20
7.367698944
 10
14.6012993051
 20
7.3728396393
  0
LINE
  5
5EF
100
AcDbEntity
  8
0
100
AcDbLine
 62
7
  6
CONTINUOUS
 10
14.6096957987
 20
7.3671806907
 11
14.5864281201
 21
7.3828623076
  0
LWPOLYLINE
  5
5F0
100
AcDbEntity
  8
0
100
AcDbPolyline
 62
7
  6
CONTINUOUS
 90
13
 70
0
 10
14.5837961377
 20
7.3882013682
 10
14.6066625258
 20
7.3721782755
 10
14.6336662867
 20
7.3583403898
 10
14.6641857229
 20
7.347025335
 10
14.6975190436
 20
7.3385113544
 10
14.7329003455
 20
7.3330118105
 10
14.7695173971
 20
7.3306706438
 10
14.8065298803
 20
7.3315593545
 10
14.8430878817
 20
7.3356753456
 10
14.8783519175
 20
7.3429418744
 10
14.9115127069
 20
7.3532099812
 10
14.9418092011
 20
7.3662619278
 10
14.968545682
 20
7.3818159978
  0
LINE
  5
5F1
100
AcDbEntity
  8
0
100
AcDbLine
 62
7
  6
CONTINUOUS
 10
14.3372220066
 20
7.5904503924
 11
14.3395642266
 21
7.5887958483
  0
LINE
  5
5F2
100
AcDbEntity
  8
ECAD_LED1A
100
AcDbLine
 62
9
  6
CONTINUOUS
 10
13.951195986
 20
8.8757489723
 11
13.9515705593
 21
8.8707961114
  0
LINE
  5
5F3
100
AcDbEntity
  8
AXIS
100
AcDbLine
 62
7
  6
CONTINUOUS
 10
13.9515707613
 20
8.7559460754
 11
13.9512062646
 21
8.7609489684
  0
LINE
  5
5F4
100
AcDbEntity
  8
ECAD_LED1A
100
AcDbLine
 62
7
  6
CONTINUOUS
 10
13.951195986
 20
8.8757489723
 11
13.951195986
 21
8.7609489684
  0
LINE
  5
5F5
100
AcDbEntity
  8
ECAD_LED1A
100
AcDbLine
 62
7
  6
CONTINUOUS
 10
13.9732145752
 20
9.0233141765
 11
13.9732145752
 21
8.9376172605
  0
LINE
  5
5F6
100
AcDbEntity
  8
ECAD_LED1A
100
AcDbLine
 62
7
  6
CONTINUOUS
 10
14.0179168769
 20
8.7321619325
 11
14.0179168769
 21
8.6181408774
  0
LWPOLYLINE
  5
5F7
100
AcDbEntity
  8
ECAD_LED1A
100
AcDbPolyline
 62
7
  6
CONTINUOUS
 90
4
 70
0
 10
13.9732145752
 20
9.0233141765
 10
13.9742381845
 20
9.0374722168
 10
13.9773020594
 20
9.0513840063
 10
13.9823609218
 20
9.0647485375
  0
LWPOLYLINE
  5
5F8
100
AcDbEntity
  8
ECAD_LED1A
100
AcDbPolyline
 62
7
  6
CONTINUOUS
 90
18
 70
0
 10
14.0179168769
 20
8.7321619325
 10
14.0191434628
 20
8.7476522328
 10
14.0228818756
 20
8.7630279451
 10
14.0294777995
 20
8.778444945
 10
14.0388698083
 20
8.7928708072
 10
14.0508054749
 20
8.8055953962
 10
14.0639605554
 20
8.8154907746
 10
14.078183937
 20
8.8228894144
 10
14.0915098673
 20
8.8274031048
 10
14.1040994528
 20
8.829822762
 10
14.1162448078
 20
8.8305870813
 10
14.1280171894
 20
8.82989223
 10
14.1396030612
 20
8.8277989852
 10
14.150570724
 20
8.8244436689
 10
14.1616252226
 20
8.8195516105
 10
14.1732020469
 20
8.8125016041
 10
14.1829513106
 20
8.8046238462
 10
14.1929112158
 20
8.7940059772
  0
LWPOLYLINE
  5
5F9
100
AcDbEntity
  8
ECAD_LED1A
100
AcDbPolyline
 62
9
  6
CONTINUOUS
 90
3
 70
0
 10
14.1667113178
 20
9.0086070124
 10
14.1696075352
 20
9.0178419982
 10
14.1700649689
 20
9.0233141765
  0
LINE
  5
5FA
100
AcDbEntity
  8
AXIS
100
AcDbLine
 62
7
  6
CONTINUOUS
 10
14.1667113441
 20
8.8945733061
 11
14.1578524298
 21
8.8818649205
  0
LINE
  5
5FB
100
AcDbEntity
  8
AXIS
100
AcDbLine
 62
7
  6
CONTINUOUS
 10
14.1578524298
 20
8.8818649205
 11
14.1480463797
 21
8.8740061729
  0
LWPOLYLINE
  5
5FC
100
AcDbEntity
  8
AXIS
100
AcDbPolyline
 62
7
  6
CONTINUOUS
 90
9
 70
0
 10
14.4313622703
 20
9.1082070289
 10
14.4126842833
 20
9.0997585558
 10
14.3910470442
 20
9.0941362612
 10
14.3677080309
 20
9.0916668924
 10
14.3440236219
 20
9.0924939601
 10
14.3213702689
 20
9.0965693983
 10
14.3010645025
 20
9.1036563571
 10
14.2842864201
 20
9.1133429684
 10
14.2791714163
 20
9.1182279574
  0
LWPOLYLINE
  5
5FD
100
AcDbEntity
  8
AXIS
100
AcDbPolyline
 62
7
  6
CONTINUOUS
 90
5
 70
0
 10
14.249636273
 20
9.003288363
 10
14.230958286
 20
8.9948398899
 10
14.2093210469
 20
8.9892175953
 10
14.1859820336
 20
8.9867482265
 10
14.1700649689
 20
8.9873040559
  0
LWPOLYLINE
  5
5FE
100
AcDbEntity
  8
02___PRT_ALL_AXES
100
AcDbPolyline
 62
7
  6
CONTINUOUS
 90
9
 70
0
 10
14.7419006186
 20
7.5129565499
 10
14.8337354814
 20
7.5142570604
 10
14.9244185331
 20
7.5238312563
 10
15.0117272948
 20
7.5414739657
 10
15.0935219852
 20
7.5667822719
 10
15.1677979632
 20
7.5991653884
 10
15.2327348577
 20
7.6378591375
 10
15.2867411819
 20
7.6819446793
 10
15.3284933375
 20
7.7303710308
  0
LINE
  5
5FF
100
AcDbEntity
  8
02___PRT_ALL_AXES
100
AcDbLine
 62
7
  6
CONTINUOUS
 10
14.6511646526
 20
7.5199321234
 11
14.7419006186
 21
7.5129565499
  0
LWPOLYLINE
  5
600
100
AcDbEntity
  8
02___PRT_ALL_AXES
100
AcDbPolyline
 62
7
  6
CONTINUOUS
 90
10
 70
0
 10
14.5637513592
 20
7.5289560167
 10
14.6511646526
 20
7.5139047925
 10
14.7419006186
 20
7.506929219
 10
14.8337354814
 20
7.5082297296
 10
14.9244185331
 20
7.5178039254
 10
15.0117272948
 20
7.5354466348
 10
15.0935219852
 20
7.5607549411
 10
15.1677979632
 20
7.5931380576
 10
15.2327348577
 20
7.6318318066
 10
15.2867411819
 20
7.6759173484
  0
LINE
  5
601
100
AcDbEntity
  8
02___PRT_ALL_AXES
100
AcDbLine
 62
7
  6
CONTINUOUS
 10
14.5637513592
 20
7.5349833475
 11
14.6511646526
 21
7.5199321234
  0
LWPOLYLINE
  5
602
100
AcDbEntity
  8
02___PRT_ALL_AXES
100
AcDbPolyline
 62
7
  6
CONTINUOUS
 90
11
 70
0
 10
14.5637513592
 20
7.5771746633
 10
14.6511646526
 20
7.5621234392
 10
14.7419006186
 20
7.5551478657
 10
14.8337354814
 20
7.5564483763
 10
14.9244185331
 20
7.5660225721
 10
15.0117272948
 20
7.5836652815
 10
15.0935219852
 20
7.6089735878
 10
15.1677979632
 20
7.6413567042
 10
15.2327348577
 20
7.6800504533
 10
15.2867411819
 20
7.7241359951
 10
15.3284933375
 20
7.7725623466
  0
LWPOLYLINE
  5
603
100
AcDbEntity
  8
02___PRT_ALL_AXES
100
AcDbPolyline
 62
7
  6
CONTINUOUS
 90
11
 70
0
 10
14.5637513592
 20
7.5832019942
 10
14.6511646526
 20
7.56815077
 10
14.7419006186
 20
7.5611751966
 10
14.8337354814
 20
7.5624757071
 10
14.9244185331
 20
7.572049903
 10
15.0117272948
 20
7.5896926124
 10
15.0935219852
 20
7.6150009186
 10
15.1677979632
 20
7.6473840351
 10
15.2327348577
 20
7.6860777841
 10
15.2867411819
 20
7.7301633259
 10
15.3284933375
 20
7.7785896774
  0
LWPOLYLINE
  5
604
100
AcDbEntity
  8
02___PRT_ALL_AXES
100
AcDbPolyline
 62
7
  6
CONTINUOUS
 90
3
 70
0
 10
14.6313553232
 20
7.608645516
 10
14.5516083027
 20
7.6249577758
 10
14.4772813649
 20
7.6482453631
  0
LWPOLYLINE
  5
605
100
AcDbEntity
  8
02___PRT_ALL_AXES
100
AcDbPolyline
 62
7
  6
CONTINUOUS
 90
3
 70
0
 10
14.6285034171
 20
7.560874074
 10
14.550222954
 20
7.5770963952
 10
14.4772813649
 20
7.6000267164
  0
LWPOLYLINE
  5
606
100
AcDbEntity
  8
02___PRT_ALL_AXES
100
AcDbPolyline
 62
7
  6
CONTINUOUS
 90
4
 70
0
 10
14.5637513592
 20
7.5289560167
 10
14.5348022124
 20
7.5383161604
 10
14.5059606015
 20
7.5488465877
 10
14.4772813649
 20
7.5605925272
  0
LWPOLYLINE
  5
607
100
AcDbEntity
  8
02___PRT_ALL_AXES
100
AcDbPolyline
 62
7
  6
CONTINUOUS
 90
4
 70
0
 10
14.5637513592
 20
7.5771746633
 10
14.5347760677
 20
7.5865437949
 10
14.5059399253
 20
7.5970732355
 10
14.4772813649
 20
7.6088111739
  0
LWPOLYLINE
  5
608
100
AcDbEntity
  8
02___PRT_ALL_AXES
100
AcDbPolyline
 62
7
  6
CONTINUOUS
 90
4
 70
0
 10
14.2441605196
 20
7.7134252974
 10
14.2731314597
 20
7.7040576619
 10
14.3019672731
 20
7.6935285366
 10
14.330630514
 20
7.6817887869
  0
LWPOLYLINE
  5
609
100
AcDbEntity
  8
02___PRT_ALL_AXES
100
AcDbPolyline
 62
7
  6
CONTINUOUS
 90
4
 70
0
 10
14.5637513592
 20
7.62539331
 10
14.5347760677
 20
7.6347624416
 10
14.5059399253
 20
7.6452918821
 10
14.4772813649
 20
7.6570298205
  0
LINE
  5
60A
100
AcDbEntity
  8
0
100
AcDbLine
 62
7
  6
CONTINUOUS
 10
14.5969081053
 20
7.4721973634
 11
14.6140131049
 21
7.4611910552
  0
LINE
  5
60B
100
AcDbEntity
  8
0
100
AcDbLine
 62
7
  6
CONTINUOUS
 10
14.6140131049
 20
7.4644056316
 11
14.6044482108
 21
7.4705609666
  0
LWPOLYLINE
  5
60C
100
AcDbEntity
  8
02___PRT_ALL_AXES
100
AcDbPolyline
 62
7
  6
CONTINUOUS
 90
5
 70
0
 10
14.330630514
 20
7.6905732444
 10
14.3092388007
 20
7.7055708505
 10
14.2871911218
 20
7.7218015295
 10
14.2652157753
 20
7.7387287724
 10
14.2441605196
 20
7.7556166133
  0
LWPOLYLINE
  5
60D
100
AcDbEntity
  8
02___PRT_ALL_AXES
100
AcDbPolyline
 62
7
  6
CONTINUOUS
 90
3
 70
0
 10
14.330630514
 20
7.6423545977
 10
14.301972579
 20
7.6626160354
 10
14.2731341849
 20
7.6843266038
  0
LWPOLYLINE
  5
60E
100
AcDbEntity
  8
02___PRT_ALL_AXES
100
AcDbPolyline
 62
7
  6
CONTINUOUS
 90
4
 70
0
 10
14.4772813649
 20
7.6000267164
 10
14.505967263
 20
7.5797448581
 10
14.5348113548
 20
7.5580286228
 10
14.5637513592
 20
7.5349833475
  0
LWPOLYLINE
  5
60F
100
AcDbEntity
  8
02___PRT_ALL_AXES
100
AcDbPolyline
 62
7
  6
CONTINUOUS
 90
4
 70
0
 10
14.330630514
 20
7.7387918911
 10
14.301972579
 20
7.7590533287
 10
14.2731341849
 20
7.7807638972
 10
14.2441605196
 20
7.80383526
  0
LINE
  5
610
100
AcDbEntity
  8
02___PRT_ALL_AXES
100
AcDbLine
 62
7
  6
CONTINUOUS
 10
14.2731341849
 20
7.6843266038
 11
14.2441605196
 21
7.7073979666
  0
LWPOLYLINE
  5
611
100
AcDbEntity
  8
0
100
AcDbPolyline
 62
7
  6
CONTINUOUS
 90
3
 70
0
 10
14.589170298
 20
7.448245111
 10
14.5689536355
 20
7.4664989519
 10
14.5584633776
 20
7.4806270195
  0
LWPOLYLINE
  5
612
100
AcDbEntity
  8
0
100
AcDbPolyline
 62
7
  6
CONTINUOUS
 90
3
 70
0
 10
14.5689146131
 20
7.4633269415
 10
14.5891412336
 20
7.4450525826
 10
14.6140131049
 20
7.4290452907
  0
LWPOLYLINE
  5
613
100
AcDbEntity
  8
0
100
AcDbPolyline
 62
7
  6
CONTINUOUS
 90
4
 70
0
 10
14.5864281201
 20
7.3828623076
 10
14.567703598
 20
7.4003754767
 10
14.5539482579
 20
7.419304331
 10
14.5454740836
 20
7.4392005883
  0
LINE
  5
614
100
AcDbEntity
  8
02___PRT_ALL_AXES
100
AcDbLine
 62
7
  6
CONTINUOUS
 10
14.330630514
 20
7.7300074336
 11
14.2978210208
 21
7.7621787693
  0
LINE
  5
615
100
AcDbEntity
  8
02___PRT_ALL_AXES
100
AcDbLine
 62
7
  6
CONTINUOUS
 10
14.330630514
 20
7.6817887869
 11
14.298165321
 21
7.7137227333
  0
LWPOLYLINE
  5
616
100
AcDbEntity
  8
0
100
AcDbPolyline
 62
7
  6
CONTINUOUS
 90
4
 70
0
 10
14.3372225551
 20
7.5904500821
 10
14.2929677178
 20
7.6354346535
 10
14.2608733954
 20
7.6842370428
 10
14.2555706803
 20
7.6983122001
  0
LINE
  5
617
100
AcDbEntity
  8
02___PRT_ALL_AXES
100
AcDbLine
 62
7
  6
CONTINUOUS
 10
14.2160068719
 20
7.8048812056
 11
14.2441605196
 21
7.7556166133
  0
LINE
  5
618
100
AcDbEntity
  8
02___PRT_ALL_AXES
100
AcDbLine
 62
7
  6
CONTINUOUS
 10
14.2160068719
 20
7.8109085364
 11
14.2441605196
 21
7.7616439441
  0
LINE
  5
619
100
AcDbEntity
  8
AXIS
100
AcDbLine
 62
7
  6
CONTINUOUS
 10
13.8737166876
 20
8.7608224691
 11
13.8923037231
 21
8.6861883982
  0
LWPOLYLINE
  5
61A
100
AcDbEntity
  8
ECAD_LED1A
100
AcDbPolyline
 62
9
  6
CONTINUOUS
 90
4
 70
0
 10
14.0179168769
 20
8.7321619325
 10
14.0184655956
 20
8.7261699565
 10
14.0215087573
 20
8.7169507347
 10
14.0271387246
 20
8.7081464347
  0
LINE
  5
61B
100
AcDbEntity
  8
ECAD_LED1A
100
AcDbLine
 62
7
  6
CONTINUOUS
 10
14.0823210226
 20
9.157911686
 11
14.0823210226
 21
9.1210253646
  0
LWPOLYLINE
  5
61C
100
AcDbEntity
  8
ECAD_LED1A
100
AcDbPolyline
 62
9
  6
CONTINUOUS
 90
8
 70
0
 10
14.1480463797
 20
8.8757489723
 10
14.1477465361
 20
8.8713167895
 10
14.145144662
 20
8.8620526442
 10
14.1399371564
 20
8.8531620991
 10
14.1322660665
 20
8.8448876649
 10
14.1223406396
 20
8.8374550468
 10
14.1104316155
 20
8.8310669871
 10
14.1077726025
 20
8.830053917
  0
LWPOLYLINE
  5
61D
100
AcDbEntity
  8
ECAD_LED1A
100
AcDbPolyline
 62
7
  6
CONTINUOUS
 90
8
 70
0
 10
14.0823210226
 20
9.157911686
 10
14.083374953
 20
9.1722767778
 10
14.0865677306
 20
9.1865111899
 10
14.0918783149
 20
9.2002202541
 10
14.099246358
 20
9.2130958501
 10
14.1085049805
 20
9.2247601922
 10
14.1194640534
 20
9.2349312647
 10
14.1315338413
 20
9.2431505341
  0
LINE
  5
61E
100
AcDbEntity
  8
AXIS
100
AcDbLine
 62
7
  6
CONTINUOUS
 10
14.170064266
 20
8.9092719651
 11
14.1667113441
 21
8.8945733061
  0
LWPOLYLINE
  5
61F
100
AcDbEntity
  8
AXIS
100
AcDbPolyline
 62
7
  6
CONTINUOUS
 90
4
 70
0
 10
14.2770737237
 20
9.0362241544
 10
14.2740075702
 20
9.026564154
 10
14.2642695113
 20
9.01407202
 10
14.249636273
 20
9.003288363
  0
LWPOLYLINE
  5
620
100
AcDbEntity
  8
02___PRT_ALL_AXES
100
AcDbPolyline
 62
7
  6
CONTINUOUS
 90
6
 70
0
 10
14.5637513592
 20
7.62539331
 10
14.6511646526
 20
7.6103420859
 10
14.7419006186
 20
7.6033665124
 10
14.8337354814
 20
7.6046670229
 10
14.9244185331
 20
7.6142412188
 10
15.0117272948
 20
7.6318839282
  0
LWPOLYLINE
  5
621
100
AcDbEntity
  8
02___PRT_ALL_AXES
100
AcDbPolyline
 62
7
  6
CONTINUOUS
 90
6
 70
0
 10
14.5637513592
 20
7.6314206409
 10
14.6511646526
 20
7.6163694167
 10
14.7419006186
 20
7.6093938432
 10
14.8337354814
 20
7.6106943538
 10
14.9244185331
 20
7.6202685496
 10
15.0117272948
 20
7.637911259
  0
LWPOLYLINE
  5
622
100
AcDbEntity
  8
02___PRT_ALL_AXES
100
AcDbPolyline
 62
7
  6
CONTINUOUS
 90
11
 70
0
 10
14.5637513592
 20
7.6736119567
 10
14.6511646526
 20
7.6585607326
 10
14.7419006186
 20
7.6515851591
 10
14.8337354814
 20
7.6528856696
 10
14.9244185331
 20
7.6624598655
 10
15.0117272948
 20
7.6801025749
 10
15.0935219852
 20
7.7054108811
 10
15.1677979632
 20
7.7377939976
 10
15.2327348577
 20
7.7764877467
 10
15.2867411819
 20
7.8205732885
 10
15.3284933375
 20
7.86899964
  0
LWPOLYLINE
  5
623
100
AcDbEntity
  8
02___PRT_ALL_AXES
100
AcDbPolyline
 62
7
  6
CONTINUOUS
 90
6
 70
0
 10
14.5637513592
 20
7.6796392875
 10
14.6511646526
 20
7.6645880634
 10
14.7419006186
 20
7.6576124899
 10
14.8337354814
 20
7.6589130004
 10
14.9244185331
 20
7.6684871963
 10
15.0117272948
 20
7.6861299057
  0
LWPOLYLINE
  5
624
100
AcDbEntity
  8
02___PRT_ALL_AXES
100
AcDbPolyline
 62
7
  6
CONTINUOUS
 90
3
 70
0
 10
14.6311040379
 20
7.7051218277
 10
14.5514886914
 20
7.7214258093
 10
14.4772813649
 20
7.7446826564
  0
LWPOLYLINE
  5
625
100
AcDbEntity
  8
02___PRT_ALL_AXES
100
AcDbPolyline
 62
7
  6
CONTINUOUS
 90
3
 70
0
 10
14.6298498548
 20
7.6570990371
 10
14.5510341955
 20
7.6733241515
 10
14.4772813649
 20
7.6964640097
  0
LWPOLYLINE
  5
626
100
AcDbEntity
  8
02___PRT_ALL_AXES
100
AcDbPolyline
 62
7
  6
CONTINUOUS
 90
5
 70
0
 10
14.2441605196
 20
7.7616439441
 10
14.2652270155
 20
7.7549488218
 10
14.2871025398
 20
7.7473304253
 10
14.3091168488
 20
7.7389407084
 10
14.330630514
 20
7.7300074336
  0
LWPOLYLINE
  5
627
100
AcDbEntity
  8
02___PRT_ALL_AXES
100
AcDbPolyline
 62
7
  6
CONTINUOUS
 90
4
 70
0
 10
14.5637513592
 20
7.6736119567
 10
14.5347760677
 20
7.6829810882
 10
14.5059399253
 20
7.6935105288
 10
14.4772813649
 20
7.7052484672
  0
LWPOLYLINE
  5
628
100
AcDbEntity
  8
02___PRT_ALL_AXES
100
AcDbPolyline
 62
7
  6
CONTINUOUS
 90
4
 70
0
 10
14.2441605196
 20
7.8098625908
 10
14.2731314597
 20
7.8004949552
 10
14.3019672731
 20
7.7899658299
 10
14.330630514
 20
7.7782260803
  0
LWPOLYLINE
  5
629
100
AcDbEntity
  8
02___PRT_ALL_AXES
100
AcDbPolyline
 62
7
  6
CONTINUOUS
 90
4
 70
0
 10
14.5637513592
 20
7.7218306034
 10
14.5347760677
 20
7.7311997349
 10
14.5059399253
 20
7.7417291755
 10
14.4772813649
 20
7.7534671139
  0
LWPOLYLINE
  5
62A
100
AcDbEntity
  8
0
100
AcDbPolyline
 62
7
  6
CONTINUOUS
 90
7
 70
0
 10
14.0989242131
 20
8.0090109812
 10
14.0109820983
 20
8.0671572461
 10
13.9369024952
 20
8.1319875452
 10
13.8782302056
 20
8.2021679836
 10
13.8360726038
 20
8.276057305
 10
13.8108544274
 20
8.3520287381
 10
13.80248656
 20
8.42884917
  0
LWPOLYLINE
  5
62B
100
AcDbEntity
  8
02___PRT_ALL_AXES
100
AcDbPolyline
 62
7
  6
CONTINUOUS
 90
4
 70
0
 10
14.4772813649
 20
7.6482453631
 10
14.505944193
 20
7.6279803522
 10
14.5347822177
 20
7.6062698511
 10
14.5637513592
 20
7.5832019942
  0
LWPOLYLINE
  5
62C
100
AcDbEntity
  8
02___PRT_ALL_AXES
100
AcDbPolyline
 62
7
  6
CONTINUOUS
 90
4
 70
0
 10
14.330630514
 20
7.7870105377
 10
14.301972579
 20
7.8072719754
 10
14.2731341849
 20
7.8289825439
 10
14.2441605196
 20
7.8520539066
  0
LWPOLYLINE
  5
62D
100
AcDbEntity
  8
02___PRT_ALL_AXES
100
AcDbPolyline
 62
7
  6
CONTINUOUS
 90
4
 70
0
 10
14.4772813649
 20
7.6964640097
 10
14.505944193
 20
7.6761989988
 10
14.5347822177
 20
7.6544884978
 10
14.5637513592
 20
7.6314206409
  0
LWPOLYLINE
  5
62E
100
AcDbEntity
  8
02___PRT_ALL_AXES
100
AcDbPolyline
 62
7
  6
CONTINUOUS
 90
4
 70
0
 10
14.330630514
 20
7.8352291844
 10
14.301972579
 20
7.8554906221
 10
14.2731341849
 20
7.8772011906
 10
14.2441605196
 20
7.9002725533
  0
LWPOLYLINE
  5
62F
100
AcDbEntity
  8
02___PRT_ALL_AXES
100
AcDbPolyline
 62
7
  6
CONTINUOUS
 90
4
 70
0
 10
14.4772813649
 20
7.7446826564
 10
14.505944193
 20
7.7244176455
 10
14.5347822177
 20
7.7027071444
 10
14.5637513592
 20
7.6796392875
  0
LINE
  5
630
100
AcDbEntity
  8
02___PRT_ALL_AXES
100
AcDbLine
 62
7
  6
CONTINUOUS
 10
14.330630514
 20
7.7782260803
 11
14.2982391767
 21
7.8100826134
  0
LINE
  5
631
100
AcDbEntity
  8
02___PRT_ALL_AXES
100
AcDbLine
 62
7
  6
CONTINUOUS
 10
14.330630514
 20
7.826444727
 11
14.2982615894
 21
7.858284387
  0
LWPOLYLINE
  5
632
100
AcDbEntity
  8
0
100
AcDbPolyline
 62
7
  6
CONTINUOUS
 90
4
 70
0
 10
14.5541892141
 20
7.4510315361
 10
14.5689270385
 20
7.4311676192
 10
14.5891504778
 20
7.4128998044
 10
14.6140131049
 20
7.3968995263
  0
LWPOLYLINE
  5
633
100
AcDbEntity
  8
0
100
AcDbPolyline
 62
7
  6
CONTINUOUS
 90
4
 70
0
 10
14.5689146131
 20
7.4343957535
 10
14.5541785638
 20
7.4542645143
 10
14.5453641862
 20
7.4749504863
 10
14.5439142784
 20
7.4853931895
  0
LINE
  5
634
100
AcDbEntity
  8
0
100
AcDbLine
 62
7
  6
CONTINUOUS
 10
14.5553199288
 20
7.4816567885
 11
14.5689146131
 21
7.4633269415
  0
LINE
  5
635
100
AcDbEntity
  8
02___PRT_ALL_AXES
100
AcDbLine
 62
7
  6
CONTINUOUS
 10
14.2160068719
 20
7.9013184989
 11
14.2441605196
 21
7.8520539066
  0
LINE
  5
636
100
AcDbEntity
  8
02___PRT_ALL_AXES
100
AcDbLine
 62
7
  6
CONTINUOUS
 10
14.2160068719
 20
7.9495371456
 11
14.2441605196
 21
7.9002725533
  0
LINE
  5
637
100
AcDbEntity
  8
02___PRT_ALL_AXES
100
AcDbLine
 62
7
  6
CONTINUOUS
 10
14.2186297502
 20
7.9509748392
 11
14.2441605196
 21
7.9062998842
  0
LWPOLYLINE
  5
638
100
AcDbEntity
  8
0
100
AcDbPolyline
 62
9
  6
CONTINUOUS
 90
4
 70
0
 10
14.2579965807
 20
7.6963804864
 10
14.2584375369
 20
7.695199904
 10
14.2886777969
 20
7.6496321058
 10
14.330630514
 20
7.6072690657
  0
LINE
  5
639
100
AcDbEntity
  8
02___PRT_ALL_AXES
100
AcDbLine
 62
7
  6
CONTINUOUS
 10
14.2018408338
 20
7.8560641836
 11
14.2160068719
 21
7.8048812056
  0
LWPOLYLINE
  5
63A
100
AcDbEntity
  8
02___PRT_ALL_AXES
100
AcDbPolyline
 62
7
  6
CONTINUOUS
 90
3
 70
0
 10
14.2018408338
 20
7.9042828303
 10
14.2160068719
 20
7.8530998522
 10
14.2441605196
 20
7.80383526
  0
LINE
  5
63B
100
AcDbEntity
  8
02___PRT_ALL_AXES
100
AcDbLine
 62
7
  6
CONTINUOUS
 10
14.2018408338
 20
7.952501477
 11
14.2160068719
 21
7.9013184989
  0
LWPOLYLINE
  5
63C
100
AcDbEntity
  8
02___PRT_ALL_AXES
100
AcDbPolyline
 62
7
  6
CONTINUOUS
 90
3
 70
0
 10
14.2022131049
 20
7.9571837636
 10
14.2160068719
 20
7.9073458298
 10
14.2441605196
 20
7.8580812375
  0
LINE
  5
63D
100
AcDbEntity
  8
AXIS
100
AcDbLine
 62
7
  6
CONTINUOUS
 10
14.0197762409
 20
8.6071353577
 11
14.0179201076
 21
8.6181408774
  0
LWPOLYLINE
  5
63E
100
AcDbEntity
  8
ECAD_LED1A
100
AcDbPolyline
 62
9
  6
CONTINUOUS
 90
6
 70
0
 10
14.1650564638
 20
8.6104586885
 10
14.1658123629
 20
8.6034296198
 10
14.169148364
 20
8.5942442304
 10
14.1750575314
 20
8.5855011291
 10
14.1833786786
 20
8.577438805
 10
14.1938848263
 20
8.5702771773
  0
LWPOLYLINE
  5
63F
100
AcDbEntity
  8
02___PRT_ALL_AXES
100
AcDbPolyline
 62
7
  6
CONTINUOUS
 90
4
 70
0
 10
14.2001243553
 20
7.8331479405
 10
14.2018408338
 20
7.8078455369
 10
14.2160068719
 20
7.7566625589
 10
14.2441605196
 20
7.7073979666
  0
LWPOLYLINE
  5
640
100
AcDbEntity
  8
02___PRT_ALL_AXES
100
AcDbPolyline
 62
7
  6
CONTINUOUS
 90
4
 70
0
 10
14.2001243553
 20
7.8391752713
 10
14.2018408338
 20
7.8138728678
 10
14.2160068719
 20
7.7626898897
 10
14.2441605196
 20
7.7134252974
  0
LINE
  5
641
100
AcDbEntity
  8
02___PRT_ALL_AXES
100
AcDbLine
 62
7
  6
CONTINUOUS
 10
14.2001243553
 20
7.8813665872
 11
14.2018408338
 21
7.8560641836
  0
LWPOLYLINE
  5
642
100
AcDbEntity
  8
02___PRT_ALL_AXES
100
AcDbPolyline
 62
7
  6
CONTINUOUS
 90
3
 70
0
 10
14.2001243553
 20
7.887393918
 10
14.2018408338
 20
7.8620915144
 10
14.2160068719
 20
7.8109085364
  0
LINE
  5
643
100
AcDbEntity
  8
02___PRT_ALL_AXES
100
AcDbLine
 62
7
  6
CONTINUOUS
 10
14.2001243553
 20
7.9295852338
 11
14.2018408338
 21
7.9042828303
  0
LWPOLYLINE
  5
644
100
AcDbEntity
  8
02___PRT_ALL_AXES
100
AcDbPolyline
 62
7
  6
CONTINUOUS
 90
4
 70
0
 10
14.2001243553
 20
7.9356125647
 10
14.2018408338
 20
7.9103101611
 10
14.2160068719
 20
7.8591271831
 10
14.2441605196
 20
7.8098625908
  0
LINE
  5
645
100
AcDbEntity
  8
02___PRT_ALL_AXES
100
AcDbLine
 62
7
  6
CONTINUOUS
 10
14.2014988825
 20
7.9575421386
 11
14.2018408338
 21
7.952501477
  0
LINE
  5
646
100
AcDbEntity
  8
ECAD_LED1A
100
AcDbLine
 62
7
  6
CONTINUOUS
 10
14.1480463797
 20
8.8757489723
 11
14.1480463797
 21
8.8252159368
  0
LINE
  5
647
100
AcDbEntity
  8
ECAD_LED1A
100
AcDbLine
 62
7
  6
CONTINUOUS
 10
14.1650564638
 20
8.6104586885
 11
14.1650564638
 21
8.4964121941
  0
LINE
  5
648
100
AcDbEntity
  8
ECAD_LED1A
100
AcDbLine
 62
7
  6
CONTINUOUS
 10
14.1700649689
 20
9.0233141765
 11
14.1700649689
 21
8.9092719651
  0
LINE
  5
649
100
AcDbEntity
  8
ECAD_LED1A
100
AcDbLine
 62
7
  6
CONTINUOUS
 10
14.2147672706
 20
8.7321619325
 11
14.2147672706
 21
8.6958487983
  0
LWPOLYLINE
  5
64A
100
AcDbEntity
  8
ECAD_LED1A
100
AcDbPolyline
 62
9
  6
CONTINUOUS
 90
18
 70
0
 10
14.2147672706
 20
8.7321619325
 10
14.2145918983
 20
8.7287712413
 10
14.2122852457
 20
8.7194810632
 10
14.2073615134
 20
8.7105367862
 10
14.1999550081
 20
8.7021823868
 10
14.1902677599
 20
8.6946457513
 10
14.1785640117
 20
8.6881324594
 10
14.1651630113
 20
8.6828201767
 10
14.1504303029
 20
8.6788538085
 10
14.1347677565
 20
8.676341547
 10
14.1186026055
 20
8.6753519201
 10
14.1023757931
 20
8.6759119222
 10
14.0865299444
 20
8.678006278
 10
14.0714972929
 20
8.6815778589
 10
14.0576878901
 20
8.6865292414
 10
14.0454784205
 20
8.6927253648
 10
14.0352019267
 20
8.6999972149
 10
14.0271387246
 20
8.7081464347
  0
LWPOLYLINE
  5
64B
100
AcDbEntity
  8
ECAD_LED1A
100
AcDbPolyline
 62
7
  6
CONTINUOUS
 90
8
 70
0
 10
14.2640468501
 20
9.2628303519
 10
14.2651007806
 20
9.2771954437
 10
14.2682935582
 20
9.2914298558
 10
14.2736041425
 20
9.30513892
 10
14.2809721856
 20
9.318014516
 10
14.2902308081
 20
9.3296788581
 10
14.301189881
 20
9.3398499306
 10
14.3132596689
 20
9.3480692
  0
LWPOLYLINE
  5
64C
100
AcDbEntity
  8
ECAD_LED1A
100
AcDbPolyline
 62
7
  6
CONTINUOUS
 90
15
 70
0
 10
14.1650564638
 20
8.6104586885
 10
14.1663610073
 20
8.626430478
 10
14.1702485021
 20
8.642003855
 10
14.1772845212
 20
8.6579726077
 10
14.1865604368
 20
8.6718642639
 10
14.1992684052
 20
8.685052101
 10
14.2132819218
 20
8.6951198105
 10
14.2272225872
 20
8.7019616882
 10
14.240472289
 20
8.7061565891
 10
14.2532280687
 20
8.7083483367
 10
14.2655957576
 20
8.7088611781
 10
14.2775866502
 20
8.7078679727
 10
14.2892535807
 20
8.7054498855
 10
14.3008284959
 20
8.7015231342
 10
14.3126934241
 20
8.6956978914
  0
LWPOLYLINE
  5
64D
100
AcDbEntity
  8
02___PRT_ALL_AXES
100
AcDbPolyline
 62
7
  6
CONTINUOUS
 90
3
 70
0
 10
14.8819389645
 20
7.7004840582
 10
14.797492972
 20
7.6945796196
 10
14.7134295734
 20
7.6961727601
  0
LINE
  5
64E
100
AcDbEntity
  8
02___PRT_ALL_AXES
100
AcDbLine
 62
7
  6
CONTINUOUS
 10
14.7134295734
 20
7.6961727601
 11
14.6311040379
 21
7.7051218277
  0
LWPOLYLINE
  5
64F
100
AcDbEntity
  8
02___PRT_ALL_AXES
100
AcDbPolyline
 62
7
  6
CONTINUOUS
 90
11
 70
0
 10
14.5637513592
 20
7.7218306034
 10
14.6511646526
 20
7.7067793792
 10
14.7419006186
 20
7.6998038058
 10
14.8337354814
 20
7.7011043163
 10
14.9244185331
 20
7.7106785122
 10
15.0117272948
 20
7.7283212216
 10
15.0935219852
 20
7.7536295278
 10
15.1677979632
 20
7.7860126443
 10
15.2327348577
 20
7.8247063933
 10
15.2867411819
 20
7.8687919352
 10
15.3284933375
 20
7.9172182867
  0
LWPOLYLINE
  5
650
100
AcDbEntity
  8
02___PRT_ALL_AXES
100
AcDbPolyline
 62
7
  6
CONTINUOUS
 90
12
 70
0
 10
14.5637513592
 20
7.7278579342
 10
14.6511646526
 20
7.7128067101
 10
14.7419006186
 20
7.7058311366
 10
14.8337354814
 20
7.7071316471
 10
14.9244185331
 20
7.716705843
 10
15.0117272948
 20
7.7343485524
 10
15.0935219852
 20
7.7596568587
 10
15.1677979632
 20
7.7920399751
 10
15.2327348577
 20
7.8307337242
 10
15.2867411819
 20
7.874819266
 10
15.3284933375
 20
7.9232456175
 10
15.3402116634
 20
7.9444848233
  0
LWPOLYLINE
  5
651
100
AcDbEntity
  8
02___PRT_ALL_AXES
100
AcDbPolyline
 62
7
  6
CONTINUOUS
 90
11
 70
0
 10
14.5637513592
 20
7.7700492501
 10
14.6511646526
 20
7.7549980259
 10
14.7419006186
 20
7.7480224525
 10
14.8337354814
 20
7.749322963
 10
14.9244185331
 20
7.7588971589
 10
15.0117272948
 20
7.7765398682
 10
15.0935219852
 20
7.8018481745
 10
15.1677979632
 20
7.834231291
 10
15.2327348577
 20
7.87292504
 10
15.2867411819
 20
7.9170105818
 10
15.297608863
 20
7.9296154914
  0
LWPOLYLINE
  5
652
100
AcDbEntity
  8
02___PRT_ALL_AXES
100
AcDbPolyline
 62
7
  6
CONTINUOUS
 90
11
 70
0
 10
14.5637513592
 20
7.7760765809
 10
14.6511646526
 20
7.7610253568
 10
14.7419006186
 20
7.7540497833
 10
14.8337354814
 20
7.7553502938
 10
14.9244185331
 20
7.7649244897
 10
15.0117272948
 20
7.7825671991
 10
15.0935219852
 20
7.8078755053
 10
15.1677979632
 20
7.8402586218
 10
15.2327348577
 20
7.8789523709
 10
15.2867411819
 20
7.9230379127
 10
15.2901753338
 20
7.9270210231
  0
LWPOLYLINE
  5
653
100
AcDbEntity
  8
02___PRT_ALL_AXES
100
AcDbPolyline
 62
7
  6
CONTINUOUS
 90
9
 70
0
 10
14.5637513592
 20
7.8182678967
 10
14.6511646526
 20
7.8032166726
 10
14.7419006186
 20
7.7962410991
 10
14.8337354814
 20
7.7975416097
 10
14.9244185331
 20
7.8071158055
 10
15.0117272948
 20
7.8247585149
 10
15.0935219852
 20
7.8500668212
 10
15.1677979632
 20
7.8824499376
 10
15.1910313414
 20
7.8962939398
  0
LWPOLYLINE
  5
654
100
AcDbEntity
  8
02___PRT_ALL_AXES
100
AcDbPolyline
 62
7
  6
CONTINUOUS
 90
3
 70
0
 10
14.6309789098
 20
7.7533599313
 10
14.5514296293
 20
7.7696596424
 10
14.4772813649
 20
7.7929013031
  0
LWPOLYLINE
  5
655
100
AcDbEntity
  8
02___PRT_ALL_AXES
100
AcDbPolyline
 62
7
  6
CONTINUOUS
 90
3
 70
0
 10
14.6288690477
 20
7.8019094362
 10
14.550128304
 20
7.8182141362
 10
14.4772813649
 20
7.8411199498
  0
LWPOLYLINE
  5
656
100
AcDbEntity
  8
02___PRT_ALL_AXES
100
AcDbPolyline
 62
7
  6
CONTINUOUS
 90
5
 70
0
 10
14.5637513592
 20
7.7700492501
 10
14.542712472
 20
7.7767351942
 10
14.520745032
 20
7.7843862023
 10
14.4986924579
 20
7.7927933302
 10
14.4772813649
 20
7.8016857606
  0
LWPOLYLINE
  5
657
100
AcDbEntity
  8
02___PRT_ALL_AXES
100
AcDbPolyline
 62
7
  6
CONTINUOUS
 90
4
 70
0
 10
14.2441605196
 20
7.8580812375
 10
14.2731314597
 20
7.8487136019
 10
14.3019672731
 20
7.8381844766
 10
14.330630514
 20
7.826444727
  0
LWPOLYLINE
  5
658
100
AcDbEntity
  8
02___PRT_ALL_AXES
100
AcDbPolyline
 62
7
  6
CONTINUOUS
 90
4
 70
0
 10
14.2441605196
 20
7.9062998842
 10
14.2731314597
 20
7.8969322486
 10
14.3019672731
 20
7.8864031233
 10
14.330630514
 20
7.8746633736
  0
LWPOLYLINE
  5
659
100
AcDbEntity
  8
02___PRT_ALL_AXES
100
AcDbPolyline
 62
7
  6
CONTINUOUS
 90
4
 70
0
 10
14.5637513592
 20
7.8182678967
 10
14.5347760677
 20
7.8276370283
 10
14.5059399253
 20
7.8381664689
 10
14.4772813649
 20
7.8499044073
  0
LWPOLYLINE
  5
65A
100
AcDbEntity
  8
0
100
AcDbPolyline
 62
9
  6
CONTINUOUS
 90
3
 70
0
 10
14.0907701848
 20
8.0270340579
 10
14.1647105403
 20
7.9884643065
 10
14.2581018861
 20
7.9495178546
  0
LWPOLYLINE
  5
65B
100
AcDbEntity
  8
02___PRT_ALL_AXES
100
AcDbPolyline
 62
7
  6
CONTINUOUS
 90
5
 70
0
 10
14.4772813649
 20
7.8411199498
 10
14.4987724472
 20
7.8260509314
 10
14.5207769447
 20
7.8098493244
 10
14.5426594003
 20
7.7929932985
 10
14.5637513592
 20
7.7760765809
  0
LWPOLYLINE
  5
65C
100
AcDbEntity
  8
02___PRT_ALL_AXES
100
AcDbPolyline
 62
7
  6
CONTINUOUS
 90
4
 70
0
 10
14.330630514
 20
7.8834478311
 10
14.301972579
 20
7.9037092688
 10
14.2731341849
 20
7.9254198373
 10
14.2609454267
 20
7.9351255911
  0
LWPOLYLINE
  5
65D
100
AcDbEntity
  8
02___PRT_ALL_AXES
100
AcDbPolyline
 62
7
  6
CONTINUOUS
 90
4
 70
0
 10
14.4772813649
 20
7.7929013031
 10
14.505944193
 20
7.7726362922
 10
14.5347822177
 20
7.7509257911
 10
14.5637513592
 20
7.7278579342
  0
LINE
  5
65E
100
AcDbEntity
  8
02___PRT_ALL_AXES
100
AcDbLine
 62
7
  6
CONTINUOUS
 10
14.330630514
 20
7.8746633736
 11
14.2981031436
 21
7.9066223173
  0
LWPOLYLINE
  5
65F
100
AcDbEntity
  8
0
100
AcDbPolyline
 62
7
  6
CONTINUOUS
 90
5
 70
0
 10
13.8977475159
 20
8.6726057818
 10
13.9360137165
 20
8.6034721194
 10
13.9902255033
 20
8.5381186968
 10
14.0587783263
 20
8.478141983
 10
14.1260998916
 20
8.4336784037
  0
LINE
  5
660
100
AcDbEntity
  8
AXIS
100
AcDbLine
 62
7
  6
CONTINUOUS
 10
13.8923037231
 20
8.6861883982
 11
13.9290988719
 21
8.6138411861
  0
LINE
  5
661
100
AcDbEntity
  8
AXIS
100
AcDbLine
 62
7
  6
CONTINUOUS
 10
13.9564729585
 20
8.7425426372
 11
13.9515707613
 21
8.7559460754
  0
LINE
  5
662
100
AcDbEntity
  8
02___PRT_ALL_AXES
100
AcDbLine
 62
7
  6
CONTINUOUS
 10
14.215259592
 20
7.9522371249
 11
14.2160068719
 21
7.9495371456
  0
LWPOLYLINE
  5
663
100
AcDbEntity
  8
0
100
AcDbPolyline
 62
7
  6
CONTINUOUS
 90
4
 70
0
 10
14.330630514
 20
7.6072690657
 10
14.3321303096
 20
7.5980257559
 10
14.3364765748
 20
7.5911291916
 10
14.3372220066
 20
7.5904503924
  0
LINE
  5
664
100
AcDbEntity
  8
02___PRT_ALL_AXES
100
AcDbLine
 62
7
  6
CONTINUOUS
 10
14.2441605196
 20
7.7073979666
 11
14.2441605196
 21
7.7134252974
  0
LINE
  5
665
100
AcDbEntity
  8
02___PRT_ALL_AXES
100
AcDbLine
 62
7
  6
CONTINUOUS
 10
14.2441605196
 20
7.7556166133
 11
14.2441605196
 21
7.7616439441
  0
LINE
  5
666
100
AcDbEntity
  8
02___PRT_ALL_AXES
100
AcDbLine
 62
7
  6
CONTINUOUS
 10
14.2441605196
 20
7.80383526
 11
14.2441605196
 21
7.8098625908
  0
LINE
  5
667
100
AcDbEntity
  8
02___PRT_ALL_AXES
100
AcDbLine
 62
7
  6
CONTINUOUS
 10
14.2441605196
 20
7.8520539066
 11
14.2441605196
 21
7.8580812375
  0
LINE
  5
668
100
AcDbEntity
  8
02___PRT_ALL_AXES
100
AcDbLine
 62
7
  6
CONTINUOUS
 10
14.2441605196
 20
7.9002725533
 11
14.2441605196
 21
7.9062998842
  0
LINE
  5
669
100
AcDbEntity
  8
ECAD_LED1A
100
AcDbLine
 62
7
  6
CONTINUOUS
 10
14.2640468501
 20
9.2628303519
 11
14.2640468501
 21
9.2101958746
  0
LINE
  5
66A
100
AcDbEntity
  8
ECAD_LED1A
100
AcDbLine
 62
7
  6
CONTINUOUS
 10
14.2791714163
 20
9.157911686
 11
14.2791714163
 21
9.1182279574
  0
LINE
  5
66B
100
AcDbEntity
  8
02___PRT_ALL_AXES
100
AcDbLine
 62
7
  6
CONTINUOUS
 10
14.2015890523
 20
7.9562129575
 11
14.2001243553
 21
7.9356125647
  0
LINE
  5
66C
100
AcDbEntity
  8
02___PRT_ALL_AXES
100
AcDbLine
 62
7
  6
CONTINUOUS
 10
14.2015890523
 20
7.9079943108
 11
14.2001243553
 21
7.887393918
  0
LINE
  5
66D
100
AcDbEntity
  8
02___PRT_ALL_AXES
100
AcDbLine
 62
7
  6
CONTINUOUS
 10
14.2015890523
 20
7.8597756641
 11
14.2001243553
 21
7.8391752713
  0
LWPOLYLINE
  5
66E
100
AcDbEntity
  8
AXIS
100
AcDbPolyline
 62
7
  6
CONTINUOUS
 90
4
 70
0
 10
14.458799721
 20
9.1411428203
 10
14.4557335675
 20
9.1314828199
 10
14.4459955086
 20
9.1189906859
 10
14.4313622703
 20
9.1082070289
  0
LWPOLYLINE
  5
66F
100
AcDbEntity
  8
02___PRT_ALL_AXES
100
AcDbPolyline
 62
7
  6
CONTINUOUS
 90
6
 70
0
 10
14.911986551
 20
7.8500235891
 10
14.8802230577
 20
7.8449436429
 10
14.7968440118
 20
7.8392194312
 10
14.71341239
 20
7.8408297902
 10
14.6311330507
 20
7.8497732589
 10
14.6063265991
 20
7.8548525781
  0
LWPOLYLINE
  5
670
100
AcDbEntity
  8
02___PRT_ALL_AXES
100
AcDbPolyline
 62
7
  6
CONTINUOUS
 90
3
 70
0
 10
14.7240166103
 20
7.8458346275
 10
14.7419006186
 20
7.8444597458
 10
14.7933682202
 20
7.8451885993
  0
LWPOLYLINE
  5
671
100
AcDbEntity
  8
02___PRT_ALL_AXES
100
AcDbPolyline
 62
7
  6
CONTINUOUS
 90
9
 70
0
 10
14.5637513592
 20
7.8242952276
 10
14.6511646526
 20
7.8092440034
 10
14.7419006186
 20
7.80226843
 10
14.8337354814
 20
7.8035689405
 10
14.9244185331
 20
7.8131431364
 10
15.0117272948
 20
7.8307858458
 10
15.0935219852
 20
7.856094152
 10
15.1677979632
 20
7.8884772685
 10
15.1737773162
 20
7.8920401673
  0
LWPOLYLINE
  5
672
100
AcDbEntity
  8
0
100
AcDbPolyline
 62
7
  6
CONTINUOUS
 90
5
 70
0
 10
14.570039389
 20
7.858145637
 10
14.4404283566
 20
7.8809425988
 10
14.3172237882
 20
7.9140466485
 10
14.2026855422
 20
7.956946709
 10
14.0989242131
 20
8.0090109812
  0
LWPOLYLINE
  5
673
100
AcDbEntity
  8
0
100
AcDbPolyline
 62
9
  6
CONTINUOUS
 90
14
 70
0
 10
14.3686450946
 20
7.9144151386
 10
14.4921698653
 20
7.8866450193
 10
14.6229087598
 20
7.8685264018
 10
14.7561013054
 20
7.8608745148
 10
14.8896697726
 20
7.8637150557
 10
15.0215183441
 20
7.8770024963
 10
15.1490844492
 20
7.9005079207
 10
15.2699052493
 20
7.9337798704
 10
15.3817722128
 20
7.9762016702
 10
15.4826463433
 20
8.0269991154
 10
15.5706497594
 20
8.085228744
 10
15.6441478997
 20
8.1498065038
 10
15.7017993958
 20
8.2195552863
 10
15.7425358403
 20
8.2932002877
  0
LINE
  5
674
100
AcDbEntity
  8
0
100
AcDbLine
 62
9
  6
CONTINUOUS
 10
14.2581018861
 20
7.9495178546
 11
14.3686450946
 21
7.9144151386
  0
LWPOLYLINE
  5
675
100
AcDbEntity
  8
02___PRT_ALL_AXES
100
AcDbPolyline
 62
7
  6
CONTINUOUS
 90
4
 70
0
 10
14.5052935079
 20
7.8695336288
 10
14.505944193
 20
7.8690735856
 10
14.5347822177
 20
7.8473630845
 10
14.5637513592
 20
7.8242952276
  0
LWPOLYLINE
  5
676
100
AcDbEntity
  8
0
100
AcDbPolyline
 62
7
  6
CONTINUOUS
 90
4
 70
0
 10
13.917722886
 20
8.6153441456
 10
13.9731019784
 20
8.5485854445
 10
14.043132024
 20
8.4873184377
 10
14.1255516558
 20
8.4328837437
  0
LINE
  5
677
100
AcDbEntity
  8
AXIS
100
AcDbLine
 62
7
  6
CONTINUOUS
 10
13.9290988719
 20
8.6138411861
 11
13.9833530908
 21
8.5452536132
  0
LINE
  5
678
100
AcDbEntity
  8
AXIS
100
AcDbLine
 62
7
  6
CONTINUOUS
 10
14.0271388853
 20
8.5941125529
 11
14.0197762409
 21
8.6071353577
  0
LWPOLYLINE
  5
679
100
AcDbEntity
  8
0
100
AcDbPolyline
 62
7
  6
CONTINUOUS
 90
4
 70
0
 10
14.5446994355
 20
7.4453412518
 10
14.5524546436
 20
7.4252258789
 10
14.5655873592
 20
7.4060263321
 10
14.5837961377
 20
7.3882013682
  0
LWPOLYLINE
  5
67A
100
AcDbEntity
  8
AXIS
100
AcDbPolyline
 62
7
  6
CONTINUOUS
 90
3
 70
0
 10
14.1695131349
 20
8.4795189325
 10
14.1652360015
 20
8.4929935255
 10
14.1650608068
 20
8.4964121941
  0
LWPOLYLINE
  5
67B
100
AcDbEntity
  8
ECAD_LED1A
100
AcDbPolyline
 62
7
  6
CONTINUOUS
 90
4
 70
0
 10
14.1469352816
 20
8.8904963638
 10
14.1475519124
 20
8.8856024791
 10
14.1479226285
 20
8.8806830533
 10
14.1480463797
 20
8.8757489723
  0
LINE
  5
67C
100
AcDbEntity
  8
02___PRT_ALL_AXES
100
AcDbLine
 62
7
  6
CONTINUOUS
 10
14.330630514
 20
7.8834478311
 11
14.330630514
 21
7.8746633736
  0
LINE
  5
67D
100
AcDbEntity
  8
02___PRT_ALL_AXES
100
AcDbLine
 62
7
  6
CONTINUOUS
 10
14.330630514
 20
7.8352291844
 11
14.330630514
 21
7.826444727
  0
LINE
  5
67E
100
AcDbEntity
  8
02___PRT_ALL_AXES
100
AcDbLine
 62
7
  6
CONTINUOUS
 10
14.330630514
 20
7.7870105377
 11
14.330630514
 21
7.7782260803
  0
LINE
  5
67F
100
AcDbEntity
  8
02___PRT_ALL_AXES
100
AcDbLine
 62
7
  6
CONTINUOUS
 10
14.330630514
 20
7.7387918911
 11
14.330630514
 21
7.7300074336
  0
LINE
  5
680
100
AcDbEntity
  8
02___PRT_ALL_AXES
100
AcDbLine
 62
7
  6
CONTINUOUS
 10
14.330630514
 20
7.6905732444
 11
14.330630514
 21
7.6817887869
  0
LINE
  5
681
100
AcDbEntity
  8
0
100
AcDbLine
 62
7
  6
CONTINUOUS
 10
14.330630514
 20
7.6423545977
 11
14.330630514
 21
7.6072690657
  0
LINE
  5
682
100
AcDbEntity
  8
ECAD_LED1A
100
AcDbLine
 62
7
  6
CONTINUOUS
 10
14.3619068575
 20
8.6104586885
 11
14.3619068575
 21
8.4964373457
  0
LINE
  5
683
100
AcDbEntity
  8
ECAD_LED1A
100
AcDbLine
 62
7
  6
CONTINUOUS
 10
14.3758569401
 20
8.5255099791
 11
14.3758569401
 21
8.4114870462
  0
LWPOLYLINE
  5
684
100
AcDbEntity
  8
ECAD_LED1A
100
AcDbPolyline
 62
9
  6
CONTINUOUS
 90
16
 70
0
 10
14.3619068575
 20
8.6104586885
 10
14.3618227955
 20
8.6081106331
 10
14.3598121429
 20
8.5987975579
 10
14.3551738458
 20
8.5898025679
 10
14.348034425
 20
8.581371023
 10
14.3385886251
 20
8.5737329138
 10
14.3270941031
 20
8.567096588
 10
14.3138643994
 20
8.5616430673
 10
14.299260386
 20
8.5575211095
 10
14.2836804222
 20
8.5548431508
 10
14.2675494888
 20
8.553682239
 10
14.2513075957
 20
8.5540700408
 10
14.2353977794
 20
8.5559959778
 10
14.2202540181
 20
8.5594075157
 10
14.2062893942
 20
8.5642115964
 10
14.1938848263
 20
8.5702771773
  0
LWPOLYLINE
  5
685
100
AcDbEntity
  8
ECAD_LED1A
100
AcDbPolyline
 62
7
  6
CONTINUOUS
 90
14
 70
0
 10
14.3758569401
 20
8.5255099791
 10
14.3769667281
 20
8.5402487236
 10
14.3802845417
 20
8.5546985295
 10
14.3862482241
 20
8.5695275843
 10
14.3943125687
 20
8.5828893094
 10
14.4047377835
 20
8.595159834
 10
14.4171645775
 20
8.6056667242
 10
14.4301445113
 20
8.6134837785
 10
14.4426626566
 20
8.6187179607
 10
14.454651445
 20
8.6219576608
 10
14.4663234176
 20
8.6236128749
 10
14.4777465312
 20
8.6238741868
 10
14.4889234681
 20
8.6228400916
 10
14.4998687752
 20
8.6205512507
  0
LWPOLYLINE
  5
686
100
AcDbEntity
  8
AXIS
100
AcDbPolyline
 62
7
  6
CONTINUOUS
 90
11
 70
0
 10
14.3619023975
 20
8.4964373457
 10
14.360294659
 20
8.4861820098
 10
14.3532356922
 20
8.4731032773
 10
14.3409605439
 20
8.4613799052
 10
14.3241826012
 20
8.4516932133
 10
14.303876937
 20
8.4446061568
 10
14.2812236428
 20
8.4405306098
 10
14.2575392457
 20
8.4397034282
 10
14.2342001968
 20
8.4421726848
 10
14.2125628766
 20
8.4477948754
 10
14.1938847678
 20
8.4562432587
  0
LWPOLYLINE
  5
687
100
AcDbEntity
  8
AXIS
100
AcDbPolyline
 62
7
  6
CONTINUOUS
 90
6
 70
0
 10
14.6922008547
 20
9.203760724
 10
14.6877095874
 20
9.1922472568
 10
14.6771081789
 20
9.1799916367
 10
14.6617347166
 20
9.1695569074
 10
14.6424826501
 20
9.1615494973
 10
14.6204708396
 20
9.156434768
  0
LWPOLYLINE
  5
688
100
AcDbEntity
  8
AXIS
100
AcDbPolyline
 62
7
  6
CONTINUOUS
 90
7
 70
0
 10
15.3587095955
 20
9.051710938
 10
15.3503907009
 20
9.0488074882
 10
15.3277374067
 20
9.0447319412
 10
15.3040530096
 20
9.0439047596
 10
15.2807139607
 20
9.0463740162
 10
15.2590766406
 20
9.0519962068
 10
15.2403985317
 20
9.0604445901
  0
LINE
  5
689
100
AcDbEntity
  8
AXIS
100
AcDbLine
 62
7
  6
CONTINUOUS
 10
13.9833530908
 20
8.5452536132
 11
14.0539619205
 21
8.4818219247
  0
LWPOLYLINE
  5
68A
100
AcDbEntity
  8
0
100
AcDbPolyline
 62
7
  6
CONTINUOUS
 90
6
 70
0
 10
14.5855331233
 20
7.3836994041
 10
14.5876546524
 20
7.3751806515
 10
14.5958445404
 20
7.3590775623
 10
14.6079204795
 20
7.3438112961
 10
14.6236366383
 20
7.32969263
 10
14.6426730813
 20
7.3170089792
  0
LINE
  5
68B
100
AcDbEntity
  8
AXIS
100
AcDbLine
 62
7
  6
CONTINUOUS
 10
14.3772399229
 20
8.4019840549
 11
14.3758627384
 21
8.4114870462
  0
LWPOLYLINE
  5
68C
100
AcDbEntity
  8
0
100
AcDbPolyline
 62
7
  6
CONTINUOUS
 90
4
 70
0
 10
14.4772813649
 20
7.5226020728
 10
14.4785209199
 20
7.5135090097
 10
14.4821106348
 20
7.50704923
 10
14.4846578935
 20
7.5050278758
  0
LWPOLYLINE
  5
68D
100
AcDbEntity
  8
ECAD_LED1A
100
AcDbPolyline
 62
9
  6
CONTINUOUS
 90
8
 70
0
 10
14.3758569401
 20
8.5255099791
 10
14.3768529846
 20
8.5174461901
 10
14.380480699
 20
8.5082977333
 10
14.3866670722
 20
8.4996187817
 10
14.3952433559
 20
8.4916460745
 10
14.4059756115
 20
8.4845970864
 10
14.418571091
 20
8.4786640953
 10
14.4326862227
 20
8.4740089377
  0
LINE
  5
68E
100
AcDbEntity
  8
02___PRT_ALL_AXES
100
AcDbLine
 62
7
  6
CONTINUOUS
 10
14.4772813649
 20
7.8499044073
 11
14.4772813649
 21
7.8411199498
  0
LINE
  5
68F
100
AcDbEntity
  8
02___PRT_ALL_AXES
100
AcDbLine
 62
7
  6
CONTINUOUS
 10
14.4772813649
 20
7.8016857606
 11
14.4772813649
 21
7.7929013031
  0
LINE
  5
690
100
AcDbEntity
  8
02___PRT_ALL_AXES
100
AcDbLine
 62
7
  6
CONTINUOUS
 10
14.4772813649
 20
7.7534671139
 11
14.4772813649
 21
7.7446826564
  0
LINE
  5
691
100
AcDbEntity
  8
02___PRT_ALL_AXES
100
AcDbLine
 62
7
  6
CONTINUOUS
 10
14.4772813649
 20
7.7052484672
 11
14.4772813649
 21
7.6964640097
  0
LINE
  5
692
100
AcDbEntity
  8
02___PRT_ALL_AXES
100
AcDbLine
 62
7
  6
CONTINUOUS
 10
14.4772813649
 20
7.6570298205
 11
14.4772813649
 21
7.6482453631
  0
LINE
  5
693
100
AcDbEntity
  8
02___PRT_ALL_AXES
100
AcDbLine
 62
7
  6
CONTINUOUS
 10
14.4772813649
 20
7.6088111739
 11
14.4772813649
 21
7.6000267164
  0
LINE
  5
694
100
AcDbEntity
  8
0
100
AcDbLine
 62
7
  6
CONTINUOUS
 10
14.4772813649
 20
7.5605925272
 11
14.4772813649
 21
7.5226020728
  0
LINE
  5
695
100
AcDbEntity
  8
ECAD_LED1A
100
AcDbLine
 62
7
  6
CONTINUOUS
 10
14.4971784114
 20
9.3250066423
 11
14.4971784114
 21
9.206381043
  0
LWPOLYLINE
  5
696
100
AcDbEntity
  8
ECAD_LED1A
100
AcDbPolyline
 62
7
  6
CONTINUOUS
 90
10
 70
0
 10
14.4971784114
 20
9.3250066423
 10
14.4984279889
 20
9.3406405284
 10
14.5022733463
 20
9.3562633469
 10
14.5087333069
 20
9.3712783412
 10
14.517711892
 20
9.3851764014
 10
14.5289429986
 20
9.3974212989
 10
14.5419563051
 20
9.4075262536
 10
14.555396417
 20
9.4148448366
 10
14.5681609015
 20
9.4195286885
 10
14.5805561376
 20
9.4222747923
  0
LWPOLYLINE
  5
697
100
AcDbEntity
  8
AXIS
100
AcDbPolyline
 62
7
  6
CONTINUOUS
 90
3
 70
0
 10
14.4965783312
 20
9.211328889
 10
14.4970694301
 20
9.2170353712
 10
14.4971784114
 20
9.2173147471
  0
LWPOLYLINE
  5
698
100
AcDbEntity
  8
ECAD_LED1A
100
AcDbPolyline
 62
9
  6
CONTINUOUS
 90
8
 70
0
 10
15.5175737997
 20
9.0482204955
 10
15.5193567303
 20
9.0489272659
 10
15.5310604785
 20
9.0554405578
 10
15.5407477267
 20
9.0629771934
 10
15.548154232
 20
9.0713315927
 10
15.5530779642
 20
9.0802758697
 10
15.5553846169
 20
9.0895660478
 10
15.5555599892
 20
9.0929567391
  0
LINE
  5
699
100
AcDbEntity
  8
AXIS
100
AcDbLine
 62
7
  6
CONTINUOUS
 10
14.0539619205
 20
8.4818219247
 11
14.1261396993
 21
8.4337311267
  0
LWPOLYLINE
  5
69A
100
AcDbEntity
  8
0
100
AcDbPolyline
 62
7
  6
CONTINUOUS
 90
3
 70
0
 10
14.5434477137
 20
7.4855460325
 10
14.5453699558
 20
7.4717152729
 10
14.5541892141
 20
7.4510315361
  0
LINE
  5
69B
100
AcDbEntity
  8
0
100
AcDbLine
 62
7
  6
CONTINUOUS
 10
14.5424668749
 20
7.4636725852
 11
14.5446994355
 21
7.4453412518
  0
LWPOLYLINE
  5
69C
100
AcDbEntity
  8
0
100
AcDbPolyline
 62
7
  6
CONTINUOUS
 90
3
 70
0
 10
14.5424668749
 20
7.4612618438
 10
14.5425872597
 20
7.4568345393
 10
14.5454740836
 20
7.4392005883
  0
LINE
  5
69D
100
AcDbEntity
  8
02___PRT_ALL_AXES
100
AcDbLine
 62
7
  6
CONTINUOUS
 10
14.5637513592
 20
7.8242952276
 11
14.5637513592
 21
7.8182678967
  0
LINE
  5
69E
100
AcDbEntity
  8
02___PRT_ALL_AXES
100
AcDbLine
 62
7
  6
CONTINUOUS
 10
14.5637513592
 20
7.7760765809
 11
14.5637513592
 21
7.7700492501
  0
LINE
  5
69F
100
AcDbEntity
  8
02___PRT_ALL_AXES
100
AcDbLine
 62
7
  6
CONTINUOUS
 10
14.5637513592
 20
7.7278579342
 11
14.5637513592
 21
7.7218306034
  0
LINE
  5
6A0
100
AcDbEntity
  8
02___PRT_ALL_AXES
100
AcDbLine
 62
7
  6
CONTINUOUS
 10
14.5637513592
 20
7.6796392875
 11
14.5637513592
 21
7.6736119567
  0
LINE
  5
6A1
100
AcDbEntity
  8
02___PRT_ALL_AXES
100
AcDbLine
 62
7
  6
CONTINUOUS
 10
14.5637513592
 20
7.6314206409
 11
14.5637513592
 21
7.62539331
  0
LINE
  5
6A2
100
AcDbEntity
  8
02___PRT_ALL_AXES
100
AcDbLine
 62
7
  6
CONTINUOUS
 10
14.5637513592
 20
7.5832019942
 11
14.5637513592
 21
7.5771746633
  0
LINE
  5
6A3
100
AcDbEntity
  8
02___PRT_ALL_AXES
100
AcDbLine
 62
7
  6
CONTINUOUS
 10
14.5637513592
 20
7.5349833475
 11
14.5637513592
 21
7.5289560167
  0
LINE
  5
6A4
100
AcDbEntity
  8
ECAD_LED1A
100
AcDbLine
 62
7
  6
CONTINUOUS
 10
14.5727073338
 20
8.5255099791
 11
14.5727073338
 21
8.411464887
  0
LWPOLYLINE
  5
6A5
100
AcDbEntity
  8
ECAD_LED1A
100
AcDbPolyline
 62
9
  6
CONTINUOUS
 90
14
 70
0
 10
14.5727073338
 20
8.5255099791
 10
14.5726813903
 20
8.5242053522
 10
14.5709674163
 20
8.5148725231
 10
14.56661612
 20
8.5058298561
 10
14.5597461932
 20
8.4973240115
 10
14.5505450298
 20
8.4895870066
 10
14.5392636135
 20
8.4828298868
 10
14.5262096719
 20
8.4772369687
 10
14.5117392825
 20
8.4729608124
 10
14.4962471598
 20
8.4701180604
 10
14.4801558885
 20
8.4687862556
 10
14.4639043966
 20
8.4690017261
 10
14.4479359825
 20
8.4707585944
 10
14.4326862227
 20
8.4740089377
  0
LINE
  5
6A6
100
AcDbEntity
  8
AXIS
100
AcDbLine
 62
7
  6
CONTINUOUS
 10
14.5727018568
 20
8.411464887
 11
14.5724393163
 21
8.407284008
  0
LINE
  5
6A7
100
AcDbEntity
  8
AXIS
100
AcDbLine
 62
7
  6
CONTINUOUS
 10
14.7520668073
 20
9.2240829059
 11
14.7527721799
 21
9.2279899404
  0
LWPOLYLINE
  5
6A8
100
AcDbEntity
  8
AXIS
100
AcDbPolyline
 62
7
  6
CONTINUOUS
 90
9
 70
0
 10
14.5724393163
 20
8.407284008
 10
14.5678494312
 20
8.3938437591
 10
14.5578217644
 20
8.38142823
 10
14.5429390874
 20
8.3707589661
 10
14.5240663273
 20
8.3624560263
 10
14.5023003004
 20
8.3570019472
 10
14.4789059691
 20
8.3547137002
 10
14.4552429267
 20
8.3557242697
 10
14.4326863834
 20
8.3599749252
  0
LWPOLYLINE
  5
6A9
100
AcDbEntity
  8
0
100
AcDbPolyline
 62
7
  6
CONTINUOUS
 90
3
 70
0
 10
14.125568602
 20
8.4328739869
 10
14.2208118839
 20
8.3848659611
 10
14.3275367481
 20
8.3443481774
  0
LINE
  5
6AA
100
AcDbEntity
  8
0
100
AcDbLine
 62
7
  6
CONTINUOUS
 10
14.1255516558
 20
8.4328837437
 11
14.125568602
 21
8.4328739869
  0
LWPOLYLINE
  5
6AB
100
AcDbEntity
  8
AXIS
100
AcDbPolyline
 62
7
  6
CONTINUOUS
 90
3
 70
0
 10
14.1938847678
 20
8.4562432587
 10
14.179251374
 20
8.4670268453
 10
14.1695131349
 20
8.4795189325
  0
LWPOLYLINE
  5
6AC
100
AcDbEntity
  8
ECAD_LED1A
100
AcDbPolyline
 62
7
  6
CONTINUOUS
 90
6
 70
0
 10
14.1929112158
 20
8.7940059772
 10
14.2005610717
 20
8.7830999318
 10
14.2066551192
 20
8.7712908629
 10
14.2111163696
 20
8.7587204006
 10
14.2138451249
 20
8.7456034496
 10
14.2147672706
 20
8.7321619325
  0
LINE
  5
6AD
100
AcDbEntity
  8
AXIS
100
AcDbLine
 62
7
  6
CONTINUOUS
 10
14.4975473347
 20
9.203339156
 11
14.4965783312
 21
9.211328889
  0
LINE
  5
6AE
100
AcDbEntity
  8
ECAD_LED1A
100
AcDbLine
 62
7
  6
CONTINUOUS
 10
14.6245616155
 20
8.4869903235
 11
14.6245616155
 21
8.3682234861
  0
LWPOLYLINE
  5
6AF
100
AcDbEntity
  8
ECAD_LED1A
100
AcDbPolyline
 62
7
  6
CONTINUOUS
 90
12
 70
0
 10
14.6245616155
 20
8.4869903235
 10
14.6257155245
 20
8.502017497
 10
14.6292552122
 20
8.5170220818
 10
14.6351899475
 20
8.5314788601
 10
14.6437065485
 20
8.545318354
 10
14.6543943218
 20
8.5575777843
 10
14.6668456905
 20
8.5678339616
 10
14.679855354
 20
8.5754617691
 10
14.6923165785
 20
8.580514952
 10
14.7045164815
 20
8.5836669301
 10
14.7163486483
 20
8.5851914139
 10
14.7279517883
 20
8.5852902136
  0
LWPOLYLINE
  5
6B0
100
AcDbEntity
  8
ECAD_LED1A
100
AcDbPolyline
 62
7
  6
CONTINUOUS
 90
12
 70
0
 10
14.7527721799
 20
9.3385365963
 10
14.7539260889
 20
9.3535637698
 10
14.7574657766
 20
9.3685683546
 10
14.7634005118
 20
9.3830251329
 10
14.7719171129
 20
9.3968646268
 10
14.7826048862
 20
9.4091240571
 10
14.7950562548
 20
9.4193802343
 10
14.8080659184
 20
9.4270080419
 10
14.8205271429
 20
9.4320612248
 10
14.8327270458
 20
9.4352132029
 10
14.8445592127
 20
9.4367376867
 10
14.8561623527
 20
9.4368364864
  0
LWPOLYLINE
  5
6B1
100
AcDbEntity
  8
0
100
AcDbPolyline
 62
7
  6
CONTINUOUS
 90
3
 70
0
 10
14.5445030476
 20
7.4779527803
 10
14.5424994763
 20
7.4658930113
 10
14.5424668749
 20
7.4636725852
  0
LINE
  5
6B2
100
AcDbEntity
  8
AXIS
100
AcDbLine
 62
7
  6
CONTINUOUS
 10
14.6238562429
 20
8.3725366331
 11
14.6245616155
 21
8.3764436676
  0
LWPOLYLINE
  5
6B3
100
AcDbEntity
  8
ECAD_LED1A
100
AcDbPolyline
 62
7
  6
CONTINUOUS
 90
17
 70
0
 10
15.3442257896
 20
8.7528540982
 10
15.3563054265
 20
8.7587672052
 10
15.3688651916
 20
8.762923635
 10
15.3811192574
 20
8.7652664858
 10
15.3929379332
 20
8.7660391758
 10
15.4044271968
 20
8.7654250688
 10
15.4155876989
 20
8.7635158114
 10
15.4265989611
 20
8.7602860717
 10
15.4378117949
 20
8.7554702477
 10
15.4484434386
 20
8.7492359556
 10
15.4587732141
 20
8.7412280961
 10
15.4683599885
 20
8.7314450248
 10
15.4761634897
 20
8.7209447961
 10
15.4827546986
 20
8.7089683235
 10
15.4876955588
 20
8.6959536269
 10
15.4907515911
 20
8.6823670974
 10
15.4918633645
 20
8.6676152502
  0
LWPOLYLINE
  5
6B4
100
AcDbEntity
  8
ECAD_LED1A
100
AcDbPolyline
 62
7
  6
CONTINUOUS
 90
17
 70
0
 10
15.1624997923
 20
8.6479354323
 10
15.1745794292
 20
8.6538485393
 10
15.1871391943
 20
8.6580049691
 10
15.1993932601
 20
8.6603478199
 10
15.2112119359
 20
8.6611205099
 10
15.2227011995
 20
8.6605064029
 10
15.2338617016
 20
8.6585971455
 10
15.2448729638
 20
8.6553674058
 10
15.2560857976
 20
8.6505515818
 10
15.2667174413
 20
8.6443172897
 10
15.2770472168
 20
8.6363094302
 10
15.2866339913
 20
8.6265263589
 10
15.2944374924
 20
8.6160261302
 10
15.3010287013
 20
8.6040496576
 10
15.3059695615
 20
8.591034961
 10
15.3090255938
 20
8.5774484315
 10
15.3101373672
 20
8.5626965843
  0
LWPOLYLINE
  5
6B5
100
AcDbEntity
  8
0
100
AcDbPolyline
 62
7
  6
CONTINUOUS
 90
7
 70
0
 10
14.5651534595
 20
8.2901380461
 10
14.6907860097
 20
8.2776103929
 10
14.8182663058
 20
8.2750688149
 10
14.945330803
 20
8.2825832109
 10
15.0694340798
 20
8.3000246999
 10
15.1882028434
 20
8.3270523639
 10
15.2994824528
 20
8.3631662055
  0
LWPOLYLINE
  5
6B6
100
AcDbEntity
  8
0
100
AcDbPolyline
 62
7
  6
CONTINUOUS
 90
3
 70
0
 10
14.3275367481
 20
8.3443481774
 10
14.4432922109
 20
8.3124968869
 10
14.5651534595
 20
8.2901380461
  0
LWPOLYLINE
  5
6B7
100
AcDbEntity
  8
AXIS
100
AcDbPolyline
 62
7
  6
CONTINUOUS
 90
5
 70
0
 10
14.4326863834
 20
8.3599749252
 10
14.4125472434
 20
8.3672186341
 10
14.3959959204
 20
8.3770344182
 10
14.383994317
 20
8.38885182
 10
14.3772399229
 20
8.4019840549
  0
LWPOLYLINE
  5
6B8
100
AcDbEntity
  8
AXIS
100
AcDbPolyline
 62
7
  6
CONTINUOUS
 90
3
 70
0
 10
14.6275588878
 20
8.357105006
 10
14.6239099019
 20
8.3706410394
 10
14.6238562429
 20
8.3725366331
  0
LWPOLYLINE
  5
6B9
100
AcDbEntity
  8
ECAD_LED1A
100
AcDbPolyline
 62
9
  6
CONTINUOUS
 90
10
 70
0
 10
14.6245616155
 20
8.4869903235
 10
14.6258306894
 20
8.4778945359
 10
14.6297488929
 20
8.4687860995
 10
14.6362103837
 20
8.4601742269
 10
14.6450389093
 20
8.4522938275
 10
14.6559936504
 20
8.445359858
 10
14.6687757904
 20
8.4395614592
 10
14.6830366658
 20
8.4350567961
 10
14.698387277
 20
8.4319687443
 10
14.7144088994
 20
8.4303815377
  0
LINE
  5
6BA
100
AcDbEntity
  8
ECAD_LED1A
100
AcDbLine
 62
7
  6
CONTINUOUS
 10
14.7527721799
 20
9.3385365963
 11
14.7527721799
 21
9.2197697589
  0
LWPOLYLINE
  5
6BB
100
AcDbEntity
  8
AXIS
100
AcDbPolyline
 62
7
  6
CONTINUOUS
 90
8
 70
0
 10
14.9473591704
 20
9.2154959758
 10
14.9467920563
 20
9.2123547501
 10
14.939127437
 20
9.1993901495
 10
14.9263115445
 20
9.1878612739
 10
14.9090891919
 20
9.1784381399
 10
14.8884612797
 20
9.1716683855
 10
14.8656266272
 20
9.1679454444
 10
14.8419123015
 20
9.1674856804
  0
LWPOLYLINE
  5
6BC
100
AcDbEntity
  8
AXIS
100
AcDbPolyline
 62
7
  6
CONTINUOUS
 90
7
 70
0
 10
15.0033481298
 20
8.3311894721
 10
14.9798558217
 20
8.3292646732
 10
14.9562483034
 20
8.3306416668
 10
14.9338975583
 20
8.3352404272
 10
14.9141025303
 20
8.3427936911
 10
14.8980136346
 20
8.3528624903
 10
14.8865658992
 20
8.3648616627
  0
LWPOLYLINE
  5
6BD
100
AcDbEntity
  8
AXIS
100
AcDbPolyline
 62
7
  6
CONTINUOUS
 90
6
 70
0
 10
14.7137017371
 20
8.3159394076
 10
14.6904859285
 20
8.3187695404
 10
14.6691178554
 20
8.3247250931
 10
14.6508393525
 20
8.3334599505
 10
14.6367127001
 20
8.3444664745
 10
14.6275588878
 20
8.357105006
  0
LWPOLYLINE
  5
6BE
100
AcDbEntity
  8
ECAD_LED1A
100
AcDbPolyline
 62
7
  6
CONTINUOUS
 90
8
 70
0
 10
14.3126934241
 20
8.6956978914
 10
14.3247287307
 20
8.6875061789
 10
14.3354471951
 20
8.6776039134
 10
14.3445432147
 20
8.6662847024
 10
14.3519347269
 20
8.6536278262
 10
14.3573766658
 20
8.6399755885
 10
14.3607553062
 20
8.6254705924
 10
14.3619068575
 20
8.6104586885
  0
LINE
  5
6BF
100
AcDbEntity
  8
ECAD_LED1A
100
AcDbLine
 62
7
  6
CONTINUOUS
 10
14.8800557016
 20
8.4997613464
 11
14.8800557016
 21
8.3811357472
  0
LWPOLYLINE
  5
6C0
100
AcDbEntity
  8
ECAD_LED1A
100
AcDbPolyline
 62
7
  6
CONTINUOUS
 90
10
 70
0
 10
14.8800557016
 20
8.4997613464
 10
14.8813052791
 20
8.5153952325
 10
14.8851506365
 20
8.531018051
 10
14.891610597
 20
8.5460330453
 10
14.9005891822
 20
8.5599311055
 10
14.9118202888
 20
8.5721760031
 10
14.9248335953
 20
8.5822809577
 10
14.9382737072
 20
8.5895995407
 10
14.9510381917
 20
8.5942833927
 10
14.9634334278
 20
8.5970294964
  0
LWPOLYLINE
  5
6C1
100
AcDbEntity
  8
AXIS
100
AcDbPolyline
 62
7
  6
CONTINUOUS
 90
3
 70
0
 10
14.8794556214
 20
8.3860835931
 10
14.8799467203
 20
8.3917900753
 10
14.8800557016
 20
8.3920694512
  0
LWPOLYLINE
  5
6C2
100
AcDbEntity
  8
ECAD_LED1A
100
AcDbPolyline
 62
9
  6
CONTINUOUS
 90
11
 70
0
 10
14.8214120092
 20
8.4869903235
 10
14.8199942561
 20
8.4773801324
 10
14.815931429
 20
8.4682928404
 10
14.8093333151
 20
8.459715567
 10
14.8003798937
 20
8.4518822779
 10
14.7893153908
 20
8.4450066447
 10
14.7764416171
 20
8.4392762168
 10
14.7621097358
 20
8.4348473054
 10
14.746710683
 20
8.4318407196
 10
14.730664505
 20
8.4303384712
 10
14.7144088994
 20
8.4303815377
  0
LWPOLYLINE
  5
6C3
100
AcDbEntity
  8
AXIS
100
AcDbPolyline
 62
7
  6
CONTINUOUS
 90
8
 70
0
 10
14.8191486061
 20
8.3639497031
 10
14.8185814919
 20
8.3608084773
 10
14.8109168726
 20
8.3478438767
 10
14.7981009801
 20
8.3363150012
 10
14.7808786275
 20
8.3268918671
 10
14.7602507153
 20
8.3201221127
 10
14.7374160629
 20
8.3163991716
 10
14.7137017371
 20
8.3159394076
  0
LINE
  5
6C4
100
AcDbEntity
  8
AXIS
100
AcDbLine
 62
7
  6
CONTINUOUS
 10
15.6029365393
 20
8.8015045458
 11
15.6002624251
 21
8.799875435
  0
LINE
  5
6C5
100
AcDbEntity
  8
AXIS
100
AcDbLine
 62
7
  6
CONTINUOUS
 10
14.8865658992
 20
8.3648616627
 11
14.8804246249
 21
8.3780938601
  0
LINE
  5
6C6
100
AcDbEntity
  8
AXIS
100
AcDbLine
 62
7
  6
CONTINUOUS
 10
14.503688609
 20
9.1901069586
 11
14.4975473347
 21
9.203339156
  0
LINE
  5
6C7
100
AcDbEntity
  8
AXIS
100
AcDbLine
 62
7
  6
CONTINUOUS
 10
14.8804246249
 20
8.3780938601
 11
14.8794556214
 21
8.3860835931
  0
LINE
  5
6C8
100
AcDbEntity
  8
ECAD_LED1A
100
AcDbLine
 62
7
  6
CONTINUOUS
 10
14.9496225736
 20
9.3385365963
 11
14.9496225736
 21
9.3175512427
  0
LWPOLYLINE
  5
6C9
100
AcDbEntity
  8
ECAD_LED1A
100
AcDbPolyline
 62
7
  6
CONTINUOUS
 90
14
 70
0
 10
15.0007695323
 20
9.2996088232
 10
15.0018793204
 20
9.3143475677
 10
15.005197134
 20
9.3287973736
 10
15.0111608163
 20
9.3436264283
 10
15.019225161
 20
9.3569881534
 10
15.0296503757
 20
9.369258678
 10
15.0420771697
 20
9.3797655682
 10
15.0550571035
 20
9.3875826226
 10
15.0675752489
 20
9.3928168048
 10
15.0795640372
 20
9.3960565049
 10
15.0912360099
 20
9.3977117189
 10
15.1026591235
 20
9.3979730308
 10
15.1138360603
 20
9.3969389356
 10
15.1247813674
 20
9.3946500948
  0
LWPOLYLINE
  5
6CA
100
AcDbEntity
  8
AXIS
100
AcDbPolyline
 62
7
  6
CONTINUOUS
 90
9
 70
0
 10
15.1973519085
 20
9.1813828521
 10
15.1927620234
 20
9.1679426032
 10
15.1827343566
 20
9.1555270741
 10
15.1678516796
 20
9.1448578102
 10
15.1489789196
 20
9.1365548704
 10
15.1272128927
 20
9.1311007913
 10
15.1038185613
 20
9.1288125442
 10
15.0801555189
 20
9.1298231138
 10
15.0575989756
 20
9.1340737693
  0
LWPOLYLINE
  5
6CB
100
AcDbEntity
  8
AXIS
100
AcDbPolyline
 62
7
  6
CONTINUOUS
 90
9
 70
0
 10
15.4623282212
 20
8.5129919271
 10
15.4436502342
 20
8.504543454
 10
15.4220129952
 20
8.4989211594
 10
15.3986739819
 20
8.4964517906
 10
15.3749895728
 20
8.4972788584
 10
15.3523362199
 20
8.5013542965
 10
15.3320304535
 20
8.5084412554
 10
15.315252371
 20
8.5181278666
 10
15.3101373672
 20
8.5230128557
  0
LWPOLYLINE
  5
6CC
100
AcDbEntity
  8
AXIS
100
AcDbPolyline
 62
7
  6
CONTINUOUS
 90
10
 70
0
 10
15.2806023937
 20
8.4080732612
 10
15.2619244066
 20
8.3996247881
 10
15.2402871676
 20
8.3940024935
 10
15.2169481543
 20
8.3915331248
 10
15.1932637453
 20
8.3923601925
 10
15.1706103923
 20
8.3964356306
 10
15.1503046259
 20
8.4035225895
 10
15.1335265434
 20
8.4132092007
 10
15.1212512261
 20
8.4249325138
 10
15.1141920707
 20
8.4380112123
  0
LINE
  5
6CD
100
AcDbEntity
  8
0
100
AcDbLine
 62
7
  6
CONTINUOUS
 10
15.2994824528
 20
8.3631662055
 11
15.4012225537
 21
8.4077027425
  0
LWPOLYLINE
  5
6CE
100
AcDbEntity
  8
AXIS
100
AcDbPolyline
 62
7
  6
CONTINUOUS
 90
5
 70
0
 10
14.0179168769
 20
8.7074091049
 10
14.000982438
 20
8.7114973071
 10
13.981918189
 20
8.7196531254
 10
13.9667886037
 20
8.7302060004
 10
13.9564729585
 20
8.7425426372
  0
LWPOLYLINE
  5
6CF
100
AcDbEntity
  8
ECAD_LED1A
100
AcDbPolyline
 62
7
  6
CONTINUOUS
 90
10
 70
0
 10
14.4998687752
 20
8.6205512507
 10
14.5116449964
 20
8.6165678514
 10
14.5234064074
 20
8.6107996351
 10
14.5353160121
 20
8.6027264634
 10
14.5460070632
 20
8.5929121624
 10
14.5551346111
 20
8.5816383747
 10
14.5625634422
 20
8.569029291
 10
14.5680939455
 20
8.5552902402
 10
14.5715321173
 20
8.5406744339
 10
14.5727073338
 20
8.5255099791
  0
LWPOLYLINE
  5
6D0
100
AcDbEntity
  8
AXIS
100
AcDbPolyline
 62
7
  6
CONTINUOUS
 90
3
 70
0
 10
14.7557694521
 20
9.2086512788
 10
14.7521204662
 20
9.2221873121
 10
14.7520668073
 20
9.2240829059
  0
LWPOLYLINE
  5
6D1
100
AcDbEntity
  8
ECAD_LED1A
100
AcDbPolyline
 62
9
  6
CONTINUOUS
 90
12
 70
0
 10
14.8800557016
 20
8.4997613464
 10
14.8816305967
 20
8.4896366301
 10
14.8858379667
 20
8.4805712884
 10
14.8925723943
 20
8.4720294014
 10
14.901650182
 20
8.4642439695
 10
14.9128237114
 20
8.4574273592
 10
14.9257881976
 20
8.4517655096
 10
14.9401900034
 20
8.4474128613
 10
14.955636285
 20
8.4444881433
 10
14.971705708
 20
8.4430711342
 10
14.9879599407
 20
8.4432004862
 10
15.0039556097
 20
8.4448726711
  0
LWPOLYLINE
  5
6D2
100
AcDbEntity
  8
0
100
AcDbPolyline
 62
7
  6
CONTINUOUS
 90
3
 70
0
 10
15.031010182
 20
7.4797454536
 10
15.0309210246
 20
7.4836936772
 10
15.0305688952
 20
7.4857351641
  0
LINE
  5
6D3
100
AcDbEntity
  8
ECAD_LED1A
100
AcDbLine
 62
7
  6
CONTINUOUS
 10
15.0007695323
 20
9.2996088232
 11
15.0007695323
 21
9.1855858903
  0
LWPOLYLINE
  5
6D4
100
AcDbEntity
  8
ECAD_LED1A
100
AcDbPolyline
 62
9
  6
CONTINUOUS
 90
9
 70
0
 10
15.0769060953
 20
8.4997613464
 10
15.0757777648
 20
8.4911816638
 10
15.0720047783
 20
8.482052814
 10
15.0656807042
 20
8.4734070067
 10
15.0569780467
 20
8.4654800771
 10
15.0461341917
 20
8.4584882512
 10
15.0334449311
 20
8.4526222477
 10
15.019256395
 20
8.448042076
 10
15.0039556097
 20
8.4448726711
  0
LWPOLYLINE
  5
6D5
100
AcDbEntity
  8
AXIS
100
AcDbPolyline
 62
7
  6
CONTINUOUS
 90
6
 70
0
 10
15.0750781449
 20
8.3785154282
 10
15.0705868775
 20
8.3670019609
 10
15.0599854691
 20
8.3547463409
 10
15.0446120068
 20
8.3443116115
 10
15.0253599403
 20
8.3363042014
 10
15.0033481298
 20
8.3311894721
  0
LINE
  5
6D6
100
AcDbEntity
  8
AXIS
100
AcDbLine
 62
7
  6
CONTINUOUS
 10
15.4473514462
 20
8.433740184
 11
15.5195197041
 21
8.4818254475
  0
LWPOLYLINE
  5
6D7
100
AcDbEntity
  8
0
100
AcDbPolyline
 62
7
  6
CONTINUOUS
 90
4
 70
0
 10
15.447668192
 20
8.4332941344
 10
15.4766760928
 20
8.4512273975
 10
15.5521945358
 20
8.5087312534
 10
15.613430259
 20
8.5716267247
  0
LWPOLYLINE
  5
6D8
100
AcDbEntity
  8
0
100
AcDbPolyline
 62
7
  6
CONTINUOUS
 90
4
 70
0
 10
15.4479195448
 20
8.4328875594
 10
15.4915115081
 20
8.4598302686
 10
15.5686523518
 20
8.5185690674
 10
15.6312044627
 20
8.582815461
  0
LINE
  5
6D9
100
AcDbEntity
  8
0
100
AcDbLine
 62
7
  6
CONTINUOUS
 10
15.4012225537
 20
8.4077027425
 11
15.4479195448
 21
8.4328875594
  0
LWPOLYLINE
  5
6DA
100
AcDbEntity
  8
ECAD_LED1A
100
AcDbPolyline
 62
7
  6
CONTINUOUS
 90
14
 70
0
 10
14.9634334278
 20
8.5970294964
 10
14.975072639
 20
8.5981275151
 10
14.9867100499
 20
8.5978419278
 10
14.9980649866
 20
8.596218502
 10
15.0092500384
 20
8.5932534819
 10
15.0203931729
 20
8.5888168383
 10
15.0316212829
 20
8.5826083072
 10
15.0424843465
 20
8.5745348579
 10
15.0524088481
 20
8.5647396323
 10
15.0607530177
 20
8.5537874306
 10
15.0674624497
 20
8.5418303719
 10
15.0726522366
 20
8.5283843869
 10
15.0757897341
 20
8.5145434256
 10
15.0769060953
 20
8.4997613464
  0
LWPOLYLINE
  5
6DB
100
AcDbEntity
  8
ECAD_LED1A
100
AcDbPolyline
 62
7
  6
CONTINUOUS
 90
12
 70
0
 10
14.7279517883
 20
8.5852902136
 10
14.7396079504
 20
8.5840019576
 10
14.7510914911
 20
8.58131766
 10
14.7624822495
 20
8.5771436918
 10
14.7739880688
 20
8.5711710293
 10
14.78536727
 20
8.5631230883
 10
14.7956653258
 20
8.5533631572
 10
14.8044820046
 20
8.5421813828
 10
14.8117052328
 20
8.5296114597
 10
14.8169195554
 20
8.5163869076
 10
14.8202613204
 20
8.5019966378
 10
14.8214120092
 20
8.4869903235
  0
LWPOLYLINE
  5
6DC
100
AcDbEntity
  8
ECAD_LED1A
100
AcDbPolyline
 62
9
  6
CONTINUOUS
 90
16
 70
0
 10
15.1132869735
 20
8.5626965843
 10
15.1133710694
 20
8.5603480562
 10
15.1153818563
 20
8.5510349906
 10
15.1200202831
 20
8.5420400229
 10
15.1271598256
 20
8.5336085123
 10
15.1366057356
 20
8.5259704486
 10
15.1481003534
 20
8.519334178
 10
15.1613301357
 20
8.5138807209
 10
15.1759342086
 20
8.5097588333
 10
15.191514211
 20
8.5070809495
 10
15.2076451611
 20
8.5059201153
 10
15.2238870486
 20
8.5063079951
 10
15.2397968372
 20
8.5082340086
 10
15.2549405492
 20
8.5116456193
 10
15.2689051038
 20
8.5164497672
 10
15.2813095843
 20
8.5225154076
  0
LINE
  5
6DD
100
AcDbEntity
  8
ECAD_LED1A
100
AcDbLine
 62
7
  6
CONTINUOUS
 10
15.1132869735
 20
8.5626965843
 11
15.1132869735
 21
8.4437843148
  0
LWPOLYLINE
  5
6DE
100
AcDbEntity
  8
AXIS
100
AcDbPolyline
 62
7
  6
CONTINUOUS
 90
3
 70
0
 10
15.1125841836
 20
8.4482670142
 10
15.1127593296
 20
8.4516852099
 10
15.1132869735
 20
8.4533475665
  0
LINE
  5
6DF
100
AcDbEntity
  8
AXIS
100
AcDbLine
 62
7
  6
CONTINUOUS
 10
15.197614449
 20
9.185563731
 11
15.1973519085
 21
9.1813828521
  0
LWPOLYLINE
  5
6E0
100
AcDbEntity
  8
ECAD_LED1A
100
AcDbPolyline
 62
7
  6
CONTINUOUS
 90
8
 70
0
 10
15.1132869735
 20
8.5626965843
 10
15.114340904
 20
8.577061676
 10
15.1175336816
 20
8.5912960882
 10
15.1228442659
 20
8.6050051523
 10
15.130212309
 20
8.6178807484
 10
15.1394709315
 20
8.6295450905
 10
15.1504300044
 20
8.639716163
 10
15.1624997923
 20
8.6479354323
  0
LWPOLYLINE
  5
6E1
100
AcDbEntity
  8
ECAD_LED1A
100
AcDbPolyline
 62
7
  6
CONTINUOUS
 90
15
 70
0
 10
15.2115702277
 20
9.2146600199
 10
15.2128747712
 20
9.2306318094
 10
15.2167622661
 20
9.2462051864
 10
15.2237982851
 20
9.2621739391
 10
15.2330742008
 20
9.2760655953
 10
15.2457821691
 20
9.2892534324
 10
15.2597956857
 20
9.2993211419
 10
15.2737363511
 20
9.3061630196
 10
15.2869860529
 20
9.3103579205
 10
15.2997418326
 20
9.3125496681
 10
15.3121095215
 20
9.3130625095
 10
15.3241004141
 20
9.3120693041
 10
15.3357673446
 20
9.3096512169
 10
15.3473422598
 20
9.3057244656
 10
15.359207188
 20
9.2998992228
  0
LWPOLYLINE
  5
6E2
100
AcDbEntity
  8
0
100
AcDbPolyline
 62
7
  6
CONTINUOUS
 90
3
 70
0
 10
15.031010182
 20
7.4765308745
 10
15.0292695088
 20
7.4591135882
 10
15.0221437977
 20
7.4374968322
  0
LWPOLYLINE
  5
6E3
100
AcDbEntity
  8
ECAD_LED1A
100
AcDbPolyline
 62
7
  6
CONTINUOUS
 90
20
 70
0
 10
15.412558378
 20
8.8432386805
 10
15.4200453518
 20
8.8565547379
 10
15.4300775945
 20
8.8691695504
 10
15.4437495452
 20
8.8812608514
 10
15.4578630243
 20
8.8898599199
 10
15.4715354635
 20
8.89544898
 10
15.4848519806
 20
8.8987528664
 10
15.4975149081
 20
8.9001345637
 10
15.509618464
 20
8.8999214523
 10
15.5212960895
 20
8.8982868159
 10
15.5330124867
 20
8.8951618186
 10
15.5439689288
 20
8.8907562121
 10
15.5551887928
 20
8.884515443
 10
15.5657850551
 20
8.876625405
 10
15.5754708407
 20
8.867115961
 10
15.5835570865
 20
8.8566621735
 10
15.5909034797
 20
8.8436937245
 10
15.5957858196
 20
8.8311502147
 10
15.5990705281
 20
8.8170753635
 10
15.6002624251
 20
8.8018043195
  0
LINE
  5
6E4
100
AcDbEntity
  8
AXIS
100
AcDbLine
 62
7
  6
CONTINUOUS
 10
15.5195197041
 20
8.4818254475
 11
15.590127619
 21
8.5452574754
  0
LWPOLYLINE
  5
6E5
100
AcDbEntity
  8
AXIS
100
AcDbPolyline
 62
7
  6
CONTINUOUS
 90
8
 70
0
 10
14.1650564638
 20
8.5690005663
 10
14.1468833294
 20
8.56410796
 10
14.1236038408
 20
8.5614579146
 10
14.0999023341
 20
8.5621013315
 10
14.0771562546
 20
8.5660008176
 10
14.0566875218
 20
8.5729297491
 10
14.0396857041
 20
8.5824854415
 10
14.0271388853
 20
8.5941125529
  0
LWPOLYLINE
  5
6E6
100
AcDbEntity
  8
ECAD_LED1A
100
AcDbPolyline
 62
9
  6
CONTINUOUS
 90
9
 70
0
 10
14.0301149773
 20
8.9720050574
 10
14.0236066629
 20
8.9737153567
 10
14.0101216311
 20
8.9789562801
 10
13.9983146537
 20
8.9854071713
 10
13.9885077945
 20
8.9928920668
 10
13.9809685588
 20
9.0012067981
 10
13.9759025976
 20
9.0101245611
 10
13.9734480968
 20
9.0194021024
 10
13.9732145752
 20
9.0233141765
  0
LINE
  5
6E7
100
AcDbEntity
  8
AXIS
100
AcDbLine
 62
7
  6
CONTINUOUS
 10
15.1141920707
 20
8.4380112123
 11
15.1125841836
 21
8.4482670142
  0
LINE
  5
6E8
100
AcDbEntity
  8
AXIS
100
AcDbLine
 62
7
  6
CONTINUOUS
 10
15.0021525152
 20
9.1760828989
 11
15.0007753307
 21
9.1855858903
  0
LINE
  5
6E9
100
AcDbEntity
  8
ECAD_LED1A
100
AcDbLine
 62
7
  6
CONTINUOUS
 10
15.197619926
 20
9.2996088232
 11
15.197619926
 21
9.185563731
  0
LINE
  5
6EA
100
AcDbEntity
  8
ECAD_LED1A
100
AcDbLine
 62
7
  6
CONTINUOUS
 10
15.2115702277
 20
9.2146600199
 11
15.2115702277
 21
9.1006135255
  0
LWPOLYLINE
  5
6EB
100
AcDbEntity
  8
ECAD_LED1A
100
AcDbPolyline
 62
7
  6
CONTINUOUS
 90
8
 70
0
 10
15.2950129708
 20
8.6676152502
 10
15.2960669013
 20
8.6819803419
 10
15.2992596789
 20
8.6962147541
 10
15.3045702632
 20
8.7099238182
 10
15.3119383063
 20
8.7227994143
 10
15.3211969288
 20
8.7344637564
 10
15.3321560017
 20
8.7446348289
 10
15.3442257896
 20
8.7528540982
  0
LWPOLYLINE
  5
6EC
100
AcDbEntity
  8
ECAD_LED1A
100
AcDbPolyline
 62
9
  6
CONTINUOUS
 90
6
 70
0
 10
15.3101373672
 20
8.5626965843
 10
15.3093815695
 20
8.5556679851
 10
15.3060457009
 20
8.5464825796
 10
15.3001366596
 20
8.53773945
 10
15.2918156287
 20
8.5296770859
 10
15.2813095843
 20
8.5225154076
  0
LWPOLYLINE
  5
6ED
100
AcDbEntity
  8
0
100
AcDbPolyline
 62
7
  6
CONTINUOUS
 90
17
 70
0
 10
14.9884986464
 20
7.3859269323
 10
14.9858227651
 20
7.3751816086
 10
14.9776331094
 20
7.35907848
 10
14.9655573906
 20
7.3438121558
 10
14.9498414353
 20
7.3296934141
 10
14.9308051752
 20
7.3170096718
 10
14.9088361337
 20
7.3060191335
 10
14.884381537
 20
7.2969455346
 10
14.8579392102
 20
7.2899735876
 10
14.8300474429
 20
7.2852452212
 10
14.801274031
 20
7.2828566913
 10
14.7722047182
 20
7.2828566214
 10
14.7434312718
 20
7.285245013
 10
14.7155394363
 20
7.2899732453
 10
14.6890970089
 20
7.2969450652
 10
14.6646422814
 20
7.3060185465
 10
14.6426730813
 20
7.3170089792
  0
LWPOLYLINE
  5
6EE
100
AcDbEntity
  8
AXIS
100
AcDbPolyline
 62
7
  6
CONTINUOUS
 90
4
 70
0
 10
15.3080398443
 20
8.4410090527
 10
15.3049736909
 20
8.4313490522
 10
15.2952356319
 20
8.4188569182
 10
15.2806023937
 20
8.4080732612
  0
LINE
  5
6EF
100
AcDbEntity
  8
0
100
AcDbLine
 62
7
  6
CONTINUOUS
 10
15.0260057355
 20
7.484531009
 11
15.0226259669
 21
7.473915205
  0
LWPOLYLINE
  5
6F0
100
AcDbEntity
  8
AXIS
100
AcDbPolyline
 62
7
  6
CONTINUOUS
 90
13
 70
0
 10
15.5969088003
 20
8.6730634491
 10
15.588049886
 20
8.6603550635
 10
15.5741806069
 20
8.6492399699
 10
15.5561069951
 20
8.6403641373
 10
15.5348794233
 20
8.6342433968
 10
15.5117315607
 20
8.6312334635
 10
15.4880086771
 20
8.6315092638
 10
15.4650894601
 20
8.6350547693
 10
15.4443058913
 20
8.641663928
 10
15.4268658363
 20
8.6509526397
 10
15.4137828476
 20
8.6623810781
 10
15.4058172609
 20
8.6752850641
 10
15.40509054
 20
8.6790612294
  0
LWPOLYLINE
  5
6F1
100
AcDbEntity
  8
ECAD_LED1A
100
AcDbPolyline
 62
9
  6
CONTINUOUS
 90
11
 70
0
 10
15.5360187478
 20
8.8939529952
 10
15.5405020269
 20
8.8941794605
 10
15.5562418696
 20
8.8965251769
 10
15.5710983003
 20
8.9003346167
 10
15.5846660745
 20
8.9055038683
 10
15.5965750987
 20
8.911891928
 10
15.6065005256
 20
8.9193245461
 10
15.6141716155
 20
8.9275989802
 10
15.6193791211
 20
8.9364895254
 10
15.6219809952
 20
8.9457536707
 10
15.6222808388
 20
8.9501858535
  0
LINE
  5
6F2
100
AcDbEntity
  8
02___PRT_ALL_AXES
100
AcDbLine
 62
7
  6
CONTINUOUS
 10
15.3733527017
 20
7.8632845947
 11
15.3719529773
 21
7.8848754717
  0
LINE
  5
6F3
100
AcDbEntity
  8
02___PRT_ALL_AXES
100
AcDbLine
 62
7
  6
CONTINUOUS
 10
15.3733527017
 20
7.9115032413
 11
15.3719529773
 21
7.9330941184
  0
LWPOLYLINE
  5
6F4
100
AcDbEntity
  8
ECAD_LED1A
100
AcDbPolyline
 62
9
  6
CONTINUOUS
 90
16
 70
0
 10
15.2950129708
 20
8.6676152502
 10
15.2950970667
 20
8.6652667221
 10
15.2971078536
 20
8.6559536565
 10
15.3017462804
 20
8.6469586888
 10
15.3088858229
 20
8.6385271782
 10
15.3183317329
 20
8.6308891145
 10
15.3298263507
 20
8.6242528439
 10
15.343056133
 20
8.6187993868
 10
15.3576602059
 20
8.6146774992
 10
15.3732402083
 20
8.6119996154
 10
15.3893711584
 20
8.6108387812
 10
15.4056130459
 20
8.611226661
 10
15.4215228345
 20
8.6131526745
 10
15.4366665465
 20
8.6165642852
 10
15.4506311011
 20
8.621368433
 10
15.4630355816
 20
8.6274340735
  0
LINE
  5
6F5
100
AcDbEntity
  8
ECAD_LED1A
100
AcDbLine
 62
7
  6
CONTINUOUS
 10
15.2950129708
 20
8.6676152502
 11
15.2950129708
 21
8.6149804645
  0
LINE
  5
6F6
100
AcDbEntity
  8
ECAD_LED1A
100
AcDbLine
 62
7
  6
CONTINUOUS
 10
15.3101373672
 20
8.5626965843
 11
15.3101373672
 21
8.5230128557
  0
LINE
  5
6F7
100
AcDbEntity
  8
ECAD_LED1A
100
AcDbLine
 62
7
  6
CONTINUOUS
 10
15.3587095955
 20
9.0929567391
 11
15.3587095955
 21
8.9789356839
  0
LWPOLYLINE
  5
6F8
100
AcDbEntity
  8
ECAD_LED1A
100
AcDbPolyline
 62
7
  6
CONTINUOUS
 90
4
 70
0
 10
15.4034120314
 20
8.8018043195
 10
15.4044356407
 20
8.8159623598
 10
15.4074995156
 20
8.8298741493
 10
15.412558378
 20
8.8432386805
  0
LWPOLYLINE
  5
6F9
100
AcDbEntity
  8
ECAD_LED1A
100
AcDbPolyline
 62
7
  6
CONTINUOUS
 90
22
 70
0
 10
15.4254304451
 20
8.9501858535
 10
15.4265953968
 20
8.965284333
 10
15.4302922765
 20
8.9807377113
 10
15.4365409615
 20
8.9956134437
 10
15.4464400966
 20
9.0109670407
 10
15.4574774853
 20
9.0228595055
 10
15.4717192102
 20
9.033668258
 10
15.4855872128
 20
9.0408668698
 10
15.498663749
 20
9.0453325187
 10
15.5114304701
 20
9.0478236253
 10
15.5236148119
 20
9.0486107557
 10
15.5352376643
 20
9.0479507191
 10
15.5466868758
 20
9.0459264099
 10
15.557523898
 20
9.0426735171
 10
15.5684044517
 20
9.0379521507
 10
15.579268978
 20
9.03153007
 10
15.5892484827
 20
9.0237473635
 10
15.5983222385
 20
9.0145461314
 10
15.6068823035
 20
9.0030450329
 10
15.6129772354
 20
8.9919573864
 10
15.6179266713
 20
8.9791368605
 10
15.6211697407
 20
8.964933245
  0
LWPOLYLINE
  5
6FA
100
AcDbEntity
  8
ECAD_LED1A
100
AcDbPolyline
 62
7
  6
CONTINUOUS
 90
18
 70
0
 10
15.3587095955
 20
9.0929567391
 10
15.3599361813
 20
9.1084470393
 10
15.3636745941
 20
9.1238227517
 10
15.3702705181
 20
9.1392397516
 10
15.3796625268
 20
9.1536656137
 10
15.3915981935
 20
9.1663902028
 10
15.404753274
 20
9.1762855811
 10
15.4189766555
 20
9.183684221
 10
15.4323025858
 20
9.1881979114
 10
15.4448921714
 20
9.1906175685
 10
15.4570375263
 20
9.1913818879
 10
15.4688099079
 20
9.1906870366
 10
15.4803957798
 20
9.1885937917
 10
15.4913634426
 20
9.1852384755
 10
15.5024179411
 20
9.180346417
 10
15.5139947655
 20
9.1732964106
 10
15.5237440292
 20
9.1654186528
 10
15.5337039343
 20
9.1548007838
  0
LINE
  5
6FB
100
AcDbEntity
  8
0
100
AcDbLine
 62
7
  6
CONTINUOUS
 10
15.019033494
 20
7.4634501595
 11
15.0277003556
 21
7.4849781959
  0
LWPOLYLINE
  5
6FC
100
AcDbEntity
  8
0
100
AcDbPolyline
 62
7
  6
CONTINUOUS
 90
3
 70
0
 10
15.0133097923
 20
7.4227873533
 10
15.0081256467
 20
7.4107174139
 10
14.993962036
 20
7.3910998627
  0
LWPOLYLINE
  5
6FD
100
AcDbEntity
  8
AXIS
100
AcDbPolyline
 62
7
  6
CONTINUOUS
 90
3
 70
0
 10
15.6211103188
 20
8.8265973979
 10
15.6146620937
 20
8.8134139626
 10
15.6029365393
 20
8.8015045458
  0
LWPOLYLINE
  5
6FE
100
AcDbEntity
  8
0
100
AcDbPolyline
 62
7
  6
CONTINUOUS
 90
4
 70
0
 10
15.613430259
 20
8.5716267247
 10
15.6592584995
 20
8.6387549602
 10
15.6888325067
 20
8.7088989488
 10
15.7015728972
 20
8.7807167495
  0
LWPOLYLINE
  5
6FF
100
AcDbEntity
  8
0
100
AcDbPolyline
 62
7
  6
CONTINUOUS
 90
9
 70
0
 10
15.6312044627
 20
8.582815461
 10
15.6780185393
 20
8.6513855477
 10
15.7082286532
 20
8.7230353832
 10
15.7212444087
 20
8.796395256
 10
15.7168422818
 20
8.8699955233
 10
15.6951436389
 20
8.9425281409
 10
15.6564173237
 20
9.0128826655
 10
15.6012490213
 20
9.0797131923
 10
15.5500956096
 20
9.1246250444
  0
LINE
  5
700
100
AcDbEntity
  8
AXIS
100
AcDbLine
 62
7
  6
CONTINUOUS
 10
15.590127619
 20
8.5452574754
 11
15.6443808487
 21
8.6138453091
  0
LWPOLYLINE
  5
701
100
AcDbEntity
  8
02___PRT_ALL_AXES
100
AcDbPolyline
 62
7
  6
CONTINUOUS
 90
8
 70
0
 10
15.1267007693
 20
7.8645322306
 10
15.1112423397
 20
7.8566337723
 10
15.0401382144
 20
7.830096085
 10
14.962644856
 20
7.8099403406
 10
14.8800136609
 20
7.796701256
 10
14.7950442583
 20
7.790958366
 10
14.7108887929
 20
7.7927746755
 10
14.6288690477
 20
7.8019094362
  0
LWPOLYLINE
  5
702
100
AcDbEntity
  8
ECAD_LED1A
100
AcDbPolyline
 62
9
  6
CONTINUOUS
 90
12
 70
0
 10
14.0744901337
 20
8.8209679923
 10
14.0662675678
 20
8.8197425793
 10
14.0500736552
 20
8.8189245713
 10
14.0338674003
 20
8.8196565848
 10
14.0180908675
 20
8.8219186524
 10
14.0031743996
 20
8.8256490708
 10
13.9895248788
 20
8.830746084
 10
13.9775146285
 20
8.8370706586
 10
13.967471257
 20
8.8444502768
 10
13.9596687214
 20
8.8526836418
 10
13.9543198545
 20
8.8615461689
 10
13.9515705593
 20
8.8707961114
  0
LINE
  5
703
100
AcDbEntity
  8
ECAD_LED1A
100
AcDbLine
 62
9
  6
CONTINUOUS
 10
15.4258050184
 20
8.9452329926
 11
15.4254304451
 21
8.9501858535
  0
LWPOLYLINE
  5
704
100
AcDbEntity
  8
ECAD_LED1A
100
AcDbPolyline
 62
9
  6
CONTINUOUS
 90
19
 70
0
 10
15.4034120314
 20
8.8018043195
 10
15.403645553
 20
8.7978922454
 10
15.4061000538
 20
8.7886147041
 10
15.411166015
 20
8.7796969411
 10
15.4187052507
 20
8.7713822098
 10
15.4285121099
 20
8.7638973143
 10
15.4403190873
 20
8.7574464231
 10
15.4538041191
 20
8.7522054997
 10
15.468599369
 20
8.7483175028
 10
15.484301261
 20
8.7458884868
 10
15.5004814885
 20
8.744984709
 10
15.5166986971
 20
8.7456308221
 10
15.5325105235
 20
8.7478092017
 10
15.5474856624
 20
8.7514604274
 10
15.561215631
 20
8.7564849032
 10
15.5733259115
 20
8.7627455745
 10
15.5834861672
 20
8.7700716666
 10
15.5914192526
 20
8.7782633428
 10
15.596908774
 20
8.7870971554
  0
LINE
  5
705
100
AcDbEntity
  8
ECAD_LED1A
100
AcDbLine
 62
7
  6
CONTINUOUS
 10
15.4034120314
 20
8.8018043195
 11
15.4034120314
 21
8.7654793299
  0
LINE
  5
706
100
AcDbEntity
  8
ECAD_LED1A
100
AcDbLine
 62
7
  6
CONTINUOUS
 10
15.4084206214
 20
9.2146600199
 11
15.4084206214
 21
9.1781932416
  0
LINE
  5
707
100
AcDbEntity
  8
ECAD_LED1A
100
AcDbLine
 62
7
  6
CONTINUOUS
 10
15.4254304451
 20
8.9501858535
 11
15.4254304451
 21
8.8633260995
  0
LINE
  5
708
100
AcDbEntity
  8
02___PRT_ALL_AXES
100
AcDbLine
 62
7
  6
CONTINUOUS
 10
15.3714674676
 20
7.9259486309
 11
15.3733527017
 21
7.9536945572
  0
LINE
  5
709
100
AcDbEntity
  8
02___PRT_ALL_AXES
100
AcDbLine
 62
7
  6
CONTINUOUS
 10
15.3714674676
 20
7.8777299842
 11
15.3733527017
 21
7.9054759105
  0
LWPOLYLINE
  5
70A
100
AcDbEntity
  8
ECAD_LED1A
100
AcDbPolyline
 62
9
  6
CONTINUOUS
 90
6
 70
0
 10
15.4918633645
 20
8.6676152502
 10
15.4911075668
 20
8.660586651
 10
15.4877716982
 20
8.6514012455
 10
15.4818626569
 20
8.6426581159
 10
15.473541626
 20
8.6345957518
 10
15.4630355816
 20
8.6274340735
  0
LWPOLYLINE
  5
70B
100
AcDbEntity
  8
02___PRT_ALL_AXES
100
AcDbPolyline
 62
7
  6
CONTINUOUS
 90
3
 70
0
 10
15.3569680542
 20
7.8784181168
 10
15.3714674676
 20
7.9319759617
 10
15.3733305327
 20
7.9593956154
  0
LINE
  5
70C
100
AcDbEntity
  8
02___PRT_ALL_AXES
100
AcDbLine
 62
7
  6
CONTINUOUS
 10
15.3569680542
 20
7.872390786
 11
15.3714674676
 21
7.9259486309
  0
LWPOLYLINE
  5
70D
100
AcDbEntity
  8
02___PRT_ALL_AXES
100
AcDbPolyline
 62
7
  6
CONTINUOUS
 90
3
 70
0
 10
15.3569680542
 20
7.8301994701
 10
15.3714674676
 20
7.883757315
 10
15.3733527017
 20
7.9115032413
  0
LINE
  5
70E
100
AcDbEntity
  8
02___PRT_ALL_AXES
100
AcDbLine
 62
7
  6
CONTINUOUS
 10
15.3569680542
 20
7.8241721393
 11
15.3714674676
 21
7.8777299842
  0
LWPOLYLINE
  5
70F
100
AcDbEntity
  8
AXIS
100
AcDbPolyline
 62
7
  6
CONTINUOUS
 90
4
 70
0
 10
15.4897656719
 20
8.5459277186
 10
15.4866995185
 20
8.5362677181
 10
15.4769614595
 20
8.5237755841
 10
15.4623282212
 20
8.5129919271
  0
LINE
  5
710
100
AcDbEntity
  8
AXIS
100
AcDbLine
 62
7
  6
CONTINUOUS
 10
15.6443808487
 20
8.6138453091
 11
15.6811749541
 21
8.6861926982
  0
LINE
  5
711
100
AcDbEntity
  8
02___PRT_ALL_AXES
100
AcDbLine
 62
7
  6
CONTINUOUS
 10
15.3284933375
 20
7.9172182867
 11
15.3443302246
 21
7.9459222935
  0
LWPOLYLINE
  5
712
100
AcDbEntity
  8
0
100
AcDbPolyline
 62
7
  6
CONTINUOUS
 90
8
 70
0
 10
15.0226259669
 20
7.473915205
 10
15.0106774832
 20
7.4534574933
 10
14.9937737576
 20
7.4341857867
 10
14.9719674666
 20
7.4163195196
 10
14.9458086666
 20
7.4004559657
 10
14.916183113
 20
7.387113533
 10
14.8841072622
 20
7.3766123589
 10
14.8499616669
 20
7.3689714903
  0
LWPOLYLINE
  5
713
100
AcDbEntity
  8
0
100
AcDbPolyline
 62
7
  6
CONTINUOUS
 90
3
 70
0
 10
15.0221437977
 20
7.4374968322
 10
15.0096748526
 20
7.4167348249
 10
14.9921454949
 20
7.3972810177
  0
LWPOLYLINE
  5
714
100
AcDbEntity
  8
0
100
AcDbPolyline
 62
7
  6
CONTINUOUS
 90
4
 70
0
 10
15.0089771068
 20
7.4190227072
 10
15.0217437603
 20
7.4398564038
 10
15.0291148416
 20
7.4615735777
 10
15.031010182
 20
7.4797454536
  0
LWPOLYLINE
  5
715
100
AcDbEntity
  8
0
100
AcDbPolyline
 62
7
  6
CONTINUOUS
 90
14
 70
0
 10
15.005454795
 20
7.4791078985
 10
15.0045477677
 20
7.4777914544
 10
14.9846055047
 20
7.4581335496
 10
14.959468442
 20
7.440298991
 10
14.9299864823
 20
7.4249735301
 10
14.8973293118
 20
7.4126572258
 10
14.8622579724
 20
7.403489368
 10
14.825314157
 20
7.3975532562
 10
14.7871700102
 20
7.3949815094
 10
14.7491658977
 20
7.395860457
 10
14.711952092
 20
7.4001525312
 10
14.676144821
 20
7.4078505412
 10
14.6431059357
 20
7.4187126727
 10
14.6140131049
 20
7.4322598672
  0
LWPOLYLINE
  5
716
100
AcDbEntity
  8
02___PRT_ALL_AXES
100
AcDbPolyline
 62
7
  6
CONTINUOUS
 90
5
 70
0
 10
15.127076871
 20
7.7682589114
 10
15.1122249671
 20
7.7606275807
 10
15.0405518906
 20
7.7337890489
 10
14.9637107114
 20
7.7137266375
 10
14.8819389645
 20
7.7004840582
  0
LWPOLYLINE
  5
717
100
AcDbEntity
  8
0
100
AcDbPolyline
 62
7
  6
CONTINUOUS
 90
8
 70
0
 10
15.4524272168
 20
7.9966301261
 10
15.3457964892
 20
7.9464340526
 10
15.2288555409
 20
7.9056190414
 10
15.1037699481
 20
7.8747806922
 10
14.9729280186
 20
7.8543972332
 10
14.838729086
 20
7.8447660511
 10
14.7036026752
 20
7.8460247885
 10
14.570039389
 20
7.858145637
  0
LWPOLYLINE
  5
718
100
AcDbEntity
  8
02___PRT_ALL_AXES
100
AcDbPolyline
 62
7
  6
CONTINUOUS
 90
7
 70
0
 10
15.093695075
 20
7.8019236388
 10
15.0413964755
 20
7.7822744412
 10
14.9640604135
 20
7.7620189505
 10
14.8816709358
 20
7.7486718203
 10
14.7970153355
 20
7.7427863528
 10
14.7132091135
 20
7.7444054163
 10
14.6309789098
 20
7.7533599313
  0
LWPOLYLINE
  5
719
100
AcDbEntity
  8
AXIS
100
AcDbPolyline
 62
7
  6
CONTINUOUS
 90
5
 70
0
 10
15.4254304451
 20
8.9255130341
 10
15.4179489731
 20
8.9267956242
 10
15.3974802404
 20
8.9337245556
 10
15.3804784227
 20
8.9432802481
 10
15.3679316038
 20
8.9549073594
  0
LWPOLYLINE
  5
71A
100
AcDbEntity
  8
AXIS
100
AcDbPolyline
 62
7
  6
CONTINUOUS
 90
3
 70
0
 10
15.2160268988
 20
9.0837202639
 10
15.2117497654
 20
9.0971948569
 10
15.2115745707
 20
9.1006135255
  0
LINE
  5
71B
100
AcDbEntity
  8
AXIS
100
AcDbLine
 62
7
  6
CONTINUOUS
 10
15.3605689594
 20
8.9679301642
 11
15.3587128261
 21
8.9789356839
  0
LINE
  5
71C
100
AcDbEntity
  8
ECAD_LED1A
100
AcDbLine
 62
7
  6
CONTINUOUS
 10
15.5555599892
 20
9.0929567391
 11
15.5555599892
 21
9.0432630134
  0
LWPOLYLINE
  5
71D
100
AcDbEntity
  8
ECAD_LED1A
100
AcDbPolyline
 62
9
  6
CONTINUOUS
 90
3
 70
0
 10
15.6002624251
 20
8.8018043195
 10
15.5998049914
 20
8.7963321412
 10
15.596908774
 20
8.7870971554
  0
LINE
  5
71E
100
AcDbEntity
  8
AXIS
100
AcDbLine
 62
7
  6
CONTINUOUS
 10
15.6222709641
 20
8.8352857853
 11
15.6211103188
 21
8.8265973979
  0
LINE
  5
71F
100
AcDbEntity
  8
AXIS
100
AcDbLine
 62
7
  6
CONTINUOUS
 10
15.6002617222
 20
8.6877621081
 11
15.5969088003
 21
8.6730634491
  0
LINE
  5
720
100
AcDbEntity
  8
AXIS
100
AcDbLine
 62
7
  6
CONTINUOUS
 10
15.6811749541
 20
8.6861926982
 11
15.6997609131
 21
8.7608268583
  0
LWPOLYLINE
  5
721
100
AcDbEntity
  8
0
100
AcDbPolyline
 62
7
  6
CONTINUOUS
 90
14
 70
0
 10
15.327067837
 20
7.7226903293
 10
15.3131152829
 20
7.685241932
 10
15.2818035032
 20
7.6370358552
 10
15.2381613331
 20
7.5920884442
 10
15.1833768843
 20
7.5519305002
 10
15.1192559641
 20
7.5177516692
 10
15.0475899513
 20
7.4902267866
 10
14.9701478814
 20
7.4697908898
 10
14.8886974875
 20
7.4567382947
 10
14.8050349487
 20
7.4512546274
 10
14.7210277317
 20
7.4534142392
 10
14.6384952274
 20
7.4631718883
 10
14.5592426513
 20
7.4803717357
 10
14.4861189098
 20
7.5043264958
  0
LWPOLYLINE
  5
722
100
AcDbEntity
  8
02___PRT_ALL_AXES
100
AcDbPolyline
 62
7
  6
CONTINUOUS
 90
3
 70
0
 10
15.3284933375
 20
7.86899964
 10
15.3569680542
 20
7.9206094326
 10
15.3664322174
 20
7.9555681009
  0
LINE
  5
723
100
AcDbEntity
  8
02___PRT_ALL_AXES
100
AcDbLine
 62
7
  6
CONTINUOUS
 10
15.3284933375
 20
7.7785896774
 11
15.3569680542
 21
7.8301994701
  0
LINE
  5
724
100
AcDbEntity
  8
02___PRT_ALL_AXES
100
AcDbLine
 62
7
  6
CONTINUOUS
 10
15.3284933375
 20
7.7725623466
 11
15.3569680542
 21
7.8241721393
  0
LWPOLYLINE
  5
725
100
AcDbEntity
  8
02___PRT_ALL_AXES
100
AcDbPolyline
 62
7
  6
CONTINUOUS
 90
4
 70
0
 10
15.3284933375
 20
7.7303710308
 10
15.3569680542
 20
7.7819808234
 10
15.3714674676
 20
7.8355386683
 10
15.3733527017
 20
7.8632845947
  0
LWPOLYLINE
  5
726
100
AcDbEntity
  8
02___PRT_ALL_AXES
100
AcDbPolyline
 62
7
  6
CONTINUOUS
 90
7
 70
0
 10
15.0938868581
 20
7.7055699597
 10
15.041836036
 20
7.6859764028
 10
14.9642310421
 20
7.665617656
 10
14.8814063247
 20
7.6522041137
 10
14.796179596
 20
7.6463287894
 10
14.7116894639
 20
7.6480661106
 10
14.6298498548
 20
7.6570990371
  0
LWPOLYLINE
  5
727
100
AcDbEntity
  8
02___PRT_ALL_AXES
100
AcDbPolyline
 62
7
  6
CONTINUOUS
 90
7
 70
0
 10
15.052493517
 20
7.6418568609
 10
15.0397129804
 20
7.6370878715
 10
14.9625319314
 20
7.6170421477
 10
14.8813817929
 20
7.6039826513
 10
14.7976329595
 20
7.5981458632
 10
14.713782692
 20
7.5997131357
 10
14.6313553232
 20
7.608645516
  0
LWPOLYLINE
  5
728
100
AcDbEntity
  8
02___PRT_ALL_AXES
100
AcDbPolyline
 62
7
  6
CONTINUOUS
 90
8
 70
0
 10
15.0117272948
 20
7.6861299057
 10
15.0935219852
 20
7.711438212
 10
15.1677979632
 20
7.7438213284
 10
15.2327348577
 20
7.7825150775
 10
15.2867411819
 20
7.8266006193
 10
15.3284933375
 20
7.8750269708
 10
15.3569680542
 20
7.9266367635
 10
15.3647421471
 20
7.9553526604
  0
LWPOLYLINE
  5
729
100
AcDbEntity
  8
02___PRT_ALL_AXES
100
AcDbPolyline
 62
7
  6
CONTINUOUS
 90
7
 70
0
 10
15.0117272948
 20
7.637911259
 10
15.0935219852
 20
7.6632195653
 10
15.1677979632
 20
7.6956026817
 10
15.2327348577
 20
7.7342964308
 10
15.2867411819
 20
7.7783819726
 10
15.3284933375
 20
7.8268083241
 10
15.3569680542
 20
7.8784181168
  0
LWPOLYLINE
  5
72A
100
AcDbEntity
  8
02___PRT_ALL_AXES
100
AcDbPolyline
 62
7
  6
CONTINUOUS
 90
7
 70
0
 10
15.0117272948
 20
7.6318839282
 10
15.0935219852
 20
7.6571922345
 10
15.1677979632
 20
7.6895753509
 10
15.2327348577
 20
7.7282691
 10
15.2867411819
 20
7.7723546418
 10
15.3284933375
 20
7.8207809933
 10
15.3569680542
 20
7.872390786
  0
LWPOLYLINE
  5
72B
100
AcDbEntity
  8
ECAD_LED1A
100
AcDbPolyline
 62
9
  6
CONTINUOUS
 90
8
 70
0
 10
15.4258050184
 20
8.9452329926
 10
15.4285543136
 20
8.9359830501
 10
15.4339031805
 20
8.9271205229
 10
15.4417057161
 20
8.9188871579
 10
15.4517490876
 20
8.9115075397
 10
15.4637593378
 20
8.9051829651
 10
15.4774088586
 20
8.900085952
 10
15.4837914564
 20
8.8984897457
  0
LINE
  5
72C
100
AcDbEntity
  8
ECAD_LED1A
100
AcDbLine
 62
7
  6
CONTINUOUS
 10
15.6002624251
 20
8.8018043195
 11
15.6002624251
 21
8.6877621081
  0
LINE
  5
72D
100
AcDbEntity
  8
ECAD_LED1A
100
AcDbLine
 62
7
  6
CONTINUOUS
 10
15.6222808388
 20
8.9501858535
 11
15.6222808388
 21
8.8352857853
  0
LINE
  5
72E
100
AcDbEntity
  8
AXIS
100
AcDbLine
 62
7
  6
CONTINUOUS
 10
15.6997609131
 20
8.7608268583
 11
15.7020839534
 21
8.7985254574
  0
LWPOLYLINE
  5
72F
100
AcDbEntity
  8
02___PRT_ALL_AXES
100
AcDbPolyline
 62
7
  6
CONTINUOUS
 90
5
 70
0
 10
15.2867411819
 20
7.6759173484
 10
15.3284933375
 20
7.7243436999
 10
15.3569680542
 20
7.7759534926
 10
15.3714674676
 20
7.8295113375
 10
15.3733527017
 20
7.8572572638
  0
LINE
  5
730
100
AcDbEntity
  8
0
100
AcDbLine
 62
7
  6
CONTINUOUS
 10
14.9911077565
 20
7.3995326976
 11
15.0089771068
 21
7.4190227072
  0
LWPOLYLINE
  5
731
100
AcDbEntity
  8
0
100
AcDbPolyline
 62
7
  6
CONTINUOUS
 90
3
 70
0
 10
14.993962036
 20
7.3910998627
 10
14.9747195104
 20
7.3728803597
 10
14.9497614349
 20
7.3559372313
  0
LWPOLYLINE
  5
732
100
AcDbEntity
  8
0
100
AcDbPolyline
 62
7
  6
CONTINUOUS
 90
3
 70
0
 10
14.9719674666
 20
7.4452507076
 10
14.9937737576
 20
7.4631169747
 10
15.008506076
 20
7.4799130896
  0
LWPOLYLINE
  5
733
100
AcDbEntity
  8
0
100
AcDbPolyline
 62
7
  6
CONTINUOUS
 90
13
 70
0
 10
14.9921454949
 20
7.3972810177
 10
14.9699533417
 20
7.3795594097
 10
14.9436023206
 20
7.3639550314
 10
14.9136909946
 20
7.3508047481
 10
14.8808984965
 20
7.3403894635
 10
14.845968935
 20
7.3329278972
 10
14.8096947655
 20
7.3285718219
 10
14.7728992886
 20
7.3274026534
 10
14.7364179878
 20
7.3294294523
 10
14.7010785082
 20
7.3345887693
 10
14.6676826342
 20
7.3427462075
 10
14.636989106
 20
7.3536990815
 10
14.6096957987
 20
7.3671806907
  0
LINE
  5
734
100
AcDbEntity
  8
0
100
AcDbLine
 62
7
  6
CONTINUOUS
 10
14.968545682
 20
7.3818159978
 11
14.9911077565
 21
7.3995326976
  0
LWPOLYLINE
  5
735
100
AcDbEntity
  8
0
100
AcDbPolyline
 62
7
  6
CONTINUOUS
 90
11
 70
0
 10
14.9473296466
 20
7.4661342202
 10
14.9299516127
 20
7.4571038206
 10
14.8972917025
 20
7.4447910841
 10
14.8622220004
 20
7.4356275906
 10
14.8252660651
 20
7.429693563
 10
14.787108301
 20
7.4271259229
 10
14.749101112
 20
7.4280106758
 10
14.7118925217
 20
7.4323080506
 10
14.6761000993
 20
7.440008369
 10
14.6430828076
 20
7.4508675464
 10
14.6140131049
 20
7.4644056316
  0
LWPOLYLINE
  5
736
100
AcDbEntity
  8
02___PRT_ALL_AXES
100
AcDbPolyline
 62
7
  6
CONTINUOUS
 90
8
 70
0
 10
15.1272683485
 20
7.6236864524
 10
15.112064097
 20
7.6159009299
 10
15.0408441848
 20
7.5892253019
 10
14.9631522228
 20
7.5689533644
 10
14.8802696755
 20
7.5556370546
 10
14.7950252428
 20
7.5498647025
 10
14.7105798349
 20
7.5517019328
 10
14.6285034171
 20
7.560874074
  0
LWPOLYLINE
  5
737
100
AcDbEntity
  8
AXIS
100
AcDbPolyline
 62
7
  6
CONTINUOUS
 90
7
 70
0
 10
14.6204708396
 20
9.156434768
 10
14.5969785315
 20
9.154509969
 10
14.5733710132
 20
9.1558869627
 10
14.5510202681
 20
9.1604857231
 10
14.5312252401
 20
9.168038987
 10
14.5151363444
 20
9.1781077862
 10
14.503688609
 20
9.1901069586
  0
LWPOLYLINE
  5
738
100
AcDbEntity
  8
AXIS
100
AcDbPolyline
 62
7
  6
CONTINUOUS
 90
6
 70
0
 10
14.8419123015
 20
9.1674856804
 10
14.8186964928
 20
9.1703158132
 10
14.7973284197
 20
9.1762713659
 10
14.7790499169
 20
9.1850062233
 10
14.7649232645
 20
9.1960127473
 10
14.7557694521
 20
9.2086512788
  0
LWPOLYLINE
  5
739
100
AcDbEntity
  8
AXIS
100
AcDbPolyline
 62
7
  6
CONTINUOUS
 90
5
 70
0
 10
15.0575989756
 20
9.1340737693
 10
15.0374598356
 20
9.1413174781
 10
15.0209085126
 20
9.1511332623
 10
15.0089069093
 20
9.162950664
 10
15.0021525152
 20
9.1760828989
  0
LWPOLYLINE
  5
73A
100
AcDbEntity
  8
AXIS
100
AcDbPolyline
 62
7
  6
CONTINUOUS
 90
3
 70
0
 10
15.2403985317
 20
9.0604445901
 10
15.2257651379
 20
9.0712281767
 10
15.2160268988
 20
9.0837202639
  0
LWPOLYLINE
  5
73B
100
AcDbEntity
  8
ECAD_LED1A
100
AcDbPolyline
 62
9
  6
CONTINUOUS
 90
4
 70
0
 10
15.3679314431
 20
9.0689412413
 10
15.3623014758
 20
9.0777455413
 10
15.3592583142
 20
9.0869647631
 10
15.3587095955
 20
9.0929567391
  0
LINE
  5
73C
100
AcDbEntity
  8
AXIS
100
AcDbLine
 62
7
  6
CONTINUOUS
 10
15.3679316038
 20
8.9549073594
 11
15.3605689594
 21
8.9679301642
  0
LINE
  5
73D
100
AcDbEntity
  8
0
100
AcDbLine
 62
7
  6
CONTINUOUS
 10
15.7020928591
 20
8.7985342459
 11
15.6972585662
 21
8.8527668844
  0
LWPOLYLINE
  5
73E
100
AcDbEntity
  8
AXIS
100
AcDbPolyline
 62
7
  6
CONTINUOUS
 90
6
 70
0
 10
15.7020839534
 20
8.7985254574
 10
15.6997603694
 20
8.8362284533
 10
15.6811733339
 20
8.9108625241
 10
15.6443781851
 20
8.9832097363
 10
15.5901239661
 20
9.0517973092
 10
15.5555599892
 20
9.0828479785
  0
LINE
  5
73F
100
AcDbEntity
  8
0
100
AcDbLine
 62
9
  6
CONTINUOUS
 10
15.7709904969
 20
8.4288438477
 11
15.770990497
 21
8.42884917
  0
LINE
  5
740
100
AcDbEntity
  8
02___PRT_ALL_AXES
100
AcDbLine
 62
7
  6
CONTINUOUS
 10
15.770990497
 20
8.8145983434
 11
15.770990497
 21
8.42884917
  0
LWPOLYLINE
  5
741
100
AcDbEntity
  8
02___PRT_ALL_AXES
100
AcDbPolyline
 62
7
  6
CONTINUOUS
 90
22
 70
0
 10
15.7709881221
 20
8.8145843442
 10
15.7705742284
 20
8.7980733164
 10
15.7605990029
 20
8.732243153
 10
15.737453985
 20
8.6675267023
 10
15.7014521716
 20
8.6047991433
 10
15.6530804253
 20
8.5449087585
 10
15.592992891
 20
8.4886654627
 10
15.5220021496
 20
8.43682985
 10
15.441068229
 20
8.3901029081
 10
15.3512856218
 20
8.3491165388
 10
15.2538684836
 20
8.3144250123
 10
15.1501342141
 20
8.2864974721
 10
15.0414856413
 20
8.2657115903
 10
14.9293920509
 20
8.2523484601
 10
14.8153693163
 20
8.2465887951
 10
14.7009593994
 20
8.2485104849
 10
14.587709498
 20
8.2580875418
 10
14.4771511229
 20
8.2751904526
 10
14.3707793863
 20
8.2995879298
 10
14.2700327836
 20
8.3309500393
 10
14.1762737397
 20
8.3688526625
 10
14.0907701848
 20
8.4127832313
  0
LINE
  5
742
100
AcDbEntity
  8
0
100
AcDbLine
 62
7
  6
CONTINUOUS
 10
15.7015728972
 20
8.7807167495
 11
15.7020928591
 21
8.7985342459
  0
LWPOLYLINE
  5
743
100
AcDbEntity
  8
0
100
AcDbPolyline
 62
7
  6
CONTINUOUS
 90
7
 70
0
 10
15.770990497
 20
8.42884917
 10
15.7619579529
 20
8.349051276
 10
15.7346528644
 20
8.2700473981
 10
15.6892008176
 20
8.1937062172
 10
15.6260506627
 20
8.1215359927
 10
15.5465344677
 20
8.0553683186
 10
15.4524272168
 20
7.9966301261
  0
LWPOLYLINE
  5
744
100
AcDbEntity
  8
0
100
AcDbPolyline
 62
9
  6
CONTINUOUS
 90
3
 70
0
 10
15.7425358403
 20
8.2932002877
 10
15.7655747906
 20
8.3693198901
 10
15.7709904969
 20
8.4288438477
  0
LWPOLYLINE
  5
745
100
AcDbEntity
  8
0
100
AcDbPolyline
 62
7
  6
CONTINUOUS
 90
10
 70
0
 10
14.9497614349
 20
7.3559372313
 10
14.9225517891
 20
7.3424359254
 10
14.8915745664
 20
7.3313009259
 10
14.8584716925
 20
7.3231704894
 10
14.8237450529
 20
7.3181037793
 10
14.7880300844
 20
7.3162115301
 10
14.7525881867
 20
7.3175531845
 10
14.7180587751
 20
7.3220761027
 10
14.6849933953
 20
7.3297603093
 10
14.6546583569
 20
7.3403543603
  0
LINE
  5
746
100
AcDbEntity
  8
0
100
AcDbLine
 62
7
  6
CONTINUOUS
 10
14.4971784114
 20
9.2993297274
 11
14.4569497982
 21
9.29018905
  0
LWPOLYLINE
  5
747
100
AcDbEntity
  8
ECAD_LED1A
100
AcDbPolyline
 62
9
  6
CONTINUOUS
 90
9
 70
0
 10
14.6210783195
 20
9.270117967
 10
14.6363791048
 20
9.2732873719
 10
14.6505676409
 20
9.2778675436
 10
14.6632569015
 20
9.2837335471
 10
14.6741007565
 20
9.290725373
 10
14.682803414
 20
9.2986523026
 10
14.6891274881
 20
9.3072981098
 10
14.6929004746
 20
9.3164269597
 10
14.6940288051
 20
9.3250066423
  0
LWPOLYLINE
  5
748
100
AcDbEntity
  8
AXIS
100
AcDbPolyline
 62
7
  6
CONTINUOUS
 90
3
 70
0
 10
14.4971784114
 20
9.2988180702
 10
14.4668514076
 20
9.2936768691
 10
14.4567635567
 20
9.2910170441
  0
LWPOLYLINE
  5
749
100
AcDbEntity
  8
ECAD_LED1A
100
AcDbPolyline
 62
9
  6
CONTINUOUS
 90
12
 70
0
 10
14.6210783195
 20
9.270117967
 10
14.6050826505
 20
9.2684457821
 10
14.5888284178
 20
9.26831643
 10
14.5727589948
 20
9.2697334392
 10
14.5573127132
 20
9.2726581572
 10
14.5429109074
 20
9.2770108055
 10
14.5299464212
 20
9.282672655
 10
14.5187728918
 20
9.2894892654
 10
14.5096951041
 20
9.2972746972
 10
14.5029606765
 20
9.3058165842
 10
14.4987533065
 20
9.314881926
 10
14.4971784114
 20
9.3250066423
  0
LWPOLYLINE
  5
74A
100
AcDbEntity
  8
ECAD_LED1A
100
AcDbPolyline
 62
9
  6
CONTINUOUS
 90
11
 70
0
 10
14.8426194638
 20
9.2819278105
 10
14.8588750693
 20
9.281884744
 10
14.8749212474
 20
9.2833869924
 10
14.8903203001
 20
9.2863935782
 10
14.9046521815
 20
9.2908224896
 10
14.9175259551
 20
9.2965529175
 10
14.9285904581
 20
9.3034285507
 10
14.9375438795
 20
9.3112618398
 10
14.9441419934
 20
9.3198391132
 10
14.9482048204
 20
9.3289264052
 10
14.9496225736
 20
9.3385365963
  0
LWPOLYLINE
  5
74B
100
AcDbEntity
  8
ECAD_LED1A
100
AcDbPolyline
 62
9
  6
CONTINUOUS
 90
10
 70
0
 10
14.8426194638
 20
9.2819278105
 10
14.8265978414
 20
9.283515017
 10
14.8112472302
 20
9.2866030689
 10
14.7969863548
 20
9.291107732
 10
14.7842042148
 20
9.2969061308
 10
14.7732494736
 20
9.3038401003
 10
14.7644209481
 20
9.3117204997
 10
14.7579594572
 20
9.3203323723
 10
14.7540412538
 20
9.3294408087
 10
14.7527721799
 20
9.3385365963
  0
LINE
  5
74C
100
AcDbEntity
  8
0
100
AcDbLine
 62
7
  6
CONTINUOUS
 10
15.0017094271
 20
9.3120912691
 11
14.9496225736
 21
9.3173194903
  0
LWPOLYLINE
  5
74D
100
AcDbEntity
  8
AXIS
100
AcDbPolyline
 62
7
  6
CONTINUOUS
 90
3
 70
0
 10
15.0016626885
 20
9.3114705489
 10
14.9813073629
 20
9.3149211898
 10
14.9496225736
 20
9.3175512427
  0
LWPOLYLINE
  5
74E
100
AcDbEntity
  8
ECAD_LED1A
100
AcDbPolyline
 62
9
  6
CONTINUOUS
 90
14
 70
0
 10
15.0575988149
 20
9.2481077818
 10
15.0728485747
 20
9.2448574384
 10
15.0888169889
 20
9.2431005701
 10
15.1050684808
 20
9.2428850997
 10
15.121159752
 20
9.2442169045
 10
15.1366518747
 20
9.2470596565
 10
15.1511222641
 20
9.2513358127
 10
15.1641762057
 20
9.2569287309
 10
15.175457622
 20
9.2636858507
 10
15.1846587854
 20
9.2714228556
 10
15.1915287122
 20
9.2799287001
 10
15.1958800086
 20
9.2889713672
 10
15.1975939826
 20
9.2983041963
 10
15.197619926
 20
9.2996088232
  0
LINE
  5
74F
100
AcDbEntity
  8
AXIS
100
AcDbLine
 62
7
  6
CONTINUOUS
 10
15.2241439489
 20
9.262691607
 11
15.197619926
 21
9.2696849404
  0
LWPOLYLINE
  5
750
100
AcDbEntity
  8
ECAD_LED1A
100
AcDbPolyline
 62
9
  6
CONTINUOUS
 90
8
 70
0
 10
15.0575988149
 20
9.2481077818
 10
15.0434836833
 20
9.2527629393
 10
15.0308882037
 20
9.2586959304
 10
15.0201559481
 20
9.2657449186
 10
15.0115796644
 20
9.2737176258
 10
15.0053932913
 20
9.2823965774
 10
15.0017655768
 20
9.2915450341
 10
15.0007695323
 20
9.2996088232
  0
LWPOLYLINE
  5
751
100
AcDbEntity
  8
ECAD_LED1A
100
AcDbPolyline
 62
9
  6
CONTINUOUS
 90
16
 70
0
 10
15.2403985902
 20
9.1744785087
 10
15.2528031581
 20
9.1684129278
 10
15.266767782
 20
9.1636088471
 10
15.2819115433
 20
9.1601973092
 10
15.2978213596
 20
9.1582713722
 10
15.3140632527
 20
9.1578835704
 10
15.3301941861
 20
9.1590444822
 10
15.3457741499
 20
9.1617224409
 10
15.3603781633
 20
9.1658443987
 10
15.373607867
 20
9.1712979194
 10
15.3851023891
 20
9.1779342452
 10
15.3945481889
 20
9.1855723544
 10
15.4016876098
 20
9.1940038993
 10
15.4063259068
 20
9.2029988893
 10
15.4083365595
 20
9.2123119645
 10
15.4084206214
 20
9.2146600199
  0
LWPOLYLINE
  5
752
100
AcDbEntity
  8
ECAD_LED1A
100
AcDbPolyline
 62
9
  6
CONTINUOUS
 90
6
 70
0
 10
15.2403985902
 20
9.1744785087
 10
15.2298924425
 20
9.1816401364
 10
15.2215712953
 20
9.1897024605
 10
15.2156621279
 20
9.1984455618
 10
15.2123261269
 20
9.2076309512
 10
15.2115702277
 20
9.2146600199
  0
LWPOLYLINE
  5
753
100
AcDbEntity
  8
ECAD_LED1A
100
AcDbPolyline
 62
9
  6
CONTINUOUS
 90
10
 70
0
 10
15.3679314431
 20
9.0689412413
 10
15.3759946453
 20
9.0607920215
 10
15.3862711391
 20
9.0535201714
 10
15.3984806086
 20
9.047324048
 10
15.4122900114
 20
9.0423726654
 10
15.4273226629
 20
9.0388010846
 10
15.4431685116
 20
9.0367067288
 10
15.459395324
 20
9.0361467267
 10
15.475560475
 20
9.0371363536
 10
15.4796704444
 20
9.0377955898
  0
LWPOLYLINE
  5
754
100
AcDbEntity
  8
ECAD_LED1A
100
AcDbPolyline
 62
7
  6
CONTINUOUS
 90
4
 70
0
 10
15.6211697407
 20
8.964933245
 10
15.6217863714
 20
8.9600393602
 10
15.6221570876
 20
8.9551199344
 10
15.6222808388
 20
8.9501858535
  0
LINE
  5
755
100
AcDbEntity
  8
0
100
AcDbLine
 62
7
  6
CONTINUOUS
 10
14.4973884987
 20
9.3276351152
 11
14.4453849441
 21
9.3158190669
  0
LWPOLYLINE
  5
756
100
AcDbEntity
  8
02___PRT_ALL_AXES
100
AcDbPolyline
 62
7
  6
CONTINUOUS
 90
3
 70
0
 10
14.502993597
 20
9.3579374376
 10
14.4233428429
 20
9.3426992147
 10
14.4206665495
 20
9.3419786978
  0
LWPOLYLINE
  5
757
100
AcDbEntity
  8
ECAD_LED1A
100
AcDbPolyline
 62
7
  6
CONTINUOUS
 90
14
 70
0
 10
14.5805561376
 20
9.4222747923
 10
14.5921953488
 20
9.423372811
 10
14.6038327597
 20
9.4230872237
 10
14.6151876964
 20
9.4214637979
 10
14.6263727482
 20
9.4184987778
 10
14.6375158827
 20
9.4140621341
 10
14.6487439927
 20
9.4078536031
 10
14.6596070563
 20
9.3997801537
 10
14.6695315579
 20
9.3899849282
 10
14.6778757275
 20
9.3790327265
 10
14.6845851595
 20
9.3670756678
 10
14.6897749464
 20
9.3536296828
 10
14.6929124439
 20
9.3397887215
 10
14.6940288051
 20
9.3250066423
  0
LINE
  5
758
100
AcDbEntity
  8
0
100
AcDbLine
 62
7
  6
CONTINUOUS
 10
14.7540357673
 20
9.3540286919
 11
14.6905287879
 21
9.3503041369
  0
LWPOLYLINE
  5
759
100
AcDbEntity
  8
02___PRT_ALL_AXES
100
AcDbPolyline
 62
7
  6
CONTINUOUS
 90
3
 70
0
 10
14.7631941557
 20
9.3825224576
 10
14.7581077407
 20
9.3826078917
 10
14.6781363454
 20
9.3785682723
  0
LINE
  5
75A
100
AcDbEntity
  8
0
100
AcDbLine
 62
7
  6
CONTINUOUS
 10
15.0092656796
 20
9.3389140569
 11
14.9491307681
 21
9.3449503086
  0
LWPOLYLINE
  5
75B
100
AcDbEntity
  8
ECAD_LED1A
100
AcDbPolyline
 62
7
  6
CONTINUOUS
 90
12
 70
0
 10
14.8561623527
 20
9.4368364864
 10
14.8678185147
 20
9.4355482304
 10
14.8793020555
 20
9.4328639328
 10
14.8906928139
 20
9.4286899646
 10
14.9021986331
 20
9.4227173021
 10
14.9135778344
 20
9.4146693611
 10
14.9238758902
 20
9.40490943
 10
14.9326925689
 20
9.3937276556
 10
14.9399157972
 20
9.3811577325
 10
14.9451301198
 20
9.3679331804
 10
14.9484718847
 20
9.3535429105
 10
14.9496225736
 20
9.3385365963
  0
LWPOLYLINE
  5
75C
100
AcDbEntity
  8
02___PRT_ALL_AXES
100
AcDbPolyline
 62
7
  6
CONTINUOUS
 90
3
 70
0
 10
15.0259423203
 20
9.3648942802
 10
14.9857675589
 20
9.3711091451
 10
14.9424329375
 20
9.3747737676
  0
LINE
  5
75D
100
AcDbEntity
  8
0
100
AcDbLine
 62
7
  6
CONTINUOUS
 10
15.2238424174
 20
9.2622400319
 11
15.197619926
 21
9.2694906954
  0
LINE
  5
75E
100
AcDbEntity
  8
0
100
AcDbLine
 62
7
  6
CONTINUOUS
 10
15.2424072194
 20
9.2857510404
 11
15.1972413768
 21
9.2982397915
  0
LWPOLYLINE
  5
75F
100
AcDbEntity
  8
02___PRT_ALL_AXES
100
AcDbPolyline
 62
7
  6
CONTINUOUS
 90
3
 70
0
 10
15.2758570909
 20
9.3068344531
 10
15.2026976706
 20
9.329608757
 10
15.1919233555
 20
9.3320799596
  0
LINE
  5
760
100
AcDbEntity
  8
AXIS
100
AcDbLine
 62
7
  6
CONTINUOUS
 10
15.415095483
 20
9.1816653342
 11
15.4084206214
 21
9.1850045371
  0
LINE
  5
761
100
AcDbEntity
  8
0
100
AcDbLine
 62
7
  6
CONTINUOUS
 10
15.4151773775
 20
9.1817079336
 11
15.4084206214
 21
9.1851181214
  0
LINE
  5
762
100
AcDbEntity
  8
0
100
AcDbLine
 62
7
  6
CONTINUOUS
 10
15.447908455
 20
9.1963226999
 11
15.4082935838
 21
9.2163161131
  0
LWPOLYLINE
  5
763
100
AcDbEntity
  8
02___PRT_ALL_AXES
100
AcDbPolyline
 62
7
  6
CONTINUOUS
 90
3
 70
0
 10
15.4827068722
 20
9.2164134555
 10
15.3972033173
 20
9.2603440243
 10
15.3969107622
 20
9.2604622914
  0
LINE
  5
764
100
AcDbEntity
  8
0
100
AcDbLine
 62
7
  6
CONTINUOUS
 10
15.455524114
 20
9.1912866473
 11
15.447908455
 21
9.1963226999
  0
LWPOLYLINE
  5
765
100
AcDbEntity
  8
0
100
AcDbPolyline
 62
7
  6
CONTINUOUS
 90
3
 70
0
 10
15.6381013806
 20
8.9926505218
 10
15.5840909211
 20
9.0580776379
 10
15.5555599892
 20
9.0831225143
  0
LWPOLYLINE
  5
766
100
AcDbEntity
  8
ECAD_LED1A
100
AcDbPolyline
 62
7
  6
CONTINUOUS
 90
6
 70
0
 10
15.5337039343
 20
9.1548007838
 10
15.5413537902
 20
9.1438947383
 10
15.5474478378
 20
9.1320856694
 10
15.5519090881
 20
9.1195152071
 10
15.5546378435
 20
9.1063982562
 10
15.5555599892
 20
9.0929567391
  0
LINE
  5
767
100
AcDbEntity
  8
0
100
AcDbLine
 62
7
  6
CONTINUOUS
 10
15.6760139642
 20
8.9237734445
 11
15.6381013806
 21
8.9926505218
  0
LINE
  5
768
100
AcDbEntity
  8
0
100
AcDbLine
 62
7
  6
CONTINUOUS
 10
15.6972585662
 20
8.8527668844
 11
15.6760139642
 21
8.9237734445
  0
LWPOLYLINE
  5
769
100
AcDbEntity
  8
ECAD_LED1A
100
AcDbPolyline
 62
7
  6
CONTINUOUS
 90
10
 70
0
 10
15.1247813674
 20
9.3946500948
 10
15.1365575886
 20
9.3906666955
 10
15.1483189996
 20
9.3848984792
 10
15.1602286044
 20
9.3768253075
 10
15.1709196555
 20
9.3670110065
 10
15.1800472033
 20
9.3557372188
 10
15.1874760344
 20
9.3431281351
 10
15.1930065377
 20
9.3293890843
 10
15.1964447095
 20
9.314773278
 10
15.197619926
 20
9.2996088232
  0
LWPOLYLINE
  5
76A
100
AcDbEntity
  8
02___PRT_ALL_AXES
100
AcDbPolyline
 62
7
  6
CONTINUOUS
 90
8
 70
0
 10
15.4827068722
 20
9.2164134555
 10
15.5587986492
 20
9.1670490266
 10
15.6244496375
 20
9.1129183068
 10
15.6787720201
 20
9.0547533213
 10
15.72103118
 20
8.9933406517
 10
15.7506556346
 20
8.9295107989
 10
15.7672447639
 20
8.8641269524
 10
15.7709881221
 20
8.8145843442
  0
LWPOLYLINE
  5
76B
100
AcDbEntity
  8
ECAD_LED1A
100
AcDbPolyline
 62
7
  6
CONTINUOUS
 90
8
 70
0
 10
15.359207188
 20
9.2998992228
 10
15.3712424946
 20
9.2917075103
 10
15.381960959
 20
9.2818052448
 10
15.3910569787
 20
9.2704860338
 10
15.3984484908
 20
9.2578291576
 10
15.4038904297
 20
9.2441769199
 10
15.4072690701
 20
9.2296719238
 10
15.4084206214
 20
9.2146600199
  0
LINE
  5
76C
100
AcDbEntity
  8
02___PRT_ALL_AXES
100
AcDbLine
 62
7
  6
CENTER
 10
3.5296182753
 20
5.7950454905
 11
3.5296182753
 21
4.710793522
  0
LINE
  5
76D
100
AcDbEntity
  8
02___PRT_ALL_AXES
100
AcDbLine
 62
7
  6
CENTER
 10
3.5296182753
 20
5.7950454905
 11
3.5296182753
 21
6.879297459
  0
LINE
  5
76E
100
AcDbEntity
  8
02___PRT_ALL_AXES
100
AcDbLine
 62
7
  6
CENTER
 10
3.5296182753
 20
5.7950454905
 11
2.4453663068
 21
5.7950454905
  0
LINE
  5
76F
100
AcDbEntity
  8
02___PRT_ALL_AXES
100
AcDbLine
 62
7
  6
CENTER
 10
3.5296182753
 20
5.7950454905
 11
4.6138702438
 21
5.7950454905
  0
CIRCLE
  5
770
100
AcDbEntity
  8
0
100
AcDbCircle
 62
7
  6
CONTINUOUS
 10
10.5342808475
 20
1.243294839
 40
0.252091
  0
CIRCLE
  5
771
100
AcDbEntity
  8
0
100
AcDbCircle
 62
7
  6
CONTINUOUS
 10
10.5342808475
 20
1.243294839
 40
0.182698
  0
CIRCLE
  5
772
100
AcDbEntity
  8
ECAD_LED1A
100
AcDbCircle
 62
7
  6
CONTINUOUS
 10
3.5296182353
 20
5.0550454905
 40
0.0984251969
  0
CIRCLE
  5
773
100
AcDbEntity
  8
ECAD_LED1A
100
AcDbCircle
 62
7
  6
CONTINUOUS
 10
2.8006181553
 20
5.6670455705
 40
0.0984251969
  0
CIRCLE
  5
774
100
AcDbEntity
  8
ECAD_LED1A
100
AcDbCircle
 62
7
  6
CONTINUOUS
 10
3.0534792048
 20
5.2287428384
 40
0.0984251969
  0
CIRCLE
  5
775
100
AcDbEntity
  8
ECAD_LED1A
100
AcDbCircle
 62
7
  6
CONTINUOUS
 10
3.2765174682
 20
5.1000606995
 40
0.0984251969
  0
CIRCLE
  5
776
100
AcDbEntity
  8
ECAD_LED1A
100
AcDbCircle
 62
7
  6
CONTINUOUS
 10
2.8883172051
 20
5.4250453305
 40
0.0984251969
  0
ARC
  5
777
100
AcDbEntity
  8
AXIS
100
AcDbCircle
 62
7
  6
CONTINUOUS
 10
3.2765175782
 20
5.1000608167
 40
0.0984251969
100
AcDbArc
 50
262.3241115404
 51
70.0
  0
ARC
  5
778
100
AcDbEntity
  8
AXIS
100
AcDbCircle
 62
7
  6
CONTINUOUS
 10
3.0544789348
 20
5.2277433856
 40
0.0984251969
100
AcDbArc
 50
229.2980404272
 51
50.0
  0
ARC
  5
779
100
AcDbEntity
  8
AXIS
100
AcDbCircle
 62
7
  6
CONTINUOUS
 10
2.8883170051
 20
5.4250455678
 40
0.0984251969
100
AcDbArc
 50
42.323428552
 51
210.0
  0
ARC
  5
77A
100
AcDbEntity
  8
AXIS
100
AcDbCircle
 62
7
  6
CONTINUOUS
 10
2.8006179953
 20
5.6660453678
 40
0.0984251969
100
AcDbArc
 50
179.7566116337
 51
0.2424508815
  0
CIRCLE
  5
77B
100
AcDbEntity
  8
ECAD_LED1A
100
AcDbCircle
 62
7
  6
CONTINUOUS
 10
2.8006183553
 20
5.9240455705
 40
0.0984251969
  0
CIRCLE
  5
77C
100
AcDbEntity
  8
ECAD_LED1A
100
AcDbCircle
 62
7
  6
CONTINUOUS
 10
2.8893170851
 20
6.1650452905
 40
0.0984251969
  0
ARC
  5
77D
100
AcDbEntity
  8
AXIS
100
AcDbCircle
 62
7
  6
CONTINUOUS
 10
2.8006183153
 20
5.9230454878
 40
0.0984251969
100
AcDbArc
 50
179.7569923209
 51
0.2427733079
  0
ARC
  5
77E
100
AcDbEntity
  8
AXIS
100
AcDbCircle
 62
7
  6
CONTINUOUS
 10
2.8884580251
 20
6.1650452478
 40
0.0984251969
100
AcDbArc
 50
93.6577656186
 51
274.4291919079
  0
CIRCLE
  5
77F
100
AcDbEntity
  8
ECAD_LED1A
100
AcDbCircle
 62
7
  6
CONTINUOUS
 10
3.0534790148
 20
6.3623476727
 40
0.0984251969
  0
CIRCLE
  5
780
100
AcDbEntity
  8
ECAD_LED1A
100
AcDbCircle
 62
7
  6
CONTINUOUS
 10
3.2765174282
 20
6.4900300815
 40
0.0984251969
  0
ARC
  5
781
100
AcDbEntity
  8
AXIS
100
AcDbCircle
 62
7
  6
CONTINUOUS
 10
3.0534789748
 20
6.3613476299
 40
0.0984251969
100
AcDbArc
 50
183.4517624304
 51
4.1245950543
  0
ARC
  5
782
100
AcDbEntity
  8
AXIS
100
AcDbCircle
 62
7
  6
CONTINUOUS
 10
3.2765176982
 20
6.4900300388
 40
0.0984251969
100
AcDbArc
 50
290.0
 51
97.6761529048
  0
CIRCLE
  5
783
100
AcDbEntity
  8
ECAD_LED1A
100
AcDbCircle
 62
7
  6
CONTINUOUS
 10
3.7827188525
 20
5.1000608995
 40
0.0984251969
  0
ARC
  5
784
100
AcDbEntity
  8
AXIS
100
AcDbCircle
 62
7
  6
CONTINUOUS
 10
3.7827191225
 20
5.1000608567
 40
0.0984251969
100
AcDbArc
 50
290.0
 51
97.6761529048
  0
CIRCLE
  5
785
100
AcDbEntity
  8
02___PRT_ALL_AXES
100
AcDbCircle
 62
7
  6
CONTINUOUS
 10
3.5296182753
 20
5.7950454905
 40
0.9842519685
  0
CIRCLE
  5
786
100
AcDbEntity
  8
0
100
AcDbCircle
 62
7
  6
CONTINUOUS
 10
3.5296182753
 20
5.7950454905
 40
0.9350385957
  0
CIRCLE
  5
787
100
AcDbEntity
  8
AXIS
100
AcDbCircle
 62
7
  6
CONTINUOUS
 10
3.5296182753
 20
5.7950454905
 40
0.9153543307
  0
CIRCLE
  5
788
100
AcDbEntity
  8
0
100
AcDbCircle
 62
7
  6
CONTINUOUS
 10
3.5296182753
 20
5.7950454905
 40
0.9153543307
  0
CIRCLE
  5
789
100
AcDbEntity
  8
ECAD_LED1A
100
AcDbCircle
 62
7
  6
CONTINUOUS
 10
4.0057575758
 20
5.2287433084
 40
0.0984251969
  0
CIRCLE
  5
78A
100
AcDbEntity
  8
ECAD_LED1A
100
AcDbCircle
 62
7
  6
CONTINUOUS
 10
4.1707785255
 20
5.4250456905
 40
0.0984251969
  0
ARC
  5
78B
100
AcDbEntity
  8
AXIS
100
AcDbCircle
 62
7
  6
CONTINUOUS
 10
4.0057575358
 20
5.2277432656
 40
0.0984251969
100
AcDbArc
 50
183.4517624304
 51
4.1245950543
  0
ARC
  5
78C
100
AcDbEntity
  8
AXIS
100
AcDbCircle
 62
7
  6
CONTINUOUS
 10
4.1699194655
 20
5.4250456478
 40
0.0984251969
100
AcDbArc
 50
93.6577656186
 51
274.4291919079
  0
CIRCLE
  5
78D
100
AcDbEntity
  8
ECAD_LED1A
100
AcDbCircle
 62
7
  6
CONTINUOUS
 10
4.2586182353
 20
5.6670454505
 40
0.0984251969
  0
ARC
  5
78E
100
AcDbEntity
  8
AXIS
100
AcDbCircle
 62
7
  6
CONTINUOUS
 10
4.2586181953
 20
5.6660453678
 40
0.0984251969
100
AcDbArc
 50
179.7569923209
 51
0.2427733079
  0
CIRCLE
  5
78F
100
AcDbEntity
  8
ECAD_LED1A
100
AcDbCircle
 62
7
  6
CONTINUOUS
 10
4.2586185553
 20
5.9240455705
 40
0.0984251969
  0
CIRCLE
  5
790
100
AcDbEntity
  8
ECAD_LED1A
100
AcDbCircle
 62
7
  6
CONTINUOUS
 10
3.5296183153
 20
6.5350455305
 40
0.0984251969
  0
CIRCLE
  5
791
100
AcDbEntity
  8
ECAD_LED1A
100
AcDbCircle
 62
7
  6
CONTINUOUS
 10
4.0047576158
 20
6.3623475527
 40
0.0984251969
  0
CIRCLE
  5
792
100
AcDbEntity
  8
ECAD_LED1A
100
AcDbCircle
 62
7
  6
CONTINUOUS
 10
3.7827189725
 20
6.4900301215
 40
0.0984251969
  0
CIRCLE
  5
793
100
AcDbEntity
  8
ECAD_LED1A
100
AcDbCircle
 62
7
  6
CONTINUOUS
 10
4.1709195455
 20
6.1650453705
 40
0.0984251969
  0
ARC
  5
794
100
AcDbEntity
  8
AXIS
100
AcDbCircle
 62
7
  6
CONTINUOUS
 10
4.2586183953
 20
5.9230453678
 40
0.0984251969
100
AcDbArc
 50
179.7566116337
 51
0.2424508815
  0
ARC
  5
795
100
AcDbEntity
  8
AXIS
100
AcDbCircle
 62
7
  6
CONTINUOUS
 10
4.1709193455
 20
6.1650456078
 40
0.0984251969
100
AcDbArc
 50
42.323428552
 51
210.0
  0
ARC
  5
796
100
AcDbEntity
  8
AXIS
100
AcDbCircle
 62
7
  6
CONTINUOUS
 10
4.0057573458
 20
6.3613480999
 40
0.0984251969
100
AcDbArc
 50
229.2980404272
 51
50.0
  0
ARC
  5
797
100
AcDbEntity
  8
AXIS
100
AcDbCircle
 62
7
  6
CONTINUOUS
 10
3.7827190825
 20
6.4900302388
 40
0.0984251969
100
AcDbArc
 50
262.3241115404
 51
70.0
  0
ARC
  5
798
100
AcDbEntity
  8
ECAD_LED1A
100
AcDbCircle
 62
7
  6
CONTINUOUS
 10
6.9876000822
 20
5.0550454905
 40
0.0984251969
100
AcDbArc
 50
166.7387368321
 51
270.0
  0
ARC
  5
799
100
AcDbEntity
  8
ECAD_LED1A
100
AcDbCircle
 62
7
  6
CONTINUOUS
 10
6.9876000822
 20
5.1000608995
 40
0.0984251969
100
AcDbArc
 50
139.0277835944
 51
270.0
  0
ARC
  5
79A
100
AcDbEntity
  8
ECAD_LED1A
100
AcDbCircle
 62
7
  6
CONTINUOUS
 10
6.9876000822
 20
5.2287433084
 40
0.0984251969
100
AcDbArc
 50
92.0350699289
 51
270.0
  0
ARC
  5
79B
100
AcDbEntity
  8
ECAD_LED1A
100
AcDbCircle
 62
7
  6
CONTINUOUS
 10
6.9876000822
 20
5.4250456905
 40
0.0984251969
100
AcDbArc
 50
90.0
 51
270.0
  0
ARC
  5
79C
100
AcDbEntity
  8
ECAD_LED1A
100
AcDbCircle
 62
7
  6
CONTINUOUS
 10
6.9876000822
 20
5.6670454505
 40
0.0984251969
100
AcDbArc
 50
90.0
 51
270.0
  0
ARC
  5
79D
100
AcDbEntity
  8
0
100
AcDbCircle
 62
7
  6
CONTINUOUS
 10
7.5800174051
 20
4.8501636007
 40
0.0393700787
100
AcDbArc
 50
270.0
 51
360.0
  0
ARC
  5
79E
100
AcDbEntity
  8
0
100
AcDbCircle
 62
7
  6
CONTINUOUS
 10
7.6587575625
 20
5.2143368291
 40
0.0393700787
100
AcDbArc
 50
90.0
 51
180.0
  0
ARC
  5
79F
100
AcDbEntity
  8
ECAD_LED1A
100
AcDbCircle
 62
7
  6
CONTINUOUS
 10
6.9876000822
 20
6.5350455305
 40
0.0984251969
100
AcDbArc
 50
90.0
 51
193.2612631679
  0
ARC
  5
7A0
100
AcDbEntity
  8
ECAD_LED1A
100
AcDbCircle
 62
7
  6
CONTINUOUS
 10
6.9876000822
 20
6.4900301215
 40
0.0984251969
100
AcDbArc
 50
90.0
 51
220.5891113179
  0
ARC
  5
7A1
100
AcDbEntity
  8
ECAD_LED1A
100
AcDbCircle
 62
7
  6
CONTINUOUS
 10
6.9876000822
 20
6.3623475527
 40
0.0984251969
100
AcDbArc
 50
90.0
 51
270.0
  0
ARC
  5
7A2
100
AcDbEntity
  8
ECAD_LED1A
100
AcDbCircle
 62
7
  6
CONTINUOUS
 10
6.9876000822
 20
6.1650453705
 40
0.0984251969
100
AcDbArc
 50
90.0
 51
270.0
  0
ARC
  5
7A3
100
AcDbEntity
  8
ECAD_LED1A
100
AcDbCircle
 62
7
  6
CONTINUOUS
 10
6.9876000822
 20
5.9240455705
 40
0.0984251969
100
AcDbArc
 50
90.0
 51
270.0
  0
ARC
  5
7A4
100
AcDbEntity
  8
0
100
AcDbCircle
 62
7
  6
CONTINUOUS
 10
7.5800174051
 20
6.7399273803
 40
0.0393700787
100
AcDbArc
 50
0.0
 51
90.0
  0
ARC
  5
7A5
100
AcDbEntity
  8
0
100
AcDbCircle
 62
7
  6
CONTINUOUS
 10
7.6587575625
 20
6.3757541519
 40
0.0393700787
100
AcDbArc
 50
180.0
 51
270.0
  0
ARC
  5
7A6
100
AcDbEntity
  8
0
100
AcDbCircle
 62
7
  6
CONTINUOUS
 10
8.4219696013
 20
5.4326636007
 40
0.1181102362
100
AcDbArc
 50
90.0
 51
97.3852386189
  0
ARC
  5
7A7
100
AcDbEntity
  8
0
100
AcDbCircle
 62
7
  6
CONTINUOUS
 10
8.3674189799
 20
5.2930769866
 40
0.0393700787
100
AcDbArc
 50
270.0
 51
360.0
  0
ARC
  5
7A8
100
AcDbEntity
  8
0
100
AcDbCircle
 62
7
  6
CONTINUOUS
 10
8.4219696013
 20
6.1574273803
 40
0.1181102362
100
AcDbArc
 50
262.6147613811
 51
270.0
  0
ARC
  5
7A9
100
AcDbEntity
  8
0
100
AcDbCircle
 62
7
  6
CONTINUOUS
 10
8.3674189799
 20
6.2970139944
 40
0.0393700787
100
AcDbArc
 50
0.0
 51
90.0
  0
ARC
  5
7AA
100
AcDbEntity
  8
0
100
AcDbCircle
 62
7
  6
CONTINUOUS
 10
11.4388024913
 20
5.7359903724
 40
0.0354330709
100
AcDbArc
 50
190.1642486217
 51
10.1642486217
  0
ARC
  5
7AB
100
AcDbEntity
  8
02___PRT_ALL_AXES
100
AcDbCircle
 62
7
  6
CONTINUOUS
 10
11.4071962025
 20
5.7950454905
 40
0.05
100
AcDbArc
 50
263.9417425193
 51
96.0582574807
  0
ARC
  5
7AC
100
AcDbEntity
  8
0
100
AcDbCircle
 62
7
  6
CONTINUOUS
 10
11.4388024913
 20
5.8541006086
 40
0.0354330709
100
AcDbArc
 50
349.8357513783
 51
169.8357513783
  0
CIRCLE
  5
7AD
100
AcDbEntity
  8
0
100
AcDbCircle
 62
7
  6
CONTINUOUS
 10
11.6697710057
 20
5.7950454905
 40
0.0196850394
  0
CIRCLE
  5
7AE
100
AcDbEntity
  8
0
100
AcDbCircle
 62
9
  6
CONTINUOUS
 10
11.6697710057
 20
5.7950454905
 40
0.00468503
  0
ARC
  5
7AF
100
AcDbEntity
  8
0
100
AcDbCircle
 62
7
  6
CONTINUOUS
 10
12.0975899138
 20
5.7359903724
 40
0.0354330709
100
AcDbArc
 50
169.8357513783
 51
349.8357513783
  0
CIRCLE
  5
7B0
100
AcDbEntity
  8
0
100
AcDbCircle
 62
7
  6
CONTINUOUS
 10
11.7681962025
 20
5.6966202937
 40
0.0196850394
  0
CIRCLE
  5
7B1
100
AcDbEntity
  8
0
100
AcDbCircle
 62
9
  6
CONTINUOUS
 10
11.7681962025
 20
5.6966202937
 40
0.00468503
  0
CIRCLE
  5
7B2
100
AcDbEntity
  8
0
100
AcDbCircle
 62
7
  6
CONTINUOUS
 10
11.7681962025
 20
5.7950454905
 40
0.9842519685
  0
CIRCLE
  5
7B3
100
AcDbEntity
  8
0
100
AcDbCircle
 62
9
  6
CONTINUOUS
 10
11.7681962025
 20
5.7950454905
 40
0.9448818805
  0
ARC
  5
7B4
100
AcDbEntity
  8
0
100
AcDbCircle
 62
9
  6
CONTINUOUS
 10
11.7681962025
 20
5.7950454905
 40
0.5905511811
100
AcDbArc
 50
280.4753138432
 51
79.5246861568
  0
ARC
  5
7B5
100
AcDbEntity
  8
0
100
AcDbCircle
 62
9
  6
CONTINUOUS
 10
11.7681962025
 20
5.7950454905
 40
0.5905511811
100
AcDbArc
 50
100.4753138432
 51
259.5246861568
  0
ARC
  5
7B6
100
AcDbEntity
  8
0
100
AcDbCircle
 62
7
  6
CONTINUOUS
 10
11.7681962025
 20
5.7950454905
 40
0.5511811024
100
AcDbArc
 50
100.8440625637
 51
259.1559374363
  0
ARC
  5
7B7
100
AcDbEntity
  8
0
100
AcDbCircle
 62
7
  6
CONTINUOUS
 10
11.7681962025
 20
5.7950454905
 40
0.5511811024
100
AcDbArc
 50
280.8440625637
 51
79.1559374363
  0
ARC
  5
7B8
100
AcDbEntity
  8
0
100
AcDbCircle
 62
9
  6
CONTINUOUS
 10
11.7681962025
 20
5.7950454905
 40
0.5118110236
100
AcDbArc
 50
281.2547126182
 51
78.7452873818
  0
ARC
  5
7B9
100
AcDbEntity
  8
0
100
AcDbCircle
 62
9
  6
CONTINUOUS
 10
11.7681962025
 20
5.7950454905
 40
0.5118110236
100
AcDbArc
 50
101.2547126182
 51
258.7452873818
  0
CIRCLE
  5
7BA
100
AcDbEntity
  8
0
100
AcDbCircle
 62
7
  6
CONTINUOUS
 10
11.7681962025
 20
5.7950454905
 40
0.374015748
  0
ARC
  5
7BB
100
AcDbEntity
  8
02___PRT_ALL_AXES
100
AcDbCircle
 62
7
  6
CONTINUOUS
 10
11.7681962025
 20
5.7950454905
 40
0.3700787402
100
AcDbArc
 50
349.8357513783
 51
10.1642486217
  0
ARC
  5
7BC
100
AcDbEntity
  8
02___PRT_ALL_AXES
100
AcDbCircle
 62
7
  6
CONTINUOUS
 10
11.7681962025
 20
5.7950454905
 40
0.3700787402
100
AcDbArc
 50
169.8357513783
 51
190.1642486217
  0
ARC
  5
7BD
100
AcDbEntity
  8
0
100
AcDbCircle
 62
9
  6
CONTINUOUS
 10
11.7681962025
 20
5.7950454905
 40
0.3051181102
100
AcDbArc
 50
193.675172929
 51
346.3247431807
  0
ARC
  5
7BE
100
AcDbEntity
  8
0
100
AcDbCircle
 62
9
  6
CONTINUOUS
 10
11.7681962025
 20
5.7950454905
 40
0.3051181102
100
AcDbArc
 50
13.6751729346
 51
166.324743187
  0
ARC
  5
7BF
100
AcDbEntity
  8
0
100
AcDbCircle
 62
7
  6
CONTINUOUS
 10
11.7681962025
 20
5.7950454905
 40
0.2992125984
100
AcDbArc
 50
349.8357513783
 51
10.1642486217
  0
ARC
  5
7C0
100
AcDbEntity
  8
0
100
AcDbCircle
 62
7
  6
CONTINUOUS
 10
11.7681962025
 20
5.7950454905
 40
0.2992125984
100
AcDbArc
 50
169.8357513783
 51
190.1642486217
  0
CIRCLE
  5
7C1
100
AcDbEntity
  8
0
100
AcDbCircle
 62
7
  6
CONTINUOUS
 10
11.7681962025
 20
5.7950454905
 40
0.2854330709
  0
ARC
  5
7C2
100
AcDbEntity
  8
02___PRT_ALL_AXES
100
AcDbCircle
 62
7
  6
CONTINUOUS
 10
11.7681962025
 20
5.7950454905
 40
0.2854330709
100
AcDbArc
 50
280.1560818979
 51
349.2288609103
  0
ARC
  5
7C3
100
AcDbEntity
  8
02___PRT_ALL_AXES
100
AcDbCircle
 62
7
  6
CONTINUOUS
 10
11.7681962025
 20
5.7950454905
 40
0.2854330709
100
AcDbArc
 50
190.7584410939
 51
259.8683374486
  0
ARC
  5
7C4
100
AcDbEntity
  8
02___PRT_ALL_AXES
100
AcDbCircle
 62
7
  6
CONTINUOUS
 10
11.7681962025
 20
5.7950454905
 40
0.2854330709
100
AcDbArc
 50
100.1560818979
 51
178.3494205317
  0
CIRCLE
  5
7C5
100
AcDbEntity
  8
0
100
AcDbCircle
 62
9
  6
CONTINUOUS
 10
11.7681962025
 20
5.7950454905
 40
0.2815942195
  0
CIRCLE
  5
7C6
100
AcDbEntity
  8
0
100
AcDbCircle
 62
9
  6
CONTINUOUS
 10
11.7681962025
 20
5.7950454905
 40
0.2481105049
  0
ARC
  5
7C7
100
AcDbEntity
  8
0
100
AcDbCircle
 62
7
  6
CONTINUOUS
 10
11.7681962025
 20
5.7950454905
 40
0.2442716535
100
AcDbArc
 50
342.3463568424
 51
342.0005095346
  0
CIRCLE
  5
7C8
100
AcDbEntity
  8
0
100
AcDbCircle
 62
7
  6
CONTINUOUS
 10
11.7681962025
 20
5.7950454905
 40
0.208838596
  0
CIRCLE
  5
7C9
100
AcDbEntity
  8
0
100
AcDbCircle
 62
7
  6
CONTINUOUS
 10
11.7681962025
 20
5.7950454905
 40
0.2037401575
  0
CIRCLE
  5
7CA
100
AcDbEntity
  8
0
100
AcDbCircle
 62
7
  6
CONTINUOUS
 10
11.7681962025
 20
5.7950454905
 40
0.1633858268
  0
CIRCLE
  5
7CB
100
AcDbEntity
  8
0
100
AcDbCircle
 62
7
  6
CONTINUOUS
 10
11.8666213994
 20
5.7950454905
 40
0.0196850394
  0
CIRCLE
  5
7CC
100
AcDbEntity
  8
0
100
AcDbCircle
 62
9
  6
CONTINUOUS
 10
11.8666213994
 20
5.7950454905
 40
0.00468503
  0
CIRCLE
  5
7CD
100
AcDbEntity
  8
0
100
AcDbCircle
 62
7
  6
CONTINUOUS
 10
11.7681962025
 20
5.8934706874
 40
0.0196850394
  0
CIRCLE
  5
7CE
100
AcDbEntity
  8
0
100
AcDbCircle
 62
9
  6
CONTINUOUS
 10
11.7681962025
 20
5.8934706874
 40
0.00468503
  0
ARC
  5
7CF
100
AcDbEntity
  8
02___PRT_ALL_AXES
100
AcDbCircle
 62
7
  6
CONTINUOUS
 10
12.1151962025
 20
5.7950454905
 40
0.05
100
AcDbArc
 50
66.6864727434
 51
165.4283863402
  0
ARC
  5
7D0
100
AcDbEntity
  8
02___PRT_ALL_AXES
100
AcDbCircle
 62
7
  6
CONTINUOUS
 10
12.1151962025
 20
5.7950454905
 40
0.05
100
AcDbArc
 50
194.5758834656
 51
293.3135272566
  0
ARC
  5
7D1
100
AcDbEntity
  8
0
100
AcDbCircle
 62
7
  6
CONTINUOUS
 10
12.0975899138
 20
5.8541006086
 40
0.0354330709
100
AcDbArc
 50
10.1642486217
 51
190.1642486217
  0
ENDSEC
  0
SECTION
  2
OBJECTS
  0
DICTIONARY
  5
C
100
AcDbDictionary
280
0
281
1
  3
ACAD_GROUP
350
D
  3
ACAD_MLINESTYLE
350
17
  3
ACAD_LAYOUT
350
1A
  3
ACAD_PLOTSETTINGS
350
19
  3
ACAD_PLOTSTYLENAME
350
E
  3
ACAD_TABLESTYLE
350
       7D2
  0
DICTIONARY
  5
D
102
{ACAD_REACTORS
330
C
102
}
100
AcDbDictionary
280
0
281
1
  0
ACDBDICTIONARYWDFLT
  5
E
102
{ACAD_REACTORS
330
C
102
}
100
AcDbDictionary
281
1
  3
Normal
350
F
100
AcDbDictionaryWithDefault
340
F
  0
DICTIONARY
  5
17
102
{ACAD_REACTORS
330
C
102
}
100
AcDbDictionary
280
0
281
1
  3
Standard
350
18
  0
DICTIONARY
  5
7D2
330
C
100
AcDbDictionary
281
1
  3
Standard
350
       7D5
  3
Standard1
350
       7D6
  0
DICTIONARY
  5
19
102
{ACAD_REACTORS
330
C
102
}
100
AcDbDictionary
281
1
  0
DICTIONARY
  5
1A
102
{ACAD_REACTORS
330
C
102
}
100
AcDbDictionary
281
1
  3
Model
350
7D3
  3
Layout1
350
7D4
  0
ACDBPLACEHOLDER
  5
F
102
{ACAD_REACTORS
330
E
102
}
  0
MLINESTYLE
  5
18
102
{ACAD_REACTORS
330
17
102
}
100
AcDbMlineStyle
  2
STANDARD
 70
0
  3

 62
256
 51
90.0
 52
90.0
 71
2
 49
0.5
 62
256
  6
BYLAYER
 49
-0.5
 62
256
  6
BYLAYER
  0
LAYOUT
  5
7D3
102
{ACAD_REACTORS
330
1A
102
}
100
AcDbPlotSettings
  1

  2
none_device
  4
ANSI_B_(17.00_x_11.00_Inches)
  6

 40
0.0
 41
0.0
 42
0.0
 43
0.0
 44
431.8
 45
279.4
 46
0.0
 47
0.0
 48
0.0
 49
0.0
140
0.0
141
0.0
142
1.0
143
1.0
 70
1024
 72
0
 73
0
 74
0
  7

 75
0
147
1.0
148
0.0
149
0.0
100
AcDbLayout
  1
Model
 70
0
 71
0
 10
0.0
 20
0.0
 11
17.0
 21
11.0
 12
0.0
 22
0.0
 32
0.0
 14
0.0
 24
0.0
 34
0.0
 15
0.0
 25
0.0
 35
0.0
146
0.0
 13
0.0
 23
0.0
 33
0.0
 16
1.0
 26
0.0
 36
0.0
 17
0.0
 27
1.0
 37
0.0
 76
0
330
22F
345
0
346
0
  0
LAYOUT
  5
7D4
102
{ACAD_REACTORS
330
1A
102
}
100
AcDbPlotSettings
  1

  2
none_device
  4
ANSI_B_(17.00_x_11.00_Inches)
  6

 40
0.0
 41
0.0
 42
0.0
 43
0.0
 44
431.8
 45
279.4
 46
0.0
 47
0.0
 48
0.0
 49
0.0
140
0.0
141
0.0
142
1.0
143
1.0
 70
0
 72
0
 73
0
 74
0
  7

 75
0
147
1.0
148
0.0
149
0.0
100
AcDbLayout
  1
Layout1
 70
0
 71
1
 10
0.0
 20
0.0
 11
17.0
 21
11.0
 12
0.0
 22
0.0
 32
0.0
 14
0.0
 24
0.0
 34
0.0
 15
0.0
 25
0.0
 35
0.0
146
0.0
 13
0.0
 23
0.0
 33
0.0
 16
1.0
 26
0.0
 36
0.0
 17
0.0
 27
1.0
 37
0.0
 76
0
330
230
345
0
346
0
  0
TABLESTYLE
  5
7D5
102
{ACAD_REACTORS
330
7D2
102
}
330
7D2
100
AcDbTableStyle
  3
Standard
 70
0
 71
0
 40
0.06
 41
0.06
280
1
281
1
  7
Standard
140
0.18
170
1
 62
0
 63
7
283
0
  7
Standard
140
0.18
170
1
 62
0
 63
7
283
0
  7
Standard
140
0.18
170
1
 62
0
 63
7
283
0
  0
TABLESTYLE
  5
7D6
102
{ACAD_REACTORS
330
7D2
330
45E
102
}
330
7D2
100
AcDbTableStyle
  3
Standard1
 70
1
 71
0
 40
0.06
 41
0.06
280
1
281
1
  7
Standard
140
0.18
170
1
 62
0
 63
7
283
0
  7
Standard
140
0.18
170
1
 62
0
 63
7
283
0
  7
Standard
140
0.18
170
1
 62
0
 63
7
283
0
  0
ENDSEC
  0
EOF
