999
DXF file: 144868_1.dxf
999
Pro/ENGINEER 2006170 by Parametric Technology Corporation
  0
SECTION
  2
HEADER
  9
$ACADVER
  1
AC1015
  9
$DWGCODEPAGE
  3
ANSI_1252
  9
$EXTMAX
 10
17.0
 20
11.0
 30
0.0
  9
$EXTMIN
 10
0.0
 20
0.0
 30
0.0
  9
$LIMMIN
 10
0.0
 20
0.0
  9
$LIMMAX
 10
17.0
 20
11.0
  9
$VIEWCTR
 10
8.5
 20
5.5
  9
$VIEWSIZE
 40
11.0
  9
$CLAYER
  8
0
  9
$LTSCALE
 40
0.935
  9
$CELTYPE
  6
BYLAYER
  9
$DIMSCALE
 40
1.0
  9
$DIMASZ
 40
0.1875
  9
$DIMEXO
 40
0.10625
  9
$DIMDLI
 40
0.646
  9
$DIMEXE
 40
0.306
  9
$DIMCEN
 40
0.153
  9
$DIMLFAC
 40
1.0
  9
$DIMBLK
  1
_FILLED
  9
$DIMTXT
 40
0.1
  9
$DIMTOL
 70
1
  9
$DIMLIM
 70
0
  9
$DIMTFAC
 40
1.0
  9
$DIMTP
 40
0.005
  9
$DIMTM
 40
0.005
  9
$PDMODE
 70
3
  9
$PDSIZE
 40
0.3125
  9
$HANDSEED
  5
726
  9
$MEASUREMENT
 70
0
  9
$INSUNITS
 70
1
  0
ENDSEC
  0
SECTION
  2
CLASSES
  0
CLASS
  1
ACDBDICTIONARYWDFLT
  2
AcDbDictionaryWithDefault
  3
AutoCAD 2000
 90
0
280
0
281
0
  0
CLASS
  1
ACDBPLACEHOLDER
  2
AcDbPlaceHolder
  3
AutoCAD 2000
 90
0
280
0
281
0
  0
CLASS
  1
LAYOUT
  2
AcDbLayout
  3
AutoCAD 2000
 90
0
280
0
281
0
  0
ENDSEC
  0
SECTION
  2
TABLES
  0
TABLE
  2
VPORT
  5
8
100
AcDbSymbolTable
 70
2
  0
VPORT
  5
1F4
100
AcDbSymbolTableRecord
100
AcDbViewportTableRecord
  2
*ACTIVE
 70
0
 10
0.0
 20
0.0
 11
1.0
 21
1.0
 12
8.5
 22
5.5
 13
0.0
 23
0.0
 14
1.0
 24
1.0
 15
0.0
 25
0.0
 16
0.0
 26
0.0
 36
1.0
 17
0.0
 27
0.0
 37
0.0
 40
11.0
 41
1.5454545455
 42
50.0
 43
0.0
 44
0.0
 50
0.0
 51
0.0
 71
0
 72
100
 73
1
 74
1
 75
0
 76
0
 77
0
 78
0
  0
ENDTAB
  0
TABLE
  2
LTYPE
  5
5
100
AcDbSymbolTable
 70
6
  0
LTYPE
  5
14
100
AcDbSymbolTableRecord
100
AcDbLinetypeTableRecord
  2
BYBLOCK
 70
0
  3

 72
65
 73
0
 40
0.0
  0
LTYPE
  5
15
100
AcDbSymbolTableRecord
100
AcDbLinetypeTableRecord
  2
BYLAYER
 70
0
  3

 72
65
 73
0
 40
0.0
  0
LTYPE
  5
16
100
AcDbSymbolTableRecord
100
AcDbLinetypeTableRecord
  2
CONTINUOUS
 70
64
  3
Solid line
 72
65
 73
0
 40
0.0
  0
LTYPE
  5
1F5
100
AcDbSymbolTableRecord
100
AcDbLinetypeTableRecord
  2
CENTER
 70
64
  3
____ _ ____ _ ____ _ ____ _ ____ _ ____ _ ____
 72
65
 73
4
 40
0.6
 49
0.375
 74
0
 49
-0.075
 74
0
 49
0.075
 74
0
 49
-0.075
 74
0
  0
LTYPE
  5
1F6
100
AcDbSymbolTableRecord
100
AcDbLinetypeTableRecord
  2
HIDDEN
 70
64
  3
- - - - - - - - - - - - - - - - - - - -
 72
65
 73
2
 40
0.2
 49
0.1
 74
0
 49
-0.1
 74
0
  0
LTYPE
  5
1F7
100
AcDbSymbolTableRecord
100
AcDbLinetypeTableRecord
  2
PHANTOM
 70
64
  3
_____ _ _ _____ _ _ _____ _ _ _____
 72
65
 73
6
 40
0.8
 49
0.45
 74
0
 49
-0.05
 74
0
 49
0.1
 74
0
 49
-0.05
 74
0
 49
0.1
 74
0
 49
-0.05
 74
0
  0
LTYPE
  5
1F8
100
AcDbSymbolTableRecord
100
AcDbLinetypeTableRecord
  2
DOT
 70
64
  3
. . . . . . . . . . . . . . . . . . . .
 72
65
 73
2
 40
0.2
 49
0.1
 74
0
 49
-0.1
 74
0
  0
LTYPE
  5
1F9
100
AcDbSymbolTableRecord
100
AcDbLinetypeTableRecord
  2
DASHED
 70
64
  3
- - - - - - - - - - - - - - - - - - - -
 72
65
 73
2
 40
0.2
 49
0.1
 74
0
 49
-0.1
 74
0
  0
ENDTAB
  0
TABLE
  2
LAYER
  5
2
100
AcDbSymbolTable
 70
36
  0
LAYER
  5
10
100
AcDbSymbolTableRecord
100
AcDbLayerTableRecord
  2
0
 70
0
 62
7
  6
CONTINUOUS
370
-3
390
F
  0
LAYER
  5
1FA
100
AcDbSymbolTableRecord
100
AcDbLayerTableRecord
  2
DEFAULT_1
 70
0
 62
7
  6
CENTER
370
-3
390
F
  0
LAYER
  5
1FB
100
AcDbSymbolTableRecord
100
AcDbLayerTableRecord
  2
DEFAULT_2
 70
0
 62
8
  6
HIDDEN
370
-3
390
F
  0
LAYER
  5
1FC
100
AcDbSymbolTableRecord
100
AcDbLayerTableRecord
  2
DEFAULT_3
 70
0
 62
7
  6
PHANTOM
370
-3
390
F
  0
LAYER
  5
1FD
100
AcDbSymbolTableRecord
100
AcDbLayerTableRecord
  2
_2D_DELETED_OBJS
 70
0
 62
7
  6
CONTINUOUS
370
-3
390
F
  0
LAYER
  5
1FE
100
AcDbSymbolTableRecord
100
AcDbLayerTableRecord
  2
_BLACK_HOLE
 70
0
 62
7
  6
CONTINUOUS
370
-3
390
F
  0
LAYER
  5
1FF
100
AcDbSymbolTableRecord
100
AcDbLayerTableRecord
  2
01___PRT_ALL_DTM_PLN
 70
0
 62
7
  6
CONTINUOUS
370
-3
390
F
  0
LAYER
  5
200
100
AcDbSymbolTableRecord
100
AcDbLayerTableRecord
  2
01___PRT_DEF_DTM_PLN
 70
0
 62
7
  6
CONTINUOUS
370
-3
390
F
  0
LAYER
  5
201
100
AcDbSymbolTableRecord
100
AcDbLayerTableRecord
  2
02___PRT_ALL_AXES
 70
0
 62
7
  6
CONTINUOUS
370
-3
390
F
  0
LAYER
  5
202
100
AcDbSymbolTableRecord
100
AcDbLayerTableRecord
  2
03___PRT_ALL_CURVES
 70
0
 62
7
  6
CONTINUOUS
370
-3
390
F
  0
LAYER
  5
203
100
AcDbSymbolTableRecord
100
AcDbLayerTableRecord
  2
04___PRT_ALL_DTM_PNT
 70
0
 62
7
  6
CONTINUOUS
370
-3
390
F
  0
LAYER
  5
204
100
AcDbSymbolTableRecord
100
AcDbLayerTableRecord
  2
05___PRT_ALL_DTM_CSYS
 70
0
 62
7
  6
CONTINUOUS
370
-3
390
F
  0
LAYER
  5
205
100
AcDbSymbolTableRecord
100
AcDbLayerTableRecord
  2
05___PRT_DEF_DTM_CSYS
 70
0
 62
7
  6
CONTINUOUS
370
-3
390
F
  0
LAYER
  5
206
100
AcDbSymbolTableRecord
100
AcDbLayerTableRecord
  2
06___PRT_ALL_SURFS
 70
0
 62
7
  6
CONTINUOUS
370
-3
390
F
  0
LAYER
  5
207
100
AcDbSymbolTableRecord
100
AcDbLayerTableRecord
  2
AXIS
 70
0
 62
7
  6
CONTINUOUS
370
-3
390
F
  0
LAYER
  5
208
100
AcDbSymbolTableRecord
100
AcDbLayerTableRecord
  2
AXIS_COSMETIC_THREADS
 70
0
 62
7
  6
CONTINUOUS
370
-3
390
F
  0
LAYER
  5
209
100
AcDbSymbolTableRecord
100
AcDbLayerTableRecord
  2
DATUM_CURVES
 70
0
 62
7
  6
CONTINUOUS
370
-3
390
F
  0
LAYER
  5
20A
100
AcDbSymbolTableRecord
100
AcDbLayerTableRecord
  2
DATUM_PLANES
 70
0
 62
7
  6
CONTINUOUS
370
-3
390
F
  0
LAYER
  5
20B
100
AcDbSymbolTableRecord
100
AcDbLayerTableRecord
  2
NOTES
 70
0
 62
7
  6
CONTINUOUS
370
-3
390
F
  0
LAYER
  5
20C
100
AcDbSymbolTableRecord
100
AcDbLayerTableRecord
  2
QUILTS
 70
0
 62
7
  6
CONTINUOUS
370
-3
390
F
  0
LAYER
  5
20D
100
AcDbSymbolTableRecord
100
AcDbLayerTableRecord
  2
SCHEME_DIMS
 70
0
 62
7
  6
CONTINUOUS
370
-3
390
F
  0
LAYER
  5
20E
100
AcDbSymbolTableRecord
100
AcDbLayerTableRecord
  2
SYMBOLS
 70
0
 62
7
  6
CONTINUOUS
370
-3
390
F
  0
ENDTAB
  0
TABLE
  2
STYLE
  5
3
100
AcDbSymbolTable
 70
1
  0
STYLE
  5
11
100
AcDbSymbolTableRecord
100
AcDbTextStyleTableRecord
  2
STANDARD
 70
0
 40
0.0
 41
1.0
 50
0.0
 71
0
 42
0.2
  3
txt
  4

  0
ENDTAB
  0
TABLE
  2
VIEW
  5
6
100
AcDbSymbolTable
 70
0
  0
ENDTAB
  0
TABLE
  2
UCS
  5
7
100
AcDbSymbolTable
 70
0
  0
ENDTAB
  0
TABLE
  2
APPID
  5
9
100
AcDbSymbolTable
 70
1
  0
APPID
  5
20F
100
AcDbSymbolTableRecord
100
AcDbRegAppTableRecord
  2
ACAD
 70
0
  0
ENDTAB
  0
TABLE
  2
BLOCK_RECORD
  5
1
100
AcDbSymbolTable
 70
0
  0
BLOCK_RECORD
  5
1F
100
AcDbSymbolTableRecord
100
AcDbBlockTableRecord
  2
*MODEL_SPACE
  0
BLOCK_RECORD
  5
1B
100
AcDbSymbolTableRecord
100
AcDbBlockTableRecord
  2
*PAPER_SPACE
  0
BLOCK_RECORD
  5
210
100
AcDbSymbolTableRecord
100
AcDbBlockTableRecord
  2
_FILLED
  0
BLOCK_RECORD
  5
211
100
AcDbSymbolTableRecord
100
AcDbBlockTableRecord
  2
BANNER_LOGO_TITLEBLOCK_BL0
  0
BLOCK_RECORD
  5
212
100
AcDbSymbolTableRecord
100
AcDbBlockTableRecord
  2
*D0
  0
BLOCK_RECORD
  5
213
100
AcDbSymbolTableRecord
100
AcDbBlockTableRecord
  2
*D1
  0
BLOCK_RECORD
  5
214
100
AcDbSymbolTableRecord
100
AcDbBlockTableRecord
  2
*D2
  0
BLOCK_RECORD
  5
215
100
AcDbSymbolTableRecord
100
AcDbBlockTableRecord
  2
*D3
  0
ENDTAB
  0
TABLE
  2
DIMSTYLE
  5
A
100
AcDbSymbolTable
 70
1
100
AcDbDimStyleTable
 71
0
  0
DIMSTYLE
105
216
100
AcDbSymbolTableRecord
100
AcDbDimStyleTableRecord
  2
STANDARD
 70
0
  3

  4

 40
1.0
 41
0.1875
 42
0.0625
 43
0.38
 44
0.18
 45
0.0
 46
0.0
 47
0.005
 48
0.005
140
0.1
141
0.09
142
0.0
143
25.4
144
1.0
145
0.0
146
1.0
147
0.09
 71
1.0
 72
0.0
 73
1
 74
1
 75
0
 76
0
 77
0
 78
4
170
0
171
2
172
0
173
0
174
0
175
0
176
0
177
0
178
0
270
2
271
3
272
3
273
2
274
2
275
0
280
0
281
0
282
0
283
1
284
4
285
0
286
0
287
3
288
0
340
11
341
210
342
210
343
210
344
210
  0
DIMSTYLE
105
217
100
AcDbSymbolTableRecord
100
AcDbDimStyleTableRecord
  2
DIMSTYLE_1
 70
0
  3

  4

 40
1.0
 41
0.1875
 42
0.0625
 43
0.38
 44
0.18
 45
0.0
 46
0.0
 47
0.1
 48
0.1
140
0.1
141
0.09
142
0.0
143
25.4
144
1.0
145
0.0
146
1.0
147
0.09
 71
0.0
 72
0.0
 73
1
 74
1
 75
0
 76
0
 77
0
 78
4
170
0
171
2
172
0
173
0
174
0
175
0
176
0
177
0
178
0
270
2
271
1
272
1
273
2
274
2
275
0
280
0
281
0
282
0
283
1
284
4
285
0
286
0
287
3
288
0
340
11
341
210
342
210
343
210
344
210
  0
DIMSTYLE
105
218
100
AcDbSymbolTableRecord
100
AcDbDimStyleTableRecord
  2
DIMSTYLE_2
 70
0
  3

  4

 40
1.0
 41
0.1875
 42
0.0625
 43
0.38
 44
0.18
 45
0.0
 46
0.0
 47
0.1
 48
0.1
140
0.1
141
0.09
142
0.0
143
25.4
144
1.0
145
0.0
146
1.0
147
0.09
 71
0.0
 72
0.0
 73
1
 74
1
 75
0
 76
0
 77
0
 78
4
170
0
171
2
172
0
173
0
174
0
175
0
176
0
177
0
178
0
270
2
271
1
272
1
273
2
274
2
275
0
280
0
281
0
282
0
283
1
284
4
285
0
286
0
287
3
288
0
340
11
341
210
342
210
343
210
344
210
  0
ENDTAB
  0
ENDSEC
  0
SECTION
  2
BLOCKS
  0
BLOCK
  5
20
100
AcDbEntity
  8
0
100
AcDbBlockBegin
  2
*MODEL_SPACE
 70
0
 10
0.0
 20
0.0
 30
0.0
  3
*MODEL_SPACE
  1

  0
ENDBLK
  5
21
100
AcDbEntity
  8
0
100
AcDbBlockEnd
  0
BLOCK
  5
1C
100
AcDbEntity
  8
0
100
AcDbBlockBegin
  2
*PAPER_SPACE
 70
0
 10
0.0
 20
0.0
 30
0.0
  3
*PAPER_SPACE
  1

  0
ENDBLK
  5
1D
100
AcDbEntity
  8
0
100
AcDbBlockEnd
  0
BLOCK
  5
219
100
AcDbEntity
  8
0
100
AcDbBlockBegin
 62
2
  6
CONTINUOUS
  2
BANNER_LOGO_TITLEBLOCK_BL0
 70
64
 10
12.9046655056
 20
2.5403783448
  3
BANNER_LOGO_TITLEBLOCK_BL0
  1

  0
LWPOLYLINE
  5
21A
100
AcDbEntity
  8
0
100
AcDbPolyline
 62
2
  6
CONTINUOUS
 90
29
 70
0
 10
12.0796650004
 20
2.5403783448
 10
12.1000078385
 20
2.5005819703
 10
12.1615890075
 20
2.4620382478
 10
12.2590135686
 20
2.4281250935
 10
12.3910903821
 20
2.3992568791
 10
12.5462480343
 20
2.3779627503
 10
12.7225901426
 20
2.3645025835
 10
12.9046652672
 20
2.3600565514
 10
13.0867408686
 20
2.3645025835
 10
13.2630829769
 20
2.3779627503
 10
13.4182401522
 20
2.3992568791
 10
13.5503174426
 20
2.4281250935
 10
13.6477415269
 20
2.4620382478
 10
13.7093231727
 20
2.5005819703
 10
13.7296660108
 20
2.5403783448
 10
13.7093231727
 20
2.5801747193
 10
13.6477415269
 20
2.6187184418
 10
13.5503174426
 20
2.6526315961
 10
13.4182401522
 20
2.6814998105
 10
13.2630829769
 20
2.7027939393
 10
13.0867408686
 20
2.7162541061
 10
12.9046652672
 20
2.7207001382
 10
12.7225901426
 20
2.7162541061
 10
12.5462480343
 20
2.7027939393
 10
12.3910903821
 20
2.6814998105
 10
12.2590135686
 20
2.6526315961
 10
12.1615890075
 20
2.6187184418
 10
12.1000078385
 20
2.5801747193
 10
12.0796650004
 20
2.5403783448
  0
ARC
  5
21B
100
AcDbEntity
  8
0
100
AcDbCircle
 62
2
  6
CONTINUOUS
 10
12.400005721
 20
2.5168763464
 40
0.0153945295
100
AcDbArc
 50
354.0454548824
 51
5.1878013979
  0
ARC
  5
21C
100
AcDbEntity
  8
0
100
AcDbCircle
 62
2
  6
CONTINUOUS
 10
12.3931760319
 20
2.5166878286
 40
0.0222174455
100
AcDbArc
 50
4.0793399388
 51
69.834329283
  0
LINE
  5
21D
100
AcDbEntity
  8
0
100
AcDbLine
 62
2
  6
CONTINUOUS
 10
12.4008351814
 20
2.5375433389
 11
12.3907841758
 21
2.5410923409
  0
LINE
  5
21E
100
AcDbEntity
  8
0
100
AcDbLine
 62
2
  6
CONTINUOUS
 10
12.3907841758
 20
2.5410923409
 11
12.3990241804
 21
2.5458683435
  0
ARC
  5
21F
100
AcDbEntity
  8
0
100
AcDbCircle
 62
2
  6
CONTINUOUS
 10
12.3771587979
 20
2.5826952352
 40
0.0428289026
100
AcDbArc
 50
300.6990502959
 51
319.0591802498
  0
ARC
  5
220
100
AcDbEntity
  8
0
100
AcDbCircle
 62
2
  6
CONTINUOUS
 10
12.3971873948
 20
2.5665668817
 40
0.0171568255
100
AcDbArc
 50
315.9145124245
 51
16.0049121282
  0
ARC
  5
221
100
AcDbEntity
  8
0
100
AcDbCircle
 62
2
  6
CONTINUOUS
 10
12.3922357827
 20
2.5632132173
 40
0.0229166529
100
AcDbArc
 50
20.6563876465
 51
62.3316896973
  0
ARC
  5
222
100
AcDbEntity
  8
0
100
AcDbCircle
 62
2
  6
CONTINUOUS
 10
12.371573659
 20
2.5302846524
 40
0.061747717
100
AcDbArc
 50
59.5385584989
 51
90.0050977555
  0
LINE
  5
223
100
AcDbEntity
  8
0
100
AcDbLine
 62
2
  6
CONTINUOUS
 10
12.3715681652
 20
2.5920323691
 11
12.2055050731
 21
2.5920323691
  0
ARC
  5
224
100
AcDbEntity
  8
0
100
AcDbCircle
 62
2
  6
CONTINUOUS
 10
12.2055050712
 20
2.5895573696
 40
0.0024749995
100
AcDbArc
 50
89.9999571957
 51
180.0000428043
  0
LINE
  5
225
100
AcDbEntity
  8
0
100
AcDbLine
 62
2
  6
CONTINUOUS
 10
12.2030300717
 20
2.5895573678
 11
12.2030300717
 21
2.5697573568
  0
ARC
  5
226
100
AcDbEntity
  8
0
100
AcDbCircle
 62
2
  6
CONTINUOUS
 10
12.2055050712
 20
2.5697573549
 40
0.0024749995
100
AcDbArc
 50
179.9999571957
 51
270.0000428043
  0
LINE
  5
227
100
AcDbEntity
  8
0
100
AcDbLine
 62
2
  6
CONTINUOUS
 10
12.2055050731
 20
2.5672823554
 11
12.2294470864
 21
2.5672823554
  0
ARC
  5
228
100
AcDbEntity
  8
0
100
AcDbCircle
 62
2
  6
CONTINUOUS
 10
12.2294470882
 20
2.5648073559
 40
0.0024749995
100
AcDbArc
 50
359.9999571957
 51
90.0000428043
  0
LINE
  5
229
100
AcDbEntity
  8
0
100
AcDbLine
 62
2
  6
CONTINUOUS
 10
12.2319220877
 20
2.564807354
 11
12.2319220877
 21
2.5184523283
  0
ARC
  5
22A
100
AcDbEntity
  8
0
100
AcDbCircle
 62
2
  6
CONTINUOUS
 10
12.2294470882
 20
2.5184523265
 40
0.0024749995
100
AcDbArc
 50
269.9999571957
 51
0.0000428043
  0
LINE
  5
22B
100
AcDbEntity
  8
0
100
AcDbLine
 62
2
  6
CONTINUOUS
 10
12.2294470864
 20
2.515977327
 11
12.2055050731
 21
2.515977327
  0
ARC
  5
22C
100
AcDbEntity
  8
0
100
AcDbCircle
 62
2
  6
CONTINUOUS
 10
12.2055050712
 20
2.5135023274
 40
0.0024749995
100
AcDbArc
 50
89.9999571957
 51
180.0000428043
  0
LINE
  5
22D
100
AcDbEntity
  8
0
100
AcDbLine
 62
2
  6
CONTINUOUS
 10
12.2030300717
 20
2.5135023256
 11
12.2030300717
 21
2.4937023146
  0
ARC
  5
22E
100
AcDbEntity
  8
0
100
AcDbCircle
 62
2
  6
CONTINUOUS
 10
12.2055050712
 20
2.4937023128
 40
0.0024749995
100
AcDbArc
 50
179.9999571957
 51
270.0000428043
  0
LINE
  5
22F
100
AcDbEntity
  8
0
100
AcDbLine
 62
2
  6
CONTINUOUS
 10
12.2055050731
 20
2.4912273132
 11
12.3819511709
 21
2.4912273132
  0
ARC
  5
230
100
AcDbEntity
  8
0
100
AcDbCircle
 62
2
  6
CONTINUOUS
 10
12.3792298263
 20
2.539634765
 40
0.048483885
100
AcDbArc
 50
273.21763719
 51
303.0749121182
  0
ARC
  5
231
100
AcDbEntity
  8
0
100
AcDbCircle
 62
2
  6
CONTINUOUS
 10
12.3940692204
 20
2.5168671561
 40
0.0213072145
100
AcDbArc
 50
303.0488228549
 51
355.7263138674
  0
LINE
  5
232
100
AcDbEntity
  8
0
100
AcDbLine
 62
2
  6
CONTINUOUS
 10
12.2949101227
 20
2.5499573458
 11
12.3362731456
 21
2.5499573458
  0
ARC
  5
233
100
AcDbEntity
  8
0
100
AcDbCircle
 62
2
  6
CONTINUOUS
 10
12.3362731456
 20
2.5586198506
 40
0.0086625048
100
AcDbArc
 50
270.0
 51
90.0
  0
LINE
  5
234
100
AcDbEntity
  8
0
100
AcDbLine
 62
2
  6
CONTINUOUS
 10
12.3362731456
 20
2.5672823554
 11
12.2949101227
 21
2.5672823554
  0
ARC
  5
235
100
AcDbEntity
  8
0
100
AcDbCircle
 62
2
  6
CONTINUOUS
 10
12.2949101208
 20
2.5648073559
 40
0.0024749995
100
AcDbArc
 50
89.9999571957
 51
180.0000428043
  0
LINE
  5
236
100
AcDbEntity
  8
0
100
AcDbLine
 62
2
  6
CONTINUOUS
 10
12.2924351213
 20
2.564807354
 11
12.2924351213
 21
2.5524323472
  0
ARC
  5
237
100
AcDbEntity
  8
0
100
AcDbCircle
 62
2
  6
CONTINUOUS
 10
12.2949101208
 20
2.5524323453
 40
0.0024749995
100
AcDbArc
 50
179.9999571957
 51
270.0000428043
  0
LINE
  5
238
100
AcDbEntity
  8
0
100
AcDbLine
 62
2
  6
CONTINUOUS
 10
12.2924351213
 20
2.5184523283
 11
12.2924351213
 21
2.5308273352
  0
ARC
  5
239
100
AcDbEntity
  8
0
100
AcDbCircle
 62
2
  6
CONTINUOUS
 10
12.2949101208
 20
2.530827337
 40
0.0024749995
100
AcDbArc
 50
89.9999571957
 51
180.0000428043
  0
LINE
  5
23A
100
AcDbEntity
  8
0
100
AcDbLine
 62
2
  6
CONTINUOUS
 10
12.2949101227
 20
2.5333023366
 11
12.3362731456
 21
2.5333023366
  0
ARC
  5
23B
100
AcDbEntity
  8
0
100
AcDbCircle
 62
2
  6
CONTINUOUS
 10
12.3362731456
 20
2.5246398318
 40
0.0086625048
100
AcDbArc
 50
270.0
 51
90.0
  0
LINE
  5
23C
100
AcDbEntity
  8
0
100
AcDbLine
 62
2
  6
CONTINUOUS
 10
12.3362731456
 20
2.515977327
 11
12.2949101227
 21
2.515977327
  0
ARC
  5
23D
100
AcDbEntity
  8
0
100
AcDbCircle
 62
2
  6
CONTINUOUS
 10
12.2949101208
 20
2.5184523265
 40
0.0024749995
100
AcDbArc
 50
179.9999571957
 51
270.0000428043
  0
ARC
  5
23E
100
AcDbEntity
  8
0
100
AcDbCircle
 62
2
  6
CONTINUOUS
 10
13.5806801742
 20
2.5212486481
 40
0.044722495
100
AcDbArc
 50
195.531588407
 51
204.7624440448
  0
LINE
  5
23F
100
AcDbEntity
  8
0
100
AcDbLine
 62
2
  6
CONTINUOUS
 10
13.5375908118
 20
2.5092733232
 11
13.5357868108
 21
2.5153423266
  0
ARC
  5
240
100
AcDbEntity
  8
0
100
AcDbCircle
 62
2
  6
CONTINUOUS
 10
13.4974076135
 20
2.5055452462
 40
0.0396099176
100
AcDbArc
 50
14.3201081283
 51
22.4984722084
  0
ARC
  5
241
100
AcDbEntity
  8
0
100
AcDbCircle
 62
2
  6
CONTINUOUS
 10
13.5201739219
 20
2.5145168728
 40
0.0151491919
100
AcDbArc
 50
24.098260853
 51
63.0369451818
  0
ARC
  5
242
100
AcDbEntity
  8
0
100
AcDbCircle
 62
2
  6
CONTINUOUS
 10
13.5161192671
 20
2.5062372524
 40
0.0243676582
100
AcDbArc
 50
63.3666028271
 51
90.3937697637
  0
LINE
  5
243
100
AcDbEntity
  8
0
100
AcDbLine
 62
2
  6
CONTINUOUS
 10
13.5159517998
 20
2.5306043351
 11
13.4883447845
 21
2.5306043351
  0
ARC
  5
244
100
AcDbEntity
  8
0
100
AcDbCircle
 62
2
  6
CONTINUOUS
 10
13.4883447827
 20
2.5281293355
 40
0.0024749995
100
AcDbArc
 50
89.9999571957
 51
180.0000428043
  0
LINE
  5
245
100
AcDbEntity
  8
0
100
AcDbLine
 62
2
  6
CONTINUOUS
 10
13.4858697831
 20
2.5281293337
 11
13.4858697831
 21
2.5184303283
  0
ARC
  5
246
100
AcDbEntity
  8
0
100
AcDbCircle
 62
2
  6
CONTINUOUS
 10
13.4883447827
 20
2.5184303265
 40
0.0024749995
100
AcDbArc
 50
179.9999571957
 51
270.0000428043
  0
LINE
  5
247
100
AcDbEntity
  8
0
100
AcDbLine
 62
2
  6
CONTINUOUS
 10
13.4883447845
 20
2.5159553269
 11
13.5130037982
 21
2.5159553269
  0
ARC
  5
248
100
AcDbEntity
  8
0
100
AcDbCircle
 62
2
  6
CONTINUOUS
 10
13.5130038
 20
2.5134803274
 40
0.0024749995
100
AcDbArc
 50
359.9999571957
 51
90.0000428043
  0
LINE
  5
249
100
AcDbEntity
  8
0
100
AcDbLine
 62
2
  6
CONTINUOUS
 10
13.5154787995
 20
2.5134803256
 11
13.5154787995
 21
2.4937023146
  0
ARC
  5
24A
100
AcDbEntity
  8
0
100
AcDbCircle
 62
2
  6
CONTINUOUS
 10
13.5130038
 20
2.4937023128
 40
0.0024749995
100
AcDbArc
 50
269.9999571957
 51
0.0000428043
  0
LINE
  5
24B
100
AcDbEntity
  8
0
100
AcDbLine
 62
2
  6
CONTINUOUS
 10
13.5130037982
 20
2.4912273132
 11
13.3994327352
 21
2.4912273132
  0
ARC
  5
24C
100
AcDbEntity
  8
0
100
AcDbCircle
 62
2
  6
CONTINUOUS
 10
13.3994327333
 20
2.4937023128
 40
0.0024749995
100
AcDbArc
 50
179.9999571957
 51
270.0000428043
  0
LINE
  5
24D
100
AcDbEntity
  8
0
100
AcDbLine
 62
2
  6
CONTINUOUS
 10
13.3969577338
 20
2.4937023146
 11
13.3969577338
 21
2.5135023256
  0
ARC
  5
24E
100
AcDbEntity
  8
0
100
AcDbCircle
 62
2
  6
CONTINUOUS
 10
13.3994327333
 20
2.5135023274
 40
0.0024749995
100
AcDbArc
 50
89.9999571957
 51
180.0000428043
  0
LINE
  5
24F
100
AcDbEntity
  8
0
100
AcDbLine
 62
2
  6
CONTINUOUS
 10
13.3994327352
 20
2.515977327
 11
13.4221787478
 21
2.515977327
  0
ARC
  5
250
100
AcDbEntity
  8
0
100
AcDbCircle
 62
2
  6
CONTINUOUS
 10
13.4221787497
 20
2.5184523265
 40
0.0024749995
100
AcDbArc
 50
269.9999571957
 51
0.0000428042
  0
LINE
  5
251
100
AcDbEntity
  8
0
100
AcDbLine
 62
2
  6
CONTINUOUS
 10
13.4246537492
 20
2.5184523283
 11
13.4246537492
 21
2.564807354
  0
ARC
  5
252
100
AcDbEntity
  8
0
100
AcDbCircle
 62
2
  6
CONTINUOUS
 10
13.4221787497
 20
2.5648073559
 40
0.0024749995
100
AcDbArc
 50
359.9999571957
 51
90.0000428043
  0
LINE
  5
253
100
AcDbEntity
  8
0
100
AcDbLine
 62
2
  6
CONTINUOUS
 10
13.4221787478
 20
2.5672823554
 11
13.3994327352
 21
2.5672823554
  0
ARC
  5
254
100
AcDbEntity
  8
0
100
AcDbCircle
 62
2
  6
CONTINUOUS
 10
13.3994327333
 20
2.5697573549
 40
0.0024749995
100
AcDbArc
 50
179.9999571957
 51
270.0000428043
  0
LINE
  5
255
100
AcDbEntity
  8
0
100
AcDbLine
 62
2
  6
CONTINUOUS
 10
13.3969577338
 20
2.5697573568
 11
13.3969577338
 21
2.5895573678
  0
ARC
  5
256
100
AcDbEntity
  8
0
100
AcDbCircle
 62
2
  6
CONTINUOUS
 10
13.3994327333
 20
2.5895573696
 40
0.0024749995
100
AcDbArc
 50
89.9999571957
 51
180.0000428043
  0
LINE
  5
257
100
AcDbEntity
  8
0
100
AcDbLine
 62
2
  6
CONTINUOUS
 10
13.3994327352
 20
2.5920323691
 11
13.5490138181
 21
2.5920323691
  0
ARC
  5
258
100
AcDbEntity
  8
0
100
AcDbCircle
 62
2
  6
CONTINUOUS
 10
13.5463505148
 20
2.4094934586
 40
0.1825583387
100
AcDbArc
 50
79.8618509324
 51
89.1640948679
  0
ARC
  5
259
100
AcDbEntity
  8
0
100
AcDbCircle
 62
2
  6
CONTINUOUS
 10
13.5726548052
 20
2.5503169747
 40
0.039319019
100
AcDbArc
 50
59.1202086415
 51
81.4730239328
  0
ARC
  5
25A
100
AcDbEntity
  8
0
100
AcDbCircle
 62
2
  6
CONTINUOUS
 10
13.5783142014
 20
2.5566516438
 40
0.0310192946
100
AcDbArc
 50
34.7540871
 51
62.0879016178
  0
ARC
  5
25B
100
AcDbEntity
  8
0
100
AcDbCircle
 62
2
  6
CONTINUOUS
 10
13.5900029525
 20
2.565201245
 40
0.0165459396
100
AcDbArc
 50
1.548452892
 51
33.5033152417
  0
ARC
  5
25C
100
AcDbEntity
  8
0
100
AcDbCircle
 62
2
  6
CONTINUOUS
 10
13.5932995477
 20
2.5653696972
 40
0.0132462337
100
AcDbArc
 50
331.1510006998
 51
1.205404301
  0
ARC
  5
25D
100
AcDbEntity
  8
0
100
AcDbCircle
 62
2
  6
CONTINUOUS
 10
13.5822888914
 20
2.5720482849
 40
0.0261183659
100
AcDbArc
 50
305.6373831893
 51
329.9727629745
  0
ARC
  5
25E
100
AcDbEntity
  8
0
100
AcDbCircle
 62
2
  6
CONTINUOUS
 10
13.5519569538
 20
2.6152551345
 40
0.0789082104
100
AcDbArc
 50
292.906155071
 51
305.2574666259
  0
ARC
  5
25F
100
AcDbEntity
  8
0
100
AcDbCircle
 62
2
  6
CONTINUOUS
 10
13.5282557878
 20
2.4386010294
 40
0.117346916
100
AcDbArc
 50
58.614769177
 51
62.3737227606
  0
ARC
  5
260
100
AcDbEntity
  8
0
100
AcDbCircle
 62
2
  6
CONTINUOUS
 10
13.5761387404
 20
2.5167282896
 40
0.0257145923
100
AcDbArc
 50
39.3804255939
 51
59.0361096173
  0
ARC
  5
261
100
AcDbEntity
  8
0
100
AcDbCircle
 62
2
  6
CONTINUOUS
 10
13.5750183849
 20
2.5166552064
 40
0.0266349791
100
AcDbArc
 50
20.3630922153
 51
37.9727053099
  0
ARC
  5
262
100
AcDbEntity
  8
0
100
AcDbCircle
 62
2
  6
CONTINUOUS
 10
13.5571178432
 20
2.509473798
 40
0.0459185159
100
AcDbArc
 50
15.6740290068
 51
20.9917271228
  0
ARC
  5
263
100
AcDbEntity
  8
0
100
AcDbCircle
 62
2
  6
CONTINUOUS
 10
13.6156881783
 20
2.525116781
 40
0.0147197649
100
AcDbArc
 50
192.7054516565
 51
206.0594861022
  0
ARC
  5
264
100
AcDbEntity
  8
0
100
AcDbCircle
 62
2
  6
CONTINUOUS
 10
13.6071938412
 20
2.5209082945
 40
0.0052403997
100
AcDbArc
 50
205.5232099488
 51
227.5054868079
  0
ARC
  5
265
100
AcDbEntity
  8
0
100
AcDbCircle
 62
2
  6
CONTINUOUS
 10
13.6054655419
 20
2.5190929218
 40
0.0027347709
100
AcDbArc
 50
228.5117626737
 51
266.1485845754
  0
LINE
  5
266
100
AcDbEntity
  8
0
100
AcDbLine
 62
2
  6
CONTINUOUS
 10
13.6052818493
 20
2.5163643272
 11
13.60639085
 21
2.5163643272
  0
ARC
  5
267
100
AcDbEntity
  8
0
100
AcDbCircle
 62
2
  6
CONTINUOUS
 10
13.6063292954
 20
2.5296129864
 40
0.0132488022
100
AcDbArc
 50
270.266200055
 51
281.2404888597
  0
ARC
  5
268
100
AcDbEntity
  8
0
100
AcDbCircle
 62
2
  6
CONTINUOUS
 10
13.6075235364
 20
2.5238762928
 40
0.0073895522
100
AcDbArc
 50
280.8288201977
 51
305.0837508495
  0
ARC
  5
269
100
AcDbEntity
  8
0
100
AcDbCircle
 62
2
  6
CONTINUOUS
 10
13.607924718
 20
2.5230254464
 40
0.0064647042
100
AcDbArc
 50
306.5086174083
 51
340.2162360092
  0
ARC
  5
26A
100
AcDbEntity
  8
0
100
AcDbCircle
 62
2
  6
CONTINUOUS
 10
13.6027235414
 20
2.524769508
 40
0.0119498009
100
AcDbArc
 50
340.7883861657
 51
1.1691452593
  0
LINE
  5
26B
100
AcDbEntity
  8
0
100
AcDbLine
 62
2
  6
CONTINUOUS
 10
13.6146708546
 20
2.525013332
 11
13.6146708546
 21
2.5276393334
  0
ARC
  5
26C
100
AcDbEntity
  8
0
100
AcDbCircle
 62
2
  6
CONTINUOUS
 10
13.6171458541
 20
2.5276393353
 40
0.0024749995
100
AcDbArc
 50
89.9999571957
 51
180.0000428043
  0
LINE
  5
26D
100
AcDbEntity
  8
0
100
AcDbLine
 62
2
  6
CONTINUOUS
 10
13.6171458559
 20
2.5301143348
 11
13.6292558626
 21
2.5301143348
  0
ARC
  5
26E
100
AcDbEntity
  8
0
100
AcDbCircle
 62
2
  6
CONTINUOUS
 10
13.6292558645
 20
2.5276393353
 40
0.0024749995
100
AcDbArc
 50
359.9999571957
 51
90.0000428043
  0
LINE
  5
26F
100
AcDbEntity
  8
0
100
AcDbLine
 62
2
  6
CONTINUOUS
 10
13.631730864
 20
2.5276393334
 11
13.631730864
 21
2.516087327
  0
ARC
  5
270
100
AcDbEntity
  8
0
100
AcDbCircle
 62
2
  6
CONTINUOUS
 10
13.6141751675
 20
2.5161916447
 40
0.0175560065
100
AcDbArc
 50
332.2279060967
 51
359.6595469939
  0
ARC
  5
271
100
AcDbEntity
  8
0
100
AcDbCircle
 62
2
  6
CONTINUOUS
 10
13.6048681567
 20
2.5210861501
 40
0.0280715479
100
AcDbArc
 50
308.5071794988
 51
332.2400656899
  0
ARC
  5
272
100
AcDbEntity
  8
0
100
AcDbCircle
 62
2
  6
CONTINUOUS
 10
13.5978759713
 20
2.5286873679
 40
0.0383802683
100
AcDbArc
 50
288.7656836787
 51
309.6104317088
  0
ARC
  5
273
100
AcDbEntity
  8
0
100
AcDbCircle
 62
2
  6
CONTINUOUS
 10
13.6036139387
 20
2.5111006186
 40
0.0198837666
100
AcDbArc
 50
271.8586572978
 51
289.4131338543
  0
LINE
  5
274
100
AcDbEntity
  8
0
100
AcDbLine
 62
2
  6
CONTINUOUS
 10
13.6042588488
 20
2.4912273132
 11
13.5568948225
 21
2.4912273132
  0
ARC
  5
275
100
AcDbEntity
  8
0
100
AcDbCircle
 62
2
  6
CONTINUOUS
 10
13.5577001432
 20
2.5085494649
 40
0.0173408616
100
AcDbArc
 50
232.4713476722
 51
267.338189944
  0
ARC
  5
276
100
AcDbEntity
  8
0
100
AcDbCircle
 62
2
  6
CONTINUOUS
 10
13.5607987082
 20
2.5143997688
 40
0.0238935861
100
AcDbArc
 50
209.8247607259
 51
235.1255079367
  0
ARC
  5
277
100
AcDbEntity
  8
0
100
AcDbCircle
 62
2
  6
CONTINUOUS
 10
13.5295131508
 20
2.5629115009
 40
0.0110815393
100
AcDbArc
 50
306.758405961
 51
320.4502234234
  0
ARC
  5
278
100
AcDbEntity
  8
0
100
AcDbCircle
 62
2
  6
CONTINUOUS
 10
13.5238839599
 20
2.5706523294
 40
0.0206523367
100
AcDbArc
 50
289.6883413472
 51
306.4184925496
  0
ARC
  5
279
100
AcDbEntity
  8
0
100
AcDbCircle
 62
2
  6
CONTINUOUS
 10
13.5219564542
 20
2.5750459767
 40
0.0254407115
100
AcDbArc
 50
270.7327484175
 51
290.441894219
  0
LINE
  5
27A
100
AcDbEntity
  8
0
100
AcDbLine
 62
2
  6
CONTINUOUS
 10
13.5222818033
 20
2.5496073456
 11
13.4883447845
 21
2.5496073456
  0
ARC
  5
27B
100
AcDbEntity
  8
0
100
AcDbCircle
 62
2
  6
CONTINUOUS
 10
13.4883447827
 20
2.5520823451
 40
0.0024749995
100
AcDbArc
 50
179.9999571957
 51
270.0000428043
  0
LINE
  5
27C
100
AcDbEntity
  8
0
100
AcDbLine
 62
2
  6
CONTINUOUS
 10
13.4858697831
 20
2.552082347
 11
13.4858697831
 21
2.564807354
  0
ARC
  5
27D
100
AcDbEntity
  8
0
100
AcDbCircle
 62
2
  6
CONTINUOUS
 10
13.4883447827
 20
2.5648073559
 40
0.0024749995
100
AcDbArc
 50
89.9999571957
 51
180.0000428043
  0
LINE
  5
27E
100
AcDbEntity
  8
0
100
AcDbLine
 62
2
  6
CONTINUOUS
 10
13.4883447845
 20
2.5672823554
 11
13.5251458049
 21
2.5672823554
  0
ARC
  5
27F
100
AcDbEntity
  8
0
100
AcDbCircle
 62
2
  6
CONTINUOUS
 10
13.5236009174
 20
2.5388278764
 40
0.0284963867
100
AcDbArc
 50
70.3834917948
 51
86.8922743861
  0
ARC
  5
280
100
AcDbEntity
  8
0
100
AcDbCircle
 62
2
  6
CONTINUOUS
 10
13.5284605274
 20
2.5518696094
 40
0.0145814632
100
AcDbArc
 50
54.6746025112
 51
71.1660573124
  0
ARC
  5
281
100
AcDbEntity
  8
0
100
AcDbCircle
 62
2
  6
CONTINUOUS
 10
13.5335900184
 20
2.5587235346
 40
0.0060275915
100
AcDbArc
 50
20.9055592135
 51
56.7851676243
  0
ARC
  5
282
100
AcDbEntity
  8
0
100
AcDbCircle
 62
2
  6
CONTINUOUS
 10
13.5348905773
 20
2.5593838168
 40
0.0045795888
100
AcDbArc
 50
355.6235353944
 51
18.9942678268
  0
ARC
  5
283
100
AcDbEntity
  8
0
100
AcDbCircle
 62
2
  6
CONTINUOUS
 10
13.533683767
 20
2.559677593
 40
0.0058087709
100
AcDbArc
 50
318.8515287446
 51
353.6422345323
  0
LINE
  5
284
100
AcDbEntity
  8
0
100
AcDbLine
 62
2
  6
CONTINUOUS
 10
12.672340332
 20
2.5920323691
 11
12.7727983877
 21
2.5920323691
  0
ARC
  5
285
100
AcDbEntity
  8
0
100
AcDbCircle
 62
2
  6
CONTINUOUS
 10
12.7727985224
 20
2.5895582013
 40
0.0024741678
100
AcDbArc
 50
46.3477981899
 51
90.0031206038
  0
LINE
  5
286
100
AcDbEntity
  8
0
100
AcDbLine
 62
2
  6
CONTINUOUS
 10
12.7745063886
 20
2.5913483688
 11
12.8345394219
 21
2.534068337
  0
ARC
  5
287
100
AcDbEntity
  8
0
100
AcDbCircle
 62
2
  6
CONTINUOUS
 10
12.8362481229
 20
2.5358592748
 40
0.0024753014
100
AcDbArc
 50
226.3461263059
 51
0.0014637321
  0
LINE
  5
288
100
AcDbEntity
  8
0
100
AcDbLine
 62
2
  6
CONTINUOUS
 10
12.8387234242
 20
2.535859338
 11
12.8387234242
 21
2.564807354
  0
ARC
  5
289
100
AcDbEntity
  8
0
100
AcDbCircle
 62
2
  6
CONTINUOUS
 10
12.8362484247
 20
2.5648073559
 40
0.0024749995
100
AcDbArc
 50
359.9999571957
 51
90.0000428043
  0
LINE
  5
28A
100
AcDbEntity
  8
0
100
AcDbLine
 62
2
  6
CONTINUOUS
 10
12.8362484229
 20
2.5672823554
 11
12.8174724125
 21
2.5672823554
  0
ARC
  5
28B
100
AcDbEntity
  8
0
100
AcDbCircle
 62
2
  6
CONTINUOUS
 10
12.8174724106
 20
2.5697573549
 40
0.0024749995
100
AcDbArc
 50
179.9999571957
 51
270.0000428043
  0
LINE
  5
28C
100
AcDbEntity
  8
0
100
AcDbLine
 62
2
  6
CONTINUOUS
 10
12.8149974111
 20
2.5697573568
 11
12.8149974111
 21
2.5895573678
  0
ARC
  5
28D
100
AcDbEntity
  8
0
100
AcDbCircle
 62
2
  6
CONTINUOUS
 10
12.8174724106
 20
2.5895573696
 40
0.0024749995
100
AcDbArc
 50
89.9999571957
 51
180.0000428043
  0
LINE
  5
28E
100
AcDbEntity
  8
0
100
AcDbLine
 62
2
  6
CONTINUOUS
 10
12.8174724125
 20
2.5920323691
 11
12.8914734535
 21
2.5920323691
  0
ARC
  5
28F
100
AcDbEntity
  8
0
100
AcDbCircle
 62
2
  6
CONTINUOUS
 10
12.8914734553
 20
2.5895573696
 40
0.0024749995
100
AcDbArc
 50
359.9999571957
 51
90.0000428043
  0
LINE
  5
290
100
AcDbEntity
  8
0
100
AcDbLine
 62
2
  6
CONTINUOUS
 10
12.8939484549
 20
2.5895573678
 11
12.8939484549
 21
2.5697573568
  0
ARC
  5
291
100
AcDbEntity
  8
0
100
AcDbCircle
 62
2
  6
CONTINUOUS
 10
12.8914734553
 20
2.5697573549
 40
0.0024749995
100
AcDbArc
 50
269.9999571957
 51
0.0000428043
  0
LINE
  5
292
100
AcDbEntity
  8
0
100
AcDbLine
 62
2
  6
CONTINUOUS
 10
12.8914734535
 20
2.5672823554
 11
12.8735404436
 21
2.5672823554
  0
ARC
  5
293
100
AcDbEntity
  8
0
100
AcDbCircle
 62
2
  6
CONTINUOUS
 10
12.8735404417
 20
2.5648073559
 40
0.0024749995
100
AcDbArc
 50
89.9999571957
 51
180.0000428043
  0
LINE
  5
294
100
AcDbEntity
  8
0
100
AcDbLine
 62
2
  6
CONTINUOUS
 10
12.8710654422
 20
2.564807354
 11
12.8710654422
 21
2.4937023146
  0
ARC
  5
295
100
AcDbEntity
  8
0
100
AcDbCircle
 62
2
  6
CONTINUOUS
 10
12.8685904427
 20
2.4937023128
 40
0.0024749995
100
AcDbArc
 50
269.9999571957
 51
0.0000428043
  0
LINE
  5
296
100
AcDbEntity
  8
0
100
AcDbLine
 62
2
  6
CONTINUOUS
 10
12.8685904408
 20
2.4912273132
 11
12.7943853997
 21
2.4912273132
  0
ARC
  5
297
100
AcDbEntity
  8
0
100
AcDbCircle
 62
2
  6
CONTINUOUS
 10
12.7943847649
 20
2.4937027294
 40
0.0024754162
100
AcDbArc
 50
226.3593695813
 51
270.0146919953
  0
LINE
  5
298
100
AcDbEntity
  8
0
100
AcDbLine
 62
2
  6
CONTINUOUS
 10
12.7926763987
 20
2.4919113136
 11
12.7293963636
 21
2.5522893471
  0
ARC
  5
299
100
AcDbEntity
  8
0
100
AcDbCircle
 62
2
  6
CONTINUOUS
 10
12.7276876627
 20
2.5504984093
 40
0.0024753014
100
AcDbArc
 50
46.3461263059
 51
180.0014637321
  0
LINE
  5
29A
100
AcDbEntity
  8
0
100
AcDbLine
 62
2
  6
CONTINUOUS
 10
12.7252123613
 20
2.5504983461
 11
12.7252123613
 21
2.5184523283
  0
ARC
  5
29B
100
AcDbEntity
  8
0
100
AcDbCircle
 62
2
  6
CONTINUOUS
 10
12.7276873608
 20
2.5184523265
 40
0.0024749995
100
AcDbArc
 50
179.9999571957
 51
270.0000428043
  0
LINE
  5
29C
100
AcDbEntity
  8
0
100
AcDbLine
 62
2
  6
CONTINUOUS
 10
12.7276873627
 20
2.515977327
 11
12.7480043739
 21
2.515977327
  0
ARC
  5
29D
100
AcDbEntity
  8
0
100
AcDbCircle
 62
2
  6
CONTINUOUS
 10
12.7480043758
 20
2.5135023274
 40
0.0024749995
100
AcDbArc
 50
359.9999571957
 51
90.0000428043
  0
LINE
  5
29E
100
AcDbEntity
  8
0
100
AcDbLine
 62
2
  6
CONTINUOUS
 10
12.7504793753
 20
2.5135023256
 11
12.7504793753
 21
2.4937023146
  0
ARC
  5
29F
100
AcDbEntity
  8
0
100
AcDbCircle
 62
2
  6
CONTINUOUS
 10
12.7480043758
 20
2.4937023128
 40
0.0024749995
100
AcDbArc
 50
269.9999571957
 51
0.0000428043
  0
LINE
  5
2A0
100
AcDbEntity
  8
0
100
AcDbLine
 62
2
  6
CONTINUOUS
 10
12.7480043739
 20
2.4912273132
 11
12.672340332
 21
2.4912273132
  0
ARC
  5
2A1
100
AcDbEntity
  8
0
100
AcDbCircle
 62
2
  6
CONTINUOUS
 10
12.6723403301
 20
2.4937023128
 40
0.0024749995
100
AcDbArc
 50
179.9999571957
 51
270.0000428043
  0
LINE
  5
2A2
100
AcDbEntity
  8
0
100
AcDbLine
 62
2
  6
CONTINUOUS
 10
12.6698653306
 20
2.4937023146
 11
12.6698653306
 21
2.5135023256
  0
ARC
  5
2A3
100
AcDbEntity
  8
0
100
AcDbCircle
 62
2
  6
CONTINUOUS
 10
12.6723403301
 20
2.5135023274
 40
0.0024749995
100
AcDbArc
 50
89.9999571957
 51
180.0000428043
  0
LINE
  5
2A4
100
AcDbEntity
  8
0
100
AcDbLine
 62
2
  6
CONTINUOUS
 10
12.672340332
 20
2.515977327
 11
12.6909873423
 21
2.515977327
  0
ARC
  5
2A5
100
AcDbEntity
  8
0
100
AcDbCircle
 62
2
  6
CONTINUOUS
 10
12.6909873442
 20
2.5184523265
 40
0.0024749995
100
AcDbArc
 50
269.9999571957
 51
0.0000428043
  0
LINE
  5
2A6
100
AcDbEntity
  8
0
100
AcDbLine
 62
2
  6
CONTINUOUS
 10
12.6934623437
 20
2.5184523283
 11
12.6934623437
 21
2.564807354
  0
ARC
  5
2A7
100
AcDbEntity
  8
0
100
AcDbCircle
 62
2
  6
CONTINUOUS
 10
12.6909873442
 20
2.5648073559
 40
0.0024749995
100
AcDbArc
 50
359.9999571957
 51
90.0000428043
  0
LINE
  5
2A8
100
AcDbEntity
  8
0
100
AcDbLine
 62
2
  6
CONTINUOUS
 10
12.6909873423
 20
2.5672823554
 11
12.672340332
 21
2.5672823554
  0
ARC
  5
2A9
100
AcDbEntity
  8
0
100
AcDbCircle
 62
2
  6
CONTINUOUS
 10
12.6723403301
 20
2.5697573549
 40
0.0024749995
100
AcDbArc
 50
179.9999571957
 51
270.0000428043
  0
LINE
  5
2AA
100
AcDbEntity
  8
0
100
AcDbLine
 62
2
  6
CONTINUOUS
 10
12.6698653306
 20
2.5697573568
 11
12.6698653306
 21
2.5895573678
  0
ARC
  5
2AB
100
AcDbEntity
  8
0
100
AcDbCircle
 62
2
  6
CONTINUOUS
 10
12.6723403301
 20
2.5895573696
 40
0.0024749995
100
AcDbArc
 50
89.9999571957
 51
180.0000428043
  0
LINE
  5
2AC
100
AcDbEntity
  8
0
100
AcDbLine
 62
2
  6
CONTINUOUS
 10
12.5246402501
 20
2.5655893545
 11
12.5175232461
 21
2.5543723483
  0
ARC
  5
2AD
100
AcDbEntity
  8
0
100
AcDbCircle
 62
2
  6
CONTINUOUS
 10
12.519613138
 20
2.5530463862
 40
0.0024750401
100
AcDbArc
 50
147.6063258012
 51
270.0025305754
  0
LINE
  5
2AE
100
AcDbEntity
  8
0
100
AcDbLine
 62
2
  6
CONTINUOUS
 10
12.5196132473
 20
2.5505713461
 11
12.5401702587
 21
2.5505713461
  0
ARC
  5
2AF
100
AcDbEntity
  8
0
100
AcDbCircle
 62
2
  6
CONTINUOUS
 10
12.5401702375
 20
2.5530465533
 40
0.0024752071
100
AcDbArc
 50
270.0004896793
 51
32.9089806818
  0
LINE
  5
2B0
100
AcDbEntity
  8
0
100
AcDbLine
 62
2
  6
CONTINUOUS
 10
12.5422482598
 20
2.5543913483
 11
12.5349892558
 21
2.5656073545
  0
ARC
  5
2B1
100
AcDbEntity
  8
0
100
AcDbCircle
 62
2
  6
CONTINUOUS
 10
12.532910715
 20
2.564262895
 40
0.0024754602
100
AcDbArc
 50
32.8959418573
 51
89.9875097202
  0
LINE
  5
2B2
100
AcDbEntity
  8
0
100
AcDbLine
 62
2
  6
CONTINUOUS
 10
12.5329112547
 20
2.5667383551
 11
12.5267302512
 21
2.5667383551
  0
ARC
  5
2B3
100
AcDbEntity
  8
0
100
AcDbCircle
 62
2
  6
CONTINUOUS
 10
12.5267301809
 20
2.5642631548
 40
0.0024752003
100
AcDbArc
 50
89.998372645
 51
147.602165307
  0
LINE
  5
2B4
100
AcDbEntity
  8
0
100
AcDbLine
 62
2
  6
CONTINUOUS
 10
12.548053263
 20
2.5284903339
 11
12.5536792662
 21
2.5197973291
  0
ARC
  5
2B5
100
AcDbEntity
  8
0
100
AcDbCircle
 62
2
  6
CONTINUOUS
 10
12.5516012439
 20
2.5184525341
 40
0.0024752071
100
AcDbArc
 50
270.0004896794
 51
32.9089806818
  0
LINE
  5
2B6
100
AcDbEntity
  8
0
100
AcDbLine
 62
2
  6
CONTINUOUS
 10
12.551601265
 20
2.515977327
 11
12.537150257
 21
2.515977327
  0
ARC
  5
2B7
100
AcDbEntity
  8
0
100
AcDbCircle
 62
2
  6
CONTINUOUS
 10
12.5371502552
 20
2.5135023274
 40
0.0024749995
100
AcDbArc
 50
89.9999571957
 51
180.0000428043
  0
LINE
  5
2B8
100
AcDbEntity
  8
0
100
AcDbLine
 62
2
  6
CONTINUOUS
 10
12.5346752556
 20
2.5135023256
 11
12.5346752556
 21
2.4937023146
  0
ARC
  5
2B9
100
AcDbEntity
  8
0
100
AcDbCircle
 62
2
  6
CONTINUOUS
 10
12.5371502552
 20
2.4937023128
 40
0.0024749995
100
AcDbArc
 50
179.9999571957
 51
270.0000428043
  0
LINE
  5
2BA
100
AcDbEntity
  8
0
100
AcDbLine
 62
2
  6
CONTINUOUS
 10
12.537150257
 20
2.4912273132
 11
12.6424313154
 21
2.4912273132
  0
ARC
  5
2BB
100
AcDbEntity
  8
0
100
AcDbCircle
 62
2
  6
CONTINUOUS
 10
12.6424313172
 20
2.4937023128
 40
0.0024749995
100
AcDbArc
 50
269.9999571957
 51
0.0000428043
  0
LINE
  5
2BC
100
AcDbEntity
  8
0
100
AcDbLine
 62
2
  6
CONTINUOUS
 10
12.6449063168
 20
2.4937023146
 11
12.6449063168
 21
2.5135023256
  0
ARC
  5
2BD
100
AcDbEntity
  8
0
100
AcDbCircle
 62
2
  6
CONTINUOUS
 10
12.6424313172
 20
2.5135023274
 40
0.0024749995
100
AcDbArc
 50
359.9999571957
 51
90.0000428043
  0
LINE
  5
2BE
100
AcDbEntity
  8
0
100
AcDbLine
 62
2
  6
CONTINUOUS
 10
12.6424313154
 20
2.515977327
 11
12.6224153043
 21
2.515977327
  0
ARC
  5
2BF
100
AcDbEntity
  8
0
100
AcDbCircle
 62
2
  6
CONTINUOUS
 10
12.6224154248
 20
2.518451368
 40
0.002474041
100
AcDbArc
 50
212.9056413127
 51
269.9972091756
  0
LINE
  5
2C0
100
AcDbEntity
  8
0
100
AcDbLine
 62
2
  6
CONTINUOUS
 10
12.6203383031
 20
2.5171073276
 11
12.5725822767
 21
2.5909023685
  0
ARC
  5
2C1
100
AcDbEntity
  8
0
100
AcDbCircle
 62
2
  6
CONTINUOUS
 10
12.570504655
 20
2.589557409
 40
0.0024749602
100
AcDbArc
 50
32.9172174468
 51
90.0087853097
  0
LINE
  5
2C2
100
AcDbEntity
  8
0
100
AcDbLine
 62
2
  6
CONTINUOUS
 10
12.5705042755
 20
2.5920323691
 11
12.5133292438
 21
2.5920323691
  0
ARC
  5
2C3
100
AcDbEntity
  8
0
100
AcDbCircle
 62
2
  6
CONTINUOUS
 10
12.5133291735
 20
2.5895571688
 40
0.0024752003
100
AcDbArc
 50
89.9983726451
 51
147.602165307
  0
LINE
  5
2C4
100
AcDbEntity
  8
0
100
AcDbLine
 62
2
  6
CONTINUOUS
 10
12.5112392426
 20
2.5908833685
 11
12.4644392167
 21
2.5171263276
  0
ARC
  5
2C5
100
AcDbEntity
  8
0
100
AcDbCircle
 62
2
  6
CONTINUOUS
 10
12.4623492858
 20
2.5184525273
 40
0.0024752003
100
AcDbArc
 50
269.9983726451
 51
327.602165307
  0
LINE
  5
2C6
100
AcDbEntity
  8
0
100
AcDbLine
 62
2
  6
CONTINUOUS
 10
12.4623492155
 20
2.515977327
 11
12.4394882028
 21
2.515977327
  0
ARC
  5
2C7
100
AcDbEntity
  8
0
100
AcDbCircle
 62
2
  6
CONTINUOUS
 10
12.439488201
 20
2.5135023274
 40
0.0024749995
100
AcDbArc
 50
89.9999571957
 51
180.0000428043
  0
LINE
  5
2C8
100
AcDbEntity
  8
0
100
AcDbLine
 62
2
  6
CONTINUOUS
 10
12.4370132015
 20
2.5135023256
 11
12.4370132015
 21
2.4937023146
  0
ARC
  5
2C9
100
AcDbEntity
  8
0
100
AcDbCircle
 62
2
  6
CONTINUOUS
 10
12.439488201
 20
2.4937023128
 40
0.0024749995
100
AcDbArc
 50
179.9999571957
 51
270.0000428043
  0
LINE
  5
2CA
100
AcDbEntity
  8
0
100
AcDbLine
 62
2
  6
CONTINUOUS
 10
12.4394882028
 20
2.4912273132
 11
12.5168642458
 21
2.4912273132
  0
ARC
  5
2CB
100
AcDbEntity
  8
0
100
AcDbCircle
 62
2
  6
CONTINUOUS
 10
12.5168642476
 20
2.4937023128
 40
0.0024749995
100
AcDbArc
 50
269.9999571957
 51
0.0000428043
  0
LINE
  5
2CC
100
AcDbEntity
  8
0
100
AcDbLine
 62
2
  6
CONTINUOUS
 10
12.5193392471
 20
2.4937023146
 11
12.5193392471
 21
2.5135023256
  0
ARC
  5
2CD
100
AcDbEntity
  8
0
100
AcDbCircle
 62
2
  6
CONTINUOUS
 10
12.5168642476
 20
2.5135023274
 40
0.0024749995
100
AcDbArc
 50
359.9999571957
 51
90.0000428043
  0
LINE
  5
2CE
100
AcDbEntity
  8
0
100
AcDbLine
 62
2
  6
CONTINUOUS
 10
12.5168642458
 20
2.515977327
 11
12.5055812395
 21
2.515977327
  0
ARC
  5
2CF
100
AcDbEntity
  8
0
100
AcDbCircle
 62
2
  6
CONTINUOUS
 10
12.5055811302
 20
2.518452367
 40
0.0024750401
100
AcDbArc
 50
147.6063258011
 51
270.0025305754
  0
LINE
  5
2D0
100
AcDbEntity
  8
0
100
AcDbLine
 62
2
  6
CONTINUOUS
 10
12.5034912383
 20
2.5197783291
 11
12.5090072414
 21
2.5284723339
  0
ARC
  5
2D1
100
AcDbEntity
  8
0
100
AcDbCircle
 62
2
  6
CONTINUOUS
 10
12.5110971723
 20
2.5271461342
 40
0.0024752003
100
AcDbArc
 50
89.998372645
 51
147.602165307
  0
LINE
  5
2D2
100
AcDbEntity
  8
0
100
AcDbLine
 62
2
  6
CONTINUOUS
 10
12.5110972426
 20
2.5296213345
 11
12.5459752619
 21
2.5296213345
  0
ARC
  5
2D3
100
AcDbEntity
  8
0
100
AcDbCircle
 62
2
  6
CONTINUOUS
 10
12.5459747223
 20
2.5271458744
 40
0.0024754602
100
AcDbArc
 50
32.8959418573
 51
89.9875097202
  0
LINE
  5
2D4
100
AcDbEntity
  8
0
100
AcDbLine
 62
2
  6
CONTINUOUS
 10
12.9205934696
 20
2.5920323691
 11
13.0210515254
 21
2.5920323691
  0
ARC
  5
2D5
100
AcDbEntity
  8
0
100
AcDbCircle
 62
2
  6
CONTINUOUS
 10
13.0210516601
 20
2.5895582013
 40
0.0024741678
100
AcDbArc
 50
46.3477981899
 51
90.0031206038
  0
LINE
  5
2D6
100
AcDbEntity
  8
0
100
AcDbLine
 62
2
  6
CONTINUOUS
 10
13.0227595263
 20
2.5913483688
 11
13.0827925596
 21
2.534068337
  0
ARC
  5
2D7
100
AcDbEntity
  8
0
100
AcDbCircle
 62
2
  6
CONTINUOUS
 10
13.0845012605
 20
2.5358592748
 40
0.0024753014
100
AcDbArc
 50
226.3461263059
 51
0.0014637321
  0
LINE
  5
2D8
100
AcDbEntity
  8
0
100
AcDbLine
 62
2
  6
CONTINUOUS
 10
13.0869765619
 20
2.535859338
 11
13.0869765619
 21
2.564807354
  0
ARC
  5
2D9
100
AcDbEntity
  8
0
100
AcDbCircle
 62
2
  6
CONTINUOUS
 10
13.0845015624
 20
2.5648073559
 40
0.0024749995
100
AcDbArc
 50
359.9999571957
 51
90.0000428043
  0
LINE
  5
2DA
100
AcDbEntity
  8
0
100
AcDbLine
 62
2
  6
CONTINUOUS
 10
13.0845015605
 20
2.5672823554
 11
13.0657255501
 21
2.5672823554
  0
ARC
  5
2DB
100
AcDbEntity
  8
0
100
AcDbCircle
 62
2
  6
CONTINUOUS
 10
13.0657255483
 20
2.5697573549
 40
0.0024749995
100
AcDbArc
 50
179.9999571957
 51
270.0000428043
  0
LINE
  5
2DC
100
AcDbEntity
  8
0
100
AcDbLine
 62
2
  6
CONTINUOUS
 10
13.0632505488
 20
2.5697573568
 11
13.0632505488
 21
2.5895573678
  0
ARC
  5
2DD
100
AcDbEntity
  8
0
100
AcDbCircle
 62
2
  6
CONTINUOUS
 10
13.0657255483
 20
2.5895573696
 40
0.0024749995
100
AcDbArc
 50
89.9999571957
 51
180.0000428043
  0
LINE
  5
2DE
100
AcDbEntity
  8
0
100
AcDbLine
 62
2
  6
CONTINUOUS
 10
13.0657255501
 20
2.5920323691
 11
13.1397265912
 21
2.5920323691
  0
ARC
  5
2DF
100
AcDbEntity
  8
0
100
AcDbCircle
 62
2
  6
CONTINUOUS
 10
13.139726593
 20
2.5895573696
 40
0.0024749995
100
AcDbArc
 50
359.9999571957
 51
90.0000428043
  0
LINE
  5
2E0
100
AcDbEntity
  8
0
100
AcDbLine
 62
2
  6
CONTINUOUS
 10
13.1422015925
 20
2.5895573678
 11
13.1422015925
 21
2.5697573568
  0
ARC
  5
2E1
100
AcDbEntity
  8
0
100
AcDbCircle
 62
2
  6
CONTINUOUS
 10
13.139726593
 20
2.5697573549
 40
0.0024749995
100
AcDbArc
 50
269.9999571957
 51
0.0000428042
  0
LINE
  5
2E2
100
AcDbEntity
  8
0
100
AcDbLine
 62
2
  6
CONTINUOUS
 10
13.1397265912
 20
2.5672823554
 11
13.1217935812
 21
2.5672823554
  0
ARC
  5
2E3
100
AcDbEntity
  8
0
100
AcDbCircle
 62
2
  6
CONTINUOUS
 10
13.1217935794
 20
2.5648073559
 40
0.0024749995
100
AcDbArc
 50
89.9999571957
 51
180.0000428042
  0
LINE
  5
2E4
100
AcDbEntity
  8
0
100
AcDbLine
 62
2
  6
CONTINUOUS
 10
13.1193185799
 20
2.564807354
 11
13.1193185799
 21
2.4937023146
  0
ARC
  5
2E5
100
AcDbEntity
  8
0
100
AcDbCircle
 62
2
  6
CONTINUOUS
 10
13.1168435803
 20
2.4937023128
 40
0.0024749995
100
AcDbArc
 50
269.9999571957
 51
0.0000428043
  0
LINE
  5
2E6
100
AcDbEntity
  8
0
100
AcDbLine
 62
2
  6
CONTINUOUS
 10
13.1168435785
 20
2.4912273132
 11
13.0426375373
 21
2.4912273132
  0
ARC
  5
2E7
100
AcDbEntity
  8
0
100
AcDbCircle
 62
2
  6
CONTINUOUS
 10
13.0426374026
 20
2.493701481
 40
0.0024741678
100
AcDbArc
 50
226.3477981898
 51
270.0031206038
  0
LINE
  5
2E8
100
AcDbEntity
  8
0
100
AcDbLine
 62
2
  6
CONTINUOUS
 10
13.0409295364
 20
2.4919113136
 11
12.9776495013
 21
2.5522893471
  0
ARC
  5
2E9
100
AcDbEntity
  8
0
100
AcDbCircle
 62
2
  6
CONTINUOUS
 10
12.9759408003
 20
2.5504984093
 40
0.0024753014
100
AcDbArc
 50
46.3461263059
 51
180.0014637321
  0
LINE
  5
2EA
100
AcDbEntity
  8
0
100
AcDbLine
 62
2
  6
CONTINUOUS
 10
12.973465499
 20
2.5504983461
 11
12.973465499
 21
2.5184523283
  0
ARC
  5
2EB
100
AcDbEntity
  8
0
100
AcDbCircle
 62
2
  6
CONTINUOUS
 10
12.9759404985
 20
2.5184523265
 40
0.0024749995
100
AcDbArc
 50
179.9999571957
 51
270.0000428043
  0
LINE
  5
2EC
100
AcDbEntity
  8
0
100
AcDbLine
 62
2
  6
CONTINUOUS
 10
12.9759405003
 20
2.515977327
 11
12.9962575116
 21
2.515977327
  0
ARC
  5
2ED
100
AcDbEntity
  8
0
100
AcDbCircle
 62
2
  6
CONTINUOUS
 10
12.9962575135
 20
2.5135023274
 40
0.0024749995
100
AcDbArc
 50
359.9999571957
 51
90.0000428043
  0
LINE
  5
2EE
100
AcDbEntity
  8
0
100
AcDbLine
 62
2
  6
CONTINUOUS
 10
12.998732513
 20
2.5135023256
 11
12.998732513
 21
2.4937023146
  0
ARC
  5
2EF
100
AcDbEntity
  8
0
100
AcDbCircle
 62
2
  6
CONTINUOUS
 10
12.9962575135
 20
2.4937023128
 40
0.0024749995
100
AcDbArc
 50
269.9999571957
 51
0.0000428043
  0
LINE
  5
2F0
100
AcDbEntity
  8
0
100
AcDbLine
 62
2
  6
CONTINUOUS
 10
12.9962575116
 20
2.4912273132
 11
12.9205934696
 21
2.4912273132
  0
ARC
  5
2F1
100
AcDbEntity
  8
0
100
AcDbCircle
 62
2
  6
CONTINUOUS
 10
12.9205934678
 20
2.4937023128
 40
0.0024749995
100
AcDbArc
 50
179.9999571957
 51
270.0000428043
  0
LINE
  5
2F2
100
AcDbEntity
  8
0
100
AcDbLine
 62
2
  6
CONTINUOUS
 10
12.9181184683
 20
2.4937023146
 11
12.9181184683
 21
2.5135023256
  0
ARC
  5
2F3
100
AcDbEntity
  8
0
100
AcDbCircle
 62
2
  6
CONTINUOUS
 10
12.9205934678
 20
2.5135023274
 40
0.0024749995
100
AcDbArc
 50
89.9999571957
 51
180.0000428042
  0
LINE
  5
2F4
100
AcDbEntity
  8
0
100
AcDbLine
 62
2
  6
CONTINUOUS
 10
12.9205934696
 20
2.515977327
 11
12.93923948
 21
2.515977327
  0
ARC
  5
2F5
100
AcDbEntity
  8
0
100
AcDbCircle
 62
2
  6
CONTINUOUS
 10
12.9392394818
 20
2.5184523265
 40
0.0024749995
100
AcDbArc
 50
269.9999571957
 51
0.0000428043
  0
LINE
  5
2F6
100
AcDbEntity
  8
0
100
AcDbLine
 62
2
  6
CONTINUOUS
 10
12.9417144814
 20
2.5184523283
 11
12.9417144814
 21
2.564807354
  0
ARC
  5
2F7
100
AcDbEntity
  8
0
100
AcDbCircle
 62
2
  6
CONTINUOUS
 10
12.9392394818
 20
2.5648073559
 40
0.0024749995
100
AcDbArc
 50
359.9999571957
 51
90.0000428043
  0
LINE
  5
2F8
100
AcDbEntity
  8
0
100
AcDbLine
 62
2
  6
CONTINUOUS
 10
12.93923948
 20
2.5672823554
 11
12.9205934696
 21
2.5672823554
  0
ARC
  5
2F9
100
AcDbEntity
  8
0
100
AcDbCircle
 62
2
  6
CONTINUOUS
 10
12.9205934678
 20
2.5697573549
 40
0.0024749995
100
AcDbArc
 50
179.9999571957
 51
270.0000428043
  0
LINE
  5
2FA
100
AcDbEntity
  8
0
100
AcDbLine
 62
2
  6
CONTINUOUS
 10
12.9181184683
 20
2.5697573568
 11
12.9181184683
 21
2.5895573678
  0
ARC
  5
2FB
100
AcDbEntity
  8
0
100
AcDbCircle
 62
2
  6
CONTINUOUS
 10
12.9205934678
 20
2.5895573696
 40
0.0024749995
100
AcDbArc
 50
89.9999571957
 51
180.0000428042
  0
LINE
  5
2FC
100
AcDbEntity
  8
0
100
AcDbLine
 62
2
  6
CONTINUOUS
 10
13.2934226764
 20
2.5324773361
 11
13.2582556569
 21
2.5324773361
  0
ARC
  5
2FD
100
AcDbEntity
  8
0
100
AcDbCircle
 62
2
  6
CONTINUOUS
 10
13.2582556551
 20
2.5300023366
 40
0.0024749995
100
AcDbArc
 50
89.9999571957
 51
180.0000428043
  0
LINE
  5
2FE
100
AcDbEntity
  8
0
100
AcDbLine
 62
2
  6
CONTINUOUS
 10
13.2557806555
 20
2.5300023347
 11
13.2557806555
 21
2.5184523283
  0
ARC
  5
2FF
100
AcDbEntity
  8
0
100
AcDbCircle
 62
2
  6
CONTINUOUS
 10
13.2582556551
 20
2.5184523265
 40
0.0024749995
100
AcDbArc
 50
179.9999571957
 51
270.0000428043
  0
LINE
  5
300
100
AcDbEntity
  8
0
100
AcDbLine
 62
2
  6
CONTINUOUS
 10
13.2582556569
 20
2.515977327
 11
13.3232596929
 21
2.515977327
  0
ARC
  5
301
100
AcDbEntity
  8
0
100
AcDbCircle
 62
2
  6
CONTINUOUS
 10
13.3232596948
 20
2.5184523265
 40
0.0024749995
100
AcDbArc
 50
269.9999571957
 51
0.0000428043
  0
LINE
  5
302
100
AcDbEntity
  8
0
100
AcDbLine
 62
2
  6
CONTINUOUS
 10
13.3257346943
 20
2.5184523283
 11
13.3257346943
 21
2.5267023329
  0
ARC
  5
303
100
AcDbEntity
  8
0
100
AcDbCircle
 62
2
  6
CONTINUOUS
 10
13.3282096938
 20
2.5267023348
 40
0.0024749995
100
AcDbArc
 50
89.9999571957
 51
180.0000428043
  0
LINE
  5
304
100
AcDbEntity
  8
0
100
AcDbLine
 62
2
  6
CONTINUOUS
 10
13.3282096957
 20
2.5291773343
 11
13.3705287192
 21
2.5291773343
  0
ARC
  5
305
100
AcDbEntity
  8
0
100
AcDbCircle
 62
2
  6
CONTINUOUS
 10
13.370528721
 20
2.5267023348
 40
0.0024749995
100
AcDbArc
 50
359.9999571957
 51
90.0000428043
  0
LINE
  5
306
100
AcDbEntity
  8
0
100
AcDbLine
 62
2
  6
CONTINUOUS
 10
13.3730037205
 20
2.5267023329
 11
13.3730037205
 21
2.4937023146
  0
ARC
  5
307
100
AcDbEntity
  8
0
100
AcDbCircle
 62
2
  6
CONTINUOUS
 10
13.370528721
 20
2.4937023128
 40
0.0024749995
100
AcDbArc
 50
269.9999571957
 51
0.0000428043
  0
LINE
  5
308
100
AcDbEntity
  8
0
100
AcDbLine
 62
2
  6
CONTINUOUS
 10
13.3705287192
 20
2.4912273132
 11
13.1673166065
 21
2.4912273132
  0
ARC
  5
309
100
AcDbEntity
  8
0
100
AcDbCircle
 62
2
  6
CONTINUOUS
 10
13.1673166046
 20
2.4937023128
 40
0.0024749995
100
AcDbArc
 50
179.9999571957
 51
270.0000428043
  0
LINE
  5
30A
100
AcDbEntity
  8
0
100
AcDbLine
 62
2
  6
CONTINUOUS
 10
13.1648416051
 20
2.4937023146
 11
13.1648416051
 21
2.5135023256
  0
ARC
  5
30B
100
AcDbEntity
  8
0
100
AcDbCircle
 62
2
  6
CONTINUOUS
 10
13.1673166046
 20
2.5135023274
 40
0.0024749995
100
AcDbArc
 50
89.9999571957
 51
180.0000428043
  0
LINE
  5
30C
100
AcDbEntity
  8
0
100
AcDbLine
 62
2
  6
CONTINUOUS
 10
13.1673166065
 20
2.515977327
 11
13.1912396197
 21
2.515977327
  0
ARC
  5
30D
100
AcDbEntity
  8
0
100
AcDbCircle
 62
2
  6
CONTINUOUS
 10
13.1912396216
 20
2.5184523265
 40
0.0024749995
100
AcDbArc
 50
269.9999571957
 51
0.0000428042
  0
LINE
  5
30E
100
AcDbEntity
  8
0
100
AcDbLine
 62
2
  6
CONTINUOUS
 10
13.1937146211
 20
2.5184523283
 11
13.1937146211
 21
2.564807354
  0
ARC
  5
30F
100
AcDbEntity
  8
0
100
AcDbCircle
 62
2
  6
CONTINUOUS
 10
13.1912396216
 20
2.5648073559
 40
0.0024749995
100
AcDbArc
 50
359.9999571957
 51
90.0000428043
  0
LINE
  5
310
100
AcDbEntity
  8
0
100
AcDbLine
 62
2
  6
CONTINUOUS
 10
13.1912396197
 20
2.5672823554
 11
13.1673166065
 21
2.5672823554
  0
ARC
  5
311
100
AcDbEntity
  8
0
100
AcDbCircle
 62
2
  6
CONTINUOUS
 10
13.1673166046
 20
2.5697573549
 40
0.0024749995
100
AcDbArc
 50
179.9999571957
 51
270.0000428043
  0
LINE
  5
312
100
AcDbEntity
  8
0
100
AcDbLine
 62
2
  6
CONTINUOUS
 10
13.1648416051
 20
2.5697573568
 11
13.1648416051
 21
2.5895573678
  0
ARC
  5
313
100
AcDbEntity
  8
0
100
AcDbCircle
 62
2
  6
CONTINUOUS
 10
13.1673166046
 20
2.5895573696
 40
0.0024749995
100
AcDbArc
 50
89.9999571957
 51
180.0000428043
  0
LINE
  5
314
100
AcDbEntity
  8
0
100
AcDbLine
 62
2
  6
CONTINUOUS
 10
13.1673166065
 20
2.5920323691
 11
13.3691097184
 21
2.5920323691
  0
ARC
  5
315
100
AcDbEntity
  8
0
100
AcDbCircle
 62
2
  6
CONTINUOUS
 10
13.3691097202
 20
2.5895573696
 40
0.0024749995
100
AcDbArc
 50
359.9999571957
 51
90.0000428043
  0
LINE
  5
316
100
AcDbEntity
  8
0
100
AcDbLine
 62
2
  6
CONTINUOUS
 10
13.3715847197
 20
2.5895573678
 11
13.3715847197
 21
2.5565573495
  0
ARC
  5
317
100
AcDbEntity
  8
0
100
AcDbCircle
 62
2
  6
CONTINUOUS
 10
13.3691097202
 20
2.5565573476
 40
0.0024749995
100
AcDbArc
 50
269.9999571957
 51
0.0000428042
  0
LINE
  5
318
100
AcDbEntity
  8
0
100
AcDbLine
 62
2
  6
CONTINUOUS
 10
13.3691097184
 20
2.5540823481
 11
13.3272456952
 21
2.5540823481
  0
ARC
  5
319
100
AcDbEntity
  8
0
100
AcDbCircle
 62
2
  6
CONTINUOUS
 10
13.3272456933
 20
2.5565573476
 40
0.0024749995
100
AcDbArc
 50
179.9999571957
 51
270.0000428043
  0
LINE
  5
31A
100
AcDbEntity
  8
0
100
AcDbLine
 62
2
  6
CONTINUOUS
 10
13.3247706938
 20
2.5565573495
 11
13.3247706938
 21
2.564807354
  0
ARC
  5
31B
100
AcDbEntity
  8
0
100
AcDbCircle
 62
2
  6
CONTINUOUS
 10
13.3222956943
 20
2.5648073559
 40
0.0024749995
100
AcDbArc
 50
359.9999571957
 51
90.0000428043
  0
LINE
  5
31C
100
AcDbEntity
  8
0
100
AcDbLine
 62
2
  6
CONTINUOUS
 10
13.3222956924
 20
2.5672823554
 11
13.2582556569
 21
2.5672823554
  0
ARC
  5
31D
100
AcDbEntity
  8
0
100
AcDbCircle
 62
2
  6
CONTINUOUS
 10
13.2582556551
 20
2.5648073559
 40
0.0024749995
100
AcDbArc
 50
89.9999571957
 51
180.0000428043
  0
LINE
  5
31E
100
AcDbEntity
  8
0
100
AcDbLine
 62
2
  6
CONTINUOUS
 10
13.2557806555
 20
2.564807354
 11
13.2557806555
 21
2.5532573476
  0
ARC
  5
31F
100
AcDbEntity
  8
0
100
AcDbCircle
 62
2
  6
CONTINUOUS
 10
13.2582556551
 20
2.5532573458
 40
0.0024749995
100
AcDbArc
 50
179.9999571957
 51
270.0000428043
  0
LINE
  5
320
100
AcDbEntity
  8
0
100
AcDbLine
 62
2
  6
CONTINUOUS
 10
13.2582556569
 20
2.5507823463
 11
13.2934226764
 21
2.5507823463
  0
ARC
  5
321
100
AcDbEntity
  8
0
100
AcDbCircle
 62
2
  6
CONTINUOUS
 10
13.2934226783
 20
2.5483073467
 40
0.0024749995
100
AcDbArc
 50
359.9999571957
 51
90.0000428043
  0
LINE
  5
322
100
AcDbEntity
  8
0
100
AcDbLine
 62
2
  6
CONTINUOUS
 10
13.2958976778
 20
2.5483073449
 11
13.2958976778
 21
2.5349523375
  0
ARC
  5
323
100
AcDbEntity
  8
0
100
AcDbCircle
 62
2
  6
CONTINUOUS
 10
13.2934226783
 20
2.5349523356
 40
0.0024749995
100
AcDbArc
 50
269.9999571957
 51
0.0000428042
  0
LINE
  5
324
100
AcDbEntity
  8
0
100
AcDbLine
 62
2
  6
CONTINUOUS
 10
13.7286871589
 20
2.5350697372
 11
13.7286871589
 21
2.5456869438
  0
LINE
  5
325
100
AcDbEntity
  8
0
100
AcDbLine
 62
2
  6
CONTINUOUS
 10
13.7086871478
 20
2.5004302075
 11
13.7086871478
 21
2.5803264735
  0
LINE
  5
326
100
AcDbEntity
  8
0
100
AcDbLine
 62
2
  6
CONTINUOUS
 10
13.6886871368
 20
2.4843919416
 11
13.6886871368
 21
2.5963647394
  0
LINE
  5
327
100
AcDbEntity
  8
0
100
AcDbLine
 62
2
  6
CONTINUOUS
 10
13.6686871257
 20
2.4726017898
 11
13.6686871257
 21
2.6081548911
  0
LINE
  5
328
100
AcDbEntity
  8
0
100
AcDbLine
 62
2
  6
CONTINUOUS
 10
13.6486871146
 20
2.4628062688
 11
13.6486871146
 21
2.6179504122
  0
LINE
  5
329
100
AcDbEntity
  8
0
100
AcDbLine
 62
2
  6
CONTINUOUS
 10
13.6286871035
 20
2.4541253507
 11
13.6286871035
 21
2.5062483056
  0
LINE
  5
32A
100
AcDbEntity
  8
0
100
AcDbLine
 62
2
  6
CONTINUOUS
 10
13.6286871035
 20
2.5301143348
 11
13.6286871035
 21
2.6266313303
  0
LINE
  5
32B
100
AcDbEntity
  8
0
100
AcDbLine
 62
2
  6
CONTINUOUS
 10
13.6086870924
 20
2.4465537903
 11
13.6086870924
 21
2.4918774918
  0
LINE
  5
32C
100
AcDbEntity
  8
0
100
AcDbLine
 62
2
  6
CONTINUOUS
 10
13.6086870924
 20
2.5165781173
 11
13.6086870924
 21
2.6342028907
  0
LINE
  5
32D
100
AcDbEntity
  8
0
100
AcDbLine
 62
2
  6
CONTINUOUS
 10
13.5886870813
 20
2.4398033466
 11
13.5886870813
 21
2.4912273132
  0
LINE
  5
32E
100
AcDbEntity
  8
0
100
AcDbLine
 62
2
  6
CONTINUOUS
 10
13.5886870813
 20
2.5391840845
 11
13.5886870813
 21
2.5454298327
  0
LINE
  5
32F
100
AcDbEntity
  8
0
100
AcDbLine
 62
2
  6
CONTINUOUS
 10
13.5886870813
 20
2.5862063472
 11
13.5886870813
 21
2.6409533343
  0
LINE
  5
330
100
AcDbEntity
  8
0
100
AcDbLine
 62
2
  6
CONTINUOUS
 10
13.5686870702
 20
2.4334702189
 11
13.5686870702
 21
2.4912273132
  0
LINE
  5
331
100
AcDbEntity
  8
0
100
AcDbLine
 62
2
  6
CONTINUOUS
 10
13.5686870702
 20
2.5906587765
 11
13.5686870702
 21
2.647286462
  0
LINE
  5
332
100
AcDbEntity
  8
0
100
AcDbLine
 62
2
  6
CONTINUOUS
 10
13.5486870591
 20
2.4278968124
 11
13.5486870591
 21
2.4937461006
  0
LINE
  5
333
100
AcDbEntity
  8
0
100
AcDbLine
 62
2
  6
CONTINUOUS
 10
13.5486870591
 20
2.5920323691
 11
13.5486870591
 21
2.6528598686
  0
LINE
  5
334
100
AcDbEntity
  8
0
100
AcDbLine
 62
2
  6
CONTINUOUS
 10
13.528687048
 20
2.4225427674
 11
13.528687048
 21
2.5270426993
  0
LINE
  5
335
100
AcDbEntity
  8
0
100
AcDbLine
 62
2
  6
CONTINUOUS
 10
13.528687048
 20
2.5505166259
 11
13.528687048
 21
2.5668657091
  0
LINE
  5
336
100
AcDbEntity
  8
0
100
AcDbLine
 62
2
  6
CONTINUOUS
 10
13.528687048
 20
2.5920323691
 11
13.528687048
 21
2.6582139136
  0
LINE
  5
337
100
AcDbEntity
  8
0
100
AcDbLine
 62
2
  6
CONTINUOUS
 10
13.5086870369
 20
2.4177306791
 11
13.5086870369
 21
2.4912273132
  0
LINE
  5
338
100
AcDbEntity
  8
0
100
AcDbLine
 62
2
  6
CONTINUOUS
 10
13.5086870369
 20
2.5159553269
 11
13.5086870369
 21
2.5306043351
  0
LINE
  5
339
100
AcDbEntity
  8
0
100
AcDbLine
 62
2
  6
CONTINUOUS
 10
13.5086870369
 20
2.5496073456
 11
13.5086870369
 21
2.5672823554
  0
LINE
  5
33A
100
AcDbEntity
  8
0
100
AcDbLine
 62
2
  6
CONTINUOUS
 10
13.5086870369
 20
2.5920323691
 11
13.5086870369
 21
2.6630260019
  0
LINE
  5
33B
100
AcDbEntity
  8
0
100
AcDbLine
 62
2
  6
CONTINUOUS
 10
13.4886870258
 20
2.4131795254
 11
13.4886870258
 21
2.4912273132
  0
LINE
  5
33C
100
AcDbEntity
  8
0
100
AcDbLine
 62
2
  6
CONTINUOUS
 10
13.4886870258
 20
2.5159553269
 11
13.4886870258
 21
2.5306043351
  0
LINE
  5
33D
100
AcDbEntity
  8
0
100
AcDbLine
 62
2
  6
CONTINUOUS
 10
13.4886870258
 20
2.5496073456
 11
13.4886870258
 21
2.5672823554
  0
LINE
  5
33E
100
AcDbEntity
  8
0
100
AcDbLine
 62
2
  6
CONTINUOUS
 10
13.4886870258
 20
2.5920323691
 11
13.4886870258
 21
2.6675771555
  0
LINE
  5
33F
100
AcDbEntity
  8
0
100
AcDbLine
 62
2
  6
CONTINUOUS
 10
13.4686870147
 20
2.4088819672
 11
13.4686870147
 21
2.4912273132
  0
LINE
  5
340
100
AcDbEntity
  8
0
100
AcDbLine
 62
2
  6
CONTINUOUS
 10
13.4686870147
 20
2.5920323691
 11
13.4686870147
 21
2.6718747138
  0
LINE
  5
341
100
AcDbEntity
  8
0
100
AcDbLine
 62
2
  6
CONTINUOUS
 10
13.4486870037
 20
2.4050092072
 11
13.4486870037
 21
2.4912273132
  0
LINE
  5
342
100
AcDbEntity
  8
0
100
AcDbLine
 62
2
  6
CONTINUOUS
 10
13.4486870037
 20
2.5920323691
 11
13.4486870037
 21
2.6757474738
  0
LINE
  5
343
100
AcDbEntity
  8
0
100
AcDbLine
 62
2
  6
CONTINUOUS
 10
13.4286869926
 20
2.4011364471
 11
13.4286869926
 21
2.4912273132
  0
LINE
  5
344
100
AcDbEntity
  8
0
100
AcDbLine
 62
2
  6
CONTINUOUS
 10
13.4286869926
 20
2.5920323691
 11
13.4286869926
 21
2.6796202339
  0
LINE
  5
345
100
AcDbEntity
  8
0
100
AcDbLine
 62
2
  6
CONTINUOUS
 10
13.4086869815
 20
2.3980226662
 11
13.4086869815
 21
2.4912273132
  0
LINE
  5
346
100
AcDbEntity
  8
0
100
AcDbLine
 62
2
  6
CONTINUOUS
 10
13.4086869815
 20
2.515977327
 11
13.4086869815
 21
2.5672823554
  0
LINE
  5
347
100
AcDbEntity
  8
0
100
AcDbLine
 62
2
  6
CONTINUOUS
 10
13.4086869815
 20
2.5920323691
 11
13.4086869815
 21
2.6827340148
  0
LINE
  5
348
100
AcDbEntity
  8
0
100
AcDbLine
 62
2
  6
CONTINUOUS
 10
13.3886869704
 20
2.3950052774
 11
13.3886869704
 21
2.6857514036
  0
LINE
  5
349
100
AcDbEntity
  8
0
100
AcDbLine
 62
2
  6
CONTINUOUS
 10
13.3686869593
 20
2.3919878885
 11
13.3686869593
 21
2.4912273132
  0
LINE
  5
34A
100
AcDbEntity
  8
0
100
AcDbLine
 62
2
  6
CONTINUOUS
 10
13.3686869593
 20
2.5291773343
 11
13.3686869593
 21
2.5540823481
  0
LINE
  5
34B
100
AcDbEntity
  8
0
100
AcDbLine
 62
2
  6
CONTINUOUS
 10
13.3686869593
 20
2.5920323691
 11
13.3686869593
 21
2.6887687924
  0
LINE
  5
34C
100
AcDbEntity
  8
0
100
AcDbLine
 62
2
  6
CONTINUOUS
 10
13.3486869482
 20
2.3889704997
 11
13.3486869482
 21
2.4912273132
  0
LINE
  5
34D
100
AcDbEntity
  8
0
100
AcDbLine
 62
2
  6
CONTINUOUS
 10
13.3486869482
 20
2.5291773343
 11
13.3486869482
 21
2.5540823481
  0
LINE
  5
34E
100
AcDbEntity
  8
0
100
AcDbLine
 62
2
  6
CONTINUOUS
 10
13.3486869482
 20
2.5920323691
 11
13.3486869482
 21
2.6917861813
  0
LINE
  5
34F
100
AcDbEntity
  8
0
100
AcDbLine
 62
2
  6
CONTINUOUS
 10
13.3286869371
 20
2.3859531109
 11
13.3286869371
 21
2.4912273132
  0
LINE
  5
350
100
AcDbEntity
  8
0
100
AcDbLine
 62
2
  6
CONTINUOUS
 10
13.3286869371
 20
2.5291773343
 11
13.3286869371
 21
2.5540823481
  0
LINE
  5
351
100
AcDbEntity
  8
0
100
AcDbLine
 62
2
  6
CONTINUOUS
 10
13.3286869371
 20
2.5920323691
 11
13.3286869371
 21
2.6948035701
  0
LINE
  5
352
100
AcDbEntity
  8
0
100
AcDbLine
 62
2
  6
CONTINUOUS
 10
13.308686926
 20
2.3833355437
 11
13.308686926
 21
2.4912273132
  0
LINE
  5
353
100
AcDbEntity
  8
0
100
AcDbLine
 62
2
  6
CONTINUOUS
 10
13.308686926
 20
2.515977327
 11
13.308686926
 21
2.5672823554
  0
LINE
  5
354
100
AcDbEntity
  8
0
100
AcDbLine
 62
2
  6
CONTINUOUS
 10
13.308686926
 20
2.5920323691
 11
13.308686926
 21
2.6974211373
  0
LINE
  5
355
100
AcDbEntity
  8
0
100
AcDbLine
 62
2
  6
CONTINUOUS
 10
13.2886869149
 20
2.3812612684
 11
13.2886869149
 21
2.4912273132
  0
LINE
  5
356
100
AcDbEntity
  8
0
100
AcDbLine
 62
2
  6
CONTINUOUS
 10
13.2886869149
 20
2.515977327
 11
13.2886869149
 21
2.5324773361
  0
LINE
  5
357
100
AcDbEntity
  8
0
100
AcDbLine
 62
2
  6
CONTINUOUS
 10
13.2886869149
 20
2.5507823463
 11
13.2886869149
 21
2.5672823554
  0
LINE
  5
358
100
AcDbEntity
  8
0
100
AcDbLine
 62
2
  6
CONTINUOUS
 10
13.2886869149
 20
2.5920323691
 11
13.2886869149
 21
2.6994954125
  0
LINE
  5
359
100
AcDbEntity
  8
0
100
AcDbLine
 62
2
  6
CONTINUOUS
 10
13.2686869038
 20
2.3791869932
 11
13.2686869038
 21
2.4912273132
  0
LINE
  5
35A
100
AcDbEntity
  8
0
100
AcDbLine
 62
2
  6
CONTINUOUS
 10
13.2686869038
 20
2.515977327
 11
13.2686869038
 21
2.5324773361
  0
LINE
  5
35B
100
AcDbEntity
  8
0
100
AcDbLine
 62
2
  6
CONTINUOUS
 10
13.2686869038
 20
2.5507823463
 11
13.2686869038
 21
2.5672823554
  0
LINE
  5
35C
100
AcDbEntity
  8
0
100
AcDbLine
 62
2
  6
CONTINUOUS
 10
13.2686869038
 20
2.5920323691
 11
13.2686869038
 21
2.7015696878
  0
LINE
  5
35D
100
AcDbEntity
  8
0
100
AcDbLine
 62
2
  6
CONTINUOUS
 10
13.2486868927
 20
2.377112718
 11
13.2486868927
 21
2.4912273132
  0
LINE
  5
35E
100
AcDbEntity
  8
0
100
AcDbLine
 62
2
  6
CONTINUOUS
 10
13.2486868927
 20
2.5920323691
 11
13.2486868927
 21
2.703643963
  0
LINE
  5
35F
100
AcDbEntity
  8
0
100
AcDbLine
 62
2
  6
CONTINUOUS
 10
13.2286868817
 20
2.3750384428
 11
13.2286868817
 21
2.4912273132
  0
LINE
  5
360
100
AcDbEntity
  8
0
100
AcDbLine
 62
2
  6
CONTINUOUS
 10
13.2286868817
 20
2.5920323691
 11
13.2286868817
 21
2.7057182382
  0
LINE
  5
361
100
AcDbEntity
  8
0
100
AcDbLine
 62
2
  6
CONTINUOUS
 10
13.2086868706
 20
2.3729641676
 11
13.2086868706
 21
2.4912273132
  0
LINE
  5
362
100
AcDbEntity
  8
0
100
AcDbLine
 62
2
  6
CONTINUOUS
 10
13.2086868706
 20
2.5920323691
 11
13.2086868706
 21
2.7077925134
  0
LINE
  5
363
100
AcDbEntity
  8
0
100
AcDbLine
 62
2
  6
CONTINUOUS
 10
13.1886868595
 20
2.3712344456
 11
13.1886868595
 21
2.4912273132
  0
LINE
  5
364
100
AcDbEntity
  8
0
100
AcDbLine
 62
2
  6
CONTINUOUS
 10
13.1886868595
 20
2.515977327
 11
13.1886868595
 21
2.5672823554
  0
LINE
  5
365
100
AcDbEntity
  8
0
100
AcDbLine
 62
2
  6
CONTINUOUS
 10
13.1886868595
 20
2.5920323691
 11
13.1886868595
 21
2.7095222354
  0
LINE
  5
366
100
AcDbEntity
  8
0
100
AcDbLine
 62
2
  6
CONTINUOUS
 10
13.1686868484
 20
2.3699682418
 11
13.1686868484
 21
2.4912273132
  0
LINE
  5
367
100
AcDbEntity
  8
0
100
AcDbLine
 62
2
  6
CONTINUOUS
 10
13.1686868484
 20
2.515977327
 11
13.1686868484
 21
2.5672823554
  0
LINE
  5
368
100
AcDbEntity
  8
0
100
AcDbLine
 62
2
  6
CONTINUOUS
 10
13.1686868484
 20
2.5920323691
 11
13.1686868484
 21
2.7107884392
  0
LINE
  5
369
100
AcDbEntity
  8
0
100
AcDbLine
 62
2
  6
CONTINUOUS
 10
13.1486868373
 20
2.3687020381
 11
13.1486868373
 21
2.7120546429
  0
LINE
  5
36A
100
AcDbEntity
  8
0
100
AcDbLine
 62
2
  6
CONTINUOUS
 10
13.1286868262
 20
2.3674358343
 11
13.1286868262
 21
2.5672823554
  0
LINE
  5
36B
100
AcDbEntity
  8
0
100
AcDbLine
 62
2
  6
CONTINUOUS
 10
13.1286868262
 20
2.5920323691
 11
13.1286868262
 21
2.7133208466
  0
LINE
  5
36C
100
AcDbEntity
  8
0
100
AcDbLine
 62
2
  6
CONTINUOUS
 10
13.1086868151
 20
2.3661696306
 11
13.1086868151
 21
2.4912273132
  0
LINE
  5
36D
100
AcDbEntity
  8
0
100
AcDbLine
 62
2
  6
CONTINUOUS
 10
13.1086868151
 20
2.5920323691
 11
13.1086868151
 21
2.7145870504
  0
LINE
  5
36E
100
AcDbEntity
  8
0
100
AcDbLine
 62
2
  6
CONTINUOUS
 10
13.088686804
 20
2.3649034269
 11
13.088686804
 21
2.4912273132
  0
LINE
  5
36F
100
AcDbEntity
  8
0
100
AcDbLine
 62
2
  6
CONTINUOUS
 10
13.088686804
 20
2.5920323691
 11
13.088686804
 21
2.7158532541
  0
LINE
  5
370
100
AcDbEntity
  8
0
100
AcDbLine
 62
2
  6
CONTINUOUS
 10
13.0686867929
 20
2.3636739922
 11
13.0686867929
 21
2.4912273132
  0
LINE
  5
371
100
AcDbEntity
  8
0
100
AcDbLine
 62
2
  6
CONTINUOUS
 10
13.0686867929
 20
2.5475272398
 11
13.0686867929
 21
2.5672823554
  0
LINE
  5
372
100
AcDbEntity
  8
0
100
AcDbLine
 62
2
  6
CONTINUOUS
 10
13.0686867929
 20
2.5920323691
 11
13.0686867929
 21
2.7170826887
  0
LINE
  5
373
100
AcDbEntity
  8
0
100
AcDbLine
 62
2
  6
CONTINUOUS
 10
13.0486867818
 20
2.363143203
 11
13.0486867818
 21
2.4912273132
  0
LINE
  5
374
100
AcDbEntity
  8
0
100
AcDbLine
 62
2
  6
CONTINUOUS
 10
13.0486867818
 20
2.5666100882
 11
13.0486867818
 21
2.717613478
  0
LINE
  5
375
100
AcDbEntity
  8
0
100
AcDbLine
 62
2
  6
CONTINUOUS
 10
13.0286867707
 20
2.3626124138
 11
13.0286867707
 21
2.50359263
  0
LINE
  5
376
100
AcDbEntity
  8
0
100
AcDbLine
 62
2
  6
CONTINUOUS
 10
13.0286867707
 20
2.5856929366
 11
13.0286867707
 21
2.7181442672
  0
LINE
  5
377
100
AcDbEntity
  8
0
100
AcDbLine
 62
2
  6
CONTINUOUS
 10
13.0086867596
 20
2.3620816246
 11
13.0086867596
 21
2.5226754472
  0
LINE
  5
378
100
AcDbEntity
  8
0
100
AcDbLine
 62
2
  6
CONTINUOUS
 10
13.0086867596
 20
2.5920323691
 11
13.0086867596
 21
2.7186750564
  0
LINE
  5
379
100
AcDbEntity
  8
0
100
AcDbLine
 62
2
  6
CONTINUOUS
 10
12.9886867486
 20
2.3615508354
 11
12.9886867486
 21
2.4912273132
  0
LINE
  5
37A
100
AcDbEntity
  8
0
100
AcDbLine
 62
2
  6
CONTINUOUS
 10
12.9886867486
 20
2.515977327
 11
12.9886867486
 21
2.5417582644
  0
LINE
  5
37B
100
AcDbEntity
  8
0
100
AcDbLine
 62
2
  6
CONTINUOUS
 10
12.9886867486
 20
2.5920323691
 11
12.9886867486
 21
2.7192058456
  0
LINE
  5
37C
100
AcDbEntity
  8
0
100
AcDbLine
 62
2
  6
CONTINUOUS
 10
12.9686867375
 20
2.3610200462
 11
12.9686867375
 21
2.4912273132
  0
LINE
  5
37D
100
AcDbEntity
  8
0
100
AcDbLine
 62
2
  6
CONTINUOUS
 10
12.9686867375
 20
2.5920323691
 11
12.9686867375
 21
2.7197366348
  0
LINE
  5
37E
100
AcDbEntity
  8
0
100
AcDbLine
 62
2
  6
CONTINUOUS
 10
12.9486867264
 20
2.360489257
 11
12.9486867264
 21
2.4912273132
  0
LINE
  5
37F
100
AcDbEntity
  8
0
100
AcDbLine
 62
2
  6
CONTINUOUS
 10
12.9486867264
 20
2.5920323691
 11
12.9486867264
 21
2.720267424
  0
LINE
  5
380
100
AcDbEntity
  8
0
100
AcDbLine
 62
2
  6
CONTINUOUS
 10
12.9286867153
 20
2.3602836008
 11
12.9286867153
 21
2.4912273132
  0
LINE
  5
381
100
AcDbEntity
  8
0
100
AcDbLine
 62
2
  6
CONTINUOUS
 10
12.9286867153
 20
2.515977327
 11
12.9286867153
 21
2.5672823554
  0
LINE
  5
382
100
AcDbEntity
  8
0
100
AcDbLine
 62
2
  6
CONTINUOUS
 10
12.9286867153
 20
2.5920323691
 11
12.9286867153
 21
2.7204730802
  0
LINE
  5
383
100
AcDbEntity
  8
0
100
AcDbLine
 62
2
  6
CONTINUOUS
 10
12.9086867042
 20
2.3604597639
 11
12.9086867042
 21
2.7202969171
  0
LINE
  5
384
100
AcDbEntity
  8
0
100
AcDbLine
 62
2
  6
CONTINUOUS
 10
12.8886866931
 20
2.360635927
 11
12.8886866931
 21
2.5672823554
  0
LINE
  5
385
100
AcDbEntity
  8
0
100
AcDbLine
 62
2
  6
CONTINUOUS
 10
12.8886866931
 20
2.5920323691
 11
12.8886866931
 21
2.720120754
  0
LINE
  5
386
100
AcDbEntity
  8
0
100
AcDbLine
 62
2
  6
CONTINUOUS
 10
12.868686682
 20
2.3608120901
 11
12.868686682
 21
2.491232357
  0
LINE
  5
387
100
AcDbEntity
  8
0
100
AcDbLine
 62
2
  6
CONTINUOUS
 10
12.868686682
 20
2.5920323691
 11
12.868686682
 21
2.7199445909
  0
LINE
  5
388
100
AcDbEntity
  8
0
100
AcDbLine
 62
2
  6
CONTINUOUS
 10
12.8486866709
 20
2.3609882532
 11
12.8486866709
 21
2.4912273132
  0
LINE
  5
389
100
AcDbEntity
  8
0
100
AcDbLine
 62
2
  6
CONTINUOUS
 10
12.8486866709
 20
2.5920323691
 11
12.8486866709
 21
2.7197684278
  0
LINE
  5
38A
100
AcDbEntity
  8
0
100
AcDbLine
 62
2
  6
CONTINUOUS
 10
12.8286866598
 20
2.3611644163
 11
12.8286866598
 21
2.4912273132
  0
LINE
  5
38B
100
AcDbEntity
  8
0
100
AcDbLine
 62
2
  6
CONTINUOUS
 10
12.8286866598
 20
2.5396527025
 11
12.8286866598
 21
2.5672823554
  0
LINE
  5
38C
100
AcDbEntity
  8
0
100
AcDbLine
 62
2
  6
CONTINUOUS
 10
12.8286866598
 20
2.5920323691
 11
12.8286866598
 21
2.7195922647
  0
LINE
  5
38D
100
AcDbEntity
  8
0
100
AcDbLine
 62
2
  6
CONTINUOUS
 10
12.8086866487
 20
2.3613405794
 11
12.8086866487
 21
2.4912273132
  0
LINE
  5
38E
100
AcDbEntity
  8
0
100
AcDbLine
 62
2
  6
CONTINUOUS
 10
12.8086866487
 20
2.5587355508
 11
12.8086866487
 21
2.7194161016
  0
LINE
  5
38F
100
AcDbEntity
  8
0
100
AcDbLine
 62
2
  6
CONTINUOUS
 10
12.7886866376
 20
2.3621089572
 11
12.7886866376
 21
2.4957181055
  0
LINE
  5
390
100
AcDbEntity
  8
0
100
AcDbLine
 62
2
  6
CONTINUOUS
 10
12.7886866376
 20
2.5778183992
 11
12.7886866376
 21
2.7186477238
  0
LINE
  5
391
100
AcDbEntity
  8
0
100
AcDbLine
 62
2
  6
CONTINUOUS
 10
12.7686866266
 20
2.3630013935
 11
12.7686866266
 21
2.5148009227
  0
LINE
  5
392
100
AcDbEntity
  8
0
100
AcDbLine
 62
2
  6
CONTINUOUS
 10
12.7686866266
 20
2.5920323691
 11
12.7686866266
 21
2.7177552874
  0
LINE
  5
393
100
AcDbEntity
  8
0
100
AcDbLine
 62
2
  6
CONTINUOUS
 10
12.7486866155
 20
2.3638938299
 11
12.7486866155
 21
2.4913263218
  0
LINE
  5
394
100
AcDbEntity
  8
0
100
AcDbLine
 62
2
  6
CONTINUOUS
 10
12.7486866155
 20
2.5158783184
 11
12.7486866155
 21
2.5338837399
  0
LINE
  5
395
100
AcDbEntity
  8
0
100
AcDbLine
 62
2
  6
CONTINUOUS
 10
12.7486866155
 20
2.5920323691
 11
12.7486866155
 21
2.7168628511
  0
LINE
  5
396
100
AcDbEntity
  8
0
100
AcDbLine
 62
2
  6
CONTINUOUS
 10
12.7286866044
 20
2.3647862663
 11
12.7286866044
 21
2.4912273132
  0
LINE
  5
397
100
AcDbEntity
  8
0
100
AcDbLine
 62
2
  6
CONTINUOUS
 10
12.7286866044
 20
2.515977327
 11
12.7286866044
 21
2.5527601554
  0
LINE
  5
398
100
AcDbEntity
  8
0
100
AcDbLine
 62
2
  6
CONTINUOUS
 10
12.7286866044
 20
2.5920323691
 11
12.7286866044
 21
2.7159704147
  0
LINE
  5
399
100
AcDbEntity
  8
0
100
AcDbLine
 62
2
  6
CONTINUOUS
 10
12.7086865933
 20
2.3656787026
 11
12.7086865933
 21
2.4912273132
  0
LINE
  5
39A
100
AcDbEntity
  8
0
100
AcDbLine
 62
2
  6
CONTINUOUS
 10
12.7086865933
 20
2.5920323691
 11
12.7086865933
 21
2.7150779784
  0
LINE
  5
39B
100
AcDbEntity
  8
0
100
AcDbLine
 62
2
  6
CONTINUOUS
 10
12.6886865822
 20
2.366571139
 11
12.6886865822
 21
2.4912273132
  0
LINE
  5
39C
100
AcDbEntity
  8
0
100
AcDbLine
 62
2
  6
CONTINUOUS
 10
12.6886865822
 20
2.515977327
 11
12.6886865822
 21
2.5672823554
  0
LINE
  5
39D
100
AcDbEntity
  8
0
100
AcDbLine
 62
2
  6
CONTINUOUS
 10
12.6886865822
 20
2.5920323691
 11
12.6886865822
 21
2.714185542
  0
LINE
  5
39E
100
AcDbEntity
  8
0
100
AcDbLine
 62
2
  6
CONTINUOUS
 10
12.6686865711
 20
2.3677104027
 11
12.6686865711
 21
2.7130462783
  0
LINE
  5
39F
100
AcDbEntity
  8
0
100
AcDbLine
 62
2
  6
CONTINUOUS
 10
12.64868656
 20
2.3693682721
 11
12.64868656
 21
2.7113884089
  0
LINE
  5
3A0
100
AcDbEntity
  8
0
100
AcDbLine
 62
2
  6
CONTINUOUS
 10
12.6286865489
 20
2.3710261415
 11
12.6286865489
 21
2.4912273132
  0
LINE
  5
3A1
100
AcDbEntity
  8
0
100
AcDbLine
 62
2
  6
CONTINUOUS
 10
12.6286865489
 20
2.515977327
 11
12.6286865489
 21
2.7097305395
  0
LINE
  5
3A2
100
AcDbEntity
  8
0
100
AcDbLine
 62
2
  6
CONTINUOUS
 10
12.6086865378
 20
2.372684011
 11
12.6086865378
 21
2.4912273132
  0
LINE
  5
3A3
100
AcDbEntity
  8
0
100
AcDbLine
 62
2
  6
CONTINUOUS
 10
12.6086865378
 20
2.5351122279
 11
12.6086865378
 21
2.70807267
  0
LINE
  5
3A4
100
AcDbEntity
  8
0
100
AcDbLine
 62
2
  6
CONTINUOUS
 10
12.5886865267
 20
2.3743418804
 11
12.5886865267
 21
2.4912273132
  0
LINE
  5
3A5
100
AcDbEntity
  8
0
100
AcDbLine
 62
2
  6
CONTINUOUS
 10
12.5886865267
 20
2.5660172622
 11
12.5886865267
 21
2.7064148006
  0
LINE
  5
3A6
100
AcDbEntity
  8
0
100
AcDbLine
 62
2
  6
CONTINUOUS
 10
12.5686865156
 20
2.3759997498
 11
12.5686865156
 21
2.4912273132
  0
LINE
  5
3A7
100
AcDbEntity
  8
0
100
AcDbLine
 62
2
  6
CONTINUOUS
 10
12.5686865156
 20
2.5920323691
 11
12.5686865156
 21
2.7047569312
  0
LINE
  5
3A8
100
AcDbEntity
  8
0
100
AcDbLine
 62
2
  6
CONTINUOUS
 10
12.5486865045
 20
2.3777575277
 11
12.5486865045
 21
2.4912273132
  0
LINE
  5
3A9
100
AcDbEntity
  8
0
100
AcDbLine
 62
2
  6
CONTINUOUS
 10
12.5486865045
 20
2.515977327
 11
12.5486865045
 21
2.5275118824
  0
LINE
  5
3AA
100
AcDbEntity
  8
0
100
AcDbLine
 62
2
  6
CONTINUOUS
 10
12.5486865045
 20
2.5920323691
 11
12.5486865045
 21
2.7029991533
  0
LINE
  5
3AB
100
AcDbEntity
  8
0
100
AcDbLine
 62
2
  6
CONTINUOUS
 10
12.5286864935
 20
2.3802813811
 11
12.5286864935
 21
2.5296213345
  0
LINE
  5
3AC
100
AcDbEntity
  8
0
100
AcDbLine
 62
2
  6
CONTINUOUS
 10
12.5286864935
 20
2.5505713461
 11
12.5286864935
 21
2.5667383551
  0
LINE
  5
3AD
100
AcDbEntity
  8
0
100
AcDbLine
 62
2
  6
CONTINUOUS
 10
12.5286864935
 20
2.5920323691
 11
12.5286864935
 21
2.7004752999
  0
LINE
  5
3AE
100
AcDbEntity
  8
0
100
AcDbLine
 62
2
  6
CONTINUOUS
 10
12.5086864824
 20
2.3828052346
 11
12.5086864824
 21
2.4912273132
  0
LINE
  5
3AF
100
AcDbEntity
  8
0
100
AcDbLine
 62
2
  6
CONTINUOUS
 10
12.5086864824
 20
2.515977327
 11
12.5086864824
 21
2.5279667721
  0
LINE
  5
3B0
100
AcDbEntity
  8
0
100
AcDbLine
 62
2
  6
CONTINUOUS
 10
12.5086864824
 20
2.5868602074
 11
12.5086864824
 21
2.6979514464
  0
LINE
  5
3B1
100
AcDbEntity
  8
0
100
AcDbLine
 62
2
  6
CONTINUOUS
 10
12.4886864713
 20
2.385329088
 11
12.4886864713
 21
2.4912273132
  0
LINE
  5
3B2
100
AcDbEntity
  8
0
100
AcDbLine
 62
2
  6
CONTINUOUS
 10
12.4886864713
 20
2.5553401045
 11
12.4886864713
 21
2.695427593
  0
LINE
  5
3B3
100
AcDbEntity
  8
0
100
AcDbLine
 62
2
  6
CONTINUOUS
 10
12.4686864602
 20
2.3878529415
 11
12.4686864602
 21
2.4912273132
  0
LINE
  5
3B4
100
AcDbEntity
  8
0
100
AcDbLine
 62
2
  6
CONTINUOUS
 10
12.4686864602
 20
2.5238200015
 11
12.4686864602
 21
2.6929037395
  0
LINE
  5
3B5
100
AcDbEntity
  8
0
100
AcDbLine
 62
2
  6
CONTINUOUS
 10
12.4486864491
 20
2.390376795
 11
12.4486864491
 21
2.4912273132
  0
LINE
  5
3B6
100
AcDbEntity
  8
0
100
AcDbLine
 62
2
  6
CONTINUOUS
 10
12.4486864491
 20
2.515977327
 11
12.4486864491
 21
2.690379886
  0
LINE
  5
3B7
100
AcDbEntity
  8
0
100
AcDbLine
 62
2
  6
CONTINUOUS
 10
12.428686438
 20
2.3931794042
 11
12.428686438
 21
2.6875772768
  0
LINE
  5
3B8
100
AcDbEntity
  8
0
100
AcDbLine
 62
2
  6
CONTINUOUS
 10
12.4086864269
 20
2.3964643301
 11
12.4086864269
 21
2.5013773986
  0
LINE
  5
3B9
100
AcDbEntity
  8
0
100
AcDbLine
 62
2
  6
CONTINUOUS
 10
12.4086864269
 20
2.5325739971
 11
12.4086864269
 21
2.5537224311
  0
LINE
  5
3BA
100
AcDbEntity
  8
0
100
AcDbLine
 62
2
  6
CONTINUOUS
 10
12.4086864269
 20
2.5791473398
 11
12.4086864269
 21
2.6842923509
  0
LINE
  5
3BB
100
AcDbEntity
  8
0
100
AcDbLine
 62
2
  6
CONTINUOUS
 10
12.3886864158
 20
2.399749256
 11
12.3886864158
 21
2.4921022658
  0
LINE
  5
3BC
100
AcDbEntity
  8
0
100
AcDbLine
 62
2
  6
CONTINUOUS
 10
12.3886864158
 20
2.5895929958
 11
12.3886864158
 21
2.681007425
  0
LINE
  5
3BD
100
AcDbEntity
  8
0
100
AcDbLine
 62
2
  6
CONTINUOUS
 10
12.3686864047
 20
2.403451877
 11
12.3686864047
 21
2.4912273132
  0
LINE
  5
3BE
100
AcDbEntity
  8
0
100
AcDbLine
 62
2
  6
CONTINUOUS
 10
12.3686864047
 20
2.5920323691
 11
12.3686864047
 21
2.677304804
  0
LINE
  5
3BF
100
AcDbEntity
  8
0
100
AcDbLine
 62
2
  6
CONTINUOUS
 10
12.3486863936
 20
2.407324637
 11
12.3486863936
 21
2.4912273132
  0
LINE
  5
3C0
100
AcDbEntity
  8
0
100
AcDbLine
 62
2
  6
CONTINUOUS
 10
12.3486863936
 20
2.5920323691
 11
12.3486863936
 21
2.673432044
  0
LINE
  5
3C1
100
AcDbEntity
  8
0
100
AcDbLine
 62
2
  6
CONTINUOUS
 10
12.3286863825
 20
2.4113493968
 11
12.3286863825
 21
2.4912273132
  0
LINE
  5
3C2
100
AcDbEntity
  8
0
100
AcDbLine
 62
2
  6
CONTINUOUS
 10
12.3286863825
 20
2.515977327
 11
12.3286863825
 21
2.5333023366
  0
LINE
  5
3C3
100
AcDbEntity
  8
0
100
AcDbLine
 62
2
  6
CONTINUOUS
 10
12.3286863825
 20
2.5499573458
 11
12.3286863825
 21
2.5672823554
  0
LINE
  5
3C4
100
AcDbEntity
  8
0
100
AcDbLine
 62
2
  6
CONTINUOUS
 10
12.3286863825
 20
2.5920323691
 11
12.3286863825
 21
2.6694072842
  0
LINE
  5
3C5
100
AcDbEntity
  8
0
100
AcDbLine
 62
2
  6
CONTINUOUS
 10
12.3086863715
 20
2.4159005505
 11
12.3086863715
 21
2.4912273132
  0
LINE
  5
3C6
100
AcDbEntity
  8
0
100
AcDbLine
 62
2
  6
CONTINUOUS
 10
12.3086863715
 20
2.515977327
 11
12.3086863715
 21
2.5333023366
  0
LINE
  5
3C7
100
AcDbEntity
  8
0
100
AcDbLine
 62
2
  6
CONTINUOUS
 10
12.3086863715
 20
2.5499573458
 11
12.3086863715
 21
2.5672823554
  0
LINE
  5
3C8
100
AcDbEntity
  8
0
100
AcDbLine
 62
2
  6
CONTINUOUS
 10
12.3086863715
 20
2.5920323691
 11
12.3086863715
 21
2.6648561305
  0
LINE
  5
3C9
100
AcDbEntity
  8
0
100
AcDbLine
 62
2
  6
CONTINUOUS
 10
12.2886863604
 20
2.4204517041
 11
12.2886863604
 21
2.4912273132
  0
LINE
  5
3CA
100
AcDbEntity
  8
0
100
AcDbLine
 62
2
  6
CONTINUOUS
 10
12.2886863604
 20
2.5920323691
 11
12.2886863604
 21
2.6603049769
  0
LINE
  5
3CB
100
AcDbEntity
  8
0
100
AcDbLine
 62
2
  6
CONTINUOUS
 10
12.2686863493
 20
2.4257438218
 11
12.2686863493
 21
2.4912273132
  0
LINE
  5
3CC
100
AcDbEntity
  8
0
100
AcDbLine
 62
2
  6
CONTINUOUS
 10
12.2686863493
 20
2.5920323691
 11
12.2686863493
 21
2.6550128592
  0
LINE
  5
3CD
100
AcDbEntity
  8
0
100
AcDbLine
 62
2
  6
CONTINUOUS
 10
12.2486863382
 20
2.4310978667
 11
12.2486863382
 21
2.4912273132
  0
LINE
  5
3CE
100
AcDbEntity
  8
0
100
AcDbLine
 62
2
  6
CONTINUOUS
 10
12.2486863382
 20
2.5920323691
 11
12.2486863382
 21
2.6496588142
  0
LINE
  5
3CF
100
AcDbEntity
  8
0
100
AcDbLine
 62
2
  6
CONTINUOUS
 10
12.2286863271
 20
2.4372566433
 11
12.2286863271
 21
2.4912273132
  0
LINE
  5
3D0
100
AcDbEntity
  8
0
100
AcDbLine
 62
2
  6
CONTINUOUS
 10
12.2286863271
 20
2.515977327
 11
12.2286863271
 21
2.5672823554
  0
LINE
  5
3D1
100
AcDbEntity
  8
0
100
AcDbLine
 62
2
  6
CONTINUOUS
 10
12.2286863271
 20
2.5920323691
 11
12.2286863271
 21
2.6435000377
  0
LINE
  5
3D2
100
AcDbEntity
  8
0
100
AcDbLine
 62
2
  6
CONTINUOUS
 10
12.208686316
 20
2.443589771
 11
12.208686316
 21
2.4912273132
  0
LINE
  5
3D3
100
AcDbEntity
  8
0
100
AcDbLine
 62
2
  6
CONTINUOUS
 10
12.208686316
 20
2.515977327
 11
12.208686316
 21
2.5672823554
  0
LINE
  5
3D4
100
AcDbEntity
  8
0
100
AcDbLine
 62
2
  6
CONTINUOUS
 10
12.208686316
 20
2.5920323691
 11
12.208686316
 21
2.63716691
  0
LINE
  5
3D5
100
AcDbEntity
  8
0
100
AcDbLine
 62
2
  6
CONTINUOUS
 10
12.1886863049
 20
2.4510806436
 11
12.1886863049
 21
2.6296760373
  0
LINE
  5
3D6
100
AcDbEntity
  8
0
100
AcDbLine
 62
2
  6
CONTINUOUS
 10
12.1686862938
 20
2.4591016523
 11
12.1686862938
 21
2.6216550287
  0
LINE
  5
3D7
100
AcDbEntity
  8
0
100
AcDbLine
 62
2
  6
CONTINUOUS
 10
12.1486862827
 20
2.468314272
 11
12.1486862827
 21
2.612442409
  0
LINE
  5
3D8
100
AcDbEntity
  8
0
100
AcDbLine
 62
2
  6
CONTINUOUS
 10
12.1286862716
 20
2.4794932339
 11
12.1286862716
 21
2.601263447
  0
LINE
  5
3D9
100
AcDbEntity
  8
0
100
AcDbLine
 62
2
  6
CONTINUOUS
 10
12.1086862605
 20
2.4934150665
 11
12.1086862605
 21
2.5873416144
  0
LINE
  5
3DA
100
AcDbEntity
  8
0
100
AcDbLine
 62
2
  6
CONTINUOUS
 10
12.0886862494
 20
2.5144449553
 11
12.0886862494
 21
2.5663117257
  0
ENDBLK
  5
3DB
100
AcDbEntity
  8
0
  6
BYBLOCK
 62
0
100
AcDbBlockEnd
  0
BLOCK
  5
3DC
100
AcDbEntity
  8
SCHEME_DIMS
100
AcDbBlockBegin
 62
2
  6
CONTINUOUS
  2
*D0
 70
65
 10
0.0
 20
0.0
  3
*D0
  1

  0
TEXT
  5
3DD
100
AcDbEntity
  8
SCHEME_DIMS
100
AcDbText
 62
2
  6
CONTINUOUS
 10
4.0732157768
 20
4.6880060196
  7
STANDARD
 40
0.1
  1
%%c
 41
1.3333333333
 72
0
100
AcDbText
  0
TEXT
  5
3DE
100
AcDbEntity
  8
SCHEME_DIMS
100
AcDbText
 62
2
  6
CONTINUOUS
 10
4.2065491101
 20
4.6880060196
  7
STANDARD
 40
0.1
  1
50
 41
1.0
 72
0
100
AcDbText
  0
TEXT
  5
3DF
100
AcDbEntity
  8
SCHEME_DIMS
100
AcDbText
 62
2
  6
CONTINUOUS
 10
4.3065491101
 20
4.5380060196
  7
STANDARD
 40
0.1
  1
1.97
 41
1.0
 72
0
100
AcDbText
  0
TEXT
  5
3E0
100
AcDbEntity
  8
SCHEME_DIMS
100
AcDbText
 62
2
  6
CONTINUOUS
 10
4.2065491101
 20
4.5380060196
  7
STANDARD
 40
0.1
  1
[
 41
1.0
 72
0
100
AcDbText
  0
TEXT
  5
3E1
100
AcDbEntity
  8
SCHEME_DIMS
100
AcDbText
 62
2
  6
CONTINUOUS
 10
4.7065491101
 20
4.5380060196
  7
STANDARD
 40
0.1
  1
]
 41
1.0
 72
0
100
AcDbText
  0
LINE
  5
3E2
100
AcDbEntity
  8
SCHEME_DIMS
100
AcDbLine
 62
2
  6
CONTINUOUS
 10
3.6132807157
 20
5.1015641413
 11
3.8232157768
 21
4.7380060196
  0
LINE
  5
3E3
100
AcDbEntity
  8
SCHEME_DIMS
100
AcDbLine
 62
2
  6
CONTINUOUS
 10
3.8232157768
 20
4.7380060196
 11
3.9732157768
 21
4.7380060196
  0
INSERT
  5
3E4
100
AcDbEntity
  8
SCHEME_DIMS
100
AcDbBlockReference
 62
2
  6
CONTINUOUS
  2
_FILLED
 10
3.6132807157
 20
5.1015641413
 41
0.1875
 42
0.1875
 43
0.1875
 50
120.0040991346
  0
ENDBLK
  5
3E5
100
AcDbEntity
  8
0
  6
BYBLOCK
 62
0
100
AcDbBlockEnd
  0
BLOCK
  5
3E6
100
AcDbEntity
  8
SCHEME_DIMS
100
AcDbBlockBegin
 62
2
  6
CONTINUOUS
  2
*D1
 70
65
 10
0.0
 20
0.0
  3
*D1
  1

  0
TEXT
  5
3E7
100
AcDbEntity
  8
SCHEME_DIMS
100
AcDbText
 62
2
  6
CONTINUOUS
 10
7.3829509494
 20
8.4314446677
  7
STANDARD
 40
0.1
  1
68
 41
1.0
 72
0
100
AcDbText
  0
TEXT
  5
3E8
100
AcDbEntity
  8
SCHEME_DIMS
100
AcDbText
 62
2
  6
CONTINUOUS
 10
7.4829509494
 20
8.2814446677
  7
STANDARD
 40
0.1
  1
2.68
 41
1.0
 72
0
100
AcDbText
  0
TEXT
  5
3E9
100
AcDbEntity
  8
SCHEME_DIMS
100
AcDbText
 62
2
  6
CONTINUOUS
 10
7.3829509494
 20
8.2814446677
  7
STANDARD
 40
0.1
  1
[
 41
1.0
 72
0
100
AcDbText
  0
TEXT
  5
3EA
100
AcDbEntity
  8
SCHEME_DIMS
100
AcDbText
 62
2
  6
CONTINUOUS
 10
7.8829509494
 20
8.2814446677
  7
STANDARD
 40
0.1
  1
]
 41
1.0
 72
0
100
AcDbText
  0
LINE
  5
3EB
100
AcDbEntity
  8
SCHEME_DIMS
100
AcDbLine
 62
2
  6
CONTINUOUS
 10
9.0215336265
 20
6.2201562967
 11
9.0215336265
 21
8.6064446677
  0
LINE
  5
3EC
100
AcDbEntity
  8
SCHEME_DIMS
100
AcDbLine
 62
2
  6
CONTINUOUS
 10
6.3443682722
 20
6.4404383012
 11
6.3443682722
 21
8.6064446677
  0
LINE
  5
3ED
100
AcDbEntity
  8
SCHEME_DIMS
100
AcDbLine
 62
2
  6
CONTINUOUS
 10
9.0215336265
 20
8.4814446677
 11
8.0829509494
 21
8.4814446677
  0
LINE
  5
3EE
100
AcDbEntity
  8
SCHEME_DIMS
100
AcDbLine
 62
2
  6
CONTINUOUS
 10
6.3443682722
 20
8.4814446677
 11
7.2829509494
 21
8.4814446677
  0
INSERT
  5
3EF
100
AcDbEntity
  8
SCHEME_DIMS
100
AcDbBlockReference
 62
2
  6
CONTINUOUS
  2
_FILLED
 10
9.0215336265
 20
8.4814446677
 41
0.1875
 42
0.1875
 43
0.1875
  0
INSERT
  5
3F0
100
AcDbEntity
  8
SCHEME_DIMS
100
AcDbBlockReference
 62
2
  6
CONTINUOUS
  2
_FILLED
 10
6.3443682722
 20
8.4814446677
 41
0.1875
 42
0.1875
 43
0.1875
 50
180.0
  0
ENDBLK
  5
3F1
100
AcDbEntity
  8
0
  6
BYBLOCK
 62
0
100
AcDbBlockEnd
  0
BLOCK
  5
3F2
100
AcDbEntity
  8
SCHEME_DIMS
100
AcDbBlockBegin
 62
2
  6
CONTINUOUS
  2
*D2
 70
65
 10
0.0
 20
0.0
  3
*D2
  1

  0
TEXT
  5
3F3
100
AcDbEntity
  8
SCHEME_DIMS
100
AcDbText
 62
2
  6
CONTINUOUS
 10
7.1664155163
 20
7.9305214627
  7
STANDARD
 40
0.1
  1
57
 41
1.0
 72
0
100
AcDbText
  0
TEXT
  5
3F4
100
AcDbEntity
  8
SCHEME_DIMS
100
AcDbText
 62
2
  6
CONTINUOUS
 10
7.2664155163
 20
7.7805214627
  7
STANDARD
 40
0.1
  1
2.24
 41
1.0
 72
0
100
AcDbText
  0
TEXT
  5
3F5
100
AcDbEntity
  8
SCHEME_DIMS
100
AcDbText
 62
2
  6
CONTINUOUS
 10
7.1664155163
 20
7.7805214627
  7
STANDARD
 40
0.1
  1
[
 41
1.0
 72
0
100
AcDbText
  0
TEXT
  5
3F6
100
AcDbEntity
  8
SCHEME_DIMS
100
AcDbText
 62
2
  6
CONTINUOUS
 10
7.6664155163
 20
7.7805214627
  7
STANDARD
 40
0.1
  1
]
 41
1.0
 72
0
100
AcDbText
  0
LINE
  5
3F7
100
AcDbEntity
  8
SCHEME_DIMS
100
AcDbLine
 62
2
  6
CONTINUOUS
 10
8.5884627604
 20
6.5183846432
 11
8.5884627604
 21
8.1055214627
  0
LINE
  5
3F8
100
AcDbEntity
  8
SCHEME_DIMS
100
AcDbLine
 62
2
  6
CONTINUOUS
 10
6.3443682722
 20
6.4404383012
 11
6.3443682722
 21
8.1055214627
  0
LINE
  5
3F9
100
AcDbEntity
  8
SCHEME_DIMS
100
AcDbLine
 62
2
  6
CONTINUOUS
 10
8.5884627604
 20
7.9805214627
 11
7.8664155163
 21
7.9805214627
  0
LINE
  5
3FA
100
AcDbEntity
  8
SCHEME_DIMS
100
AcDbLine
 62
2
  6
CONTINUOUS
 10
6.3443682722
 20
7.9805214627
 11
7.0664155163
 21
7.9805214627
  0
INSERT
  5
3FB
100
AcDbEntity
  8
SCHEME_DIMS
100
AcDbBlockReference
 62
2
  6
CONTINUOUS
  2
_FILLED
 10
8.5884627604
 20
7.9805214627
 41
0.1875
 42
0.1875
 43
0.1875
  0
INSERT
  5
3FC
100
AcDbEntity
  8
SCHEME_DIMS
100
AcDbBlockReference
 62
2
  6
CONTINUOUS
  2
_FILLED
 10
6.3443682722
 20
7.9805214627
 41
0.1875
 42
0.1875
 43
0.1875
 50
180.0
  0
ENDBLK
  5
3FD
100
AcDbEntity
  8
0
  6
BYBLOCK
 62
0
100
AcDbBlockEnd
  0
BLOCK
  5
3FE
100
AcDbEntity
  8
SCHEME_DIMS
100
AcDbBlockBegin
 62
2
  6
CONTINUOUS
  2
*D3
 70
65
 10
0.0
 20
0.0
  3
*D3
  1

  0
TEXT
  5
3FF
100
AcDbEntity
  8
SCHEME_DIMS
100
AcDbText
 62
2
  6
CONTINUOUS
 10
6.7727147289
 20
7.3955956581
  7
STANDARD
 40
0.1
  1
37
 41
1.0
 72
0
100
AcDbText
  0
TEXT
  5
400
100
AcDbEntity
  8
SCHEME_DIMS
100
AcDbText
 62
2
  6
CONTINUOUS
 10
6.8727147289
 20
7.2455956581
  7
STANDARD
 40
0.1
  1
1.46
 41
1.0
 72
0
100
AcDbText
  0
TEXT
  5
401
100
AcDbEntity
  8
SCHEME_DIMS
100
AcDbText
 62
2
  6
CONTINUOUS
 10
6.7727147289
 20
7.2455956581
  7
STANDARD
 40
0.1
  1
[
 41
1.0
 72
0
100
AcDbText
  0
TEXT
  5
402
100
AcDbEntity
  8
SCHEME_DIMS
100
AcDbText
 62
2
  6
CONTINUOUS
 10
7.2727147289
 20
7.2455956581
  7
STANDARD
 40
0.1
  1
]
 41
1.0
 72
0
100
AcDbText
  0
LINE
  5
403
100
AcDbEntity
  8
SCHEME_DIMS
100
AcDbLine
 62
2
  6
CONTINUOUS
 10
7.8010611856
 20
6.9612980197
 11
7.8010611856
 21
7.5705956581
  0
LINE
  5
404
100
AcDbEntity
  8
SCHEME_DIMS
100
AcDbLine
 62
2
  6
CONTINUOUS
 10
6.3443682722
 20
6.4404383012
 11
6.3443682722
 21
7.5705956581
  0
LINE
  5
405
100
AcDbEntity
  8
SCHEME_DIMS
100
AcDbLine
 62
2
  6
CONTINUOUS
 10
7.8010611856
 20
7.4455956581
 11
7.4727147289
 21
7.4455956581
  0
LINE
  5
406
100
AcDbEntity
  8
SCHEME_DIMS
100
AcDbLine
 62
2
  6
CONTINUOUS
 10
6.3443682722
 20
7.4455956581
 11
6.6727147289
 21
7.4455956581
  0
INSERT
  5
407
100
AcDbEntity
  8
SCHEME_DIMS
100
AcDbBlockReference
 62
2
  6
CONTINUOUS
  2
_FILLED
 10
7.8010611856
 20
7.4455956581
 41
0.1875
 42
0.1875
 43
0.1875
  0
INSERT
  5
408
100
AcDbEntity
  8
SCHEME_DIMS
100
AcDbBlockReference
 62
2
  6
CONTINUOUS
  2
_FILLED
 10
6.3443682722
 20
7.4455956581
 41
0.1875
 42
0.1875
 43
0.1875
 50
180.0
  0
ENDBLK
  5
409
100
AcDbEntity
  8
0
  6
BYBLOCK
 62
0
100
AcDbBlockEnd
  0
BLOCK
  5
40A
100
AcDbEntity
  8
0
100
AcDbBlockBegin
  2
_FILLED
 70
64
 10
0.0
 20
0.0
  3
_FILLED
  1

  0
SOLID
  5
40B
100
AcDbEntity
  8
0
  6
BYBLOCK
 62
0
100
AcDbTrace
 10
0.0
 20
0.0
 11
-1.0
 21
0.1666666667
 12
-1.0
 22
-0.1666666667
 13
-1.0
 23
-0.1666666667
  0
ENDBLK
  5
40C
100
AcDbEntity
  8
0
  6
BYBLOCK
 62
0
100
AcDbBlockEnd
  0
ENDSEC
  0
SECTION
  2
ENTITIES
  0
TEXT
  5
40D
100
AcDbEntity
  8
0
100
AcDbText
 62
2
  6
CONTINUOUS
 10
10.1487658475
 20
1.694867839
  7
STANDARD
 40
0.1
  1
%%uTHIRD ANGLE PROJECTION
 41
0.8
 72
1
 11
11.0287658475
 21
1.694867839
100
AcDbText
  0
TEXT
  5
40E
100
AcDbEntity
  8
0
100
AcDbText
 62
2
  6
CONTINUOUS
 10
12.88
 20
1.377
  7
STANDARD
 40
0.08
  1
DRAWING NO.
 41
1.0
 72
0
100
AcDbText
  0
TEXT
  5
40F
100
AcDbEntity
  8
0
100
AcDbText
 62
2
  6
CONTINUOUS
 10
10.044
 20
2.436432
  7
STANDARD
 40
0.08
  1
and is proprietary in general
 41
0.85
 72
1
 11
11.03
 21
2.436432
100
AcDbText
  0
TEXT
  5
410
100
AcDbEntity
  8
0
100
AcDbText
 62
2
  6
CONTINUOUS
 10
10.078
 20
2.316432
  7
STANDARD
 40
0.08
  1
and in detail.  Its contents
 41
0.85
 72
1
 11
11.03
 21
2.316432
100
AcDbText
  0
TEXT
  5
411
100
AcDbEntity
  8
0
100
AcDbText
 62
2
  6
CONTINUOUS
 10
10.214
 20
2.196432
  7
STANDARD
 40
0.08
  1
shall not be revealed to
 41
0.85
 72
1
 11
11.03
 21
2.196432
100
AcDbText
  0
TEXT
  5
412
100
AcDbEntity
  8
0
100
AcDbText
 62
2
  6
CONTINUOUS
 10
10.248
 20
2.076432
  7
STANDARD
 40
0.08
  1
outside parties without
 41
0.85
 72
1
 11
11.03
 21
2.076432
100
AcDbText
  0
TEXT
  5
413
100
AcDbEntity
  8
0
100
AcDbText
 62
2
  6
CONTINUOUS
 10
10.146
 20
1.956432
  7
STANDARD
 40
0.08
  1
written consent of BANNER.
 41
0.85
 72
1
 11
11.03
 21
1.956432
100
AcDbText
  0
TEXT
  5
414
100
AcDbEntity
  8
0
100
AcDbText
 62
2
  6
CONTINUOUS
 10
12.08
 20
2.117
  7
STANDARD
 40
0.1
  1
TITLE
 41
0.8
 72
0
100
AcDbText
  0
TEXT
  5
415
100
AcDbEntity
  8
0
100
AcDbText
 62
2
  6
CONTINUOUS
 10
12.08
 20
1.377
  7
STANDARD
 40
0.08
  1
SIZE
 41
1.0
 72
0
100
AcDbText
  0
TEXT
  5
416
100
AcDbEntity
  8
0
100
AcDbText
 62
2
  6
CONTINUOUS
 10
12.08
 20
1.007
  7
STANDARD
 40
0.08
  1
SCALE
 41
1.0
 72
0
100
AcDbText
  0
TEXT
  5
417
100
AcDbEntity
  8
0
100
AcDbText
 62
2
  6
CONTINUOUS
 10
12.46
 20
1.237
  7
STANDARD
 40
0.1
  1
B
 41
0.8
 72
1
 11
12.5
 21
1.237
100
AcDbText
  0
TEXT
  5
418
100
AcDbEntity
  8
0
100
AcDbText
 62
2
  6
CONTINUOUS
 10
10.112
 20
2.556432
  7
STANDARD
 40
0.08
  1
of BANNER ENGINEERING CORP.
 41
0.85
 72
1
 11
11.03
 21
2.556432
100
AcDbText
  0
TEXT
  5
419
100
AcDbEntity
  8
0
100
AcDbText
 62
2
  6
CONTINUOUS
 10
10.078
 20
2.676432
  7
STANDARD
 40
0.08
  1
This drawing is the property
 41
0.85
 72
1
 11
11.03
 21
2.676432
100
AcDbText
  0
TEXT
  5
41A
100
AcDbEntity
  8
0
100
AcDbText
 62
2
  6
CONTINUOUS
 10
14.19
 20
2.3134
  7
STANDARD
 40
0.1
  1
MINNEAPOLIS, MN 55440
 41
0.8
 72
1
 11
15.03
 21
2.3134
100
AcDbText
  0
TEXT
  5
41B
100
AcDbEntity
  8
0
100
AcDbText
 62
2
  6
CONTINUOUS
 10
14.255
 20
1.007
  7
STANDARD
 40
0.08
  1
SHEET
 41
1.0
 72
0
100
AcDbText
  0
TEXT
  5
41C
100
AcDbEntity
  8
0
100
AcDbText
 62
2
  6
CONTINUOUS
 10
15.63
 20
1.377
  7
STANDARD
 40
0.08
  1
REV.
 41
1.0
 72
0
100
AcDbText
  0
TEXT
  5
41D
100
AcDbEntity
  8
0
100
AcDbText
 62
2
  6
CONTINUOUS
 10
16.03
 20
0.765443
  7
STANDARD
 40
0.07
  1
PRO/E
 41
1.0
 72
2
 11
16.38
 21
0.765443
100
AcDbText
  0
TEXT
  5
41E
100
AcDbEntity
  8
0
100
AcDbText
 62
2
  6
CONTINUOUS
 10
13.7052
 20
2.631049
  7
STANDARD
 40
0.12
  1
BANNER ENGINEERING CORP.
 41
0.92
 72
1
 11
15.03
 21
2.631049
100
AcDbText
  0
TEXT
  5
41F
100
AcDbEntity
  8
0
100
AcDbText
 62
2
  6
CONTINUOUS
 10
14.51
 20
2.4724
  7
STANDARD
 40
0.1
  1
P.O. BOX 9414
 41
0.8
 72
1
 11
15.03
 21
2.4724
100
AcDbText
  0
TEXT
  5
420
100
AcDbEntity
  8
0
100
AcDbText
 62
2
  6
CONTINUOUS
 10
9.445
 20
10.212
  7
STANDARD
 40
0.1
  1
4
 41
0.8
 72
1
 11
9.485
 21
10.212
100
AcDbText
  0
TEXT
  5
421
100
AcDbEntity
  8
0
100
AcDbText
 62
2
  6
CONTINUOUS
 10
11.415
 20
10.212
  7
STANDARD
 40
0.1
  1
3
 41
0.8
 72
1
 11
11.455
 21
10.212
100
AcDbText
  0
TEXT
  5
422
100
AcDbEntity
  8
0
100
AcDbText
 62
2
  6
CONTINUOUS
 10
13.385
 20
10.212
  7
STANDARD
 40
0.1
  1
2
 41
0.8
 72
1
 11
13.425
 21
10.212
100
AcDbText
  0
TEXT
  5
423
100
AcDbEntity
  8
0
100
AcDbText
 62
2
  6
CONTINUOUS
 10
15.355
 20
10.212
  7
STANDARD
 40
0.1
  1
1
 41
0.8
 72
1
 11
15.395
 21
10.212
100
AcDbText
  0
TEXT
  5
424
100
AcDbEntity
  8
0
100
AcDbText
 62
2
  6
CONTINUOUS
 10
3.535
 20
10.212
  7
STANDARD
 40
0.1
  1
7
 41
0.8
 72
1
 11
3.575
 21
10.212
100
AcDbText
  0
TEXT
  5
425
100
AcDbEntity
  8
0
100
AcDbText
 62
2
  6
CONTINUOUS
 10
5.505
 20
10.212
  7
STANDARD
 40
0.1
  1
6
 41
0.8
 72
1
 11
5.545
 21
10.212
100
AcDbText
  0
TEXT
  5
426
100
AcDbEntity
  8
0
100
AcDbText
 62
2
  6
CONTINUOUS
 10
7.475
 20
10.212
  7
STANDARD
 40
0.1
  1
5
 41
0.8
 72
1
 11
7.515
 21
10.212
100
AcDbText
  0
TEXT
  5
427
100
AcDbEntity
  8
0
100
AcDbText
 62
2
  6
CONTINUOUS
 10
1.565
 20
10.212
  7
STANDARD
 40
0.1
  1
8
 41
0.8
 72
1
 11
1.605
 21
10.212
100
AcDbText
  0
TEXT
  5
428
100
AcDbEntity
  8
0
100
AcDbText
 62
2
  6
CONTINUOUS
 10
1.565
 20
0.687
  7
STANDARD
 40
0.1
  1
8
 41
0.8
 72
1
 11
1.605
 21
0.687
100
AcDbText
  0
TEXT
  5
429
100
AcDbEntity
  8
0
100
AcDbText
 62
2
  6
CONTINUOUS
 10
3.535
 20
0.687
  7
STANDARD
 40
0.1
  1
7
 41
0.8
 72
1
 11
3.575
 21
0.687
100
AcDbText
  0
TEXT
  5
42A
100
AcDbEntity
  8
0
100
AcDbText
 62
2
  6
CONTINUOUS
 10
5.505
 20
0.687
  7
STANDARD
 40
0.1
  1
6
 41
0.8
 72
1
 11
5.545
 21
0.687
100
AcDbText
  0
TEXT
  5
42B
100
AcDbEntity
  8
0
100
AcDbText
 62
2
  6
CONTINUOUS
 10
7.475
 20
0.687
  7
STANDARD
 40
0.1
  1
5
 41
0.8
 72
1
 11
7.515
 21
0.687
100
AcDbText
  0
TEXT
  5
42C
100
AcDbEntity
  8
0
100
AcDbText
 62
2
  6
CONTINUOUS
 10
9.445
 20
0.687
  7
STANDARD
 40
0.1
  1
4
 41
0.8
 72
1
 11
9.485
 21
0.687
100
AcDbText
  0
TEXT
  5
42D
100
AcDbEntity
  8
0
100
AcDbText
 62
2
  6
CONTINUOUS
 10
11.415
 20
0.687
  7
STANDARD
 40
0.1
  1
3
 41
0.8
 72
1
 11
11.455
 21
0.687
100
AcDbText
  0
TEXT
  5
42E
100
AcDbEntity
  8
0
100
AcDbText
 62
2
  6
CONTINUOUS
 10
13.385
 20
0.687
  7
STANDARD
 40
0.1
  1
2
 41
0.8
 72
1
 11
13.425
 21
0.687
100
AcDbText
  0
TEXT
  5
42F
100
AcDbEntity
  8
0
100
AcDbText
 62
2
  6
CONTINUOUS
 10
15.355
 20
0.687
  7
STANDARD
 40
0.1
  1
1
 41
0.8
 72
1
 11
15.395
 21
0.687
100
AcDbText
  0
TEXT
  5
430
100
AcDbEntity
  8
0
100
AcDbText
 62
2
  6
CONTINUOUS
 10
0.44
 20
4.2995
  7
STANDARD
 40
0.1
  1
B
 41
0.8
 72
2
 11
0.52
 21
4.2995
100
AcDbText
  0
TEXT
  5
431
100
AcDbEntity
  8
0
100
AcDbText
 62
2
  6
CONTINUOUS
 10
0.44
 20
1.9995
  7
STANDARD
 40
0.1
  1
A
 41
0.8
 72
2
 11
0.52
 21
1.9995
100
AcDbText
  0
TEXT
  5
432
100
AcDbEntity
  8
0
100
AcDbText
 62
2
  6
CONTINUOUS
 10
0.44
 20
8.8995
  7
STANDARD
 40
0.1
  1
D
 41
0.8
 72
2
 11
0.52
 21
8.8995
100
AcDbText
  0
TEXT
  5
433
100
AcDbEntity
  8
0
100
AcDbText
 62
2
  6
CONTINUOUS
 10
0.44
 20
6.5995
  7
STANDARD
 40
0.1
  1
C
 41
0.8
 72
2
 11
0.52
 21
6.5995
100
AcDbText
  0
TEXT
  5
434
100
AcDbEntity
  8
0
100
AcDbText
 62
2
  6
CONTINUOUS
 10
16.48
 20
8.8995
  7
STANDARD
 40
0.1
  1
D
 41
0.8
 72
0
100
AcDbText
  0
TEXT
  5
435
100
AcDbEntity
  8
0
100
AcDbText
 62
2
  6
CONTINUOUS
 10
16.48
 20
6.5995
  7
STANDARD
 40
0.1
  1
C
 41
0.8
 72
0
100
AcDbText
  0
TEXT
  5
436
100
AcDbEntity
  8
0
100
AcDbText
 62
2
  6
CONTINUOUS
 10
16.48
 20
4.2995
  7
STANDARD
 40
0.1
  1
B
 41
0.8
 72
0
100
AcDbText
  0
TEXT
  5
437
100
AcDbEntity
  8
0
100
AcDbText
 62
2
  6
CONTINUOUS
 10
16.48
 20
1.9995
  7
STANDARD
 40
0.1
  1
A
 41
0.8
 72
0
100
AcDbText
  0
MTEXT
  5
438
100
AcDbEntity
  8
0
100
AcDbMText
 62
2
  6
CONTINUOUS
  7
STANDARD
 71
1
 72
1
 10
14.819264911
 20
1.0627941725
 30
0.0
 11
1.0
 21
0.0
 31
0.0
  1
1 OF 1
 40
0.1
 41
0.6
  0
TEXT
  5
439
100
AcDbEntity
  8
0
100
AcDbText
 62
7
  6
CONTINUOUS
 10
13.8911999818
 20
1.2547321586
  7
STANDARD
 40
0.12
  1
144868
 41
1.0
 72
0
100
AcDbText
  0
TEXT
  5
43A
100
AcDbEntity
  8
0
100
AcDbText
 62
2
  6
CONTINUOUS
 10
12.644264911
 20
0.9627941725
  7
STANDARD
 40
0.1
  1
1:1
 41
1.0
 72
0
100
AcDbText
  0
MTEXT
  5
43B
100
AcDbEntity
  8
0
100
AcDbMText
 62
2
  6
CONTINUOUS
  7
STANDARD
 71
1
 72
1
 10
1.0597007627
 20
1.6202922458
 30
0.0
 11
1.0
 21
0.0
 31
0.0
  1
NOTES:\P1. ALL DIMENSIONS ARE MILLIMETERS [INCHES] UNLESS OTHERWISE NOTED.
 40
0.1
 41
6.6
  0
INSERT
  5
43C
100
AcDbEntity
  8
0
100
AcDbBlockReference
 62
2
  6
CONTINUOUS
  2
BANNER_LOGO_TITLEBLOCK_BL0
 10
12.9046655056
 20
2.5403783448
  0
DIMENSION
  5
43D
100
AcDbEntity
  8
SCHEME_DIMS
100
AcDbDimension
 62
2
  6
CONTINUOUS
  2
*D0
 10
3.6132807157
 20
5.1015641413
 11
4.4398824434
 21
4.6630060196
 70
163
 42
50.0
  1
<>
  3
DIMSTYLE_1
100
AcDbDiametricDimension
 15
2.6289067843
 25
6.8062681371
  0
DIMENSION
  5
43E
100
AcDbEntity
  8
SCHEME_DIMS
100
AcDbDimension
 62
2
  6
CONTINUOUS
  2
*D1
 10
6.3443682722
 20
8.4814446677
 11
7.6829509494
 21
8.4064446677
 70
160
 42
68.0
  3
DIMSTYLE_2
100
AcDbAlignedDimension
 13
9.0215336265
 23
6.2201562967
 14
6.3443682722
 24
6.4404383012
 50
180.0
100
AcDbRotatedDimension
  0
DIMENSION
  5
43F
100
AcDbEntity
  8
SCHEME_DIMS
100
AcDbDimension
 62
2
  6
CONTINUOUS
  2
*D2
 10
6.3443682722
 20
7.9805214627
 11
7.4664155163
 21
7.9055214627
 70
160
 42
57.0
  3
DIMSTYLE_2
100
AcDbAlignedDimension
 13
8.5884627604
 23
6.5183846432
 14
6.3443682722
 24
6.4404383012
 50
180.0
100
AcDbRotatedDimension
  0
DIMENSION
  5
440
100
AcDbEntity
  8
SCHEME_DIMS
100
AcDbDimension
 62
2
  6
CONTINUOUS
  2
*D3
 10
6.3443682722
 20
7.4455956581
 11
7.0727147289
 21
7.3705956581
 70
160
 42
37.0
  3
DIMSTYLE_2
100
AcDbAlignedDimension
 13
7.8010611856
 23
6.9612980197
 14
6.3443682722
 24
6.4404383012
 50
180.0
100
AcDbRotatedDimension
  0
LINE
  5
441
100
AcDbEntity
  8
0
100
AcDbLine
 62
2
  6
CONTINUOUS
 10
16.38
 20
0.887
 11
12.03
 21
0.887
  0
LINE
  5
442
100
AcDbEntity
  8
0
100
AcDbLine
 62
2
  6
CONTINUOUS
 10
16.38
 20
0.887
 11
16.38
 21
2.807
  0
LINE
  5
443
100
AcDbEntity
  8
0
100
AcDbLine
 62
2
  6
CONTINUOUS
 10
16.38
 20
2.807
 11
12.03
 21
2.807
  0
LINE
  5
444
100
AcDbEntity
  8
0
100
AcDbLine
 62
2
  6
CONTINUOUS
 10
12.03
 20
0.887
 11
12.03
 21
2.807
  0
TEXT
  5
445
100
AcDbEntity
  8
0
100
AcDbText
 62
7
  6
CONTINUOUS
 10
16.105
 20
1.267
  7
STANDARD
 40
0.1
  1
-
 41
1.0
 72
1
 11
16.155
 21
1.267
100
AcDbText
  0
MTEXT
  5
446
100
AcDbEntity
  8
0
100
AcDbMText
 62
7
  6
CONTINUOUS
  7
STANDARD
 71
2
 72
1
 10
14.205
 20
1.967
 30
0.0
 11
1.0
 21
0.0
 31
0.0
  1
K50L AUDIBLE QD\PWEB CAD DRAWINGS 2D/3D
 40
0.1
 41
2.2
  0
TEXT
  5
447
100
AcDbEntity
  8
NOTES
100
AcDbText
 62
2
  6
CONTINUOUS
 10
8.7796974837
 20
4.2244180282
  7
STANDARD
 40
0.1
  1
M30 X 1.5
 41
1.0
 72
0
100
AcDbText
  0
LINE
  5
448
100
AcDbEntity
  8
NOTES
100
AcDbLine
 62
2
  6
CONTINUOUS
 10
8.2365667158
 20
5.4125775566
 11
8.5296974837
 21
4.2744180282
  0
LINE
  5
449
100
AcDbEntity
  8
NOTES
100
AcDbLine
 62
2
  6
CONTINUOUS
 10
8.5296974837
 20
4.2744180282
 11
8.7796974837
 21
4.2744180282
  0
SOLID
  5
44A
100
AcDbEntity
  8
NOTES
100
AcDbTrace
 62
2
  6
CONTINUOUS
 10
8.3135933616
 20
5.2387969237
 11
8.2365667158
 21
5.4125775566
 12
8.2530684728
 22
5.2232088566
 13
8.2530684728
 23
5.2232088566
  0
TEXT
  5
44B
100
AcDbEntity
  8
NOTES
100
AcDbText
 62
2
  6
CONTINUOUS
 10
9.300488903
 20
4.7226944839
  7
STANDARD
 40
0.1
  1
M12 X 1
 41
1.0
 72
0
100
AcDbText
  0
LINE
  5
44C
100
AcDbEntity
  8
NOTES
100
AcDbLine
 62
2
  6
CONTINUOUS
 10
8.8237006976
 20
5.7126414144
 11
9.050488903
 21
4.7726944839
  0
LINE
  5
44D
100
AcDbEntity
  8
NOTES
100
AcDbLine
 62
2
  6
CONTINUOUS
 10
9.050488903
 20
4.7726944839
 11
9.300488903
 21
4.7726944839
  0
SOLID
  5
44E
100
AcDbEntity
  8
NOTES
100
AcDbTrace
 62
2
  6
CONTINUOUS
 10
8.8980565646
 20
5.5377013745
 11
8.8237006976
 21
5.7126414144
 12
8.8373000183
 22
5.5230421766
 13
8.8373000183
 23
5.5230421766
  0
MTEXT
  5
44F
100
AcDbEntity
  8
NOTES
100
AcDbMText
 62
2
  6
CONTINUOUS
  7
STANDARD
 71
2
 72
1
 10
14.8094343354
 20
6.8254701251
 30
0.0
 11
1.0
 21
0.0
 31
0.0
  1
ISOMETRIC VIEW\P\H0.1;SCALE  1:1
 40
0.12
 41
1.68
  0
LINE
  5
450
100
AcDbEntity
  8
0
100
AcDbLine
 62
2
  6
CONTINUOUS
 10
0.47
 20
5.586103
 11
0.47
 21
5.412897
  0
LINE
  5
451
100
AcDbEntity
  8
0
100
AcDbLine
 62
2
  6
CONTINUOUS
 10
0.62
 20
10.112
 11
0.62
 21
0.887
  0
LINE
  5
452
100
AcDbEntity
  8
0
100
AcDbLine
 62
2
  6
CONTINUOUS
 10
2.59
 20
0.887
 11
2.59
 21
0.637
  0
LINE
  5
453
100
AcDbEntity
  8
0
100
AcDbLine
 62
2
  6
CONTINUOUS
 10
2.59
 20
10.112
 11
2.59
 21
10.362
  0
LINE
  5
454
100
AcDbEntity
  8
0
100
AcDbLine
 62
2
  6
CONTINUOUS
 10
8.413397
 20
0.737
 11
8.586603
 21
0.737
  0
LINE
  5
455
100
AcDbEntity
  8
0
100
AcDbLine
 62
7
  6
CONTINUOUS
 10
11.1389508475
 20
1.425992839
 11
11.7453418475
 21
1.495385839
  0
LINE
  5
456
100
AcDbEntity
  8
0
100
AcDbLine
 62
2
  6
CONTINUOUS
 10
0.62
 20
0.887
 11
16.38
 21
0.887
  0
LINE
  5
457
100
AcDbEntity
  8
0
100
AcDbLine
 62
2
  6
CONTINUOUS
 10
12.03
 20
1.137
 11
16.38
 21
1.137
  0
LINE
  5
458
100
AcDbEntity
  8
0
100
AcDbLine
 62
7
  6
CONTINUOUS
 10
10.2121898475
 20
1.243294839
 11
10.4342808475
 21
1.243294839
  0
LINE
  5
459
100
AcDbEntity
  8
0
100
AcDbLine
 62
7
  6
CONTINUOUS
 10
10.4842808475
 20
1.243294839
 11
10.5842808475
 21
1.243294839
  0
LINE
  5
45A
100
AcDbEntity
  8
0
100
AcDbLine
 62
7
  6
CONTINUOUS
 10
10.6342808475
 20
1.243294839
 11
10.8563718475
 21
1.243294839
  0
LINE
  5
45B
100
AcDbEntity
  8
0
100
AcDbLine
 62
7
  6
CONTINUOUS
 10
11.0389508475
 20
1.243294839
 11
11.3171028475
 21
1.243294839
  0
LINE
  5
45C
100
AcDbEntity
  8
0
100
AcDbLine
 62
7
  6
CONTINUOUS
 10
11.3671028475
 20
1.243294839
 11
11.5171888475
 21
1.243294839
  0
LINE
  5
45D
100
AcDbEntity
  8
0
100
AcDbLine
 62
7
  6
CONTINUOUS
 10
11.5671888475
 20
1.243294839
 11
11.8453418475
 21
1.243294839
  0
LINE
  5
45E
100
AcDbEntity
  8
0
100
AcDbLine
 62
7
  6
CONTINUOUS
 10
11.7453418475
 20
0.991203839
 11
11.1389508475
 21
1.060596839
  0
LINE
  5
45F
100
AcDbEntity
  8
0
100
AcDbLine
 62
2
  6
CONTINUOUS
 10
4.56
 20
0.887
 11
4.56
 21
0.637
  0
LINE
  5
460
100
AcDbEntity
  8
0
100
AcDbLine
 62
2
  6
CONTINUOUS
 10
4.56
 20
10.112
 11
4.56
 21
10.362
  0
LINE
  5
461
100
AcDbEntity
  8
0
100
AcDbLine
 62
2
  6
CONTINUOUS
 10
0.47
 20
5.412897
 11
0.62
 21
5.4995
  0
LINE
  5
462
100
AcDbEntity
  8
0
100
AcDbLine
 62
2
  6
CONTINUOUS
 10
12.03
 20
1.507
 11
16.38
 21
1.507
  0
LINE
  5
463
100
AcDbEntity
  8
0
100
AcDbLine
 62
2
  6
CONTINUOUS
 10
10.03
 20
1.907
 11
12.03
 21
1.907
  0
LINE
  5
464
100
AcDbEntity
  8
0
100
AcDbLine
 62
2
  6
CONTINUOUS
 10
0.62
 20
5.4995
 11
0.47
 21
5.586103
  0
LINE
  5
465
100
AcDbEntity
  8
0
100
AcDbLine
 62
2
  6
CONTINUOUS
 10
12.03
 20
2.267
 11
16.38
 21
2.267
  0
LINE
  5
466
100
AcDbEntity
  8
0
100
AcDbLine
 62
2
  6
CONTINUOUS
 10
8.5
 20
10.112
 11
8.586603
 21
10.262
  0
LINE
  5
467
100
AcDbEntity
  8
0
100
AcDbLine
 62
2
  6
CONTINUOUS
 10
16.38
 20
2.807
 11
10.03
 21
2.807
  0
LINE
  5
468
100
AcDbEntity
  8
0
100
AcDbLine
 62
2
  6
CONTINUOUS
 10
0.62
 20
3.1995
 11
0.37
 21
3.1995
  0
LINE
  5
469
100
AcDbEntity
  8
0
100
AcDbLine
 62
2
  6
CONTINUOUS
 10
16.38
 20
3.1995
 11
16.63
 21
3.1995
  0
LINE
  5
46A
100
AcDbEntity
  8
0
100
AcDbLine
 62
2
  6
CONTINUOUS
 10
8.586603
 20
0.737
 11
8.5
 21
0.887
  0
LINE
  5
46B
100
AcDbEntity
  8
0
100
AcDbLine
 62
2
  6
CONTINUOUS
 10
6.53
 20
0.887
 11
6.53
 21
0.637
  0
LINE
  5
46C
100
AcDbEntity
  8
0
100
AcDbLine
 62
2
  6
CONTINUOUS
 10
6.53
 20
10.112
 11
6.53
 21
10.362
  0
LINE
  5
46D
100
AcDbEntity
  8
0
100
AcDbLine
 62
2
  6
CONTINUOUS
 10
8.5
 20
0.887
 11
8.5
 21
0.637
  0
LINE
  5
46E
100
AcDbEntity
  8
0
100
AcDbLine
 62
2
  6
CONTINUOUS
 10
8.5
 20
10.112
 11
8.5
 21
10.362
  0
LINE
  5
46F
100
AcDbEntity
  8
0
100
AcDbLine
 62
2
  6
CONTINUOUS
 10
0.62
 20
5.4995
 11
0.37
 21
5.4995
  0
LINE
  5
470
100
AcDbEntity
  8
0
100
AcDbLine
 62
2
  6
CONTINUOUS
 10
16.38
 20
5.4995
 11
16.63
 21
5.4995
  0
LINE
  5
471
100
AcDbEntity
  8
0
100
AcDbLine
 62
2
  6
CONTINUOUS
 10
10.03
 20
2.807
 11
10.03
 21
0.887
  0
LINE
  5
472
100
AcDbEntity
  8
0
100
AcDbLine
 62
2
  6
CONTINUOUS
 10
10.47
 20
0.887
 11
10.47
 21
0.637
  0
LINE
  5
473
100
AcDbEntity
  8
0
100
AcDbLine
 62
2
  6
CONTINUOUS
 10
10.47
 20
10.112
 11
10.47
 21
10.362
  0
LINE
  5
474
100
AcDbEntity
  8
0
100
AcDbLine
 62
7
  6
CONTINUOUS
 10
10.5342808475
 20
1.143294839
 11
10.5342808475
 21
0.921203839
  0
LINE
  5
475
100
AcDbEntity
  8
0
100
AcDbLine
 62
7
  6
CONTINUOUS
 10
10.5342808475
 20
1.193294839
 11
10.5342808475
 21
1.293294839
  0
LINE
  5
476
100
AcDbEntity
  8
0
100
AcDbLine
 62
7
  6
CONTINUOUS
 10
10.5342808475
 20
1.343294839
 11
10.5342808475
 21
1.565385839
  0
LINE
  5
477
100
AcDbEntity
  8
0
100
AcDbLine
 62
2
  6
CONTINUOUS
 10
8.5
 20
0.887
 11
8.413397
 21
0.737
  0
LINE
  5
478
100
AcDbEntity
  8
0
100
AcDbLine
 62
2
  6
CONTINUOUS
 10
0.62
 20
7.7995
 11
0.37
 21
7.7995
  0
LINE
  5
479
100
AcDbEntity
  8
0
100
AcDbLine
 62
2
  6
CONTINUOUS
 10
16.38
 20
7.7995
 11
16.63
 21
7.7995
  0
LINE
  5
47A
100
AcDbEntity
  8
0
100
AcDbLine
 62
2
  6
CONTINUOUS
 10
8.413397
 20
10.262
 11
8.5
 21
10.112
  0
LINE
  5
47B
100
AcDbEntity
  8
0
100
AcDbLine
 62
7
  6
CONTINUOUS
 10
11.1389508475
 20
1.060596839
 11
11.1389508475
 21
1.425992839
  0
LINE
  5
47C
100
AcDbEntity
  8
0
100
AcDbLine
 62
7
  6
CONTINUOUS
 10
11.7453418475
 20
1.495385839
 11
11.7453418475
 21
0.991203839
  0
LINE
  5
47D
100
AcDbEntity
  8
0
100
AcDbLine
 62
1
  6
CONTINUOUS
 10
12.03
 20
2.807
 11
12.03
 21
0.887
  0
LINE
  5
47E
100
AcDbEntity
  8
0
100
AcDbLine
 62
2
  6
CONTINUOUS
 10
12.44
 20
0.887
 11
12.44
 21
0.637
  0
LINE
  5
47F
100
AcDbEntity
  8
0
100
AcDbLine
 62
2
  6
CONTINUOUS
 10
12.44
 20
10.112
 11
12.44
 21
10.362
  0
LINE
  5
480
100
AcDbEntity
  8
0
100
AcDbLine
 62
2
  6
CONTINUOUS
 10
16.53
 20
5.586103
 11
16.38
 21
5.4995
  0
LINE
  5
481
100
AcDbEntity
  8
0
100
AcDbLine
 62
2
  6
CONTINUOUS
 10
16.38
 20
5.4995
 11
16.53
 21
5.412897
  0
LINE
  5
482
100
AcDbEntity
  8
0
100
AcDbLine
 62
2
  6
CONTINUOUS
 10
12.83
 20
1.507
 11
12.83
 21
1.137
  0
LINE
  5
483
100
AcDbEntity
  8
0
100
AcDbLine
 62
2
  6
CONTINUOUS
 10
16.38
 20
10.112
 11
0.62
 21
10.112
  0
LINE
  5
484
100
AcDbEntity
  8
0
100
AcDbLine
 62
2
  6
CONTINUOUS
 10
8.586603
 20
10.262
 11
8.413397
 21
10.262
  0
LINE
  5
485
100
AcDbEntity
  8
0
100
AcDbLine
 62
2
  6
CONTINUOUS
 10
14.205
 20
1.137
 11
14.205
 21
0.887
  0
LINE
  5
486
100
AcDbEntity
  8
0
100
AcDbLine
 62
2
  6
CONTINUOUS
 10
14.41
 20
0.887
 11
14.41
 21
0.637
  0
LINE
  5
487
100
AcDbEntity
  8
0
100
AcDbLine
 62
2
  6
CONTINUOUS
 10
14.41
 20
10.112
 11
14.41
 21
10.362
  0
LINE
  5
488
100
AcDbEntity
  8
0
100
AcDbLine
 62
2
  6
CONTINUOUS
 10
15.58
 20
1.507
 11
15.58
 21
1.137
  0
LINE
  5
489
100
AcDbEntity
  8
0
100
AcDbLine
 62
2
  6
CONTINUOUS
 10
16.38
 20
0.887
 11
16.38
 21
10.112
  0
LINE
  5
48A
100
AcDbEntity
  8
0
100
AcDbLine
 62
2
  6
CONTINUOUS
 10
16.53
 20
5.412897
 11
16.53
 21
5.586103
  0
LINE
  5
48B
100
AcDbEntity
  8
AXIS
100
AcDbLine
 62
7
  6
CONTINUOUS
 10
3.1014087106
 20
6.1330700864
 11
3.1014087106
 21
6.2098216511
  0
LINE
  5
48C
100
AcDbEntity
  8
AXIS
100
AcDbLine
 62
7
  6
CONTINUOUS
 10
3.1014087106
 20
6.2491917298
 11
3.1014087106
 21
6.3259432945
  0
LINE
  5
48D
100
AcDbEntity
  8
02___PRT_ALL_AXES
100
AcDbLine
 62
7
  6
CENTER
 10
3.12109375
 20
5.9539161392
 11
3.12109375
 21
4.8696641707
  0
LINE
  5
48E
100
AcDbEntity
  8
02___PRT_ALL_AXES
100
AcDbLine
 62
7
  6
CENTER
 10
3.12109375
 20
5.9539161392
 11
3.12109375
 21
7.0381681077
  0
LINE
  5
48F
100
AcDbEntity
  8
02___PRT_ALL_AXES
100
AcDbLine
 62
7
  6
CENTER
 10
3.12109375
 20
5.9539161392
 11
2.0368417815
 21
5.9539161392
  0
LINE
  5
490
100
AcDbEntity
  8
02___PRT_ALL_AXES
100
AcDbLine
 62
7
  6
CENTER
 10
3.12109375
 20
5.9539161392
 11
4.2053457185
 21
5.9539161392
  0
LINE
  5
491
100
AcDbEntity
  8
AXIS
100
AcDbLine
 62
7
  6
CONTINUOUS
 10
3.1407787894
 20
6.3259432945
 11
3.1407787894
 21
6.2491917298
  0
LINE
  5
492
100
AcDbEntity
  8
AXIS
100
AcDbLine
 62
7
  6
CONTINUOUS
 10
3.1407787894
 20
6.2098216511
 11
3.1407787894
 21
6.1330700864
  0
LINE
  5
493
100
AcDbEntity
  8
AXIS
100
AcDbLine
 62
7
  6
CONTINUOUS
 10
3.217530354
 20
6.2098216511
 11
3.1407787894
 21
6.2098216511
  0
LINE
  5
494
100
AcDbEntity
  8
AXIS
100
AcDbLine
 62
7
  6
CONTINUOUS
 10
3.1014087106
 20
6.2098216511
 11
3.024657146
 21
6.2098216511
  0
LINE
  5
495
100
AcDbEntity
  8
AXIS
100
AcDbLine
 62
7
  6
CONTINUOUS
 10
3.024657146
 20
6.2491917298
 11
3.1014087106
 21
6.2491917298
  0
LINE
  5
496
100
AcDbEntity
  8
AXIS
100
AcDbLine
 62
7
  6
CONTINUOUS
 10
3.1407787894
 20
6.2491917298
 11
3.217530354
 21
6.2491917298
  0
LINE
  5
497
100
AcDbEntity
  8
0
100
AcDbLine
 62
7
  6
CONTINUOUS
 10
6.3443682722
 20
6.3779383013
 11
6.3443682722
 21
5.5298939772
  0
LINE
  5
498
100
AcDbEntity
  8
0
100
AcDbLine
 62
9
  6
CONTINUOUS
 10
6.3829365342
 20
6.4173002142
 11
6.3829365342
 21
5.4905320643
  0
LINE
  5
499
100
AcDbEntity
  8
0
100
AcDbLine
 62
7
  6
CONTINUOUS
 10
6.4215350556
 20
5.4893492101
 11
6.4215350556
 21
6.4184830684
  0
LINE
  5
49A
100
AcDbEntity
  8
02___PRT_ALL_AXES
100
AcDbLine
 62
7
  6
CONTINUOUS
 10
7.289250162
 20
4.9696641707
 11
7.7616911068
 21
4.9696641707
  0
LINE
  5
49B
100
AcDbEntity
  8
0
100
AcDbLine
 62
7
  6
CONTINUOUS
 10
7.8404312643
 20
5.4125775566
 11
7.9227718613
 21
5.4125775566
  0
LINE
  5
49C
100
AcDbEntity
  8
02___PRT_ALL_AXES
100
AcDbLine
 62
7
  6
CONTINUOUS
 10
7.9227718613
 20
5.4125775566
 11
8.5025644001
 21
5.4125775566
  0
LINE
  5
49D
100
AcDbEntity
  8
0
100
AcDbLine
 62
7
  6
CONTINUOUS
 10
8.5025644001
 20
5.4125775566
 11
8.5490926817
 21
5.4125775566
  0
LINE
  5
49E
100
AcDbEntity
  8
AXIS
100
AcDbLine
 62
7
  6
CONTINUOUS
 10
6.4215431309
 20
5.4897456336
 11
6.3829365342
 21
5.4905320643
  0
LINE
  5
49F
100
AcDbEntity
  8
02___PRT_ALL_AXES
100
AcDbLine
 62
7
  6
CONTINUOUS
 10
7.289250162
 20
6.9381681077
 11
7.289250162
 21
4.9696641707
  0
LINE
  5
4A0
100
AcDbEntity
  8
02___PRT_ALL_AXES
100
AcDbLine
 62
7
  6
CONTINUOUS
 10
8.6036433031
 20
5.7096444857
 11
8.6278328391
 21
5.7096444857
  0
LINE
  5
4A1
100
AcDbEntity
  8
02___PRT_ALL_AXES
100
AcDbLine
 62
7
  6
CONTINUOUS
 10
8.66326591
 20
5.7096444857
 11
8.6672029179
 21
5.7096444857
  0
LINE
  5
4A2
100
AcDbEntity
  8
02___PRT_ALL_AXES
100
AcDbLine
 62
7
  6
CONTINUOUS
 10
8.7026359887
 20
5.7096444857
 11
8.7065729966
 21
5.7096444857
  0
LINE
  5
4A3
100
AcDbEntity
  8
02___PRT_ALL_AXES
100
AcDbLine
 62
7
  6
CONTINUOUS
 10
8.7420060675
 20
5.7096444857
 11
8.7459430754
 21
5.7096444857
  0
LINE
  5
4A4
100
AcDbEntity
  8
02___PRT_ALL_AXES
100
AcDbLine
 62
7
  6
CONTINUOUS
 10
8.7813761462
 20
5.7096444857
 11
8.7853131541
 21
5.7096444857
  0
LINE
  5
4A5
100
AcDbEntity
  8
02___PRT_ALL_AXES
100
AcDbLine
 62
7
  6
CONTINUOUS
 10
8.820746225
 20
5.7096444857
 11
8.8246832328
 21
5.7096444857
  0
LINE
  5
4A6
100
AcDbEntity
  8
02___PRT_ALL_AXES
100
AcDbLine
 62
7
  6
CONTINUOUS
 10
8.8601163037
 20
5.7096444857
 11
8.8640533116
 21
5.7096444857
  0
LINE
  5
4A7
100
AcDbEntity
  8
02___PRT_ALL_AXES
100
AcDbLine
 62
7
  6
CONTINUOUS
 10
8.8994863824
 20
5.7096444857
 11
8.9034233903
 21
5.7096444857
  0
LINE
  5
4A8
100
AcDbEntity
  8
02___PRT_ALL_AXES
100
AcDbLine
 62
7
  6
CONTINUOUS
 10
8.9388564612
 20
5.7096444857
 11
8.9427934691
 21
5.7096444857
  0
LINE
  5
4A9
100
AcDbEntity
  8
0
100
AcDbLine
 62
7
  6
CONTINUOUS
 10
8.9821635478
 20
5.7501759818
 11
9.0215336265
 21
5.7501759818
  0
LINE
  5
4AA
100
AcDbEntity
  8
AXIS
100
AcDbLine
 62
7
  6
CENTER
 10
6.2049981935
 20
5.9539161392
 11
9.1196318434
 21
5.9539161392
  0
LINE
  5
4AB
100
AcDbEntity
  8
0
100
AcDbLine
 62
9
  6
CONTINUOUS
 10
7.7616911068
 20
4.9696641707
 11
7.7616911068
 21
6.9381681077
  0
LINE
  5
4AC
100
AcDbEntity
  8
0
100
AcDbLine
 62
7
  6
CONTINUOUS
 10
7.8010611856
 20
5.0090342495
 11
7.8010611856
 21
6.898798029
  0
LWPOLYLINE
  5
4AD
100
AcDbEntity
  8
02___PRT_ALL_AXES
100
AcDbPolyline
 62
7
  6
CONTINUOUS
 90
10
 70
0
 10
7.9083381685
 20
6.0385418522
 10
7.911210435
 20
5.8707581609
 10
7.9126463838
 20
5.7888057141
 10
7.914087321
 20
5.7104371682
 10
7.9155465431
 20
5.6369022817
 10
7.9170078924
 20
5.5709036155
 10
7.9184526404
 20
5.5147329184
 10
7.9198817177
 20
5.4693561652
 10
7.9213220362
 20
5.4349376579
 10
7.9227718613
 20
5.4125775566
  0
LINE
  5
4AE
100
AcDbEntity
  8
0
100
AcDbLine
 62
9
  6
CONTINUOUS
 10
7.8404312643
 20
6.4952547219
 11
7.8404312643
 21
5.4125775566
  0
LINE
  5
4AF
100
AcDbEntity
  8
0
100
AcDbLine
 62
7
  6
CONTINUOUS
 10
8.9540365763
 20
6.1906336083
 11
8.9542183856
 21
6.1906999381
  0
LINE
  5
4B0
100
AcDbEntity
  8
0
100
AcDbLine
 62
7
  6
CONTINUOUS
 10
8.9821635478
 20
6.1576562967
 11
9.0215336265
 21
6.1576562967
  0
LINE
  5
4B1
100
AcDbEntity
  8
0
100
AcDbLine
 62
7
  6
CONTINUOUS
 10
8.9665063065
 20
5.72968214
 11
8.9666981995
 21
5.7296121571
  0
LWPOLYLINE
  5
4B2
100
AcDbEntity
  8
02___PRT_ALL_AXES
100
AcDbPolyline
 62
7
  6
CONTINUOUS
 90
9
 70
0
 10
7.8968020656
 20
6.4952547219
 10
7.8982361855
 20
6.473204092
 10
7.8996680485
 20
6.4391497607
 10
7.9011020204
 20
6.3937811184
 10
7.9025461361
 20
6.337766938
 10
7.90400743
 20
6.2718865184
 10
7.9054667473
 20
6.1984393494
 10
7.9069078743
 20
6.1201266736
 10
7.9083381685
 20
6.0385418522
  0
LWPOLYLINE
  5
4B3
100
AcDbEntity
  8
02___PRT_ALL_AXES
100
AcDbPolyline
 62
7
  6
CONTINUOUS
 90
10
 70
0
 10
7.9710683371
 20
5.4125775566
 10
7.969618512
 20
5.4349376579
 10
7.9681781935
 20
5.4693561652
 10
7.9667491162
 20
5.5147329184
 10
7.9653043682
 20
5.5709036155
 10
7.9638430189
 20
5.6369022817
 10
7.9623837968
 20
5.7104371682
 10
7.9609428596
 20
5.7888057141
 10
7.9595069108
 20
5.8707581609
 10
7.9566346443
 20
6.0385418522
  0
LWPOLYLINE
  5
4B4
100
AcDbEntity
  8
02___PRT_ALL_AXES
100
AcDbPolyline
 62
7
  6
CONTINUOUS
 90
9
 70
0
 10
7.9558571837
 20
6.4952547219
 10
7.9573178574
 20
6.4726800037
 10
7.9587740597
 20
6.4377270314
 10
7.9602123238
 20
6.3918233827
 10
7.9616456674
 20
6.3358935486
 10
7.9630814244
 20
6.2709816856
 10
7.9645105451
 20
6.1990341294
 10
7.9659414333
 20
6.1213316687
 10
7.967382753
 20
6.0391522019
  0
LWPOLYLINE
  5
4B5
100
AcDbEntity
  8
02___PRT_ALL_AXES
100
AcDbPolyline
 62
7
  6
CONTINUOUS
 90
9
 70
0
 10
8.0301234552
 20
5.4125775566
 10
8.028662803
 20
5.4351518502
 10
8.0272065434
 20
5.4701062523
 10
8.0257682137
 20
5.5160125057
 10
8.0243346989
 20
5.5719502556
 10
8.0228985616
 20
5.6368819113
 10
8.021469502
 20
5.7088292358
 10
8.020038772
 20
5.7865248358
 10
8.0185975105
 20
5.8687018291
  0
LWPOLYLINE
  5
4B6
100
AcDbEntity
  8
02___PRT_ALL_AXES
100
AcDbPolyline
 62
7
  6
CONTINUOUS
 90
7
 70
0
 10
7.9412911253
 20
5.4125775566
 10
7.9398182094
 20
5.4544806283
 10
7.9383452936
 20
5.508623969
 10
7.9368723778
 20
5.5736806222
 10
7.9353994619
 20
5.6480561663
 10
7.9339265461
 20
5.7299277898
 10
7.9324536302
 20
5.8172889662
  0
LWPOLYLINE
  5
4B7
100
AcDbEntity
  8
02___PRT_ALL_AXES
100
AcDbPolyline
 62
7
  6
CONTINUOUS
 90
7
 70
0
 10
7.9486730151
 20
5.4125775566
 10
7.9472000992
 20
5.4544806283
 10
7.9457271834
 20
5.508623969
 10
7.9442542675
 20
5.5736806222
 10
7.9427813517
 20
5.6480561663
 10
7.9413084358
 20
5.7299277898
 10
7.93983552
 20
5.8172889662
  0
LWPOLYLINE
  5
4B8
100
AcDbEntity
  8
02___PRT_ALL_AXES
100
AcDbPolyline
 62
7
  6
CONTINUOUS
 90
7
 70
0
 10
8.0003462434
 20
5.4125775566
 10
7.9988733276
 20
5.4544806283
 10
7.9974004117
 20
5.508623969
 10
7.9959274959
 20
5.5736806223
 10
7.99445458
 20
5.6480561663
 10
7.9929816642
 20
5.7299277898
 10
7.9915087483
 20
5.8172889662
  0
LWPOLYLINE
  5
4B9
100
AcDbEntity
  8
02___PRT_ALL_AXES
100
AcDbPolyline
 62
7
  6
CONTINUOUS
 90
5
 70
0
 10
8.0077281332
 20
5.4125775566
 10
8.0062552173
 20
5.4544806283
 10
8.0047823015
 20
5.508623969
 10
8.0033093856
 20
5.5736806223
 10
8.0018364698
 20
5.6480561663
  0
LWPOLYLINE
  5
4BA
100
AcDbEntity
  8
02___PRT_ALL_AXES
100
AcDbPolyline
 62
7
  6
CONTINUOUS
 90
3
 70
0
 10
8.0018364698
 20
5.6480561663
 10
8.0003635539
 20
5.7299277898
 10
7.9988906381
 20
5.8172889662
  0
LWPOLYLINE
  5
4BB
100
AcDbEntity
  8
02___PRT_ALL_AXES
100
AcDbPolyline
 62
7
  6
CONTINUOUS
 90
9
 70
0
 10
7.9566346443
 20
6.0385418522
 10
7.95520435
 20
6.1201266736
 10
7.9537632231
 20
6.1984393494
 10
7.9523039058
 20
6.2718865184
 10
7.9508426119
 20
6.337766938
 10
7.9493984962
 20
6.3937811184
 10
7.9479645242
 20
6.4391497607
 10
7.9465326612
 20
6.473204092
 10
7.9450985413
 20
6.4952547219
  0
LWPOLYLINE
  5
4BC
100
AcDbEntity
  8
02___PRT_ALL_AXES
100
AcDbPolyline
 62
7
  6
CONTINUOUS
 90
9
 70
0
 10
8.029345142
 20
5.8693398317
 10
8.0307756898
 20
5.7877391013
 10
8.0322169818
 20
5.7094157359
 10
8.0336764506
 20
5.6359592917
 10
8.0351378156
 20
5.5700742395
 10
8.0365819789
 20
5.5140569478
 10
8.0380159136
 20
5.4686881095
 10
8.0394475817
 20
5.4346359699
 10
8.0408820975
 20
5.4125775566
  0
LWPOLYLINE
  5
4BD
100
AcDbEntity
  8
02___PRT_ALL_AXES
100
AcDbPolyline
 62
7
  6
CONTINUOUS
 90
10
 70
0
 10
7.967382753
 20
6.0391522019
 10
7.9703010347
 20
5.8687018291
 10
7.9717422962
 20
5.7865248358
 10
7.9731730262
 20
5.7088292358
 10
7.9746020858
 20
5.6368819113
 10
7.9760382231
 20
5.5719502556
 10
7.977471738
 20
5.5160125057
 10
7.9789100676
 20
5.4701062523
 10
7.9803663272
 20
5.4351518502
 10
7.9818269794
 20
5.4125775566
  0
LWPOLYLINE
  5
4BE
100
AcDbEntity
  8
02___PRT_ALL_AXES
100
AcDbPolyline
 62
7
  6
CONTINUOUS
 90
10
 70
0
 10
8.0185975105
 20
5.8687018291
 10
8.0156792287
 20
6.0391522019
 10
8.0142379091
 20
6.1213316687
 10
8.0128070209
 20
6.1990341294
 10
8.0113779002
 20
6.2709816856
 10
8.0099421432
 20
6.3358935486
 10
8.0085087995
 20
6.3918233827
 10
8.0070705355
 20
6.4377270314
 10
8.0056143331
 20
6.4726800037
 10
8.0041536595
 20
6.4952547219
  0
LWPOLYLINE
  5
4BF
100
AcDbEntity
  8
02___PRT_ALL_AXES
100
AcDbPolyline
 62
7
  6
CONTINUOUS
 90
7
 70
0
 10
7.9280348827
 20
6.0905433123
 10
7.9265619668
 20
6.1779044886
 10
7.925089051
 20
6.2597761122
 10
7.9236161352
 20
6.3341516562
 10
7.9221432193
 20
6.3992083095
 10
7.9206703035
 20
6.4533516502
 10
7.9191973876
 20
6.4952547219
  0
LWPOLYLINE
  5
4C0
100
AcDbEntity
  8
02___PRT_ALL_AXES
100
AcDbPolyline
 62
7
  6
CONTINUOUS
 90
7
 70
0
 10
7.9354167725
 20
6.0905433123
 10
7.9339438566
 20
6.1779044886
 10
7.9324709408
 20
6.2597761122
 10
7.9309980249
 20
6.3341516562
 10
7.9295251091
 20
6.3992083095
 10
7.9280521932
 20
6.4533516502
 10
7.9265792774
 20
6.4952547219
  0
LWPOLYLINE
  5
4C1
100
AcDbEntity
  8
02___PRT_ALL_AXES
100
AcDbPolyline
 62
7
  6
CONTINUOUS
 90
7
 70
0
 10
7.9870900008
 20
6.0905433123
 10
7.985617085
 20
6.1779044886
 10
7.9841441691
 20
6.2597761122
 10
7.9826712533
 20
6.3341516562
 10
7.9811983374
 20
6.3992083095
 10
7.9797254216
 20
6.4533516502
 10
7.9782525057
 20
6.4952547219
  0
LWPOLYLINE
  5
4C2
100
AcDbEntity
  8
02___PRT_ALL_AXES
100
AcDbPolyline
 62
7
  6
CONTINUOUS
 90
7
 70
0
 10
7.9944718906
 20
6.0905433123
 10
7.9929989747
 20
6.1779044886
 10
7.9915260589
 20
6.2597761122
 10
7.990053143
 20
6.3341516562
 10
7.9885802272
 20
6.3992083095
 10
7.9871073113
 20
6.4533516502
 10
7.9856343955
 20
6.4952547219
  0
LINE
  5
4C3
100
AcDbEntity
  8
02___PRT_ALL_AXES
100
AcDbLine
 62
7
  6
CONTINUOUS
 10
7.9324536302
 20
5.8172889662
 11
7.9280348827
 21
6.0905433123
  0
LINE
  5
4C4
100
AcDbEntity
  8
02___PRT_ALL_AXES
100
AcDbLine
 62
7
  6
CONTINUOUS
 10
7.93983552
 20
5.8172889662
 11
7.9354167725
 21
6.0905433123
  0
LINE
  5
4C5
100
AcDbEntity
  8
02___PRT_ALL_AXES
100
AcDbLine
 62
7
  6
CONTINUOUS
 10
7.9915087483
 20
5.8172889662
 11
7.9870900008
 21
6.0905433123
  0
LINE
  5
4C6
100
AcDbEntity
  8
02___PRT_ALL_AXES
100
AcDbLine
 62
7
  6
CONTINUOUS
 10
7.9988906381
 20
5.8172889662
 11
7.9944718906
 21
6.0905433123
  0
LINE
  5
4C7
100
AcDbEntity
  8
02___PRT_ALL_AXES
100
AcDbLine
 62
7
  6
CONTINUOUS
 10
8.6036433031
 20
6.1981877928
 11
8.6081477998
 21
6.1981877928
  0
LINE
  5
4C8
100
AcDbEntity
  8
02___PRT_ALL_AXES
100
AcDbLine
 62
7
  6
CONTINUOUS
 10
8.6435808706
 20
6.1981877928
 11
8.6475178785
 21
6.1981877928
  0
LINE
  5
4C9
100
AcDbEntity
  8
02___PRT_ALL_AXES
100
AcDbLine
 62
7
  6
CONTINUOUS
 10
8.6829509494
 20
6.1981877928
 11
8.6868879572
 21
6.1981877928
  0
LINE
  5
4CA
100
AcDbEntity
  8
02___PRT_ALL_AXES
100
AcDbLine
 62
7
  6
CONTINUOUS
 10
8.7223210281
 20
6.1981877928
 11
8.726258036
 21
6.1981877928
  0
LINE
  5
4CB
100
AcDbEntity
  8
02___PRT_ALL_AXES
100
AcDbLine
 62
7
  6
CONTINUOUS
 10
8.7616911068
 20
6.1981877928
 11
8.7656281147
 21
6.1981877928
  0
LINE
  5
4CC
100
AcDbEntity
  8
02___PRT_ALL_AXES
100
AcDbLine
 62
7
  6
CONTINUOUS
 10
8.8010611856
 20
6.1981877928
 11
8.8049981935
 21
6.1981877928
  0
LINE
  5
4CD
100
AcDbEntity
  8
02___PRT_ALL_AXES
100
AcDbLine
 62
7
  6
CONTINUOUS
 10
8.8404312643
 20
6.1981877928
 11
8.8443682722
 21
6.1981877928
  0
LINE
  5
4CE
100
AcDbEntity
  8
02___PRT_ALL_AXES
100
AcDbLine
 62
7
  6
CONTINUOUS
 10
8.8798013431
 20
6.1981877928
 11
8.8837383509
 21
6.1981877928
  0
LINE
  5
4CF
100
AcDbEntity
  8
02___PRT_ALL_AXES
100
AcDbLine
 62
7
  6
CONTINUOUS
 10
8.9191714218
 20
6.1981877928
 11
8.9231084297
 21
6.1981877928
  0
LWPOLYLINE
  5
4D0
100
AcDbEntity
  8
02___PRT_ALL_AXES
100
AcDbPolyline
 62
7
  6
CONTINUOUS
 90
9
 70
0
 10
8.0891785733
 20
5.4125775566
 10
8.0877440575
 20
5.4346359699
 10
8.0863123894
 20
5.4686881095
 10
8.0848784547
 20
5.5140569478
 10
8.0834342913
 20
5.5700742395
 10
8.0819729264
 20
5.6359592917
 10
8.0805134576
 20
5.7094157359
 10
8.0790721656
 20
5.7877391013
 10
8.0776416178
 20
5.8693398317
  0
LWPOLYLINE
  5
4D1
100
AcDbEntity
  8
02___PRT_ALL_AXES
100
AcDbPolyline
 62
7
  6
CONTINUOUS
 90
10
 70
0
 10
8.0149123018
 20
6.4952547219
 10
8.0163617638
 20
6.4729017931
 10
8.0178015507
 20
6.4385011168
 10
8.0192307002
 20
6.3931285043
 10
8.0206756217
 20
6.3369560325
 10
8.0221371049
 20
6.2709547077
 10
8.0235963834
 20
6.1974192438
 10
8.0250373742
 20
6.1190492285
 10
8.0264732788
 20
6.0371001612
 10
8.029345142
 20
5.8693398317
  0
LWPOLYLINE
  5
4D2
100
AcDbEntity
  8
02___PRT_ALL_AXES
100
AcDbPolyline
 62
7
  6
CONTINUOUS
 90
10
 70
0
 10
8.0739674199
 20
6.4952547219
 10
8.0754260771
 20
6.4727199478
 10
8.0768802535
 20
6.4378405586
 10
8.0783171126
 20
6.3920173061
 10
8.0797542102
 20
6.3359651353
 10
8.0812020697
 20
6.2704821808
 10
8.0826421336
 20
6.1979119705
 10
8.0840677125
 20
6.120435067
 10
8.0855074075
 20
6.0383167374
 10
8.0884216812
 20
5.8680987336
  0
LWPOLYLINE
  5
4D3
100
AcDbEntity
  8
02___PRT_ALL_AXES
100
AcDbPolyline
 62
7
  6
CONTINUOUS
 90
9
 70
0
 10
8.1482336914
 20
5.4125775566
 10
8.1467750523
 20
5.4351119716
 10
8.1453207303
 20
5.4699952996
 10
8.1438848208
 20
5.5157857201
 10
8.1424583909
 20
5.5713817583
 10
8.1410288511
 20
5.6359206535
 10
8.1395901029
 20
5.7082849633
 10
8.1381571457
 20
5.7860702269
 10
8.1367181569
 20
5.8680987336
  0
LWPOLYLINE
  5
4D4
100
AcDbEntity
  8
02___PRT_ALL_AXES
100
AcDbPolyline
 62
7
  6
CONTINUOUS
 90
7
 70
0
 10
8.0594013615
 20
5.4125775566
 10
8.0579284457
 20
5.4544806283
 10
8.0564555298
 20
5.508623969
 10
8.054982614
 20
5.5736806223
 10
8.0535096981
 20
5.6480561663
 10
8.0520367823
 20
5.7299277898
 10
8.0505638664
 20
5.8172889662
  0
LWPOLYLINE
  5
4D5
100
AcDbEntity
  8
02___PRT_ALL_AXES
100
AcDbPolyline
 62
7
  6
CONTINUOUS
 90
7
 70
0
 10
8.0667832513
 20
5.4125775566
 10
8.0653103354
 20
5.4544806283
 10
8.0638374196
 20
5.508623969
 10
8.0623645037
 20
5.5736806223
 10
8.0608915879
 20
5.6480561663
 10
8.059418672
 20
5.7299277898
 10
8.0579457562
 20
5.8172889662
  0
LWPOLYLINE
  5
4D6
100
AcDbEntity
  8
02___PRT_ALL_AXES
100
AcDbPolyline
 62
7
  6
CONTINUOUS
 90
7
 70
0
 10
8.1184564796
 20
5.4125775566
 10
8.1169835638
 20
5.4544806283
 10
8.1155106479
 20
5.508623969
 10
8.1140377321
 20
5.5736806223
 10
8.1125648162
 20
5.6480561663
 10
8.1110919004
 20
5.7299277898
 10
8.1096189846
 20
5.8172889662
  0
LWPOLYLINE
  5
4D7
100
AcDbEntity
  8
02___PRT_ALL_AXES
100
AcDbPolyline
 62
7
  6
CONTINUOUS
 90
7
 70
0
 10
8.1258383694
 20
5.4125775566
 10
8.1243654535
 20
5.4544806283
 10
8.1228925377
 20
5.508623969
 10
8.1214196218
 20
5.5736806223
 10
8.119946706
 20
5.6480561663
 10
8.1184737902
 20
5.7299277898
 10
8.1170008743
 20
5.8172889662
  0
LWPOLYLINE
  5
4D8
100
AcDbEntity
  8
02___PRT_ALL_AXES
100
AcDbPolyline
 62
7
  6
CONTINUOUS
 90
9
 70
0
 10
8.0884216812
 20
5.8680987336
 10
8.08986067
 20
5.7860702269
 10
8.0912936271
 20
5.7082849633
 10
8.0927323754
 20
5.6359206535
 10
8.0941619151
 20
5.5713817583
 10
8.095588345
 20
5.5157857201
 10
8.0970242546
 20
5.4699952996
 10
8.0984785766
 20
5.4351119716
 10
8.0999372157
 20
5.4125775566
  0
LWPOLYLINE
  5
4D9
100
AcDbEntity
  8
02___PRT_ALL_AXES
100
AcDbPolyline
 62
7
  6
CONTINUOUS
 90
10
 70
0
 10
8.0776416178
 20
5.8693398317
 10
8.0747697546
 20
6.0371001612
 10
8.07333385
 20
6.1190492285
 10
8.0718928592
 20
6.1974192438
 10
8.0704335807
 20
6.2709547077
 10
8.0689720974
 20
6.3369560325
 10
8.067527176
 20
6.3931285043
 10
8.0660980265
 20
6.4385011168
 10
8.0646582395
 20
6.4729017931
 10
8.0632087776
 20
6.4952547219
  0
LWPOLYLINE
  5
4DA
100
AcDbEntity
  8
02___PRT_ALL_AXES
100
AcDbPolyline
 62
7
  6
CONTINUOUS
 90
10
 70
0
 10
8.1367181569
 20
5.8680987336
 10
8.1338038833
 20
6.0383167374
 10
8.1323641883
 20
6.120435067
 10
8.1309386093
 20
6.1979119705
 10
8.1294985455
 20
6.2704821808
 10
8.128050686
 20
6.3359651353
 10
8.1266135884
 20
6.3920173061
 10
8.1251767292
 20
6.4378405586
 10
8.1237225529
 20
6.4727199478
 10
8.1222638957
 20
6.4952547219
  0
LWPOLYLINE
  5
4DB
100
AcDbEntity
  8
02___PRT_ALL_AXES
100
AcDbPolyline
 62
7
  6
CONTINUOUS
 90
7
 70
0
 10
8.0461451189
 20
6.0905433123
 10
8.0446722031
 20
6.1779044886
 10
8.0431992872
 20
6.2597761122
 10
8.0417263714
 20
6.3341516562
 10
8.0402534555
 20
6.3992083095
 10
8.0387805397
 20
6.4533516502
 10
8.0373076238
 20
6.4952547219
  0
LWPOLYLINE
  5
4DC
100
AcDbEntity
  8
02___PRT_ALL_AXES
100
AcDbPolyline
 62
7
  6
CONTINUOUS
 90
7
 70
0
 10
8.0535270087
 20
6.0905433123
 10
8.0520540928
 20
6.1779044886
 10
8.050581177
 20
6.2597761122
 10
8.0491082611
 20
6.3341516562
 10
8.0476353453
 20
6.3992083095
 10
8.0461624294
 20
6.4533516502
 10
8.0446895136
 20
6.4952547219
  0
LWPOLYLINE
  5
4DD
100
AcDbEntity
  8
02___PRT_ALL_AXES
100
AcDbPolyline
 62
7
  6
CONTINUOUS
 90
7
 70
0
 10
8.105200237
 20
6.0905433123
 10
8.1037273212
 20
6.1779044886
 10
8.1022544053
 20
6.2597761122
 10
8.1007814895
 20
6.3341516562
 10
8.0993085736
 20
6.3992083095
 10
8.0978356578
 20
6.4533516502
 10
8.0963627419
 20
6.4952547219
  0
LWPOLYLINE
  5
4DE
100
AcDbEntity
  8
02___PRT_ALL_AXES
100
AcDbPolyline
 62
7
  6
CONTINUOUS
 90
7
 70
0
 10
8.1125821268
 20
6.0905433123
 10
8.1111092109
 20
6.1779044886
 10
8.1096362951
 20
6.2597761122
 10
8.1081633792
 20
6.3341516562
 10
8.1066904634
 20
6.3992083095
 10
8.1052175476
 20
6.4533516502
 10
8.1037446317
 20
6.4952547219
  0
LINE
  5
4DF
100
AcDbEntity
  8
02___PRT_ALL_AXES
100
AcDbLine
 62
7
  6
CONTINUOUS
 10
8.0505638664
 20
5.8172889662
 11
8.0461451189
 21
6.0905433123
  0
LINE
  5
4E0
100
AcDbEntity
  8
02___PRT_ALL_AXES
100
AcDbLine
 62
7
  6
CONTINUOUS
 10
8.0579457562
 20
5.8172889662
 11
8.0535270087
 21
6.0905433123
  0
LINE
  5
4E1
100
AcDbEntity
  8
02___PRT_ALL_AXES
100
AcDbLine
 62
7
  6
CONTINUOUS
 10
8.1096189846
 20
5.8172889662
 11
8.105200237
 21
6.0905433123
  0
LINE
  5
4E2
100
AcDbEntity
  8
02___PRT_ALL_AXES
100
AcDbLine
 62
7
  6
CONTINUOUS
 10
8.1170008743
 20
5.8172889662
 11
8.1125821268
 21
6.0905433123
  0
LINE
  5
4E3
100
AcDbEntity
  8
0
100
AcDbLine
 62
7
  6
CONTINUOUS
 10
8.6629876989
 20
5.7098852254
 11
8.66326591
 21
5.7096444857
  0
LWPOLYLINE
  5
4E4
100
AcDbEntity
  8
02___PRT_ALL_AXES
100
AcDbPolyline
 62
7
  6
CONTINUOUS
 90
9
 70
0
 10
8.2072888095
 20
5.4125775566
 10
8.2058560807
 20
5.4346008457
 10
8.2044161175
 20
5.4688692613
 10
8.2029833717
 20
5.5142449974
 10
8.2015442033
 20
5.5700878879
 10
8.2000875923
 20
5.6357471352
 10
8.1986328245
 20
5.7089359655
 10
8.1971959628
 20
5.7869810184
 10
8.1957692014
 20
5.8683347167
  0
LWPOLYLINE
  5
4E5
100
AcDbEntity
  8
02___PRT_ALL_AXES
100
AcDbPolyline
 62
7
  6
CONTINUOUS
 90
9
 70
0
 10
8.1920776561
 20
6.4952547219
 10
8.1935109272
 20
6.4732207771
 10
8.194951174
 20
6.438940015
 10
8.1963839661
 20
6.3935564374
 10
8.1978231555
 20
6.3377068019
 10
8.1992797578
 20
6.272042789
 10
8.2007344215
 20
6.1988553221
 10
8.2021711741
 20
6.1208137437
 10
8.2035983665
 20
6.0394337044
  0
LWPOLYLINE
  5
4E6
100
AcDbEntity
  8
02___PRT_ALL_AXES
100
AcDbPolyline
 62
7
  6
CONTINUOUS
 90
10
 70
0
 10
8.133022538
 20
6.4952547219
 10
8.13447989
 20
6.4727457898
 10
8.1359328096
 20
6.4379124628
 10
8.1373680423
 20
6.3921663104
 10
8.1388017206
 20
6.3362865856
 10
8.1402541124
 20
6.2706298013
 10
8.1417060354
 20
6.1974499817
 10
8.1431416804
 20
6.119380975
 10
8.1445778413
 20
6.0374290618
 10
8.1474727257
 20
5.8683347167
  0
LWPOLYLINE
  5
4E7
100
AcDbEntity
  8
02___PRT_ALL_AXES
100
AcDbPolyline
 62
7
  6
CONTINUOUS
 90
10
 70
0
 10
8.2663439276
 20
5.4125775566
 10
8.2648866444
 20
5.435085128
 10
8.2634337066
 20
5.4699183985
 10
8.2619985545
 20
5.5156613035
 10
8.2605657052
 20
5.5715051423
 10
8.2591140289
 20
5.6371220578
 10
8.2576624605
 20
5.7102754991
 10
8.2562269038
 20
5.7883327981
 10
8.254790713
 20
5.8702821512
 10
8.2518948423
 20
6.0394337044
  0
LWPOLYLINE
  5
4E8
100
AcDbEntity
  8
02___PRT_ALL_AXES
100
AcDbPolyline
 62
7
  6
CONTINUOUS
 90
7
 70
0
 10
8.1775115977
 20
5.4125775566
 10
8.1760386819
 20
5.4544806283
 10
8.174565766
 20
5.508623969
 10
8.1730928502
 20
5.5736806223
 10
8.1716199344
 20
5.6480561663
 10
8.1701470185
 20
5.7299277898
 10
8.1686741027
 20
5.8172889662
  0
LWPOLYLINE
  5
4E9
100
AcDbEntity
  8
02___PRT_ALL_AXES
100
AcDbPolyline
 62
7
  6
CONTINUOUS
 90
7
 70
0
 10
8.1848934875
 20
5.4125775566
 10
8.1834205716
 20
5.4544806283
 10
8.1819476558
 20
5.508623969
 10
8.18047474
 20
5.5736806223
 10
8.1790018241
 20
5.6480561663
 10
8.1775289083
 20
5.7299277898
 10
8.1760559924
 20
5.8172889662
  0
LWPOLYLINE
  5
4EA
100
AcDbEntity
  8
02___PRT_ALL_AXES
100
AcDbPolyline
 62
7
  6
CONTINUOUS
 90
7
 70
0
 10
8.2365667158
 20
5.4125775566
 10
8.2350938
 20
5.4544806283
 10
8.2336208842
 20
5.508623969
 10
8.2321479683
 20
5.5736806223
 10
8.2306750525
 20
5.6480561663
 10
8.2292021366
 20
5.7299277898
 10
8.2277292208
 20
5.8172889662
  0
LWPOLYLINE
  5
4EB
100
AcDbEntity
  8
02___PRT_ALL_AXES
100
AcDbPolyline
 62
7
  6
CONTINUOUS
 90
6
 70
0
 10
8.2439486056
 20
5.4125775566
 10
8.2424756898
 20
5.4544806283
 10
8.2410027739
 20
5.508623969
 10
8.2395298581
 20
5.5736806223
 10
8.2380569422
 20
5.6480561663
 10
8.2365840264
 20
5.7299277898
  0
LWPOLYLINE
  5
4EC
100
AcDbEntity
  8
02___PRT_ALL_AXES
100
AcDbPolyline
 62
7
  6
CONTINUOUS
 90
6
 70
0
 10
8.2292194472
 20
6.1779044886
 10
8.2277465313
 20
6.2597761122
 10
8.2262736155
 20
6.3341516562
 10
8.2248006996
 20
6.3992083095
 10
8.2233277838
 20
6.4533516502
 10
8.2218548679
 20
6.4952547219
  0
LWPOLYLINE
  5
4ED
100
AcDbEntity
  8
02___PRT_ALL_AXES
100
AcDbPolyline
 62
7
  6
CONTINUOUS
 90
9
 70
0
 10
8.1474727257
 20
5.8683347167
 10
8.148899487
 20
5.7869810184
 10
8.1503363487
 20
5.7089359655
 10
8.1517911165
 20
5.6357471352
 10
8.1532477275
 20
5.5700878879
 10
8.1546868959
 20
5.5142449974
 10
8.1561196417
 20
5.4688692613
 10
8.1575596049
 20
5.4346008457
 10
8.1589923338
 20
5.4125775566
  0
LWPOLYLINE
  5
4EE
100
AcDbEntity
  8
02___PRT_ALL_AXES
100
AcDbPolyline
 62
7
  6
CONTINUOUS
 90
10
 70
0
 10
8.1957692014
 20
5.8683347167
 10
8.1928743171
 20
6.0374290618
 10
8.1914381562
 20
6.119380975
 10
8.1900025111
 20
6.1974499817
 10
8.1885505882
 20
6.2706298013
 10
8.1870981964
 20
6.3362865856
 10
8.185664518
 20
6.3921663104
 10
8.1842292853
 20
6.4379124628
 10
8.1827763658
 20
6.4727457898
 10
8.1813190138
 20
6.4952547219
  0
LWPOLYLINE
  5
4EF
100
AcDbEntity
  8
02___PRT_ALL_AXES
100
AcDbPolyline
 62
7
  6
CONTINUOUS
 90
10
 70
0
 10
8.2035983665
 20
6.0394337044
 10
8.2064942372
 20
5.8702821512
 10
8.207930428
 20
5.7883327981
 10
8.2093659847
 20
5.7102754991
 10
8.2108175532
 20
5.6371220578
 10
8.2122692294
 20
5.5715051423
 10
8.2137020788
 20
5.5156613035
 10
8.2151372308
 20
5.4699183985
 10
8.2165901686
 20
5.435085128
 10
8.2180474519
 20
5.4125775566
  0
LWPOLYLINE
  5
4F0
100
AcDbEntity
  8
02___PRT_ALL_AXES
100
AcDbPolyline
 62
7
  6
CONTINUOUS
 90
7
 70
0
 10
8.1642553551
 20
6.0905433123
 10
8.1627824393
 20
6.1779044886
 10
8.1613095234
 20
6.2597761122
 10
8.1598366076
 20
6.3341516562
 10
8.1583636917
 20
6.3992083095
 10
8.1568907759
 20
6.4533516502
 10
8.1554178601
 20
6.4952547219
  0
LWPOLYLINE
  5
4F1
100
AcDbEntity
  8
02___PRT_ALL_AXES
100
AcDbPolyline
 62
7
  6
CONTINUOUS
 90
7
 70
0
 10
8.1716372449
 20
6.0905433123
 10
8.170164329
 20
6.1779044886
 10
8.1686914132
 20
6.2597761122
 10
8.1672184974
 20
6.3341516562
 10
8.1657455815
 20
6.3992083095
 10
8.1642726657
 20
6.4533516502
 10
8.1627997498
 20
6.4952547219
  0
LWPOLYLINE
  5
4F2
100
AcDbEntity
  8
02___PRT_ALL_AXES
100
AcDbPolyline
 62
7
  6
CONTINUOUS
 90
7
 70
0
 10
8.2233104732
 20
6.0905433123
 10
8.2218375574
 20
6.1779044886
 10
8.2203646415
 20
6.2597761122
 10
8.2188917257
 20
6.3341516562
 10
8.2174188099
 20
6.3992083095
 10
8.215945894
 20
6.4533516502
 10
8.2144729782
 20
6.4952547219
  0
LINE
  5
4F3
100
AcDbEntity
  8
02___PRT_ALL_AXES
100
AcDbLine
 62
7
  6
CONTINUOUS
 10
8.2365840264
 20
5.7299277898
 11
8.2344267686
 21
5.8594342329
  0
LINE
  5
4F4
100
AcDbEntity
  8
02___PRT_ALL_AXES
100
AcDbLine
 62
7
  6
CONTINUOUS
 10
8.2313773536
 20
6.0483581011
 11
8.2292194472
 21
6.1779044886
  0
LINE
  5
4F5
100
AcDbEntity
  8
02___PRT_ALL_AXES
100
AcDbLine
 62
7
  6
CONTINUOUS
 10
8.1686741027
 20
5.8172889662
 11
8.1642553551
 21
6.0905433123
  0
LINE
  5
4F6
100
AcDbEntity
  8
02___PRT_ALL_AXES
100
AcDbLine
 62
7
  6
CONTINUOUS
 10
8.1760559924
 20
5.8172889662
 11
8.1716372449
 21
6.0905433123
  0
LINE
  5
4F7
100
AcDbEntity
  8
02___PRT_ALL_AXES
100
AcDbLine
 62
7
  6
CONTINUOUS
 10
8.2277292208
 20
5.8172889662
 11
8.2233104732
 21
6.0905433123
  0
LINE
  5
4F8
100
AcDbEntity
  8
02___PRT_ALL_AXES
100
AcDbLine
 62
7
  6
CONTINUOUS
 10
8.2344267686
 20
5.8594342329
 11
8.2313773536
 21
6.0483581011
  0
LINE
  5
4F9
100
AcDbEntity
  8
0
100
AcDbLine
 62
7
  6
CONTINUOUS
 10
8.6826727383
 20
6.1979470531
 11
8.6829509494
 21
6.1981877928
  0
LINE
  5
4FA
100
AcDbEntity
  8
0
100
AcDbLine
 62
7
  6
CONTINUOUS
 10
8.722042817
 20
6.1979470531
 11
8.7223210281
 21
6.1981877928
  0
LINE
  5
4FB
100
AcDbEntity
  8
0
100
AcDbLine
 62
7
  6
CONTINUOUS
 10
8.7614128958
 20
6.1979470531
 11
8.7616911068
 21
6.1981877928
  0
LINE
  5
4FC
100
AcDbEntity
  8
0
100
AcDbLine
 62
7
  6
CONTINUOUS
 10
8.8007829745
 20
6.1979470531
 11
8.8010611856
 21
6.1981877928
  0
LINE
  5
4FD
100
AcDbEntity
  8
AXIS
100
AcDbLine
 62
7
  6
CONTINUOUS
 10
6.4215431309
 20
6.4180866449
 11
6.3829365342
 21
6.4173002142
  0
LINE
  5
4FE
100
AcDbEntity
  8
0
100
AcDbLine
 62
7
  6
CONTINUOUS
 10
7.8404312643
 20
6.4952547219
 11
7.8968020656
 21
6.4952547219
  0
LINE
  5
4FF
100
AcDbEntity
  8
02___PRT_ALL_AXES
100
AcDbLine
 62
7
  6
CONTINUOUS
 10
7.8968020656
 20
6.4952547219
 11
8.4765946043
 21
6.4952547219
  0
LINE
  5
500
100
AcDbEntity
  8
0
100
AcDbLine
 62
7
  6
CONTINUOUS
 10
8.4765946043
 20
6.4952547219
 11
8.5490926817
 21
6.4952547219
  0
LINE
  5
501
100
AcDbEntity
  8
0
100
AcDbLine
 62
7
  6
CONTINUOUS
 10
8.7023577777
 20
5.7098852254
 11
8.7026359887
 21
5.7096444857
  0
LINE
  5
502
100
AcDbEntity
  8
0
100
AcDbLine
 62
7
  6
CONTINUOUS
 10
8.7417278564
 20
5.7098852254
 11
8.7420060675
 21
5.7096444857
  0
LINE
  5
503
100
AcDbEntity
  8
0
100
AcDbLine
 62
7
  6
CONTINUOUS
 10
8.7810979351
 20
5.7098852254
 11
8.7813761462
 21
5.7096444857
  0
LINE
  5
504
100
AcDbEntity
  8
0
100
AcDbLine
 62
7
  6
CONTINUOUS
 10
8.8204680139
 20
5.7098852254
 11
8.820746225
 21
5.7096444857
  0
LWPOLYLINE
  5
505
100
AcDbEntity
  8
02___PRT_ALL_AXES
100
AcDbPolyline
 62
7
  6
CONTINUOUS
 90
9
 70
0
 10
8.3101878923
 20
6.4952547219
 10
8.3116220123
 20
6.473204092
 10
8.3130538752
 20
6.4391497607
 10
8.3144878472
 20
6.3937811184
 10
8.3159319629
 20
6.337766938
 10
8.3173932568
 20
6.2718865184
 10
8.3188525741
 20
6.1984393494
 10
8.320293701
 20
6.1201266736
 10
8.3217239953
 20
6.0385418522
  0
LWPOLYLINE
  5
506
100
AcDbEntity
  8
02___PRT_ALL_AXES
100
AcDbPolyline
 62
7
  6
CONTINUOUS
 90
9
 70
0
 10
8.3844541639
 20
5.4125775566
 10
8.3830043387
 20
5.4349376579
 10
8.3815640203
 20
5.4693561652
 10
8.3801349429
 20
5.5147329184
 10
8.378690195
 20
5.5709036155
 10
8.3772288456
 20
5.6369022817
 10
8.3757696235
 20
5.7104371682
 10
8.3743286864
 20
5.7888057141
 10
8.3728927376
 20
5.8707581609
  0
LWPOLYLINE
  5
507
100
AcDbEntity
  8
02___PRT_ALL_AXES
100
AcDbPolyline
 62
7
  6
CONTINUOUS
 90
9
 70
0
 10
8.2511327742
 20
6.4952547219
 10
8.2525913288
 20
6.4727219812
 10
8.2540454898
 20
6.4378438718
 10
8.2554812282
 20
6.392061384
 10
8.2569074327
 20
6.3364776251
 10
8.2583372202
 20
6.2719305111
 10
8.2597762431
 20
6.1995536006
 10
8.2612092522
 20
6.1217658376
 10
8.2626481522
 20
6.0397426144
  0
LWPOLYLINE
  5
508
100
AcDbEntity
  8
02___PRT_ALL_AXES
100
AcDbPolyline
 62
7
  6
CONTINUOUS
 90
9
 70
0
 10
8.3253990458
 20
5.4125775566
 10
8.3239406488
 20
5.4351071776
 10
8.3224866004
 20
5.4699808224
 10
8.3210498795
 20
5.5157962398
 10
8.319612677
 20
5.5718493256
 10
8.318164507
 20
5.6373447682
 10
8.3167238759
 20
5.7099442968
 10
8.3152982539
 20
5.78742512
 10
8.3138586915
 20
5.8695367891
  0
LWPOLYLINE
  5
509
100
AcDbEntity
  8
02___PRT_ALL_AXES
100
AcDbPolyline
 62
7
  6
CONTINUOUS
 90
7
 70
0
 10
8.295621834
 20
5.4125775566
 10
8.2941489181
 20
5.4544806283
 10
8.2926760023
 20
5.508623969
 10
8.2912030864
 20
5.5736806223
 10
8.2897301706
 20
5.6480561663
 10
8.2882572547
 20
5.7299277898
 10
8.2867843389
 20
5.8172889662
  0
LWPOLYLINE
  5
50A
100
AcDbEntity
  8
02___PRT_ALL_AXES
100
AcDbPolyline
 62
7
  6
CONTINUOUS
 90
7
 70
0
 10
8.3030037237
 20
5.4125775566
 10
8.3015308079
 20
5.4544806283
 10
8.300057892
 20
5.508623969
 10
8.2985849762
 20
5.5736806223
 10
8.2971120603
 20
5.6480561663
 10
8.2956391445
 20
5.7299277898
 10
8.2941662286
 20
5.8172889662
  0
LWPOLYLINE
  5
50B
100
AcDbEntity
  8
02___PRT_ALL_AXES
100
AcDbPolyline
 62
7
  6
CONTINUOUS
 90
7
 70
0
 10
8.3546769521
 20
5.4125775566
 10
8.3532040362
 20
5.4544806283
 10
8.3517311204
 20
5.508623969
 10
8.3502582045
 20
5.5736806223
 10
8.3487852887
 20
5.6480561663
 10
8.3473123728
 20
5.7299277898
 10
8.345839457
 20
5.8172889662
  0
LWPOLYLINE
  5
50C
100
AcDbEntity
  8
02___PRT_ALL_AXES
100
AcDbPolyline
 62
7
  6
CONTINUOUS
 90
7
 70
0
 10
8.3620588418
 20
5.4125775566
 10
8.360585926
 20
5.4544806283
 10
8.3591130101
 20
5.508623969
 10
8.3576400943
 20
5.5736806223
 10
8.3561671784
 20
5.6480561663
 10
8.3546942626
 20
5.7299277898
 10
8.3532213468
 20
5.8172889662
  0
LWPOLYLINE
  5
50D
100
AcDbEntity
  8
02___PRT_ALL_AXES
100
AcDbPolyline
 62
7
  6
CONTINUOUS
 90
9
 70
0
 10
8.2518948423
 20
6.0394337044
 10
8.2504676499
 20
6.1208137437
 10
8.2490308972
 20
6.1988553221
 10
8.2475762336
 20
6.272042789
 10
8.2461196312
 20
6.3377068019
 10
8.2446804419
 20
6.3935564374
 10
8.2432476498
 20
6.438940015
 10
8.241807403
 20
6.4732207771
 10
8.2403741319
 20
6.4952547219
  0
LWPOLYLINE
  5
50E
100
AcDbEntity
  8
02___PRT_ALL_AXES
100
AcDbPolyline
 62
7
  6
CONTINUOUS
 90
10
 70
0
 10
8.2626481522
 20
6.0397426144
 10
8.2655622157
 20
5.8695367891
 10
8.2670017782
 20
5.78742512
 10
8.2684274001
 20
5.7099442968
 10
8.2698680312
 20
5.6373447682
 10
8.2713162012
 20
5.5718493256
 10
8.2727534037
 20
5.5157962398
 10
8.2741901246
 20
5.4699808224
 10
8.275644173
 20
5.4351071776
 10
8.27710257
 20
5.4125775566
  0
LWPOLYLINE
  5
50F
100
AcDbEntity
  8
02___PRT_ALL_AXES
100
AcDbPolyline
 62
7
  6
CONTINUOUS
 90
10
 70
0
 10
8.3138586915
 20
5.8695367891
 10
8.3109446279
 20
6.0397426144
 10
8.3095057279
 20
6.1217658376
 10
8.3080727188
 20
6.1995536006
 10
8.306633696
 20
6.2719305111
 10
8.3052039085
 20
6.3364776251
 10
8.3037777039
 20
6.392061384
 10
8.3023419655
 20
6.4378438718
 10
8.3008878045
 20
6.4727219812
 10
8.29942925
 20
6.4952547219
  0
LWPOLYLINE
  5
510
100
AcDbEntity
  8
02___PRT_ALL_AXES
100
AcDbPolyline
 62
7
  6
CONTINUOUS
 90
10
 70
0
 10
8.3217239953
 20
6.0385418522
 10
8.3245962618
 20
5.8707581609
 10
8.3260322106
 20
5.7888057141
 10
8.3274731478
 20
5.7104371682
 10
8.3289323699
 20
5.6369022817
 10
8.3303937192
 20
5.5709036155
 10
8.3318384672
 20
5.5147329184
 10
8.3332675445
 20
5.4693561652
 10
8.334707863
 20
5.4349376579
 10
8.3361576881
 20
5.4125775566
  0
LWPOLYLINE
  5
511
100
AcDbEntity
  8
02___PRT_ALL_AXES
100
AcDbPolyline
 62
7
  6
CONTINUOUS
 90
7
 70
0
 10
8.2823655913
 20
6.0905433123
 10
8.2808926755
 20
6.1779044886
 10
8.2794197597
 20
6.2597761122
 10
8.2779468438
 20
6.3341516562
 10
8.276473928
 20
6.3992083095
 10
8.2750010121
 20
6.4533516502
 10
8.2735280963
 20
6.4952547219
  0
LWPOLYLINE
  5
512
100
AcDbEntity
  8
02___PRT_ALL_AXES
100
AcDbPolyline
 62
7
  6
CONTINUOUS
 90
7
 70
0
 10
8.2897474811
 20
6.0905433123
 10
8.2882745653
 20
6.1779044886
 10
8.2868016494
 20
6.2597761122
 10
8.2853287336
 20
6.3341516562
 10
8.2838558177
 20
6.3992083095
 10
8.2823829019
 20
6.4533516502
 10
8.280909986
 20
6.4952547219
  0
LWPOLYLINE
  5
513
100
AcDbEntity
  8
02___PRT_ALL_AXES
100
AcDbPolyline
 62
7
  6
CONTINUOUS
 90
7
 70
0
 10
8.3414207095
 20
6.0905433123
 10
8.3399477936
 20
6.1779044886
 10
8.3384748778
 20
6.2597761122
 10
8.3370019619
 20
6.3341516562
 10
8.3355290461
 20
6.3992083095
 10
8.3340561302
 20
6.4533516502
 10
8.3325832144
 20
6.4952547219
  0
LWPOLYLINE
  5
514
100
AcDbEntity
  8
02___PRT_ALL_AXES
100
AcDbPolyline
 62
7
  6
CONTINUOUS
 90
7
 70
0
 10
8.3488025992
 20
6.0905433123
 10
8.3473296834
 20
6.1779044886
 10
8.3458567675
 20
6.2597761122
 10
8.3443838517
 20
6.3341516562
 10
8.3429109358
 20
6.3992083095
 10
8.34143802
 20
6.4533516502
 10
8.3399651042
 20
6.4952547219
  0
LINE
  5
515
100
AcDbEntity
  8
02___PRT_ALL_AXES
100
AcDbLine
 62
7
  6
CONTINUOUS
 10
8.2867843389
 20
5.8172889662
 11
8.2823655913
 21
6.0905433123
  0
LINE
  5
516
100
AcDbEntity
  8
02___PRT_ALL_AXES
100
AcDbLine
 62
7
  6
CONTINUOUS
 10
8.2941662286
 20
5.8172889662
 11
8.2897474811
 21
6.0905433123
  0
LINE
  5
517
100
AcDbEntity
  8
02___PRT_ALL_AXES
100
AcDbLine
 62
7
  6
CONTINUOUS
 10
8.345839457
 20
5.8172889662
 11
8.3414207095
 21
6.0905433123
  0
LINE
  5
518
100
AcDbEntity
  8
02___PRT_ALL_AXES
100
AcDbLine
 62
7
  6
CONTINUOUS
 10
8.3532213468
 20
5.8172889662
 11
8.3488025992
 21
6.0905433123
  0
LWPOLYLINE
  5
519
100
AcDbEntity
  8
0
100
AcDbPolyline
 62
7
  6
CONTINUOUS
 90
3
 70
0
 10
8.6385545317
 20
6.1938986997
 10
8.639730733
 20
6.1956681357
 10
8.6435808706
 20
6.1981877928
  0
LINE
  5
51A
100
AcDbEntity
  8
0
100
AcDbLine
 62
7
  6
CONTINUOUS
 10
8.8401530532
 20
6.1979470531
 11
8.8404312643
 21
6.1981877928
  0
LINE
  5
51B
100
AcDbEntity
  8
0
100
AcDbLine
 62
7
  6
CONTINUOUS
 10
8.879523132
 20
6.1979470531
 11
8.8798013431
 21
6.1981877928
  0
LINE
  5
51C
100
AcDbEntity
  8
0
100
AcDbLine
 62
7
  6
CONTINUOUS
 10
8.9188932107
 20
6.1979470531
 11
8.9191714218
 21
6.1981877928
  0
LINE
  5
51D
100
AcDbEntity
  8
0
100
AcDbLine
 62
7
  6
CONTINUOUS
 10
8.8598380926
 20
5.7098852254
 11
8.8601163037
 21
5.7096444857
  0
LINE
  5
51E
100
AcDbEntity
  8
0
100
AcDbLine
 62
7
  6
CONTINUOUS
 10
8.8992081714
 20
5.7098852254
 11
8.8994863824
 21
5.7096444857
  0
LINE
  5
51F
100
AcDbEntity
  8
0
100
AcDbLine
 62
7
  6
CONTINUOUS
 10
8.9388564726
 20
5.7096444857
 11
8.9385782501
 21
5.7098852254
  0
LWPOLYLINE
  5
520
100
AcDbEntity
  8
02___PRT_ALL_AXES
100
AcDbPolyline
 62
7
  6
CONTINUOUS
 90
9
 70
0
 10
8.5025644001
 20
5.4125775566
 10
8.5011298843
 20
5.4346359699
 10
8.4996982162
 20
5.4686881095
 10
8.4982642815
 20
5.5140569478
 10
8.4968201181
 20
5.5700742395
 10
8.4953587532
 20
5.6359592917
 10
8.4938992844
 20
5.7094157359
 10
8.4924579923
 20
5.7877391013
 10
8.4910274445
 20
5.8693398317
  0
LWPOLYLINE
  5
521
100
AcDbEntity
  8
02___PRT_ALL_AXES
100
AcDbPolyline
 62
7
  6
CONTINUOUS
 90
9
 70
0
 10
8.4282981286
 20
6.4952547219
 10
8.4297475905
 20
6.4729017931
 10
8.4311873775
 20
6.4385011168
 10
8.432616527
 20
6.3931285043
 10
8.4340614484
 20
6.3369560325
 10
8.4355229317
 20
6.2709547077
 10
8.4369822102
 20
6.1974192438
 10
8.438423201
 20
6.1190492285
 10
8.4398591056
 20
6.0371001612
  0
LWPOLYLINE
  5
522
100
AcDbEntity
  8
02___PRT_ALL_AXES
100
AcDbPolyline
 62
7
  6
CONTINUOUS
 90
9
 70
0
 10
8.3692430105
 20
6.4952547219
 10
8.3707036841
 20
6.4726800037
 10
8.3721598865
 20
6.4377270314
 10
8.3735981505
 20
6.3918233827
 10
8.3750314942
 20
6.3358935486
 10
8.3764672512
 20
6.2709816856
 10
8.3778963719
 20
6.1990341294
 10
8.3793272601
 20
6.1213316687
 10
8.3807685797
 20
6.0391522019
  0
LWPOLYLINE
  5
523
100
AcDbEntity
  8
02___PRT_ALL_AXES
100
AcDbPolyline
 62
7
  6
CONTINUOUS
 90
9
 70
0
 10
8.443509282
 20
5.4125775566
 10
8.4420486297
 20
5.4351518502
 10
8.4405923702
 20
5.4701062523
 10
8.4391540405
 20
5.5160125057
 10
8.4377205256
 20
5.5719502556
 10
8.4362843884
 20
5.6368819113
 10
8.4348553287
 20
5.7088292358
 10
8.4334245987
 20
5.7865248358
 10
8.4319833373
 20
5.8687018291
  0
LWPOLYLINE
  5
524
100
AcDbEntity
  8
02___PRT_ALL_AXES
100
AcDbPolyline
 62
7
  6
CONTINUOUS
 90
7
 70
0
 10
8.4137320702
 20
5.4125775566
 10
8.4122591543
 20
5.4544806283
 10
8.4107862385
 20
5.508623969
 10
8.4093133226
 20
5.5736806223
 10
8.4078404068
 20
5.6480561663
 10
8.4063674909
 20
5.7299277898
 10
8.4048945751
 20
5.8172889662
  0
LWPOLYLINE
  5
525
100
AcDbEntity
  8
02___PRT_ALL_AXES
100
AcDbPolyline
 62
7
  6
CONTINUOUS
 90
7
 70
0
 10
8.4211139599
 20
5.4125775566
 10
8.4196410441
 20
5.4544806283
 10
8.4181681282
 20
5.508623969
 10
8.4166952124
 20
5.5736806223
 10
8.4152222966
 20
5.6480561663
 10
8.4137493807
 20
5.7299277898
 10
8.4122764649
 20
5.8172889662
  0
LWPOLYLINE
  5
526
100
AcDbEntity
  8
02___PRT_ALL_AXES
100
AcDbPolyline
 62
7
  6
CONTINUOUS
 90
7
 70
0
 10
8.4727871883
 20
5.4125775566
 10
8.4713142724
 20
5.4544806283
 10
8.4698413566
 20
5.508623969
 10
8.4683684407
 20
5.5736806223
 10
8.4668955249
 20
5.6480561663
 10
8.4654226091
 20
5.7299277898
 10
8.4639496932
 20
5.8172889662
  0
LWPOLYLINE
  5
527
100
AcDbEntity
  8
02___PRT_ALL_AXES
100
AcDbPolyline
 62
7
  6
CONTINUOUS
 90
7
 70
0
 10
8.480169078
 20
5.4125775566
 10
8.4786961622
 20
5.4544806283
 10
8.4772232464
 20
5.508623969
 10
8.4757503305
 20
5.5736806223
 10
8.4742774147
 20
5.6480561663
 10
8.4728044988
 20
5.7299277898
 10
8.471331583
 20
5.8172889662
  0
LWPOLYLINE
  5
528
100
AcDbEntity
  8
02___PRT_ALL_AXES
100
AcDbPolyline
 62
7
  6
CONTINUOUS
 90
10
 70
0
 10
8.3728927376
 20
5.8707581609
 10
8.3700204711
 20
6.0385418522
 10
8.3685901768
 20
6.1201266736
 10
8.3671490499
 20
6.1984393494
 10
8.3656897326
 20
6.2718865184
 10
8.3642284386
 20
6.337766938
 10
8.362784323
 20
6.3937811184
 10
8.361350351
 20
6.4391497607
 10
8.359918488
 20
6.473204092
 10
8.3584843681
 20
6.4952547219
  0
LWPOLYLINE
  5
529
100
AcDbEntity
  8
02___PRT_ALL_AXES
100
AcDbPolyline
 62
7
  6
CONTINUOUS
 90
10
 70
0
 10
8.3807685797
 20
6.0391522019
 10
8.3836868615
 20
5.8687018291
 10
8.385128123
 20
5.7865248358
 10
8.386558853
 20
5.7088292358
 10
8.3879879126
 20
5.6368819113
 10
8.3894240499
 20
5.5719502556
 10
8.3908575647
 20
5.5160125057
 10
8.3922958944
 20
5.4701062523
 10
8.393752154
 20
5.4351518502
 10
8.3952128062
 20
5.4125775566
  0
LWPOLYLINE
  5
52A
100
AcDbEntity
  8
02___PRT_ALL_AXES
100
AcDbPolyline
 62
7
  6
CONTINUOUS
 90
10
 70
0
 10
8.4319833373
 20
5.8687018291
 10
8.4290650555
 20
6.0391522019
 10
8.4276237359
 20
6.1213316687
 10
8.4261928476
 20
6.1990341294
 10
8.424763727
 20
6.2709816856
 10
8.42332797
 20
6.3358935486
 10
8.4218946263
 20
6.3918233827
 10
8.4204563623
 20
6.4377270314
 10
8.4190001599
 20
6.4726800037
 10
8.4175394862
 20
6.4952547219
  0
LWPOLYLINE
  5
52B
100
AcDbEntity
  8
02___PRT_ALL_AXES
100
AcDbPolyline
 62
7
  6
CONTINUOUS
 90
10
 70
0
 10
8.4398591056
 20
6.0371001612
 10
8.4427309688
 20
5.8693398317
 10
8.4441615166
 20
5.7877391013
 10
8.4456028086
 20
5.7094157359
 10
8.4470622774
 20
5.6359592917
 10
8.4485236423
 20
5.5700742395
 10
8.4499678057
 20
5.5140569478
 10
8.4514017404
 20
5.4686881095
 10
8.4528334085
 20
5.4346359699
 10
8.4542679243
 20
5.4125775566
  0
LWPOLYLINE
  5
52C
100
AcDbEntity
  8
02___PRT_ALL_AXES
100
AcDbPolyline
 62
7
  6
CONTINUOUS
 90
7
 70
0
 10
8.4004758276
 20
6.0905433123
 10
8.3990029117
 20
6.1779044886
 10
8.3975299959
 20
6.2597761122
 10
8.39605708
 20
6.3341516562
 10
8.3945841642
 20
6.3992083095
 10
8.3931112483
 20
6.4533516502
 10
8.3916383325
 20
6.4952547219
  0
LWPOLYLINE
  5
52D
100
AcDbEntity
  8
02___PRT_ALL_AXES
100
AcDbPolyline
 62
7
  6
CONTINUOUS
 90
7
 70
0
 10
8.4078577173
 20
6.0905433123
 10
8.4063848015
 20
6.1779044886
 10
8.4049118856
 20
6.2597761122
 10
8.4034389698
 20
6.3341516562
 10
8.401966054
 20
6.3992083095
 10
8.4004931381
 20
6.4533516502
 10
8.3990202223
 20
6.4952547219
  0
LWPOLYLINE
  5
52E
100
AcDbEntity
  8
02___PRT_ALL_AXES
100
AcDbPolyline
 62
7
  6
CONTINUOUS
 90
7
 70
0
 10
8.4595309457
 20
6.0905433123
 10
8.4580580298
 20
6.1779044886
 10
8.456585114
 20
6.2597761122
 10
8.4551121981
 20
6.3341516562
 10
8.4536392823
 20
6.3992083095
 10
8.4521663665
 20
6.4533516502
 10
8.4506934506
 20
6.4952547219
  0
LWPOLYLINE
  5
52F
100
AcDbEntity
  8
02___PRT_ALL_AXES
100
AcDbPolyline
 62
7
  6
CONTINUOUS
 90
7
 70
0
 10
8.4669128354
 20
6.0905433123
 10
8.4654399196
 20
6.1779044886
 10
8.4639670038
 20
6.2597761122
 10
8.4624940879
 20
6.3341516562
 10
8.4610211721
 20
6.3992083095
 10
8.4595482562
 20
6.4533516502
 10
8.4580753404
 20
6.4952547219
  0
LINE
  5
530
100
AcDbEntity
  8
02___PRT_ALL_AXES
100
AcDbLine
 62
7
  6
CONTINUOUS
 10
8.4048945751
 20
5.8172889662
 11
8.4004758276
 21
6.0905433123
  0
LINE
  5
531
100
AcDbEntity
  8
02___PRT_ALL_AXES
100
AcDbLine
 62
7
  6
CONTINUOUS
 10
8.4122764649
 20
5.8172889662
 11
8.4078577173
 21
6.0905433123
  0
LINE
  5
532
100
AcDbEntity
  8
02___PRT_ALL_AXES
100
AcDbLine
 62
7
  6
CONTINUOUS
 10
8.4639496932
 20
5.8172889662
 11
8.4595309457
 21
6.0905433123
  0
LINE
  5
533
100
AcDbEntity
  8
02___PRT_ALL_AXES
100
AcDbLine
 62
7
  6
CONTINUOUS
 10
8.471331583
 20
5.8172889662
 11
8.4669128354
 21
6.0905433123
  0
LINE
  5
534
100
AcDbEntity
  8
0
100
AcDbLine
 62
7
  6
CONTINUOUS
 10
8.6435808706
 20
6.1981877928
 11
8.6259438026
 21
6.1676394948
  0
LINE
  5
535
100
AcDbEntity
  8
0
100
AcDbLine
 62
7
  6
CONTINUOUS
 10
8.6826727383
 20
6.1979470531
 11
8.6652344138
 21
6.1677769664
  0
LINE
  5
536
100
AcDbEntity
  8
0
100
AcDbLine
 62
7
  6
CONTINUOUS
 10
8.722042817
 20
6.1979470531
 11
8.7046044926
 21
6.1677769664
  0
LINE
  5
537
100
AcDbEntity
  8
0
100
AcDbLine
 62
7
  6
CONTINUOUS
 10
8.6385545317
 20
6.1938986997
 11
8.6248605726
 21
6.1706386669
  0
LWPOLYLINE
  5
538
100
AcDbEntity
  8
0
100
AcDbPolyline
 62
7
  6
CONTINUOUS
 90
3
 70
0
 10
8.9427934877
 20
5.7096444857
 10
8.9429521113
 20
5.7097227718
 10
8.9430716802
 20
5.7098852254
  0
LINE
  5
539
100
AcDbEntity
  8
0
100
AcDbLine
 62
7
  6
CONTINUOUS
 10
8.6095829243
 20
6.1969501917
 11
8.6081477998
 21
6.1981877928
  0
LINE
  5
53A
100
AcDbEntity
  8
0
100
AcDbLine
 62
7
  6
CONTINUOUS
 10
8.6452312571
 20
5.7406056269
 11
8.6629876989
 21
5.7098852254
  0
LINE
  5
53B
100
AcDbEntity
  8
0
100
AcDbLine
 62
7
  6
CONTINUOUS
 10
8.6846013358
 20
5.7406056269
 11
8.7023577777
 21
5.7098852254
  0
LWPOLYLINE
  5
53C
100
AcDbEntity
  8
02___PRT_ALL_AXES
100
AcDbPolyline
 62
7
  6
CONTINUOUS
 90
10
 70
0
 10
8.4910274445
 20
5.8693398317
 10
8.4881555814
 20
6.0371001612
 10
8.4867196768
 20
6.1190492285
 10
8.485278686
 20
6.1974192438
 10
8.4838194075
 20
6.2709547077
 10
8.4823579242
 20
6.3369560325
 10
8.4809130027
 20
6.3931285043
 10
8.4794838532
 20
6.4385011168
 10
8.4780440663
 20
6.4729017931
 10
8.4765946043
 20
6.4952547219
  0
LINE
  5
53D
100
AcDbEntity
  8
0
100
AcDbLine
 62
9
  6
CONTINUOUS
 10
8.5490926817
 20
5.4125775566
 11
8.5490926817
 21
6.4952547219
  0
LINE
  5
53E
100
AcDbEntity
  8
0
100
AcDbLine
 62
7
  6
CONTINUOUS
 10
8.7614128958
 20
6.1979470531
 11
8.7439745713
 21
6.1677769664
  0
LINE
  5
53F
100
AcDbEntity
  8
0
100
AcDbLine
 62
7
  6
CONTINUOUS
 10
8.8007829745
 20
6.1979470531
 11
8.78334465
 21
6.1677769664
  0
LINE
  5
540
100
AcDbEntity
  8
0
100
AcDbLine
 62
7
  6
CONTINUOUS
 10
8.8401530532
 20
6.1979470531
 11
8.8227147288
 21
6.1677769664
  0
LINE
  5
541
100
AcDbEntity
  8
0
100
AcDbLine
 62
7
  6
CONTINUOUS
 10
8.6281110502
 20
5.7098852254
 11
8.6278328391
 21
5.7096444857
  0
LINE
  5
542
100
AcDbEntity
  8
0
100
AcDbLine
 62
7
  6
CONTINUOUS
 10
8.667481129
 20
5.7098852254
 11
8.6672029179
 21
5.7096444857
  0
LINE
  5
543
100
AcDbEntity
  8
0
100
AcDbLine
 62
7
  6
CONTINUOUS
 10
8.7068512077
 20
5.7098852254
 11
8.7065729966
 21
5.7096444857
  0
LINE
  5
544
100
AcDbEntity
  8
0
100
AcDbLine
 62
7
  6
CONTINUOUS
 10
8.7462212865
 20
5.7098852254
 11
8.7459430754
 21
5.7096444857
  0
LINE
  5
545
100
AcDbEntity
  8
0
100
AcDbLine
 62
7
  6
CONTINUOUS
 10
8.6477960896
 20
6.197947053
 11
8.6475178785
 21
6.1981877928
  0
LINE
  5
546
100
AcDbEntity
  8
0
100
AcDbLine
 62
7
  6
CONTINUOUS
 10
8.6871661683
 20
6.197947053
 11
8.6868879572
 21
6.1981877928
  0
LINE
  5
547
100
AcDbEntity
  8
0
100
AcDbLine
 62
7
  6
CONTINUOUS
 10
8.7265362471
 20
6.197947053
 11
8.726258036
 21
6.1981877928
  0
LINE
  5
548
100
AcDbEntity
  8
0
100
AcDbLine
 62
7
  6
CONTINUOUS
 10
8.7659063258
 20
6.197947053
 11
8.7656281147
 21
6.1981877928
  0
LINE
  5
549
100
AcDbEntity
  8
0
100
AcDbLine
 62
7
  6
CONTINUOUS
 10
8.7239714146
 20
5.7406056269
 11
8.7417278564
 21
5.7098852254
  0
LINE
  5
54A
100
AcDbEntity
  8
0
100
AcDbLine
 62
7
  6
CONTINUOUS
 10
8.7633414933
 20
5.7406056269
 11
8.7810979351
 21
5.7098852254
  0
LINE
  5
54B
100
AcDbEntity
  8
0
100
AcDbLine
 62
7
  6
CONTINUOUS
 10
8.802711572
 20
5.7406056269
 11
8.8204680139
 21
5.7098852254
  0
LINE
  5
54C
100
AcDbEntity
  8
0
100
AcDbLine
 62
7
  6
CONTINUOUS
 10
8.8420816508
 20
5.7406056269
 11
8.8598380926
 21
5.7098852254
  0
LWPOLYLINE
  5
54D
100
AcDbEntity
  8
0
100
AcDbPolyline
 62
7
  6
CONTINUOUS
 90
10
 70
0
 10
8.6452312571
 20
5.7406056269
 10
8.6449672901
 20
5.7412513605
 10
8.6439618714
 20
5.7471486966
 10
8.6429564527
 20
5.7583581936
 10
8.641951034
 20
5.774591863
 10
8.6409456154
 20
5.7954326378
 10
8.6399401967
 20
5.8203450877
 10
8.638934778
 20
5.8486891752
 10
8.6379293593
 20
5.8797366988
 10
8.6369239406
 20
5.9126900018
  0
LWPOLYLINE
  5
54E
100
AcDbEntity
  8
0
100
AcDbPolyline
 62
7
  6
CONTINUOUS
 90
10
 70
0
 10
8.6846013358
 20
5.7406056269
 10
8.6841786185
 20
5.7418215232
 10
8.6831731998
 20
5.7485712605
 10
8.6821677811
 20
5.7605966109
 10
8.6811623625
 20
5.7775886255
 10
8.6801569438
 20
5.7991107543
 10
8.6791515251
 20
5.8246100619
 10
8.6781461064
 20
5.8534314336
 10
8.6771406877
 20
5.8848344058
 10
8.6761352691
 20
5.9180121897
  0
LWPOLYLINE
  5
54F
100
AcDbEntity
  8
0
100
AcDbPolyline
 62
7
  6
CONTINUOUS
 90
9
 70
0
 10
8.6278328391
 20
5.7096444857
 10
8.6268515688
 20
5.7126337191
 10
8.6258578553
 20
5.7216781766
 10
8.6248640536
 20
5.7365529117
 10
8.623882084
 20
5.7566117045
 10
8.6229031396
 20
5.7814228003
 10
8.6219198575
 20
5.8105725532
 10
8.6209434947
 20
5.8430045635
 10
8.6199691602
 20
5.8780489031
  0
LWPOLYLINE
  5
550
100
AcDbEntity
  8
0
100
AcDbPolyline
 62
7
  6
CONTINUOUS
 90
9
 70
0
 10
8.6672029179
 20
5.7096444857
 10
8.6662209957
 20
5.7126376837
 10
8.6652267847
 20
5.7216920706
 10
8.6642327188
 20
5.7365780611
 10
8.6632507231
 20
5.7566447962
 10
8.6622719349
 20
5.78145823
 10
8.6612890408
 20
5.8106008229
 10
8.6603130365
 20
5.8430232131
 10
8.6593386436
 20
5.8780709637
  0
LWPOLYLINE
  5
551
100
AcDbEntity
  8
0
100
AcDbPolyline
 62
7
  6
CONTINUOUS
 90
9
 70
0
 10
8.7065729966
 20
5.7096444857
 10
8.7055903367
 20
5.7126421737
 10
8.7045955737
 20
5.7217076709
 10
8.7036011904
 20
5.736606668
 10
8.7026191191
 20
5.7566834901
 10
8.701640431
 20
5.7815019298
 10
8.7006578716
 20
5.8106402217
 10
8.6996821418
 20
5.8430570261
 10
8.6987076384
 20
5.8781111335
  0
LWPOLYLINE
  5
552
100
AcDbEntity
  8
0
100
AcDbPolyline
 62
7
  6
CONTINUOUS
 90
9
 70
0
 10
8.673119013
 20
6.0195745648
 10
8.6721135944
 20
6.0512033185
 10
8.6711081757
 20
6.0803326209
 10
8.670102757
 20
6.1062140972
 10
8.6690973383
 20
6.1281828142
 10
8.6680919196
 20
6.1456743629
 10
8.667086501
 20
6.1582393597
 10
8.6660810823
 20
6.1655549913
 10
8.6655525314
 20
6.1672266516
  0
LWPOLYLINE
  5
553
100
AcDbEntity
  8
0
100
AcDbPolyline
 62
7
  6
CONTINUOUS
 90
9
 70
0
 10
8.6339076846
 20
6.0144047896
 10
8.6329022659
 20
6.0463552782
 10
8.6318968473
 20
6.0759308689
 10
8.6308914286
 20
6.102371721
 10
8.6298860099
 20
6.1249985299
 10
8.6288805912
 20
6.1432299797
 10
8.6278751725
 20
6.1565976774
 10
8.6268697539
 20
6.1647581871
 10
8.6261824527
 20
6.1672266516
  0
LINE
  5
554
100
AcDbEntity
  8
0
100
AcDbLine
 62
7
  6
CONTINUOUS
 10
8.6369239406
 20
5.9126900018
 11
8.6339076846
 21
6.0144047896
  0
LINE
  5
555
100
AcDbEntity
  8
0
100
AcDbLine
 62
7
  6
CONTINUOUS
 10
8.6761352691
 20
5.9180121897
 11
8.673119013
 21
6.0195745648
  0
LWPOLYLINE
  5
556
100
AcDbEntity
  8
0
100
AcDbPolyline
 62
7
  6
CONTINUOUS
 90
8
 70
0
 10
8.6160139912
 20
6.0296902661
 10
8.6150392676
 20
6.064753954
 10
8.6140638266
 20
6.0971635813
 10
8.6130816922
 20
6.126293702
 10
8.612103102
 20
6.1511160144
 10
8.6111209618
 20
6.1712014681
 10
8.6101263317
 20
6.1861111845
 10
8.6091311036
 20
6.1951861826
  0
LWPOLYLINE
  5
557
100
AcDbEntity
  8
0
100
AcDbPolyline
 62
7
  6
CONTINUOUS
 90
9
 70
0
 10
8.655402231
 20
5.8780489031
 10
8.6563765656
 20
5.8430045635
 10
8.6573529284
 20
5.8105725532
 10
8.6583362105
 20
5.7814228003
 10
8.6593151548
 20
5.7566117045
 10
8.6602971245
 20
5.7365529117
 10
8.6612909262
 20
5.7216781766
 10
8.6622846397
 20
5.7126337191
 10
8.6629876989
 20
5.7098852254
  0
LWPOLYLINE
  5
558
100
AcDbEntity
  8
0
100
AcDbPolyline
 62
7
  6
CONTINUOUS
 90
9
 70
0
 10
8.6553836842
 20
6.0297045633
 10
8.6544091238
 20
6.0647616867
 10
8.6534335117
 20
6.0971760108
 10
8.6524510962
 20
6.1263123378
 10
8.6514724474
 20
6.151132886
 10
8.6504903778
 20
6.1712132708
 10
8.6494958974
 20
6.1861173956
 10
8.6485008923
 20
6.1951879494
 10
8.6477960896
 20
6.197947053
  0
LWPOLYLINE
  5
559
100
AcDbEntity
  8
0
100
AcDbPolyline
 62
7
  6
CONTINUOUS
 90
9
 70
0
 10
8.6947717145
 20
5.8780709637
 10
8.6957461074
 20
5.8430232131
 10
8.6967221116
 20
5.8106008229
 10
8.6977050058
 20
5.78145823
 10
8.698683794
 20
5.7566447962
 10
8.6996657897
 20
5.7365780611
 10
8.7006598556
 20
5.7216920706
 10
8.7016540666
 20
5.7126376837
 10
8.7023577777
 20
5.7098852254
  0
LINE
  5
55A
100
AcDbEntity
  8
0
100
AcDbLine
 62
7
  6
CONTINUOUS
 10
8.6199691602
 20
5.8780489031
 11
8.6160139912
 21
6.0296902661
  0
LINE
  5
55B
100
AcDbEntity
  8
0
100
AcDbLine
 62
7
  6
CONTINUOUS
 10
8.6514470621
 20
6.0296902661
 11
8.655402231
 21
5.8780489031
  0
LINE
  5
55C
100
AcDbEntity
  8
0
100
AcDbLine
 62
7
  6
CONTINUOUS
 10
8.6593386436
 20
5.8780709637
 11
8.6553836842
 21
6.0297045633
  0
LINE
  5
55D
100
AcDbEntity
  8
0
100
AcDbLine
 62
7
  6
CONTINUOUS
 10
8.690816755
 20
6.0297045633
 11
8.6947717145
 21
5.8780709637
  0
LINE
  5
55E
100
AcDbEntity
  8
0
100
AcDbLine
 62
7
  6
CONTINUOUS
 10
8.5884627604
 20
5.4519476353
 11
8.5884627604
 21
6.4558846432
  0
LINE
  5
55F
100
AcDbEntity
  8
0
100
AcDbLine
 62
9
  6
CONTINUOUS
 10
8.6036433031
 20
6.1981877928
 11
8.6036433031
 21
5.7096444857
  0
LINE
  5
560
100
AcDbEntity
  8
0
100
AcDbLine
 62
7
  6
CONTINUOUS
 10
8.879523132
 20
6.1979470531
 11
8.8620848075
 21
6.1677769664
  0
LINE
  5
561
100
AcDbEntity
  8
0
100
AcDbLine
 62
7
  6
CONTINUOUS
 10
8.6281110502
 20
5.7098852254
 11
8.6455493744
 21
5.7400553121
  0
LINE
  5
562
100
AcDbEntity
  8
0
100
AcDbLine
 62
7
  6
CONTINUOUS
 10
8.9188932107
 20
6.1979470531
 11
8.9014548863
 21
6.1677769664
  0
LINE
  5
563
100
AcDbEntity
  8
0
100
AcDbLine
 62
7
  6
CONTINUOUS
 10
8.667481129
 20
5.7098852254
 11
8.6849194532
 21
5.7400553121
  0
LINE
  5
564
100
AcDbEntity
  8
0
100
AcDbLine
 62
7
  6
CONTINUOUS
 10
8.9540365763
 20
6.1906336083
 11
8.940824965
 21
6.1677769664
  0
LINE
  5
565
100
AcDbEntity
  8
0
100
AcDbLine
 62
7
  6
CONTINUOUS
 10
8.7068512077
 20
5.7098852254
 11
8.7242895319
 21
5.7400553121
  0
LINE
  5
566
100
AcDbEntity
  8
0
100
AcDbLine
 62
7
  6
CONTINUOUS
 10
8.7855913652
 20
5.7098852254
 11
8.7853131541
 21
5.7096444857
  0
LINE
  5
567
100
AcDbEntity
  8
0
100
AcDbLine
 62
7
  6
CONTINUOUS
 10
8.8249614439
 20
5.7098852254
 11
8.8246832328
 21
5.7096444857
  0
LINE
  5
568
100
AcDbEntity
  8
0
100
AcDbLine
 62
7
  6
CONTINUOUS
 10
8.8643315227
 20
5.7098852254
 11
8.8640533116
 21
5.7096444857
  0
LINE
  5
569
100
AcDbEntity
  8
0
100
AcDbLine
 62
7
  6
CONTINUOUS
 10
8.9037016014
 20
5.7098852254
 11
8.9034233903
 21
5.7096444857
  0
LINE
  5
56A
100
AcDbEntity
  8
02___PRT_ALL_AXES
100
AcDbLine
 62
7
  6
CONTINUOUS
 10
7.289250162
 20
6.9381681077
 11
7.7616911068
 21
6.9381681077
  0
LINE
  5
56B
100
AcDbEntity
  8
0
100
AcDbLine
 62
7
  6
CONTINUOUS
 10
8.8052764046
 20
6.197947053
 11
8.8049981935
 21
6.1981877928
  0
LINE
  5
56C
100
AcDbEntity
  8
0
100
AcDbLine
 62
7
  6
CONTINUOUS
 10
8.8446464833
 20
6.197947053
 11
8.8443682722
 21
6.1981877928
  0
LINE
  5
56D
100
AcDbEntity
  8
0
100
AcDbLine
 62
7
  6
CONTINUOUS
 10
8.884016562
 20
6.197947053
 11
8.8837383509
 21
6.1981877928
  0
LINE
  5
56E
100
AcDbEntity
  8
0
100
AcDbLine
 62
7
  6
CONTINUOUS
 10
8.9231084297
 20
6.1981877928
 11
8.9233866408
 21
6.197947053
  0
LINE
  5
56F
100
AcDbEntity
  8
0
100
AcDbLine
 62
7
  6
CONTINUOUS
 10
8.6251565951
 20
6.1701290797
 11
8.6095829243
 21
6.1969501917
  0
LINE
  5
570
100
AcDbEntity
  8
0
100
AcDbLine
 62
7
  6
CONTINUOUS
 10
8.6261824527
 20
6.1672266516
 11
8.6084260109
 21
6.197947053
  0
LINE
  5
571
100
AcDbEntity
  8
0
100
AcDbLine
 62
7
  6
CONTINUOUS
 10
8.8814517295
 20
5.7406056269
 11
8.8992081714
 21
5.7098852254
  0
LINE
  5
572
100
AcDbEntity
  8
0
100
AcDbLine
 62
7
  6
CONTINUOUS
 10
8.6655525314
 20
6.1672266516
 11
8.6477960896
 21
6.197947053
  0
LINE
  5
573
100
AcDbEntity
  8
0
100
AcDbLine
 62
7
  6
CONTINUOUS
 10
8.9208218083
 20
5.7406056269
 11
8.9385782501
 21
5.7098852254
  0
LINE
  5
574
100
AcDbEntity
  8
0
100
AcDbLine
 62
7
  6
CONTINUOUS
 10
8.7049226101
 20
6.1672266516
 11
8.6871661683
 21
6.197947053
  0
LINE
  5
575
100
AcDbEntity
  8
0
100
AcDbLine
 62
7
  6
CONTINUOUS
 10
8.960191887
 20
5.7406056269
 11
8.9665063065
 21
5.72968214
  0
LWPOLYLINE
  5
576
100
AcDbEntity
  8
0
100
AcDbPolyline
 62
7
  6
CONTINUOUS
 90
10
 70
0
 10
8.7459430754
 20
5.7096444857
 10
8.7450086127
 20
5.7123558573
 10
8.7440623205
 20
5.7205657164
 10
8.743114859
 20
5.7341074881
 10
8.7421767179
 20
5.7524596646
 10
8.7412456362
 20
5.7751316783
 10
8.7403086234
 20
5.801924968
 10
8.7393757108
 20
5.8319722882
 10
8.7384475016
 20
5.8645470885
 10
8.7375168278
 20
5.8991730661
  0
LWPOLYLINE
  5
577
100
AcDbEntity
  8
0
100
AcDbPolyline
 62
7
  6
CONTINUOUS
 90
9
 70
0
 10
8.7853131541
 20
5.7096444857
 10
8.7843313524
 20
5.7126369506
 10
8.7833372341
 20
5.7216894932
 10
8.7823432217
 20
5.736573315
 10
8.7813612393
 20
5.7566383596
 10
8.7803824351
 20
5.7814509429
 10
8.7793994858
 20
5.8105942318
 10
8.7784234331
 20
5.8430176419
 10
8.7774490593
 20
5.8780643129
  0
LWPOLYLINE
  5
578
100
AcDbEntity
  8
0
100
AcDbPolyline
 62
7
  6
CONTINUOUS
 90
9
 70
0
 10
8.8246832328
 20
5.7096444857
 10
8.8237006976
 20
5.7126414144
 10
8.8227060262
 20
5.7217050546
 10
8.8217116953
 20
5.7366018846
 10
8.8207296361
 20
5.7566770323
 10
8.8197509309
 20
5.7814946493
 10
8.8187683152
 20
5.8106336728
 10
8.8177925416
 20
5.8430513446
 10
8.8168180561
 20
5.8781044069
  0
LWPOLYLINE
  5
579
100
AcDbEntity
  8
0
100
AcDbPolyline
 62
7
  6
CONTINUOUS
 90
9
 70
0
 10
8.6435808706
 20
6.1981877928
 10
8.6445641745
 20
6.1951861826
 10
8.6455594026
 20
6.1861111845
 10
8.6465540326
 20
6.1712014681
 10
8.6475361729
 20
6.1511160144
 10
8.6485147631
 20
6.126293702
 10
8.6494968975
 20
6.0971635813
 10
8.6504723385
 20
6.064753954
 10
8.6514470621
 20
6.0296902661
  0
LWPOLYLINE
  5
57A
100
AcDbEntity
  8
0
100
AcDbPolyline
 62
7
  6
CONTINUOUS
 90
9
 70
0
 10
8.7239714146
 20
5.7406056269
 10
8.7233899469
 20
5.7425278187
 10
8.7223845282
 20
5.7501256249
 10
8.7213791096
 20
5.7629591103
 10
8.7203736909
 20
5.7806985638
 10
8.7193682722
 20
5.8028882325
 10
8.7183628535
 20
5.8289580311
 10
8.7173574348
 20
5.8582381881
 10
8.7163520162
 20
5.8899764529
  0
LINE
  5
57B
100
AcDbEntity
  8
0
100
AcDbLine
 62
7
  6
CONTINUOUS
 10
8.6258643352
 20
6.1675018533
 11
8.6251565951
 21
6.1701290797
  0
LWPOLYLINE
  5
57C
100
AcDbEntity
  8
0
100
AcDbPolyline
 62
7
  6
CONTINUOUS
 90
9
 70
0
 10
8.7633414933
 20
5.7406056269
 10
8.7626012753
 20
5.7433697936
 10
8.7615958567
 20
5.7518107921
 10
8.760590438
 20
5.7654441753
 10
8.7595850193
 20
5.7839196816
 10
8.7585796006
 20
5.8067626479
 10
8.7575741819
 20
5.8333862046
 10
8.7565687633
 20
5.8631063534
 10
8.7555633446
 20
5.8951595396
  0
LINE
  5
57D
100
AcDbEntity
  8
0
100
AcDbLine
 62
7
  6
CONTINUOUS
 10
8.6091311036
 20
6.1951861826
 11
8.6084260109
 21
6.197947053
  0
LWPOLYLINE
  5
57E
100
AcDbEntity
  8
0
100
AcDbPolyline
 62
7
  6
CONTINUOUS
 90
8
 70
0
 10
8.7505362512
 20
6.0607089963
 10
8.7495308325
 20
6.0888899308
 10
8.7485254138
 20
6.1136031893
 10
8.7475199952
 20
6.1342138517
 10
8.7465145765
 20
6.1501923996
 10
8.7455091578
 20
6.1611283206
 10
8.7445037391
 20
6.1667406548
 10
8.7442926889
 20
6.1672266516
  0
LWPOLYLINE
  5
57F
100
AcDbEntity
  8
0
100
AcDbPolyline
 62
7
  6
CONTINUOUS
 90
8
 70
0
 10
8.7328197158
 20
6.076051966
 10
8.7318880607
 20
6.1060423835
 10
8.7309520662
 20
6.1327911268
 10
8.7300217871
 20
6.155430057
 10
8.7290845595
 20
6.1737535676
 10
8.7281377923
 20
6.1872780683
 10
8.7271920506
 20
6.1954790155
 10
8.7265362471
 20
6.197947053
  0
LWPOLYLINE
  5
580
100
AcDbEntity
  8
0
100
AcDbPolyline
 62
7
  6
CONTINUOUS
 90
9
 70
0
 10
8.791758417
 20
6.0021967778
 10
8.7907529983
 20
6.034817898
 10
8.7897475796
 20
6.0653605325
 10
8.7887421609
 20
6.0930399961
 10
8.7877367423
 20
6.1171451623
 10
8.7867313236
 20
6.1370567339
 10
8.7857259049
 20
6.1522631532
 10
8.7847204862
 20
6.1623737449
 10
8.7836627676
 20
6.1672266516
  0
LWPOLYLINE
  5
581
100
AcDbEntity
  8
0
100
AcDbPolyline
 62
7
  6
CONTINUOUS
 90
3
 70
0
 10
8.7525470886
 20
5.9969106274
 10
8.7515416699
 20
6.0297843956
 10
8.7505362512
 20
6.0607089963
  0
LWPOLYLINE
  5
582
100
AcDbEntity
  8
0
100
AcDbPolyline
 62
7
  6
CONTINUOUS
 90
10
 70
0
 10
8.7133357601
 20
5.991596881
 10
8.7123303415
 20
6.0247021972
 10
8.7113249228
 20
6.0559889151
 10
8.7103195041
 20
6.0846532326
 10
8.7093140854
 20
6.1099587212
 10
8.7083086667
 20
6.1312552454
 10
8.7073032481
 20
6.1479956662
 10
8.7062978294
 20
6.1597498973
 10
8.7052924107
 20
6.1662159553
 10
8.7049226101
 20
6.1672266516
  0
LINE
  5
583
100
AcDbEntity
  8
0
100
AcDbLine
 62
7
  6
CONTINUOUS
 10
8.7163520162
 20
5.8899764529
 11
8.7133357601
 21
5.991596881
  0
LINE
  5
584
100
AcDbEntity
  8
0
100
AcDbLine
 62
7
  6
CONTINUOUS
 10
8.7555633446
 20
5.8951595396
 11
8.7525470886
 21
5.9969106274
  0
LINE
  5
585
100
AcDbEntity
  8
0
100
AcDbLine
 62
7
  6
CONTINUOUS
 10
8.794774673
 20
5.9003803392
 11
8.791758417
 21
6.0021967778
  0
LWPOLYLINE
  5
586
100
AcDbEntity
  8
0
100
AcDbPolyline
 62
7
  6
CONTINUOUS
 90
3
 70
0
 10
8.7682527866
 20
6.076051966
 10
8.7691815069
 20
6.0434728675
 10
8.7701121565
 20
6.0088566732
  0
LWPOLYLINE
  5
587
100
AcDbEntity
  8
0
100
AcDbPolyline
 62
7
  6
CONTINUOUS
 90
9
 70
0
 10
8.6947526745
 20
6.029744899
 10
8.6937782228
 20
6.0647957207
 10
8.6928023484
 20
6.0972152269
 10
8.6918195957
 20
6.1263559498
 10
8.6908408435
 20
6.1511715836
 10
8.6898588462
 20
6.171241939
 10
8.68886468
 20
6.1861330776
 10
8.6878702237
 20
6.1951925001
 10
8.6871661683
 20
6.197947053
  0
LWPOLYLINE
  5
588
100
AcDbEntity
  8
0
100
AcDbPolyline
 62
7
  6
CONTINUOUS
 90
9
 70
0
 10
8.7341407092
 20
5.8781111335
 10
8.7351152127
 20
5.8430570261
 10
8.7360909424
 20
5.8106402217
 10
8.7370735019
 20
5.7815019298
 10
8.73805219
 20
5.7566834901
 10
8.7390342612
 20
5.736606668
 10
8.7400286446
 20
5.7217076709
 10
8.7410234076
 20
5.7126421737
 10
8.7417278564
 20
5.7098852254
  0
LWPOLYLINE
  5
589
100
AcDbEntity
  8
0
100
AcDbPolyline
 62
7
  6
CONTINUOUS
 90
9
 70
0
 10
8.773494103
 20
6.0296977971
 10
8.7725195251
 20
6.0647559504
 10
8.7715439542
 20
6.0971694998
 10
8.7705615955
 20
6.1263050735
 10
8.7695829645
 20
6.1511264244
 10
8.7686008835
 20
6.1712084713
 10
8.7676063514
 20
6.1861147595
 10
8.7666112556
 20
6.1951871758
 10
8.7659063258
 20
6.197947053
  0
LWPOLYLINE
  5
58A
100
AcDbEntity
  8
0
100
AcDbPolyline
 62
7
  6
CONTINUOUS
 90
3
 70
0
 10
8.7346790856
 20
6.0088566732
 10
8.733748436
 20
6.0434728675
 10
8.7328197158
 20
6.076051966
  0
LWPOLYLINE
  5
58B
100
AcDbEntity
  8
0
100
AcDbPolyline
 62
7
  6
CONTINUOUS
 90
10
 70
0
 10
8.7729498987
 20
5.8991730661
 10
8.7738805725
 20
5.8645470885
 10
8.7748087816
 20
5.8319722882
 10
8.7757416942
 20
5.801924968
 10
8.7766787071
 20
5.7751316783
 10
8.7776097888
 20
5.7524596646
 10
8.7785479299
 20
5.7341074881
 10
8.7794953914
 20
5.7205657164
 10
8.7804416836
 20
5.7123558573
 10
8.7810979351
 20
5.7098852254
  0
LINE
  5
58C
100
AcDbEntity
  8
0
100
AcDbLine
 62
7
  6
CONTINUOUS
 10
8.6987076384
 20
5.8781111335
 11
8.6947526745
 21
6.029744899
  0
LINE
  5
58D
100
AcDbEntity
  8
0
100
AcDbLine
 62
7
  6
CONTINUOUS
 10
8.7301857454
 20
6.029744899
 11
8.7341407092
 21
5.8781111335
  0
LINE
  5
58E
100
AcDbEntity
  8
0
100
AcDbLine
 62
7
  6
CONTINUOUS
 10
8.7375168278
 20
5.8991730661
 11
8.7346790856
 21
6.0088566732
  0
LINE
  5
58F
100
AcDbEntity
  8
0
100
AcDbLine
 62
7
  6
CONTINUOUS
 10
8.7701121565
 20
6.0088566732
 11
8.7729498987
 21
5.8991730661
  0
LINE
  5
590
100
AcDbEntity
  8
0
100
AcDbLine
 62
7
  6
CONTINUOUS
 10
8.7774490593
 20
5.8780643129
 11
8.773494103
 21
6.0296977971
  0
LINE
  5
591
100
AcDbEntity
  8
0
100
AcDbLine
 62
7
  6
CONTINUOUS
 10
8.7462212865
 20
5.7098852254
 11
8.7636596107
 21
5.7400553121
  0
LINE
  5
592
100
AcDbEntity
  8
0
100
AcDbLine
 62
7
  6
CONTINUOUS
 10
8.7855913652
 20
5.7098852254
 11
8.8030296894
 21
5.7400553121
  0
LINE
  5
593
100
AcDbEntity
  8
0
100
AcDbLine
 62
7
  6
CONTINUOUS
 10
8.8249614439
 20
5.7098852254
 11
8.8423997681
 21
5.7400553121
  0
LINE
  5
594
100
AcDbEntity
  8
0
100
AcDbLine
 62
7
  6
CONTINUOUS
 10
8.9821635716
 20
5.7450775327
 11
8.9666981995
 21
5.7296121571
  0
LINE
  5
595
100
AcDbEntity
  8
0
100
AcDbLine
 62
7
  6
CONTINUOUS
 10
8.9821635716
 20
6.1627547457
 11
8.9542183856
 21
6.1906999381
  0
LINE
  5
596
100
AcDbEntity
  8
0
100
AcDbLine
 62
7
  6
CONTINUOUS
 10
8.7442926889
 20
6.1672266516
 11
8.7265362471
 21
6.197947053
  0
LINE
  5
597
100
AcDbEntity
  8
0
100
AcDbLine
 62
7
  6
CONTINUOUS
 10
8.7836627676
 20
6.1672266516
 11
8.7659063258
 21
6.197947053
  0
LINE
  5
598
100
AcDbEntity
  8
0
100
AcDbLine
 62
7
  6
CONTINUOUS
 10
8.8230328464
 20
6.1672266516
 11
8.8052764046
 21
6.197947053
  0
LWPOLYLINE
  5
599
100
AcDbEntity
  8
0
100
AcDbPolyline
 62
7
  6
CONTINUOUS
 90
8
 70
0
 10
8.8814517295
 20
5.7406056269
 10
8.88122042
 20
5.7411509865
 10
8.8802183779
 20
5.7468442446
 10
8.8792163358
 20
5.7578218888
 10
8.8782142936
 20
5.7738037743
 10
8.8772122515
 20
5.7943820503
 10
8.8762102094
 20
5.819031568
 10
8.8752081672
 20
5.8471232822
  0
LWPOLYLINE
  5
59A
100
AcDbEntity
  8
0
100
AcDbPolyline
 62
7
  6
CONTINUOUS
 90
8
 70
0
 10
8.8640533116
 20
5.7096444857
 10
8.8631197245
 20
5.7123507883
 10
8.8621742932
 20
5.7205457109
 10
8.8612276378
 20
5.7340642701
 10
8.8602904625
 20
5.7523823471
 10
8.8593599105
 20
5.7750244481
 10
8.8584236333
 20
5.8017793256
 10
8.8574916318
 20
5.8317803125
  0
LWPOLYLINE
  5
59B
100
AcDbEntity
  8
0
100
AcDbPolyline
 62
7
  6
CONTINUOUS
 90
8
 70
0
 10
8.7616911068
 20
6.1981877928
 10
8.7626251215
 20
6.1954790155
 10
8.7635708631
 20
6.1872780683
 10
8.7645176304
 20
6.1737535676
 10
8.765454858
 20
6.155430057
 10
8.7663851371
 20
6.1327911268
 10
8.7673211316
 20
6.1060423835
 10
8.7682527866
 20
6.076051966
  0
LWPOLYLINE
  5
59C
100
AcDbEntity
  8
0
100
AcDbPolyline
 62
7
  6
CONTINUOUS
 90
10
 70
0
 10
8.9385782501
 20
5.7098852254
 10
8.938178799
 20
5.7110716482
 10
8.9372284252
 20
5.7178433494
 10
8.9362780515
 20
5.7300354237
 10
8.9353276923
 20
5.747367632
 10
8.9343773426
 20
5.7694419309
 10
8.9334269918
 20
5.7957516885
 10
8.9324766431
 20
5.8256927507
 10
8.9315263005
 20
5.8585775269
 10
8.9305759545
 20
5.8936513214
  0
LWPOLYLINE
  5
59D
100
AcDbEntity
  8
0
100
AcDbPolyline
 62
7
  6
CONTINUOUS
 90
9
 70
0
 10
8.9034233903
 20
5.7096444857
 10
8.9024417062
 20
5.7126362355
 10
8.9014476785
 20
5.7216869766
 10
8.9004537176
 20
5.7365686943
 10
8.8994717466
 20
5.7566321283
 10
8.8984929242
 20
5.7814439607
 10
8.8975099177
 20
5.8105880529
 10
8.8965338138
 20
5.8430126234
 10
8.8955594571
 20
5.8780583251
  0
LWPOLYLINE
  5
59E
100
AcDbEntity
  8
0
100
AcDbPolyline
 62
7
  6
CONTINUOUS
 90
9
 70
0
 10
8.7223210281
 20
6.1981877928
 10
8.7233032945
 20
6.1951925001
 10
8.7242977508
 20
6.1861330776
 10
8.7252919171
 20
6.171241939
 10
8.7262739143
 20
6.1511715836
 10
8.7272526666
 20
6.1263559498
 10
8.7282354193
 20
6.0972152269
 10
8.7292112936
 20
6.0647957207
 10
8.7301857454
 20
6.029744899
  0
LWPOLYLINE
  5
59F
100
AcDbEntity
  8
0
100
AcDbPolyline
 62
7
  6
CONTINUOUS
 90
9
 70
0
 10
8.6829509494
 20
6.1981877928
 10
8.6839339632
 20
6.1951879494
 10
8.6849289682
 20
6.1861173956
 10
8.6859234486
 20
6.1712132708
 10
8.6869055182
 20
6.151132886
 10
8.6878841671
 20
6.1263123378
 10
8.6888665826
 20
6.0971760108
 10
8.6898421946
 20
6.0647616867
 10
8.690816755
 20
6.0297045633
  0
LWPOLYLINE
  5
5A0
100
AcDbEntity
  8
0
100
AcDbPolyline
 62
7
  6
CONTINUOUS
 90
9
 70
0
 10
8.9208218083
 20
5.7406056269
 10
8.9203000634
 20
5.7422461598
 10
8.9192980212
 20
5.7494920834
 10
8.9182959791
 20
5.7619548213
 10
8.917293937
 20
5.77931633
 10
8.9162918948
 20
5.8011335511
 10
8.9152898527
 20
5.8268497184
 10
8.9142878105
 20
5.8558085664
 10
8.9132857684
 20
5.8872710777
  0
LWPOLYLINE
  5
5A1
100
AcDbEntity
  8
0
100
AcDbPolyline
 62
7
  6
CONTINUOUS
 90
9
 70
0
 10
8.802711572
 20
5.7406056269
 10
8.8018126038
 20
5.7443469076
 10
8.8008071851
 20
5.7536256805
 10
8.7998017664
 20
5.768050211
 10
8.7987963477
 20
5.7872499116
 10
8.797790929
 20
5.8107315137
 10
8.7967855104
 20
5.8378917402
 10
8.7957800917
 20
5.8680328048
 10
8.794774673
 20
5.9003803392
  0
LWPOLYLINE
  5
5A2
100
AcDbEntity
  8
0
100
AcDbPolyline
 62
7
  6
CONTINUOUS
 90
9
 70
0
 10
8.8420816508
 20
5.7406056269
 10
8.8410239322
 20
5.7454585336
 10
8.8400185135
 20
5.7555691252
 10
8.8390130948
 20
5.7707755446
 10
8.8380076761
 20
5.7906871162
 10
8.8370022575
 20
5.8147922824
 10
8.8359968388
 20
5.8424717459
 10
8.8349914201
 20
5.8730143805
 10
8.8339860014
 20
5.9056355007
  0
LWPOLYLINE
  5
5A3
100
AcDbEntity
  8
0
100
AcDbPolyline
 62
7
  6
CONTINUOUS
 90
3
 70
0
 10
8.8752081672
 20
5.8471232822
 10
8.8742027485
 20
5.8780478829
 10
8.8731973299
 20
5.9109216511
  0
LWPOLYLINE
  5
5A4
100
AcDbEntity
  8
0
100
AcDbPolyline
 62
7
  6
CONTINUOUS
 90
9
 70
0
 10
8.9092775999
 20
6.0215786632
 10
8.9082755577
 20
6.0529745297
 10
8.9072735156
 20
6.0818424686
 10
8.9062714735
 20
6.1074457822
 10
8.9052694313
 20
6.1291310851
 10
8.9042673892
 20
6.1463449776
 10
8.903265347
 20
6.1586481685
 10
8.9022633049
 20
6.1657266856
 10
8.9017730039
 20
6.1672266516
  0
LWPOLYLINE
  5
5A5
100
AcDbEntity
  8
0
100
AcDbPolyline
 62
7
  6
CONTINUOUS
 90
9
 70
0
 10
8.8701810738
 20
6.0126727389
 10
8.8691756551
 20
6.0447259251
 10
8.8681702365
 20
6.0744460739
 10
8.8671648178
 20
6.1010696306
 10
8.8661593991
 20
6.1239125969
 10
8.8651539804
 20
6.1423881032
 10
8.8641485618
 20
6.1560214864
 10
8.8631431431
 20
6.1644624849
 10
8.8624029251
 20
6.1672266516
  0
LWPOLYLINE
  5
5A6
100
AcDbEntity
  8
0
100
AcDbPolyline
 62
7
  6
CONTINUOUS
 90
9
 70
0
 10
8.8309697454
 20
6.0074519393
 10
8.8299643267
 20
6.0397994736
 10
8.828958908
 20
6.0699405383
 10
8.8279534894
 20
6.0971007648
 10
8.8269480707
 20
6.1205823669
 10
8.825942652
 20
6.1397820675
 10
8.8249372333
 20
6.154206598
 10
8.8239318147
 20
6.1634853708
 10
8.8230328464
 20
6.1672266516
  0
LWPOLYLINE
  5
5A7
100
AcDbEntity
  8
0
100
AcDbPolyline
 62
7
  6
CONTINUOUS
 90
8
 70
0
 10
8.8929247026
 20
5.8317803125
 10
8.8938567042
 20
5.8017793256
 10
8.8947929814
 20
5.7750244481
 10
8.8957235334
 20
5.7523823471
 10
8.8966607087
 20
5.7340642701
 10
8.897607364
 20
5.7205457109
 10
8.8985527954
 20
5.7123507883
 10
8.8992081714
 20
5.7098852254
  0
LINE
  5
5A8
100
AcDbEntity
  8
0
100
AcDbLine
 62
7
  6
CONTINUOUS
 10
8.8339860014
 20
5.9056355007
 11
8.8309697454
 21
6.0074519393
  0
LINE
  5
5A9
100
AcDbEntity
  8
0
100
AcDbLine
 62
7
  6
CONTINUOUS
 10
8.8731973299
 20
5.9109216511
 11
8.8701810738
 21
6.0126727389
  0
LWPOLYLINE
  5
5AA
100
AcDbEntity
  8
0
100
AcDbPolyline
 62
7
  6
CONTINUOUS
 90
3
 70
0
 10
8.9132857684
 20
5.8872710777
 10
8.9112816841
 20
5.9544520483
 10
8.9092775999
 20
6.0215786632
  0
LWPOLYLINE
  5
5AB
100
AcDbEntity
  8
0
100
AcDbPolyline
 62
7
  6
CONTINUOUS
 90
3
 70
0
 10
8.8574916318
 20
5.8317803125
 10
8.8565630477
 20
5.8643544734
 10
8.8556325053
 20
5.8989663609
  0
LWPOLYLINE
  5
5AC
100
AcDbEntity
  8
0
100
AcDbPolyline
 62
7
  6
CONTINUOUS
 90
9
 70
0
 10
8.8128821302
 20
5.8780643129
 10
8.813856504
 20
5.8430176419
 10
8.8148325566
 20
5.8105942318
 10
8.815815506
 20
5.7814509429
 10
8.8167943102
 20
5.7566383596
 10
8.8177762926
 20
5.736573315
 10
8.818770305
 20
5.7216894932
 10
8.8197644233
 20
5.7126369506
 10
8.8204680139
 20
5.7098852254
  0
LWPOLYLINE
  5
5AD
100
AcDbEntity
  8
0
100
AcDbPolyline
 62
7
  6
CONTINUOUS
 90
9
 70
0
 10
8.8128630913
 20
6.0297382074
 10
8.811888621
 20
6.0647900941
 10
8.8109127922
 20
6.097208673
 10
8.8099300953
 20
6.126348678
 10
8.8089513598
 20
6.1511651425
 10
8.80796935
 20
6.1712371763
 10
8.806975131
 20
6.18613048
 10
8.8059805827
 20
6.1951917525
 10
8.8052764046
 20
6.197947053
  0
LWPOLYLINE
  5
5AE
100
AcDbEntity
  8
0
100
AcDbPolyline
 62
7
  6
CONTINUOUS
 90
9
 70
0
 10
8.852251127
 20
5.8781044069
 10
8.8532256125
 20
5.8430513446
 10
8.8542013861
 20
5.8106336728
 10
8.8551840018
 20
5.7814946493
 10
8.856162707
 20
5.7566770323
 10
8.8571447661
 20
5.7366018846
 10
8.858139097
 20
5.7217050546
 10
8.8591337685
 20
5.7126414144
 10
8.8598380926
 20
5.7098852254
  0
LWPOLYLINE
  5
5AF
100
AcDbEntity
  8
0
100
AcDbPolyline
 62
7
  6
CONTINUOUS
 90
9
 70
0
 10
8.8916044958
 20
6.0296919942
 10
8.8906298984
 20
6.0647511887
 10
8.8896543654
 20
6.0971639734
 10
8.8886720614
 20
6.1262987289
 10
8.8876934466
 20
6.1511207679
 10
8.8867113542
 20
6.1712042947
 10
8.8857167765
 20
6.1861124734
 10
8.8847216019
 20
6.195186505
 10
8.884016562
 20
6.197947053
  0
LWPOLYLINE
  5
5B0
100
AcDbEntity
  8
0
100
AcDbPolyline
 62
7
  6
CONTINUOUS
 90
10
 70
0
 10
8.8527948711
 20
6.0086458621
 10
8.8518642303
 20
6.0432712463
 10
8.8509359992
 20
6.07584775
 10
8.8500034288
 20
6.1058858042
 10
8.8490666597
 20
6.1326754049
 10
8.8481357169
 20
6.1553486403
 10
8.8471975274
 20
6.1737071228
 10
8.8462498937
 20
6.1872565701
 10
8.8453032273
 20
6.1954735678
 10
8.8446464833
 20
6.197947053
  0
LWPOLYLINE
  5
5B1
100
AcDbEntity
  8
0
100
AcDbPolyline
 62
7
  6
CONTINUOUS
 90
3
 70
0
 10
8.8910655762
 20
5.8989663609
 10
8.8919961185
 20
5.8643544734
 10
8.8929247026
 20
5.8317803125
  0
LINE
  5
5B2
100
AcDbEntity
  8
0
100
AcDbLine
 62
7
  6
CONTINUOUS
 10
8.8089271738
 20
6.0296977971
 11
8.8128821302
 21
5.8780643129
  0
LINE
  5
5B3
100
AcDbEntity
  8
0
100
AcDbLine
 62
7
  6
CONTINUOUS
 10
8.8168180561
 20
5.8781044069
 11
8.8128630913
 21
6.0297382074
  0
LINE
  5
5B4
100
AcDbEntity
  8
0
100
AcDbLine
 62
7
  6
CONTINUOUS
 10
8.8482961622
 20
6.0297382074
 11
8.852251127
 21
5.8781044069
  0
LINE
  5
5B5
100
AcDbEntity
  8
0
100
AcDbLine
 62
7
  6
CONTINUOUS
 10
8.8556325053
 20
5.8989663609
 11
8.8527948711
 21
6.0086458621
  0
LINE
  5
5B6
100
AcDbEntity
  8
0
100
AcDbLine
 62
7
  6
CONTINUOUS
 10
8.888227942
 20
6.0086458621
 11
8.8910655762
 21
5.8989663609
  0
LINE
  5
5B7
100
AcDbEntity
  8
0
100
AcDbLine
 62
7
  6
CONTINUOUS
 10
8.8955594571
 20
5.8780583251
 11
8.8916044958
 21
6.0296919942
  0
LINE
  5
5B8
100
AcDbEntity
  8
0
100
AcDbLine
 62
7
  6
CONTINUOUS
 10
8.8643315227
 20
5.7098852254
 11
8.8817698469
 21
5.7400553121
  0
LINE
  5
5B9
100
AcDbEntity
  8
0
100
AcDbLine
 62
7
  6
CONTINUOUS
 10
8.9037016014
 20
5.7098852254
 11
8.9211399256
 21
5.7400553121
  0
LINE
  5
5BA
100
AcDbEntity
  8
0
100
AcDbLine
 62
7
  6
CONTINUOUS
 10
8.9430716802
 20
5.7098852254
 11
8.9605100044
 21
5.7400553121
  0
LINE
  5
5BB
100
AcDbEntity
  8
0
100
AcDbLine
 62
7
  6
CONTINUOUS
 10
8.8624029251
 20
6.1672266516
 11
8.8446464833
 21
6.197947053
  0
LINE
  5
5BC
100
AcDbEntity
  8
0
100
AcDbLine
 62
7
  6
CONTINUOUS
 10
8.9017730039
 20
6.1672266516
 11
8.884016562
 21
6.197947053
  0
LINE
  5
5BD
100
AcDbEntity
  8
0
100
AcDbLine
 62
7
  6
CONTINUOUS
 10
8.9411430826
 20
6.1672266516
 11
8.9233866408
 21
6.197947053
  0
LWPOLYLINE
  5
5BE
100
AcDbEntity
  8
0
100
AcDbPolyline
 62
7
  6
CONTINUOUS
 90
10
 70
0
 10
8.8798013431
 20
6.1981877928
 10
8.8807362982
 20
6.1954735678
 10
8.8816829646
 20
6.1872565701
 10
8.8826305982
 20
6.1737071228
 10
8.8835687878
 20
6.1553486403
 10
8.8844997306
 20
6.1326754049
 10
8.8854364997
 20
6.1058858042
 10
8.88636907
 20
6.07584775
 10
8.8872973011
 20
6.0432712463
 10
8.888227942
 20
6.0086458621
  0
LWPOLYLINE
  5
5BF
100
AcDbEntity
  8
0
100
AcDbPolyline
 62
7
  6
CONTINUOUS
 90
9
 70
0
 10
8.8404312643
 20
6.1981877928
 10
8.8414136536
 20
6.1951917525
 10
8.8424082018
 20
6.18613048
 10
8.8434024209
 20
6.1712371763
 10
8.8443844307
 20
6.1511651425
 10
8.8453631661
 20
6.126348678
 10
8.8463458631
 20
6.097208673
 10
8.8473216918
 20
6.0647900941
 10
8.8482961622
 20
6.0297382074
  0
LWPOLYLINE
  5
5C0
100
AcDbEntity
  8
0
100
AcDbPolyline
 62
7
  6
CONTINUOUS
 90
9
 70
0
 10
8.8010611856
 20
6.1981877928
 10
8.8020443264
 20
6.1951871758
 10
8.8030394222
 20
6.1861147595
 10
8.8040339544
 20
6.1712084713
 10
8.8050160353
 20
6.1511264244
 10
8.8059946663
 20
6.1263050735
 10
8.806977025
 20
6.0971694998
 10
8.807952596
 20
6.0647559504
 10
8.8089271738
 20
6.0296977971
  0
LWPOLYLINE
  5
5C1
100
AcDbEntity
  8
0
100
AcDbPolyline
 62
7
  6
CONTINUOUS
 90
9
 70
0
 10
8.960191887
 20
5.7406056269
 10
8.9593797067
 20
5.7437960151
 10
8.9583776646
 20
5.7525790394
 10
8.9573756224
 20
5.7665001004
 10
8.9563735803
 20
5.7852039384
 10
8.9553715381
 20
5.8082132396
 10
8.954369496
 20
5.8349408165
 10
8.9533674539
 20
5.8647045926
 10
8.9523654117
 20
5.8967450093
  0
LINE
  5
5C2
100
AcDbEntity
  8
0
100
AcDbLine
 62
7
  6
CONTINUOUS
 10
8.9660713698
 20
5.7317798026
 11
8.9665063065
 21
5.72968214
  0
LWPOLYLINE
  5
5C3
100
AcDbEntity
  8
0
100
AcDbPolyline
 62
7
  6
CONTINUOUS
 90
10
 70
0
 10
8.9493592853
 20
5.9981851783
 10
8.9483572432
 20
6.0308927291
 10
8.9473552011
 20
6.0616358703
 10
8.9463531589
 20
6.0896300501
 10
8.9453511168
 20
6.114160869
 10
8.9443490746
 20
6.1346023109
 10
8.9433470325
 20
6.1504327191
 10
8.9423449904
 20
6.1612481082
 10
8.9413429482
 20
6.1667724743
 10
8.9411430826
 20
6.1672266516
  0
LINE
  5
5C4
100
AcDbEntity
  8
0
100
AcDbLine
 62
7
  6
CONTINUOUS
 10
8.9523654117
 20
5.8967450093
 11
8.9493592853
 21
5.9981851783
  0
LWPOLYLINE
  5
5C5
100
AcDbEntity
  8
0
100
AcDbPolyline
 62
7
  6
CONTINUOUS
 90
10
 70
0
 10
8.9344477643
 20
5.8961176547
 10
8.9353926785
 20
5.8611185898
 10
8.9363375878
 20
5.8282260125
 10
8.9372825023
 20
5.7981861675
 10
8.9382274232
 20
5.7716809302
 10
8.9391723428
 20
5.7493121636
 10
8.9401172726
 20
5.7315873996
 10
8.9410622251
 20
5.7189089907
 10
8.9420071845
 20
5.7115651866
 10
8.9427934877
 20
5.7096444857
  0
LWPOLYLINE
  5
5C6
100
AcDbEntity
  8
0
100
AcDbPolyline
 62
7
  6
CONTINUOUS
 90
9
 70
0
 10
8.9277248423
 20
6.0038166577
 10
8.926774482
 20
6.0393724891
 10
8.9258241319
 20
6.0729658984
 10
8.9248737773
 20
6.1038261278
 10
8.9239234078
 20
6.1312448713
 10
8.9229730418
 20
6.1545919974
 10
8.9220226639
 20
6.1733317646
 10
8.9210722494
 20
6.1870339991
 10
8.9201218228
 20
6.1953833199
  0
LINE
  5
5C7
100
AcDbEntity
  8
0
100
AcDbLine
 62
7
  6
CONTINUOUS
 10
8.9305759545
 20
5.8936513214
 11
8.9277248423
 21
6.0038166577
  0
LINE
  5
5C8
100
AcDbEntity
  8
0
100
AcDbLine
 62
7
  6
CONTINUOUS
 10
8.9316129596
 20
6.005680879
 11
8.9344477643
 21
5.8961176547
  0
LWPOLYLINE
  5
5C9
100
AcDbEntity
  8
0
100
AcDbPolyline
 62
7
  6
CONTINUOUS
 90
8
 70
0
 10
8.9616920568
 20
5.8838363862
 10
8.9623108388
 20
5.8510901207
 10
8.9629308365
 20
5.8209492525
 10
8.9635557049
 20
5.7940023802
 10
8.9641786336
 20
5.7712074377
 10
8.9648037475
 20
5.7529562114
 10
8.9654372158
 20
5.7396204053
 10
8.9660713698
 20
5.7317798026
  0
LINE
  5
5CA
100
AcDbEntity
  8
0
100
AcDbLine
 62
7
  6
CONTINUOUS
 10
8.9591847754
 20
6.0269674064
 11
8.9616920568
 21
5.8838363862
  0
LINE
  5
5CB
100
AcDbEntity
  8
0
100
AcDbLine
 62
7
  6
CONTINUOUS
 10
8.9821635478
 20
5.7450775566
 11
8.9821635478
 21
6.1627547219
  0
LINE
  5
5CC
100
AcDbEntity
  8
0
100
AcDbLine
 62
7
  6
CONTINUOUS
 10
9.0215336265
 20
6.1576562967
 11
9.0215336265
 21
5.7501759818
  0
LINE
  5
5CD
100
AcDbEntity
  8
0
100
AcDbLine
 62
7
  6
CONTINUOUS
 10
8.9201218228
 20
6.1953833199
 11
8.9191714218
 21
6.1981877928
  0
LWPOLYLINE
  5
5CE
100
AcDbEntity
  8
0
100
AcDbPolyline
 62
7
  6
CONTINUOUS
 90
10
 70
0
 10
8.9233866408
 20
6.197947053
 10
8.9240534027
 20
6.1954152022
 10
8.9249983992
 20
6.1871600974
 10
8.9259433822
 20
6.1736101189
 10
8.9268883284
 20
6.1550735998
 10
8.9278332622
 20
6.1319712219
 10
8.9287781983
 20
6.1048270993
 10
8.9297231198
 20
6.0742579276
 10
8.9306680356
 20
6.0409573972
 10
8.9316129596
 20
6.005680879
  0
LWPOLYLINE
  5
5CF
100
AcDbEntity
  8
0
100
AcDbPolyline
 62
7
  6
CONTINUOUS
 90
9
 70
0
 10
8.9542183856
 20
6.1906999381
 10
8.9548373459
 20
6.1872199936
 10
8.9554643565
 20
6.1779627341
 10
8.9560915766
 20
6.1631902898
 10
8.9567116168
 20
6.1435558406
 10
8.9573296581
 20
6.11950825
 10
8.9579507544
 20
6.0914491461
 10
8.9585680066
 20
6.060392704
 10
8.9591847754
 20
6.0269674064
  0
LWPOLYLINE
  5
5D0
100
AcDbEntity
  8
02___PRT_ALL_AXES
100
AcDbPolyline
 62
7
  6
CONTINUOUS
 90
3
 70
0
 10
11.5172845338
 20
6.2597761122
 10
11.5711542767
 20
6.3341516562
 10
11.6359717329
 20
6.3992083095
  0
LWPOLYLINE
  5
5D1
100
AcDbEntity
  8
02___PRT_ALL_AXES
100
AcDbPolyline
 62
7
  6
CONTINUOUS
 90
3
 70
0
 10
11.6359717329
 20
6.3992083095
 10
11.7101483426
 20
6.4533516502
 10
11.7918661701
 20
6.4952547219
  0
LINE
  5
5D2
100
AcDbEntity
  8
0
100
AcDbLine
 62
9
  6
CONTINUOUS
 10
11.9104808654
 20
5.3732074778
 11
12.1252192928
 21
5.3732074778
  0
LINE
  5
5D3
100
AcDbEntity
  8
02___PRT_ALL_AXES
100
AcDbLine
 62
7
  6
CONTINUOUS
 10
11.7918661701
 20
5.4125775566
 11
11.7101483426
 21
5.4544806283
  0
LINE
  5
5D4
100
AcDbEntity
  8
02___PRT_ALL_AXES
100
AcDbLine
 62
7
  6
CONTINUOUS
 10
11.7101483426
 20
5.4544806283
 11
11.6359717329
 21
5.508623969
  0
LWPOLYLINE
  5
5D5
100
AcDbEntity
  8
02___PRT_ALL_AXES
100
AcDbPolyline
 62
7
  6
CONTINUOUS
 90
4
 70
0
 10
11.6359717329
 20
5.508623969
 10
11.5711542767
 20
5.5736806223
 10
11.5172845338
 20
5.6480561663
 10
11.4756827548
 20
5.7299277898
  0
LWPOLYLINE
  5
5D6
100
AcDbEntity
  8
02___PRT_ALL_AXES
100
AcDbPolyline
 62
7
  6
CONTINUOUS
 90
7
 70
0
 10
11.4756827548
 20
5.7299277898
 10
11.4473685248
 20
5.8172889662
 10
11.4330357748
 20
5.9079986296
 10
11.4330357748
 20
5.9998336489
 10
11.4473685248
 20
6.0905433123
 10
11.4756827548
 20
6.1779044886
 10
11.5172845338
 20
6.2597761122
  0
LINE
  5
5D7
100
AcDbEntity
  8
02___PRT_ALL_AXES
100
AcDbLine
 62
7
  6
CONTINUOUS
 10
11.7918661701
 20
5.4125775566
 11
11.9141526997
 21
5.4125775566
  0
LINE
  5
5D8
100
AcDbEntity
  8
0
100
AcDbLine
 62
7
  6
CONTINUOUS
 10
11.9141526997
 20
5.4125775566
 11
12.1215474586
 21
5.4125775566
  0
LINE
  5
5D9
100
AcDbEntity
  8
02___PRT_ALL_AXES
100
AcDbLine
 62
7
  6
CONTINUOUS
 10
12.1215474586
 20
5.4125775566
 11
12.2438339881
 21
5.4125775566
  0
LINE
  5
5DA
100
AcDbEntity
  8
0
100
AcDbLine
 62
9
  6
CONTINUOUS
 10
11.9179594141
 20
5.4519476353
 11
12.1177407441
 21
5.4519476353
  0
LWPOLYLINE
  5
5DB
100
AcDbEntity
  8
0
100
AcDbPolyline
 62
7
  6
CONTINUOUS
 90
20
 70
0
 10
12.0286191427
 20
5.5186617159
 10
11.959084921
 20
5.5257146301
 10
11.8920050379
 20
5.543748697
 10
11.828800269
 20
5.5723371312
 10
11.7717084639
 20
5.6103231614
 10
11.7214933586
 20
5.6570786771
 10
11.6799380765
 20
5.7108545772
 10
11.6478478242
 20
5.7703402755
 10
11.6259580188
 20
5.8340418269
 10
11.6148708985
 20
5.89976496
 10
11.6146775557
 20
5.9663475336
 10
11.6252971756
 20
6.0314286796
 10
11.6463499834
 20
6.0935917244
 10
11.6771809564
 20
6.1511355854
 10
11.7167430817
 20
6.2023839388
 10
11.7640330587
 20
6.2462167704
 10
11.8175249089
 20
6.2813496024
 10
11.8756442669
 20
6.3069318434
 10
11.9369071348
 20
6.3224303184
 10
11.9993536091
 20
6.3274742477
  0
LWPOLYLINE
  5
5DC
100
AcDbEntity
  8
0
100
AcDbPolyline
 62
7
  6
CONTINUOUS
 90
19
 70
0
 10
12.0178500791
 20
5.7296121571
 10
12.0510250466
 20
5.7326769002
 10
12.0837068824
 20
5.7407434313
 10
12.114766018
 20
5.7536171326
 10
12.1431644844
 20
5.7707633904
 10
12.168519834
 20
5.7917885308
 10
12.1905151865
 20
5.8163986533
 10
12.2084849834
 20
5.8438162477
 10
12.2221168981
 20
5.8734202681
 10
12.2312316548
 20
5.9047932073
 10
12.2355948028
 20
5.9374941984
 10
12.2349674605
 20
5.9706207252
 10
12.2293917867
 20
6.002987165
 10
12.2191684434
 20
6.0337355432
 10
12.2045845107
 20
6.0624268401
 10
12.185855094
 20
6.0886833454
 10
12.1633628345
 20
6.1118937954
 10
12.1377845039
 20
6.1313731815
 10
12.109489157
 20
6.1468439409
  0
LINE
  5
5DD
100
AcDbEntity
  8
0
100
AcDbLine
 62
7
  6
CONTINUOUS
 10
11.9134390527
 20
6.5027993309
 11
11.9179594141
 21
6.4558846432
  0
LINE
  5
5DE
100
AcDbEntity
  8
0
100
AcDbLine
 62
7
  6
CONTINUOUS
 10
11.9104808654
 20
6.5346248007
 11
11.9134390527
 21
6.5027993309
  0
LINE
  5
5DF
100
AcDbEntity
  8
02___PRT_ALL_AXES
100
AcDbLine
 62
7
  6
CENTER
 10
12.0178500791
 20
5.9539161392
 11
12.0178500791
 21
4.8696641707
  0
LINE
  5
5E0
100
AcDbEntity
  8
02___PRT_ALL_AXES
100
AcDbLine
 62
7
  6
CENTER
 10
12.0178500791
 20
5.9539161392
 11
12.0178500791
 21
7.0381681077
  0
LINE
  5
5E1
100
AcDbEntity
  8
0
100
AcDbLine
 62
7
  6
CONTINUOUS
 10
11.9104808654
 20
5.3732074778
 11
11.9143367169
 21
5.414514578
  0
LWPOLYLINE
  5
5E2
100
AcDbEntity
  8
0
100
AcDbPolyline
 62
7
  6
CONTINUOUS
 90
3
 70
0
 10
11.9143367169
 20
5.414514578
 10
11.9167709049
 20
5.4398138264
 10
11.9179594141
 20
5.4519476353
  0
LINE
  5
5E3
100
AcDbEntity
  8
02___PRT_ALL_AXES
100
AcDbLine
 62
7
  6
CENTER
 10
12.0178500791
 20
5.9539161392
 11
10.9335981106
 21
5.9539161392
  0
LINE
  5
5E4
100
AcDbEntity
  8
02___PRT_ALL_AXES
100
AcDbLine
 62
7
  6
CENTER
 10
12.0178500791
 20
5.9539161392
 11
13.1021020476
 21
5.9539161392
  0
LINE
  5
5E5
100
AcDbEntity
  8
AXIS_COSMETIC_THREADS
100
AcDbLine
 62
7
  6
CONTINUOUS
 10
12.0832713758
 20
5.855088223
 11
12.1153634164
 21
5.8229961824
  0
LINE
  5
5E6
100
AcDbEntity
  8
0
100
AcDbLine
 62
7
  6
CONTINUOUS
 10
12.1177407441
 20
5.4519476353
 11
12.121731039
 21
5.4106417043
  0
LWPOLYLINE
  5
5E7
100
AcDbEntity
  8
0
100
AcDbPolyline
 62
7
  6
CONTINUOUS
 90
3
 70
0
 10
12.121731039
 20
5.4106417043
 10
12.1241006402
 20
5.3853469673
 10
12.1252192928
 20
5.3732074778
  0
LINE
  5
5E8
100
AcDbEntity
  8
0
100
AcDbLine
 62
7
  6
CONTINUOUS
 10
12.1252192928
 20
6.5346248007
 11
12.1213634414
 21
6.4933177005
  0
LWPOLYLINE
  5
5E9
100
AcDbEntity
  8
0
100
AcDbPolyline
 62
7
  6
CONTINUOUS
 90
3
 70
0
 10
12.1213634414
 20
6.4933177005
 10
12.1189292533
 20
6.4680184521
 10
12.1177407441
 20
6.4558846432
  0
LINE
  5
5EA
100
AcDbEntity
  8
AXIS_COSMETIC_THREADS
100
AcDbLine
 62
7
  6
CONTINUOUS
 10
12.1488707701
 20
5.8563020679
 11
12.1166779954
 21
5.8884948426
  0
LINE
  5
5EB
100
AcDbEntity
  8
AXIS_COSMETIC_THREADS
100
AcDbLine
 62
7
  6
CONTINUOUS
 10
12.1166779954
 20
5.8884948426
 11
12.0832713758
 21
5.855088223
  0
LWPOLYLINE
  5
5EC
100
AcDbEntity
  8
0
100
AcDbPolyline
 62
7
  6
CONTINUOUS
 90
13
 70
0
 10
12.2501668982
 20
5.8784341131
 10
12.2584669053
 20
5.9155820489
 10
12.2608728618
 20
5.9539723032
 10
12.2572042487
 20
5.9921836023
 10
12.247726465
 20
6.028820983
 10
12.2328307495
 20
6.0631836377
 10
12.2128006618
 20
6.0948154851
 10
12.1879650225
 20
6.1230906058
 10
12.1591977848
 20
6.1470027955
 10
12.1270191188
 20
6.1661564962
 10
12.0918670053
 20
6.1801559571
 10
12.0550087037
 20
6.1883982379
 10
12.0178500791
 20
6.1906999381
  0
LWPOLYLINE
  5
5ED
100
AcDbEntity
  8
0
100
AcDbPolyline
 62
7
  6
CONTINUOUS
 90
21
 70
0
 10
12.0178500791
 20
6.1906999381
 10
11.9812011707
 20
6.1872199936
 10
11.9451782716
 20
6.1779627341
 10
11.9111386767
 20
6.1631902898
 10
11.8802679092
 20
6.1435558406
 10
11.852980124
 20
6.11950825
 10
11.8297074718
 20
6.0914491461
 10
11.8112383956
 20
6.060392704
 10
11.7978436633
 20
6.0269674064
 10
11.7897577171
 20
5.9916682389
 10
11.7872882889
 20
5.9551451817
 10
11.7906204457
 20
5.9187543685
 10
11.7995109802
 20
5.8838363862
 10
11.8135793258
 20
5.8510901207
 10
11.8325493887
 20
5.8209492525
 10
11.8561111234
 20
5.7940023802
 10
11.8834385744
 20
5.7712074377
 10
11.9140192589
 20
5.7529562114
 10
11.9474448777
 20
5.7396204053
 10
11.9825043845
 20
5.7317798026
 10
12.0178500791
 20
5.7296121571
  0
LWPOLYLINE
  5
5EE
100
AcDbEntity
  8
0
100
AcDbPolyline
 62
7
  6
CONTINUOUS
 90
15
 70
0
 10
12.109489157
 20
6.1468439409
 10
12.138392363
 20
6.1329090156
 10
12.1651751073
 20
6.1146163879
 10
12.1892055516
 20
6.0922579725
 10
12.2097056269
 20
6.0664690318
 10
12.2262055822
 20
6.0378399336
 10
12.2384274884
 20
6.0067402458
 10
12.2460321758
 20
5.9735595925
 10
12.2486246564
 20
5.9391131107
 10
12.246034942
 20
5.9045897226
 10
12.2384081068
 20
5.870994907
 10
12.2259450956
 20
5.8388540393
 10
12.2087387873
 20
5.808530301
 10
12.187036497
 20
5.7807214797
 10
12.1614311121
 20
5.7562974971
  0
LWPOLYLINE
  5
5EF
100
AcDbEntity
  8
0
100
AcDbPolyline
 62
7
  6
CONTINUOUS
 90
20
 70
0
 10
12.0178500791
 20
6.3279318873
 10
12.0805133325
 20
6.3259773021
 10
12.1426202935
 20
6.3134756106
 10
12.2018257269
 20
6.2908132535
 10
12.2571267243
 20
6.2582519526
 10
12.3063327562
 20
6.2169392857
 10
12.3484611079
 20
6.1675860875
 10
12.382076492
 20
6.1116138356
 10
12.4061091191
 20
6.0506817205
 10
12.4199471994
 20
5.9860182153
 10
12.4230153809
 20
5.9197942984
 10
12.4151582373
 20
5.8534077436
 10
12.3964583078
 20
5.788810819
 10
12.3673717127
 20
5.7278677963
 10
12.3284605657
 20
5.6720210798
 10
12.2807998101
 20
5.6230186628
 10
12.2255523007
 20
5.5821614558
 10
12.1639188074
 20
5.5505127983
 10
12.0978648084
 20
5.5291789902
 10
12.0286191427
 20
5.5186617159
  0
LINE
  5
5F0
100
AcDbEntity
  8
0
100
AcDbLine
 62
9
  6
CONTINUOUS
 10
12.1177407441
 20
6.4558846432
 11
11.9179594141
 21
6.4558846432
  0
LINE
  5
5F1
100
AcDbEntity
  8
02___PRT_ALL_AXES
100
AcDbLine
 62
7
  6
CONTINUOUS
 10
12.2438339881
 20
6.4952547219
 11
12.1215474586
 21
6.4952547219
  0
LINE
  5
5F2
100
AcDbEntity
  8
0
100
AcDbLine
 62
7
  6
CONTINUOUS
 10
12.1215474586
 20
6.4952547219
 11
11.9141526997
 21
6.4952547219
  0
LINE
  5
5F3
100
AcDbEntity
  8
02___PRT_ALL_AXES
100
AcDbLine
 62
7
  6
CONTINUOUS
 10
11.9141526997
 20
6.4952547219
 11
11.7918661701
 21
6.4952547219
  0
LWPOLYLINE
  5
5F4
100
AcDbEntity
  8
02___PRT_ALL_AXES
100
AcDbPolyline
 62
7
  6
CONTINUOUS
 90
4
 70
0
 10
12.4645458815
 20
5.5736806223
 10
12.3997284253
 20
5.508623969
 10
12.3255518157
 20
5.4544806283
 10
12.2438339881
 20
5.4125775566
  0
LINE
  5
5F5
100
AcDbEntity
  8
0
100
AcDbLine
 62
9
  6
CONTINUOUS
 10
12.1252192928
 20
6.5346248007
 11
11.9104808654
 21
6.5346248007
  0
LWPOLYLINE
  5
5F6
100
AcDbEntity
  8
02___PRT_ALL_AXES
100
AcDbPolyline
 62
7
  6
CONTINUOUS
 90
3
 70
0
 10
12.2438339881
 20
6.4952547219
 10
12.3255518157
 20
6.4533516502
 10
12.3997284253
 20
6.3992083095
  0
LWPOLYLINE
  5
5F7
100
AcDbEntity
  8
02___PRT_ALL_AXES
100
AcDbPolyline
 62
7
  6
CONTINUOUS
 90
11
 70
0
 10
12.3997284253
 20
6.3992083095
 10
12.4645458815
 20
6.3341516562
 10
12.5184156244
 20
6.2597761122
 10
12.5600174034
 20
6.1779044886
 10
12.5883316334
 20
6.0905433123
 10
12.6026643834
 20
5.9998336489
 10
12.6026643834
 20
5.9079986296
 10
12.5883316334
 20
5.8172889662
 10
12.5600174034
 20
5.7299277898
 10
12.5184156244
 20
5.6480561663
 10
12.4645458815
 20
5.5736806223
  0
LWPOLYLINE
  5
5F8
100
AcDbEntity
  8
0
100
AcDbPolyline
 62
7
  6
CONTINUOUS
 90
9
 70
0
 10
14.8252585301
 20
7.1386707555
 10
14.8622166436
 20
7.1446045149
 10
14.8972860853
 20
7.1537673534
 10
14.9299464553
 20
7.1660795795
 10
14.9594332597
 20
7.1814014516
 10
14.9845764865
 20
7.1992331869
 10
15.0045257568
 20
7.2188892232
 10
15.019033494
 20
7.2399343119
 10
15.0277003556
 20
7.2614623484
  0
LWPOLYLINE
  5
5F9
100
AcDbEntity
  8
0
100
AcDbPolyline
 62
7
  6
CONTINUOUS
 90
7
 70
0
 10
14.8499616669
 20
7.1454556427
 10
14.8142977406
 20
7.1407895218
 10
14.7778586494
 20
7.1392178296
 10
14.7418368223
 20
7.140767916
 10
14.7065595445
 20
7.145413224
 10
14.6727455507
 20
7.1531247008
 10
14.6415668755
 20
7.1636623604
  0
LWPOLYLINE
  5
5FA
100
AcDbEntity
  8
0
100
AcDbPolyline
 62
7
  6
CONTINUOUS
 90
7
 70
0
 10
14.8499616669
 20
7.1743868307
 10
14.8841072622
 20
7.1820276994
 10
14.916183113
 20
7.1925288735
 10
14.9458086666
 20
7.2058713061
 10
14.9719674666
 20
7.22173486
 10
14.9937737576
 20
7.2396011271
 10
15.008506076
 20
7.256397242
  0
LWPOLYLINE
  5
5FB
100
AcDbEntity
  8
0
100
AcDbPolyline
 62
9
  6
CONTINUOUS
 90
14
 70
0
 10
14.4772813649
 20
7.2990862253
 10
14.5506577501
 20
7.2748654984
 10
14.6295840822
 20
7.2574070458
 10
14.7122111973
 20
7.2471204188
 10
14.7965920562
 20
7.244248879
 10
14.8807399831
 20
7.2488600107
 10
14.962676593
 20
7.2608451544
 10
15.0404760173
 20
7.2799225767
 10
15.1123082487
 20
7.3056436127
 10
15.176483862
 20
7.3374033378
 10
15.2314936323
 20
7.3744548501
 10
15.2760438822
 20
7.4159268076
 10
15.3090868361
 20
7.4608438106
 10
15.324703902
 20
7.4964326652
  0
LWPOLYLINE
  5
5FC
100
AcDbEntity
  8
0
100
AcDbPolyline
 62
7
  6
CONTINUOUS
 90
7
 70
0
 10
14.6140131049
 20
7.1733836787
 10
14.6430791011
 20
7.1598470535
 10
14.6760928646
 20
7.1489883682
 10
14.7118828848
 20
7.1412876767
 10
14.7490906712
 20
7.1369894417
 10
14.7870984414
 20
7.136103755
 10
14.8252585301
 20
7.1386707555
  0
LINE
  5
5FD
100
AcDbEntity
  8
0
100
AcDbLine
 62
7
  6
CONTINUOUS
 10
14.6431059357
 20
7.1951968252
 11
14.6140131049
 21
7.2087440196
  0
LWPOLYLINE
  5
5FE
100
AcDbEntity
  8
0
100
AcDbPolyline
 62
7
  6
CONTINUOUS
 90
11
 70
0
 10
14.6140131049
 20
7.2376752076
 10
14.6431059357
 20
7.2241280132
 10
14.676144821
 20
7.2132658817
 10
14.711952092
 20
7.2055678716
 10
14.7491658977
 20
7.2012757974
 10
14.7871700102
 20
7.2003968498
 10
14.825314157
 20
7.2029685966
 10
14.8622579724
 20
7.2089047085
 10
14.8973293118
 20
7.2180725663
 10
14.9299864823
 20
7.2303888706
 10
14.9562682803
 20
7.2440508073
  0
LINE
  5
5FF
100
AcDbEntity
  8
0
100
AcDbLine
 62
7
  6
CONTINUOUS
 10
14.6430828076
 20
7.2273516988
 11
14.6140131049
 21
7.2408897841
  0
LINE
  5
600
100
AcDbEntity
  8
0
100
AcDbLine
 62
7
  6
CONTINUOUS
 10
14.6415668755
 20
7.1636623604
 11
14.6140131049
 21
7.1765982552
  0
LWPOLYLINE
  5
601
100
AcDbEntity
  8
0
100
AcDbPolyline
 62
7
  6
CONTINUOUS
 90
8
 70
0
 10
14.6140131049
 20
7.2055294432
 10
14.6415668755
 20
7.1925935484
 10
14.6727455507
 20
7.1820558888
 10
14.7065595445
 20
7.174344412
 10
14.7418368223
 20
7.169699104
 10
14.7778586494
 20
7.1681490176
 10
14.8142977406
 20
7.1697207098
 10
14.8499616669
 20
7.1743868307
  0
LINE
  5
602
100
AcDbEntity
  8
0
100
AcDbLine
 62
7
  6
CONTINUOUS
 10
14.4846578935
 20
7.2815120282
 11
14.4861176985
 21
7.2808113368
  0
LINE
  5
603
100
AcDbEntity
  8
0
100
AcDbLine
 62
7
  6
CONTINUOUS
 10
14.6546583569
 20
7.1168385127
 11
14.628132322
 21
7.1298713292
  0
LWPOLYLINE
  5
604
100
AcDbEntity
  8
0
100
AcDbPolyline
 62
7
  6
CONTINUOUS
 90
12
 70
0
 10
14.6390679653
 20
7.1235574939
 10
14.6625878996
 20
7.1118622686
 10
14.688949938
 20
7.1022782676
 10
14.7175559282
 20
7.0950514129
 10
14.7477351814
 20
7.0903647864
 10
14.7787811855
 20
7.0883308948
 10
14.8099988555
 20
7.0889935369
 10
14.8406962671
 20
7.0923372284
 10
14.8701887341
 20
7.0982877508
 10
14.8978129139
 20
7.1067115065
 10
14.9229518157
 20
7.1174202818
 10
14.9344111286
 20
7.1235606511
  0
LINE
  5
605
100
AcDbEntity
  8
0
100
AcDbLine
 62
7
  6
CONTINUOUS
 10
14.628132322
 20
7.1298713292
 11
14.628128394
 21
7.129873597
  0
LINE
  5
606
100
AcDbEntity
  8
0
100
AcDbLine
 62
7
  6
CONTINUOUS
 10
14.4846334733
 20
7.2815261268
 11
14.3395864623
 21
7.3652671632
  0
LINE
  5
607
100
AcDbEntity
  8
0
100
AcDbLine
 62
7
  6
CONTINUOUS
 10
14.6390641977
 20
7.1235596704
 11
14.6390679653
 21
7.1235574939
  0
LINE
  5
608
100
AcDbEntity
  8
0
100
AcDbLine
 62
7
  6
CONTINUOUS
 10
14.5891504778
 20
7.1893839569
 11
14.6140131049
 21
7.1733836787
  0
LWPOLYLINE
  5
609
100
AcDbEntity
  8
0
100
AcDbPolyline
 62
7
  6
CONTINUOUS
 90
6
 70
0
 10
14.6140131049
 20
7.1765982552
 10
14.5891412336
 20
7.192605547
 10
14.5689146131
 20
7.210879906
 10
14.5541785638
 20
7.2307486667
 10
14.5453641862
 20
7.2514346387
 10
14.5439142784
 20
7.261877342
  0
LWPOLYLINE
  5
60A
100
AcDbEntity
  8
0
100
AcDbPolyline
 62
7
  6
CONTINUOUS
 90
3
 70
0
 10
14.628128394
 20
7.129873597
 10
14.6068410714
 20
7.1441830964
 10
14.6012993051
 20
7.1493237917
  0
LWPOLYLINE
  5
60B
100
AcDbEntity
  8
02___PRT_ALL_AXES
100
AcDbPolyline
 62
7
  6
CONTINUOUS
 90
8
 70
0
 10
13.80248656
 20
8.5910824959
 10
13.8086757886
 20
8.5274563296
 10
13.8271647236
 20
8.4646326652
 10
13.857720856
 20
8.4033991808
 10
13.8999599247
 20
8.3445259229
 10
13.9533507488
 20
8.2887532571
 10
14.0172219078
 20
8.2367825568
 10
14.0907701848
 20
8.1892673838
  0
LWPOLYLINE
  5
60C
100
AcDbEntity
  8
02___PRT_ALL_AXES
100
AcDbPolyline
 62
7
  6
CONTINUOUS
 90
8
 70
0
 10
13.8024889349
 20
8.5910964951
 10
13.806232293
 20
8.5415538869
 10
13.8228214223
 20
8.4761700403
 10
13.8524458769
 20
8.4123401876
 10
13.8947050368
 20
8.350927518
 10
13.9490274195
 20
8.2927625325
 10
14.0146784078
 20
8.2386318127
 10
14.0907701848
 20
8.1892673838
  0
LWPOLYLINE
  5
60D
100
AcDbEntity
  8
0
100
AcDbPolyline
 62
9
  6
CONTINUOUS
 90
8
 70
0
 10
13.80248656
 20
8.2053333224
 10
13.8029579519
 20
8.1877484044
 10
13.8161871116
 20
8.1108503098
 10
13.8475466667
 20
8.0353645938
 10
13.8956319176
 20
7.9640340953
 10
13.9564352357
 20
7.9001883337
 10
14.0239190992
 20
7.8462384441
 10
14.0907701848
 20
7.8035182103
  0
LINE
  5
60E
100
AcDbEntity
  8
02___PRT_ALL_AXES
100
AcDbLine
 62
7
  6
CONTINUOUS
 10
13.80248656
 20
8.5910824959
 11
13.80248656
 21
8.2053333224
  0
LWPOLYLINE
  5
60F
100
AcDbEntity
  8
02___PRT_ALL_AXES
100
AcDbPolyline
 62
7
  6
CONTINUOUS
 90
10
 70
0
 10
13.80248656
 20
8.5910824959
 10
13.8114430424
 20
8.723561371
 10
13.8390625592
 20
8.8569061116
 10
13.8868433409
 20
8.9897560326
 10
13.9549011476
 20
9.1171989367
 10
14.0353190764
 20
9.2267874153
 10
14.1332330669
 20
9.327073358
 10
14.238650078
 20
9.4086098581
 10
14.3484998577
 20
9.4723876671
 10
14.4140960319
 20
9.4998839192
  0
LWPOLYLINE
  5
610
100
AcDbEntity
  8
02___PRT_ALL_AXES
100
AcDbPolyline
 62
7
  6
CONTINUOUS
 90
14
 70
0
 10
14.5637513592
 20
7.3054401691
 10
14.6511646526
 20
7.290388945
 10
14.7419006186
 20
7.2834133715
 10
14.8337354814
 20
7.284713882
 10
14.9244185331
 20
7.2942880779
 10
15.0117272948
 20
7.3119307873
 10
15.0935219852
 20
7.3372390935
 10
15.1677979632
 20
7.36962221
 10
15.2327348577
 20
7.4083159591
 10
15.2867411819
 20
7.4524015009
 10
15.3284933375
 20
7.5008278524
 10
15.3569680542
 20
7.552437645
 10
15.3714674676
 20
7.6059954899
 10
15.3733527017
 20
7.6337414163
  0
LWPOLYLINE
  5
611
100
AcDbEntity
  8
02___PRT_ALL_AXES
100
AcDbPolyline
 62
7
  6
CONTINUOUS
 90
13
 70
0
 10
14.5637513592
 20
7.3114674999
 10
14.6511646526
 20
7.2964162758
 10
14.7419006186
 20
7.2894407023
 10
14.8337354814
 20
7.2907412128
 10
14.9244185331
 20
7.3003154087
 10
15.0117272948
 20
7.3179581181
 10
15.0935219852
 20
7.3432664244
 10
15.1677979632
 20
7.3756495408
 10
15.2327348577
 20
7.4143432899
 10
15.2867411819
 20
7.4584288317
 10
15.3284933375
 20
7.5068551832
 10
15.3569680542
 20
7.5584649759
 10
15.3714674676
 20
7.6120228208
  0
LWPOLYLINE
  5
612
100
AcDbEntity
  8
02___PRT_ALL_AXES
100
AcDbPolyline
 62
7
  6
CONTINUOUS
 90
11
 70
0
 10
14.5637513592
 20
7.3536588158
 10
14.6511646526
 20
7.3386075916
 10
14.7419006186
 20
7.3316320182
 10
14.8337354814
 20
7.3329325287
 10
14.9244185331
 20
7.3425067246
 10
15.0117272948
 20
7.360149434
 10
15.0935219852
 20
7.3854577402
 10
15.1677979632
 20
7.4178408567
 10
15.2327348577
 20
7.4565346057
 10
15.2867411819
 20
7.5006201476
 10
15.3284933375
 20
7.549046499
  0
LWPOLYLINE
  5
613
100
AcDbEntity
  8
02___PRT_ALL_AXES
100
AcDbPolyline
 62
7
  6
CONTINUOUS
 90
11
 70
0
 10
14.5637513592
 20
7.3596861466
 10
14.6511646526
 20
7.3446349225
 10
14.7419006186
 20
7.337659349
 10
14.8337354814
 20
7.3389598595
 10
14.9244185331
 20
7.3485340554
 10
15.0117272948
 20
7.3661767648
 10
15.0935219852
 20
7.391485071
 10
15.1677979632
 20
7.4238681875
 10
15.2327348577
 20
7.4625619366
 10
15.2867411819
 20
7.5066474784
 10
15.3284933375
 20
7.5550738299
  0
LWPOLYLINE
  5
614
100
AcDbEntity
  8
02___PRT_ALL_AXES
100
AcDbPolyline
 62
7
  6
CONTINUOUS
 90
6
 70
0
 10
14.5637513592
 20
7.4018774625
 10
14.6511646526
 20
7.3868262383
 10
14.7419006186
 20
7.3798506648
 10
14.8337354814
 20
7.3811511754
 10
14.9244185331
 20
7.3907253712
 10
15.0117272948
 20
7.4083680806
  0
LWPOLYLINE
  5
615
100
AcDbEntity
  8
02___PRT_ALL_AXES
100
AcDbPolyline
 62
7
  6
CONTINUOUS
 90
6
 70
0
 10
14.5637513592
 20
7.4079047933
 10
14.6511646526
 20
7.3928535692
 10
14.7419006186
 20
7.3858779957
 10
14.8337354814
 20
7.3871785062
 10
14.9244185331
 20
7.3967527021
 10
15.0117272948
 20
7.4143954115
  0
LWPOLYLINE
  5
616
100
AcDbEntity
  8
02___PRT_ALL_AXES
100
AcDbPolyline
 62
7
  6
CONTINUOUS
 90
3
 70
0
 10
14.6313553232
 20
7.3851296685
 10
14.5516083027
 20
7.4014419282
 10
14.4772813649
 20
7.4247295155
  0
LWPOLYLINE
  5
617
100
AcDbEntity
  8
02___PRT_ALL_AXES
100
AcDbPolyline
 62
7
  6
CONTINUOUS
 90
3
 70
0
 10
14.6285034171
 20
7.3373582264
 10
14.550222954
 20
7.3535805477
 10
14.4772813649
 20
7.3765108688
  0
LWPOLYLINE
  5
618
100
AcDbEntity
  8
02___PRT_ALL_AXES
100
AcDbPolyline
 62
7
  6
CONTINUOUS
 90
4
 70
0
 10
14.5637513592
 20
7.3054401691
 10
14.5348022124
 20
7.3148003129
 10
14.5059606015
 20
7.3253307401
 10
14.4772813649
 20
7.3370766796
  0
LWPOLYLINE
  5
619
100
AcDbEntity
  8
02___PRT_ALL_AXES
100
AcDbPolyline
 62
7
  6
CONTINUOUS
 90
3
 70
0
 10
14.5637513592
 20
7.3536588158
 10
14.5347760677
 20
7.3630279473
 10
14.5059399253
 20
7.3735573879
  0
LWPOLYLINE
  5
61A
100
AcDbEntity
  8
02___PRT_ALL_AXES
100
AcDbPolyline
 62
7
  6
CONTINUOUS
 90
4
 70
0
 10
14.2441605196
 20
7.4899094499
 10
14.2731314597
 20
7.4805418143
 10
14.3019672731
 20
7.470012689
 10
14.330630514
 20
7.4582729393
  0
LWPOLYLINE
  5
61B
100
AcDbEntity
  8
02___PRT_ALL_AXES
100
AcDbPolyline
 62
7
  6
CONTINUOUS
 90
3
 70
0
 10
14.5637513592
 20
7.4018774625
 10
14.5347760677
 20
7.411246594
 10
14.5059399253
 20
7.4217760346
  0
LINE
  5
61C
100
AcDbEntity
  8
02___PRT_ALL_AXES
100
AcDbLine
 62
7
  6
CONTINUOUS
 10
14.5059399253
 20
7.3735573879
 11
14.4772813649
 21
7.3852953263
  0
LINE
  5
61D
100
AcDbEntity
  8
02___PRT_ALL_AXES
100
AcDbLine
 62
7
  6
CONTINUOUS
 10
14.5059399253
 20
7.4217760346
 11
14.4772813649
 21
7.433513973
  0
LINE
  5
61E
100
AcDbEntity
  8
0
100
AcDbLine
 62
9
  6
CONTINUOUS
 10
14.4772813649
 20
7.2990862253
 11
14.330630514
 21
7.3837532181
  0
LWPOLYLINE
  5
61F
100
AcDbEntity
  8
0
100
AcDbPolyline
 62
7
  6
CONTINUOUS
 90
4
 70
0
 10
14.6140131049
 20
7.2087440196
 10
14.589170298
 20
7.2247292634
 10
14.5689536355
 20
7.2429831043
 10
14.5584633776
 20
7.257111172
  0
LINE
  5
620
100
AcDbEntity
  8
0
100
AcDbLine
 62
7
  6
CONTINUOUS
 10
14.5969081053
 20
7.2486815158
 11
14.6140131049
 21
7.2376752076
  0
LINE
  5
621
100
AcDbEntity
  8
0
100
AcDbLine
 62
7
  6
CONTINUOUS
 10
14.6140131049
 20
7.2408897841
 11
14.6044482108
 21
7.247045119
  0
LINE
  5
622
100
AcDbEntity
  8
0
100
AcDbLine
 62
7
  6
CONTINUOUS
 10
14.5891412336
 20
7.221536735
 11
14.6140131049
 21
7.2055294432
  0
LWPOLYLINE
  5
623
100
AcDbEntity
  8
02___PRT_ALL_AXES
100
AcDbPolyline
 62
7
  6
CONTINUOUS
 90
5
 70
0
 10
14.330630514
 20
7.4670573968
 10
14.3092388007
 20
7.4820550029
 10
14.2871911218
 20
7.4982856819
 10
14.2652157753
 20
7.5152129249
 10
14.2441605196
 20
7.5321007657
  0
LINE
  5
624
100
AcDbEntity
  8
0
100
AcDbLine
 62
7
  6
CONTINUOUS
 10
14.3372220066
 20
7.3669345449
 11
14.3395642266
 21
7.3652800007
  0
LWPOLYLINE
  5
625
100
AcDbEntity
  8
02___PRT_ALL_AXES
100
AcDbPolyline
 62
7
  6
CONTINUOUS
 90
4
 70
0
 10
14.330630514
 20
7.4188387501
 10
14.301972579
 20
7.4391001878
 10
14.2731341849
 20
7.4608107563
 10
14.2441605196
 20
7.483882119
  0
LWPOLYLINE
  5
626
100
AcDbEntity
  8
02___PRT_ALL_AXES
100
AcDbPolyline
 62
7
  6
CONTINUOUS
 90
4
 70
0
 10
14.4772813649
 20
7.3765108688
 10
14.505967263
 20
7.3562290105
 10
14.5348113548
 20
7.3345127752
 10
14.5637513592
 20
7.3114674999
  0
LWPOLYLINE
  5
627
100
AcDbEntity
  8
0
100
AcDbPolyline
 62
7
  6
CONTINUOUS
 90
4
 70
0
 10
14.3372225551
 20
7.3669342345
 10
14.2929677178
 20
7.4119188059
 10
14.2608733954
 20
7.4607211952
 10
14.2555706803
 20
7.4747963526
  0
LINE
  5
628
100
AcDbEntity
  8
AXIS
100
AcDbLine
 62
7
  6
CONTINUOUS
 10
14.8994994892
 20
9.4437556296
 11
14.9537708151
 21
9.4750890072
  0
LINE
  5
629
100
AcDbEntity
  8
AXIS
100
AcDbLine
 62
7
  6
CONTINUOUS
 10
14.9816095488
 20
9.4911616117
 11
15.0358808747
 21
9.5224949893
  0
LINE
  5
62A
100
AcDbEntity
  8
AXIS
100
AcDbLine
 62
7
  6
CONTINUOUS
 10
15.0637198403
 20
9.5064225186
 11
15.0094485144
 21
9.4750891411
  0
LINE
  5
62B
100
AcDbEntity
  8
AXIS
100
AcDbLine
 62
7
  6
CONTINUOUS
 10
14.9816097806
 20
9.4590165366
 11
14.9273384547
 21
9.427683159
  0
LINE
  5
62C
100
AcDbEntity
  8
AXIS
100
AcDbLine
 62
7
  6
CONTINUOUS
 10
15.0637198403
 20
9.4903496364
 11
15.0233682377
 21
9.4670527669
  0
LINE
  5
62D
100
AcDbEntity
  8
AXIS
100
AcDbLine
 62
7
  6
CONTINUOUS
 10
14.9816097806
 20
9.4429436543
 11
14.9457718955
 21
9.4222527652
  0
LWPOLYLINE
  5
62E
100
AcDbEntity
  8
02___PRT_ALL_AXES
100
AcDbPolyline
 62
7
  6
CONTINUOUS
 90
11
 70
0
 10
14.5637513592
 20
7.4500961091
 10
14.6511646526
 20
7.435044885
 10
14.7419006186
 20
7.4280693115
 10
14.8337354814
 20
7.4293698221
 10
14.9244185331
 20
7.4389440179
 10
15.0117272948
 20
7.4565867273
 10
15.0935219852
 20
7.4818950336
 10
15.1677979632
 20
7.51427815
 10
15.2327348577
 20
7.5529718991
 10
15.2867411819
 20
7.5970574409
 10
15.3284933375
 20
7.6454837924
  0
LWPOLYLINE
  5
62F
100
AcDbEntity
  8
02___PRT_ALL_AXES
100
AcDbPolyline
 62
7
  6
CONTINUOUS
 90
6
 70
0
 10
14.5637513592
 20
7.45612344
 10
14.6511646526
 20
7.4410722158
 10
14.7419006186
 20
7.4340966424
 10
14.8337354814
 20
7.4353971529
 10
14.9244185331
 20
7.4449713488
 10
15.0117272948
 20
7.4626140582
  0
LWPOLYLINE
  5
630
100
AcDbEntity
  8
02___PRT_ALL_AXES
100
AcDbPolyline
 62
7
  6
CONTINUOUS
 90
11
 70
0
 10
14.5637513592
 20
7.4983147558
 10
14.6511646526
 20
7.4832635317
 10
14.7419006186
 20
7.4762879582
 10
14.8337354814
 20
7.4775884687
 10
14.9244185331
 20
7.4871626646
 10
15.0117272948
 20
7.504805374
 10
15.0935219852
 20
7.5301136803
 10
15.1677979632
 20
7.5624967967
 10
15.2327348577
 20
7.6011905458
 10
15.2867411819
 20
7.6452760876
 10
15.3284933375
 20
7.6937024391
  0
LWPOLYLINE
  5
631
100
AcDbEntity
  8
02___PRT_ALL_AXES
100
AcDbPolyline
 62
7
  6
CONTINUOUS
 90
12
 70
0
 10
14.5637513592
 20
7.5043420867
 10
14.6511646526
 20
7.4892908625
 10
14.7419006186
 20
7.482315289
 10
14.8337354814
 20
7.4836157996
 10
14.9244185331
 20
7.4931899954
 10
15.0117272948
 20
7.5108327048
 10
15.0935219852
 20
7.5361410111
 10
15.1677979632
 20
7.5685241276
 10
15.2327348577
 20
7.6072178766
 10
15.2867411819
 20
7.6513034184
 10
15.3284933375
 20
7.6997297699
 10
15.3402116634
 20
7.7209689757
  0
LWPOLYLINE
  5
632
100
AcDbEntity
  8
02___PRT_ALL_AXES
100
AcDbPolyline
 62
7
  6
CONTINUOUS
 90
3
 70
0
 10
14.6311040379
 20
7.4816059801
 10
14.5514886914
 20
7.4979099618
 10
14.4772813649
 20
7.5211668089
  0
LWPOLYLINE
  5
633
100
AcDbEntity
  8
02___PRT_ALL_AXES
100
AcDbPolyline
 62
7
  6
CONTINUOUS
 90
3
 70
0
 10
14.6298498548
 20
7.4335831895
 10
14.5510341955
 20
7.4498083039
 10
14.4772813649
 20
7.4729481622
  0
LWPOLYLINE
  5
634
100
AcDbEntity
  8
02___PRT_ALL_AXES
100
AcDbPolyline
 62
7
  6
CONTINUOUS
 90
5
 70
0
 10
14.2441605196
 20
7.5381280965
 10
14.2652270155
 20
7.5314329742
 10
14.2871025398
 20
7.5238145778
 10
14.3091168488
 20
7.5154248609
 10
14.330630514
 20
7.506491586
  0
LWPOLYLINE
  5
635
100
AcDbEntity
  8
02___PRT_ALL_AXES
100
AcDbPolyline
 62
7
  6
CONTINUOUS
 90
3
 70
0
 10
14.5637513592
 20
7.4500961091
 10
14.5347760677
 20
7.4594652407
 10
14.5059399253
 20
7.4699946813
  0
LWPOLYLINE
  5
636
100
AcDbEntity
  8
02___PRT_ALL_AXES
100
AcDbPolyline
 62
7
  6
CONTINUOUS
 90
4
 70
0
 10
14.2441605196
 20
7.5863467432
 10
14.2731314597
 20
7.5769791077
 10
14.3019672731
 20
7.5664499824
 10
14.330630514
 20
7.5547102327
  0
LWPOLYLINE
  5
637
100
AcDbEntity
  8
02___PRT_ALL_AXES
100
AcDbPolyline
 62
7
  6
CONTINUOUS
 90
3
 70
0
 10
14.5637513592
 20
7.4983147558
 10
14.5347760677
 20
7.5076838874
 10
14.5059399253
 20
7.5182133279
  0
LINE
  5
638
100
AcDbEntity
  8
02___PRT_ALL_AXES
100
AcDbLine
 62
7
  6
CONTINUOUS
 10
14.5059399253
 20
7.4699946813
 11
14.4772813649
 21
7.4817326197
  0
LINE
  5
639
100
AcDbEntity
  8
02___PRT_ALL_AXES
100
AcDbLine
 62
7
  6
CONTINUOUS
 10
14.5059399253
 20
7.5182133279
 11
14.4772813649
 21
7.5299512663
  0
LWPOLYLINE
  5
63A
100
AcDbEntity
  8
02___PRT_ALL_AXES
100
AcDbPolyline
 62
7
  6
CONTINUOUS
 90
4
 70
0
 10
14.330630514
 20
7.5152760435
 10
14.301972579
 20
7.5355374812
 10
14.2731341849
 20
7.5572480496
 10
14.2441605196
 20
7.5803194124
  0
LWPOLYLINE
  5
63B
100
AcDbEntity
  8
02___PRT_ALL_AXES
100
AcDbPolyline
 62
7
  6
CONTINUOUS
 90
4
 70
0
 10
14.4772813649
 20
7.4247295155
 10
14.505944193
 20
7.4044645046
 10
14.5347822177
 20
7.3827540035
 10
14.5637513592
 20
7.3596861466
  0
LWPOLYLINE
  5
63C
100
AcDbEntity
  8
02___PRT_ALL_AXES
100
AcDbPolyline
 62
7
  6
CONTINUOUS
 90
4
 70
0
 10
14.330630514
 20
7.5634946902
 10
14.301972579
 20
7.5837561278
 10
14.2731341849
 20
7.6054666963
 10
14.2441605196
 20
7.6285380591
  0
LWPOLYLINE
  5
63D
100
AcDbEntity
  8
02___PRT_ALL_AXES
100
AcDbPolyline
 62
7
  6
CONTINUOUS
 90
4
 70
0
 10
14.4772813649
 20
7.4729481622
 10
14.505944193
 20
7.4526831513
 10
14.5347822177
 20
7.4309726502
 10
14.5637513592
 20
7.4079047933
  0
LWPOLYLINE
  5
63E
100
AcDbEntity
  8
02___PRT_ALL_AXES
100
AcDbPolyline
 62
7
  6
CONTINUOUS
 90
4
 70
0
 10
14.330630514
 20
7.6117133369
 10
14.301972579
 20
7.6319747745
 10
14.2731341849
 20
7.653685343
 10
14.2441605196
 20
7.6767567058
  0
LINE
  5
63F
100
AcDbEntity
  8
02___PRT_ALL_AXES
100
AcDbLine
 62
7
  6
CONTINUOUS
 10
14.330630514
 20
7.506491586
 11
14.2978210208
 21
7.5386629218
  0
LINE
  5
640
100
AcDbEntity
  8
02___PRT_ALL_AXES
100
AcDbLine
 62
7
  6
CONTINUOUS
 10
14.330630514
 20
7.4582729393
 11
14.298165321
 21
7.4902068857
  0
LINE
  5
641
100
AcDbEntity
  8
02___PRT_ALL_AXES
100
AcDbLine
 62
7
  6
CONTINUOUS
 10
14.330630514
 20
7.5547102327
 11
14.2982391767
 21
7.5865667659
  0
LINE
  5
642
100
AcDbEntity
  8
02___PRT_ALL_AXES
100
AcDbLine
 62
7
  6
CONTINUOUS
 10
14.2160068719
 20
7.5331467113
 11
14.2441605196
 21
7.483882119
  0
LINE
  5
643
100
AcDbEntity
  8
02___PRT_ALL_AXES
100
AcDbLine
 62
7
  6
CONTINUOUS
 10
14.2160068719
 20
7.581365358
 11
14.2441605196
 21
7.5321007657
  0
LINE
  5
644
100
AcDbEntity
  8
02___PRT_ALL_AXES
100
AcDbLine
 62
7
  6
CONTINUOUS
 10
14.2160068719
 20
7.5873926888
 11
14.2441605196
 21
7.5381280965
  0
LINE
  5
645
100
AcDbEntity
  8
02___PRT_ALL_AXES
100
AcDbLine
 62
7
  6
CONTINUOUS
 10
14.2160068719
 20
7.6295840047
 11
14.2441605196
 21
7.5803194124
  0
LWPOLYLINE
  5
646
100
AcDbEntity
  8
02___PRT_ALL_AXES
100
AcDbPolyline
 62
7
  6
CONTINUOUS
 90
11
 70
0
 10
14.5637513592
 20
7.5465334025
 10
14.6511646526
 20
7.5314821784
 10
14.7419006186
 20
7.5245066049
 10
14.8337354814
 20
7.5258071154
 10
14.9244185331
 20
7.5353813113
 10
15.0117272948
 20
7.5530240207
 10
15.0935219852
 20
7.5783323269
 10
15.1677979632
 20
7.6107154434
 10
15.2327348577
 20
7.6494091925
 10
15.2867411819
 20
7.6934947343
 10
15.297608863
 20
7.7060996438
  0
LWPOLYLINE
  5
647
100
AcDbEntity
  8
02___PRT_ALL_AXES
100
AcDbPolyline
 62
7
  6
CONTINUOUS
 90
11
 70
0
 10
14.5637513592
 20
7.5525607333
 10
14.6511646526
 20
7.5375095092
 10
14.7419006186
 20
7.5305339357
 10
14.8337354814
 20
7.5318344463
 10
14.9244185331
 20
7.5414086421
 10
15.0117272948
 20
7.5590513515
 10
15.0935219852
 20
7.5843596578
 10
15.1677979632
 20
7.6167427742
 10
15.2327348577
 20
7.6554365233
 10
15.2867411819
 20
7.6995220651
 10
15.2901753338
 20
7.7035051756
  0
LWPOLYLINE
  5
648
100
AcDbEntity
  8
02___PRT_ALL_AXES
100
AcDbPolyline
 62
7
  6
CONTINUOUS
 90
9
 70
0
 10
14.5637513592
 20
7.5947520492
 10
14.6511646526
 20
7.579700825
 10
14.7419006186
 20
7.5727252516
 10
14.8337354814
 20
7.5740257621
 10
14.9244185331
 20
7.583599958
 10
15.0117272948
 20
7.6012426674
 10
15.0935219852
 20
7.6265509736
 10
15.1677979632
 20
7.6589340901
 10
15.1910313414
 20
7.6727780922
  0
LWPOLYLINE
  5
649
100
AcDbEntity
  8
02___PRT_ALL_AXES
100
AcDbPolyline
 62
7
  6
CONTINUOUS
 90
9
 70
0
 10
14.5637513592
 20
7.60077938
 10
14.6511646526
 20
7.5857281559
 10
14.7419006186
 20
7.5787525824
 10
14.8337354814
 20
7.5800530929
 10
14.9244185331
 20
7.5896272888
 10
15.0117272948
 20
7.6072699982
 10
15.0935219852
 20
7.6325783045
 10
15.1677979632
 20
7.6649614209
 10
15.1737773162
 20
7.6685243197
  0
LWPOLYLINE
  5
64A
100
AcDbEntity
  8
02___PRT_ALL_AXES
100
AcDbPolyline
 62
7
  6
CONTINUOUS
 90
3
 70
0
 10
14.6309789098
 20
7.5298440838
 10
14.5514296293
 20
7.5461437949
 10
14.4772813649
 20
7.5693854555
  0
LWPOLYLINE
  5
64B
100
AcDbEntity
  8
02___PRT_ALL_AXES
100
AcDbPolyline
 62
7
  6
CONTINUOUS
 90
3
 70
0
 10
14.6288690477
 20
7.5783935887
 10
14.550128304
 20
7.5946982887
 10
14.4772813649
 20
7.6176041022
  0
LINE
  5
64C
100
AcDbEntity
  8
0
100
AcDbLine
 62
9
  6
CONTINUOUS
 10
14.2581018861
 20
7.726002007
 11
14.3686450946
 21
7.6908992911
  0
LWPOLYLINE
  5
64D
100
AcDbEntity
  8
02___PRT_ALL_AXES
100
AcDbPolyline
 62
7
  6
CONTINUOUS
 90
4
 70
0
 10
14.5637513592
 20
7.5465334025
 10
14.542712472
 20
7.5532193466
 10
14.520745032
 20
7.5608703547
 10
14.4986924579
 20
7.5692774826
  0
LWPOLYLINE
  5
64E
100
AcDbEntity
  8
02___PRT_ALL_AXES
100
AcDbPolyline
 62
7
  6
CONTINUOUS
 90
4
 70
0
 10
14.2441605196
 20
7.6345653899
 10
14.2731314597
 20
7.6251977544
 10
14.3019672731
 20
7.6146686291
 10
14.330630514
 20
7.6029288794
  0
LWPOLYLINE
  5
64F
100
AcDbEntity
  8
02___PRT_ALL_AXES
100
AcDbPolyline
 62
7
  6
CONTINUOUS
 90
4
 70
0
 10
14.2441605196
 20
7.6827840366
 10
14.2731314597
 20
7.673416401
 10
14.3019672731
 20
7.6628872757
 10
14.330630514
 20
7.6511475261
  0
LWPOLYLINE
  5
650
100
AcDbEntity
  8
02___PRT_ALL_AXES
100
AcDbPolyline
 62
7
  6
CONTINUOUS
 90
3
 70
0
 10
14.5637513592
 20
7.5947520492
 10
14.5347760677
 20
7.6041211807
 10
14.5059399253
 20
7.6146506213
  0
LINE
  5
651
100
AcDbEntity
  8
02___PRT_ALL_AXES
100
AcDbLine
 62
7
  6
CONTINUOUS
 10
14.5059399253
 20
7.6146506213
 11
14.4772813649
 21
7.6263885597
  0
LINE
  5
652
100
AcDbEntity
  8
02___PRT_ALL_AXES
100
AcDbLine
 62
7
  6
CONTINUOUS
 10
14.4986924579
 20
7.5692774826
 11
14.4772813649
 21
7.578169913
  0
LWPOLYLINE
  5
653
100
AcDbEntity
  8
0
100
AcDbPolyline
 62
9
  6
CONTINUOUS
 90
3
 70
0
 10
14.0907701848
 20
7.8035182103
 10
14.1647105403
 20
7.764948459
 10
14.2581018861
 20
7.726002007
  0
LWPOLYLINE
  5
654
100
AcDbEntity
  8
0
100
AcDbPolyline
 62
7
  6
CONTINUOUS
 90
7
 70
0
 10
14.0989242131
 20
7.7854951336
 10
14.0109820983
 20
7.8436413986
 10
13.9369024952
 20
7.9084716977
 10
13.8782302056
 20
7.978652136
 10
13.8360726038
 20
8.0525414574
 10
13.8108544274
 20
8.1285128906
 10
13.80248656
 20
8.2053333224
  0
LWPOLYLINE
  5
655
100
AcDbEntity
  8
02___PRT_ALL_AXES
100
AcDbPolyline
 62
7
  6
CONTINUOUS
 90
5
 70
0
 10
14.4772813649
 20
7.6176041022
 10
14.4987724472
 20
7.6025350838
 10
14.5207769447
 20
7.5863334768
 10
14.5426594003
 20
7.5694774509
 10
14.5637513592
 20
7.5525607333
  0
LWPOLYLINE
  5
656
100
AcDbEntity
  8
02___PRT_ALL_AXES
100
AcDbPolyline
 62
7
  6
CONTINUOUS
 90
4
 70
0
 10
14.4772813649
 20
7.5211668089
 10
14.505944193
 20
7.500901798
 10
14.5347822177
 20
7.4791912969
 10
14.5637513592
 20
7.45612344
  0
LWPOLYLINE
  5
657
100
AcDbEntity
  8
02___PRT_ALL_AXES
100
AcDbPolyline
 62
7
  6
CONTINUOUS
 90
4
 70
0
 10
14.330630514
 20
7.6599319835
 10
14.301972579
 20
7.6801934212
 10
14.2731341849
 20
7.7019039897
 10
14.2609454267
 20
7.7116097435
  0
LWPOLYLINE
  5
658
100
AcDbEntity
  8
02___PRT_ALL_AXES
100
AcDbPolyline
 62
7
  6
CONTINUOUS
 90
4
 70
0
 10
14.4772813649
 20
7.5693854555
 10
14.505944193
 20
7.5491204447
 10
14.5347822177
 20
7.5274099436
 10
14.5637513592
 20
7.5043420867
  0
LINE
  5
659
100
AcDbEntity
  8
02___PRT_ALL_AXES
100
AcDbLine
 62
7
  6
CONTINUOUS
 10
14.330630514
 20
7.6511475261
 11
14.2981031436
 21
7.6831064698
  0
LINE
  5
65A
100
AcDbEntity
  8
02___PRT_ALL_AXES
100
AcDbLine
 62
7
  6
CONTINUOUS
 10
14.330630514
 20
7.6029288794
 11
14.2982615894
 21
7.6347685395
  0
LWPOLYLINE
  5
65B
100
AcDbEntity
  8
0
100
AcDbPolyline
 62
7
  6
CONTINUOUS
 90
3
 70
0
 10
14.5553199288
 20
7.258140941
 10
14.5689146131
 20
7.239811094
 10
14.5891412336
 20
7.221536735
  0
LINE
  5
65C
100
AcDbEntity
  8
02___PRT_ALL_AXES
100
AcDbLine
 62
7
  6
CONTINUOUS
 10
14.2160068719
 20
7.6778026514
 11
14.2441605196
 21
7.6285380591
  0
LINE
  5
65D
100
AcDbEntity
  8
02___PRT_ALL_AXES
100
AcDbLine
 62
7
  6
CONTINUOUS
 10
14.2160068719
 20
7.7260212981
 11
14.2441605196
 21
7.6767567058
  0
LINE
  5
65E
100
AcDbEntity
  8
02___PRT_ALL_AXES
100
AcDbLine
 62
7
  6
CONTINUOUS
 10
14.2186297502
 20
7.7274589916
 11
14.2441605196
 21
7.6827840366
  0
LWPOLYLINE
  5
65F
100
AcDbEntity
  8
0
100
AcDbPolyline
 62
9
  6
CONTINUOUS
 90
4
 70
0
 10
14.2579965807
 20
7.4728646388
 10
14.2584375369
 20
7.4716840564
 10
14.2886777969
 20
7.4261162582
 10
14.330630514
 20
7.3837532181
  0
LINE
  5
660
100
AcDbEntity
  8
02___PRT_ALL_AXES
100
AcDbLine
 62
7
  6
CONTINUOUS
 10
14.2018408338
 20
7.632548336
 11
14.2160068719
 21
7.581365358
  0
LINE
  5
661
100
AcDbEntity
  8
02___PRT_ALL_AXES
100
AcDbLine
 62
7
  6
CONTINUOUS
 10
14.2018408338
 20
7.6807669827
 11
14.2160068719
 21
7.6295840047
  0
LWPOLYLINE
  5
662
100
AcDbEntity
  8
02___PRT_ALL_AXES
100
AcDbPolyline
 62
7
  6
CONTINUOUS
 90
3
 70
0
 10
14.2001243553
 20
7.6096320929
 10
14.2018408338
 20
7.5843296894
 10
14.2160068719
 20
7.5331467113
  0
LWPOLYLINE
  5
663
100
AcDbEntity
  8
02___PRT_ALL_AXES
100
AcDbPolyline
 62
7
  6
CONTINUOUS
 90
4
 70
0
 10
14.2001243553
 20
7.6156594238
 10
14.2018408338
 20
7.5903570202
 10
14.2160068719
 20
7.5391740422
 10
14.2441605196
 20
7.4899094499
  0
LINE
  5
664
100
AcDbEntity
  8
02___PRT_ALL_AXES
100
AcDbLine
 62
7
  6
CONTINUOUS
 10
14.2001243553
 20
7.6578507396
 11
14.2018408338
 21
7.632548336
  0
LWPOLYLINE
  5
665
100
AcDbEntity
  8
02___PRT_ALL_AXES
100
AcDbPolyline
 62
7
  6
CONTINUOUS
 90
3
 70
0
 10
14.2001243553
 20
7.6638780704
 10
14.2018408338
 20
7.6385756669
 10
14.2160068719
 20
7.5873926888
  0
LINE
  5
666
100
AcDbEntity
  8
AXIS
100
AcDbLine
 62
7
  6
CONTINUOUS
 10
14.8994990373
 20
9.4903492417
 11
14.889165903
 21
9.4785237772
  0
LWPOLYLINE
  5
667
100
AcDbEntity
  8
AXIS
100
AcDbPolyline
 62
7
  6
CONTINUOUS
 90
4
 70
0
 10
14.8994990373
 20
9.5064221239
 10
14.8905512287
 20
9.4966594295
 10
14.8850436791
 20
9.4860817902
 10
14.8831844679
 20
9.4750890726
  0
LWPOLYLINE
  5
668
100
AcDbEntity
  8
02___PRT_ALL_AXES
100
AcDbPolyline
 62
7
  6
CONTINUOUS
 90
6
 70
0
 10
14.911986551
 20
7.6265077415
 10
14.8802230577
 20
7.6214277953
 10
14.7968440118
 20
7.6157035837
 10
14.71341239
 20
7.6173139426
 10
14.6311330507
 20
7.6262574114
 10
14.6063265991
 20
7.6313367305
  0
LWPOLYLINE
  5
669
100
AcDbEntity
  8
02___PRT_ALL_AXES
100
AcDbPolyline
 62
7
  6
CONTINUOUS
 90
3
 70
0
 10
14.7240166103
 20
7.6223187799
 10
14.7419006186
 20
7.6209438983
 10
14.7933682202
 20
7.6216727517
  0
LWPOLYLINE
  5
66A
100
AcDbEntity
  8
0
100
AcDbPolyline
 62
7
  6
CONTINUOUS
 90
5
 70
0
 10
14.570039389
 20
7.6346297894
 10
14.4404283566
 20
7.6574267513
 10
14.3172237882
 20
7.6905308009
 10
14.2026855422
 20
7.7334308614
 10
14.0989242131
 20
7.7854951336
  0
LWPOLYLINE
  5
66B
100
AcDbEntity
  8
0
100
AcDbPolyline
 62
9
  6
CONTINUOUS
 90
16
 70
0
 10
14.3686450946
 20
7.6908992911
 10
14.4921698653
 20
7.6631291718
 10
14.6229087598
 20
7.6450105542
 10
14.7561013054
 20
7.6373586672
 10
14.8896697726
 20
7.6401992081
 10
15.0215183441
 20
7.6534866488
 10
15.1490844492
 20
7.6769920731
 10
15.2699052493
 20
7.7102640229
 10
15.3817722128
 20
7.7526858226
 10
15.4826463433
 20
7.8034832678
 10
15.5706497594
 20
7.8617128965
 10
15.6441478997
 20
7.9262906563
 10
15.7017993958
 20
7.9960394387
 10
15.7425358403
 20
8.0696844401
 10
15.7655747906
 20
8.1458040425
 10
15.7709904969
 20
8.2053280002
  0
LWPOLYLINE
  5
66C
100
AcDbEntity
  8
02___PRT_ALL_AXES
100
AcDbPolyline
 62
7
  6
CONTINUOUS
 90
4
 70
0
 10
14.5052935079
 20
7.6460177813
 10
14.505944193
 20
7.645557738
 10
14.5347822177
 20
7.6238472369
 10
14.5637513592
 20
7.60077938
  0
LINE
  5
66D
100
AcDbEntity
  8
02___PRT_ALL_AXES
100
AcDbLine
 62
7
  6
CONTINUOUS
 10
14.2018408338
 20
7.7289856294
 11
14.2160068719
 21
7.6778026514
  0
LWPOLYLINE
  5
66E
100
AcDbEntity
  8
02___PRT_ALL_AXES
100
AcDbPolyline
 62
7
  6
CONTINUOUS
 90
3
 70
0
 10
14.2022131049
 20
7.733667916
 10
14.2160068719
 20
7.6838299822
 10
14.2441605196
 20
7.6345653899
  0
LINE
  5
66F
100
AcDbEntity
  8
02___PRT_ALL_AXES
100
AcDbLine
 62
7
  6
CONTINUOUS
 10
14.215259592
 20
7.7287212773
 11
14.2160068719
 21
7.7260212981
  0
LINE
  5
670
100
AcDbEntity
  8
02___PRT_ALL_AXES
100
AcDbLine
 62
7
  6
CONTINUOUS
 10
14.2001243553
 20
7.7060693863
 11
14.2018408338
 21
7.6807669827
  0
LWPOLYLINE
  5
671
100
AcDbEntity
  8
02___PRT_ALL_AXES
100
AcDbPolyline
 62
7
  6
CONTINUOUS
 90
4
 70
0
 10
14.2001243553
 20
7.7120967171
 10
14.2018408338
 20
7.6867943136
 10
14.2160068719
 20
7.6356113355
 10
14.2441605196
 20
7.5863467432
  0
LINE
  5
672
100
AcDbEntity
  8
02___PRT_ALL_AXES
100
AcDbLine
 62
7
  6
CONTINUOUS
 10
14.2014988825
 20
7.7340262911
 11
14.2018408338
 21
7.7289856294
  0
LINE
  5
673
100
AcDbEntity
  8
02___PRT_ALL_AXES
100
AcDbLine
 62
7
  6
CONTINUOUS
 10
14.2441605196
 20
7.483882119
 11
14.2441605196
 21
7.4899094499
  0
LINE
  5
674
100
AcDbEntity
  8
02___PRT_ALL_AXES
100
AcDbLine
 62
7
  6
CONTINUOUS
 10
14.2441605196
 20
7.5321007657
 11
14.2441605196
 21
7.5381280965
  0
LINE
  5
675
100
AcDbEntity
  8
02___PRT_ALL_AXES
100
AcDbLine
 62
7
  6
CONTINUOUS
 10
14.2441605196
 20
7.5803194124
 11
14.2441605196
 21
7.5863467432
  0
LINE
  5
676
100
AcDbEntity
  8
02___PRT_ALL_AXES
100
AcDbLine
 62
7
  6
CONTINUOUS
 10
14.2441605196
 20
7.6285380591
 11
14.2441605196
 21
7.6345653899
  0
LINE
  5
677
100
AcDbEntity
  8
02___PRT_ALL_AXES
100
AcDbLine
 62
7
  6
CONTINUOUS
 10
14.2441605196
 20
7.6767567058
 11
14.2441605196
 21
7.6827840366
  0
LINE
  5
678
100
AcDbEntity
  8
02___PRT_ALL_AXES
100
AcDbLine
 62
7
  6
CONTINUOUS
 10
14.2015890523
 20
7.7326971099
 11
14.2001243553
 21
7.7120967171
  0
LINE
  5
679
100
AcDbEntity
  8
02___PRT_ALL_AXES
100
AcDbLine
 62
7
  6
CONTINUOUS
 10
14.2015890523
 20
7.6844784633
 11
14.2001243553
 21
7.6638780704
  0
LINE
  5
67A
100
AcDbEntity
  8
02___PRT_ALL_AXES
100
AcDbLine
 62
7
  6
CONTINUOUS
 10
14.2015890523
 20
7.6362598166
 11
14.2001243553
 21
7.6156594238
  0
LINE
  5
67B
100
AcDbEntity
  8
0
100
AcDbLine
 62
7
  6
CONTINUOUS
 10
14.3225980959
 20
9.3027027655
 11
14.3221715993
 21
9.2995739776
  0
LWPOLYLINE
  5
67C
100
AcDbEntity
  8
AXIS
100
AcDbPolyline
 62
7
  6
CONTINUOUS
 90
4
 70
0
 10
15.0637202922
 20
9.4437560244
 10
15.0726681007
 20
9.4535187188
 10
15.0781756504
 20
9.464096358
 10
15.0800348616
 20
9.4750890756
  0
LWPOLYLINE
  5
67D
100
AcDbEntity
  8
0
100
AcDbPolyline
 62
7
  6
CONTINUOUS
 90
16
 70
0
 10
14.5446994355
 20
7.2218254042
 10
14.5524546436
 20
7.2017100314
 10
14.5655873592
 20
7.1825104846
 10
14.5837961377
 20
7.1646855206
 10
14.6066625258
 20
7.148662428
 10
14.6336662867
 20
7.1348245422
 10
14.6641857229
 20
7.1235094875
 10
14.6975190436
 20
7.1149955069
 10
14.7329003455
 20
7.109495963
 10
14.7695173971
 20
7.1071547963
 10
14.8065298803
 20
7.1080435069
 10
14.8430878817
 20
7.112159498
 10
14.8783519175
 20
7.1194260268
 10
14.9115127069
 20
7.1296941337
 10
14.9418092011
 20
7.1427460802
 10
14.968545682
 20
7.1583001502
  0
LWPOLYLINE
  5
67E
100
AcDbEntity
  8
0
100
AcDbPolyline
 62
7
  6
CONTINUOUS
 90
4
 70
0
 10
14.330630514
 20
7.3837532181
 10
14.3321303096
 20
7.3745099084
 10
14.3364765748
 20
7.3676133441
 10
14.3372220066
 20
7.3669345449
  0
LINE
  5
67F
100
AcDbEntity
  8
02___PRT_ALL_AXES
100
AcDbLine
 62
7
  6
CONTINUOUS
 10
14.330630514
 20
7.6599319835
 11
14.330630514
 21
7.6511475261
  0
LINE
  5
680
100
AcDbEntity
  8
02___PRT_ALL_AXES
100
AcDbLine
 62
7
  6
CONTINUOUS
 10
14.330630514
 20
7.6117133369
 11
14.330630514
 21
7.6029288794
  0
LINE
  5
681
100
AcDbEntity
  8
02___PRT_ALL_AXES
100
AcDbLine
 62
7
  6
CONTINUOUS
 10
14.330630514
 20
7.5634946902
 11
14.330630514
 21
7.5547102327
  0
LINE
  5
682
100
AcDbEntity
  8
02___PRT_ALL_AXES
100
AcDbLine
 62
7
  6
CONTINUOUS
 10
14.330630514
 20
7.5152760435
 11
14.330630514
 21
7.506491586
  0
LINE
  5
683
100
AcDbEntity
  8
02___PRT_ALL_AXES
100
AcDbLine
 62
7
  6
CONTINUOUS
 10
14.330630514
 20
7.4670573968
 11
14.330630514
 21
7.4582729393
  0
LINE
  5
684
100
AcDbEntity
  8
0
100
AcDbLine
 62
7
  6
CONTINUOUS
 10
14.330630514
 20
7.4188387501
 11
14.330630514
 21
7.3837532181
  0
LINE
  5
685
100
AcDbEntity
  8
AXIS
100
AcDbLine
 62
7
  6
CONTINUOUS
 10
14.3224661229
 20
9.2974134614
 11
14.3234025245
 21
9.3349432061
  0
LWPOLYLINE
  5
686
100
AcDbEntity
  8
0
100
AcDbPolyline
 62
7
  6
CONTINUOUS
 90
6
 70
0
 10
15.1152383221
 20
9.1099188239
 10
15.1625822061
 20
9.1419226431
 10
15.2006715714
 20
9.1778083614
 10
15.2285685314
 20
9.2166923533
 10
15.2455861704
 20
9.2576171658
 10
15.2513054576
 20
9.2995739776
  0
LINE
  5
687
100
AcDbEntity
  8
02___PRT_ALL_AXES
100
AcDbLine
 62
7
  6
CONTINUOUS
 10
14.1762737397
 20
8.1453368149
 11
14.0907701848
 21
8.1892673838
  0
LWPOLYLINE
  5
688
100
AcDbEntity
  8
0
100
AcDbPolyline
 62
7
  6
CONTINUOUS
 90
6
 70
0
 10
14.5855331233
 20
7.1601835565
 10
14.5876546524
 20
7.1516648039
 10
14.5958445404
 20
7.1355617148
 10
14.6079204795
 20
7.1202954486
 10
14.6236366383
 20
7.1061767824
 10
14.6426730813
 20
7.0934931317
  0
LWPOLYLINE
  5
689
100
AcDbEntity
  8
0
100
AcDbPolyline
 62
7
  6
CONTINUOUS
 90
4
 70
0
 10
14.4772813649
 20
7.2990862253
 10
14.4785209199
 20
7.2899931622
 10
14.4821106348
 20
7.2835333824
 10
14.4846578935
 20
7.2815120282
  0
LINE
  5
68A
100
AcDbEntity
  8
02___PRT_ALL_AXES
100
AcDbLine
 62
7
  6
CONTINUOUS
 10
14.4772813649
 20
7.6263885597
 11
14.4772813649
 21
7.6176041022
  0
LINE
  5
68B
100
AcDbEntity
  8
02___PRT_ALL_AXES
100
AcDbLine
 62
7
  6
CONTINUOUS
 10
14.4772813649
 20
7.578169913
 11
14.4772813649
 21
7.5693854555
  0
LINE
  5
68C
100
AcDbEntity
  8
02___PRT_ALL_AXES
100
AcDbLine
 62
7
  6
CONTINUOUS
 10
14.4772813649
 20
7.5299512663
 11
14.4772813649
 21
7.5211668089
  0
LINE
  5
68D
100
AcDbEntity
  8
02___PRT_ALL_AXES
100
AcDbLine
 62
7
  6
CONTINUOUS
 10
14.4772813649
 20
7.4817326197
 11
14.4772813649
 21
7.4729481622
  0
LINE
  5
68E
100
AcDbEntity
  8
02___PRT_ALL_AXES
100
AcDbLine
 62
7
  6
CONTINUOUS
 10
14.4772813649
 20
7.433513973
 11
14.4772813649
 21
7.4247295155
  0
LINE
  5
68F
100
AcDbEntity
  8
02___PRT_ALL_AXES
100
AcDbLine
 62
7
  6
CONTINUOUS
 10
14.4772813649
 20
7.3852953263
 11
14.4772813649
 21
7.3765108688
  0
LINE
  5
690
100
AcDbEntity
  8
0
100
AcDbLine
 62
7
  6
CONTINUOUS
 10
14.4772813649
 20
7.3370766796
 11
14.4772813649
 21
7.2990862253
  0
LINE
  5
691
100
AcDbEntity
  8
AXIS
100
AcDbLine
 62
7
  6
CONTINUOUS
 10
14.889165903
 20
9.4785237772
 11
14.884512964
 21
9.4672345855
  0
LWPOLYLINE
  5
692
100
AcDbEntity
  8
0
100
AcDbPolyline
 62
7
  6
CONTINUOUS
 90
5
 70
0
 10
14.5434477137
 20
7.2620301849
 10
14.5453699558
 20
7.2481994254
 10
14.5541892141
 20
7.2275156885
 10
14.5689270385
 20
7.2076517716
 10
14.5891504778
 20
7.1893839569
  0
LWPOLYLINE
  5
693
100
AcDbEntity
  8
0
100
AcDbPolyline
 62
7
  6
CONTINUOUS
 90
6
 70
0
 10
14.3221715993
 20
9.2995739776
 10
14.3278914917
 20
9.2576149599
 10
14.344909721
 20
9.2166902292
 10
14.3728072418
 20
9.1778063715
 10
14.4108971247
 20
9.1419208363
 10
14.4582414702
 20
9.1099172447
  0
LINE
  5
694
100
AcDbEntity
  8
0
100
AcDbLine
 62
7
  6
CONTINUOUS
 10
14.5424668749
 20
7.2401567377
 11
14.5446994355
 21
7.2218254042
  0
LWPOLYLINE
  5
695
100
AcDbEntity
  8
0
100
AcDbPolyline
 62
7
  6
CONTINUOUS
 90
3
 70
0
 10
14.5424668749
 20
7.2377459963
 10
14.5425872597
 20
7.2333186918
 10
14.5454740836
 20
7.2156847407
  0
LINE
  5
696
100
AcDbEntity
  8
02___PRT_ALL_AXES
100
AcDbLine
 62
7
  6
CONTINUOUS
 10
14.5637513592
 20
7.60077938
 11
14.5637513592
 21
7.5947520492
  0
LINE
  5
697
100
AcDbEntity
  8
02___PRT_ALL_AXES
100
AcDbLine
 62
7
  6
CONTINUOUS
 10
14.5637513592
 20
7.5525607333
 11
14.5637513592
 21
7.5465334025
  0
LINE
  5
698
100
AcDbEntity
  8
02___PRT_ALL_AXES
100
AcDbLine
 62
7
  6
CONTINUOUS
 10
14.5637513592
 20
7.5043420867
 11
14.5637513592
 21
7.4983147558
  0
LINE
  5
699
100
AcDbEntity
  8
02___PRT_ALL_AXES
100
AcDbLine
 62
7
  6
CONTINUOUS
 10
14.5637513592
 20
7.45612344
 11
14.5637513592
 21
7.4500961091
  0
LINE
  5
69A
100
AcDbEntity
  8
02___PRT_ALL_AXES
100
AcDbLine
 62
7
  6
CONTINUOUS
 10
14.5637513592
 20
7.4079047933
 11
14.5637513592
 21
7.4018774625
  0
LINE
  5
69B
100
AcDbEntity
  8
02___PRT_ALL_AXES
100
AcDbLine
 62
7
  6
CONTINUOUS
 10
14.5637513592
 20
7.3596861466
 11
14.5637513592
 21
7.3536588158
  0
LINE
  5
69C
100
AcDbEntity
  8
02___PRT_ALL_AXES
100
AcDbLine
 62
7
  6
CONTINUOUS
 10
14.5637513592
 20
7.3114674999
 11
14.5637513592
 21
7.3054401691
  0
LWPOLYLINE
  5
69D
100
AcDbEntity
  8
0
100
AcDbPolyline
 62
9
  6
CONTINUOUS
 90
3
 70
0
 10
14.3281867439
 20
9.2925543496
 10
14.3243947179
 20
9.3131735305
 10
14.3234025245
 20
9.3349432061
  0
LWPOLYLINE
  5
69E
100
AcDbEntity
  8
AXIS
100
AcDbPolyline
 62
7
  6
CONTINUOUS
 90
13
 70
0
 10
14.8389025652
 20
9.3625765076
 10
14.8388324034
 20
9.3610047528
 10
14.8371264477
 20
9.3547860458
 10
14.8332182981
 20
9.3489080087
 10
14.8272787596
 20
9.3436275401
 10
14.8195674185
 20
9.3391754218
 10
14.8104212973
 20
9.3357462327
 10
14.8002401255
 20
9.3334898448
 10
14.7894688691
 20
9.3325048732
 10
14.7785782837
 20
9.3328343657
 10
14.7680443402
 20
9.334463922
 10
14.7583274224
 20
9.3373223226
 10
14.7498522063
 20
9.3412846418
  0
LWPOLYLINE
  5
69F
100
AcDbEntity
  8
0
100
AcDbPolyline
 62
7
  6
CONTINUOUS
 90
3
 70
0
 10
14.5445030476
 20
7.2544369328
 10
14.5424994763
 20
7.2423771638
 10
14.5424668749
 20
7.2401567377
  0
LINE
  5
6A0
100
AcDbEntity
  8
AXIS
100
AcDbLine
 62
7
  6
CONTINUOUS
 10
14.8994990373
 20
9.5064221239
 11
14.8994990373
 21
9.4903492417
  0
LWPOLYLINE
  5
6A1
100
AcDbEntity
  8
AXIS
100
AcDbPolyline
 62
7
  6
CONTINUOUS
 90
5
 70
0
 10
14.7345744918
 20
9.3625851779
 10
14.7352154502
 20
9.3578693429
 10
14.7380380526
 20
9.3517876683
 10
14.7429890994
 20
9.3461777072
 10
14.7498522063
 20
9.3412846418
  0
LWPOLYLINE
  5
6A2
100
AcDbEntity
  8
0
100
AcDbPolyline
 62
7
  6
CONTINUOUS
 90
3
 70
0
 10
15.031010182
 20
7.2562296061
 10
15.0309210246
 20
7.2601778296
 10
15.0305688952
 20
7.2622193165
  0
LINE
  5
6A3
100
AcDbEntity
  8
AXIS
100
AcDbLine
 62
7
  6
CONTINUOUS
 10
14.9816097806
 20
9.4590165366
 11
14.9816097806
 21
9.4429436543
  0
LINE
  5
6A4
100
AcDbEntity
  8
AXIS
100
AcDbLine
 62
7
  6
CONTINUOUS
 10
15.0637198403
 20
9.5064225186
 11
15.0637198403
 21
9.4903496364
  0
LWPOLYLINE
  5
6A5
100
AcDbEntity
  8
0
100
AcDbPolyline
 62
9
  6
CONTINUOUS
 90
30
 70
0
 10
15.2483278253
 20
9.3075661973
 10
15.2437863569
 20
9.286999263
 10
15.2365011108
 20
9.2667001556
 10
15.2265168107
 20
9.2467901909
 10
15.2138943528
 20
9.2273886221
 10
15.1987096759
 20
9.2086108023
 10
15.1810531322
 20
9.1905679973
 10
15.1610300052
 20
9.1733679012
 10
15.1387602772
 20
9.157113814
 10
15.1143778548
 20
9.1419036095
 10
15.0880294726
 20
9.1278288278
 10
15.0598726976
 20
9.1149736526
 10
15.0300758707
 20
9.1034150743
 10
14.9988182477
 20
9.0932227557
 10
14.9662880009
 20
9.0844580744
 10
14.9326811568
 20
9.077173754
 10
14.8981978484
 20
9.0714131462
 10
14.8630412209
 20
9.0672105443
 10
14.8274203975
 20
9.0645916745
 10
14.7915499078
 20
9.0635730894
 10
14.7556505425
 20
9.0641614172
 10
14.7199401452
 20
9.0663529351
 10
14.684606932
 20
9.0701375989
 10
14.6498653131
 20
9.0754957365
 10
14.6160367903
 20
9.0823727817
 10
14.583258452
 20
9.0907319027
 10
14.5513103552
 20
9.1006598599
 10
14.519999572
 20
9.1123273165
 10
14.4892405147
 20
9.1259750606
 10
14.459077871
 20
9.141915924
  0
LWPOLYLINE
  5
6A6
100
AcDbEntity
  8
AXIS
100
AcDbPolyline
 62
7
  6
CONTINUOUS
 90
4
 70
0
 10
14.8831844679
 20
9.4750890726
 10
14.8850438376
 20
9.4640958938
 10
14.8905515398
 20
9.453518281
 10
14.8994994892
 20
9.4437556296
  0
LWPOLYLINE
  5
6A7
100
AcDbEntity
  8
0
100
AcDbPolyline
 62
7
  6
CONTINUOUS
 90
21
 70
0
 10
15.031010182
 20
7.2530150269
 10
15.0292695088
 20
7.2355977406
 10
15.0221437977
 20
7.2139809846
 10
15.0096748526
 20
7.1932189773
 10
14.9921454949
 20
7.1737651702
 10
14.9699533417
 20
7.1560435621
 10
14.9436023206
 20
7.1404391838
 10
14.9136909946
 20
7.1272889006
 10
14.8808984965
 20
7.1168736159
 10
14.845968935
 20
7.1094120496
 10
14.8096947655
 20
7.1050559743
 10
14.7728992886
 20
7.1038868059
 10
14.7364179878
 20
7.1059136048
 10
14.7010785082
 20
7.1110729218
 10
14.6676826342
 20
7.1192303599
 10
14.636989106
 20
7.130183234
 10
14.6096957987
 20
7.1436648432
 10
14.5864281201
 20
7.15934646
 10
14.567703598
 20
7.1768596291
 10
14.5539482579
 20
7.1957884834
 10
14.5454740836
 20
7.2156847407
  0
LINE
  5
6A8
100
AcDbEntity
  8
0
100
AcDbLine
 62
7
  6
CONTINUOUS
 10
15.0291148416
 20
7.2380577302
 11
15.031010182
 21
7.2562296061
  0
LINE
  5
6A9
100
AcDbEntity
  8
02___PRT_ALL_AXES
100
AcDbLine
 62
7
  6
CONTINUOUS
 10
15.3733527017
 20
7.6397687471
 11
15.3719529773
 21
7.6613596242
  0
LINE
  5
6AA
100
AcDbEntity
  8
02___PRT_ALL_AXES
100
AcDbLine
 62
7
  6
CONTINUOUS
 10
15.3733527017
 20
7.6879873938
 11
15.3719529773
 21
7.7095782709
  0
LINE
  5
6AB
100
AcDbEntity
  8
AXIS
100
AcDbLine
 62
7
  6
CONTINUOUS
 10
15.2510109365
 20
9.2974133641
 11
15.2500745325
 21
9.3349432061
  0
LWPOLYLINE
  5
6AC
100
AcDbEntity
  8
0
100
AcDbPolyline
 62
9
  6
CONTINUOUS
 90
3
 70
0
 10
15.2500745325
 20
9.3349432061
 10
15.2500970035
 20
9.328277652
 10
15.2483278253
 20
9.3075661973
  0
LWPOLYLINE
  5
6AD
100
AcDbEntity
  8
0
100
AcDbPolyline
 62
7
  6
CONTINUOUS
 90
17
 70
0
 10
14.9884986464
 20
7.1624110848
 10
14.9858227651
 20
7.151665761
 10
14.9776331094
 20
7.1355626325
 10
14.9655573906
 20
7.1202963082
 10
14.9498414353
 20
7.1061775665
 10
14.9308051752
 20
7.0934938243
 10
14.9088361337
 20
7.0825032859
 10
14.884381537
 20
7.0734296871
 10
14.8579392102
 20
7.0664577401
 10
14.8300474429
 20
7.0617293736
 10
14.801274031
 20
7.0593408437
 10
14.7722047182
 20
7.0593407738
 10
14.7434312718
 20
7.0617291654
 10
14.7155394363
 20
7.0664573978
 10
14.6890970089
 20
7.0734292177
 10
14.6646422814
 20
7.0825026989
 10
14.6426730813
 20
7.0934931317
  0
LWPOLYLINE
  5
6AE
100
AcDbEntity
  8
0
100
AcDbPolyline
 62
7
  6
CONTINUOUS
 90
11
 70
0
 10
14.4582414702
 20
9.1099172447
 10
14.5136745036
 20
9.0825836313
 10
14.5758312795
 20
9.0605930404
 10
14.6431812919
 20
9.0444869532
 10
14.7140661598
 20
9.0346619552
 10
14.7867404627
 20
9.0313599704
 10
14.8594147179
 20
9.0346623046
 10
14.9302994441
 20
9.0444876434
 10
14.9976492242
 20
9.0605940543
 10
15.0598056829
 20
9.082584944
 10
15.1152383221
 20
9.1099188239
  0
LWPOLYLINE
  5
6AF
100
AcDbEntity
  8
0
100
AcDbPolyline
 62
9
  6
CONTINUOUS
 90
9
 70
0
 10
14.459077871
 20
9.141915924
 10
14.4314635196
 20
9.1593322419
 10
14.4078200839
 20
9.1770945483
 10
14.387607295
 20
9.1951762189
 10
14.3704086944
 20
9.2136261711
 10
14.3559290397
 20
9.2325552476
 10
14.3440178875
 20
9.2520903973
 10
14.3347389739
 20
9.2721522102
 10
14.3281867439
 20
9.2925543496
  0
LWPOLYLINE
  5
6B0
100
AcDbEntity
  8
AXIS
100
AcDbPolyline
 62
7
  6
CONTINUOUS
 90
4
 70
0
 10
15.0800348616
 20
9.4750890756
 10
15.0781754918
 20
9.4860822545
 10
15.0726677896
 20
9.4966598673
 10
15.0637198403
 20
9.5064225186
  0
LINE
  5
6B1
100
AcDbEntity
  8
02___PRT_ALL_AXES
100
AcDbLine
 62
7
  6
CONTINUOUS
 10
15.3714674676
 20
7.7084601141
 11
15.3733305327
 21
7.7358797679
  0
LINE
  5
6B2
100
AcDbEntity
  8
02___PRT_ALL_AXES
100
AcDbLine
 62
7
  6
CONTINUOUS
 10
15.3714674676
 20
7.6602414675
 11
15.3733527017
 21
7.6879873938
  0
LINE
  5
6B3
100
AcDbEntity
  8
02___PRT_ALL_AXES
100
AcDbLine
 62
7
  6
CONTINUOUS
 10
15.3714674676
 20
7.6120228208
 11
15.3733527017
 21
7.6397687471
  0
LWPOLYLINE
  5
6B4
100
AcDbEntity
  8
0
100
AcDbPolyline
 62
7
  6
CONTINUOUS
 90
9
 70
0
 10
15.0260057355
 20
7.2610151614
 10
15.0226259669
 20
7.2503993574
 10
15.0106774832
 20
7.2299416458
 10
14.9937737576
 20
7.2106699391
 10
14.9719674666
 20
7.192803672
 10
14.9458086666
 20
7.1769401181
 10
14.916183113
 20
7.1635976855
 10
14.8841072622
 20
7.1530965114
 10
14.8499616669
 20
7.1454556427
  0
LWPOLYLINE
  5
6B5
100
AcDbEntity
  8
0
100
AcDbPolyline
 62
7
  6
CONTINUOUS
 90
5
 70
0
 10
15.0133097923
 20
7.1992715057
 10
15.0081256467
 20
7.1872015663
 10
14.993962036
 20
7.1675840151
 10
14.9747195104
 20
7.1493645121
 10
14.9497614349
 20
7.1324213838
  0
LWPOLYLINE
  5
6B6
100
AcDbEntity
  8
0
100
AcDbPolyline
 62
9
  6
CONTINUOUS
 90
41
 70
0
 10
14.4869108306
 20
9.189476274
 10
14.4616456471
 20
9.205410762
 10
14.4400098484
 20
9.221664428
 10
14.4215134343
 20
9.2382102965
 10
14.4057753001
 20
9.2550931374
 10
14.3925252356
 20
9.2724143751
 10
14.3816255407
 20
9.2902901977
 10
14.3731345166
 20
9.3086479671
 10
14.3671385904
 20
9.3273171751
 10
14.3636684402
 20
9.3461850006
 10
14.3627397676
 20
9.3651527274
 10
14.3643585042
 20
9.3841050077
 10
14.3685140804
 20
9.40292505
 10
14.3751804062
 20
9.4215000189
 10
14.3843165569
 20
9.4397189013
 10
14.3958668089
 20
9.457472571
 10
14.409761673
 20
9.474655471
 10
14.4259184707
 20
9.4911657842
 10
14.4442408601
 20
9.5069049622
 10
14.4646190485
 20
9.5217784773
 10
14.4869305007
 20
9.535696767
 10
14.5110409418
 20
9.5485760642
 10
14.5368061858
 20
9.5603393346
 10
14.5640721872
 20
9.5709161264
 10
14.5926749128
 20
9.5802426929
 10
14.62244217
 20
9.5882628695
 10
14.6531945793
 20
9.5949284105
 10
14.6847490034
 20
9.6001996462
 10
14.7169195487
 20
9.6040451965
 10
14.7495148509
 20
9.6064415205
 10
14.7823385985
 20
9.607373472
 10
14.8151887509
 20
9.6068349869
 10
14.8478659673
 20
9.6048294725
 10
14.8801980155
 20
9.6013661206
 10
14.9119886822
 20
9.5964629355
 10
14.9429437769
 20
9.5901698514
 10
14.9729379074
 20
9.5825205576
 10
15.0021723773
 20
9.5734356409
 10
15.0308237182
 20
9.5627589061
 10
15.0589702632
 20
9.550270005
 10
15.0865662263
 20
9.5356854115
  0
LINE
  5
6B7
100
AcDbEntity
  8
0
100
AcDbLine
 62
7
  6
CONTINUOUS
 10
15.2513054576
 20
9.2995739776
 11
15.2508789661
 21
9.3027025616
  0
LWPOLYLINE
  5
6B8
100
AcDbEntity
  8
0
100
AcDbPolyline
 62
7
  6
CONTINUOUS
 90
7
 70
0
 10
15.2500745325
 20
9.3349432061
 10
15.2453735309
 20
9.3717696157
 10
15.2329561643
 20
9.4083323268
 10
15.2125789678
 20
9.4440863497
 10
15.1842646848
 20
9.4781740934
 10
15.1485265627
 20
9.5096223367
 10
15.1062509317
 20
9.5376353282
  0
LINE
  5
6B9
100
AcDbEntity
  8
02___PRT_ALL_AXES
100
AcDbLine
 62
7
  6
CONTINUOUS
 10
15.3569680542
 20
7.6549022692
 11
15.3714674676
 21
7.7084601141
  0
LWPOLYLINE
  5
6BA
100
AcDbEntity
  8
02___PRT_ALL_AXES
100
AcDbPolyline
 62
7
  6
CONTINUOUS
 90
3
 70
0
 10
15.3569680542
 20
7.6488749384
 10
15.3714674676
 20
7.7024327833
 10
15.3733527017
 20
7.7301787096
  0
LINE
  5
6BB
100
AcDbEntity
  8
02___PRT_ALL_AXES
100
AcDbLine
 62
7
  6
CONTINUOUS
 10
15.3569680542
 20
7.6066836226
 11
15.3714674676
 21
7.6602414675
  0
LWPOLYLINE
  5
6BC
100
AcDbEntity
  8
02___PRT_ALL_AXES
100
AcDbPolyline
 62
7
  6
CONTINUOUS
 90
3
 70
0
 10
15.3569680542
 20
7.6006562917
 10
15.3714674676
 20
7.6542141366
 10
15.3733527017
 20
7.6819600629
  0
LWPOLYLINE
  5
6BD
100
AcDbEntity
  8
AXIS
100
AcDbPolyline
 62
7
  6
CONTINUOUS
 90
3
 70
0
 10
15.0787064274
 20
9.4672346144
 10
15.0740531451
 20
9.4785242216
 10
15.0637198403
 20
9.4903496364
  0
LWPOLYLINE
  5
6BE
100
AcDbEntity
  8
0
100
AcDbPolyline
 62
7
  6
CONTINUOUS
 90
14
 70
0
 10
15.327067837
 20
7.4991744818
 10
15.3131152829
 20
7.4617260844
 10
15.2818035032
 20
7.4135200076
 10
15.2381613331
 20
7.3685725967
 10
15.1833768843
 20
7.3284146527
 10
15.1192559641
 20
7.2942358217
 10
15.0475899513
 20
7.266710939
 10
14.9701478814
 20
7.2462750422
 10
14.8886974875
 20
7.2332224472
 10
14.8050349487
 20
7.2277387798
 10
14.7210277317
 20
7.2298983916
 10
14.6384952274
 20
7.2396560407
 10
14.5592426513
 20
7.2568558881
 10
14.4861189098
 20
7.2808106483
  0
LINE
  5
6BF
100
AcDbEntity
  8
02___PRT_ALL_AXES
100
AcDbLine
 62
7
  6
CONTINUOUS
 10
15.3284933375
 20
7.6937024391
 11
15.3443302246
 21
7.7224064459
  0
LWPOLYLINE
  5
6C0
100
AcDbEntity
  8
02___PRT_ALL_AXES
100
AcDbPolyline
 62
7
  6
CONTINUOUS
 90
3
 70
0
 10
15.3284933375
 20
7.6454837924
 10
15.3569680542
 20
7.6970935851
 10
15.3664322174
 20
7.7320522533
  0
LINE
  5
6C1
100
AcDbEntity
  8
02___PRT_ALL_AXES
100
AcDbLine
 62
7
  6
CONTINUOUS
 10
15.3284933375
 20
7.5550738299
 11
15.3569680542
 21
7.6066836226
  0
LINE
  5
6C2
100
AcDbEntity
  8
02___PRT_ALL_AXES
100
AcDbLine
 62
7
  6
CONTINUOUS
 10
15.3284933375
 20
7.549046499
 11
15.3569680542
 21
7.6006562917
  0
LWPOLYLINE
  5
6C3
100
AcDbEntity
  8
0
100
AcDbPolyline
 62
7
  6
CONTINUOUS
 90
13
 70
0
 10
15.005454795
 20
7.255592051
 10
15.0045477677
 20
7.2542756069
 10
14.9846055047
 20
7.234617702
 10
14.959468442
 20
7.2167831435
 10
14.9299864823
 20
7.2014576826
 10
14.8973293118
 20
7.1891413783
 10
14.8622579724
 20
7.1799735205
 10
14.825314157
 20
7.1740374086
 10
14.7871700102
 20
7.1714656618
 10
14.7491658977
 20
7.1723446094
 10
14.711952092
 20
7.1766366836
 10
14.676144821
 20
7.1843346937
 10
14.6431059357
 20
7.1951968252
  0
LWPOLYLINE
  5
6C4
100
AcDbEntity
  8
02___PRT_ALL_AXES
100
AcDbPolyline
 62
7
  6
CONTINUOUS
 90
8
 70
0
 10
15.127076871
 20
7.5447430639
 10
15.1122249671
 20
7.5371117332
 10
15.0405518906
 20
7.5102732014
 10
14.9637107114
 20
7.49021079
 10
14.8819389645
 20
7.4769682106
 10
14.797492972
 20
7.4710637721
 10
14.7134295734
 20
7.4726569125
 10
14.6311040379
 20
7.4816059801
  0
LWPOLYLINE
  5
6C5
100
AcDbEntity
  8
02___PRT_ALL_AXES
100
AcDbPolyline
 62
7
  6
CONTINUOUS
 90
8
 70
0
 10
15.1267007693
 20
7.641016383
 10
15.1112423397
 20
7.6331179248
 10
15.0401382144
 20
7.6065802375
 10
14.962644856
 20
7.586424493
 10
14.8800136609
 20
7.5731854085
 10
14.7950442583
 20
7.5674425184
 10
14.7108887929
 20
7.569258828
 10
14.6288690477
 20
7.5783935887
  0
LWPOLYLINE
  5
6C6
100
AcDbEntity
  8
0
100
AcDbPolyline
 62
7
  6
CONTINUOUS
 90
8
 70
0
 10
15.4524272168
 20
7.7731142785
 10
15.3457964892
 20
7.7229182051
 10
15.2288555409
 20
7.6821031939
 10
15.1037699481
 20
7.6512648447
 10
14.9729280186
 20
7.6308813856
 10
14.838729086
 20
7.6212502035
 10
14.7036026752
 20
7.622508941
 10
14.570039389
 20
7.6346297894
  0
LWPOLYLINE
  5
6C7
100
AcDbEntity
  8
02___PRT_ALL_AXES
100
AcDbPolyline
 62
7
  6
CONTINUOUS
 90
7
 70
0
 10
15.093695075
 20
7.5784077912
 10
15.0413964755
 20
7.5587585937
 10
14.9640604135
 20
7.538503103
 10
14.8816709358
 20
7.5251559727
 10
14.7970153355
 20
7.5192705053
 10
14.7132091135
 20
7.5208895688
 10
14.6309789098
 20
7.5298440838
  0
LWPOLYLINE
  5
6C8
100
AcDbEntity
  8
AXIS
100
AcDbPolyline
 62
7
  6
CONTINUOUS
 90
3
 70
0
 10
14.8236248507
 20
9.3517312792
 10
14.8304879575
 20
9.3468382139
 10
14.8306647908
 20
9.3466378466
  0
LWPOLYLINE
  5
6C9
100
AcDbEntity
  8
AXIS
100
AcDbPolyline
 62
7
  6
CONTINUOUS
 90
5
 70
0
 10
14.8236248507
 20
9.3838770437
 10
14.8304879575
 20
9.3789839783
 10
14.8354390044
 20
9.3733740172
 10
14.8382616068
 20
9.3672923426
 10
14.8389025652
 20
9.3625765076
  0
LWPOLYLINE
  5
6CA
100
AcDbEntity
  8
02___PRT_ALL_AXES
100
AcDbPolyline
 62
7
  6
CONTINUOUS
 90
21
 70
0
 10
15.7709881221
 20
8.5910684966
 10
15.7705742284
 20
8.5745574688
 10
15.7605990029
 20
8.5087273055
 10
15.737453985
 20
8.4440108548
 10
15.7014521716
 20
8.3812832957
 10
15.6530804253
 20
8.321392911
 10
15.592992891
 20
8.2651496152
 10
15.5220021496
 20
8.2133140025
 10
15.441068229
 20
8.1665870606
 10
15.3512856218
 20
8.1256006912
 10
15.2538684836
 20
8.0909091648
 10
15.1501342141
 20
8.0629816246
 10
15.0414856413
 20
8.0421957427
 10
14.9293920509
 20
8.0288326126
 10
14.8153693163
 20
8.0230729476
 10
14.7009593994
 20
8.0249946373
 10
14.587709498
 20
8.0345716942
 10
14.4771511229
 20
8.051674605
 10
14.3707793863
 20
8.0760720822
 10
14.2700327836
 20
8.1074341918
 10
14.1762737397
 20
8.1453368149
  0
LWPOLYLINE
  5
6CB
100
AcDbEntity
  8
02___PRT_ALL_AXES
100
AcDbPolyline
 62
7
  6
CONTINUOUS
 90
22
 70
0
 10
15.770990497
 20
8.5910824959
 10
15.764802186
 20
8.5274610316
 10
15.746314157
 20
8.4646372783
 10
15.7157589078
 20
8.403403647
 10
15.6735206882
 20
8.3445301861
 10
15.6201306685
 20
8.2887572635
 10
15.5562602591
 20
8.2367862562
 10
15.4827126674
 20
8.1892707296
 10
15.4004127971
 20
8.1468082191
 10
15.3103956168
 20
8.1099327155
 10
15.2137931448
 20
8.0791079495
 10
15.1118202132
 20
8.0547215604
 10
15.0057591908
 20
8.0370802214
 10
14.8969438566
 20
8.0264057824
 10
14.7867426263
 20
8.0228324806
 10
14.6765413445
 20
8.0264052526
 10
14.5677258563
 20
8.0370791685
 10
14.4616645795
 20
8.0547199977
 10
14.3596912962
 20
8.0791058965
 10
14.2630883796
 20
8.1099301981
 10
14.1730706675
 20
8.146805269
 10
14.0907701848
 20
8.1892673838
  0
LWPOLYLINE
  5
6CC
100
AcDbEntity
  8
0
100
AcDbPolyline
 62
7
  6
CONTINUOUS
 90
4
 70
0
 10
14.9911077565
 20
7.1760168501
 10
15.0089771068
 20
7.1955068596
 10
15.0217437603
 20
7.2163405562
 10
15.0291148416
 20
7.2380577302
  0
LWPOLYLINE
  5
6CD
100
AcDbEntity
  8
02___PRT_ALL_AXES
100
AcDbPolyline
 62
7
  6
CONTINUOUS
 90
7
 70
0
 10
15.0938868581
 20
7.4820541122
 10
15.041836036
 20
7.4624605552
 10
14.9642310421
 20
7.4421018085
 10
14.8814063247
 20
7.4286882661
 10
14.796179596
 20
7.4228129419
 10
14.7116894639
 20
7.4245502631
 10
14.6298498548
 20
7.4335831895
  0
LWPOLYLINE
  5
6CE
100
AcDbEntity
  8
02___PRT_ALL_AXES
100
AcDbPolyline
 62
7
  6
CONTINUOUS
 90
7
 70
0
 10
15.052493517
 20
7.4183410133
 10
15.0397129804
 20
7.4135720239
 10
14.9625319314
 20
7.3935263001
 10
14.8813817929
 20
7.3804668037
 10
14.7976329595
 20
7.3746300157
 10
14.713782692
 20
7.3761972882
 10
14.6313553232
 20
7.3851296685
  0
LWPOLYLINE
  5
6CF
100
AcDbEntity
  8
02___PRT_ALL_AXES
100
AcDbPolyline
 62
7
  6
CONTINUOUS
 90
8
 70
0
 10
15.0117272948
 20
7.4626140582
 10
15.0935219852
 20
7.4879223644
 10
15.1677979632
 20
7.5203054809
 10
15.2327348577
 20
7.5589992299
 10
15.2867411819
 20
7.6030847717
 10
15.3284933375
 20
7.6515111232
 10
15.3569680542
 20
7.7031209159
 10
15.3647421471
 20
7.7318368128
  0
LWPOLYLINE
  5
6D0
100
AcDbEntity
  8
02___PRT_ALL_AXES
100
AcDbPolyline
 62
7
  6
CONTINUOUS
 90
7
 70
0
 10
15.0117272948
 20
7.4143954115
 10
15.0935219852
 20
7.4397037177
 10
15.1677979632
 20
7.4720868342
 10
15.2327348577
 20
7.5107805833
 10
15.2867411819
 20
7.5548661251
 10
15.3284933375
 20
7.6032924766
 10
15.3569680542
 20
7.6549022692
  0
LWPOLYLINE
  5
6D1
100
AcDbEntity
  8
02___PRT_ALL_AXES
100
AcDbPolyline
 62
7
  6
CONTINUOUS
 90
7
 70
0
 10
15.0117272948
 20
7.4083680806
 10
15.0935219852
 20
7.4336763869
 10
15.1677979632
 20
7.4660595034
 10
15.2327348577
 20
7.5047532524
 10
15.2867411819
 20
7.5488387942
 10
15.3284933375
 20
7.5972651457
 10
15.3569680542
 20
7.6488749384
  0
LWPOLYLINE
  5
6D2
100
AcDbEntity
  8
AXIS
100
AcDbPolyline
 62
7
  6
CONTINUOUS
 90
10
 70
0
 10
14.8236248507
 20
9.3517312792
 10
14.8151496346
 20
9.3556935984
 10
14.8054327168
 20
9.3585519991
 10
14.7948987733
 20
9.3601815554
 10
14.7840081879
 20
9.3605110479
 10
14.7732369315
 20
9.3595260762
 10
14.7630557597
 20
9.3572696883
 10
14.7539096385
 20
9.3538404992
 10
14.7461982974
 20
9.3493883809
 10
14.7428122662
 20
9.3463780744
  0
LWPOLYLINE
  5
6D3
100
AcDbEntity
  8
AXIS
100
AcDbPolyline
 62
7
  6
CONTINUOUS
 90
13
 70
0
 10
14.8236248507
 20
9.3838770437
 10
14.8151496346
 20
9.3878393629
 10
14.8054327168
 20
9.3906977635
 10
14.7948987733
 20
9.3923273198
 10
14.7840081879
 20
9.3926568124
 10
14.7732369315
 20
9.3916718407
 10
14.7630557597
 20
9.3894154528
 10
14.7539096385
 20
9.3859862637
 10
14.7461982974
 20
9.3815341454
 10
14.7402587588
 20
9.3762536768
 10
14.7363506093
 20
9.3703756397
 10
14.7346446536
 20
9.3641569327
 10
14.7345744918
 20
9.3625851779
  0
LINE
  5
6D4
100
AcDbEntity
  8
02___PRT_ALL_AXES
100
AcDbLine
 62
7
  6
CONTINUOUS
 10
15.770990497
 20
8.5910824959
 11
15.770990497
 21
8.2053333224
  0
LINE
  5
6D5
100
AcDbEntity
  8
0
100
AcDbLine
 62
9
  6
CONTINUOUS
 10
15.7709904969
 20
8.2053280002
 11
15.770990497
 21
8.2053333224
  0
LWPOLYLINE
  5
6D6
100
AcDbEntity
  8
0
100
AcDbPolyline
 62
7
  6
CONTINUOUS
 90
7
 70
0
 10
15.770990497
 20
8.2053333224
 10
15.7619579529
 20
8.1255354284
 10
15.7346528644
 20
8.0465315505
 10
15.6892008176
 20
7.9701903697
 10
15.6260506627
 20
7.8980201451
 10
15.5465344677
 20
7.831852471
 10
15.4524272168
 20
7.7731142785
  0
LINE
  5
6D7
100
AcDbEntity
  8
0
100
AcDbLine
 62
7
  6
CONTINUOUS
 10
14.968545682
 20
7.1583001502
 11
14.9911077565
 21
7.1760168501
  0
LWPOLYLINE
  5
6D8
100
AcDbEntity
  8
0
100
AcDbPolyline
 62
7
  6
CONTINUOUS
 90
10
 70
0
 10
14.9473296466
 20
7.2426183726
 10
14.9299516127
 20
7.2335879731
 10
14.8972917025
 20
7.2212752366
 10
14.8622220004
 20
7.212111743
 10
14.8252660651
 20
7.2061777154
 10
14.787108301
 20
7.2036100754
 10
14.749101112
 20
7.2044948283
 10
14.7118925217
 20
7.2087922031
 10
14.6761000993
 20
7.2164925214
 10
14.6430828076
 20
7.2273516988
  0
LWPOLYLINE
  5
6D9
100
AcDbEntity
  8
02___PRT_ALL_AXES
100
AcDbPolyline
 62
7
  6
CONTINUOUS
 90
8
 70
0
 10
15.1272683485
 20
7.4001706049
 10
15.112064097
 20
7.3923850823
 10
15.0408441848
 20
7.3657094544
 10
14.9631522228
 20
7.3454375168
 10
14.8802696755
 20
7.332121207
 10
14.7950252428
 20
7.326348855
 10
14.7105798349
 20
7.3281860853
 10
14.6285034171
 20
7.3373582264
  0
LWPOLYLINE
  5
6DA
100
AcDbEntity
  8
AXIS
100
AcDbPolyline
 62
7
  6
CONTINUOUS
 90
7
 70
0
 10
14.9273384547
 20
9.427683159
 10
14.9442481792
 20
9.4225172132
 10
14.9625694497
 20
9.4193374733
 10
14.9816100745
 20
9.4182640726
 10
15.0006506838
 20
9.4193375649
 10
15.0189719085
 20
9.4225173928
 10
15.0358815584
 20
9.4276834199
  0
LINE
  5
6DB
100
AcDbEntity
  8
AXIS
100
AcDbLine
 62
7
  6
CONTINUOUS
 10
15.0174480177
 20
9.4222529066
 11
14.9816097806
 21
9.4429436543
  0
LINE
  5
6DC
100
AcDbEntity
  8
AXIS
100
AcDbLine
 62
7
  6
CONTINUOUS
 10
14.9398510918
 20
9.4670524992
 11
14.8994990373
 21
9.4903492417
  0
LINE
  5
6DD
100
AcDbEntity
  8
AXIS
100
AcDbLine
 62
7
  6
CONTINUOUS
 10
15.0358815584
 20
9.4276834199
 11
14.9816097806
 21
9.4590165366
  0
LINE
  5
6DE
100
AcDbEntity
  8
AXIS
100
AcDbLine
 62
7
  6
CONTINUOUS
 10
14.9537708151
 20
9.4750890072
 11
14.8994990373
 21
9.5064221239
  0
LWPOLYLINE
  5
6DF
100
AcDbEntity
  8
0
100
AcDbPolyline
 62
7
  6
CONTINUOUS
 90
10
 70
0
 10
14.9497614349
 20
7.1324213838
 10
14.9225517891
 20
7.1189200778
 10
14.8915745664
 20
7.1077850783
 10
14.8584716925
 20
7.0996546418
 10
14.8237450529
 20
7.0945879317
 10
14.7880300844
 20
7.0926956825
 10
14.7525881867
 20
7.0940373369
 10
14.7180587751
 20
7.0985602552
 10
14.6849933953
 20
7.1062444618
 10
14.6546583569
 20
7.1168385127
  0
LWPOLYLINE
  5
6E0
100
AcDbEntity
  8
AXIS
100
AcDbPolyline
 62
7
  6
CONTINUOUS
 90
6
 70
0
 10
15.0173766564
 20
9.5118116376
 10
15.0153982766
 20
9.5123878596
 10
14.9930799867
 20
9.515453998
 10
14.9701385288
 20
9.5154539429
 10
14.9478202831
 20
9.5123876972
 10
14.9458420657
 20
9.5118115105
  0
LINE
  5
6E1
100
AcDbEntity
  8
AXIS
100
AcDbLine
 62
7
  6
CONTINUOUS
 10
14.927337771
 20
9.5224947284
 11
14.9816095488
 21
9.4911616117
  0
LINE
  5
6E2
100
AcDbEntity
  8
AXIS
100
AcDbLine
 62
7
  6
CONTINUOUS
 10
15.0094485144
 20
9.4750891411
 11
15.0637202922
 21
9.4437560244
  0
LWPOLYLINE
  5
6E3
100
AcDbEntity
  8
0
100
AcDbPolyline
 62
9
  6
CONTINUOUS
 90
41
 70
0
 10
15.0865662263
 20
9.5356854115
 10
15.1118314099
 20
9.5197509235
 10
15.1334672086
 20
9.5034972575
 10
15.1519636227
 20
9.486951389
 10
15.1677017568
 20
9.4700685481
 10
15.1809518213
 20
9.4527473104
 10
15.1918515163
 20
9.4348714878
 10
15.2003425404
 20
9.4165137184
 10
15.2063384666
 20
9.3978445104
 10
15.2098086167
 20
9.3789766849
 10
15.2107372894
 20
9.3600089581
 10
15.2091185527
 20
9.3410566778
 10
15.2049629765
 20
9.3222366355
 10
15.1982966508
 20
9.3036616666
 10
15.1891605
 20
9.2854427842
 10
15.1776102481
 20
9.2676891145
 10
15.163715384
 20
9.2505062145
 10
15.1475585863
 20
9.2339959013
 10
15.1292361969
 20
9.2182567233
 10
15.1088580085
 20
9.2033832082
 10
15.0865465563
 20
9.1894649185
 10
15.0624361151
 20
9.1765856213
 10
15.0366708712
 20
9.1648223509
 10
15.0094048698
 20
9.1542455591
 10
14.9808021442
 20
9.1449189926
 10
14.951034887
 20
9.136898816
 10
14.9202824777
 20
9.130233275
 10
14.8887280536
 20
9.1249620393
 10
14.8565575083
 20
9.121116489
 10
14.8239622061
 20
9.118720165
 10
14.7911384585
 20
9.1177882135
 10
14.758288306
 20
9.1183266986
 10
14.7256110897
 20
9.1203322131
 10
14.6932790415
 20
9.123795565
 10
14.6614883748
 20
9.12869875
 10
14.6305332801
 20
9.1349918341
 10
14.6005391495
 20
9.1426411279
 10
14.5713046797
 20
9.1517260446
 10
14.5426533387
 20
9.1624027794
 10
14.5145067937
 20
9.1748916805
 10
14.4869108306
 20
9.189476274
  0
LWPOLYLINE
  5
6E4
100
AcDbEntity
  8
02___PRT_ALL_AXES
100
AcDbPolyline
 62
7
  6
CONTINUOUS
 90
10
 70
0
 10
15.2788561628
 20
9.4434745251
 10
15.3677824571
 20
9.3855256282
 10
15.4490332792
 20
9.3191742488
 10
15.5238935082
 20
9.2432745483
 10
15.5936344843
 20
9.1547054673
 10
15.6553585454
 20
9.0539552687
 10
15.7049615652
 20
8.9455093462
 10
15.7412272963
 20
8.8312972532
 10
15.7634535467
 20
8.7126543289
 10
15.770990497
 20
8.5910824959
  0
LWPOLYLINE
  5
6E5
100
AcDbEntity
  8
AXIS
100
AcDbPolyline
 62
7
  6
CONTINUOUS
 90
7
 70
0
 10
15.0358808747
 20
9.5224949893
 10
15.0189711503
 20
9.5276609351
 10
15.0006498797
 20
9.5308406749
 10
14.9816092549
 20
9.5319140757
 10
14.9625686456
 20
9.5308405834
 10
14.9442474209
 20
9.5276607555
 10
14.927337771
 20
9.5224947284
  0
LWPOLYLINE
  5
6E6
100
AcDbEntity
  8
02___PRT_ALL_AXES
100
AcDbPolyline
 62
7
  6
CONTINUOUS
 90
3
 70
0
 10
15.1573951638
 20
9.5018182914
 10
15.1808976188
 20
9.4929641672
 10
15.2788561628
 20
9.4434745251
  0
LWPOLYLINE
  5
6E7
100
AcDbEntity
  8
0
100
AcDbPolyline
 62
7
  6
CONTINUOUS
 90
18
 70
0
 10
15.1062509317
 20
9.5376353282
 10
15.0570163101
 20
9.5623126929
 10
15.002915433
 20
9.5824877625
 10
14.9450003429
 20
9.597904964
 10
14.8843576586
 20
9.6083807868
 10
14.8221271465
 20
9.6138005221
 10
14.7593102381
 20
9.614124414
 10
14.6970057995
 20
9.6093564703
 10
14.6362618384
 20
9.5995560374
 10
14.5780922779
 20
9.5848247121
 10
14.5236348311
 20
9.5653604913
 10
14.4738242977
 20
9.5413698036
 10
14.4297127149
 20
9.5131888492
 10
14.3924770805
 20
9.4814652427
 10
14.3628973544
 20
9.4469193574
 10
14.341509264
 20
9.4104902914
 10
14.3283666539
 20
9.3728899771
 10
14.3234025245
 20
9.3349432061
  0
CIRCLE
  5
6E8
100
AcDbEntity
  8
0
100
AcDbCircle
 62
7
  6
CONTINUOUS
 10
10.5342808475
 20
1.243294839
 40
0.252091
  0
CIRCLE
  5
6E9
100
AcDbEntity
  8
0
100
AcDbCircle
 62
7
  6
CONTINUOUS
 10
10.5342808475
 20
1.243294839
 40
0.182698
  0
CIRCLE
  5
6EA
100
AcDbEntity
  8
02___PRT_ALL_AXES
100
AcDbCircle
 62
7
  6
CONTINUOUS
 10
3.12109375
 20
5.9539161392
 40
0.9842519685
  0
CIRCLE
  5
6EB
100
AcDbEntity
  8
0
100
AcDbCircle
 62
7
  6
CONTINUOUS
 10
3.12109375
 20
5.9539161392
 40
0.4645669291
  0
CIRCLE
  5
6EC
100
AcDbEntity
  8
0
100
AcDbCircle
 62
9
  6
CONTINUOUS
 10
3.12109375
 20
5.9539161392
 40
0.463384075
  0
CIRCLE
  5
6ED
100
AcDbEntity
  8
0
100
AcDbCircle
 62
9
  6
CONTINUOUS
 10
3.12109375
 20
5.9539161392
 40
0.424022162
  0
ARC
  5
6EE
100
AcDbEntity
  8
AXIS
100
AcDbCircle
 62
7
  6
CONTINUOUS
 10
3.12109375
 20
6.2295066904
 40
0.0984251969
100
AcDbArc
 50
281.5369590328
 51
348.4630409672
  0
ARC
  5
6EF
100
AcDbEntity
  8
AXIS
100
AcDbCircle
 62
7
  6
CONTINUOUS
 10
3.12109375
 20
6.2295066904
 40
0.0984251969
100
AcDbArc
 50
11.5369590328
 51
78.4630409672
  0
ARC
  5
6F0
100
AcDbEntity
  8
AXIS
100
AcDbCircle
 62
7
  6
CONTINUOUS
 10
3.12109375
 20
6.2295066904
 40
0.0984251969
100
AcDbArc
 50
191.5369590328
 51
258.4630409672
  0
ARC
  5
6F1
100
AcDbEntity
  8
AXIS
100
AcDbCircle
 62
7
  6
CONTINUOUS
 10
3.12109375
 20
6.2295066904
 40
0.0984251969
100
AcDbArc
 50
101.5369590328
 51
168.4630409672
  0
CIRCLE
  5
6F2
100
AcDbEntity
  8
AXIS
100
AcDbCircle
 62
7
  6
CONTINUOUS
 10
3.12109375
 20
5.9539161392
 40
0.0521653543
  0
ARC
  5
6F3
100
AcDbEntity
  8
02___PRT_ALL_AXES
100
AcDbCircle
 62
7
  6
CONTINUOUS
 10
7.289250162
 20
5.9539161392
 40
0.9842519685
100
AcDbArc
 50
90.0
 51
151.8358006304
  0
ARC
  5
6F4
100
AcDbEntity
  8
02___PRT_ALL_AXES
100
AcDbCircle
 62
7
  6
CONTINUOUS
 10
7.289250162
 20
5.9539161392
 40
0.9842519685
100
AcDbArc
 50
208.1641993696
 51
270.0
  0
ARC
  5
6F5
100
AcDbEntity
  8
0
100
AcDbCircle
 62
7
  6
CONTINUOUS
 10
8.6036433031
 20
6.316298029
 40
0.1181102362
100
AcDbArc
 50
262.6147613811
 51
270.0
  0
ARC
  5
6F6
100
AcDbEntity
  8
0
100
AcDbCircle
 62
7
  6
CONTINUOUS
 10
8.6036433031
 20
5.5915342495
 40
0.1181102362
100
AcDbArc
 50
90.0
 51
97.3852386189
  0
ARC
  5
6F7
100
AcDbEntity
  8
0
100
AcDbCircle
 62
7
  6
CONTINUOUS
 10
6.3837383509
 20
5.5298939772
 40
0.0393700787
100
AcDbArc
 50
180.0
 51
268.8330251457
  0
ARC
  5
6F8
100
AcDbEntity
  8
0
100
AcDbCircle
 62
7
  6
CONTINUOUS
 10
6.3837383509
 20
6.3779383013
 40
0.0393700787
100
AcDbArc
 50
91.1669748544
 51
180.0
  0
ARC
  5
6F9
100
AcDbEntity
  8
0
100
AcDbCircle
 62
7
  6
CONTINUOUS
 10
7.7616911068
 20
6.898798029
 40
0.0393700787
100
AcDbArc
 50
0.0
 51
90.0
  0
ARC
  5
6FA
100
AcDbEntity
  8
0
100
AcDbCircle
 62
7
  6
CONTINUOUS
 10
7.7616911068
 20
5.0090342495
 40
0.0393700787
100
AcDbArc
 50
270.0
 51
360.0
  0
ARC
  5
6FB
100
AcDbEntity
  8
0
100
AcDbCircle
 62
7
  6
CONTINUOUS
 10
7.8404312643
 20
6.5346248007
 40
0.0393700787
100
AcDbArc
 50
180.0
 51
270.0
  0
ARC
  5
6FC
100
AcDbEntity
  8
0
100
AcDbCircle
 62
7
  6
CONTINUOUS
 10
7.8404312643
 20
5.3732074778
 40
0.0393700787
100
AcDbArc
 50
90.0
 51
180.0
  0
ARC
  5
6FD
100
AcDbEntity
  8
0
100
AcDbCircle
 62
7
  6
CONTINUOUS
 10
8.5490926817
 20
5.4519476353
 40
0.0393700787
100
AcDbArc
 50
270.0
 51
360.0
  0
ARC
  5
6FE
100
AcDbEntity
  8
0
100
AcDbCircle
 62
7
  6
CONTINUOUS
 10
8.5490926817
 20
6.4558846432
 40
0.0393700787
100
AcDbArc
 50
0.0
 51
90.0
  0
ARC
  5
6FF
100
AcDbEntity
  8
0
100
AcDbCircle
 62
7
  6
CONTINUOUS
 10
11.6884563679
 20
5.8948610211
 40
0.0354330709
100
AcDbArc
 50
190.1642486217
 51
10.1642486217
  0
ARC
  5
700
100
AcDbEntity
  8
0
100
AcDbCircle
 62
7
  6
CONTINUOUS
 10
11.6884563679
 20
6.0129712574
 40
0.0354330709
100
AcDbArc
 50
349.8357513783
 51
169.8357513783
  0
CIRCLE
  5
701
100
AcDbEntity
  8
0
100
AcDbCircle
 62
7
  6
CONTINUOUS
 10
11.9194248823
 20
5.9539161392
 40
0.0196850394
  0
CIRCLE
  5
702
100
AcDbEntity
  8
0
100
AcDbCircle
 62
9
  6
CONTINUOUS
 10
11.9194248823
 20
5.9539161392
 40
0.00468503
  0
ARC
  5
703
100
AcDbEntity
  8
0
100
AcDbCircle
 62
7
  6
CONTINUOUS
 10
12.3472437903
 20
5.8948610211
 40
0.0354330709
100
AcDbArc
 50
169.8357513783
 51
349.8357513783
  0
CIRCLE
  5
704
100
AcDbEntity
  8
0
100
AcDbCircle
 62
7
  6
CONTINUOUS
 10
12.0178500791
 20
5.8554909424
 40
0.0196850394
  0
CIRCLE
  5
705
100
AcDbEntity
  8
0
100
AcDbCircle
 62
9
  6
CONTINUOUS
 10
12.0178500791
 20
5.8554909424
 40
0.00468503
  0
ARC
  5
706
100
AcDbEntity
  8
02___PRT_ALL_AXES
100
AcDbCircle
 62
7
  6
CONTINUOUS
 10
12.0178500791
 20
5.9539161392
 40
0.9842519685
100
AcDbArc
 50
96.1106712295
 51
263.8913550294
  0
ARC
  5
707
100
AcDbEntity
  8
02___PRT_ALL_AXES
100
AcDbCircle
 62
7
  6
CONTINUOUS
 10
12.0178500791
 20
5.9539161392
 40
0.9842519685
100
AcDbArc
 50
277.2127391617
 51
83.8913550294
  0
CIRCLE
  5
708
100
AcDbEntity
  8
0
100
AcDbCircle
 62
7
  6
CONTINUOUS
 10
12.0178500791
 20
5.9539161392
 40
0.9842519685
  0
CIRCLE
  5
709
100
AcDbEntity
  8
0
100
AcDbCircle
 62
9
  6
CONTINUOUS
 10
12.0178500791
 20
5.9539161392
 40
0.9448818805
  0
ARC
  5
70A
100
AcDbEntity
  8
0
100
AcDbCircle
 62
9
  6
CONTINUOUS
 10
12.0178500791
 20
5.9539161392
 40
0.5905511811
100
AcDbArc
 50
280.4753138432
 51
79.5246861568
  0
ARC
  5
70B
100
AcDbEntity
  8
0
100
AcDbCircle
 62
9
  6
CONTINUOUS
 10
12.0178500791
 20
5.9539161392
 40
0.5905511811
100
AcDbArc
 50
100.4753138432
 51
259.5246861568
  0
ARC
  5
70C
100
AcDbEntity
  8
0
100
AcDbCircle
 62
7
  6
CONTINUOUS
 10
12.0178500791
 20
5.9539161392
 40
0.5511811024
100
AcDbArc
 50
100.8440625637
 51
259.1559374363
  0
ARC
  5
70D
100
AcDbEntity
  8
0
100
AcDbCircle
 62
7
  6
CONTINUOUS
 10
12.0178500791
 20
5.9539161392
 40
0.5511811024
100
AcDbArc
 50
280.8440625637
 51
79.1559374363
  0
ARC
  5
70E
100
AcDbEntity
  8
0
100
AcDbCircle
 62
9
  6
CONTINUOUS
 10
12.0178500791
 20
5.9539161392
 40
0.5118110236
100
AcDbArc
 50
281.2547126182
 51
78.7452873818
  0
ARC
  5
70F
100
AcDbEntity
  8
0
100
AcDbCircle
 62
9
  6
CONTINUOUS
 10
12.0178500791
 20
5.9539161392
 40
0.5118110236
100
AcDbArc
 50
101.2547126182
 51
258.7452873818
  0
CIRCLE
  5
710
100
AcDbEntity
  8
0
100
AcDbCircle
 62
7
  6
CONTINUOUS
 10
12.0178500791
 20
5.9539161392
 40
0.374015748
  0
ARC
  5
711
100
AcDbEntity
  8
02___PRT_ALL_AXES
100
AcDbCircle
 62
7
  6
CONTINUOUS
 10
12.0178500791
 20
5.9539161392
 40
0.3700787402
100
AcDbArc
 50
349.8357513783
 51
10.1642486217
  0
ARC
  5
712
100
AcDbEntity
  8
02___PRT_ALL_AXES
100
AcDbCircle
 62
7
  6
CONTINUOUS
 10
12.0178500791
 20
5.9539161392
 40
0.3700787402
100
AcDbArc
 50
169.8357513783
 51
190.1642486217
  0
ARC
  5
713
100
AcDbEntity
  8
0
100
AcDbCircle
 62
9
  6
CONTINUOUS
 10
12.0178500791
 20
5.9539161392
 40
0.3051181102
100
AcDbArc
 50
193.675172929
 51
346.3247431807
  0
ARC
  5
714
100
AcDbEntity
  8
0
100
AcDbCircle
 62
9
  6
CONTINUOUS
 10
12.0178500791
 20
5.9539161392
 40
0.3051181102
100
AcDbArc
 50
13.6751729346
 51
166.324743187
  0
ARC
  5
715
100
AcDbEntity
  8
0
100
AcDbCircle
 62
7
  6
CONTINUOUS
 10
12.0178500791
 20
5.9539161392
 40
0.2992125984
100
AcDbArc
 50
349.8357513783
 51
10.1642486217
  0
ARC
  5
716
100
AcDbEntity
  8
0
100
AcDbCircle
 62
7
  6
CONTINUOUS
 10
12.0178500791
 20
5.9539161392
 40
0.2992125984
100
AcDbArc
 50
169.8357513783
 51
190.1642486217
  0
CIRCLE
  5
717
100
AcDbEntity
  8
0
100
AcDbCircle
 62
7
  6
CONTINUOUS
 10
12.0178500791
 20
5.9539161392
 40
0.2854330709
  0
ARC
  5
718
100
AcDbEntity
  8
02___PRT_ALL_AXES
100
AcDbCircle
 62
7
  6
CONTINUOUS
 10
12.0178500791
 20
5.9539161392
 40
0.2854330709
100
AcDbArc
 50
181.67351085
 51
259.8683374486
  0
ARC
  5
719
100
AcDbEntity
  8
02___PRT_ALL_AXES
100
AcDbCircle
 62
7
  6
CONTINUOUS
 10
12.0178500791
 20
5.9539161392
 40
0.2854330709
100
AcDbArc
 50
1.6735108502
 51
79.8683374487
  0
ARC
  5
71A
100
AcDbEntity
  8
02___PRT_ALL_AXES
100
AcDbCircle
 62
7
  6
CONTINUOUS
 10
12.0178500791
 20
5.9539161392
 40
0.2854330709
100
AcDbArc
 50
100.1560818979
 51
178.3494205317
  0
CIRCLE
  5
71B
100
AcDbEntity
  8
0
100
AcDbCircle
 62
9
  6
CONTINUOUS
 10
12.0178500791
 20
5.9539161392
 40
0.2815942195
  0
CIRCLE
  5
71C
100
AcDbEntity
  8
0
100
AcDbCircle
 62
9
  6
CONTINUOUS
 10
12.0178500791
 20
5.9539161392
 40
0.2481105049
  0
ARC
  5
71D
100
AcDbEntity
  8
0
100
AcDbCircle
 62
7
  6
CONTINUOUS
 10
12.0178500791
 20
5.9539161392
 40
0.2442716535
100
AcDbArc
 50
342.3463568424
 51
342.0005095346
  0
CIRCLE
  5
71E
100
AcDbEntity
  8
0
100
AcDbCircle
 62
7
  6
CONTINUOUS
 10
12.0178500791
 20
5.9539161392
 40
0.208838596
  0
CIRCLE
  5
71F
100
AcDbEntity
  8
0
100
AcDbCircle
 62
7
  6
CONTINUOUS
 10
12.0178500791
 20
5.9539161392
 40
0.2037401575
  0
CIRCLE
  5
720
100
AcDbEntity
  8
0
100
AcDbCircle
 62
7
  6
CONTINUOUS
 10
12.0178500791
 20
5.9539161392
 40
0.1633858268
  0
CIRCLE
  5
721
100
AcDbEntity
  8
0
100
AcDbCircle
 62
7
  6
CONTINUOUS
 10
12.116275276
 20
5.9539161392
 40
0.0196850394
  0
CIRCLE
  5
722
100
AcDbEntity
  8
0
100
AcDbCircle
 62
9
  6
CONTINUOUS
 10
12.116275276
 20
5.9539161392
 40
0.00468503
  0
CIRCLE
  5
723
100
AcDbEntity
  8
0
100
AcDbCircle
 62
7
  6
CONTINUOUS
 10
12.0178500791
 20
6.0523413361
 40
0.0196850394
  0
CIRCLE
  5
724
100
AcDbEntity
  8
0
100
AcDbCircle
 62
9
  6
CONTINUOUS
 10
12.0178500791
 20
6.0523413361
 40
0.00468503
  0
ARC
  5
725
100
AcDbEntity
  8
0
100
AcDbCircle
 62
7
  6
CONTINUOUS
 10
12.3472437903
 20
6.0129712574
 40
0.0354330709
100
AcDbArc
 50
10.1642486217
 51
190.1642486217
  0
ENDSEC
  0
SECTION
  2
OBJECTS
  0
DICTIONARY
  5
C
100
AcDbDictionary
280
0
281
1
  3
ACAD_GROUP
350
D
  3
ACAD_MLINESTYLE
350
17
  3
ACAD_LAYOUT
350
1A
  3
ACAD_PLOTSETTINGS
350
19
  3
ACAD_PLOTSTYLENAME
350
E
  0
DICTIONARY
  5
D
102
{ACAD_REACTORS
330
C
102
}
100
AcDbDictionary
280
0
281
1
  0
ACDBDICTIONARYWDFLT
  5
E
102
{ACAD_REACTORS
330
C
102
}
100
AcDbDictionary
281
1
  3
Normal
350
F
100
AcDbDictionaryWithDefault
340
F
  0
DICTIONARY
  5
17
102
{ACAD_REACTORS
330
C
102
}
100
AcDbDictionary
280
0
281
1
  3
Standard
350
18
  0
DICTIONARY
  5
19
102
{ACAD_REACTORS
330
C
102
}
100
AcDbDictionary
281
1
  0
DICTIONARY
  5
1A
102
{ACAD_REACTORS
330
C
102
}
100
AcDbDictionary
281
1
  3
Layout1
350
1E
  3
Model
350
22
  0
ACDBPLACEHOLDER
  5
F
102
{ACAD_REACTORS
330
E
102
}
  0
MLINESTYLE
  5
18
102
{ACAD_REACTORS
330
17
102
}
100
AcDbMlineStyle
  2
STANDARD
 70
0
  3

 62
256
 51
90.0
 52
90.0
 71
2
 49
0.5
 62
256
  6
BYLAYER
 49
-0.5
 62
256
  6
BYLAYER
  0
LAYOUT
  5
1E
102
{ACAD_REACTORS
330
1A
102
}
100
AcDbPlotSettings
  1

  2

  4

  6

 40
0.0
 41
0.0
 42
0.0
 43
0.0
 44
0.0
 45
0.0
 46
0.0
 47
0.0
 48
0.0
 49
0.0
140
0.0
141
0.0
142
1.0
143
1.0
 70
0
 72
0
 73
0
 74
0
  7

 75
0
147
1.0
148
0.0
149
0.0
100
AcDbLayout
  1
Layout1
 70
0
 71
0
 10
0.0
 20
0.0
 11
0.0
 21
0.0
 12
0.0
 22
0.0
 32
0.0
 14
0.0
 24
0.0
 34
0.0
 15
0.0
 25
0.0
 35
0.0
146
0.0
 13
0.0
 23
0.0
 33
0.0
 16
0.0
 26
0.0
 36
0.0
 17
0.0
 27
0.0
 37
0.0
 76
0
330
1B
331
0
345
0
346
0
  0
LAYOUT
  5
22
102
{ACAD_REACTORS
330
1A
102
}
100
AcDbPlotSettings
  1

  2

  4

  6

 40
0.0
 41
0.0
 42
0.0
 43
0.0
 44
0.0
 45
0.0
 46
0.0
 47
0.0
 48
0.0
 49
0.0
140
0.0
141
0.0
142
1.0
143
1.0
 70
0
 72
0
 73
0
 74
0
  7

 75
0
147
1.0
148
0.0
149
0.0
100
AcDbLayout
  1
Model
 70
0
 71
0
 10
0.0
 20
0.0
 11
0.0
 21
0.0
 12
0.0
 22
0.0
 32
0.0
 14
0.0
 24
0.0
 34
0.0
 15
0.0
 25
0.0
 35
0.0
146
0.0
 13
0.0
 23
0.0
 33
0.0
 16
0.0
 26
0.0
 36
0.0
 17
0.0
 27
0.0
 37
0.0
 76
0
330
1F
331
0
345
0
346
0
  0
ENDSEC
  0
EOF
