999
DXF file: 144631_1.dxf
999
Pro/ENGINEER 2006170 by Parametric Technology Corporation
  0
SECTION
  2
HEADER
  9
$ACADVER
  1
AC1015
  9
$DWGCODEPAGE
  3
ANSI_1252
  9
$EXTMAX
 10
22.0
 20
17.0
 30
0.0
  9
$EXTMIN
 10
0.0
 20
0.0
 30
0.0
  9
$LIMMIN
 10
0.0
 20
0.0
  9
$LIMMAX
 10
22.0
 20
17.0
  9
$VIEWCTR
 10
11.0
 20
8.5
  9
$VIEWSIZE
 40
17.0
  9
$CLAYER
  8
0
  9
$LTSCALE
 40
1.21
  9
$CELTYPE
  6
BYLAYER
  9
$DIMSCALE
 40
1.0
  9
$DIMASZ
 40
0.1875
  9
$DIMEXO
 40
0.1375
  9
$DIMDLI
 40
0.836
  9
$DIMEXE
 40
0.396
  9
$DIMCEN
 40
0.198
  9
$DIMLFAC
 40
1.0
  9
$DIMBLK
  1
_FILLED
  9
$DIMTXT
 40
0.1
  9
$DIMTOL
 70
1
  9
$DIMLIM
 70
0
  9
$DIMTFAC
 40
1.0
  9
$DIMTP
 40
0.005
  9
$DIMTM
 40
0.005
  9
$PDMODE
 70
3
  9
$PDSIZE
 40
0.3125
  9
$HANDSEED
  5
839
  9
$MEASUREMENT
 70
0
  9
$INSUNITS
 70
1
  0
ENDSEC
  0
SECTION
  2
CLASSES
  0
CLASS
  1
ACDBDICTIONARYWDFLT
  2
AcDbDictionaryWithDefault
  3
AutoCAD 2000
 90
0
280
0
281
0
  0
CLASS
  1
ACDBPLACEHOLDER
  2
AcDbPlaceHolder
  3
AutoCAD 2000
 90
0
280
0
281
0
  0
CLASS
  1
LAYOUT
  2
AcDbLayout
  3
AutoCAD 2000
 90
0
280
0
281
0
  0
ENDSEC
  0
SECTION
  2
TABLES
  0
TABLE
  2
VPORT
  5
8
100
AcDbSymbolTable
 70
2
  0
VPORT
  5
1F4
100
AcDbSymbolTableRecord
100
AcDbViewportTableRecord
  2
*ACTIVE
 70
0
 10
0.0
 20
0.0
 11
1.0
 21
1.0
 12
11.0
 22
8.5
 13
0.0
 23
0.0
 14
1.0
 24
1.0
 15
0.0
 25
0.0
 16
0.0
 26
0.0
 36
1.0
 17
0.0
 27
0.0
 37
0.0
 40
17.0
 41
1.2941176471
 42
50.0
 43
0.0
 44
0.0
 50
0.0
 51
0.0
 71
0
 72
100
 73
1
 74
1
 75
0
 76
0
 77
0
 78
0
  0
ENDTAB
  0
TABLE
  2
LTYPE
  5
5
100
AcDbSymbolTable
 70
6
  0
LTYPE
  5
14
100
AcDbSymbolTableRecord
100
AcDbLinetypeTableRecord
  2
BYBLOCK
 70
0
  3

 72
65
 73
0
 40
0.0
  0
LTYPE
  5
15
100
AcDbSymbolTableRecord
100
AcDbLinetypeTableRecord
  2
BYLAYER
 70
0
  3

 72
65
 73
0
 40
0.0
  0
LTYPE
  5
16
100
AcDbSymbolTableRecord
100
AcDbLinetypeTableRecord
  2
CONTINUOUS
 70
64
  3
Solid line
 72
65
 73
0
 40
0.0
  0
LTYPE
  5
1F5
100
AcDbSymbolTableRecord
100
AcDbLinetypeTableRecord
  2
CENTER
 70
64
  3
____ _ ____ _ ____ _ ____ _ ____ _ ____ _ ____
 72
65
 73
4
 40
0.6
 49
0.375
 74
0
 49
-0.075
 74
0
 49
0.075
 74
0
 49
-0.075
 74
0
  0
LTYPE
  5
1F6
100
AcDbSymbolTableRecord
100
AcDbLinetypeTableRecord
  2
HIDDEN
 70
64
  3
- - - - - - - - - - - - - - - - - - - -
 72
65
 73
2
 40
0.2
 49
0.1
 74
0
 49
-0.1
 74
0
  0
LTYPE
  5
1F7
100
AcDbSymbolTableRecord
100
AcDbLinetypeTableRecord
  2
PHANTOM
 70
64
  3
_____ _ _ _____ _ _ _____ _ _ _____
 72
65
 73
6
 40
0.8
 49
0.45
 74
0
 49
-0.05
 74
0
 49
0.1
 74
0
 49
-0.05
 74
0
 49
0.1
 74
0
 49
-0.05
 74
0
  0
LTYPE
  5
1F8
100
AcDbSymbolTableRecord
100
AcDbLinetypeTableRecord
  2
DOT
 70
64
  3
. . . . . . . . . . . . . . . . . . . .
 72
65
 73
2
 40
0.2
 49
0.1
 74
0
 49
-0.1
 74
0
  0
LTYPE
  5
1F9
100
AcDbSymbolTableRecord
100
AcDbLinetypeTableRecord
  2
DASHED
 70
64
  3
- - - - - - - - - - - - - - - - - - - -
 72
65
 73
2
 40
0.2
 49
0.1
 74
0
 49
-0.1
 74
0
  0
ENDTAB
  0
TABLE
  2
LAYER
  5
2
100
AcDbSymbolTable
 70
36
  0
LAYER
  5
10
100
AcDbSymbolTableRecord
100
AcDbLayerTableRecord
  2
0
 70
0
 62
7
  6
CONTINUOUS
370
-3
390
F
  0
LAYER
  5
1FA
100
AcDbSymbolTableRecord
100
AcDbLayerTableRecord
  2
DEFAULT_1
 70
0
 62
7
  6
CENTER
370
-3
390
F
  0
LAYER
  5
1FB
100
AcDbSymbolTableRecord
100
AcDbLayerTableRecord
  2
DEFAULT_2
 70
0
 62
8
  6
HIDDEN
370
-3
390
F
  0
LAYER
  5
1FC
100
AcDbSymbolTableRecord
100
AcDbLayerTableRecord
  2
DEFAULT_3
 70
0
 62
7
  6
PHANTOM
370
-3
390
F
  0
LAYER
  5
1FD
100
AcDbSymbolTableRecord
100
AcDbLayerTableRecord
  2
_2D_DELETED_OBJS
 70
0
 62
7
  6
CONTINUOUS
370
-3
390
F
  0
LAYER
  5
1FE
100
AcDbSymbolTableRecord
100
AcDbLayerTableRecord
  2
01_ALL_DTM_PLN
 70
0
 62
7
  6
CONTINUOUS
370
-3
390
F
  0
LAYER
  5
1FF
100
AcDbSymbolTableRecord
100
AcDbLayerTableRecord
  2
01__ASM_ALL_DTM_PLN
 70
0
 62
7
  6
CONTINUOUS
370
-3
390
F
  0
LAYER
  5
200
100
AcDbSymbolTableRecord
100
AcDbLayerTableRecord
  2
01__ASM_DEF_DTM_PLN
 70
0
 62
7
  6
CONTINUOUS
370
-3
390
F
  0
LAYER
  5
201
100
AcDbSymbolTableRecord
100
AcDbLayerTableRecord
  2
01___PRT_ALL_DTM_PLN
 70
0
 62
7
  6
CONTINUOUS
370
-3
390
F
  0
LAYER
  5
202
100
AcDbSymbolTableRecord
100
AcDbLayerTableRecord
  2
01___PRT_DEF_DTM_PLN
 70
0
 62
7
  6
CONTINUOUS
370
-3
390
F
  0
LAYER
  5
203
100
AcDbSymbolTableRecord
100
AcDbLayerTableRecord
  2
02_ALL_AXES
 70
0
 62
7
  6
CONTINUOUS
370
-3
390
F
  0
LAYER
  5
204
100
AcDbSymbolTableRecord
100
AcDbLayerTableRecord
  2
02__ASM_ALL_AXES
 70
0
 62
7
  6
CONTINUOUS
370
-3
390
F
  0
LAYER
  5
205
100
AcDbSymbolTableRecord
100
AcDbLayerTableRecord
  2
02___PRT_ALL_AXES
 70
0
 62
7
  6
CONTINUOUS
370
-3
390
F
  0
LAYER
  5
206
100
AcDbSymbolTableRecord
100
AcDbLayerTableRecord
  2
03_ALL_CURVES
 70
0
 62
7
  6
CONTINUOUS
370
-3
390
F
  0
LAYER
  5
207
100
AcDbSymbolTableRecord
100
AcDbLayerTableRecord
  2
03__ASM_ALL_CURVES
 70
0
 62
7
  6
CONTINUOUS
370
-3
390
F
  0
LAYER
  5
208
100
AcDbSymbolTableRecord
100
AcDbLayerTableRecord
  2
03___PRT_ALL_CURVES
 70
0
 62
7
  6
CONTINUOUS
370
-3
390
F
  0
LAYER
  5
209
100
AcDbSymbolTableRecord
100
AcDbLayerTableRecord
  2
04_ALL_DTM_PNT
 70
0
 62
7
  6
CONTINUOUS
370
-3
390
F
  0
LAYER
  5
20A
100
AcDbSymbolTableRecord
100
AcDbLayerTableRecord
  2
04__ASM_ALL_DTM_PNT
 70
0
 62
7
  6
CONTINUOUS
370
-3
390
F
  0
LAYER
  5
20B
100
AcDbSymbolTableRecord
100
AcDbLayerTableRecord
  2
04___PRT_ALL_DTM_PNT
 70
0
 62
7
  6
CONTINUOUS
370
-3
390
F
  0
LAYER
  5
20C
100
AcDbSymbolTableRecord
100
AcDbLayerTableRecord
  2
05_ALL_DTM_CSYS
 70
0
 62
7
  6
CONTINUOUS
370
-3
390
F
  0
LAYER
  5
20D
100
AcDbSymbolTableRecord
100
AcDbLayerTableRecord
  2
05__ASM_ALL_DTM_CSYS
 70
0
 62
7
  6
CONTINUOUS
370
-3
390
F
  0
LAYER
  5
20E
100
AcDbSymbolTableRecord
100
AcDbLayerTableRecord
  2
05__ASM_DEF_DTM_CSYS
 70
0
 62
7
  6
CONTINUOUS
370
-3
390
F
  0
LAYER
  5
20F
100
AcDbSymbolTableRecord
100
AcDbLayerTableRecord
  2
05___PRT_ALL_DTM_CSYS
 70
0
 62
7
  6
CONTINUOUS
370
-3
390
F
  0
LAYER
  5
210
100
AcDbSymbolTableRecord
100
AcDbLayerTableRecord
  2
05___PRT_DEF_DTM_CSYS
 70
0
 62
7
  6
CONTINUOUS
370
-3
390
F
  0
LAYER
  5
211
100
AcDbSymbolTableRecord
100
AcDbLayerTableRecord
  2
06_ALL_SURFS
 70
0
 62
7
  6
CONTINUOUS
370
-3
390
F
  0
LAYER
  5
212
100
AcDbSymbolTableRecord
100
AcDbLayerTableRecord
  2
06__ASM_ALL_SURFS
 70
0
 62
7
  6
CONTINUOUS
370
-3
390
F
  0
LAYER
  5
213
100
AcDbSymbolTableRecord
100
AcDbLayerTableRecord
  2
06___PRT_ALL_SURFS
 70
0
 62
7
  6
CONTINUOUS
370
-3
390
F
  0
LAYER
  5
214
100
AcDbSymbolTableRecord
100
AcDbLayerTableRecord
  2
07__ASM_ALL_SKELETONS
 70
0
 62
7
  6
CONTINUOUS
370
-3
390
F
  0
LAYER
  5
215
100
AcDbSymbolTableRecord
100
AcDbLayerTableRecord
  2
1
 70
0
 62
7
  6
CONTINUOUS
370
-3
390
F
  0
LAYER
  5
216
100
AcDbSymbolTableRecord
100
AcDbLayerTableRecord
  2
2
 70
0
 62
7
  6
CONTINUOUS
370
-3
390
F
  0
LAYER
  5
217
100
AcDbSymbolTableRecord
100
AcDbLayerTableRecord
  2
3
 70
0
 62
7
  6
CONTINUOUS
370
-3
390
F
  0
LAYER
  5
218
100
AcDbSymbolTableRecord
100
AcDbLayerTableRecord
  2
4
 70
0
 62
7
  6
CONTINUOUS
370
-3
390
F
  0
LAYER
  5
219
100
AcDbSymbolTableRecord
100
AcDbLayerTableRecord
  2
5
 70
0
 62
7
  6
CONTINUOUS
370
-3
390
F
  0
LAYER
  5
21A
100
AcDbSymbolTableRecord
100
AcDbLayerTableRecord
  2
AXIS_COSMETIC_THREADS
 70
0
 62
7
  6
CONTINUOUS
370
-3
390
F
  0
LAYER
  5
21B
100
AcDbSymbolTableRecord
100
AcDbLayerTableRecord
  2
CSY
 70
0
 62
7
  6
CONTINUOUS
370
-3
390
F
  0
LAYER
  5
21C
100
AcDbSymbolTableRecord
100
AcDbLayerTableRecord
  2
DATUM_CURVES
 70
0
 62
7
  6
CONTINUOUS
370
-3
390
F
  0
LAYER
  5
21D
100
AcDbSymbolTableRecord
100
AcDbLayerTableRecord
  2
DATUM_PLANES
 70
0
 62
7
  6
CONTINUOUS
370
-3
390
F
  0
LAYER
  5
21E
100
AcDbSymbolTableRecord
100
AcDbLayerTableRecord
  2
ECAD_0603
 70
0
 62
7
  6
CONTINUOUS
370
-3
390
F
  0
LAYER
  5
21F
100
AcDbSymbolTableRecord
100
AcDbLayerTableRecord
  2
ECAD_0603C
 70
0
 62
7
  6
CONTINUOUS
370
-3
390
F
  0
LAYER
  5
220
100
AcDbSymbolTableRecord
100
AcDbLayerTableRecord
  2
ECAD_0805
 70
0
 62
7
  6
CONTINUOUS
370
-3
390
F
  0
LAYER
  5
221
100
AcDbSymbolTableRecord
100
AcDbLayerTableRecord
  2
ECAD_0805C
 70
0
 62
7
  6
CONTINUOUS
370
-3
390
F
  0
LAYER
  5
222
100
AcDbSymbolTableRecord
100
AcDbLayerTableRecord
  2
ECAD_0805I
 70
0
 62
7
  6
CONTINUOUS
370
-3
390
F
  0
LAYER
  5
223
100
AcDbSymbolTableRecord
100
AcDbLayerTableRecord
  2
ECAD_1206
 70
0
 62
7
  6
CONTINUOUS
370
-3
390
F
  0
LAYER
  5
224
100
AcDbSymbolTableRecord
100
AcDbLayerTableRecord
  2
ECAD_1206C
 70
0
 62
7
  6
CONTINUOUS
370
-3
390
F
  0
LAYER
  5
225
100
AcDbSymbolTableRecord
100
AcDbLayerTableRecord
  2
ECAD_1210I
 70
0
 62
7
  6
CONTINUOUS
370
-3
390
F
  0
LAYER
  5
226
100
AcDbSymbolTableRecord
100
AcDbLayerTableRecord
  2
ECAD_1808C
 70
0
 62
7
  6
CONTINUOUS
370
-3
390
F
  0
LAYER
  5
227
100
AcDbSymbolTableRecord
100
AcDbLayerTableRecord
  2
ECAD_DIP16A
 70
0
 62
7
  6
CONTINUOUS
370
-3
390
F
  0
LAYER
  5
228
100
AcDbSymbolTableRecord
100
AcDbLayerTableRecord
  2
ECAD_HDR30F
 70
0
 62
7
  6
CONTINUOUS
370
-3
390
F
  0
LAYER
  5
229
100
AcDbSymbolTableRecord
100
AcDbLayerTableRecord
  2
ECAD_HDR30M
 70
0
 62
7
  6
CONTINUOUS
370
-3
390
F
  0
LAYER
  5
22A
100
AcDbSymbolTableRecord
100
AcDbLayerTableRecord
  2
ECAD_HR12
 70
0
 62
7
  6
CONTINUOUS
370
-3
390
F
  0
LAYER
  5
22B
100
AcDbSymbolTableRecord
100
AcDbLayerTableRecord
  2
ECAD_LEDRND
 70
0
 62
7
  6
CONTINUOUS
370
-3
390
F
  0
LAYER
  5
22C
100
AcDbSymbolTableRecord
100
AcDbLayerTableRecord
  2
ECAD_MSOP8
 70
0
 62
7
  6
CONTINUOUS
370
-3
390
F
  0
LAYER
  5
22D
100
AcDbSymbolTableRecord
100
AcDbLayerTableRecord
  2
ECAD_P10046
 70
0
 62
7
  6
CONTINUOUS
370
-3
390
F
  0
LAYER
  5
22E
100
AcDbSymbolTableRecord
100
AcDbLayerTableRecord
  2
ECAD_P6232
 70
0
 62
7
  6
CONTINUOUS
370
-3
390
F
  0
LAYER
  5
22F
100
AcDbSymbolTableRecord
100
AcDbLayerTableRecord
  2
ECAD_P6239
 70
0
 62
7
  6
CONTINUOUS
370
-3
390
F
  0
LAYER
  5
230
100
AcDbSymbolTableRecord
100
AcDbLayerTableRecord
  2
ECAD_SMA
 70
0
 62
7
  6
CONTINUOUS
370
-3
390
F
  0
LAYER
  5
231
100
AcDbSymbolTableRecord
100
AcDbLayerTableRecord
  2
ECAD_SO14
 70
0
 62
7
  6
CONTINUOUS
370
-3
390
F
  0
LAYER
  5
232
100
AcDbSymbolTableRecord
100
AcDbLayerTableRecord
  2
ECAD_SO8
 70
0
 62
7
  6
CONTINUOUS
370
-3
390
F
  0
LAYER
  5
233
100
AcDbSymbolTableRecord
100
AcDbLayerTableRecord
  2
ECAD_SOD123
 70
0
 62
7
  6
CONTINUOUS
370
-3
390
F
  0
LAYER
  5
234
100
AcDbSymbolTableRecord
100
AcDbLayerTableRecord
  2
ECAD_SOT23
 70
0
 62
7
  6
CONTINUOUS
370
-3
390
F
  0
LAYER
  5
235
100
AcDbSymbolTableRecord
100
AcDbLayerTableRecord
  2
ECAD_SOT235
 70
0
 62
7
  6
CONTINUOUS
370
-3
390
F
  0
LAYER
  5
236
100
AcDbSymbolTableRecord
100
AcDbLayerTableRecord
  2
ECAD_SOT25A
 70
0
 62
7
  6
CONTINUOUS
370
-3
390
F
  0
LAYER
  5
237
100
AcDbSymbolTableRecord
100
AcDbLayerTableRecord
  2
NOTES
 70
0
 62
7
  6
CONTINUOUS
370
-3
390
F
  0
LAYER
  5
238
100
AcDbSymbolTableRecord
100
AcDbLayerTableRecord
  2
QUILTS
 70
0
 62
7
  6
CONTINUOUS
370
-3
390
F
  0
LAYER
  5
239
100
AcDbSymbolTableRecord
100
AcDbLayerTableRecord
  2
SCHEME_DIMS
 70
0
 62
7
  6
CONTINUOUS
370
-3
390
F
  0
LAYER
  5
23A
100
AcDbSymbolTableRecord
100
AcDbLayerTableRecord
  2
SYMBOLS
 70
0
 62
7
  6
CONTINUOUS
370
-3
390
F
  0
LAYER
  5
23B
100
AcDbSymbolTableRecord
100
AcDbLayerTableRecord
  2
XSEC_DATUMS
 70
0
 62
7
  6
CONTINUOUS
370
-3
390
F
  0
ENDTAB
  0
TABLE
  2
STYLE
  5
3
100
AcDbSymbolTable
 70
1
  0
STYLE
  5
11
100
AcDbSymbolTableRecord
100
AcDbTextStyleTableRecord
  2
STANDARD
 70
0
 40
0.0
 41
1.0
 50
0.0
 71
0
 42
0.2
  3
txt
  4

  0
ENDTAB
  0
TABLE
  2
VIEW
  5
6
100
AcDbSymbolTable
 70
0
  0
ENDTAB
  0
TABLE
  2
UCS
  5
7
100
AcDbSymbolTable
 70
0
  0
ENDTAB
  0
TABLE
  2
APPID
  5
9
100
AcDbSymbolTable
 70
1
  0
APPID
  5
23C
100
AcDbSymbolTableRecord
100
AcDbRegAppTableRecord
  2
ACAD
 70
0
  0
ENDTAB
  0
TABLE
  2
BLOCK_RECORD
  5
1
100
AcDbSymbolTable
 70
0
  0
BLOCK_RECORD
  5
1F
100
AcDbSymbolTableRecord
100
AcDbBlockTableRecord
  2
*MODEL_SPACE
  0
BLOCK_RECORD
  5
1B
100
AcDbSymbolTableRecord
100
AcDbBlockTableRecord
  2
*PAPER_SPACE
  0
BLOCK_RECORD
  5
23D
100
AcDbSymbolTableRecord
100
AcDbBlockTableRecord
  2
_FILLED
  0
BLOCK_RECORD
  5
23E
100
AcDbSymbolTableRecord
100
AcDbBlockTableRecord
  2
BANNER_LOGO_TITLEBLOCK_BL0
  0
BLOCK_RECORD
  5
23F
100
AcDbSymbolTableRecord
100
AcDbBlockTableRecord
  2
*D0
  0
BLOCK_RECORD
  5
240
100
AcDbSymbolTableRecord
100
AcDbBlockTableRecord
  2
*D1
  0
BLOCK_RECORD
  5
241
100
AcDbSymbolTableRecord
100
AcDbBlockTableRecord
  2
*D2
  0
BLOCK_RECORD
  5
242
100
AcDbSymbolTableRecord
100
AcDbBlockTableRecord
  2
*D3
  0
BLOCK_RECORD
  5
243
100
AcDbSymbolTableRecord
100
AcDbBlockTableRecord
  2
*D4
  0
BLOCK_RECORD
  5
244
100
AcDbSymbolTableRecord
100
AcDbBlockTableRecord
  2
*D5
  0
BLOCK_RECORD
  5
245
100
AcDbSymbolTableRecord
100
AcDbBlockTableRecord
  2
*D6
  0
BLOCK_RECORD
  5
246
100
AcDbSymbolTableRecord
100
AcDbBlockTableRecord
  2
*D7
  0
BLOCK_RECORD
  5
247
100
AcDbSymbolTableRecord
100
AcDbBlockTableRecord
  2
*D8
  0
BLOCK_RECORD
  5
248
100
AcDbSymbolTableRecord
100
AcDbBlockTableRecord
  2
*D9
  0
BLOCK_RECORD
  5
249
100
AcDbSymbolTableRecord
100
AcDbBlockTableRecord
  2
CL_BL1
  0
BLOCK_RECORD
  5
24A
100
AcDbSymbolTableRecord
100
AcDbBlockTableRecord
  2
CL_BL2
  0
BLOCK_RECORD
  5
24B
100
AcDbSymbolTableRecord
100
AcDbBlockTableRecord
  2
CL_BL3
  0
BLOCK_RECORD
  5
24C
100
AcDbSymbolTableRecord
100
AcDbBlockTableRecord
  2
CL_BL4
  0
BLOCK_RECORD
  5
24D
100
AcDbSymbolTableRecord
100
AcDbBlockTableRecord
  2
CL_BL5
  0
BLOCK_RECORD
  5
24E
100
AcDbSymbolTableRecord
100
AcDbBlockTableRecord
  2
CL_BL6
  0
ENDTAB
  0
TABLE
  2
DIMSTYLE
  5
A
100
AcDbSymbolTable
 70
1
100
AcDbDimStyleTable
 71
0
  0
DIMSTYLE
105
24F
100
AcDbSymbolTableRecord
100
AcDbDimStyleTableRecord
  2
STANDARD
 70
0
  3

  4

 40
1.0
 41
0.1875
 42
0.0625
 43
0.38
 44
0.18
 45
0.0
 46
0.0
 47
0.005
 48
0.005
140
0.1
141
0.09
142
0.0
143
25.4
144
1.0
145
0.0
146
1.0
147
0.09
 71
1.0
 72
0.0
 73
1
 74
1
 75
0
 76
0
 77
0
 78
4
170
0
171
2
172
0
173
0
174
0
175
0
176
0
177
0
178
0
270
2
271
3
272
3
273
2
274
2
275
0
280
0
281
0
282
0
283
1
284
4
285
0
286
0
287
3
288
0
340
11
341
23D
342
23D
343
23D
344
23D
  0
DIMSTYLE
105
250
100
AcDbSymbolTableRecord
100
AcDbDimStyleTableRecord
  2
DIMSTYLE_1
 70
0
  3

  4

 40
1.0
 41
0.1875
 42
0.0625
 43
0.38
 44
0.18
 45
0.0
 46
0.0
 47
0.127
 48
0.127
140
0.1
141
0.09
142
0.0
143
25.4
144
1.0
145
0.0
146
1.0
147
0.09
 71
0.0
 72
0.0
 73
1
 74
1
 75
0
 76
0
 77
0
 78
4
170
0
171
2
172
0
173
0
174
0
175
0
176
0
177
0
178
0
270
2
271
3
272
3
273
2
274
2
275
0
280
0
281
0
282
0
283
1
284
4
285
0
286
0
287
3
288
0
340
11
341
23D
342
23D
343
23D
344
23D
  0
DIMSTYLE
105
251
100
AcDbSymbolTableRecord
100
AcDbDimStyleTableRecord
  2
DIMSTYLE_2
 70
0
  3

  4

 40
1.0
 41
0.1875
 42
0.0625
 43
0.38
 44
0.18
 45
0.0
 46
0.0
 47
0.005
 48
0.005
140
0.1
141
0.09
142
0.0
143
25.4
144
1.0
145
0.0
146
1.0
147
0.09
 71
0.0
 72
0.0
 73
1
 74
1
 75
0
 76
0
 77
0
 78
4
170
0
171
2
172
0
173
0
174
0
175
0
176
0
177
0
178
0
270
2
271
3
272
3
273
2
274
2
275
0
280
0
281
0
282
0
283
1
284
4
285
0
286
0
287
3
288
0
340
11
341
23D
342
23D
343
23D
344
23D
  0
ENDTAB
  0
ENDSEC
  0
SECTION
  2
BLOCKS
  0
BLOCK
  5
20
100
AcDbEntity
  8
0
100
AcDbBlockBegin
  2
*MODEL_SPACE
 70
0
 10
0.0
 20
0.0
 30
0.0
  3
*MODEL_SPACE
  1

  0
ENDBLK
  5
21
100
AcDbEntity
  8
0
100
AcDbBlockEnd
  0
BLOCK
  5
1C
100
AcDbEntity
  8
0
100
AcDbBlockBegin
  2
*PAPER_SPACE
 70
0
 10
0.0
 20
0.0
 30
0.0
  3
*PAPER_SPACE
  1

  0
ENDBLK
  5
1D
100
AcDbEntity
  8
0
100
AcDbBlockEnd
  0
BLOCK
  5
252
100
AcDbEntity
  8
0
100
AcDbBlockBegin
 62
2
  6
CONTINUOUS
  2
BANNER_LOGO_TITLEBLOCK_BL0
 70
64
 10
17.5737928667
 20
2.4016160592
  3
BANNER_LOGO_TITLEBLOCK_BL0
  1

  0
LWPOLYLINE
  5
253
100
AcDbEntity
  8
0
100
AcDbPolyline
 62
2
  6
CONTINUOUS
 90
29
 70
0
 10
16.7487923615
 20
2.4016160592
 10
16.7691351996
 20
2.3618196847
 10
16.8307163685
 20
2.3232759622
 10
16.9281409297
 20
2.2893628079
 10
17.0602177432
 20
2.2604945935
 10
17.2153753953
 20
2.2392004647
 10
17.3917175036
 20
2.2257402979
 10
17.5737926282
 20
2.2212942658
 10
17.7558682297
 20
2.2257402979
 10
17.932210338
 20
2.2392004647
 10
18.0873675133
 20
2.2604945935
 10
18.2194448036
 20
2.2893628079
 10
18.316868888
 20
2.3232759622
 10
18.3784505337
 20
2.3618196847
 10
18.3987933719
 20
2.4016160592
 10
18.3784505337
 20
2.4414124337
 10
18.316868888
 20
2.4799561562
 10
18.2194448036
 20
2.5138693105
 10
18.0873675133
 20
2.5427375249
 10
17.932210338
 20
2.5640316537
 10
17.7558682297
 20
2.5774918205
 10
17.5737926282
 20
2.5819378526
 10
17.3917175036
 20
2.5774918205
 10
17.2153753953
 20
2.5640316537
 10
17.0602177432
 20
2.5427375249
 10
16.9281409297
 20
2.5138693105
 10
16.8307163685
 20
2.4799561562
 10
16.7691351996
 20
2.4414124337
 10
16.7487923615
 20
2.4016160592
  0
ARC
  5
254
100
AcDbEntity
  8
0
100
AcDbCircle
 62
2
  6
CONTINUOUS
 10
17.0691330821
 20
2.3781140608
 40
0.0153945295
100
AcDbArc
 50
354.0454548824
 51
5.1878013979
  0
ARC
  5
255
100
AcDbEntity
  8
0
100
AcDbCircle
 62
2
  6
CONTINUOUS
 10
17.062303393
 20
2.377925543
 40
0.0222174455
100
AcDbArc
 50
4.0793399388
 51
69.834329283
  0
LINE
  5
256
100
AcDbEntity
  8
0
100
AcDbLine
 62
2
  6
CONTINUOUS
 10
17.0699625425
 20
2.3987810533
 11
17.0599115369
 21
2.4023300553
  0
LINE
  5
257
100
AcDbEntity
  8
0
100
AcDbLine
 62
2
  6
CONTINUOUS
 10
17.0599115369
 20
2.4023300553
 11
17.0681515415
 21
2.4071060579
  0
ARC
  5
258
100
AcDbEntity
  8
0
100
AcDbCircle
 62
2
  6
CONTINUOUS
 10
17.046286159
 20
2.4439329496
 40
0.0428289026
100
AcDbArc
 50
300.6990502959
 51
319.0591802498
  0
ARC
  5
259
100
AcDbEntity
  8
0
100
AcDbCircle
 62
2
  6
CONTINUOUS
 10
17.0663147559
 20
2.4278045961
 40
0.0171568255
100
AcDbArc
 50
315.9145124245
 51
16.0049121282
  0
ARC
  5
25A
100
AcDbEntity
  8
0
100
AcDbCircle
 62
2
  6
CONTINUOUS
 10
17.0613631438
 20
2.4244509317
 40
0.0229166529
100
AcDbArc
 50
20.6563876465
 51
62.3316896973
  0
ARC
  5
25B
100
AcDbEntity
  8
0
100
AcDbCircle
 62
2
  6
CONTINUOUS
 10
17.0407010201
 20
2.3915223668
 40
0.061747717
100
AcDbArc
 50
59.5385584989
 51
90.0050977555
  0
LINE
  5
25C
100
AcDbEntity
  8
0
100
AcDbLine
 62
2
  6
CONTINUOUS
 10
17.0406955262
 20
2.4532700835
 11
16.8746324342
 21
2.4532700835
  0
ARC
  5
25D
100
AcDbEntity
  8
0
100
AcDbCircle
 62
2
  6
CONTINUOUS
 10
16.8746324323
 20
2.450795084
 40
0.0024749995
100
AcDbArc
 50
89.9999571957
 51
180.0000428043
  0
LINE
  5
25E
100
AcDbEntity
  8
0
100
AcDbLine
 62
2
  6
CONTINUOUS
 10
16.8721574328
 20
2.4507950822
 11
16.8721574328
 21
2.4309950712
  0
ARC
  5
25F
100
AcDbEntity
  8
0
100
AcDbCircle
 62
2
  6
CONTINUOUS
 10
16.8746324323
 20
2.4309950693
 40
0.0024749995
100
AcDbArc
 50
179.9999571957
 51
270.0000428043
  0
LINE
  5
260
100
AcDbEntity
  8
0
100
AcDbLine
 62
2
  6
CONTINUOUS
 10
16.8746324342
 20
2.4285200698
 11
16.8985744474
 21
2.4285200698
  0
ARC
  5
261
100
AcDbEntity
  8
0
100
AcDbCircle
 62
2
  6
CONTINUOUS
 10
16.8985744493
 20
2.4260450703
 40
0.0024749995
100
AcDbArc
 50
359.9999571957
 51
90.0000428043
  0
LINE
  5
262
100
AcDbEntity
  8
0
100
AcDbLine
 62
2
  6
CONTINUOUS
 10
16.9010494488
 20
2.4260450684
 11
16.9010494488
 21
2.3796900427
  0
ARC
  5
263
100
AcDbEntity
  8
0
100
AcDbCircle
 62
2
  6
CONTINUOUS
 10
16.8985744493
 20
2.3796900409
 40
0.0024749995
100
AcDbArc
 50
269.9999571957
 51
0.0000428043
  0
LINE
  5
264
100
AcDbEntity
  8
0
100
AcDbLine
 62
2
  6
CONTINUOUS
 10
16.8985744474
 20
2.3772150414
 11
16.8746324342
 21
2.3772150414
  0
ARC
  5
265
100
AcDbEntity
  8
0
100
AcDbCircle
 62
2
  6
CONTINUOUS
 10
16.8746324323
 20
2.3747400418
 40
0.0024749995
100
AcDbArc
 50
89.9999571957
 51
180.0000428043
  0
LINE
  5
266
100
AcDbEntity
  8
0
100
AcDbLine
 62
2
  6
CONTINUOUS
 10
16.8721574328
 20
2.37474004
 11
16.8721574328
 21
2.354940029
  0
ARC
  5
267
100
AcDbEntity
  8
0
100
AcDbCircle
 62
2
  6
CONTINUOUS
 10
16.8746324323
 20
2.3549400272
 40
0.0024749995
100
AcDbArc
 50
179.9999571957
 51
270.0000428043
  0
LINE
  5
268
100
AcDbEntity
  8
0
100
AcDbLine
 62
2
  6
CONTINUOUS
 10
16.8746324342
 20
2.3524650276
 11
17.051078532
 21
2.3524650276
  0
ARC
  5
269
100
AcDbEntity
  8
0
100
AcDbCircle
 62
2
  6
CONTINUOUS
 10
17.0483571873
 20
2.4008724794
 40
0.048483885
100
AcDbArc
 50
273.21763719
 51
303.0749121182
  0
ARC
  5
26A
100
AcDbEntity
  8
0
100
AcDbCircle
 62
2
  6
CONTINUOUS
 10
17.0631965815
 20
2.3781048705
 40
0.0213072145
100
AcDbArc
 50
303.0488228549
 51
355.7263138674
  0
LINE
  5
26B
100
AcDbEntity
  8
0
100
AcDbLine
 62
2
  6
CONTINUOUS
 10
16.9640374837
 20
2.4111950602
 11
17.0054005067
 21
2.4111950602
  0
ARC
  5
26C
100
AcDbEntity
  8
0
100
AcDbCircle
 62
2
  6
CONTINUOUS
 10
17.0054005067
 20
2.419857565
 40
0.0086625048
100
AcDbArc
 50
270.0
 51
90.0
  0
LINE
  5
26D
100
AcDbEntity
  8
0
100
AcDbLine
 62
2
  6
CONTINUOUS
 10
17.0054005067
 20
2.4285200698
 11
16.9640374837
 21
2.4285200698
  0
ARC
  5
26E
100
AcDbEntity
  8
0
100
AcDbCircle
 62
2
  6
CONTINUOUS
 10
16.9640374819
 20
2.4260450703
 40
0.0024749995
100
AcDbArc
 50
89.9999571957
 51
180.0000428043
  0
LINE
  5
26F
100
AcDbEntity
  8
0
100
AcDbLine
 62
2
  6
CONTINUOUS
 10
16.9615624824
 20
2.4260450684
 11
16.9615624824
 21
2.4136700616
  0
ARC
  5
270
100
AcDbEntity
  8
0
100
AcDbCircle
 62
2
  6
CONTINUOUS
 10
16.9640374819
 20
2.4136700597
 40
0.0024749995
100
AcDbArc
 50
179.9999571957
 51
270.0000428043
  0
LINE
  5
271
100
AcDbEntity
  8
0
100
AcDbLine
 62
2
  6
CONTINUOUS
 10
16.9615624824
 20
2.3796900427
 11
16.9615624824
 21
2.3920650496
  0
ARC
  5
272
100
AcDbEntity
  8
0
100
AcDbCircle
 62
2
  6
CONTINUOUS
 10
16.9640374819
 20
2.3920650514
 40
0.0024749995
100
AcDbArc
 50
89.9999571957
 51
180.0000428043
  0
LINE
  5
273
100
AcDbEntity
  8
0
100
AcDbLine
 62
2
  6
CONTINUOUS
 10
16.9640374837
 20
2.394540051
 11
17.0054005067
 21
2.394540051
  0
ARC
  5
274
100
AcDbEntity
  8
0
100
AcDbCircle
 62
2
  6
CONTINUOUS
 10
17.0054005067
 20
2.3858775462
 40
0.0086625048
100
AcDbArc
 50
270.0
 51
90.0
  0
LINE
  5
275
100
AcDbEntity
  8
0
100
AcDbLine
 62
2
  6
CONTINUOUS
 10
17.0054005067
 20
2.3772150414
 11
16.9640374837
 21
2.3772150414
  0
ARC
  5
276
100
AcDbEntity
  8
0
100
AcDbCircle
 62
2
  6
CONTINUOUS
 10
16.9640374819
 20
2.3796900409
 40
0.0024749995
100
AcDbArc
 50
179.9999571957
 51
270.0000428043
  0
ARC
  5
277
100
AcDbEntity
  8
0
100
AcDbCircle
 62
2
  6
CONTINUOUS
 10
18.2498075353
 20
2.3824863625
 40
0.044722495
100
AcDbArc
 50
195.531588407
 51
204.7624440448
  0
LINE
  5
278
100
AcDbEntity
  8
0
100
AcDbLine
 62
2
  6
CONTINUOUS
 10
18.2067181729
 20
2.3705110376
 11
18.2049141719
 21
2.376580041
  0
ARC
  5
279
100
AcDbEntity
  8
0
100
AcDbCircle
 62
2
  6
CONTINUOUS
 10
18.1665349746
 20
2.3667829606
 40
0.0396099176
100
AcDbArc
 50
14.3201081283
 51
22.4984722084
  0
ARC
  5
27A
100
AcDbEntity
  8
0
100
AcDbCircle
 62
2
  6
CONTINUOUS
 10
18.189301283
 20
2.3757545872
 40
0.0151491919
100
AcDbArc
 50
24.098260853
 51
63.0369451818
  0
ARC
  5
27B
100
AcDbEntity
  8
0
100
AcDbCircle
 62
2
  6
CONTINUOUS
 10
18.1852466282
 20
2.3674749668
 40
0.0243676582
100
AcDbArc
 50
63.3666028271
 51
90.3937697637
  0
LINE
  5
27C
100
AcDbEntity
  8
0
100
AcDbLine
 62
2
  6
CONTINUOUS
 10
18.1850791609
 20
2.3918420495
 11
18.1574721456
 21
2.3918420495
  0
ARC
  5
27D
100
AcDbEntity
  8
0
100
AcDbCircle
 62
2
  6
CONTINUOUS
 10
18.1574721437
 20
2.3893670499
 40
0.0024749995
100
AcDbArc
 50
89.9999571957
 51
180.0000428043
  0
LINE
  5
27E
100
AcDbEntity
  8
0
100
AcDbLine
 62
2
  6
CONTINUOUS
 10
18.1549971442
 20
2.3893670481
 11
18.1549971442
 21
2.3796680427
  0
ARC
  5
27F
100
AcDbEntity
  8
0
100
AcDbCircle
 62
2
  6
CONTINUOUS
 10
18.1574721437
 20
2.3796680409
 40
0.0024749995
100
AcDbArc
 50
179.9999571957
 51
270.0000428043
  0
LINE
  5
280
100
AcDbEntity
  8
0
100
AcDbLine
 62
2
  6
CONTINUOUS
 10
18.1574721456
 20
2.3771930413
 11
18.1821311592
 21
2.3771930413
  0
ARC
  5
281
100
AcDbEntity
  8
0
100
AcDbCircle
 62
2
  6
CONTINUOUS
 10
18.1821311611
 20
2.3747180418
 40
0.0024749995
100
AcDbArc
 50
359.9999571957
 51
90.0000428043
  0
LINE
  5
282
100
AcDbEntity
  8
0
100
AcDbLine
 62
2
  6
CONTINUOUS
 10
18.1846061606
 20
2.37471804
 11
18.1846061606
 21
2.354940029
  0
ARC
  5
283
100
AcDbEntity
  8
0
100
AcDbCircle
 62
2
  6
CONTINUOUS
 10
18.1821311611
 20
2.3549400272
 40
0.0024749995
100
AcDbArc
 50
269.9999571957
 51
0.0000428043
  0
LINE
  5
284
100
AcDbEntity
  8
0
100
AcDbLine
 62
2
  6
CONTINUOUS
 10
18.1821311592
 20
2.3524650276
 11
18.0685600963
 21
2.3524650276
  0
ARC
  5
285
100
AcDbEntity
  8
0
100
AcDbCircle
 62
2
  6
CONTINUOUS
 10
18.0685600944
 20
2.3549400272
 40
0.0024749995
100
AcDbArc
 50
179.9999571957
 51
270.0000428043
  0
LINE
  5
286
100
AcDbEntity
  8
0
100
AcDbLine
 62
2
  6
CONTINUOUS
 10
18.0660850949
 20
2.354940029
 11
18.0660850949
 21
2.37474004
  0
ARC
  5
287
100
AcDbEntity
  8
0
100
AcDbCircle
 62
2
  6
CONTINUOUS
 10
18.0685600944
 20
2.3747400418
 40
0.0024749995
100
AcDbArc
 50
89.9999571957
 51
180.0000428043
  0
LINE
  5
288
100
AcDbEntity
  8
0
100
AcDbLine
 62
2
  6
CONTINUOUS
 10
18.0685600963
 20
2.3772150414
 11
18.0913061089
 21
2.3772150414
  0
ARC
  5
289
100
AcDbEntity
  8
0
100
AcDbCircle
 62
2
  6
CONTINUOUS
 10
18.0913061107
 20
2.3796900409
 40
0.0024749995
100
AcDbArc
 50
269.9999571957
 51
0.0000428043
  0
LINE
  5
28A
100
AcDbEntity
  8
0
100
AcDbLine
 62
2
  6
CONTINUOUS
 10
18.0937811102
 20
2.3796900427
 11
18.0937811102
 21
2.4260450684
  0
ARC
  5
28B
100
AcDbEntity
  8
0
100
AcDbCircle
 62
2
  6
CONTINUOUS
 10
18.0913061107
 20
2.4260450703
 40
0.0024749995
100
AcDbArc
 50
359.9999571957
 51
90.0000428043
  0
LINE
  5
28C
100
AcDbEntity
  8
0
100
AcDbLine
 62
2
  6
CONTINUOUS
 10
18.0913061089
 20
2.4285200698
 11
18.0685600963
 21
2.4285200698
  0
ARC
  5
28D
100
AcDbEntity
  8
0
100
AcDbCircle
 62
2
  6
CONTINUOUS
 10
18.0685600944
 20
2.4309950693
 40
0.0024749995
100
AcDbArc
 50
179.9999571957
 51
270.0000428043
  0
LINE
  5
28E
100
AcDbEntity
  8
0
100
AcDbLine
 62
2
  6
CONTINUOUS
 10
18.0660850949
 20
2.4309950712
 11
18.0660850949
 21
2.4507950822
  0
ARC
  5
28F
100
AcDbEntity
  8
0
100
AcDbCircle
 62
2
  6
CONTINUOUS
 10
18.0685600944
 20
2.450795084
 40
0.0024749995
100
AcDbArc
 50
89.9999571957
 51
180.0000428043
  0
LINE
  5
290
100
AcDbEntity
  8
0
100
AcDbLine
 62
2
  6
CONTINUOUS
 10
18.0685600963
 20
2.4532700835
 11
18.2181411792
 21
2.4532700835
  0
ARC
  5
291
100
AcDbEntity
  8
0
100
AcDbCircle
 62
2
  6
CONTINUOUS
 10
18.2154778759
 20
2.270731173
 40
0.1825583387
100
AcDbArc
 50
79.8618509324
 51
89.1640948679
  0
ARC
  5
292
100
AcDbEntity
  8
0
100
AcDbCircle
 62
2
  6
CONTINUOUS
 10
18.2417821663
 20
2.4115546891
 40
0.039319019
100
AcDbArc
 50
59.1202086415
 51
81.4730239328
  0
ARC
  5
293
100
AcDbEntity
  8
0
100
AcDbCircle
 62
2
  6
CONTINUOUS
 10
18.2474415625
 20
2.4178893582
 40
0.0310192946
100
AcDbArc
 50
34.7540871
 51
62.0879016178
  0
ARC
  5
294
100
AcDbEntity
  8
0
100
AcDbCircle
 62
2
  6
CONTINUOUS
 10
18.2591303136
 20
2.4264389594
 40
0.0165459396
100
AcDbArc
 50
1.548452892
 51
33.5033152417
  0
ARC
  5
295
100
AcDbEntity
  8
0
100
AcDbCircle
 62
2
  6
CONTINUOUS
 10
18.2624269088
 20
2.4266074116
 40
0.0132462337
100
AcDbArc
 50
331.1510006998
 51
1.205404301
  0
ARC
  5
296
100
AcDbEntity
  8
0
100
AcDbCircle
 62
2
  6
CONTINUOUS
 10
18.2514162524
 20
2.4332859993
 40
0.0261183659
100
AcDbArc
 50
305.6373831893
 51
329.9727629745
  0
ARC
  5
297
100
AcDbEntity
  8
0
100
AcDbCircle
 62
2
  6
CONTINUOUS
 10
18.2210843148
 20
2.4764928489
 40
0.0789082104
100
AcDbArc
 50
292.906155071
 51
305.2574666259
  0
ARC
  5
298
100
AcDbEntity
  8
0
100
AcDbCircle
 62
2
  6
CONTINUOUS
 10
18.1973831488
 20
2.2998387438
 40
0.117346916
100
AcDbArc
 50
58.614769177
 51
62.3737227606
  0
ARC
  5
299
100
AcDbEntity
  8
0
100
AcDbCircle
 62
2
  6
CONTINUOUS
 10
18.2452661015
 20
2.377966004
 40
0.0257145923
100
AcDbArc
 50
39.3804255939
 51
59.0361096173
  0
ARC
  5
29A
100
AcDbEntity
  8
0
100
AcDbCircle
 62
2
  6
CONTINUOUS
 10
18.244145746
 20
2.3778929208
 40
0.0266349791
100
AcDbArc
 50
20.3630922153
 51
37.9727053099
  0
ARC
  5
29B
100
AcDbEntity
  8
0
100
AcDbCircle
 62
2
  6
CONTINUOUS
 10
18.2262452042
 20
2.3707115124
 40
0.0459185159
100
AcDbArc
 50
15.6740290068
 51
20.9917271228
  0
ARC
  5
29C
100
AcDbEntity
  8
0
100
AcDbCircle
 62
2
  6
CONTINUOUS
 10
18.2848155393
 20
2.3863544954
 40
0.0147197649
100
AcDbArc
 50
192.7054516566
 51
206.0594861022
  0
ARC
  5
29D
100
AcDbEntity
  8
0
100
AcDbCircle
 62
2
  6
CONTINUOUS
 10
18.2763212023
 20
2.3821460089
 40
0.0052403997
100
AcDbArc
 50
205.5232099488
 51
227.5054868079
  0
ARC
  5
29E
100
AcDbEntity
  8
0
100
AcDbCircle
 62
2
  6
CONTINUOUS
 10
18.274592903
 20
2.3803306362
 40
0.0027347709
100
AcDbArc
 50
228.5117626737
 51
266.1485845754
  0
LINE
  5
29F
100
AcDbEntity
  8
0
100
AcDbLine
 62
2
  6
CONTINUOUS
 10
18.2744092104
 20
2.3776020416
 11
18.275518211
 21
2.3776020416
  0
ARC
  5
2A0
100
AcDbEntity
  8
0
100
AcDbCircle
 62
2
  6
CONTINUOUS
 10
18.2754566564
 20
2.3908507008
 40
0.0132488022
100
AcDbArc
 50
270.266200055
 51
281.2404888597
  0
ARC
  5
2A1
100
AcDbEntity
  8
0
100
AcDbCircle
 62
2
  6
CONTINUOUS
 10
18.2766508974
 20
2.3851140072
 40
0.0073895522
100
AcDbArc
 50
280.8288201977
 51
305.0837508495
  0
ARC
  5
2A2
100
AcDbEntity
  8
0
100
AcDbCircle
 62
2
  6
CONTINUOUS
 10
18.2770520791
 20
2.3842631608
 40
0.0064647042
100
AcDbArc
 50
306.5086174083
 51
340.2162360092
  0
ARC
  5
2A3
100
AcDbEntity
  8
0
100
AcDbCircle
 62
2
  6
CONTINUOUS
 10
18.2718509025
 20
2.3860072224
 40
0.0119498009
100
AcDbArc
 50
340.7883861657
 51
1.1691452593
  0
LINE
  5
2A4
100
AcDbEntity
  8
0
100
AcDbLine
 62
2
  6
CONTINUOUS
 10
18.2837982156
 20
2.3862510464
 11
18.2837982156
 21
2.3888770478
  0
ARC
  5
2A5
100
AcDbEntity
  8
0
100
AcDbCircle
 62
2
  6
CONTINUOUS
 10
18.2862732151
 20
2.3888770497
 40
0.0024749995
100
AcDbArc
 50
89.9999571957
 51
180.0000428043
  0
LINE
  5
2A6
100
AcDbEntity
  8
0
100
AcDbLine
 62
2
  6
CONTINUOUS
 10
18.286273217
 20
2.3913520492
 11
18.2983832237
 21
2.3913520492
  0
ARC
  5
2A7
100
AcDbEntity
  8
0
100
AcDbCircle
 62
2
  6
CONTINUOUS
 10
18.2983832256
 20
2.3888770497
 40
0.0024749995
100
AcDbArc
 50
359.9999571957
 51
90.0000428043
  0
LINE
  5
2A8
100
AcDbEntity
  8
0
100
AcDbLine
 62
2
  6
CONTINUOUS
 10
18.3008582251
 20
2.3888770478
 11
18.3008582251
 21
2.3773250414
  0
ARC
  5
2A9
100
AcDbEntity
  8
0
100
AcDbCircle
 62
2
  6
CONTINUOUS
 10
18.2833025285
 20
2.3774293591
 40
0.0175560065
100
AcDbArc
 50
332.2279060967
 51
359.6595469939
  0
ARC
  5
2AA
100
AcDbEntity
  8
0
100
AcDbCircle
 62
2
  6
CONTINUOUS
 10
18.2739955177
 20
2.3823238645
 40
0.0280715479
100
AcDbArc
 50
308.5071794988
 51
332.2400656899
  0
ARC
  5
2AB
100
AcDbEntity
  8
0
100
AcDbCircle
 62
2
  6
CONTINUOUS
 10
18.2670033323
 20
2.3899250823
 40
0.0383802683
100
AcDbArc
 50
288.7656836787
 51
309.6104317088
  0
ARC
  5
2AC
100
AcDbEntity
  8
0
100
AcDbCircle
 62
2
  6
CONTINUOUS
 10
18.2727412998
 20
2.372338333
 40
0.0198837666
100
AcDbArc
 50
271.8586572978
 51
289.4131338543
  0
LINE
  5
2AD
100
AcDbEntity
  8
0
100
AcDbLine
 62
2
  6
CONTINUOUS
 10
18.2733862098
 20
2.3524650276
 11
18.2260221836
 21
2.3524650276
  0
ARC
  5
2AE
100
AcDbEntity
  8
0
100
AcDbCircle
 62
2
  6
CONTINUOUS
 10
18.2268275043
 20
2.3697871793
 40
0.0173408616
100
AcDbArc
 50
232.4713476722
 51
267.338189944
  0
ARC
  5
2AF
100
AcDbEntity
  8
0
100
AcDbCircle
 62
2
  6
CONTINUOUS
 10
18.2299260692
 20
2.3756374832
 40
0.0238935861
100
AcDbArc
 50
209.8247607259
 51
235.1255079367
  0
ARC
  5
2B0
100
AcDbEntity
  8
0
100
AcDbCircle
 62
2
  6
CONTINUOUS
 10
18.1986405119
 20
2.4241492153
 40
0.0110815393
100
AcDbArc
 50
306.758405961
 51
320.4502234234
  0
ARC
  5
2B1
100
AcDbEntity
  8
0
100
AcDbCircle
 62
2
  6
CONTINUOUS
 10
18.1930113209
 20
2.4318900438
 40
0.0206523367
100
AcDbArc
 50
289.6883413472
 51
306.4184925496
  0
ARC
  5
2B2
100
AcDbEntity
  8
0
100
AcDbCircle
 62
2
  6
CONTINUOUS
 10
18.1910838152
 20
2.4362836911
 40
0.0254407115
100
AcDbArc
 50
270.7327484175
 51
290.441894219
  0
LINE
  5
2B3
100
AcDbEntity
  8
0
100
AcDbLine
 62
2
  6
CONTINUOUS
 10
18.1914091644
 20
2.41084506
 11
18.1574721456
 21
2.41084506
  0
ARC
  5
2B4
100
AcDbEntity
  8
0
100
AcDbCircle
 62
2
  6
CONTINUOUS
 10
18.1574721437
 20
2.4133200595
 40
0.0024749995
100
AcDbArc
 50
179.9999571957
 51
270.0000428043
  0
LINE
  5
2B5
100
AcDbEntity
  8
0
100
AcDbLine
 62
2
  6
CONTINUOUS
 10
18.1549971442
 20
2.4133200614
 11
18.1549971442
 21
2.4260450684
  0
ARC
  5
2B6
100
AcDbEntity
  8
0
100
AcDbCircle
 62
2
  6
CONTINUOUS
 10
18.1574721437
 20
2.4260450703
 40
0.0024749995
100
AcDbArc
 50
89.9999571957
 51
180.0000428043
  0
LINE
  5
2B7
100
AcDbEntity
  8
0
100
AcDbLine
 62
2
  6
CONTINUOUS
 10
18.1574721456
 20
2.4285200698
 11
18.194273166
 21
2.4285200698
  0
ARC
  5
2B8
100
AcDbEntity
  8
0
100
AcDbCircle
 62
2
  6
CONTINUOUS
 10
18.1927282785
 20
2.4000655908
 40
0.0284963867
100
AcDbArc
 50
70.3834917948
 51
86.8922743861
  0
ARC
  5
2B9
100
AcDbEntity
  8
0
100
AcDbCircle
 62
2
  6
CONTINUOUS
 10
18.1975878885
 20
2.4131073238
 40
0.0145814632
100
AcDbArc
 50
54.6746025112
 51
71.1660573124
  0
ARC
  5
2BA
100
AcDbEntity
  8
0
100
AcDbCircle
 62
2
  6
CONTINUOUS
 10
18.2027173795
 20
2.419961249
 40
0.0060275915
100
AcDbArc
 50
20.9055592135
 51
56.7851676243
  0
ARC
  5
2BB
100
AcDbEntity
  8
0
100
AcDbCircle
 62
2
  6
CONTINUOUS
 10
18.2040179384
 20
2.4206215312
 40
0.0045795888
100
AcDbArc
 50
355.6235353944
 51
18.9942678268
  0
ARC
  5
2BC
100
AcDbEntity
  8
0
100
AcDbCircle
 62
2
  6
CONTINUOUS
 10
18.202811128
 20
2.4209153074
 40
0.0058087709
100
AcDbArc
 50
318.8515287446
 51
353.6422345323
  0
LINE
  5
2BD
100
AcDbEntity
  8
0
100
AcDbLine
 62
2
  6
CONTINUOUS
 10
17.341467693
 20
2.4532700835
 11
17.4419257488
 21
2.4532700835
  0
ARC
  5
2BE
100
AcDbEntity
  8
0
100
AcDbCircle
 62
2
  6
CONTINUOUS
 10
17.4419258835
 20
2.4507959157
 40
0.0024741678
100
AcDbArc
 50
46.3477981898
 51
90.0031206038
  0
LINE
  5
2BF
100
AcDbEntity
  8
0
100
AcDbLine
 62
2
  6
CONTINUOUS
 10
17.4436337497
 20
2.4525860832
 11
17.503666783
 21
2.3953060514
  0
ARC
  5
2C0
100
AcDbEntity
  8
0
100
AcDbCircle
 62
2
  6
CONTINUOUS
 10
17.5053754839
 20
2.3970969891
 40
0.0024753014
100
AcDbArc
 50
226.3461263059
 51
0.0014637322
  0
LINE
  5
2C1
100
AcDbEntity
  8
0
100
AcDbLine
 62
2
  6
CONTINUOUS
 10
17.5078507853
 20
2.3970970524
 11
17.5078507853
 21
2.4260450684
  0
ARC
  5
2C2
100
AcDbEntity
  8
0
100
AcDbCircle
 62
2
  6
CONTINUOUS
 10
17.5053757858
 20
2.4260450703
 40
0.0024749995
100
AcDbArc
 50
359.9999571957
 51
90.0000428043
  0
LINE
  5
2C3
100
AcDbEntity
  8
0
100
AcDbLine
 62
2
  6
CONTINUOUS
 10
17.5053757839
 20
2.4285200698
 11
17.4865997735
 21
2.4285200698
  0
ARC
  5
2C4
100
AcDbEntity
  8
0
100
AcDbCircle
 62
2
  6
CONTINUOUS
 10
17.4865997717
 20
2.4309950693
 40
0.0024749995
100
AcDbArc
 50
179.9999571957
 51
270.0000428043
  0
LINE
  5
2C5
100
AcDbEntity
  8
0
100
AcDbLine
 62
2
  6
CONTINUOUS
 10
17.4841247722
 20
2.4309950712
 11
17.4841247722
 21
2.4507950822
  0
ARC
  5
2C6
100
AcDbEntity
  8
0
100
AcDbCircle
 62
2
  6
CONTINUOUS
 10
17.4865997717
 20
2.450795084
 40
0.0024749995
100
AcDbArc
 50
89.9999571957
 51
180.0000428043
  0
LINE
  5
2C7
100
AcDbEntity
  8
0
100
AcDbLine
 62
2
  6
CONTINUOUS
 10
17.4865997735
 20
2.4532700835
 11
17.5606008146
 21
2.4532700835
  0
ARC
  5
2C8
100
AcDbEntity
  8
0
100
AcDbCircle
 62
2
  6
CONTINUOUS
 10
17.5606008164
 20
2.450795084
 40
0.0024749995
100
AcDbArc
 50
359.9999571957
 51
90.0000428043
  0
LINE
  5
2C9
100
AcDbEntity
  8
0
100
AcDbLine
 62
2
  6
CONTINUOUS
 10
17.5630758159
 20
2.4507950822
 11
17.5630758159
 21
2.4309950712
  0
ARC
  5
2CA
100
AcDbEntity
  8
0
100
AcDbCircle
 62
2
  6
CONTINUOUS
 10
17.5606008164
 20
2.4309950693
 40
0.0024749995
100
AcDbArc
 50
269.9999571957
 51
0.0000428043
  0
LINE
  5
2CB
100
AcDbEntity
  8
0
100
AcDbLine
 62
2
  6
CONTINUOUS
 10
17.5606008146
 20
2.4285200698
 11
17.5426678046
 21
2.4285200698
  0
ARC
  5
2CC
100
AcDbEntity
  8
0
100
AcDbCircle
 62
2
  6
CONTINUOUS
 10
17.5426678028
 20
2.4260450703
 40
0.0024749995
100
AcDbArc
 50
89.9999571957
 51
180.0000428043
  0
LINE
  5
2CD
100
AcDbEntity
  8
0
100
AcDbLine
 62
2
  6
CONTINUOUS
 10
17.5401928032
 20
2.4260450684
 11
17.5401928032
 21
2.354940029
  0
ARC
  5
2CE
100
AcDbEntity
  8
0
100
AcDbCircle
 62
2
  6
CONTINUOUS
 10
17.5377178037
 20
2.3549400272
 40
0.0024749995
100
AcDbArc
 50
269.9999571957
 51
0.0000428043
  0
LINE
  5
2CF
100
AcDbEntity
  8
0
100
AcDbLine
 62
2
  6
CONTINUOUS
 10
17.5377178019
 20
2.3524650276
 11
17.4635127607
 21
2.3524650276
  0
ARC
  5
2D0
100
AcDbEntity
  8
0
100
AcDbCircle
 62
2
  6
CONTINUOUS
 10
17.463512126
 20
2.3549404438
 40
0.0024754162
100
AcDbArc
 50
226.3593695813
 51
270.0146919953
  0
LINE
  5
2D1
100
AcDbEntity
  8
0
100
AcDbLine
 62
2
  6
CONTINUOUS
 10
17.4618037598
 20
2.353149028
 11
17.3985237247
 21
2.4135270615
  0
ARC
  5
2D2
100
AcDbEntity
  8
0
100
AcDbCircle
 62
2
  6
CONTINUOUS
 10
17.3968150237
 20
2.4117361237
 40
0.0024753014
100
AcDbArc
 50
46.3461263059
 51
180.0014637321
  0
LINE
  5
2D3
100
AcDbEntity
  8
0
100
AcDbLine
 62
2
  6
CONTINUOUS
 10
17.3943397224
 20
2.4117360605
 11
17.3943397224
 21
2.3796900427
  0
ARC
  5
2D4
100
AcDbEntity
  8
0
100
AcDbCircle
 62
2
  6
CONTINUOUS
 10
17.3968147219
 20
2.3796900409
 40
0.0024749995
100
AcDbArc
 50
179.9999571957
 51
270.0000428043
  0
LINE
  5
2D5
100
AcDbEntity
  8
0
100
AcDbLine
 62
2
  6
CONTINUOUS
 10
17.3968147237
 20
2.3772150414
 11
17.417131735
 21
2.3772150414
  0
ARC
  5
2D6
100
AcDbEntity
  8
0
100
AcDbCircle
 62
2
  6
CONTINUOUS
 10
17.4171317369
 20
2.3747400418
 40
0.0024749995
100
AcDbArc
 50
359.9999571957
 51
90.0000428043
  0
LINE
  5
2D7
100
AcDbEntity
  8
0
100
AcDbLine
 62
2
  6
CONTINUOUS
 10
17.4196067364
 20
2.37474004
 11
17.4196067364
 21
2.354940029
  0
ARC
  5
2D8
100
AcDbEntity
  8
0
100
AcDbCircle
 62
2
  6
CONTINUOUS
 10
17.4171317369
 20
2.3549400272
 40
0.0024749995
100
AcDbArc
 50
269.9999571957
 51
0.0000428043
  0
LINE
  5
2D9
100
AcDbEntity
  8
0
100
AcDbLine
 62
2
  6
CONTINUOUS
 10
17.417131735
 20
2.3524650276
 11
17.341467693
 21
2.3524650276
  0
ARC
  5
2DA
100
AcDbEntity
  8
0
100
AcDbCircle
 62
2
  6
CONTINUOUS
 10
17.3414676912
 20
2.3549400272
 40
0.0024749995
100
AcDbArc
 50
179.9999571957
 51
270.0000428043
  0
LINE
  5
2DB
100
AcDbEntity
  8
0
100
AcDbLine
 62
2
  6
CONTINUOUS
 10
17.3389926917
 20
2.354940029
 11
17.3389926917
 21
2.37474004
  0
ARC
  5
2DC
100
AcDbEntity
  8
0
100
AcDbCircle
 62
2
  6
CONTINUOUS
 10
17.3414676912
 20
2.3747400418
 40
0.0024749995
100
AcDbArc
 50
89.9999571957
 51
180.0000428043
  0
LINE
  5
2DD
100
AcDbEntity
  8
0
100
AcDbLine
 62
2
  6
CONTINUOUS
 10
17.341467693
 20
2.3772150414
 11
17.3601147034
 21
2.3772150414
  0
ARC
  5
2DE
100
AcDbEntity
  8
0
100
AcDbCircle
 62
2
  6
CONTINUOUS
 10
17.3601147052
 20
2.3796900409
 40
0.0024749995
100
AcDbArc
 50
269.9999571957
 51
0.0000428043
  0
LINE
  5
2DF
100
AcDbEntity
  8
0
100
AcDbLine
 62
2
  6
CONTINUOUS
 10
17.3625897048
 20
2.3796900427
 11
17.3625897048
 21
2.4260450684
  0
ARC
  5
2E0
100
AcDbEntity
  8
0
100
AcDbCircle
 62
2
  6
CONTINUOUS
 10
17.3601147052
 20
2.4260450703
 40
0.0024749995
100
AcDbArc
 50
359.9999571957
 51
90.0000428043
  0
LINE
  5
2E1
100
AcDbEntity
  8
0
100
AcDbLine
 62
2
  6
CONTINUOUS
 10
17.3601147034
 20
2.4285200698
 11
17.341467693
 21
2.4285200698
  0
ARC
  5
2E2
100
AcDbEntity
  8
0
100
AcDbCircle
 62
2
  6
CONTINUOUS
 10
17.3414676912
 20
2.4309950693
 40
0.0024749995
100
AcDbArc
 50
179.9999571957
 51
270.0000428043
  0
LINE
  5
2E3
100
AcDbEntity
  8
0
100
AcDbLine
 62
2
  6
CONTINUOUS
 10
17.3389926917
 20
2.4309950712
 11
17.3389926917
 21
2.4507950822
  0
ARC
  5
2E4
100
AcDbEntity
  8
0
100
AcDbCircle
 62
2
  6
CONTINUOUS
 10
17.3414676912
 20
2.450795084
 40
0.0024749995
100
AcDbArc
 50
89.9999571957
 51
180.0000428043
  0
LINE
  5
2E5
100
AcDbEntity
  8
0
100
AcDbLine
 62
2
  6
CONTINUOUS
 10
17.1937676111
 20
2.4268270689
 11
17.1866506072
 21
2.4156100627
  0
ARC
  5
2E6
100
AcDbEntity
  8
0
100
AcDbCircle
 62
2
  6
CONTINUOUS
 10
17.188740499
 20
2.4142841006
 40
0.0024750401
100
AcDbArc
 50
147.6063258012
 51
270.0025305754
  0
LINE
  5
2E7
100
AcDbEntity
  8
0
100
AcDbLine
 62
2
  6
CONTINUOUS
 10
17.1887406083
 20
2.4118090605
 11
17.2092976197
 21
2.4118090605
  0
ARC
  5
2E8
100
AcDbEntity
  8
0
100
AcDbCircle
 62
2
  6
CONTINUOUS
 10
17.2092975986
 20
2.4142842677
 40
0.0024752071
100
AcDbArc
 50
270.0004896793
 51
32.9089806818
  0
LINE
  5
2E9
100
AcDbEntity
  8
0
100
AcDbLine
 62
2
  6
CONTINUOUS
 10
17.2113756209
 20
2.4156290627
 11
17.2041166169
 21
2.4268450689
  0
ARC
  5
2EA
100
AcDbEntity
  8
0
100
AcDbCircle
 62
2
  6
CONTINUOUS
 10
17.2020380761
 20
2.4255006094
 40
0.0024754602
100
AcDbArc
 50
32.8959418573
 51
89.9875097202
  0
LINE
  5
2EB
100
AcDbEntity
  8
0
100
AcDbLine
 62
2
  6
CONTINUOUS
 10
17.2020386157
 20
2.4279760695
 11
17.1958576123
 21
2.4279760695
  0
ARC
  5
2EC
100
AcDbEntity
  8
0
100
AcDbCircle
 62
2
  6
CONTINUOUS
 10
17.195857542
 20
2.4255008692
 40
0.0024752003
100
AcDbArc
 50
89.998372645
 51
147.602165307
  0
LINE
  5
2ED
100
AcDbEntity
  8
0
100
AcDbLine
 62
2
  6
CONTINUOUS
 10
17.2171806241
 20
2.3897280483
 11
17.2228066272
 21
2.3810350435
  0
ARC
  5
2EE
100
AcDbEntity
  8
0
100
AcDbCircle
 62
2
  6
CONTINUOUS
 10
17.2207286049
 20
2.3796902485
 40
0.0024752071
100
AcDbArc
 50
270.0004896793
 51
32.9089806818
  0
LINE
  5
2EF
100
AcDbEntity
  8
0
100
AcDbLine
 62
2
  6
CONTINUOUS
 10
17.2207286261
 20
2.3772150414
 11
17.2062776181
 21
2.3772150414
  0
ARC
  5
2F0
100
AcDbEntity
  8
0
100
AcDbCircle
 62
2
  6
CONTINUOUS
 10
17.2062776162
 20
2.3747400418
 40
0.0024749995
100
AcDbArc
 50
89.9999571957
 51
180.0000428043
  0
LINE
  5
2F1
100
AcDbEntity
  8
0
100
AcDbLine
 62
2
  6
CONTINUOUS
 10
17.2038026167
 20
2.37474004
 11
17.2038026167
 21
2.354940029
  0
ARC
  5
2F2
100
AcDbEntity
  8
0
100
AcDbCircle
 62
2
  6
CONTINUOUS
 10
17.2062776162
 20
2.3549400272
 40
0.0024749995
100
AcDbArc
 50
179.9999571957
 51
270.0000428043
  0
LINE
  5
2F3
100
AcDbEntity
  8
0
100
AcDbLine
 62
2
  6
CONTINUOUS
 10
17.2062776181
 20
2.3524650276
 11
17.3115586765
 21
2.3524650276
  0
ARC
  5
2F4
100
AcDbEntity
  8
0
100
AcDbCircle
 62
2
  6
CONTINUOUS
 10
17.3115586783
 20
2.3549400272
 40
0.0024749995
100
AcDbArc
 50
269.9999571957
 51
0.0000428043
  0
LINE
  5
2F5
100
AcDbEntity
  8
0
100
AcDbLine
 62
2
  6
CONTINUOUS
 10
17.3140336778
 20
2.354940029
 11
17.3140336778
 21
2.37474004
  0
ARC
  5
2F6
100
AcDbEntity
  8
0
100
AcDbCircle
 62
2
  6
CONTINUOUS
 10
17.3115586783
 20
2.3747400418
 40
0.0024749995
100
AcDbArc
 50
359.9999571957
 51
90.0000428043
  0
LINE
  5
2F7
100
AcDbEntity
  8
0
100
AcDbLine
 62
2
  6
CONTINUOUS
 10
17.3115586765
 20
2.3772150414
 11
17.2915426654
 21
2.3772150414
  0
ARC
  5
2F8
100
AcDbEntity
  8
0
100
AcDbCircle
 62
2
  6
CONTINUOUS
 10
17.2915427859
 20
2.3796890824
 40
0.002474041
100
AcDbArc
 50
212.9056413127
 51
269.9972091756
  0
LINE
  5
2F9
100
AcDbEntity
  8
0
100
AcDbLine
 62
2
  6
CONTINUOUS
 10
17.2894656642
 20
2.378345042
 11
17.2417096377
 21
2.4521400829
  0
ARC
  5
2FA
100
AcDbEntity
  8
0
100
AcDbCircle
 62
2
  6
CONTINUOUS
 10
17.2396320161
 20
2.4507951234
 40
0.0024749602
100
AcDbArc
 50
32.9172174468
 51
90.0087853097
  0
LINE
  5
2FB
100
AcDbEntity
  8
0
100
AcDbLine
 62
2
  6
CONTINUOUS
 10
17.2396316366
 20
2.4532700835
 11
17.1824566049
 21
2.4532700835
  0
ARC
  5
2FC
100
AcDbEntity
  8
0
100
AcDbCircle
 62
2
  6
CONTINUOUS
 10
17.1824565346
 20
2.4507948832
 40
0.0024752003
100
AcDbArc
 50
89.998372645
 51
147.602165307
  0
LINE
  5
2FD
100
AcDbEntity
  8
0
100
AcDbLine
 62
2
  6
CONTINUOUS
 10
17.1803666037
 20
2.4521210829
 11
17.1335665777
 21
2.378364042
  0
ARC
  5
2FE
100
AcDbEntity
  8
0
100
AcDbCircle
 62
2
  6
CONTINUOUS
 10
17.1314766469
 20
2.3796902417
 40
0.0024752003
100
AcDbArc
 50
269.998372645
 51
327.602165307
  0
LINE
  5
2FF
100
AcDbEntity
  8
0
100
AcDbLine
 62
2
  6
CONTINUOUS
 10
17.1314765766
 20
2.3772150414
 11
17.1086155639
 21
2.3772150414
  0
ARC
  5
300
100
AcDbEntity
  8
0
100
AcDbCircle
 62
2
  6
CONTINUOUS
 10
17.1086155621
 20
2.3747400418
 40
0.0024749995
100
AcDbArc
 50
89.9999571957
 51
180.0000428043
  0
LINE
  5
301
100
AcDbEntity
  8
0
100
AcDbLine
 62
2
  6
CONTINUOUS
 10
17.1061405625
 20
2.37474004
 11
17.1061405625
 21
2.354940029
  0
ARC
  5
302
100
AcDbEntity
  8
0
100
AcDbCircle
 62
2
  6
CONTINUOUS
 10
17.1086155621
 20
2.3549400272
 40
0.0024749995
100
AcDbArc
 50
179.9999571957
 51
270.0000428043
  0
LINE
  5
303
100
AcDbEntity
  8
0
100
AcDbLine
 62
2
  6
CONTINUOUS
 10
17.1086155639
 20
2.3524650276
 11
17.1859916068
 21
2.3524650276
  0
ARC
  5
304
100
AcDbEntity
  8
0
100
AcDbCircle
 62
2
  6
CONTINUOUS
 10
17.1859916087
 20
2.3549400272
 40
0.0024749995
100
AcDbArc
 50
269.9999571957
 51
0.0000428043
  0
LINE
  5
305
100
AcDbEntity
  8
0
100
AcDbLine
 62
2
  6
CONTINUOUS
 10
17.1884666082
 20
2.354940029
 11
17.1884666082
 21
2.37474004
  0
ARC
  5
306
100
AcDbEntity
  8
0
100
AcDbCircle
 62
2
  6
CONTINUOUS
 10
17.1859916087
 20
2.3747400418
 40
0.0024749995
100
AcDbArc
 50
359.9999571957
 51
90.0000428043
  0
LINE
  5
307
100
AcDbEntity
  8
0
100
AcDbLine
 62
2
  6
CONTINUOUS
 10
17.1859916068
 20
2.3772150414
 11
17.1747086006
 21
2.3772150414
  0
ARC
  5
308
100
AcDbEntity
  8
0
100
AcDbCircle
 62
2
  6
CONTINUOUS
 10
17.1747084912
 20
2.3796900814
 40
0.0024750401
100
AcDbArc
 50
147.6063258011
 51
270.0025305754
  0
LINE
  5
309
100
AcDbEntity
  8
0
100
AcDbLine
 62
2
  6
CONTINUOUS
 10
17.1726185994
 20
2.3810160435
 11
17.1781346025
 21
2.3897100483
  0
ARC
  5
30A
100
AcDbEntity
  8
0
100
AcDbCircle
 62
2
  6
CONTINUOUS
 10
17.1802245333
 20
2.3883838486
 40
0.0024752003
100
AcDbArc
 50
89.998372645
 51
147.602165307
  0
LINE
  5
30B
100
AcDbEntity
  8
0
100
AcDbLine
 62
2
  6
CONTINUOUS
 10
17.1802246036
 20
2.3908590489
 11
17.215102623
 21
2.3908590489
  0
ARC
  5
30C
100
AcDbEntity
  8
0
100
AcDbCircle
 62
2
  6
CONTINUOUS
 10
17.2151020833
 20
2.3883835888
 40
0.0024754602
100
AcDbArc
 50
32.8959418573
 51
89.9875097202
  0
LINE
  5
30D
100
AcDbEntity
  8
0
100
AcDbLine
 62
2
  6
CONTINUOUS
 10
17.5897208307
 20
2.4532700835
 11
17.6901788864
 21
2.4532700835
  0
ARC
  5
30E
100
AcDbEntity
  8
0
100
AcDbCircle
 62
2
  6
CONTINUOUS
 10
17.6901790212
 20
2.4507959157
 40
0.0024741678
100
AcDbArc
 50
46.3477981899
 51
90.0031206038
  0
LINE
  5
30F
100
AcDbEntity
  8
0
100
AcDbLine
 62
2
  6
CONTINUOUS
 10
17.6918868874
 20
2.4525860832
 11
17.7519199207
 21
2.3953060514
  0
ARC
  5
310
100
AcDbEntity
  8
0
100
AcDbCircle
 62
2
  6
CONTINUOUS
 10
17.7536286216
 20
2.3970969891
 40
0.0024753014
100
AcDbArc
 50
226.3461263059
 51
0.0014637321
  0
LINE
  5
311
100
AcDbEntity
  8
0
100
AcDbLine
 62
2
  6
CONTINUOUS
 10
17.756103923
 20
2.3970970524
 11
17.756103923
 21
2.4260450684
  0
ARC
  5
312
100
AcDbEntity
  8
0
100
AcDbCircle
 62
2
  6
CONTINUOUS
 10
17.7536289235
 20
2.4260450703
 40
0.0024749995
100
AcDbArc
 50
359.9999571957
 51
90.0000428043
  0
LINE
  5
313
100
AcDbEntity
  8
0
100
AcDbLine
 62
2
  6
CONTINUOUS
 10
17.7536289216
 20
2.4285200698
 11
17.7348529112
 21
2.4285200698
  0
ARC
  5
314
100
AcDbEntity
  8
0
100
AcDbCircle
 62
2
  6
CONTINUOUS
 10
17.7348529093
 20
2.4309950693
 40
0.0024749995
100
AcDbArc
 50
179.9999571957
 51
270.0000428043
  0
LINE
  5
315
100
AcDbEntity
  8
0
100
AcDbLine
 62
2
  6
CONTINUOUS
 10
17.7323779098
 20
2.4309950712
 11
17.7323779098
 21
2.4507950822
  0
ARC
  5
316
100
AcDbEntity
  8
0
100
AcDbCircle
 62
2
  6
CONTINUOUS
 10
17.7348529093
 20
2.450795084
 40
0.0024749995
100
AcDbArc
 50
89.9999571957
 51
180.0000428043
  0
LINE
  5
317
100
AcDbEntity
  8
0
100
AcDbLine
 62
2
  6
CONTINUOUS
 10
17.7348529112
 20
2.4532700835
 11
17.8088539522
 21
2.4532700835
  0
ARC
  5
318
100
AcDbEntity
  8
0
100
AcDbCircle
 62
2
  6
CONTINUOUS
 10
17.8088539541
 20
2.450795084
 40
0.0024749995
100
AcDbArc
 50
359.9999571957
 51
90.0000428043
  0
LINE
  5
319
100
AcDbEntity
  8
0
100
AcDbLine
 62
2
  6
CONTINUOUS
 10
17.8113289536
 20
2.4507950822
 11
17.8113289536
 21
2.4309950712
  0
ARC
  5
31A
100
AcDbEntity
  8
0
100
AcDbCircle
 62
2
  6
CONTINUOUS
 10
17.8088539541
 20
2.4309950693
 40
0.0024749995
100
AcDbArc
 50
269.9999571957
 51
0.0000428043
  0
LINE
  5
31B
100
AcDbEntity
  8
0
100
AcDbLine
 62
2
  6
CONTINUOUS
 10
17.8088539522
 20
2.4285200698
 11
17.7909209423
 21
2.4285200698
  0
ARC
  5
31C
100
AcDbEntity
  8
0
100
AcDbCircle
 62
2
  6
CONTINUOUS
 10
17.7909209404
 20
2.4260450703
 40
0.0024749995
100
AcDbArc
 50
89.9999571957
 51
180.0000428043
  0
LINE
  5
31D
100
AcDbEntity
  8
0
100
AcDbLine
 62
2
  6
CONTINUOUS
 10
17.7884459409
 20
2.4260450684
 11
17.7884459409
 21
2.354940029
  0
ARC
  5
31E
100
AcDbEntity
  8
0
100
AcDbCircle
 62
2
  6
CONTINUOUS
 10
17.7859709414
 20
2.3549400272
 40
0.0024749995
100
AcDbArc
 50
269.9999571957
 51
0.0000428043
  0
LINE
  5
31F
100
AcDbEntity
  8
0
100
AcDbLine
 62
2
  6
CONTINUOUS
 10
17.7859709395
 20
2.3524650276
 11
17.7117648984
 21
2.3524650276
  0
ARC
  5
320
100
AcDbEntity
  8
0
100
AcDbCircle
 62
2
  6
CONTINUOUS
 10
17.7117647636
 20
2.3549391954
 40
0.0024741678
100
AcDbArc
 50
226.3477981898
 51
270.0031206038
  0
LINE
  5
321
100
AcDbEntity
  8
0
100
AcDbLine
 62
2
  6
CONTINUOUS
 10
17.7100568974
 20
2.353149028
 11
17.6467768624
 21
2.4135270615
  0
ARC
  5
322
100
AcDbEntity
  8
0
100
AcDbCircle
 62
2
  6
CONTINUOUS
 10
17.6450681614
 20
2.4117361237
 40
0.0024753014
100
AcDbArc
 50
46.3461263059
 51
180.0014637321
  0
LINE
  5
323
100
AcDbEntity
  8
0
100
AcDbLine
 62
2
  6
CONTINUOUS
 10
17.64259286
 20
2.4117360605
 11
17.64259286
 21
2.3796900427
  0
ARC
  5
324
100
AcDbEntity
  8
0
100
AcDbCircle
 62
2
  6
CONTINUOUS
 10
17.6450678596
 20
2.3796900409
 40
0.0024749995
100
AcDbArc
 50
179.9999571957
 51
270.0000428043
  0
LINE
  5
325
100
AcDbEntity
  8
0
100
AcDbLine
 62
2
  6
CONTINUOUS
 10
17.6450678614
 20
2.3772150414
 11
17.6653848727
 21
2.3772150414
  0
ARC
  5
326
100
AcDbEntity
  8
0
100
AcDbCircle
 62
2
  6
CONTINUOUS
 10
17.6653848745
 20
2.3747400418
 40
0.0024749995
100
AcDbArc
 50
359.9999571957
 51
90.0000428043
  0
LINE
  5
327
100
AcDbEntity
  8
0
100
AcDbLine
 62
2
  6
CONTINUOUS
 10
17.667859874
 20
2.37474004
 11
17.667859874
 21
2.354940029
  0
ARC
  5
328
100
AcDbEntity
  8
0
100
AcDbCircle
 62
2
  6
CONTINUOUS
 10
17.6653848745
 20
2.3549400272
 40
0.0024749995
100
AcDbArc
 50
269.9999571957
 51
0.0000428043
  0
LINE
  5
329
100
AcDbEntity
  8
0
100
AcDbLine
 62
2
  6
CONTINUOUS
 10
17.6653848727
 20
2.3524650276
 11
17.5897208307
 21
2.3524650276
  0
ARC
  5
32A
100
AcDbEntity
  8
0
100
AcDbCircle
 62
2
  6
CONTINUOUS
 10
17.5897208289
 20
2.3549400272
 40
0.0024749995
100
AcDbArc
 50
179.9999571957
 51
270.0000428043
  0
LINE
  5
32B
100
AcDbEntity
  8
0
100
AcDbLine
 62
2
  6
CONTINUOUS
 10
17.5872458293
 20
2.354940029
 11
17.5872458293
 21
2.37474004
  0
ARC
  5
32C
100
AcDbEntity
  8
0
100
AcDbCircle
 62
2
  6
CONTINUOUS
 10
17.5897208289
 20
2.3747400418
 40
0.0024749995
100
AcDbArc
 50
89.9999571957
 51
180.0000428043
  0
LINE
  5
32D
100
AcDbEntity
  8
0
100
AcDbLine
 62
2
  6
CONTINUOUS
 10
17.5897208307
 20
2.3772150414
 11
17.6083668411
 21
2.3772150414
  0
ARC
  5
32E
100
AcDbEntity
  8
0
100
AcDbCircle
 62
2
  6
CONTINUOUS
 10
17.6083668429
 20
2.3796900409
 40
0.0024749995
100
AcDbArc
 50
269.9999571957
 51
0.0000428043
  0
LINE
  5
32F
100
AcDbEntity
  8
0
100
AcDbLine
 62
2
  6
CONTINUOUS
 10
17.6108418424
 20
2.3796900427
 11
17.6108418424
 21
2.4260450684
  0
ARC
  5
330
100
AcDbEntity
  8
0
100
AcDbCircle
 62
2
  6
CONTINUOUS
 10
17.6083668429
 20
2.4260450703
 40
0.0024749995
100
AcDbArc
 50
359.9999571957
 51
90.0000428043
  0
LINE
  5
331
100
AcDbEntity
  8
0
100
AcDbLine
 62
2
  6
CONTINUOUS
 10
17.6083668411
 20
2.4285200698
 11
17.5897208307
 21
2.4285200698
  0
ARC
  5
332
100
AcDbEntity
  8
0
100
AcDbCircle
 62
2
  6
CONTINUOUS
 10
17.5897208289
 20
2.4309950693
 40
0.0024749995
100
AcDbArc
 50
179.9999571957
 51
270.0000428043
  0
LINE
  5
333
100
AcDbEntity
  8
0
100
AcDbLine
 62
2
  6
CONTINUOUS
 10
17.5872458293
 20
2.4309950712
 11
17.5872458293
 21
2.4507950822
  0
ARC
  5
334
100
AcDbEntity
  8
0
100
AcDbCircle
 62
2
  6
CONTINUOUS
 10
17.5897208289
 20
2.450795084
 40
0.0024749995
100
AcDbArc
 50
89.9999571957
 51
180.0000428043
  0
LINE
  5
335
100
AcDbEntity
  8
0
100
AcDbLine
 62
2
  6
CONTINUOUS
 10
17.9625500375
 20
2.3937150505
 11
17.927383018
 21
2.3937150505
  0
ARC
  5
336
100
AcDbEntity
  8
0
100
AcDbCircle
 62
2
  6
CONTINUOUS
 10
17.9273830161
 20
2.391240051
 40
0.0024749995
100
AcDbArc
 50
89.9999571957
 51
180.0000428043
  0
LINE
  5
337
100
AcDbEntity
  8
0
100
AcDbLine
 62
2
  6
CONTINUOUS
 10
17.9249080166
 20
2.3912400491
 11
17.9249080166
 21
2.3796900427
  0
ARC
  5
338
100
AcDbEntity
  8
0
100
AcDbCircle
 62
2
  6
CONTINUOUS
 10
17.9273830161
 20
2.3796900409
 40
0.0024749995
100
AcDbArc
 50
179.9999571957
 51
270.0000428043
  0
LINE
  5
339
100
AcDbEntity
  8
0
100
AcDbLine
 62
2
  6
CONTINUOUS
 10
17.927383018
 20
2.3772150414
 11
17.992387054
 21
2.3772150414
  0
ARC
  5
33A
100
AcDbEntity
  8
0
100
AcDbCircle
 62
2
  6
CONTINUOUS
 10
17.9923870559
 20
2.3796900409
 40
0.0024749995
100
AcDbArc
 50
269.9999571957
 51
0.0000428043
  0
LINE
  5
33B
100
AcDbEntity
  8
0
100
AcDbLine
 62
2
  6
CONTINUOUS
 10
17.9948620554
 20
2.3796900427
 11
17.9948620554
 21
2.3879400473
  0
ARC
  5
33C
100
AcDbEntity
  8
0
100
AcDbCircle
 62
2
  6
CONTINUOUS
 10
17.9973370549
 20
2.3879400492
 40
0.0024749995
100
AcDbArc
 50
89.9999571957
 51
180.0000428043
  0
LINE
  5
33D
100
AcDbEntity
  8
0
100
AcDbLine
 62
2
  6
CONTINUOUS
 10
17.9973370568
 20
2.3904150487
 11
18.0396560802
 21
2.3904150487
  0
ARC
  5
33E
100
AcDbEntity
  8
0
100
AcDbCircle
 62
2
  6
CONTINUOUS
 10
18.0396560821
 20
2.3879400492
 40
0.0024749995
100
AcDbArc
 50
359.9999571957
 51
90.0000428043
  0
LINE
  5
33F
100
AcDbEntity
  8
0
100
AcDbLine
 62
2
  6
CONTINUOUS
 10
18.0421310816
 20
2.3879400473
 11
18.0421310816
 21
2.354940029
  0
ARC
  5
340
100
AcDbEntity
  8
0
100
AcDbCircle
 62
2
  6
CONTINUOUS
 10
18.0396560821
 20
2.3549400272
 40
0.0024749995
100
AcDbArc
 50
269.9999571957
 51
0.0000428043
  0
LINE
  5
341
100
AcDbEntity
  8
0
100
AcDbLine
 62
2
  6
CONTINUOUS
 10
18.0396560802
 20
2.3524650276
 11
17.8364439675
 21
2.3524650276
  0
ARC
  5
342
100
AcDbEntity
  8
0
100
AcDbCircle
 62
2
  6
CONTINUOUS
 10
17.8364439657
 20
2.3549400272
 40
0.0024749995
100
AcDbArc
 50
179.9999571957
 51
270.0000428043
  0
LINE
  5
343
100
AcDbEntity
  8
0
100
AcDbLine
 62
2
  6
CONTINUOUS
 10
17.8339689662
 20
2.354940029
 11
17.8339689662
 21
2.37474004
  0
ARC
  5
344
100
AcDbEntity
  8
0
100
AcDbCircle
 62
2
  6
CONTINUOUS
 10
17.8364439657
 20
2.3747400418
 40
0.0024749995
100
AcDbArc
 50
89.9999571957
 51
180.0000428043
  0
LINE
  5
345
100
AcDbEntity
  8
0
100
AcDbLine
 62
2
  6
CONTINUOUS
 10
17.8364439675
 20
2.3772150414
 11
17.8603669808
 21
2.3772150414
  0
ARC
  5
346
100
AcDbEntity
  8
0
100
AcDbCircle
 62
2
  6
CONTINUOUS
 10
17.8603669827
 20
2.3796900409
 40
0.0024749995
100
AcDbArc
 50
269.9999571956
 51
0.0000428042
  0
LINE
  5
347
100
AcDbEntity
  8
0
100
AcDbLine
 62
2
  6
CONTINUOUS
 10
17.8628419822
 20
2.3796900427
 11
17.8628419822
 21
2.4260450684
  0
ARC
  5
348
100
AcDbEntity
  8
0
100
AcDbCircle
 62
2
  6
CONTINUOUS
 10
17.8603669827
 20
2.4260450703
 40
0.0024749995
100
AcDbArc
 50
359.9999571957
 51
90.0000428043
  0
LINE
  5
349
100
AcDbEntity
  8
0
100
AcDbLine
 62
2
  6
CONTINUOUS
 10
17.8603669808
 20
2.4285200698
 11
17.8364439675
 21
2.4285200698
  0
ARC
  5
34A
100
AcDbEntity
  8
0
100
AcDbCircle
 62
2
  6
CONTINUOUS
 10
17.8364439657
 20
2.4309950693
 40
0.0024749995
100
AcDbArc
 50
179.9999571957
 51
270.0000428043
  0
LINE
  5
34B
100
AcDbEntity
  8
0
100
AcDbLine
 62
2
  6
CONTINUOUS
 10
17.8339689662
 20
2.4309950712
 11
17.8339689662
 21
2.4507950822
  0
ARC
  5
34C
100
AcDbEntity
  8
0
100
AcDbCircle
 62
2
  6
CONTINUOUS
 10
17.8364439657
 20
2.450795084
 40
0.0024749995
100
AcDbArc
 50
89.9999571957
 51
180.0000428043
  0
LINE
  5
34D
100
AcDbEntity
  8
0
100
AcDbLine
 62
2
  6
CONTINUOUS
 10
17.8364439675
 20
2.4532700835
 11
18.0382370794
 21
2.4532700835
  0
ARC
  5
34E
100
AcDbEntity
  8
0
100
AcDbCircle
 62
2
  6
CONTINUOUS
 10
18.0382370813
 20
2.450795084
 40
0.0024749995
100
AcDbArc
 50
359.9999571957
 51
90.0000428043
  0
LINE
  5
34F
100
AcDbEntity
  8
0
100
AcDbLine
 62
2
  6
CONTINUOUS
 10
18.0407120808
 20
2.4507950822
 11
18.0407120808
 21
2.4177950639
  0
ARC
  5
350
100
AcDbEntity
  8
0
100
AcDbCircle
 62
2
  6
CONTINUOUS
 10
18.0382370813
 20
2.417795062
 40
0.0024749995
100
AcDbArc
 50
269.9999571957
 51
0.0000428043
  0
LINE
  5
351
100
AcDbEntity
  8
0
100
AcDbLine
 62
2
  6
CONTINUOUS
 10
18.0382370794
 20
2.4153200625
 11
17.9963730562
 21
2.4153200625
  0
ARC
  5
352
100
AcDbEntity
  8
0
100
AcDbCircle
 62
2
  6
CONTINUOUS
 10
17.9963730544
 20
2.417795062
 40
0.0024749995
100
AcDbArc
 50
179.9999571957
 51
270.0000428043
  0
LINE
  5
353
100
AcDbEntity
  8
0
100
AcDbLine
 62
2
  6
CONTINUOUS
 10
17.9938980549
 20
2.4177950639
 11
17.9938980549
 21
2.4260450684
  0
ARC
  5
354
100
AcDbEntity
  8
0
100
AcDbCircle
 62
2
  6
CONTINUOUS
 10
17.9914230553
 20
2.4260450703
 40
0.0024749995
100
AcDbArc
 50
359.9999571957
 51
90.0000428043
  0
LINE
  5
355
100
AcDbEntity
  8
0
100
AcDbLine
 62
2
  6
CONTINUOUS
 10
17.9914230535
 20
2.4285200698
 11
17.927383018
 21
2.4285200698
  0
ARC
  5
356
100
AcDbEntity
  8
0
100
AcDbCircle
 62
2
  6
CONTINUOUS
 10
17.9273830161
 20
2.4260450703
 40
0.0024749995
100
AcDbArc
 50
89.9999571957
 51
180.0000428043
  0
LINE
  5
357
100
AcDbEntity
  8
0
100
AcDbLine
 62
2
  6
CONTINUOUS
 10
17.9249080166
 20
2.4260450684
 11
17.9249080166
 21
2.414495062
  0
ARC
  5
358
100
AcDbEntity
  8
0
100
AcDbCircle
 62
2
  6
CONTINUOUS
 10
17.9273830161
 20
2.4144950602
 40
0.0024749995
100
AcDbArc
 50
179.9999571957
 51
270.0000428043
  0
LINE
  5
359
100
AcDbEntity
  8
0
100
AcDbLine
 62
2
  6
CONTINUOUS
 10
17.927383018
 20
2.4120200607
 11
17.9625500375
 21
2.4120200607
  0
ARC
  5
35A
100
AcDbEntity
  8
0
100
AcDbCircle
 62
2
  6
CONTINUOUS
 10
17.9625500393
 20
2.4095450611
 40
0.0024749995
100
AcDbArc
 50
359.9999571957
 51
90.0000428043
  0
LINE
  5
35B
100
AcDbEntity
  8
0
100
AcDbLine
 62
2
  6
CONTINUOUS
 10
17.9650250388
 20
2.4095450593
 11
17.9650250388
 21
2.3961900519
  0
ARC
  5
35C
100
AcDbEntity
  8
0
100
AcDbCircle
 62
2
  6
CONTINUOUS
 10
17.9625500393
 20
2.39619005
 40
0.0024749995
100
AcDbArc
 50
269.9999571956
 51
0.0000428042
  0
LINE
  5
35D
100
AcDbEntity
  8
0
100
AcDbLine
 62
2
  6
CONTINUOUS
 10
18.39781452
 20
2.3963074516
 11
18.39781452
 21
2.4069246582
  0
LINE
  5
35E
100
AcDbEntity
  8
0
100
AcDbLine
 62
2
  6
CONTINUOUS
 10
18.3778145089
 20
2.3616679219
 11
18.3778145089
 21
2.4415641879
  0
LINE
  5
35F
100
AcDbEntity
  8
0
100
AcDbLine
 62
2
  6
CONTINUOUS
 10
18.3578144978
 20
2.345629656
 11
18.3578144978
 21
2.4576024538
  0
LINE
  5
360
100
AcDbEntity
  8
0
100
AcDbLine
 62
2
  6
CONTINUOUS
 10
18.3378144867
 20
2.3338395042
 11
18.3378144867
 21
2.4693926055
  0
LINE
  5
361
100
AcDbEntity
  8
0
100
AcDbLine
 62
2
  6
CONTINUOUS
 10
18.3178144756
 20
2.3240439832
 11
18.3178144756
 21
2.4791881266
  0
LINE
  5
362
100
AcDbEntity
  8
0
100
AcDbLine
 62
2
  6
CONTINUOUS
 10
18.2978144645
 20
2.3153630651
 11
18.2978144645
 21
2.36748602
  0
LINE
  5
363
100
AcDbEntity
  8
0
100
AcDbLine
 62
2
  6
CONTINUOUS
 10
18.2978144645
 20
2.3913520492
 11
18.2978144645
 21
2.4878690447
  0
LINE
  5
364
100
AcDbEntity
  8
0
100
AcDbLine
 62
2
  6
CONTINUOUS
 10
18.2778144535
 20
2.3077915047
 11
18.2778144535
 21
2.3531152062
  0
LINE
  5
365
100
AcDbEntity
  8
0
100
AcDbLine
 62
2
  6
CONTINUOUS
 10
18.2778144535
 20
2.3778158317
 11
18.2778144535
 21
2.4954406051
  0
LINE
  5
366
100
AcDbEntity
  8
0
100
AcDbLine
 62
2
  6
CONTINUOUS
 10
18.2578144424
 20
2.301041061
 11
18.2578144424
 21
2.3524650276
  0
LINE
  5
367
100
AcDbEntity
  8
0
100
AcDbLine
 62
2
  6
CONTINUOUS
 10
18.2578144424
 20
2.4004217989
 11
18.2578144424
 21
2.4066675471
  0
LINE
  5
368
100
AcDbEntity
  8
0
100
AcDbLine
 62
2
  6
CONTINUOUS
 10
18.2578144424
 20
2.4474440616
 11
18.2578144424
 21
2.5021910487
  0
LINE
  5
369
100
AcDbEntity
  8
0
100
AcDbLine
 62
2
  6
CONTINUOUS
 10
18.2378144313
 20
2.2947079333
 11
18.2378144313
 21
2.3524650276
  0
LINE
  5
36A
100
AcDbEntity
  8
0
100
AcDbLine
 62
2
  6
CONTINUOUS
 10
18.2378144313
 20
2.4518964909
 11
18.2378144313
 21
2.5085241764
  0
LINE
  5
36B
100
AcDbEntity
  8
0
100
AcDbLine
 62
2
  6
CONTINUOUS
 10
18.2178144202
 20
2.2891345268
 11
18.2178144202
 21
2.354983815
  0
LINE
  5
36C
100
AcDbEntity
  8
0
100
AcDbLine
 62
2
  6
CONTINUOUS
 10
18.2178144202
 20
2.4532700835
 11
18.2178144202
 21
2.514097583
  0
LINE
  5
36D
100
AcDbEntity
  8
0
100
AcDbLine
 62
2
  6
CONTINUOUS
 10
18.1978144091
 20
2.2837804818
 11
18.1978144091
 21
2.3882804137
  0
LINE
  5
36E
100
AcDbEntity
  8
0
100
AcDbLine
 62
2
  6
CONTINUOUS
 10
18.1978144091
 20
2.4117543403
 11
18.1978144091
 21
2.4281034235
  0
LINE
  5
36F
100
AcDbEntity
  8
0
100
AcDbLine
 62
2
  6
CONTINUOUS
 10
18.1978144091
 20
2.4532700835
 11
18.1978144091
 21
2.519451628
  0
LINE
  5
370
100
AcDbEntity
  8
0
100
AcDbLine
 62
2
  6
CONTINUOUS
 10
18.177814398
 20
2.2789683935
 11
18.177814398
 21
2.3524650276
  0
LINE
  5
371
100
AcDbEntity
  8
0
100
AcDbLine
 62
2
  6
CONTINUOUS
 10
18.177814398
 20
2.3771930413
 11
18.177814398
 21
2.3918420495
  0
LINE
  5
372
100
AcDbEntity
  8
0
100
AcDbLine
 62
2
  6
CONTINUOUS
 10
18.177814398
 20
2.41084506
 11
18.177814398
 21
2.4285200698
  0
LINE
  5
373
100
AcDbEntity
  8
0
100
AcDbLine
 62
2
  6
CONTINUOUS
 10
18.177814398
 20
2.4532700835
 11
18.177814398
 21
2.5242637163
  0
LINE
  5
374
100
AcDbEntity
  8
0
100
AcDbLine
 62
2
  6
CONTINUOUS
 10
18.1578143869
 20
2.2744172398
 11
18.1578143869
 21
2.3524650276
  0
LINE
  5
375
100
AcDbEntity
  8
0
100
AcDbLine
 62
2
  6
CONTINUOUS
 10
18.1578143869
 20
2.3771930413
 11
18.1578143869
 21
2.3918420495
  0
LINE
  5
376
100
AcDbEntity
  8
0
100
AcDbLine
 62
2
  6
CONTINUOUS
 10
18.1578143869
 20
2.41084506
 11
18.1578143869
 21
2.4285200698
  0
LINE
  5
377
100
AcDbEntity
  8
0
100
AcDbLine
 62
2
  6
CONTINUOUS
 10
18.1578143869
 20
2.4532700835
 11
18.1578143869
 21
2.5288148699
  0
LINE
  5
378
100
AcDbEntity
  8
0
100
AcDbLine
 62
2
  6
CONTINUOUS
 10
18.1378143758
 20
2.2701196816
 11
18.1378143758
 21
2.3524650276
  0
LINE
  5
379
100
AcDbEntity
  8
0
100
AcDbLine
 62
2
  6
CONTINUOUS
 10
18.1378143758
 20
2.4532700835
 11
18.1378143758
 21
2.5331124282
  0
LINE
  5
37A
100
AcDbEntity
  8
0
100
AcDbLine
 62
2
  6
CONTINUOUS
 10
18.1178143647
 20
2.2662469216
 11
18.1178143647
 21
2.3524650276
  0
LINE
  5
37B
100
AcDbEntity
  8
0
100
AcDbLine
 62
2
  6
CONTINUOUS
 10
18.1178143647
 20
2.4532700835
 11
18.1178143647
 21
2.5369851882
  0
LINE
  5
37C
100
AcDbEntity
  8
0
100
AcDbLine
 62
2
  6
CONTINUOUS
 10
18.0978143536
 20
2.2623741615
 11
18.0978143536
 21
2.3524650276
  0
LINE
  5
37D
100
AcDbEntity
  8
0
100
AcDbLine
 62
2
  6
CONTINUOUS
 10
18.0978143536
 20
2.4532700835
 11
18.0978143536
 21
2.5408579483
  0
LINE
  5
37E
100
AcDbEntity
  8
0
100
AcDbLine
 62
2
  6
CONTINUOUS
 10
18.0778143425
 20
2.2592603806
 11
18.0778143425
 21
2.3524650276
  0
LINE
  5
37F
100
AcDbEntity
  8
0
100
AcDbLine
 62
2
  6
CONTINUOUS
 10
18.0778143425
 20
2.3772150414
 11
18.0778143425
 21
2.4285200698
  0
LINE
  5
380
100
AcDbEntity
  8
0
100
AcDbLine
 62
2
  6
CONTINUOUS
 10
18.0778143425
 20
2.4532700835
 11
18.0778143425
 21
2.5439717292
  0
LINE
  5
381
100
AcDbEntity
  8
0
100
AcDbLine
 62
2
  6
CONTINUOUS
 10
18.0578143315
 20
2.2562429918
 11
18.0578143315
 21
2.546989118
  0
LINE
  5
382
100
AcDbEntity
  8
0
100
AcDbLine
 62
2
  6
CONTINUOUS
 10
18.0378143204
 20
2.2532256029
 11
18.0378143204
 21
2.3524650276
  0
LINE
  5
383
100
AcDbEntity
  8
0
100
AcDbLine
 62
2
  6
CONTINUOUS
 10
18.0378143204
 20
2.3904150487
 11
18.0378143204
 21
2.4153200625
  0
LINE
  5
384
100
AcDbEntity
  8
0
100
AcDbLine
 62
2
  6
CONTINUOUS
 10
18.0378143204
 20
2.4532700835
 11
18.0378143204
 21
2.5500065068
  0
LINE
  5
385
100
AcDbEntity
  8
0
100
AcDbLine
 62
2
  6
CONTINUOUS
 10
18.0178143093
 20
2.2502082141
 11
18.0178143093
 21
2.3524650276
  0
LINE
  5
386
100
AcDbEntity
  8
0
100
AcDbLine
 62
2
  6
CONTINUOUS
 10
18.0178143093
 20
2.3904150487
 11
18.0178143093
 21
2.4153200625
  0
LINE
  5
387
100
AcDbEntity
  8
0
100
AcDbLine
 62
2
  6
CONTINUOUS
 10
18.0178143093
 20
2.4532700835
 11
18.0178143093
 21
2.5530238957
  0
LINE
  5
388
100
AcDbEntity
  8
0
100
AcDbLine
 62
2
  6
CONTINUOUS
 10
17.9978142982
 20
2.2471908253
 11
17.9978142982
 21
2.3524650276
  0
LINE
  5
389
100
AcDbEntity
  8
0
100
AcDbLine
 62
2
  6
CONTINUOUS
 10
17.9978142982
 20
2.3904150487
 11
17.9978142982
 21
2.4153200625
  0
LINE
  5
38A
100
AcDbEntity
  8
0
100
AcDbLine
 62
2
  6
CONTINUOUS
 10
17.9978142982
 20
2.4532700835
 11
17.9978142982
 21
2.5560412845
  0
LINE
  5
38B
100
AcDbEntity
  8
0
100
AcDbLine
 62
2
  6
CONTINUOUS
 10
17.9778142871
 20
2.2445732581
 11
17.9778142871
 21
2.3524650276
  0
LINE
  5
38C
100
AcDbEntity
  8
0
100
AcDbLine
 62
2
  6
CONTINUOUS
 10
17.9778142871
 20
2.3772150414
 11
17.9778142871
 21
2.4285200698
  0
LINE
  5
38D
100
AcDbEntity
  8
0
100
AcDbLine
 62
2
  6
CONTINUOUS
 10
17.9778142871
 20
2.4532700835
 11
17.9778142871
 21
2.5586588517
  0
LINE
  5
38E
100
AcDbEntity
  8
0
100
AcDbLine
 62
2
  6
CONTINUOUS
 10
17.957814276
 20
2.2424989828
 11
17.957814276
 21
2.3524650276
  0
LINE
  5
38F
100
AcDbEntity
  8
0
100
AcDbLine
 62
2
  6
CONTINUOUS
 10
17.957814276
 20
2.3772150414
 11
17.957814276
 21
2.3937150505
  0
LINE
  5
390
100
AcDbEntity
  8
0
100
AcDbLine
 62
2
  6
CONTINUOUS
 10
17.957814276
 20
2.4120200607
 11
17.957814276
 21
2.4285200698
  0
LINE
  5
391
100
AcDbEntity
  8
0
100
AcDbLine
 62
2
  6
CONTINUOUS
 10
17.957814276
 20
2.4532700835
 11
17.957814276
 21
2.5607331269
  0
LINE
  5
392
100
AcDbEntity
  8
0
100
AcDbLine
 62
2
  6
CONTINUOUS
 10
17.9378142649
 20
2.2404247076
 11
17.9378142649
 21
2.3524650276
  0
LINE
  5
393
100
AcDbEntity
  8
0
100
AcDbLine
 62
2
  6
CONTINUOUS
 10
17.9378142649
 20
2.3772150414
 11
17.9378142649
 21
2.3937150505
  0
LINE
  5
394
100
AcDbEntity
  8
0
100
AcDbLine
 62
2
  6
CONTINUOUS
 10
17.9378142649
 20
2.4120200607
 11
17.9378142649
 21
2.4285200698
  0
LINE
  5
395
100
AcDbEntity
  8
0
100
AcDbLine
 62
2
  6
CONTINUOUS
 10
17.9378142649
 20
2.4532700835
 11
17.9378142649
 21
2.5628074022
  0
LINE
  5
396
100
AcDbEntity
  8
0
100
AcDbLine
 62
2
  6
CONTINUOUS
 10
17.9178142538
 20
2.2383504324
 11
17.9178142538
 21
2.3524650276
  0
LINE
  5
397
100
AcDbEntity
  8
0
100
AcDbLine
 62
2
  6
CONTINUOUS
 10
17.9178142538
 20
2.4532700835
 11
17.9178142538
 21
2.5648816774
  0
LINE
  5
398
100
AcDbEntity
  8
0
100
AcDbLine
 62
2
  6
CONTINUOUS
 10
17.8978142427
 20
2.2362761572
 11
17.8978142427
 21
2.3524650276
  0
LINE
  5
399
100
AcDbEntity
  8
0
100
AcDbLine
 62
2
  6
CONTINUOUS
 10
17.8978142427
 20
2.4532700835
 11
17.8978142427
 21
2.5669559526
  0
LINE
  5
39A
100
AcDbEntity
  8
0
100
AcDbLine
 62
2
  6
CONTINUOUS
 10
17.8778142316
 20
2.234201882
 11
17.8778142316
 21
2.3524650276
  0
LINE
  5
39B
100
AcDbEntity
  8
0
100
AcDbLine
 62
2
  6
CONTINUOUS
 10
17.8778142316
 20
2.4532700835
 11
17.8778142316
 21
2.5690302278
  0
LINE
  5
39C
100
AcDbEntity
  8
0
100
AcDbLine
 62
2
  6
CONTINUOUS
 10
17.8578142205
 20
2.23247216
 11
17.8578142205
 21
2.3524650276
  0
LINE
  5
39D
100
AcDbEntity
  8
0
100
AcDbLine
 62
2
  6
CONTINUOUS
 10
17.8578142205
 20
2.3772150414
 11
17.8578142205
 21
2.4285200698
  0
LINE
  5
39E
100
AcDbEntity
  8
0
100
AcDbLine
 62
2
  6
CONTINUOUS
 10
17.8578142205
 20
2.4532700835
 11
17.8578142205
 21
2.5707599498
  0
LINE
  5
39F
100
AcDbEntity
  8
0
100
AcDbLine
 62
2
  6
CONTINUOUS
 10
17.8378142094
 20
2.2312059562
 11
17.8378142094
 21
2.3524650276
  0
LINE
  5
3A0
100
AcDbEntity
  8
0
100
AcDbLine
 62
2
  6
CONTINUOUS
 10
17.8378142094
 20
2.3772150414
 11
17.8378142094
 21
2.4285200698
  0
LINE
  5
3A1
100
AcDbEntity
  8
0
100
AcDbLine
 62
2
  6
CONTINUOUS
 10
17.8378142094
 20
2.4532700835
 11
17.8378142094
 21
2.5720261536
  0
LINE
  5
3A2
100
AcDbEntity
  8
0
100
AcDbLine
 62
2
  6
CONTINUOUS
 10
17.8178141984
 20
2.2299397525
 11
17.8178141984
 21
2.5732923573
  0
LINE
  5
3A3
100
AcDbEntity
  8
0
100
AcDbLine
 62
2
  6
CONTINUOUS
 10
17.7978141873
 20
2.2286735487
 11
17.7978141873
 21
2.4285200698
  0
LINE
  5
3A4
100
AcDbEntity
  8
0
100
AcDbLine
 62
2
  6
CONTINUOUS
 10
17.7978141873
 20
2.4532700835
 11
17.7978141873
 21
2.574558561
  0
LINE
  5
3A5
100
AcDbEntity
  8
0
100
AcDbLine
 62
2
  6
CONTINUOUS
 10
17.7778141762
 20
2.227407345
 11
17.7778141762
 21
2.3524650276
  0
LINE
  5
3A6
100
AcDbEntity
  8
0
100
AcDbLine
 62
2
  6
CONTINUOUS
 10
17.7778141762
 20
2.4532700835
 11
17.7778141762
 21
2.5758247648
  0
LINE
  5
3A7
100
AcDbEntity
  8
0
100
AcDbLine
 62
2
  6
CONTINUOUS
 10
17.7578141651
 20
2.2261411413
 11
17.7578141651
 21
2.3524650276
  0
LINE
  5
3A8
100
AcDbEntity
  8
0
100
AcDbLine
 62
2
  6
CONTINUOUS
 10
17.7578141651
 20
2.4532700835
 11
17.7578141651
 21
2.5770909685
  0
LINE
  5
3A9
100
AcDbEntity
  8
0
100
AcDbLine
 62
2
  6
CONTINUOUS
 10
17.737814154
 20
2.2249117066
 11
17.737814154
 21
2.3524650276
  0
LINE
  5
3AA
100
AcDbEntity
  8
0
100
AcDbLine
 62
2
  6
CONTINUOUS
 10
17.737814154
 20
2.4087649542
 11
17.737814154
 21
2.4285200698
  0
LINE
  5
3AB
100
AcDbEntity
  8
0
100
AcDbLine
 62
2
  6
CONTINUOUS
 10
17.737814154
 20
2.4532700835
 11
17.737814154
 21
2.5783204031
  0
LINE
  5
3AC
100
AcDbEntity
  8
0
100
AcDbLine
 62
2
  6
CONTINUOUS
 10
17.7178141429
 20
2.2243809174
 11
17.7178141429
 21
2.3524650276
  0
LINE
  5
3AD
100
AcDbEntity
  8
0
100
AcDbLine
 62
2
  6
CONTINUOUS
 10
17.7178141429
 20
2.4278478026
 11
17.7178141429
 21
2.5788511924
  0
LINE
  5
3AE
100
AcDbEntity
  8
0
100
AcDbLine
 62
2
  6
CONTINUOUS
 10
17.6978141318
 20
2.2238501282
 11
17.6978141318
 21
2.3648303444
  0
LINE
  5
3AF
100
AcDbEntity
  8
0
100
AcDbLine
 62
2
  6
CONTINUOUS
 10
17.6978141318
 20
2.446930651
 11
17.6978141318
 21
2.5793819816
  0
LINE
  5
3B0
100
AcDbEntity
  8
0
100
AcDbLine
 62
2
  6
CONTINUOUS
 10
17.6778141207
 20
2.223319339
 11
17.6778141207
 21
2.3839131616
  0
LINE
  5
3B1
100
AcDbEntity
  8
0
100
AcDbLine
 62
2
  6
CONTINUOUS
 10
17.6778141207
 20
2.4532700835
 11
17.6778141207
 21
2.5799127708
  0
LINE
  5
3B2
100
AcDbEntity
  8
0
100
AcDbLine
 62
2
  6
CONTINUOUS
 10
17.6578141096
 20
2.2227885498
 11
17.6578141096
 21
2.3524650276
  0
LINE
  5
3B3
100
AcDbEntity
  8
0
100
AcDbLine
 62
2
  6
CONTINUOUS
 10
17.6578141096
 20
2.3772150414
 11
17.6578141096
 21
2.4029959788
  0
LINE
  5
3B4
100
AcDbEntity
  8
0
100
AcDbLine
 62
2
  6
CONTINUOUS
 10
17.6578141096
 20
2.4532700835
 11
17.6578141096
 21
2.58044356
  0
LINE
  5
3B5
100
AcDbEntity
  8
0
100
AcDbLine
 62
2
  6
CONTINUOUS
 10
17.6378140985
 20
2.2222577606
 11
17.6378140985
 21
2.3524650276
  0
LINE
  5
3B6
100
AcDbEntity
  8
0
100
AcDbLine
 62
2
  6
CONTINUOUS
 10
17.6378140985
 20
2.4532700835
 11
17.6378140985
 21
2.5809743492
  0
LINE
  5
3B7
100
AcDbEntity
  8
0
100
AcDbLine
 62
2
  6
CONTINUOUS
 10
17.6178140874
 20
2.2217269714
 11
17.6178140874
 21
2.3524650276
  0
LINE
  5
3B8
100
AcDbEntity
  8
0
100
AcDbLine
 62
2
  6
CONTINUOUS
 10
17.6178140874
 20
2.4532700835
 11
17.6178140874
 21
2.5815051384
  0
LINE
  5
3B9
100
AcDbEntity
  8
0
100
AcDbLine
 62
2
  6
CONTINUOUS
 10
17.5978140764
 20
2.2215213152
 11
17.5978140764
 21
2.3524650276
  0
LINE
  5
3BA
100
AcDbEntity
  8
0
100
AcDbLine
 62
2
  6
CONTINUOUS
 10
17.5978140764
 20
2.3772150414
 11
17.5978140764
 21
2.4285200698
  0
LINE
  5
3BB
100
AcDbEntity
  8
0
100
AcDbLine
 62
2
  6
CONTINUOUS
 10
17.5978140764
 20
2.4532700835
 11
17.5978140764
 21
2.5817107946
  0
LINE
  5
3BC
100
AcDbEntity
  8
0
100
AcDbLine
 62
2
  6
CONTINUOUS
 10
17.5778140653
 20
2.2216974783
 11
17.5778140653
 21
2.5815346315
  0
LINE
  5
3BD
100
AcDbEntity
  8
0
100
AcDbLine
 62
2
  6
CONTINUOUS
 10
17.5578140542
 20
2.2218736414
 11
17.5578140542
 21
2.4285200698
  0
LINE
  5
3BE
100
AcDbEntity
  8
0
100
AcDbLine
 62
2
  6
CONTINUOUS
 10
17.5578140542
 20
2.4532700835
 11
17.5578140542
 21
2.5813584684
  0
LINE
  5
3BF
100
AcDbEntity
  8
0
100
AcDbLine
 62
2
  6
CONTINUOUS
 10
17.5378140431
 20
2.2220498045
 11
17.5378140431
 21
2.3524700714
  0
LINE
  5
3C0
100
AcDbEntity
  8
0
100
AcDbLine
 62
2
  6
CONTINUOUS
 10
17.5378140431
 20
2.4532700835
 11
17.5378140431
 21
2.5811823053
  0
LINE
  5
3C1
100
AcDbEntity
  8
0
100
AcDbLine
 62
2
  6
CONTINUOUS
 10
17.517814032
 20
2.2222259676
 11
17.517814032
 21
2.3524650276
  0
LINE
  5
3C2
100
AcDbEntity
  8
0
100
AcDbLine
 62
2
  6
CONTINUOUS
 10
17.517814032
 20
2.4532700835
 11
17.517814032
 21
2.5810061422
  0
LINE
  5
3C3
100
AcDbEntity
  8
0
100
AcDbLine
 62
2
  6
CONTINUOUS
 10
17.4978140209
 20
2.2224021307
 11
17.4978140209
 21
2.3524650276
  0
LINE
  5
3C4
100
AcDbEntity
  8
0
100
AcDbLine
 62
2
  6
CONTINUOUS
 10
17.4978140209
 20
2.4008904169
 11
17.4978140209
 21
2.4285200698
  0
LINE
  5
3C5
100
AcDbEntity
  8
0
100
AcDbLine
 62
2
  6
CONTINUOUS
 10
17.4978140209
 20
2.4532700835
 11
17.4978140209
 21
2.5808299791
  0
LINE
  5
3C6
100
AcDbEntity
  8
0
100
AcDbLine
 62
2
  6
CONTINUOUS
 10
17.4778140098
 20
2.2225782938
 11
17.4778140098
 21
2.3524650276
  0
LINE
  5
3C7
100
AcDbEntity
  8
0
100
AcDbLine
 62
2
  6
CONTINUOUS
 10
17.4778140098
 20
2.4199732652
 11
17.4778140098
 21
2.580653816
  0
LINE
  5
3C8
100
AcDbEntity
  8
0
100
AcDbLine
 62
2
  6
CONTINUOUS
 10
17.4578139987
 20
2.2233466716
 11
17.4578139987
 21
2.3569558199
  0
LINE
  5
3C9
100
AcDbEntity
  8
0
100
AcDbLine
 62
2
  6
CONTINUOUS
 10
17.4578139987
 20
2.4390561136
 11
17.4578139987
 21
2.5798854382
  0
LINE
  5
3CA
100
AcDbEntity
  8
0
100
AcDbLine
 62
2
  6
CONTINUOUS
 10
17.4378139876
 20
2.2242391079
 11
17.4378139876
 21
2.3760386371
  0
LINE
  5
3CB
100
AcDbEntity
  8
0
100
AcDbLine
 62
2
  6
CONTINUOUS
 10
17.4378139876
 20
2.4532700835
 11
17.4378139876
 21
2.5789930018
  0
LINE
  5
3CC
100
AcDbEntity
  8
0
100
AcDbLine
 62
2
  6
CONTINUOUS
 10
17.4178139765
 20
2.2251315443
 11
17.4178139765
 21
2.3525640362
  0
LINE
  5
3CD
100
AcDbEntity
  8
0
100
AcDbLine
 62
2
  6
CONTINUOUS
 10
17.4178139765
 20
2.3771160328
 11
17.4178139765
 21
2.3951214543
  0
LINE
  5
3CE
100
AcDbEntity
  8
0
100
AcDbLine
 62
2
  6
CONTINUOUS
 10
17.4178139765
 20
2.4532700835
 11
17.4178139765
 21
2.5781005655
  0
LINE
  5
3CF
100
AcDbEntity
  8
0
100
AcDbLine
 62
2
  6
CONTINUOUS
 10
17.3978139654
 20
2.2260239807
 11
17.3978139654
 21
2.3524650276
  0
LINE
  5
3D0
100
AcDbEntity
  8
0
100
AcDbLine
 62
2
  6
CONTINUOUS
 10
17.3978139654
 20
2.3772150414
 11
17.3978139654
 21
2.4139978698
  0
LINE
  5
3D1
100
AcDbEntity
  8
0
100
AcDbLine
 62
2
  6
CONTINUOUS
 10
17.3978139654
 20
2.4532700835
 11
17.3978139654
 21
2.5772081291
  0
LINE
  5
3D2
100
AcDbEntity
  8
0
100
AcDbLine
 62
2
  6
CONTINUOUS
 10
17.3778139543
 20
2.226916417
 11
17.3778139543
 21
2.3524650276
  0
LINE
  5
3D3
100
AcDbEntity
  8
0
100
AcDbLine
 62
2
  6
CONTINUOUS
 10
17.3778139543
 20
2.4532700835
 11
17.3778139543
 21
2.5763156928
  0
LINE
  5
3D4
100
AcDbEntity
  8
0
100
AcDbLine
 62
2
  6
CONTINUOUS
 10
17.3578139433
 20
2.2278088534
 11
17.3578139433
 21
2.3524650276
  0
LINE
  5
3D5
100
AcDbEntity
  8
0
100
AcDbLine
 62
2
  6
CONTINUOUS
 10
17.3578139433
 20
2.3772150414
 11
17.3578139433
 21
2.4285200698
  0
LINE
  5
3D6
100
AcDbEntity
  8
0
100
AcDbLine
 62
2
  6
CONTINUOUS
 10
17.3578139433
 20
2.4532700835
 11
17.3578139433
 21
2.5754232564
  0
LINE
  5
3D7
100
AcDbEntity
  8
0
100
AcDbLine
 62
2
  6
CONTINUOUS
 10
17.3378139322
 20
2.2289481171
 11
17.3378139322
 21
2.5742839927
  0
LINE
  5
3D8
100
AcDbEntity
  8
0
100
AcDbLine
 62
2
  6
CONTINUOUS
 10
17.3178139211
 20
2.2306059865
 11
17.3178139211
 21
2.5726261233
  0
LINE
  5
3D9
100
AcDbEntity
  8
0
100
AcDbLine
 62
2
  6
CONTINUOUS
 10
17.29781391
 20
2.2322638559
 11
17.29781391
 21
2.3524650276
  0
LINE
  5
3DA
100
AcDbEntity
  8
0
100
AcDbLine
 62
2
  6
CONTINUOUS
 10
17.29781391
 20
2.3772150414
 11
17.29781391
 21
2.5709682538
  0
LINE
  5
3DB
100
AcDbEntity
  8
0
100
AcDbLine
 62
2
  6
CONTINUOUS
 10
17.2778138989
 20
2.2339217254
 11
17.2778138989
 21
2.3524650276
  0
LINE
  5
3DC
100
AcDbEntity
  8
0
100
AcDbLine
 62
2
  6
CONTINUOUS
 10
17.2778138989
 20
2.3963499423
 11
17.2778138989
 21
2.5693103844
  0
LINE
  5
3DD
100
AcDbEntity
  8
0
100
AcDbLine
 62
2
  6
CONTINUOUS
 10
17.2578138878
 20
2.2355795948
 11
17.2578138878
 21
2.3524650276
  0
LINE
  5
3DE
100
AcDbEntity
  8
0
100
AcDbLine
 62
2
  6
CONTINUOUS
 10
17.2578138878
 20
2.4272549766
 11
17.2578138878
 21
2.567652515
  0
LINE
  5
3DF
100
AcDbEntity
  8
0
100
AcDbLine
 62
2
  6
CONTINUOUS
 10
17.2378138767
 20
2.2372374642
 11
17.2378138767
 21
2.3524650276
  0
LINE
  5
3E0
100
AcDbEntity
  8
0
100
AcDbLine
 62
2
  6
CONTINUOUS
 10
17.2378138767
 20
2.4532700835
 11
17.2378138767
 21
2.5659946456
  0
LINE
  5
3E1
100
AcDbEntity
  8
0
100
AcDbLine
 62
2
  6
CONTINUOUS
 10
17.2178138656
 20
2.2389952421
 11
17.2178138656
 21
2.3524650276
  0
LINE
  5
3E2
100
AcDbEntity
  8
0
100
AcDbLine
 62
2
  6
CONTINUOUS
 10
17.2178138656
 20
2.3772150414
 11
17.2178138656
 21
2.3887495968
  0
LINE
  5
3E3
100
AcDbEntity
  8
0
100
AcDbLine
 62
2
  6
CONTINUOUS
 10
17.2178138656
 20
2.4532700835
 11
17.2178138656
 21
2.5642368677
  0
LINE
  5
3E4
100
AcDbEntity
  8
0
100
AcDbLine
 62
2
  6
CONTINUOUS
 10
17.1978138545
 20
2.2415190955
 11
17.1978138545
 21
2.3908590489
  0
LINE
  5
3E5
100
AcDbEntity
  8
0
100
AcDbLine
 62
2
  6
CONTINUOUS
 10
17.1978138545
 20
2.4118090605
 11
17.1978138545
 21
2.4279760695
  0
LINE
  5
3E6
100
AcDbEntity
  8
0
100
AcDbLine
 62
2
  6
CONTINUOUS
 10
17.1978138545
 20
2.4532700835
 11
17.1978138545
 21
2.5617130143
  0
LINE
  5
3E7
100
AcDbEntity
  8
0
100
AcDbLine
 62
2
  6
CONTINUOUS
 10
17.1778138434
 20
2.244042949
 11
17.1778138434
 21
2.3524650276
  0
LINE
  5
3E8
100
AcDbEntity
  8
0
100
AcDbLine
 62
2
  6
CONTINUOUS
 10
17.1778138434
 20
2.3772150414
 11
17.1778138434
 21
2.3892044865
  0
LINE
  5
3E9
100
AcDbEntity
  8
0
100
AcDbLine
 62
2
  6
CONTINUOUS
 10
17.1778138434
 20
2.4480979218
 11
17.1778138434
 21
2.5591891608
  0
LINE
  5
3EA
100
AcDbEntity
  8
0
100
AcDbLine
 62
2
  6
CONTINUOUS
 10
17.1578138323
 20
2.2465668024
 11
17.1578138323
 21
2.3524650276
  0
LINE
  5
3EB
100
AcDbEntity
  8
0
100
AcDbLine
 62
2
  6
CONTINUOUS
 10
17.1578138323
 20
2.4165778189
 11
17.1578138323
 21
2.5566653073
  0
LINE
  5
3EC
100
AcDbEntity
  8
0
100
AcDbLine
 62
2
  6
CONTINUOUS
 10
17.1378138213
 20
2.2490906559
 11
17.1378138213
 21
2.3524650276
  0
LINE
  5
3ED
100
AcDbEntity
  8
0
100
AcDbLine
 62
2
  6
CONTINUOUS
 10
17.1378138213
 20
2.3850577159
 11
17.1378138213
 21
2.5541414539
  0
LINE
  5
3EE
100
AcDbEntity
  8
0
100
AcDbLine
 62
2
  6
CONTINUOUS
 10
17.1178138102
 20
2.2516145094
 11
17.1178138102
 21
2.3524650276
  0
LINE
  5
3EF
100
AcDbEntity
  8
0
100
AcDbLine
 62
2
  6
CONTINUOUS
 10
17.1178138102
 20
2.3772150414
 11
17.1178138102
 21
2.5516176004
  0
LINE
  5
3F0
100
AcDbEntity
  8
0
100
AcDbLine
 62
2
  6
CONTINUOUS
 10
17.0978137991
 20
2.2544171186
 11
17.0978137991
 21
2.5488149912
  0
LINE
  5
3F1
100
AcDbEntity
  8
0
100
AcDbLine
 62
2
  6
CONTINUOUS
 10
17.077813788
 20
2.2577020445
 11
17.077813788
 21
2.362615113
  0
LINE
  5
3F2
100
AcDbEntity
  8
0
100
AcDbLine
 62
2
  6
CONTINUOUS
 10
17.077813788
 20
2.3938117115
 11
17.077813788
 21
2.4149601455
  0
LINE
  5
3F3
100
AcDbEntity
  8
0
100
AcDbLine
 62
2
  6
CONTINUOUS
 10
17.077813788
 20
2.4403850542
 11
17.077813788
 21
2.5455300653
  0
LINE
  5
3F4
100
AcDbEntity
  8
0
100
AcDbLine
 62
2
  6
CONTINUOUS
 10
17.0578137769
 20
2.2609869704
 11
17.0578137769
 21
2.3533399802
  0
LINE
  5
3F5
100
AcDbEntity
  8
0
100
AcDbLine
 62
2
  6
CONTINUOUS
 10
17.0578137769
 20
2.4508307102
 11
17.0578137769
 21
2.5422451394
  0
LINE
  5
3F6
100
AcDbEntity
  8
0
100
AcDbLine
 62
2
  6
CONTINUOUS
 10
17.0378137658
 20
2.2646895914
 11
17.0378137658
 21
2.3524650276
  0
LINE
  5
3F7
100
AcDbEntity
  8
0
100
AcDbLine
 62
2
  6
CONTINUOUS
 10
17.0378137658
 20
2.4532700835
 11
17.0378137658
 21
2.5385425184
  0
LINE
  5
3F8
100
AcDbEntity
  8
0
100
AcDbLine
 62
2
  6
CONTINUOUS
 10
17.0178137547
 20
2.2685623514
 11
17.0178137547
 21
2.3524650276
  0
LINE
  5
3F9
100
AcDbEntity
  8
0
100
AcDbLine
 62
2
  6
CONTINUOUS
 10
17.0178137547
 20
2.4532700835
 11
17.0178137547
 21
2.5346697584
  0
LINE
  5
3FA
100
AcDbEntity
  8
0
100
AcDbLine
 62
2
  6
CONTINUOUS
 10
16.9978137436
 20
2.2725871112
 11
16.9978137436
 21
2.3524650276
  0
LINE
  5
3FB
100
AcDbEntity
  8
0
100
AcDbLine
 62
2
  6
CONTINUOUS
 10
16.9978137436
 20
2.3772150414
 11
16.9978137436
 21
2.394540051
  0
LINE
  5
3FC
100
AcDbEntity
  8
0
100
AcDbLine
 62
2
  6
CONTINUOUS
 10
16.9978137436
 20
2.4111950602
 11
16.9978137436
 21
2.4285200698
  0
LINE
  5
3FD
100
AcDbEntity
  8
0
100
AcDbLine
 62
2
  6
CONTINUOUS
 10
16.9978137436
 20
2.4532700835
 11
16.9978137436
 21
2.5306449986
  0
LINE
  5
3FE
100
AcDbEntity
  8
0
100
AcDbLine
 62
2
  6
CONTINUOUS
 10
16.9778137325
 20
2.2771382649
 11
16.9778137325
 21
2.3524650276
  0
LINE
  5
3FF
100
AcDbEntity
  8
0
100
AcDbLine
 62
2
  6
CONTINUOUS
 10
16.9778137325
 20
2.3772150414
 11
16.9778137325
 21
2.394540051
  0
LINE
  5
400
100
AcDbEntity
  8
0
100
AcDbLine
 62
2
  6
CONTINUOUS
 10
16.9778137325
 20
2.4111950602
 11
16.9778137325
 21
2.4285200698
  0
LINE
  5
401
100
AcDbEntity
  8
0
100
AcDbLine
 62
2
  6
CONTINUOUS
 10
16.9778137325
 20
2.4532700835
 11
16.9778137325
 21
2.5260938449
  0
LINE
  5
402
100
AcDbEntity
  8
0
100
AcDbLine
 62
2
  6
CONTINUOUS
 10
16.9578137214
 20
2.2816894185
 11
16.9578137214
 21
2.3524650276
  0
LINE
  5
403
100
AcDbEntity
  8
0
100
AcDbLine
 62
2
  6
CONTINUOUS
 10
16.9578137214
 20
2.4532700835
 11
16.9578137214
 21
2.5215426913
  0
LINE
  5
404
100
AcDbEntity
  8
0
100
AcDbLine
 62
2
  6
CONTINUOUS
 10
16.9378137103
 20
2.2869815362
 11
16.9378137103
 21
2.3524650276
  0
LINE
  5
405
100
AcDbEntity
  8
0
100
AcDbLine
 62
2
  6
CONTINUOUS
 10
16.9378137103
 20
2.4532700835
 11
16.9378137103
 21
2.5162505736
  0
LINE
  5
406
100
AcDbEntity
  8
0
100
AcDbLine
 62
2
  6
CONTINUOUS
 10
16.9178136992
 20
2.2923355811
 11
16.9178136992
 21
2.3524650276
  0
LINE
  5
407
100
AcDbEntity
  8
0
100
AcDbLine
 62
2
  6
CONTINUOUS
 10
16.9178136992
 20
2.4532700835
 11
16.9178136992
 21
2.5108965286
  0
LINE
  5
408
100
AcDbEntity
  8
0
100
AcDbLine
 62
2
  6
CONTINUOUS
 10
16.8978136882
 20
2.2984943577
 11
16.8978136882
 21
2.3524650276
  0
LINE
  5
409
100
AcDbEntity
  8
0
100
AcDbLine
 62
2
  6
CONTINUOUS
 10
16.8978136882
 20
2.3772150414
 11
16.8978136882
 21
2.4285200698
  0
LINE
  5
40A
100
AcDbEntity
  8
0
100
AcDbLine
 62
2
  6
CONTINUOUS
 10
16.8978136882
 20
2.4532700835
 11
16.8978136882
 21
2.5047377521
  0
LINE
  5
40B
100
AcDbEntity
  8
0
100
AcDbLine
 62
2
  6
CONTINUOUS
 10
16.8778136771
 20
2.3048274854
 11
16.8778136771
 21
2.3524650276
  0
LINE
  5
40C
100
AcDbEntity
  8
0
100
AcDbLine
 62
2
  6
CONTINUOUS
 10
16.8778136771
 20
2.3772150414
 11
16.8778136771
 21
2.4285200698
  0
LINE
  5
40D
100
AcDbEntity
  8
0
100
AcDbLine
 62
2
  6
CONTINUOUS
 10
16.8778136771
 20
2.4532700835
 11
16.8778136771
 21
2.4984046244
  0
LINE
  5
40E
100
AcDbEntity
  8
0
100
AcDbLine
 62
2
  6
CONTINUOUS
 10
16.857813666
 20
2.312318358
 11
16.857813666
 21
2.4909137517
  0
LINE
  5
40F
100
AcDbEntity
  8
0
100
AcDbLine
 62
2
  6
CONTINUOUS
 10
16.8378136549
 20
2.3203393667
 11
16.8378136549
 21
2.4828927431
  0
LINE
  5
410
100
AcDbEntity
  8
0
100
AcDbLine
 62
2
  6
CONTINUOUS
 10
16.8178136438
 20
2.3295519864
 11
16.8178136438
 21
2.4736801234
  0
LINE
  5
411
100
AcDbEntity
  8
0
100
AcDbLine
 62
2
  6
CONTINUOUS
 10
16.7978136327
 20
2.3407309483
 11
16.7978136327
 21
2.4625011614
  0
LINE
  5
412
100
AcDbEntity
  8
0
100
AcDbLine
 62
2
  6
CONTINUOUS
 10
16.7778136216
 20
2.3546527809
 11
16.7778136216
 21
2.4485793288
  0
LINE
  5
413
100
AcDbEntity
  8
0
100
AcDbLine
 62
2
  6
CONTINUOUS
 10
16.7578136105
 20
2.3756826696
 11
16.7578136105
 21
2.4275494401
  0
ENDBLK
  5
414
100
AcDbEntity
  8
0
  6
BYBLOCK
 62
0
100
AcDbBlockEnd
  0
BLOCK
  5
415
100
AcDbEntity
  8
SCHEME_DIMS
100
AcDbBlockBegin
 62
2
  6
CONTINUOUS
  2
*D0
 70
65
 10
0.0
 20
0.0
  3
*D0
  1

  0
TEXT
  5
416
100
AcDbEntity
  8
SCHEME_DIMS
100
AcDbText
 62
2
  6
CONTINUOUS
 10
8.3170929293
 20
13.5422838233
  7
STANDARD
 40
0.1
  1
30
 41
1.0
 72
0
100
AcDbText
  0
TEXT
  5
417
100
AcDbEntity
  8
SCHEME_DIMS
100
AcDbText
 62
2
  6
CONTINUOUS
 10
8.4170929293
 20
13.3922838233
  7
STANDARD
 40
0.1
  1
1.18
 41
1.0
 72
0
100
AcDbText
  0
TEXT
  5
418
100
AcDbEntity
  8
SCHEME_DIMS
100
AcDbText
 62
2
  6
CONTINUOUS
 10
8.3170929293
 20
13.3922838233
  7
STANDARD
 40
0.1
  1
[
 41
1.0
 72
0
100
AcDbText
  0
TEXT
  5
419
100
AcDbEntity
  8
SCHEME_DIMS
100
AcDbText
 62
2
  6
CONTINUOUS
 10
8.8170929293
 20
13.3922838233
  7
STANDARD
 40
0.1
  1
]
 41
1.0
 72
0
100
AcDbText
  0
LINE
  5
41A
100
AcDbEntity
  8
SCHEME_DIMS
100
AcDbLine
 62
2
  6
CONTINUOUS
 10
9.16312354
 20
13.0017326422
 11
8.4920929293
 21
13.0017326422
  0
LINE
  5
41B
100
AcDbEntity
  8
SCHEME_DIMS
100
AcDbLine
 62
2
  6
CONTINUOUS
 10
9.1766616132
 20
14.1828350044
 11
8.4920929293
 21
14.1828350044
  0
LINE
  5
41C
100
AcDbEntity
  8
SCHEME_DIMS
100
AcDbLine
 62
2
  6
CONTINUOUS
 10
8.6170929293
 20
13.0017326422
 11
8.6170929293
 21
13.2922838233
  0
LINE
  5
41D
100
AcDbEntity
  8
SCHEME_DIMS
100
AcDbLine
 62
2
  6
CONTINUOUS
 10
8.6170929293
 20
14.1828350044
 11
8.6170929293
 21
13.7422838233
  0
INSERT
  5
41E
100
AcDbEntity
  8
SCHEME_DIMS
100
AcDbBlockReference
 62
2
  6
CONTINUOUS
  2
_FILLED
 10
8.6170929293
 20
13.0017326422
 41
0.1875
 42
0.1875
 43
0.1875
 50
270.0
  0
INSERT
  5
41F
100
AcDbEntity
  8
SCHEME_DIMS
100
AcDbBlockReference
 62
2
  6
CONTINUOUS
  2
_FILLED
 10
8.6170929293
 20
14.1828350044
 41
0.1875
 42
0.1875
 43
0.1875
 50
90.0
  0
ENDBLK
  5
420
100
AcDbEntity
  8
0
  6
BYBLOCK
 62
0
100
AcDbBlockEnd
  0
BLOCK
  5
421
100
AcDbEntity
  8
SCHEME_DIMS
100
AcDbBlockBegin
 62
2
  6
CONTINUOUS
  2
*D1
 70
65
 10
0.0
 20
0.0
  3
*D1
  1

  0
TEXT
  5
422
100
AcDbEntity
  8
SCHEME_DIMS
100
AcDbText
 62
2
  6
CONTINUOUS
 10
10.5148341489
 20
14.991853023
  7
STANDARD
 40
0.1
  1
78,45
 41
1.0
 72
0
100
AcDbText
  0
TEXT
  5
423
100
AcDbEntity
  8
SCHEME_DIMS
100
AcDbText
 62
2
  6
CONTINUOUS
 10
10.6148341489
 20
14.841853023
  7
STANDARD
 40
0.1
  1
3.09
 41
1.0
 72
0
100
AcDbText
  0
TEXT
  5
424
100
AcDbEntity
  8
SCHEME_DIMS
100
AcDbText
 62
2
  6
CONTINUOUS
 10
10.5148341489
 20
14.841853023
  7
STANDARD
 40
0.1
  1
[
 41
1.0
 72
0
100
AcDbText
  0
TEXT
  5
425
100
AcDbEntity
  8
SCHEME_DIMS
100
AcDbText
 62
2
  6
CONTINUOUS
 10
11.0148341489
 20
14.841853023
  7
STANDARD
 40
0.1
  1
]
 41
1.0
 72
0
100
AcDbText
  0
LINE
  5
426
100
AcDbEntity
  8
SCHEME_DIMS
100
AcDbLine
 62
2
  6
CONTINUOUS
 10
9.2705428104
 20
14.2228940595
 11
9.2705428104
 21
15.166853023
  0
LINE
  5
427
100
AcDbEntity
  8
SCHEME_DIMS
100
AcDbLine
 62
2
  6
CONTINUOUS
 10
12.3591254875
 20
14.211398342
 11
12.3591254875
 21
15.166853023
  0
LINE
  5
428
100
AcDbEntity
  8
SCHEME_DIMS
100
AcDbLine
 62
2
  6
CONTINUOUS
 10
9.2705428104
 20
15.041853023
 11
10.4148341489
 21
15.041853023
  0
LINE
  5
429
100
AcDbEntity
  8
SCHEME_DIMS
100
AcDbLine
 62
2
  6
CONTINUOUS
 10
12.3591254875
 20
15.041853023
 11
11.2148341489
 21
15.041853023
  0
INSERT
  5
42A
100
AcDbEntity
  8
SCHEME_DIMS
100
AcDbBlockReference
 62
2
  6
CONTINUOUS
  2
_FILLED
 10
9.2705428104
 20
15.041853023
 41
0.1875
 42
0.1875
 43
0.1875
 50
180.0
  0
INSERT
  5
42B
100
AcDbEntity
  8
SCHEME_DIMS
100
AcDbBlockReference
 62
2
  6
CONTINUOUS
  2
_FILLED
 10
12.3591254875
 20
15.041853023
 41
0.1875
 42
0.1875
 43
0.1875
  0
ENDBLK
  5
42C
100
AcDbEntity
  8
0
  6
BYBLOCK
 62
0
100
AcDbBlockEnd
  0
BLOCK
  5
42D
100
AcDbEntity
  8
SCHEME_DIMS
100
AcDbBlockBegin
 62
2
  6
CONTINUOUS
  2
*D2
 70
65
 10
0.0
 20
0.0
  3
*D2
  1

  0
TEXT
  5
42E
100
AcDbEntity
  8
SCHEME_DIMS
100
AcDbText
 62
2
  6
CONTINUOUS
 10
10.6132593458
 20
11.9142077014
  7
STANDARD
 40
0.1
  1
83,45
 41
1.0
 72
0
100
AcDbText
  0
TEXT
  5
42F
100
AcDbEntity
  8
SCHEME_DIMS
100
AcDbText
 62
2
  6
CONTINUOUS
 10
10.7132593458
 20
11.7642077014
  7
STANDARD
 40
0.1
  1
3.29
 41
1.0
 72
0
100
AcDbText
  0
TEXT
  5
430
100
AcDbEntity
  8
SCHEME_DIMS
100
AcDbText
 62
2
  6
CONTINUOUS
 10
10.6132593458
 20
11.7642077014
  7
STANDARD
 40
0.1
  1
[
 41
1.0
 72
0
100
AcDbText
  0
TEXT
  5
431
100
AcDbEntity
  8
SCHEME_DIMS
100
AcDbText
 62
2
  6
CONTINUOUS
 10
11.1132593458
 20
11.7642077014
  7
STANDARD
 40
0.1
  1
]
 41
1.0
 72
0
100
AcDbText
  0
LINE
  5
432
100
AcDbEntity
  8
SCHEME_DIMS
100
AcDbLine
 62
2
  6
CONTINUOUS
 10
9.2705428104
 20
10.7786826661
 11
9.2705428104
 21
12.0892077014
  0
LINE
  5
433
100
AcDbEntity
  8
SCHEME_DIMS
100
AcDbLine
 62
2
  6
CONTINUOUS
 10
12.5559758812
 20
10.4448243984
 11
12.5559758812
 21
12.0892077014
  0
LINE
  5
434
100
AcDbEntity
  8
SCHEME_DIMS
100
AcDbLine
 62
2
  6
CONTINUOUS
 10
9.2705428104
 20
11.9642077014
 11
10.5132593458
 21
11.9642077014
  0
LINE
  5
435
100
AcDbEntity
  8
SCHEME_DIMS
100
AcDbLine
 62
2
  6
CONTINUOUS
 10
12.5559758812
 20
11.9642077014
 11
11.3132593458
 21
11.9642077014
  0
INSERT
  5
436
100
AcDbEntity
  8
SCHEME_DIMS
100
AcDbBlockReference
 62
2
  6
CONTINUOUS
  2
_FILLED
 10
9.2705428104
 20
11.9642077014
 41
0.1875
 42
0.1875
 43
0.1875
 50
180.0
  0
INSERT
  5
437
100
AcDbEntity
  8
SCHEME_DIMS
100
AcDbBlockReference
 62
2
  6
CONTINUOUS
  2
_FILLED
 10
12.5559758812
 20
11.9642077014
 41
0.1875
 42
0.1875
 43
0.1875
  0
ENDBLK
  5
438
100
AcDbEntity
  8
0
  6
BYBLOCK
 62
0
100
AcDbBlockEnd
  0
BLOCK
  5
439
100
AcDbEntity
  8
SCHEME_DIMS
100
AcDbBlockBegin
 62
2
  6
CONTINUOUS
  2
*D3
 70
65
 10
0.0
 20
0.0
  3
*D3
  1

  0
TEXT
  5
43A
100
AcDbEntity
  8
SCHEME_DIMS
100
AcDbText
 62
2
  6
CONTINUOUS
 10
10.6052911326
 20
8.2799145524
  7
STANDARD
 40
0.1
  1
74,35
 41
1.0
 72
0
100
AcDbText
  0
TEXT
  5
43B
100
AcDbEntity
  8
SCHEME_DIMS
100
AcDbText
 62
2
  6
CONTINUOUS
 10
10.7052911326
 20
8.1299145524
  7
STANDARD
 40
0.1
  1
2.93
 41
1.0
 72
0
100
AcDbText
  0
TEXT
  5
43C
100
AcDbEntity
  8
SCHEME_DIMS
100
AcDbText
 62
2
  6
CONTINUOUS
 10
10.6052911326
 20
8.1299145524
  7
STANDARD
 40
0.1
  1
[
 41
1.0
 72
0
100
AcDbText
  0
TEXT
  5
43D
100
AcDbEntity
  8
SCHEME_DIMS
100
AcDbText
 62
2
  6
CONTINUOUS
 10
11.1052911326
 20
8.1299145524
  7
STANDARD
 40
0.1
  1
]
 41
1.0
 72
0
100
AcDbText
  0
LINE
  5
43E
100
AcDbEntity
  8
SCHEME_DIMS
100
AcDbLine
 62
2
  6
CONTINUOUS
 10
9.2705428104
 20
7.6019445875
 11
9.2705428104
 21
8.4549145524
  0
LINE
  5
43F
100
AcDbEntity
  8
SCHEME_DIMS
100
AcDbLine
 62
2
  6
CONTINUOUS
 10
12.1977081647
 20
7.2708656665
 11
12.1977081647
 21
8.4549145524
  0
LINE
  5
440
100
AcDbEntity
  8
SCHEME_DIMS
100
AcDbLine
 62
2
  6
CONTINUOUS
 10
9.2705428104
 20
8.3299145524
 11
10.5052911326
 21
8.3299145524
  0
LINE
  5
441
100
AcDbEntity
  8
SCHEME_DIMS
100
AcDbLine
 62
2
  6
CONTINUOUS
 10
12.1977081647
 20
8.3299145524
 11
11.3052911326
 21
8.3299145524
  0
INSERT
  5
442
100
AcDbEntity
  8
SCHEME_DIMS
100
AcDbBlockReference
 62
2
  6
CONTINUOUS
  2
_FILLED
 10
9.2705428104
 20
8.3299145524
 41
0.1875
 42
0.1875
 43
0.1875
 50
180.0
  0
INSERT
  5
443
100
AcDbEntity
  8
SCHEME_DIMS
100
AcDbBlockReference
 62
2
  6
CONTINUOUS
  2
_FILLED
 10
12.1977081647
 20
8.3299145524
 41
0.1875
 42
0.1875
 43
0.1875
  0
ENDBLK
  5
444
100
AcDbEntity
  8
0
  6
BYBLOCK
 62
0
100
AcDbBlockEnd
  0
BLOCK
  5
445
100
AcDbEntity
  8
SCHEME_DIMS
100
AcDbBlockBegin
 62
2
  6
CONTINUOUS
  2
*D4
 70
65
 10
0.0
 20
0.0
  3
*D4
  1

  0
TEXT
  5
446
100
AcDbEntity
  8
SCHEME_DIMS
100
AcDbText
 62
2
  6
CONTINUOUS
 10
6.3945113583
 20
10.0980724299
  7
STANDARD
 40
0.1
  1
32
 41
1.0
 72
0
100
AcDbText
  0
TEXT
  5
447
100
AcDbEntity
  8
SCHEME_DIMS
100
AcDbText
 62
2
  6
CONTINUOUS
 10
6.4945113583
 20
9.9480724299
  7
STANDARD
 40
0.1
  1
1.26
 41
1.0
 72
0
100
AcDbText
  0
TEXT
  5
448
100
AcDbEntity
  8
SCHEME_DIMS
100
AcDbText
 62
2
  6
CONTINUOUS
 10
6.3945113583
 20
9.9480724299
  7
STANDARD
 40
0.1
  1
[
 41
1.0
 72
0
100
AcDbText
  0
TEXT
  5
449
100
AcDbEntity
  8
SCHEME_DIMS
100
AcDbText
 62
2
  6
CONTINUOUS
 10
6.8945113583
 20
9.9480724299
  7
STANDARD
 40
0.1
  1
]
 41
1.0
 72
0
100
AcDbText
  0
LINE
  5
44A
100
AcDbEntity
  8
SCHEME_DIMS
100
AcDbLine
 62
2
  6
CONTINUOUS
 10
6.1817465535
 20
10.7779936897
 11
6.8195113583
 21
10.7779936897
  0
LINE
  5
44B
100
AcDbEntity
  8
SCHEME_DIMS
100
AcDbLine
 62
2
  6
CONTINUOUS
 10
6.1817465535
 20
9.5181511701
 11
6.8195113583
 21
9.5181511701
  0
LINE
  5
44C
100
AcDbEntity
  8
SCHEME_DIMS
100
AcDbLine
 62
2
  6
CONTINUOUS
 10
6.6945113583
 20
10.7779936897
 11
6.6945113583
 21
10.2980724299
  0
LINE
  5
44D
100
AcDbEntity
  8
SCHEME_DIMS
100
AcDbLine
 62
2
  6
CONTINUOUS
 10
6.6945113583
 20
9.5181511701
 11
6.6945113583
 21
9.8480724299
  0
INSERT
  5
44E
100
AcDbEntity
  8
SCHEME_DIMS
100
AcDbBlockReference
 62
2
  6
CONTINUOUS
  2
_FILLED
 10
6.6945113583
 20
10.7779936897
 41
0.1875
 42
0.1875
 43
0.1875
 50
90.0
  0
INSERT
  5
44F
100
AcDbEntity
  8
SCHEME_DIMS
100
AcDbBlockReference
 62
2
  6
CONTINUOUS
  2
_FILLED
 10
6.6945113583
 20
9.5181511701
 41
0.1875
 42
0.1875
 43
0.1875
 50
270.0
  0
ENDBLK
  5
450
100
AcDbEntity
  8
0
  6
BYBLOCK
 62
0
100
AcDbBlockEnd
  0
BLOCK
  5
451
100
AcDbEntity
  8
SCHEME_DIMS
100
AcDbBlockBegin
 62
2
  6
CONTINUOUS
  2
*D5
 70
65
 10
0.0
 20
0.0
  3
*D5
  1

  0
TEXT
  5
452
100
AcDbEntity
  8
SCHEME_DIMS
100
AcDbText
 62
2
  6
CONTINUOUS
 10
5.3271205692
 20
11.3485897171
  7
STANDARD
 40
0.1
  1
30
 41
1.0
 72
0
100
AcDbText
  0
TEXT
  5
453
100
AcDbEntity
  8
SCHEME_DIMS
100
AcDbText
 62
2
  6
CONTINUOUS
 10
5.4271205692
 20
11.1985897171
  7
STANDARD
 40
0.1
  1
1.18
 41
1.0
 72
0
100
AcDbText
  0
TEXT
  5
454
100
AcDbEntity
  8
SCHEME_DIMS
100
AcDbText
 62
2
  6
CONTINUOUS
 10
5.3271205692
 20
11.1985897171
  7
STANDARD
 40
0.1
  1
[
 41
1.0
 72
0
100
AcDbText
  0
TEXT
  5
455
100
AcDbEntity
  8
SCHEME_DIMS
100
AcDbText
 62
2
  6
CONTINUOUS
 10
5.8271205692
 20
11.1985897171
  7
STANDARD
 40
0.1
  1
]
 41
1.0
 72
0
100
AcDbText
  0
LINE
  5
456
100
AcDbEntity
  8
SCHEME_DIMS
100
AcDbLine
 62
2
  6
CONTINUOUS
 10
6.2176717503
 20
10.7420684929
 11
6.2176717503
 21
11.5235897171
  0
LINE
  5
457
100
AcDbEntity
  8
SCHEME_DIMS
100
AcDbLine
 62
2
  6
CONTINUOUS
 10
5.0365693881
 20
10.7420684929
 11
5.0365693881
 21
11.5235897171
  0
LINE
  5
458
100
AcDbEntity
  8
SCHEME_DIMS
100
AcDbLine
 62
2
  6
CONTINUOUS
 10
6.2176717503
 20
11.3985897171
 11
6.0271205692
 21
11.3985897171
  0
LINE
  5
459
100
AcDbEntity
  8
SCHEME_DIMS
100
AcDbLine
 62
2
  6
CONTINUOUS
 10
5.0365693881
 20
11.3985897171
 11
5.2271205692
 21
11.3985897171
  0
INSERT
  5
45A
100
AcDbEntity
  8
SCHEME_DIMS
100
AcDbBlockReference
 62
2
  6
CONTINUOUS
  2
_FILLED
 10
6.2176717503
 20
11.3985897171
 41
0.1875
 42
0.1875
 43
0.1875
  0
INSERT
  5
45B
100
AcDbEntity
  8
SCHEME_DIMS
100
AcDbBlockReference
 62
2
  6
CONTINUOUS
  2
_FILLED
 10
5.0365693881
 20
11.3985897171
 41
0.1875
 42
0.1875
 43
0.1875
 50
180.0
  0
ENDBLK
  5
45C
100
AcDbEntity
  8
0
  6
BYBLOCK
 62
0
100
AcDbBlockEnd
  0
BLOCK
  5
45D
100
AcDbEntity
  8
SCHEME_DIMS
100
AcDbBlockBegin
 62
2
  6
CONTINUOUS
  2
*D6
 70
65
 10
0.0
 20
0.0
  3
*D6
  1

  0
TEXT
  5
45E
100
AcDbEntity
  8
SCHEME_DIMS
100
AcDbText
 62
2
  6
CONTINUOUS
 10
9.4825506844
 20
5.0307958312
  7
STANDARD
 40
0.1
  1
3X
 41
1.0
 72
0
100
AcDbText
  0
TEXT
  5
45F
100
AcDbEntity
  8
SCHEME_DIMS
100
AcDbText
 62
2
  6
CONTINUOUS
 10
9.3325506844
 20
4.8807958312
  7
STANDARD
 40
0.1
  1
15,85
 41
1.0
 72
0
100
AcDbText
  0
TEXT
  5
460
100
AcDbEntity
  8
SCHEME_DIMS
100
AcDbText
 62
2
  6
CONTINUOUS
 10
9.4325506844
 20
4.7307958312
  7
STANDARD
 40
0.1
  1
.62
 41
1.0
 72
0
100
AcDbText
  0
TEXT
  5
461
100
AcDbEntity
  8
SCHEME_DIMS
100
AcDbText
 62
2
  6
CONTINUOUS
 10
9.3325506844
 20
4.7307958312
  7
STANDARD
 40
0.1
  1
[
 41
1.0
 72
0
100
AcDbText
  0
TEXT
  5
462
100
AcDbEntity
  8
SCHEME_DIMS
100
AcDbText
 62
2
  6
CONTINUOUS
 10
9.7325506844
 20
4.7307958312
  7
STANDARD
 40
0.1
  1
]
 41
1.0
 72
0
100
AcDbText
  0
LINE
  5
463
100
AcDbEntity
  8
SCHEME_DIMS
100
AcDbLine
 62
2
  6
CONTINUOUS
 10
9.2705428104
 20
4.2912288588
 11
9.2705428104
 21
5.0557958312
  0
LINE
  5
464
100
AcDbEntity
  8
SCHEME_DIMS
100
AcDbLine
 62
2
  6
CONTINUOUS
 10
9.8945585584
 20
3.8255435175
 11
9.8945585584
 21
5.0557958312
  0
LINE
  5
465
100
AcDbEntity
  8
SCHEME_DIMS
100
AcDbLine
 62
2
  6
CONTINUOUS
 10
9.2705428104
 20
4.9307958312
 11
8.8705428104
 21
4.9307958312
  0
LINE
  5
466
100
AcDbEntity
  8
SCHEME_DIMS
100
AcDbLine
 62
2
  6
CONTINUOUS
 10
9.8945585584
 20
4.9307958312
 11
10.2945585584
 21
4.9307958312
  0
INSERT
  5
467
100
AcDbEntity
  8
SCHEME_DIMS
100
AcDbBlockReference
 62
2
  6
CONTINUOUS
  2
_FILLED
 10
9.2705428104
 20
4.9307958312
 41
0.1875
 42
0.1875
 43
0.1875
  0
INSERT
  5
468
100
AcDbEntity
  8
SCHEME_DIMS
100
AcDbBlockReference
 62
2
  6
CONTINUOUS
  2
_FILLED
 10
9.8945585584
 20
4.9307958312
 41
0.1875
 42
0.1875
 43
0.1875
 50
180.0
  0
ENDBLK
  5
469
100
AcDbEntity
  8
0
  6
BYBLOCK
 62
0
100
AcDbBlockEnd
  0
BLOCK
  5
46A
100
AcDbEntity
  8
SCHEME_DIMS
100
AcDbBlockBegin
 62
2
  6
CONTINUOUS
  2
*D7
 70
65
 10
0.0
 20
0.0
  3
*D7
  1

  0
TEXT
  5
46B
100
AcDbEntity
  8
SCHEME_DIMS
100
AcDbText
 62
2
  6
CONTINUOUS
 10
10.9461333615
 20
5.0307958312
  7
STANDARD
 40
0.1
  1
3X
 41
1.0
 72
0
100
AcDbText
  0
TEXT
  5
46C
100
AcDbEntity
  8
SCHEME_DIMS
100
AcDbText
 62
2
  6
CONTINUOUS
 10
10.7461333615
 20
4.8807958312
  7
STANDARD
 40
0.1
  1
58,5
 41
1.0
 72
0
100
AcDbText
  0
TEXT
  5
46D
100
AcDbEntity
  8
SCHEME_DIMS
100
AcDbText
 62
2
  6
CONTINUOUS
 10
10.8461333615
 20
4.7307958312
  7
STANDARD
 40
0.1
  1
2.30
 41
1.0
 72
0
100
AcDbText
  0
TEXT
  5
46E
100
AcDbEntity
  8
SCHEME_DIMS
100
AcDbText
 62
2
  6
CONTINUOUS
 10
10.7461333615
 20
4.7307958312
  7
STANDARD
 40
0.1
  1
[
 41
1.0
 72
0
100
AcDbText
  0
TEXT
  5
46F
100
AcDbEntity
  8
SCHEME_DIMS
100
AcDbText
 62
2
  6
CONTINUOUS
 10
11.2461333615
 20
4.7307958312
  7
STANDARD
 40
0.1
  1
]
 41
1.0
 72
0
100
AcDbText
  0
LINE
  5
470
100
AcDbEntity
  8
SCHEME_DIMS
100
AcDbLine
 62
2
  6
CONTINUOUS
 10
9.8945585584
 20
3.8255435175
 11
9.8945585584
 21
5.0557958312
  0
LINE
  5
471
100
AcDbEntity
  8
SCHEME_DIMS
100
AcDbLine
 62
2
  6
CONTINUOUS
 10
12.1977081647
 20
3.8255435175
 11
12.1977081647
 21
5.0557958312
  0
LINE
  5
472
100
AcDbEntity
  8
SCHEME_DIMS
100
AcDbLine
 62
2
  6
CONTINUOUS
 10
9.8945585584
 20
4.9307958312
 11
10.6461333615
 21
4.9307958312
  0
LINE
  5
473
100
AcDbEntity
  8
SCHEME_DIMS
100
AcDbLine
 62
2
  6
CONTINUOUS
 10
12.1977081647
 20
4.9307958312
 11
11.4461333615
 21
4.9307958312
  0
INSERT
  5
474
100
AcDbEntity
  8
SCHEME_DIMS
100
AcDbBlockReference
 62
2
  6
CONTINUOUS
  2
_FILLED
 10
9.8945585584
 20
4.9307958312
 41
0.1875
 42
0.1875
 43
0.1875
 50
180.0
  0
INSERT
  5
475
100
AcDbEntity
  8
SCHEME_DIMS
100
AcDbBlockReference
 62
2
  6
CONTINUOUS
  2
_FILLED
 10
12.1977081647
 20
4.9307958312
 41
0.1875
 42
0.1875
 43
0.1875
  0
ENDBLK
  5
476
100
AcDbEntity
  8
0
  6
BYBLOCK
 62
0
100
AcDbBlockEnd
  0
BLOCK
  5
477
100
AcDbEntity
  8
0
100
AcDbBlockBegin
 62
2
  6
CONTINUOUS
  2
*D8
 70
65
 10
0.0
 20
0.0
  3
*D8
  1

  0
TEXT
  5
478
100
AcDbEntity
  8
0
100
AcDbText
 62
2
  6
CONTINUOUS
 10
10.6461333615
 20
14.5137761511
  7
STANDARD
 40
0.1
  1
(
 41
1.0
 72
0
100
AcDbText
  0
TEXT
  5
479
100
AcDbEntity
  8
0
100
AcDbText
 62
2
  6
CONTINUOUS
 10
11.3461333615
 20
14.5137761511
  7
STANDARD
 40
0.1
  1
)
 41
1.0
 72
0
100
AcDbText
  0
TEXT
  5
47A
100
AcDbEntity
  8
0
100
AcDbText
 62
2
  6
CONTINUOUS
 10
10.7461333615
 20
14.5137761511
  7
STANDARD
 40
0.1
  1
58,5
 41
1.0
 72
0
100
AcDbText
  0
TEXT
  5
47B
100
AcDbEntity
  8
0
100
AcDbText
 62
2
  6
CONTINUOUS
 10
10.8461333615
 20
14.3637761511
  7
STANDARD
 40
0.1
  1
2.30
 41
1.0
 72
0
100
AcDbText
  0
TEXT
  5
47C
100
AcDbEntity
  8
0
100
AcDbText
 62
2
  6
CONTINUOUS
 10
10.7461333615
 20
14.3637761511
  7
STANDARD
 40
0.1
  1
[
 41
1.0
 72
0
100
AcDbText
  0
TEXT
  5
47D
100
AcDbEntity
  8
0
100
AcDbText
 62
2
  6
CONTINUOUS
 10
11.2461333615
 20
14.3637761511
  7
STANDARD
 40
0.1
  1
]
 41
1.0
 72
0
100
AcDbText
  0
LINE
  5
47E
100
AcDbEntity
  8
0
100
AcDbLine
 62
2
  6
CONTINUOUS
 10
12.1977081647
 20
13.8218828531
 11
12.1977081647
 21
14.6887761511
  0
LINE
  5
47F
100
AcDbEntity
  8
0
100
AcDbLine
 62
2
  6
CONTINUOUS
 10
9.8945585584
 20
13.8080141615
 11
9.8945585584
 21
14.6887761511
  0
LINE
  5
480
100
AcDbEntity
  8
0
100
AcDbLine
 62
2
  6
CONTINUOUS
 10
12.1977081647
 20
14.5637761511
 11
11.5461333615
 21
14.5637761511
  0
LINE
  5
481
100
AcDbEntity
  8
0
100
AcDbLine
 62
2
  6
CONTINUOUS
 10
9.8945585584
 20
14.5637761511
 11
10.5461333615
 21
14.5637761511
  0
INSERT
  5
482
100
AcDbEntity
  8
0
100
AcDbBlockReference
 62
2
  6
CONTINUOUS
  2
_FILLED
 10
12.1977081647
 20
14.5637761511
 41
0.1875
 42
0.1875
 43
0.1875
  0
INSERT
  5
483
100
AcDbEntity
  8
0
100
AcDbBlockReference
 62
2
  6
CONTINUOUS
  2
_FILLED
 10
9.8945585584
 20
14.5637761511
 41
0.1875
 42
0.1875
 43
0.1875
 50
180.0
  0
ENDBLK
  5
484
100
AcDbEntity
  8
0
  6
BYBLOCK
 62
0
100
AcDbBlockEnd
  0
BLOCK
  5
485
100
AcDbEntity
  8
0
100
AcDbBlockBegin
 62
2
  6
CONTINUOUS
  2
*D9
 70
65
 10
0.0
 20
0.0
  3
*D9
  1

  0
TEXT
  5
486
100
AcDbEntity
  8
0
100
AcDbText
 62
2
  6
CONTINUOUS
 10
10.6461333615
 20
11.2248595894
  7
STANDARD
 40
0.1
  1
(
 41
1.0
 72
0
100
AcDbText
  0
TEXT
  5
487
100
AcDbEntity
  8
0
100
AcDbText
 62
2
  6
CONTINUOUS
 10
11.3461333615
 20
11.2248595894
  7
STANDARD
 40
0.1
  1
)
 41
1.0
 72
0
100
AcDbText
  0
TEXT
  5
488
100
AcDbEntity
  8
0
100
AcDbText
 62
2
  6
CONTINUOUS
 10
10.7461333615
 20
11.2248595894
  7
STANDARD
 40
0.1
  1
58,5
 41
1.0
 72
0
100
AcDbText
  0
TEXT
  5
489
100
AcDbEntity
  8
0
100
AcDbText
 62
2
  6
CONTINUOUS
 10
10.8461333615
 20
11.0748595894
  7
STANDARD
 40
0.1
  1
2.30
 41
1.0
 72
0
100
AcDbText
  0
TEXT
  5
48A
100
AcDbEntity
  8
0
100
AcDbText
 62
2
  6
CONTINUOUS
 10
10.7461333615
 20
11.0748595894
  7
STANDARD
 40
0.1
  1
[
 41
1.0
 72
0
100
AcDbText
  0
TEXT
  5
48B
100
AcDbEntity
  8
0
100
AcDbText
 62
2
  6
CONTINUOUS
 10
11.2461333615
 20
11.0748595894
  7
STANDARD
 40
0.1
  1
]
 41
1.0
 72
0
100
AcDbText
  0
LINE
  5
48C
100
AcDbEntity
  8
0
100
AcDbLine
 62
2
  6
CONTINUOUS
 10
9.8945585584
 20
10.3569509513
 11
9.8945585584
 21
11.3998595894
  0
LINE
  5
48D
100
AcDbEntity
  8
0
100
AcDbLine
 62
2
  6
CONTINUOUS
 10
12.1977081647
 20
10.3455816803
 11
12.1977081647
 21
11.3998595894
  0
LINE
  5
48E
100
AcDbEntity
  8
0
100
AcDbLine
 62
2
  6
CONTINUOUS
 10
9.8945585584
 20
11.2748595894
 11
10.5461333615
 21
11.2748595894
  0
LINE
  5
48F
100
AcDbEntity
  8
0
100
AcDbLine
 62
2
  6
CONTINUOUS
 10
12.1977081647
 20
11.2748595894
 11
11.5461333615
 21
11.2748595894
  0
INSERT
  5
490
100
AcDbEntity
  8
0
100
AcDbBlockReference
 62
2
  6
CONTINUOUS
  2
_FILLED
 10
9.8945585584
 20
11.2748595894
 41
0.1875
 42
0.1875
 43
0.1875
 50
180.0
  0
INSERT
  5
491
100
AcDbEntity
  8
0
100
AcDbBlockReference
 62
2
  6
CONTINUOUS
  2
_FILLED
 10
12.1977081647
 20
11.2748595894
 41
0.1875
 42
0.1875
 43
0.1875
  0
ENDBLK
  5
492
100
AcDbEntity
  8
0
  6
BYBLOCK
 62
0
100
AcDbBlockEnd
  0
BLOCK
  5
493
100
AcDbEntity
  8
SYMBOLS
100
AcDbBlockBegin
 62
2
  6
CONTINUOUS
  2
CL_BL1
 70
64
 10
13.1104229126
 20
10.1321582336
  3
CL_BL1
  1

  0
LWPOLYLINE
  5
494
100
AcDbEntity
  8
SYMBOLS
100
AcDbPolyline
 62
2
  6
CONTINUOUS
 90
9
 70
0
 10
13.1354219971
 20
10.1796585083
 10
13.1054230957
 20
10.1896581421
 10
13.0754228516
 20
10.1796585083
 10
13.0554222412
 20
10.1596585693
 10
13.0454226074
 20
10.1296583252
 10
13.0554222412
 20
10.0996587524
 10
13.0754228516
 20
10.0796581421
 10
13.1054230957
 20
10.0696585083
 10
13.1354219971
 20
10.0796581421
  0
LWPOLYLINE
  5
495
100
AcDbEntity
  8
SYMBOLS
100
AcDbPolyline
 62
2
  6
CONTINUOUS
 90
3
 70
0
 10
13.0954221191
 20
10.2246582031
 10
13.0954221191
 20
10.0396582642
 10
13.1754232178
 20
10.0396582642
  0
ENDBLK
  5
496
100
AcDbEntity
  8
0
  6
BYBLOCK
 62
0
100
AcDbBlockEnd
  0
BLOCK
  5
497
100
AcDbEntity
  8
SYMBOLS
100
AcDbBlockBegin
 62
2
  6
CONTINUOUS
  2
CL_BL2
 70
64
 10
16.3613237305
 20
11.1092055054
  3
CL_BL2
  1

  0
LWPOLYLINE
  5
498
100
AcDbEntity
  8
SYMBOLS
100
AcDbPolyline
 62
2
  6
CONTINUOUS
 90
9
 70
0
 10
16.3863234863
 20
11.1567054443
 10
16.3563232422
 20
11.1667050781
 10
16.326322998
 20
11.1567054443
 10
16.3063237305
 20
11.136704834
 10
16.2963240967
 20
11.1067045898
 10
16.3063237305
 20
11.0767056885
 10
16.326322998
 20
11.0567050781
 10
16.3563232422
 20
11.0467054443
 10
16.3863234863
 20
11.0567050781
  0
LWPOLYLINE
  5
499
100
AcDbEntity
  8
SYMBOLS
100
AcDbPolyline
 62
2
  6
CONTINUOUS
 90
3
 70
0
 10
16.3463236084
 20
11.2017058105
 10
16.3463236084
 20
11.0167052002
 10
16.4263233643
 20
11.0167052002
  0
ENDBLK
  5
49A
100
AcDbEntity
  8
0
  6
BYBLOCK
 62
0
100
AcDbBlockEnd
  0
BLOCK
  5
49B
100
AcDbEntity
  8
SYMBOLS
100
AcDbBlockBegin
 62
2
  6
CONTINUOUS
  2
CL_BL3
 70
64
 10
17.3028415527
 20
10.1499231262
  3
CL_BL3
  1

  0
LWPOLYLINE
  5
49C
100
AcDbEntity
  8
SYMBOLS
100
AcDbPolyline
 62
2
  6
CONTINUOUS
 90
9
 70
0
 10
17.3278413086
 20
10.1974227295
 10
17.2978410645
 20
10.2074230347
 10
17.2678408203
 20
10.1974227295
 10
17.2478415527
 20
10.1774227905
 10
17.2378419189
 20
10.1474232178
 10
17.2478415527
 20
10.1174229736
 10
17.2678408203
 20
10.0974230347
 10
17.2978410645
 20
10.0874227295
 10
17.3278413086
 20
10.0974230347
  0
LWPOLYLINE
  5
49D
100
AcDbEntity
  8
SYMBOLS
100
AcDbPolyline
 62
2
  6
CONTINUOUS
 90
3
 70
0
 10
17.2878414307
 20
10.2424230957
 10
17.2878414307
 20
10.0574231567
 10
17.3678411865
 20
10.0574231567
  0
ENDBLK
  5
49E
100
AcDbEntity
  8
0
  6
BYBLOCK
 62
0
100
AcDbBlockEnd
  0
BLOCK
  5
49F
100
AcDbEntity
  8
SYMBOLS
100
AcDbBlockBegin
 62
2
  6
CONTINUOUS
  2
CL_BL4
 70
64
 10
12.8972489014
 20
13.5784685059
  3
CL_BL4
  1

  0
LWPOLYLINE
  5
4A0
100
AcDbEntity
  8
SYMBOLS
100
AcDbPolyline
 62
2
  6
CONTINUOUS
 90
9
 70
0
 10
12.9222486572
 20
13.6259691162
 10
12.8922484131
 20
13.63596875
 10
12.8622481689
 20
13.6259691162
 10
12.8422489014
 20
13.6059685059
 10
12.8322492676
 20
13.5759682617
 10
12.8422489014
 20
13.5459693604
 10
12.8622481689
 20
13.52596875
 10
12.8922484131
 20
13.5159691162
 10
12.9222486572
 20
13.52596875
  0
LWPOLYLINE
  5
4A1
100
AcDbEntity
  8
SYMBOLS
100
AcDbPolyline
 62
2
  6
CONTINUOUS
 90
3
 70
0
 10
12.8822487793
 20
13.6709681396
 10
12.8822487793
 20
13.4859688721
 10
12.9622485352
 20
13.4859688721
  0
ENDBLK
  5
4A2
100
AcDbEntity
  8
0
  6
BYBLOCK
 62
0
100
AcDbBlockEnd
  0
BLOCK
  5
4A3
100
AcDbEntity
  8
SYMBOLS
100
AcDbBlockBegin
 62
2
  6
CONTINUOUS
  2
CL_BL5
 70
64
 10
12.8887827148
 20
6.992077179
  3
CL_BL5
  1

  0
LWPOLYLINE
  5
4A4
100
AcDbEntity
  8
SYMBOLS
100
AcDbPolyline
 62
2
  6
CONTINUOUS
 90
9
 70
0
 10
12.9137824707
 20
7.0395774536
 10
12.8837822266
 20
7.0495770874
 10
12.8537833252
 20
7.0395774536
 10
12.8337827148
 20
7.0195775146
 10
12.8237830811
 20
6.9895772705
 10
12.8337827148
 20
6.9595770264
 10
12.8537833252
 20
6.9395770874
 10
12.8837822266
 20
6.9295774536
 10
12.9137824707
 20
6.9395770874
  0
LWPOLYLINE
  5
4A5
100
AcDbEntity
  8
SYMBOLS
100
AcDbPolyline
 62
2
  6
CONTINUOUS
 90
3
 70
0
 10
12.8737825928
 20
7.0845771484
 10
12.8737825928
 20
6.8995772095
 10
12.9537823486
 20
6.8995772095
  0
ENDBLK
  5
4A6
100
AcDbEntity
  8
0
  6
BYBLOCK
 62
0
100
AcDbBlockEnd
  0
BLOCK
  5
4A7
100
AcDbEntity
  8
SYMBOLS
100
AcDbBlockBegin
 62
2
  6
CONTINUOUS
  2
CL_BL6
 70
64
 10
12.9776051636
 20
3.6168251343
  3
CL_BL6
  1

  0
LWPOLYLINE
  5
4A8
100
AcDbEntity
  8
SYMBOLS
100
AcDbPolyline
 62
2
  6
CONTINUOUS
 90
9
 70
0
 10
13.0026055908
 20
3.6643250732
 10
12.9726053467
 20
3.6743250427
 10
12.9426051025
 20
3.6643250732
 10
12.922605835
 20
3.6443251343
 10
12.9126048584
 20
3.6143248901
 10
12.922605835
 20
3.5843249817
 10
12.9426051025
 20
3.5643250427
 10
12.9726053467
 20
3.5543250732
 10
13.0026055908
 20
3.5643250427
  0
LWPOLYLINE
  5
4A9
100
AcDbEntity
  8
SYMBOLS
100
AcDbPolyline
 62
2
  6
CONTINUOUS
 90
3
 70
0
 10
12.9626057129
 20
3.7093251038
 10
12.9626057129
 20
3.5243251648
 10
13.0426054688
 20
3.5243251648
  0
ENDBLK
  5
4AA
100
AcDbEntity
  8
0
  6
BYBLOCK
 62
0
100
AcDbBlockEnd
  0
BLOCK
  5
4AB
100
AcDbEntity
  8
0
100
AcDbBlockBegin
  2
_FILLED
 70
64
 10
0.0
 20
0.0
  3
_FILLED
  1

  0
SOLID
  5
4AC
100
AcDbEntity
  8
0
  6
BYBLOCK
 62
0
100
AcDbTrace
 10
0.0
 20
0.0
 11
-1.0
 21
0.1666666667
 12
-1.0
 22
-0.1666666667
 13
-1.0
 23
-0.1666666667
  0
ENDBLK
  5
4AD
100
AcDbEntity
  8
0
  6
BYBLOCK
 62
0
100
AcDbBlockEnd
  0
ENDSEC
  0
SECTION
  2
ENTITIES
  0
TEXT
  5
4AE
100
AcDbEntity
  8
0
100
AcDbText
 62
2
  6
CONTINUOUS
 10
14.8374677477
 20
1.5655662523
  7
STANDARD
 40
0.1
  1
%%uTHIRD ANGLE PROJECTION
 41
0.8
 72
1
 11
15.7174677477
 21
1.5655662523
100
AcDbText
  0
TEXT
  5
4AF
100
AcDbEntity
  8
0
100
AcDbText
 62
2
  6
CONTINUOUS
 10
17.55
 20
1.24
  7
STANDARD
 40
0.08
  1
DRAWING NO.
 41
1.0
 72
0
100
AcDbText
  0
TEXT
  5
4B0
100
AcDbEntity
  8
0
100
AcDbText
 62
2
  6
CONTINUOUS
 10
14.714
 20
2.299432
  7
STANDARD
 40
0.08
  1
and is proprietary in general
 41
0.85
 72
1
 11
15.7
 21
2.299432
100
AcDbText
  0
TEXT
  5
4B1
100
AcDbEntity
  8
0
100
AcDbText
 62
2
  6
CONTINUOUS
 10
14.748
 20
2.179432
  7
STANDARD
 40
0.08
  1
and in detail.  Its contents
 41
0.85
 72
1
 11
15.7
 21
2.179432
100
AcDbText
  0
TEXT
  5
4B2
100
AcDbEntity
  8
0
100
AcDbText
 62
2
  6
CONTINUOUS
 10
14.884
 20
2.059432
  7
STANDARD
 40
0.08
  1
shall not be revealed to
 41
0.85
 72
1
 11
15.7
 21
2.059432
100
AcDbText
  0
TEXT
  5
4B3
100
AcDbEntity
  8
0
100
AcDbText
 62
2
  6
CONTINUOUS
 10
14.918
 20
1.939432
  7
STANDARD
 40
0.08
  1
outside parties without
 41
0.85
 72
1
 11
15.7
 21
1.939432
100
AcDbText
  0
TEXT
  5
4B4
100
AcDbEntity
  8
0
100
AcDbText
 62
2
  6
CONTINUOUS
 10
14.816
 20
1.819432
  7
STANDARD
 40
0.08
  1
written consent of BANNER.
 41
0.85
 72
1
 11
15.7
 21
1.819432
100
AcDbText
  0
TEXT
  5
4B5
100
AcDbEntity
  8
0
100
AcDbText
 62
2
  6
CONTINUOUS
 10
16.75
 20
1.98
  7
STANDARD
 40
0.1
  1
TITLE
 41
0.8
 72
0
100
AcDbText
  0
TEXT
  5
4B6
100
AcDbEntity
  8
0
100
AcDbText
 62
2
  6
CONTINUOUS
 10
16.75
 20
1.24
  7
STANDARD
 40
0.08
  1
SIZE
 41
1.0
 72
0
100
AcDbText
  0
TEXT
  5
4B7
100
AcDbEntity
  8
0
100
AcDbText
 62
2
  6
CONTINUOUS
 10
16.75
 20
0.87
  7
STANDARD
 40
0.08
  1
SCALE
 41
1.0
 72
0
100
AcDbText
  0
TEXT
  5
4B8
100
AcDbEntity
  8
0
100
AcDbText
 62
2
  6
CONTINUOUS
 10
17.13
 20
1.1
  7
STANDARD
 40
0.1
  1
C
 41
0.8
 72
1
 11
17.17
 21
1.1
100
AcDbText
  0
TEXT
  5
4B9
100
AcDbEntity
  8
0
100
AcDbText
 62
2
  6
CONTINUOUS
 10
14.782
 20
2.419432
  7
STANDARD
 40
0.08
  1
of BANNER ENGINEERING CORP.
 41
0.85
 72
1
 11
15.7
 21
2.419432
100
AcDbText
  0
TEXT
  5
4BA
100
AcDbEntity
  8
0
100
AcDbText
 62
2
  6
CONTINUOUS
 10
14.748
 20
2.539432
  7
STANDARD
 40
0.08
  1
This drawing is the property
 41
0.85
 72
1
 11
15.7
 21
2.539432
100
AcDbText
  0
TEXT
  5
4BB
100
AcDbEntity
  8
0
100
AcDbText
 62
2
  6
CONTINUOUS
 10
18.86
 20
2.1764
  7
STANDARD
 40
0.1
  1
MINNEAPOLIS, MN 55440
 41
0.8
 72
1
 11
19.7
 21
2.1764
100
AcDbText
  0
TEXT
  5
4BC
100
AcDbEntity
  8
0
100
AcDbText
 62
2
  6
CONTINUOUS
 10
18.925
 20
0.87
  7
STANDARD
 40
0.08
  1
SHEET
 41
1.0
 72
0
100
AcDbText
  0
TEXT
  5
4BD
100
AcDbEntity
  8
0
100
AcDbText
 62
2
  6
CONTINUOUS
 10
20.3
 20
1.24
  7
STANDARD
 40
0.08
  1
REV.
 41
1.0
 72
0
100
AcDbText
  0
TEXT
  5
4BE
100
AcDbEntity
  8
0
100
AcDbText
 62
2
  6
CONTINUOUS
 10
20.7
 20
0.628443
  7
STANDARD
 40
0.07
  1
PRO/E
 41
1.0
 72
2
 11
21.05
 21
0.628443
100
AcDbText
  0
TEXT
  5
4BF
100
AcDbEntity
  8
0
100
AcDbText
 62
2
  6
CONTINUOUS
 10
18.3752
 20
2.494049
  7
STANDARD
 40
0.12
  1
BANNER ENGINEERING CORP.
 41
0.92
 72
1
 11
19.7
 21
2.494049
100
AcDbText
  0
TEXT
  5
4C0
100
AcDbEntity
  8
0
100
AcDbText
 62
2
  6
CONTINUOUS
 10
19.18
 20
2.3354
  7
STANDARD
 40
0.1
  1
P.O. BOX 9414
 41
0.8
 72
1
 11
19.7
 21
2.3354
100
AcDbText
  0
TEXT
  5
4C1
100
AcDbEntity
  8
0
100
AcDbText
 62
2
  6
CONTINUOUS
 10
12.217
 20
15.85
  7
STANDARD
 40
0.1
  1
4
 41
0.8
 72
1
 11
12.257
 21
15.85
100
AcDbText
  0
TEXT
  5
4C2
100
AcDbEntity
  8
0
100
AcDbText
 62
2
  6
CONTINUOUS
 10
12.217
 20
0.55
  7
STANDARD
 40
0.1
  1
4
 41
0.8
 72
1
 11
12.257
 21
0.55
100
AcDbText
  0
TEXT
  5
4C3
100
AcDbEntity
  8
0
100
AcDbText
 62
2
  6
CONTINUOUS
 10
0.784
 20
6.275
  7
STANDARD
 40
0.1
  1
B
 41
0.8
 72
2
 11
0.864
 21
6.275
100
AcDbText
  0
TEXT
  5
4C4
100
AcDbEntity
  8
0
100
AcDbText
 62
2
  6
CONTINUOUS
 10
21.15
 20
6.275
  7
STANDARD
 40
0.1
  1
B
 41
0.8
 72
0
100
AcDbText
  0
TEXT
  5
4C5
100
AcDbEntity
  8
0
100
AcDbText
 62
2
  6
CONTINUOUS
 10
0.784
 20
2.425
  7
STANDARD
 40
0.1
  1
A
 41
0.8
 72
2
 11
0.864
 21
2.425
100
AcDbText
  0
TEXT
  5
4C6
100
AcDbEntity
  8
0
100
AcDbText
 62
2
  6
CONTINUOUS
 10
21.15
 20
2.425
  7
STANDARD
 40
0.1
  1
A
 41
0.8
 72
0
100
AcDbText
  0
TEXT
  5
4C7
100
AcDbEntity
  8
0
100
AcDbText
 62
2
  6
CONTINUOUS
 10
0.784
 20
13.975
  7
STANDARD
 40
0.1
  1
D
 41
0.8
 72
2
 11
0.864
 21
13.975
100
AcDbText
  0
TEXT
  5
4C8
100
AcDbEntity
  8
0
100
AcDbText
 62
2
  6
CONTINUOUS
 10
21.15
 20
13.975
  7
STANDARD
 40
0.1
  1
D
 41
0.8
 72
0
100
AcDbText
  0
TEXT
  5
4C9
100
AcDbEntity
  8
0
100
AcDbText
 62
2
  6
CONTINUOUS
 10
0.784
 20
10.125
  7
STANDARD
 40
0.1
  1
C
 41
0.8
 72
2
 11
0.864
 21
10.125
100
AcDbText
  0
TEXT
  5
4CA
100
AcDbEntity
  8
0
100
AcDbText
 62
2
  6
CONTINUOUS
 10
21.15
 20
10.125
  7
STANDARD
 40
0.1
  1
C
 41
0.8
 72
0
100
AcDbText
  0
TEXT
  5
4CB
100
AcDbEntity
  8
0
100
AcDbText
 62
2
  6
CONTINUOUS
 10
14.717
 20
0.55
  7
STANDARD
 40
0.1
  1
3
 41
0.8
 72
1
 11
14.757
 21
0.55
100
AcDbText
  0
TEXT
  5
4CC
100
AcDbEntity
  8
0
100
AcDbText
 62
2
  6
CONTINUOUS
 10
14.717
 20
15.85
  7
STANDARD
 40
0.1
  1
3
 41
0.8
 72
1
 11
14.757
 21
15.85
100
AcDbText
  0
TEXT
  5
4CD
100
AcDbEntity
  8
0
100
AcDbText
 62
2
  6
CONTINUOUS
 10
17.217
 20
15.85
  7
STANDARD
 40
0.1
  1
2
 41
0.8
 72
1
 11
17.257
 21
15.85
100
AcDbText
  0
TEXT
  5
4CE
100
AcDbEntity
  8
0
100
AcDbText
 62
2
  6
CONTINUOUS
 10
17.217
 20
0.55
  7
STANDARD
 40
0.1
  1
2
 41
0.8
 72
1
 11
17.257
 21
0.55
100
AcDbText
  0
TEXT
  5
4CF
100
AcDbEntity
  8
0
100
AcDbText
 62
2
  6
CONTINUOUS
 10
19.717
 20
0.55
  7
STANDARD
 40
0.1
  1
1
 41
0.8
 72
1
 11
19.757
 21
0.55
100
AcDbText
  0
TEXT
  5
4D0
100
AcDbEntity
  8
0
100
AcDbText
 62
2
  6
CONTINUOUS
 10
19.717
 20
15.85
  7
STANDARD
 40
0.1
  1
1
 41
0.8
 72
1
 11
19.757
 21
15.85
100
AcDbText
  0
TEXT
  5
4D1
100
AcDbEntity
  8
0
100
AcDbText
 62
2
  6
CONTINUOUS
 10
2.217
 20
0.55
  7
STANDARD
 40
0.1
  1
8
 41
0.8
 72
1
 11
2.257
 21
0.55
100
AcDbText
  0
TEXT
  5
4D2
100
AcDbEntity
  8
0
100
AcDbText
 62
2
  6
CONTINUOUS
 10
4.717
 20
0.55
  7
STANDARD
 40
0.1
  1
7
 41
0.8
 72
1
 11
4.757
 21
0.55
100
AcDbText
  0
TEXT
  5
4D3
100
AcDbEntity
  8
0
100
AcDbText
 62
2
  6
CONTINUOUS
 10
7.217
 20
0.55
  7
STANDARD
 40
0.1
  1
6
 41
0.8
 72
1
 11
7.257
 21
0.55
100
AcDbText
  0
TEXT
  5
4D4
100
AcDbEntity
  8
0
100
AcDbText
 62
2
  6
CONTINUOUS
 10
9.717
 20
0.55
  7
STANDARD
 40
0.1
  1
5
 41
0.8
 72
1
 11
9.757
 21
0.55
100
AcDbText
  0
TEXT
  5
4D5
100
AcDbEntity
  8
0
100
AcDbText
 62
2
  6
CONTINUOUS
 10
9.717
 20
15.85
  7
STANDARD
 40
0.1
  1
5
 41
0.8
 72
1
 11
9.757
 21
15.85
100
AcDbText
  0
TEXT
  5
4D6
100
AcDbEntity
  8
0
100
AcDbText
 62
2
  6
CONTINUOUS
 10
7.217
 20
15.85
  7
STANDARD
 40
0.1
  1
6
 41
0.8
 72
1
 11
7.257
 21
15.85
100
AcDbText
  0
TEXT
  5
4D7
100
AcDbEntity
  8
0
100
AcDbText
 62
2
  6
CONTINUOUS
 10
4.717
 20
15.85
  7
STANDARD
 40
0.1
  1
7
 41
0.8
 72
1
 11
4.757
 21
15.85
100
AcDbText
  0
TEXT
  5
4D8
100
AcDbEntity
  8
0
100
AcDbText
 62
2
  6
CONTINUOUS
 10
2.217
 20
15.85
  7
STANDARD
 40
0.1
  1
8
 41
0.8
 72
1
 11
2.257
 21
15.85
100
AcDbText
  0
TEXT
  5
4D9
100
AcDbEntity
  8
0
100
AcDbText
 62
2
  6
CONTINUOUS
 10
17.2749123633
 20
0.8184107931
  7
STANDARD
 40
0.1
  1
1:1
 41
1.0
 72
0
100
AcDbText
  0
MTEXT
  5
4DA
100
AcDbEntity
  8
0
100
AcDbMText
 62
2
  6
CONTINUOUS
  7
STANDARD
 71
1
 72
1
 10
19.4499123633
 20
0.9184107931
 30
0.0
 11
1.0
 21
0.0
 31
0.0
  1
1 OF 1
 40
0.1
 41
0.6
  0
TEXT
  5
4DB
100
AcDbEntity
  8
0
100
AcDbText
 62
7
  6
CONTINUOUS
 10
18.5204017884
 20
1.1200373234
  7
STANDARD
 40
0.12
  1
144631
 41
1.0
 72
0
100
AcDbText
  0
MTEXT
  5
4DC
100
AcDbEntity
  8
0
100
AcDbMText
 62
2
  6
CONTINUOUS
  7
STANDARD
 71
1
 72
1
 10
1.7464424763
 20
1.7731130192
 30
0.0
 11
1.0
 21
0.0
 31
0.0
  1
NOTES:\P1. ALL DIMENSIONS ARE MILLIMETERS [INCHES] UNLESS OTHERWISE NOTED.
 40
0.1
 41
6.6
  0
INSERT
  5
4DD
100
AcDbEntity
  8
0
100
AcDbBlockReference
 62
2
  6
CONTINUOUS
  2
BANNER_LOGO_TITLEBLOCK_BL0
 10
17.5737928667
 20
2.4016160592
  0
DIMENSION
  5
4DE
100
AcDbEntity
  8
SCHEME_DIMS
100
AcDbDimension
 62
2
  6
CONTINUOUS
  2
*D0
 10
8.6170929293
 20
14.1828350044
 11
8.6170929293
 21
13.5172838233
 70
160
 42
30.0
  3
DIMSTYLE_1
100
AcDbAlignedDimension
 13
9.16312354
 23
13.0017326422
 14
9.1766616132
 24
14.1828350044
 50
90.0
100
AcDbRotatedDimension
  0
DIMENSION
  5
4DF
100
AcDbEntity
  8
SCHEME_DIMS
100
AcDbDimension
 62
2
  6
CONTINUOUS
  2
*D1
 10
12.3591254875
 20
15.041853023
 11
10.8148341489
 21
14.966853023
 70
160
 42
78.45
  3
DIMSTYLE_1
100
AcDbAlignedDimension
 13
9.2705428104
 23
14.2228940595
 14
12.3591254875
 24
14.211398342
100
AcDbRotatedDimension
  0
DIMENSION
  5
4E0
100
AcDbEntity
  8
SCHEME_DIMS
100
AcDbDimension
 62
2
  6
CONTINUOUS
  2
*D2
 10
12.5559758812
 20
11.9642077014
 11
10.9132593458
 21
11.8892077014
 70
160
 42
83.45
  3
DIMSTYLE_2
100
AcDbAlignedDimension
 13
9.2705428104
 23
10.7786826661
 14
12.5559758812
 24
10.4448243984
100
AcDbRotatedDimension
  0
DIMENSION
  5
4E1
100
AcDbEntity
  8
SCHEME_DIMS
100
AcDbDimension
 62
2
  6
CONTINUOUS
  2
*D3
 10
12.1977081647
 20
8.3299145524
 11
10.9052911326
 21
8.2549145524
 70
160
 42
74.35
  3
DIMSTYLE_2
100
AcDbAlignedDimension
 13
9.2705428104
 23
7.6019445875
 14
12.1977081647
 24
7.2708656665
100
AcDbRotatedDimension
  0
DIMENSION
  5
4E2
100
AcDbEntity
  8
SCHEME_DIMS
100
AcDbDimension
 62
2
  6
CONTINUOUS
  2
*D4
 10
6.6945113583
 20
9.5181511701
 11
6.6945113583
 21
10.0730724299
 70
160
 42
32.0
  3
DIMSTYLE_2
100
AcDbAlignedDimension
 13
6.1817465535
 23
10.7779936897
 14
6.1817465535
 24
9.5181511701
 50
270.0
100
AcDbRotatedDimension
  0
DIMENSION
  5
4E3
100
AcDbEntity
  8
SCHEME_DIMS
100
AcDbDimension
 62
2
  6
CONTINUOUS
  2
*D5
 10
5.0365693881
 20
11.3985897171
 11
5.6271205692
 21
11.3235897171
 70
160
 42
30.0
  3
DIMSTYLE_2
100
AcDbAlignedDimension
 13
6.2176717503
 23
10.7420684929
 14
5.0365693881
 24
10.7420684929
 50
180.0
100
AcDbRotatedDimension
  0
DIMENSION
  5
4E4
100
AcDbEntity
  8
SCHEME_DIMS
100
AcDbDimension
 62
2
  6
CONTINUOUS
  2
*D6
 10
9.8945585584
 20
4.9307958312
 11
9.5825506844
 21
4.9307958312
 70
160
 42
15.85
  1
3X\P<>
  3
DIMSTYLE_2
100
AcDbAlignedDimension
 13
9.2705428104
 23
4.2912288588
 14
9.8945585584
 24
3.8255435175
100
AcDbRotatedDimension
  0
DIMENSION
  5
4E5
100
AcDbEntity
  8
SCHEME_DIMS
100
AcDbDimension
 62
2
  6
CONTINUOUS
  2
*D7
 10
12.1977081647
 20
4.9307958312
 11
11.0461333615
 21
4.9307958312
 70
160
 42
58.5
  1
3X\P<>
  3
DIMSTYLE_2
100
AcDbAlignedDimension
 13
9.8945585584
 23
3.8255435175
 14
12.1977081647
 24
3.8255435175
100
AcDbRotatedDimension
  0
DIMENSION
  5
4E6
100
AcDbEntity
  8
0
100
AcDbDimension
 62
2
  6
CONTINUOUS
  2
*D8
 10
9.8945585584
 20
14.5637761511
 11
11.0461333615
 21
14.4887761511
 70
160
 42
90.0
  3
STANDARD
100
AcDbAlignedDimension
 13
12.1977081647
 23
13.8218828531
 14
9.8945585584
 24
13.8080141615
 50
180.0
100
AcDbRotatedDimension
  0
DIMENSION
  5
4E7
100
AcDbEntity
  8
0
100
AcDbDimension
 62
2
  6
CONTINUOUS
  2
*D9
 10
12.1977081647
 20
11.2748595894
 11
11.0461333615
 21
11.1998595894
 70
160
  3
STANDARD
100
AcDbAlignedDimension
 13
9.8945585584
 23
10.3569509513
 14
12.1977081647
 24
10.3455816803
100
AcDbRotatedDimension
  0
LINE
  5
4E8
100
AcDbEntity
  8
0
100
AcDbLine
 62
2
  6
CONTINUOUS
 10
21.05
 20
0.75
 11
16.7
 21
0.75
  0
LINE
  5
4E9
100
AcDbEntity
  8
0
100
AcDbLine
 62
2
  6
CONTINUOUS
 10
21.05
 20
0.75
 11
21.05
 21
2.67
  0
LINE
  5
4EA
100
AcDbEntity
  8
0
100
AcDbLine
 62
2
  6
CONTINUOUS
 10
21.05
 20
2.67
 11
16.7
 21
2.67
  0
LINE
  5
4EB
100
AcDbEntity
  8
0
100
AcDbLine
 62
2
  6
CONTINUOUS
 10
16.7
 20
0.75
 11
16.7
 21
2.67
  0
TEXT
  5
4EC
100
AcDbEntity
  8
0
100
AcDbText
 62
7
  6
CONTINUOUS
 10
20.775
 20
1.13
  7
STANDARD
 40
0.1
  1
-
 41
1.0
 72
1
 11
20.825
 21
1.13
100
AcDbText
  0
MTEXT
  5
4ED
100
AcDbEntity
  8
0
100
AcDbMText
 62
7
  6
CONTINUOUS
  7
STANDARD
 71
2
 72
1
 10
18.875
 20
1.83
 30
0.0
 11
1.0
 21
0.0
 31
0.0
  1
PPROCAM\PWEB CAD DRAWINGS 2D/3D
 40
0.1
 41
2.2
  0
MTEXT
  5
4EE
100
AcDbEntity
  8
NOTES
100
AcDbMText
 62
2
  6
CONTINUOUS
  7
STANDARD
 71
1
 72
1
 10
13.237029574
 20
8.081289074
 30
0.0
 11
1.0
 21
0.0
 31
0.0
  1
 1/4-20 UNC\P 
 40
0.1
 41
1.1
  0
MTEXT
  5
4EF
100
AcDbEntity
  8
NOTES
100
AcDbMText
 62
2
  6
CONTINUOUS
  7
STANDARD
 71
1
 72
1
 10
13.4786962407
 20
7.931289074
 30
0.0
 11
1.0
 21
0.0
 31
0.0
  1
 .20
 40
0.1
 41
1.1
  0
LINE
  5
4F0
100
AcDbEntity
  8
NOTES
100
AcDbLine
 62
2
  6
CONTINUOUS
 10
12.2818528193
 20
7.0262882146
 11
12.987029574
 21
8.031289074
  0
LINE
  5
4F1
100
AcDbEntity
  8
NOTES
100
AcDbLine
 62
2
  6
CONTINUOUS
 10
12.987029574
 20
8.031289074
 11
13.237029574
 21
8.031289074
  0
SOLID
  5
4F2
100
AcDbEntity
  8
NOTES
100
AcDbTrace
 62
2
  6
CONTINUOUS
 10
12.3639678059
 20
7.1977231629
 11
12.2818528193
 21
7.0262882146
 12
12.4151296817
 22
7.1618245214
 13
12.4151296817
 23
7.1618245214
  0
MTEXT
  5
4F3
100
AcDbEntity
  8
NOTES
100
AcDbMText
 62
2
  6
CONTINUOUS
  7
STANDARD
 71
1
 72
1
 10
13.2085475683
 20
4.7539613441
 30
0.0
 11
1.0
 21
0.0
 31
0.0
  1
 6X\P M3 X 0.45\P 
 40
0.1
 41
1.0
  0
MTEXT
  5
4F4
100
AcDbEntity
  8
NOTES
100
AcDbMText
 62
2
  6
CONTINUOUS
  7
STANDARD
 71
1
 72
1
 10
13.450214235
 20
4.4539613441
 30
0.0
 11
1.0
 21
0.0
 31
0.0
  1
.20
 40
0.1
 41
1.0
  0
LINE
  5
4F5
100
AcDbEntity
  8
NOTES
100
AcDbLine
 62
2
  6
CONTINUOUS
 10
12.2325070882
 20
3.6773215651
 11
12.9585475683
 21
4.7039613441
  0
LINE
  5
4F6
100
AcDbEntity
  8
NOTES
100
AcDbLine
 62
2
  6
CONTINUOUS
 10
12.9585475683
 20
4.7039613441
 11
13.2085475683
 21
4.7039613441
  0
SOLID
  5
4F7
100
AcDbEntity
  8
NOTES
100
AcDbTrace
 62
2
  6
CONTINUOUS
 10
12.3152554723
 20
3.8484516835
 11
12.2325070882
 21
3.6773215651
 12
12.3662842467
 22
3.8123640931
 13
12.3662842467
 23
3.8123640931
  0
INSERT
  5
4F8
100
AcDbEntity
  8
SYMBOLS
100
AcDbBlockReference
 62
2
  6
CONTINUOUS
  2
CL_BL1
 10
13.1104229126
 20
10.1321582336
  0
INSERT
  5
4F9
100
AcDbEntity
  8
SYMBOLS
100
AcDbBlockReference
 62
2
  6
CONTINUOUS
  2
CL_BL2
 10
16.3613237305
 20
11.1092055054
  0
INSERT
  5
4FA
100
AcDbEntity
  8
SYMBOLS
100
AcDbBlockReference
 62
2
  6
CONTINUOUS
  2
CL_BL3
 10
17.3028415527
 20
10.1499231262
  0
INSERT
  5
4FB
100
AcDbEntity
  8
SYMBOLS
100
AcDbBlockReference
 62
2
  6
CONTINUOUS
  2
CL_BL4
 10
12.8972489014
 20
13.5784685059
  0
INSERT
  5
4FC
100
AcDbEntity
  8
SYMBOLS
100
AcDbBlockReference
 62
2
  6
CONTINUOUS
  2
CL_BL5
 10
12.8887827148
 20
6.992077179
  0
INSERT
  5
4FD
100
AcDbEntity
  8
SYMBOLS
100
AcDbBlockReference
 62
2
  6
CONTINUOUS
  2
CL_BL6
 10
12.9776051636
 20
3.6168251343
  0
LINE
  5
4FE
100
AcDbEntity
  8
0
100
AcDbLine
 62
2
  6
CONTINUOUS
 10
0.814
 20
8.336603
 11
0.814
 21
8.163397
  0
LINE
  5
4FF
100
AcDbEntity
  8
0
100
AcDbLine
 62
2
  6
CONTINUOUS
 10
0.964
 20
15.75
 11
0.964
 21
0.75
  0
LINE
  5
500
100
AcDbEntity
  8
0
100
AcDbLine
 62
7
  6
CONTINUOUS
 10
15.8276527477
 20
1.2966912523
 11
16.4340437477
 21
1.3660842523
  0
LINE
  5
501
100
AcDbEntity
  8
0
100
AcDbLine
 62
2
  6
CONTINUOUS
 10
10.920397
 20
0.6
 11
11.093603
 21
0.6
  0
LINE
  5
502
100
AcDbEntity
  8
0
100
AcDbLine
 62
2
  6
CONTINUOUS
 10
0.964
 20
0.75
 11
21.05
 21
0.75
  0
LINE
  5
503
100
AcDbEntity
  8
0
100
AcDbLine
 62
2
  6
CONTINUOUS
 10
3.507
 20
0.75
 11
3.507
 21
0.5
  0
LINE
  5
504
100
AcDbEntity
  8
0
100
AcDbLine
 62
2
  6
CONTINUOUS
 10
3.507
 20
15.75
 11
3.507
 21
16.0
  0
LINE
  5
505
100
AcDbEntity
  8
0
100
AcDbLine
 62
2
  6
CONTINUOUS
 10
16.7
 20
1.0
 11
21.05
 21
1.0
  0
LINE
  5
506
100
AcDbEntity
  8
0
100
AcDbLine
 62
7
  6
CONTINUOUS
 10
14.9008917477
 20
1.1139932523
 11
15.1229827477
 21
1.1139932523
  0
LINE
  5
507
100
AcDbEntity
  8
0
100
AcDbLine
 62
7
  6
CONTINUOUS
 10
15.1729827477
 20
1.1139932523
 11
15.2729827477
 21
1.1139932523
  0
LINE
  5
508
100
AcDbEntity
  8
0
100
AcDbLine
 62
7
  6
CONTINUOUS
 10
15.3229827477
 20
1.1139932523
 11
15.5450737477
 21
1.1139932523
  0
LINE
  5
509
100
AcDbEntity
  8
0
100
AcDbLine
 62
7
  6
CONTINUOUS
 10
15.7276527477
 20
1.1139932523
 11
16.0058047477
 21
1.1139932523
  0
LINE
  5
50A
100
AcDbEntity
  8
0
100
AcDbLine
 62
7
  6
CONTINUOUS
 10
16.0558047477
 20
1.1139932523
 11
16.2058907477
 21
1.1139932523
  0
LINE
  5
50B
100
AcDbEntity
  8
0
100
AcDbLine
 62
7
  6
CONTINUOUS
 10
16.2558907477
 20
1.1139932523
 11
16.5340437477
 21
1.1139932523
  0
LINE
  5
50C
100
AcDbEntity
  8
0
100
AcDbLine
 62
2
  6
CONTINUOUS
 10
16.7
 20
1.37
 11
21.05
 21
1.37
  0
LINE
  5
50D
100
AcDbEntity
  8
0
100
AcDbLine
 62
7
  6
CONTINUOUS
 10
16.4340437477
 20
0.8619022523
 11
15.8276527477
 21
0.9312952523
  0
LINE
  5
50E
100
AcDbEntity
  8
0
100
AcDbLine
 62
2
  6
CONTINUOUS
 10
14.7
 20
1.77
 11
16.7
 21
1.77
  0
LINE
  5
50F
100
AcDbEntity
  8
0
100
AcDbLine
 62
2
  6
CONTINUOUS
 10
16.7
 20
2.13
 11
21.05
 21
2.13
  0
LINE
  5
510
100
AcDbEntity
  8
0
100
AcDbLine
 62
2
  6
CONTINUOUS
 10
21.05
 20
2.67
 11
14.7
 21
2.67
  0
LINE
  5
511
100
AcDbEntity
  8
0
100
AcDbLine
 62
2
  6
CONTINUOUS
 10
6.007
 20
0.75
 11
6.007
 21
0.5
  0
LINE
  5
512
100
AcDbEntity
  8
0
100
AcDbLine
 62
2
  6
CONTINUOUS
 10
6.007
 20
15.75
 11
6.007
 21
16.0
  0
LINE
  5
513
100
AcDbEntity
  8
0
100
AcDbLine
 62
2
  6
CONTINUOUS
 10
0.814
 20
8.163397
 11
0.964
 21
8.25
  0
LINE
  5
514
100
AcDbEntity
  8
0
100
AcDbLine
 62
2
  6
CONTINUOUS
 10
0.964
 20
8.25
 11
0.814
 21
8.336603
  0
LINE
  5
515
100
AcDbEntity
  8
0
100
AcDbLine
 62
2
  6
CONTINUOUS
 10
0.964
 20
4.4
 11
0.714
 21
4.4
  0
LINE
  5
516
100
AcDbEntity
  8
0
100
AcDbLine
 62
2
  6
CONTINUOUS
 10
21.05
 20
4.4
 11
21.3
 21
4.4
  0
LINE
  5
517
100
AcDbEntity
  8
0
100
AcDbLine
 62
2
  6
CONTINUOUS
 10
11.093603
 20
0.6
 11
11.007
 21
0.75
  0
LINE
  5
518
100
AcDbEntity
  8
0
100
AcDbLine
 62
2
  6
CONTINUOUS
 10
11.007
 20
15.75
 11
11.093603
 21
15.9
  0
LINE
  5
519
100
AcDbEntity
  8
0
100
AcDbLine
 62
2
  6
CONTINUOUS
 10
8.507
 20
0.75
 11
8.507
 21
0.5
  0
LINE
  5
51A
100
AcDbEntity
  8
0
100
AcDbLine
 62
2
  6
CONTINUOUS
 10
8.507
 20
15.75
 11
8.507
 21
16.0
  0
LINE
  5
51B
100
AcDbEntity
  8
0
100
AcDbLine
 62
2
  6
CONTINUOUS
 10
11.007
 20
0.75
 11
11.007
 21
0.5
  0
LINE
  5
51C
100
AcDbEntity
  8
0
100
AcDbLine
 62
2
  6
CONTINUOUS
 10
11.007
 20
15.75
 11
11.007
 21
16.0
  0
LINE
  5
51D
100
AcDbEntity
  8
0
100
AcDbLine
 62
2
  6
CONTINUOUS
 10
0.964
 20
8.25
 11
0.714
 21
8.25
  0
LINE
  5
51E
100
AcDbEntity
  8
0
100
AcDbLine
 62
2
  6
CONTINUOUS
 10
21.05
 20
8.25
 11
21.3
 21
8.25
  0
LINE
  5
51F
100
AcDbEntity
  8
0
100
AcDbLine
 62
2
  6
CONTINUOUS
 10
13.507
 20
0.75
 11
13.507
 21
0.5
  0
LINE
  5
520
100
AcDbEntity
  8
0
100
AcDbLine
 62
2
  6
CONTINUOUS
 10
13.507
 20
15.75
 11
13.507
 21
16.0
  0
LINE
  5
521
100
AcDbEntity
  8
0
100
AcDbLine
 62
2
  6
CONTINUOUS
 10
14.7
 20
2.67
 11
14.7
 21
0.75
  0
LINE
  5
522
100
AcDbEntity
  8
0
100
AcDbLine
 62
2
  6
CONTINUOUS
 10
11.007
 20
0.75
 11
10.920397
 21
0.6
  0
LINE
  5
523
100
AcDbEntity
  8
0
100
AcDbLine
 62
2
  6
CONTINUOUS
 10
0.964
 20
12.1
 11
0.714
 21
12.1
  0
LINE
  5
524
100
AcDbEntity
  8
0
100
AcDbLine
 62
2
  6
CONTINUOUS
 10
21.05
 20
12.1
 11
21.3
 21
12.1
  0
LINE
  5
525
100
AcDbEntity
  8
0
100
AcDbLine
 62
2
  6
CONTINUOUS
 10
10.920397
 20
15.9
 11
11.007
 21
15.75
  0
LINE
  5
526
100
AcDbEntity
  8
0
100
AcDbLine
 62
7
  6
CONTINUOUS
 10
15.2229827477
 20
1.0139932523
 11
15.2229827477
 21
0.7919022523
  0
LINE
  5
527
100
AcDbEntity
  8
0
100
AcDbLine
 62
7
  6
CONTINUOUS
 10
15.2229827477
 20
1.0639932523
 11
15.2229827477
 21
1.1639932523
  0
LINE
  5
528
100
AcDbEntity
  8
0
100
AcDbLine
 62
7
  6
CONTINUOUS
 10
15.2229827477
 20
1.2139932523
 11
15.2229827477
 21
1.4360842523
  0
LINE
  5
529
100
AcDbEntity
  8
0
100
AcDbLine
 62
7
  6
CONTINUOUS
 10
15.8276527477
 20
0.9312952523
 11
15.8276527477
 21
1.2966912523
  0
LINE
  5
52A
100
AcDbEntity
  8
0
100
AcDbLine
 62
2
  6
CONTINUOUS
 10
16.007
 20
0.75
 11
16.007
 21
0.5
  0
LINE
  5
52B
100
AcDbEntity
  8
0
100
AcDbLine
 62
2
  6
CONTINUOUS
 10
16.007
 20
15.75
 11
16.007
 21
16.0
  0
LINE
  5
52C
100
AcDbEntity
  8
0
100
AcDbLine
 62
7
  6
CONTINUOUS
 10
16.4340437477
 20
1.3660842523
 11
16.4340437477
 21
0.8619022523
  0
LINE
  5
52D
100
AcDbEntity
  8
0
100
AcDbLine
 62
2
  6
CONTINUOUS
 10
21.2
 20
8.336603
 11
21.05
 21
8.25
  0
LINE
  5
52E
100
AcDbEntity
  8
0
100
AcDbLine
 62
2
  6
CONTINUOUS
 10
21.05
 20
8.25
 11
21.2
 21
8.163397
  0
LINE
  5
52F
100
AcDbEntity
  8
0
100
AcDbLine
 62
7
  6
CONTINUOUS
 10
16.7
 20
2.67
 11
16.7
 21
0.75
  0
LINE
  5
530
100
AcDbEntity
  8
0
100
AcDbLine
 62
2
  6
CONTINUOUS
 10
17.5
 20
1.37
 11
17.5
 21
1.0
  0
LINE
  5
531
100
AcDbEntity
  8
0
100
AcDbLine
 62
2
  6
CONTINUOUS
 10
18.507
 20
0.75
 11
18.507
 21
0.5
  0
LINE
  5
532
100
AcDbEntity
  8
0
100
AcDbLine
 62
2
  6
CONTINUOUS
 10
18.507
 20
15.75
 11
18.507
 21
16.0
  0
LINE
  5
533
100
AcDbEntity
  8
0
100
AcDbLine
 62
2
  6
CONTINUOUS
 10
21.05
 20
15.75
 11
0.964
 21
15.75
  0
LINE
  5
534
100
AcDbEntity
  8
0
100
AcDbLine
 62
2
  6
CONTINUOUS
 10
11.093603
 20
15.9
 11
10.920397
 21
15.9
  0
LINE
  5
535
100
AcDbEntity
  8
0
100
AcDbLine
 62
2
  6
CONTINUOUS
 10
18.875
 20
1.0
 11
18.875
 21
0.75
  0
LINE
  5
536
100
AcDbEntity
  8
0
100
AcDbLine
 62
2
  6
CONTINUOUS
 10
20.25
 20
1.37
 11
20.25
 21
1.0
  0
LINE
  5
537
100
AcDbEntity
  8
0
100
AcDbLine
 62
2
  6
CONTINUOUS
 10
21.05
 20
0.75
 11
21.05
 21
15.75
  0
LINE
  5
538
100
AcDbEntity
  8
0
100
AcDbLine
 62
2
  6
CONTINUOUS
 10
21.2
 20
8.163397
 11
21.2
 21
8.336603
  0
LINE
  5
539
100
AcDbEntity
  8
0
100
AcDbLine
 62
7
  6
CONTINUOUS
 10
9.2705428104
 20
9.5799688503
 11
9.2705428104
 21
10.7161760095
  0
LINE
  5
53A
100
AcDbEntity
  8
0
100
AcDbLine
 62
7
  6
CONTINUOUS
 10
9.2864498855
 20
9.5640551186
 11
9.2864498855
 21
10.7320897413
  0
LINE
  5
53B
100
AcDbEntity
  8
0
100
AcDbLine
 62
7
  6
CONTINUOUS
 10
9.2864498855
 20
10.7320897413
 11
9.2705428104
 21
10.7161826661
  0
LINE
  5
53C
100
AcDbEntity
  8
0
100
AcDbLine
 62
7
  6
CONTINUOUS
 10
9.2864498855
 20
9.5640551186
 11
9.2705428104
 21
9.5799621937
  0
LWPOLYLINE
  5
53D
100
AcDbEntity
  8
0
100
AcDbPolyline
 62
7
  6
CONTINUOUS
 90
11
 70
0
 10
9.719361708
 20
10.33682144
 10
9.7205974417
 20
10.3088103825
 10
9.7233206251
 20
10.2837670726
 10
9.7266957906
 20
10.2612072955
 10
9.7303425812
 20
10.2405979623
 10
9.734054439
 20
10.2216180005
 10
9.7376499069
 20
10.2043119319
 10
9.7410068157
 20
10.1886556941
 10
9.7440790182
 20
10.1743397071
 10
9.7467368005
 20
10.1610316083
 10
9.748162935
 20
10.1480724299
  0
LINE
  5
53E
100
AcDbEntity
  8
0
100
AcDbLine
 62
7
  6
CONTINUOUS
 10
9.719361708
 20
9.5520362958
 11
9.719361708
 21
9.9593234198
  0
LINE
  5
53F
100
AcDbEntity
  8
0
100
AcDbLine
 62
7
  6
CONTINUOUS
 10
9.719361708
 20
10.33682144
 11
9.719361708
 21
10.744108564
  0
LINE
  5
540
100
AcDbEntity
  8
0
100
AcDbLine
 62
9
  6
CONTINUOUS
 10
9.7505829195
 20
9.5205414321
 11
9.7505829195
 21
10.7756034277
  0
LWPOLYLINE
  5
541
100
AcDbEntity
  8
0
100
AcDbPolyline
 62
7
  6
CONTINUOUS
 90
11
 70
0
 10
9.748162935
 20
10.1480724299
 10
9.7467646525
 20
10.135269341
 10
9.7441469923
 20
10.1221271121
 10
9.7411078396
 20
10.1079571945
 10
9.7377730024
 20
10.0924131085
 10
9.7341861693
 20
10.0751760008
 10
9.730464242
 20
10.056194427
 10
9.7267894317
 20
10.035503122
 10
9.7233768529
 20
10.012801428
 10
9.7206164165
 20
9.9875643141
 10
9.719361708
 20
9.9593234198
  0
LINE
  5
542
100
AcDbEntity
  8
DEFAULT_2
100
AcDbLine
 62
8
  6
HIDDEN
 10
9.8355034403
 20
10.7763445179
 11
9.8355034403
 21
10.7779936897
  0
LINE
  5
543
100
AcDbEntity
  8
AXIS_COSMETIC_THREADS
100
AcDbLine
 62
7
  6
CENTER
 10
9.8945585584
 20
10.1480724299
 11
9.8945585584
 21
9.9988598315
  0
LINE
  5
544
100
AcDbEntity
  8
AXIS_COSMETIC_THREADS
100
AcDbLine
 62
7
  6
CENTER
 10
9.8945585584
 20
10.1480724299
 11
9.8945585584
 21
10.2972850283
  0
LINE
  5
545
100
AcDbEntity
  8
DEFAULT_2
100
AcDbLine
 62
8
  6
HIDDEN
 10
9.9536136765
 20
10.7773752503
 11
9.9536136765
 21
10.7779936897
  0
LINE
  5
546
100
AcDbEntity
  8
0
100
AcDbLine
 62
7
  6
CONTINUOUS
 10
10.0244798182
 20
9.5181511701
 11
10.0244798182
 21
10.7779936897
  0
LINE
  5
547
100
AcDbEntity
  8
AXIS_COSMETIC_THREADS
100
AcDbLine
 62
7
  6
CONTINUOUS
 10
10.0244798182
 20
9.5181511701
 11
10.0244798182
 21
10.7779936897
  0
LWPOLYLINE
  5
548
100
AcDbEntity
  8
0
100
AcDbPolyline
 62
9
  6
CONTINUOUS
 90
10
 70
0
 10
12.2962364309
 20
9.7242152441
 10
12.2933325114
 20
9.7238854479
 10
12.2903465448
 20
9.7228883144
 10
12.2874038266
 20
9.7211781794
 10
12.284605147
 20
9.7187341812
 10
12.2820634687
 20
9.7155724772
 10
12.2798989379
 20
9.711763614
 10
12.2781779195
 20
9.7072995348
 10
12.2770008665
 20
9.7021238988
 10
12.2765513915
 20
9.6962046057
  0
LWPOLYLINE
  5
549
100
AcDbEntity
  8
0
100
AcDbPolyline
 62
7
  6
CONTINUOUS
 90
10
 70
0
 10
12.328049916
 20
9.7126877047
 10
12.3312786045
 20
9.7130156867
 10
12.3363599401
 20
9.7146532042
 10
12.3409424569
 20
9.7174737004
 10
12.3452361866
 20
9.7216242685
 10
12.3491925613
 20
9.7272519727
 10
12.3525014561
 20
9.7339878882
 10
12.3550991533
 20
9.7414695884
 10
12.3570807205
 20
9.7497622125
 10
12.3582821105
 20
9.7575354277
  0
LWPOLYLINE
  5
54A
100
AcDbEntity
  8
0
100
AcDbPolyline
 62
9
  6
CONTINUOUS
 90
10
 70
0
 10
12.327904276
 20
9.5407548795
 10
12.3319692967
 20
9.5408626299
 10
12.3362338416
 20
9.5411853928
 10
12.3403852896
 20
9.5417257075
 10
12.3442629494
 20
9.5424641613
 10
12.3478449938
 20
9.5433972402
 10
12.3510583693
 20
9.544513425
 10
12.3538436905
 20
9.5458052984
 10
12.3561590303
 20
9.5472858575
 10
12.3579075852
 20
9.5489666926
  0
LINE
  5
54B
100
AcDbEntity
  8
0
100
AcDbLine
 62
7
  6
CONTINUOUS
 10
12.0481018655
 20
9.5181511701
 11
12.327904276
 21
9.5205929687
  0
LINE
  5
54C
100
AcDbEntity
  8
0
100
AcDbLine
 62
9
  6
CONTINUOUS
 10
12.2961333615
 20
9.5404788364
 11
12.3276294245
 21
9.5407536984
  0
LINE
  5
54D
100
AcDbEntity
  8
0
100
AcDbLine
 62
9
  6
CONTINUOUS
 10
12.3276294245
 20
9.5407536984
 11
12.327904276
 21
9.5407548795
  0
LINE
  5
54E
100
AcDbEntity
  8
0
100
AcDbLine
 62
7
  6
CONTINUOUS
 10
12.3227081647
 20
9.5181511701
 11
12.0727081647
 21
9.5181511701
  0
LINE
  5
54F
100
AcDbEntity
  8
AXIS_COSMETIC_THREADS
100
AcDbLine
 62
7
  6
CONTINUOUS
 10
12.0481018655
 20
9.5181511701
 11
10.0244798182
 21
9.5181511701
  0
LINE
  5
550
100
AcDbEntity
  8
AXIS_COSMETIC_THREADS
100
AcDbLine
 62
7
  6
CONTINUOUS
 10
12.322045579
 20
9.5432968394
 11
12.2882593458
 21
9.5432968394
  0
LINE
  5
551
100
AcDbEntity
  8
0
100
AcDbLine
 62
7
  6
CONTINUOUS
 10
9.7505829195
 20
9.5205414321
 11
10.0244798182
 21
9.5181511701
  0
LINE
  5
552
100
AcDbEntity
  8
0
100
AcDbLine
 62
7
  6
CONTINUOUS
 10
9.719361708
 20
9.5602771543
 11
9.2864498855
 21
9.5640551186
  0
LINE
  5
553
100
AcDbEntity
  8
0
100
AcDbLine
 62
7
  6
CONTINUOUS
 10
12.3277324938
 20
9.7126795402
 11
12.3280495734
 21
9.7126842544
  0
LINE
  5
554
100
AcDbEntity
  8
0
100
AcDbLine
 62
7
  6
CONTINUOUS
 10
12.3584655498
 20
9.6027968394
 11
12.3580048664
 21
9.6027968394
  0
LINE
  5
555
100
AcDbEntity
  8
0
100
AcDbLine
 62
9
  6
CONTINUOUS
 10
12.2882593458
 20
9.6165763669
 11
12.0481018655
 21
9.6165763669
  0
LINE
  5
556
100
AcDbEntity
  8
AXIS_COSMETIC_THREADS
100
AcDbLine
 62
9
  6
CONTINUOUS
 10
12.0481018655
 20
9.6165763669
 11
10.0244798182
 21
9.6165763669
  0
LINE
  5
557
100
AcDbEntity
  8
0
100
AcDbLine
 62
9
  6
CONTINUOUS
 10
9.719361708
 20
9.6165763669
 11
10.0244798182
 21
9.6165763669
  0
LINE
  5
558
100
AcDbEntity
  8
0
100
AcDbLine
 62
7
  6
CONTINUOUS
 10
12.362613977
 20
9.6377968394
 11
12.3580048664
 21
9.6377968394
  0
LINE
  5
559
100
AcDbEntity
  8
0
100
AcDbLine
 62
7
  6
CONTINUOUS
 10
12.3580048664
 20
9.6677968394
 11
12.362613977
 21
9.6677968394
  0
LINE
  5
55A
100
AcDbEntity
  8
0
100
AcDbLine
 62
9
  6
CONTINUOUS
 10
12.327904276
 20
9.7244926652
 11
12.3277324939
 21
9.7244901061
  0
LINE
  5
55B
100
AcDbEntity
  8
0
100
AcDbLine
 62
7
  6
CONTINUOUS
 10
12.3277324939
 20
9.7126795322
 11
12.2962363901
 21
9.7124046699
  0
LINE
  5
55C
100
AcDbEntity
  8
0
100
AcDbLine
 62
9
  6
CONTINUOUS
 10
12.3277324939
 20
9.7244901061
 11
12.2962364309
 21
9.7242152441
  0
LINE
  5
55D
100
AcDbEntity
  8
0
100
AcDbLine
 62
9
  6
CONTINUOUS
 10
12.2882593458
 20
9.6962046057
 11
12.2765513915
 21
9.6962046057
  0
LINE
  5
55E
100
AcDbEntity
  8
0
100
AcDbLine
 62
7
  6
CONTINUOUS
 10
12.3580048664
 20
9.7027968394
 11
12.3584655498
 21
9.7027968394
  0
LINE
  5
55F
100
AcDbEntity
  8
AXIS_COSMETIC_THREADS
100
AcDbLine
 62
7
  6
CONTINUOUS
 10
12.5559758812
 20
9.9138204614
 11
12.3591254875
 21
9.9138204614
  0
LINE
  5
560
100
AcDbEntity
  8
AXIS_COSMETIC_THREADS
100
AcDbLine
 62
7
  6
CENTER
 10
12.1977081647
 20
10.1480724299
 11
12.0484955663
 21
10.1480724299
  0
LINE
  5
561
100
AcDbEntity
  8
AXIS_COSMETIC_THREADS
100
AcDbLine
 62
7
  6
CENTER
 10
9.8945585584
 20
10.1480724299
 11
9.74534596
 21
10.1480724299
  0
LINE
  5
562
100
AcDbEntity
  8
AXIS_COSMETIC_THREADS
100
AcDbLine
 62
2
  6
CENTER
 10
9.1902278497
 20
10.1480724299
 11
9.6797717228
 21
10.1480724299
  0
LINE
  5
563
100
AcDbEntity
  8
AXIS_COSMETIC_THREADS
100
AcDbLine
 62
7
  6
CENTER
 10
9.8945585584
 20
10.1480724299
 11
10.0437711568
 21
10.1480724299
  0
LINE
  5
564
100
AcDbEntity
  8
AXIS_COSMETIC_THREADS
100
AcDbLine
 62
2
  6
CENTER
 10
10.174562398
 20
10.1480724299
 11
11.9645404286
 21
10.1480724299
  0
LINE
  5
565
100
AcDbEntity
  8
AXIS_COSMETIC_THREADS
100
AcDbLine
 62
7
  6
CENTER
 10
12.1977081647
 20
10.1480724299
 11
12.3469207631
 21
10.1480724299
  0
LINE
  5
566
100
AcDbEntity
  8
AXIS_COSMETIC_THREADS
100
AcDbLine
 62
2
  6
CENTER
 10
12.4666074372
 20
10.1480724299
 11
12.8959111112
 21
10.1480724299
  0
LINE
  5
567
100
AcDbEntity
  8
AXIS_COSMETIC_THREADS
100
AcDbLine
 62
7
  6
CONTINUOUS
 10
12.5559758812
 20
10.3823243984
 11
12.3591254875
 21
10.3823243984
  0
LINE
  5
568
100
AcDbEntity
  8
0
100
AcDbLine
 62
9
  6
CONTINUOUS
 10
12.3488242839
 20
9.5593073008
 11
12.3458510817
 21
9.5608919752
  0
LINE
  5
569
100
AcDbEntity
  8
0
100
AcDbLine
 62
7
  6
CONTINUOUS
 10
12.362613977
 20
10.6283480205
 11
12.3591254875
 21
10.6283480205
  0
LINE
  5
56A
100
AcDbEntity
  8
0
100
AcDbLine
 62
7
  6
CONTINUOUS
 10
9.719361708
 20
10.7358677055
 11
9.2864498855
 21
10.7320897413
  0
LINE
  5
56B
100
AcDbEntity
  8
0
100
AcDbLine
 62
7
  6
CONTINUOUS
 10
12.3591254875
 20
10.6583480205
 11
12.362613977
 21
10.6583480205
  0
LINE
  5
56C
100
AcDbEntity
  8
0
100
AcDbLine
 62
9
  6
CONTINUOUS
 10
12.3591254875
 20
10.6795684929
 11
12.0481018655
 21
10.6795684929
  0
LINE
  5
56D
100
AcDbEntity
  8
AXIS_COSMETIC_THREADS
100
AcDbLine
 62
9
  6
CONTINUOUS
 10
12.0481018655
 20
10.6795684929
 11
10.0244798182
 21
10.6795684929
  0
LINE
  5
56E
100
AcDbEntity
  8
0
100
AcDbLine
 62
9
  6
CONTINUOUS
 10
9.719361708
 20
10.6795684929
 11
10.0244798182
 21
10.6795684929
  0
LINE
  5
56F
100
AcDbEntity
  8
0
100
AcDbLine
 62
7
  6
CONTINUOUS
 10
9.7505829195
 20
10.7756034277
 11
10.0244798182
 21
10.7779936897
  0
LINE
  5
570
100
AcDbEntity
  8
0
100
AcDbLine
 62
7
  6
CONTINUOUS
 10
12.2567632828
 20
10.7779936897
 11
12.1386530466
 21
10.7779936897
  0
LINE
  5
571
100
AcDbEntity
  8
AXIS_COSMETIC_THREADS
100
AcDbLine
 62
7
  6
CONTINUOUS
 10
12.0481018655
 20
10.7779936897
 11
10.0244798182
 21
10.7779936897
  0
LINE
  5
572
100
AcDbEntity
  8
0
100
AcDbLine
 62
7
  6
CONTINUOUS
 10
9.9536136765
 20
10.7779936897
 11
9.8355034403
 21
10.7779936897
  0
LINE
  5
573
100
AcDbEntity
  8
0
100
AcDbLine
 62
7
  6
CONTINUOUS
 10
12.327904276
 20
10.7755518911
 11
12.0481018655
 21
10.7779936897
  0
LWPOLYLINE
  5
574
100
AcDbEntity
  8
0
100
AcDbPolyline
 62
9
  6
CONTINUOUS
 90
4
 70
0
 10
12.3579075852
 20
9.5489666926
 10
12.3558018965
 20
9.5527911391
 10
12.3527394531
 20
9.5562774981
 10
12.3488242839
 20
9.5593073008
  0
LINE
  5
575
100
AcDbEntity
  8
0
100
AcDbLine
 62
7
  6
CONTINUOUS
 10
12.0481018655
 20
9.5181511701
 11
12.0481018655
 21
10.7779936897
  0
LINE
  5
576
100
AcDbEntity
  8
AXIS_COSMETIC_THREADS
100
AcDbLine
 62
7
  6
CONTINUOUS
 10
12.0481018655
 20
9.5181511701
 11
12.0481018655
 21
10.7779936897
  0
LINE
  5
577
100
AcDbEntity
  8
DEFAULT_2
100
AcDbLine
 62
8
  6
HIDDEN
 10
12.0727081647
 20
9.518365906
 11
12.0727081647
 21
9.5181511701
  0
LINE
  5
578
100
AcDbEntity
  8
DEFAULT_2
100
AcDbLine
 62
8
  6
HIDDEN
 10
12.1386530466
 20
10.7772034616
 11
12.1386530466
 21
10.7779936897
  0
LINE
  5
579
100
AcDbEntity
  8
AXIS_COSMETIC_THREADS
100
AcDbLine
 62
7
  6
CENTER
 10
12.1977081647
 20
10.1480724299
 11
12.1977081647
 21
9.9988598315
  0
LINE
  5
57A
100
AcDbEntity
  8
AXIS_COSMETIC_THREADS
100
AcDbLine
 62
7
  6
CENTER
 10
12.1977081647
 20
10.1480724299
 11
12.1977081647
 21
10.2972850283
  0
LWPOLYLINE
  5
57B
100
AcDbEntity
  8
0
100
AcDbPolyline
 62
9
  6
CONTINUOUS
 90
3
 70
0
 10
12.3582821105
 20
9.7575354277
 10
12.3582508906
 20
9.7581293318
 10
12.3579076594
 20
9.7589269771
  0
LWPOLYLINE
  5
57C
100
AcDbEntity
  8
0
100
AcDbPolyline
 62
9
  6
CONTINUOUS
 90
9
 70
0
 10
12.327904272
 20
9.5407545578
 10
12.3279720047
 20
9.5379723624
 10
12.3280250304
 20
9.5347108197
 10
12.328058785
 20
9.5312506876
 10
12.3280703634
 20
9.527889819
 10
12.3280587703
 20
9.5249175224
 10
12.3280250049
 20
9.5225896578
 10
12.3279719743
 20
9.5211066118
 10
12.3279042454
 20
9.5205960467
  0
LWPOLYLINE
  5
57D
100
AcDbEntity
  8
0
100
AcDbPolyline
 62
9
  6
CONTINUOUS
 90
9
 70
0
 10
12.2961333615
 20
9.5404788364
 10
12.2961756718
 20
9.5376950937
 10
12.2962143384
 20
9.5344318615
 10
12.2962460316
 20
9.5309701582
 10
12.2962680221
 20
9.5276080938
 10
12.296278416
 20
9.5246351976
 10
12.2962763183
 20
9.5223074854
 10
12.2962619097
 20
9.5208254117
 10
12.2962364309
 20
9.5203166076
  0
LWPOLYLINE
  5
57E
100
AcDbEntity
  8
0
100
AcDbPolyline
 62
9
  6
CONTINUOUS
 90
9
 70
0
 10
12.3276294245
 20
9.5407536984
 10
12.327671735
 20
9.5379699557
 10
12.3277104018
 20
9.5347067231
 10
12.3277420951
 20
9.5312450192
 10
12.3277640855
 20
9.5278829543
 10
12.3277744794
 20
9.5249100582
 10
12.3277723816
 20
9.5225823464
 10
12.3277579728
 20
9.5211002733
 10
12.3277324939
 20
9.5205914696
  0
LINE
  5
57F
100
AcDbEntity
  8
DEFAULT_2
100
AcDbLine
 62
8
  6
HIDDEN
 10
12.2567632828
 20
10.7761727291
 11
12.2567632828
 21
10.7779936897
  0
LINE
  5
580
100
AcDbEntity
  8
0
100
AcDbLine
 62
9
  6
CONTINUOUS
 10
12.2765513915
 20
9.6962046057
 11
12.2765513915
 21
9.5201448189
  0
LINE
  5
581
100
AcDbEntity
  8
0
100
AcDbLine
 62
7
  6
CONTINUOUS
 10
12.2882593458
 20
9.6962046057
 11
12.2882593458
 21
9.5319553928
  0
LINE
  5
582
100
AcDbEntity
  8
0
100
AcDbLine
 62
9
  6
CONTINUOUS
 10
12.2961333615
 20
9.5432968394
 11
12.2961333615
 21
9.5404788364
  0
LINE
  5
583
100
AcDbEntity
  8
0
100
AcDbLine
 62
9
  6
CONTINUOUS
 10
12.3220455943
 20
9.7126299034
 11
12.322045579
 21
9.5432968394
  0
LINE
  5
584
100
AcDbEntity
  8
DEFAULT_2
100
AcDbLine
 62
8
  6
HIDDEN
 10
12.3227081647
 20
9.5205476229
 11
12.3227081647
 21
9.5181511701
  0
LINE
  5
585
100
AcDbEntity
  8
0
100
AcDbLine
 62
9
  6
CONTINUOUS
 10
12.3276294245
 20
9.5441306295
 11
12.3276294245
 21
9.5407536984
  0
LINE
  5
586
100
AcDbEntity
  8
0
100
AcDbLine
 62
9
  6
CONTINUOUS
 10
12.327904276
 20
10.7755518911
 11
12.327904276
 21
9.7244926652
  0
LWPOLYLINE
  5
587
100
AcDbEntity
  8
0
100
AcDbPolyline
 62
7
  6
CONTINUOUS
 90
28
 70
0
 10
12.2882593391
 20
9.696205762
 10
12.2882613695
 20
9.6965385615
 10
12.2882858316
 20
9.6974130604
 10
12.288337525
 20
9.6982787781
 10
12.2884159137
 20
9.6991347876
 10
12.2885204845
 20
9.6999801334
 10
12.2886507346
 20
9.7008138044
 10
12.2888061762
 20
9.701634687
 10
12.2889864013
 20
9.7024414237
 10
12.2891909782
 20
9.7032324979
 10
12.289419389
 20
9.7040062795
 10
12.2896693908
 20
9.7047564164
 10
12.289939239
 20
9.7054797121
 10
12.2902300854
 20
9.7061802747
 10
12.2905433796
 20
9.7068609422
 10
12.2908806914
 20
9.70752315
 10
12.2912434387
 20
9.7081666003
 10
12.291632567
 20
9.7087891144
 10
12.2920483305
 20
9.7093868026
 10
12.292489864
 20
9.7099539221
 10
12.2929542248
 20
9.710482651
 10
12.2934361154
 20
9.7109635013
 10
12.2939331846
 20
9.711390644
 10
12.2944554287
 20
9.7117660587
 10
12.2949978142
 20
9.7120738785
 10
12.2955854803
 20
9.7123040626
 10
12.2961280025
 20
9.7124010983
 10
12.2962363813
 20
9.7124048219
  0
LWPOLYLINE
  5
588
100
AcDbEntity
  8
0
100
AcDbPolyline
 62
9
  6
CONTINUOUS
 90
4
 70
0
 10
12.3579075982
 20
9.5489666952
 10
12.3582508301
 20
9.5471105448
 10
12.3582508299
 20
9.5452413709
 10
12.3579075977
 20
9.5434140195
  0
LINE
  5
589
100
AcDbEntity
  8
0
100
AcDbLine
 62
9
  6
CONTINUOUS
 10
12.345215584
 20
9.7216043529
 11
12.3452155781
 21
9.5589079612
  0
LINE
  5
58A
100
AcDbEntity
  8
0
100
AcDbLine
 62
7
  6
CONTINUOUS
 10
12.3591254875
 20
9.6677968394
 11
12.3591254875
 21
9.6377968394
  0
LINE
  5
58B
100
AcDbEntity
  8
0
100
AcDbLine
 62
7
  6
CONTINUOUS
 10
12.3591254875
 20
9.6090289007
 11
12.3591254875
 21
9.5520878324
  0
LINE
  5
58C
100
AcDbEntity
  8
0
100
AcDbLine
 62
7
  6
CONTINUOUS
 10
12.3591254875
 20
10.7440570274
 11
12.3591254875
 21
9.696564778
  0
LWPOLYLINE
  5
58D
100
AcDbEntity
  8
0
100
AcDbPolyline
 62
9
  6
CONTINUOUS
 90
5
 70
0
 10
12.3591254875
 20
9.7712941776
 10
12.3590513501
 20
9.7683386319
 10
12.358826229
 20
9.765288417
 10
12.3584462298
 20
9.7621492127
 10
12.3579075852
 20
9.7589269771
  0
LWPOLYLINE
  5
58E
100
AcDbEntity
  8
0
100
AcDbPolyline
 62
7
  6
CONTINUOUS
 90
4
 70
0
 10
12.3582820341
 20
9.7575352995
 10
12.3587273554
 20
9.761944551
 10
12.3590586649
 20
9.7675236574
 10
12.3591254864
 20
9.7712800169
  0
LWPOLYLINE
  5
58F
100
AcDbEntity
  8
0
100
AcDbPolyline
 62
9
  6
CONTINUOUS
 90
10
 70
0
 10
12.2882593458
 20
9.5319553928
 10
12.2884391804
 20
9.5337338118
 10
12.2889099704
 20
9.5352936759
 10
12.2895984031
 20
9.5366434102
 10
12.2904641938
 20
9.537799269
 10
12.2914805806
 20
9.5387631499
 10
12.2925999176
 20
9.5395136206
 10
12.2937767806
 20
9.5400448058
 10
12.2949712347
 20
9.5403621745
 10
12.2961333615
 20
9.5404788364
  0
LWPOLYLINE
  5
590
100
AcDbEntity
  8
0
100
AcDbPolyline
 62
9
  6
CONTINUOUS
 90
7
 70
0
 10
12.3280499909
 20
9.7126842631
 10
12.3280588852
 20
9.7127412566
 10
12.3280704766
 20
9.7135835392
 10
12.3280588825
 20
9.7153651631
 10
12.3280251016
 20
9.7179327201
 10
12.3279720427
 20
9.7210651275
 10
12.327904276
 20
9.7244926652
  0
LWPOLYLINE
  5
591
100
AcDbEntity
  8
0
100
AcDbPolyline
 62
9
  6
CONTINUOUS
 90
7
 70
0
 10
12.2962363894
 20
9.7124046699
 10
12.2962459863
 20
9.7124615537
 10
12.2962679741
 20
9.7133037283
 10
12.2962783718
 20
9.7150855832
 10
12.2962762841
 20
9.7176536753
 10
12.2962618906
 20
9.7207868402
 10
12.2962364309
 20
9.7242152441
  0
LWPOLYLINE
  5
592
100
AcDbEntity
  8
0
100
AcDbPolyline
 62
9
  6
CONTINUOUS
 90
7
 70
0
 10
12.3277324939
 20
9.7126795322
 10
12.3277420945
 20
9.7127364309
 10
12.3277640849
 20
9.7135786446
 10
12.3277744788
 20
9.715360516
 10
12.3277723812
 20
9.7179285963
 10
12.3277579726
 20
9.7210617312
 10
12.3277324939
 20
9.7244901061
  0
LWPOLYLINE
  5
593
100
AcDbEntity
  8
0
100
AcDbPolyline
 62
9
  6
CONTINUOUS
 90
10
 70
0
 10
12.3579075852
 20
9.7589269771
 10
12.3561590237
 20
9.7518796148
 10
12.353843715
 20
9.7456707909
 10
12.3510583898
 20
9.7402530905
 10
12.3478450513
 20
9.7355720592
 10
12.344262337
 20
9.731659982
 10
12.3403844102
 20
9.7285646373
 10
12.3362340978
 20
9.726297528
 10
12.3319694849
 20
9.7249428972
 10
12.327904276
 20
9.7244926652
  0
LWPOLYLINE
  5
594
100
AcDbEntity
  8
0
100
AcDbPolyline
 62
9
  6
CONTINUOUS
 90
4
 70
0
 10
12.3579075852
 20
9.5489666926
 10
12.3585902725
 20
9.5499633652
 10
12.3589932742
 20
9.5510070607
 10
12.3591254875
 20
9.5520878324
  0
LINE
  5
595
100
AcDbEntity
  8
AXIS_COSMETIC_THREADS
100
AcDbLine
 62
7
  6
CONTINUOUS
 10
12.5559758812
 20
9.9138204614
 11
12.5559758812
 21
10.3823243984
  0
LWPOLYLINE
  5
596
100
AcDbEntity
  8
0
100
AcDbPolyline
 62
7
  6
CONTINUOUS
 90
13
 70
0
 10
5.6619638555
 20
9.6542570543
 10
5.7333220358
 20
9.6639633832
 10
5.8025795068
 20
9.6839306156
 10
5.8682688287
 20
9.7137515552
 10
5.9289966789
 20
9.7528104119
 10
5.9834733014
 20
9.8002957453
 10
6.0305397653
 20
9.855217538
 10
6.0691924523
 20
9.9164280282
 10
6.0986042613
 20
9.9826458623
 10
6.1181420908
 20
10.0524830574
 10
6.1273802287
 20
10.1244742006
 10
6.1261093763
 20
10.1971072393
 10
6.1143411211
 20
10.2688553457
  0
LINE
  5
597
100
AcDbEntity
  8
AXIS_COSMETIC_THREADS
100
AcDbLine
 62
7
  6
CONTINUOUS
 10
5.134994585
 20
9.5181511701
 11
6.1192465535
 21
9.5181511701
  0
LINE
  5
598
100
AcDbEntity
  8
0
100
AcDbLine
 62
7
  6
CONTINUOUS
 10
5.134994585
 20
9.5181511701
 11
6.1192465535
 21
9.5181511701
  0
LINE
  5
599
100
AcDbEntity
  8
0
100
AcDbLine
 62
9
  6
CONTINUOUS
 10
5.134994585
 20
9.5205414321
 11
6.1192465535
 21
9.5205414321
  0
LINE
  5
59A
100
AcDbEntity
  8
0
100
AcDbLine
 62
9
  6
CONTINUOUS
 10
5.134994585
 20
9.5520362958
 11
6.1192465535
 21
9.5520362958
  0
LINE
  5
59B
100
AcDbEntity
  8
0
100
AcDbLine
 62
9
  6
CONTINUOUS
 10
5.0704545139
 20
9.6165763669
 11
5.0365693881
 21
9.6165763669
  0
LINE
  5
59C
100
AcDbEntity
  8
0
100
AcDbLine
 62
9
  6
CONTINUOUS
 10
6.1837866246
 20
9.6165763669
 11
6.2176717503
 21
9.6165763669
  0
LWPOLYLINE
  5
59D
100
AcDbEntity
  8
0
100
AcDbPolyline
 62
7
  6
CONTINUOUS
 90
9
 70
0
 10
5.3039452793
 20
10.5321689164
 10
5.3606399715
 20
10.5752812786
 10
5.4234288483
 20
10.6102301284
 10
5.4910171546
 20
10.636055428
 10
5.5588524888
 20
10.6515625126
 10
5.6217971955
 20
10.6574910636
 10
5.6795247218
 20
10.656052045
 10
5.7335423829
 20
10.6487194414
 10
5.7856368327
 20
10.6359353243
  0
LWPOLYLINE
  5
59E
100
AcDbEntity
  8
0
100
AcDbPolyline
 62
7
  6
CONTINUOUS
 90
7
 70
0
 10
5.0372737219
 20
10.1480724299
 10
5.0372883553
 20
10.1353355232
 10
5.0373312586
 20
10.1234664638
 10
5.0373995085
 20
10.1132741895
 10
5.037488455
 20
10.105453262
 10
5.0375920363
 20
10.1005367707
 10
5.0377031938
 20
10.0988598315
  0
LWPOLYLINE
  5
59F
100
AcDbEntity
  8
0
100
AcDbPolyline
 62
7
  6
CONTINUOUS
 90
7
 70
0
 10
5.0381326656
 20
10.1480724299
 10
5.0381180323
 20
10.1608093366
 10
5.038075129
 20
10.1726783961
 10
5.038006879
 20
10.1828706703
 10
5.0379179326
 20
10.1906915978
 10
5.0378143513
 20
10.1956080891
 10
5.0377031938
 20
10.1972850283
  0
LINE
  5
5A0
100
AcDbEntity
  8
0
100
AcDbLine
 62
7
  6
CONTINUOUS
 10
5.0365693881
 20
10.6795684929
 11
5.0365693881
 21
9.6165763669
  0
LINE
  5
5A1
100
AcDbEntity
  8
AXIS_COSMETIC_THREADS
100
AcDbLine
 62
7
  6
CONTINUOUS
 10
5.0365693881
 20
10.6795684929
 11
5.0365693881
 21
9.6165763669
  0
LINE
  5
5A2
100
AcDbEntity
  8
0
100
AcDbLine
 62
9
  6
CONTINUOUS
 10
5.0389596502
 20
9.6165763669
 11
5.0389596502
 21
10.6795684929
  0
LINE
  5
5A3
100
AcDbEntity
  8
0
100
AcDbLine
 62
9
  6
CONTINUOUS
 10
5.0704545139
 20
10.6795684929
 11
5.0704545139
 21
10.33682144
  0
LINE
  5
5A4
100
AcDbEntity
  8
0
100
AcDbLine
 62
9
  6
CONTINUOUS
 10
5.0704545139
 20
9.9593234198
 11
5.0704545139
 21
9.6165763669
  0
LWPOLYLINE
  5
5A5
100
AcDbEntity
  8
0
100
AcDbPolyline
 62
7
  6
CONTINUOUS
 90
11
 70
0
 10
5.0390739491
 20
10.1480724299
 10
5.0392255471
 20
10.1608755188
 10
5.0396816779
 20
10.1740177478
 10
5.0405055436
 20
10.1881876653
 10
5.0418050668
 20
10.2037317514
 10
5.0437326187
 20
10.220968859
 10
5.0464523065
 20
10.2399504328
 10
5.0501390758
 20
10.2606417378
 10
5.0550661701
 20
10.2833434318
 10
5.0616532375
 20
10.3085805457
 10
5.0704545139
 20
10.33682144
  0
LWPOLYLINE
  5
5A6
100
AcDbEntity
  8
0
100
AcDbPolyline
 62
7
  6
CONTINUOUS
 90
7
 70
0
 10
5.0377031938
 20
10.1972850283
 10
5.0375920363
 20
10.1956080891
 10
5.037488455
 20
10.1906915978
 10
5.0373995085
 20
10.1828706703
 10
5.0373312586
 20
10.1726783961
 10
5.0372883553
 20
10.1608093366
 10
5.0372737219
 20
10.1480724299
  0
LWPOLYLINE
  5
5A7
100
AcDbEntity
  8
0
100
AcDbPolyline
 62
7
  6
CONTINUOUS
 90
7
 70
0
 10
5.0377031938
 20
10.0988598315
 10
5.0378143513
 20
10.1005367707
 10
5.0379179326
 20
10.105453262
 10
5.038006879
 20
10.1132741895
 10
5.038075129
 20
10.1234664638
 10
5.0381180323
 20
10.1353355232
 10
5.0381326656
 20
10.1480724299
  0
LINE
  5
5A8
100
AcDbEntity
  8
AXIS_COSMETIC_THREADS
100
AcDbLine
 62
2
  6
CENTER
 10
5.6271205692
 20
10.1480724299
 11
4.9393252936
 21
10.1480724299
  0
LINE
  5
5A9
100
AcDbEntity
  8
AXIS_COSMETIC_THREADS
100
AcDbLine
 62
2
  6
CENTER
 10
5.6271205692
 20
10.1480724299
 11
6.3149158448
 21
10.1480724299
  0
LWPOLYLINE
  5
5AA
100
AcDbEntity
  8
0
100
AcDbPolyline
 62
7
  6
CONTINUOUS
 90
11
 70
0
 10
5.0704545139
 20
9.9593234198
 10
5.0617186994
 20
9.9873344773
 10
5.0551670164
 20
10.0123777872
 10
5.0502505368
 20
10.0349375643
 10
5.0465562091
 20
10.0555468975
 10
5.0438152568
 20
10.0745268593
 10
5.0418616072
 20
10.091832928
 10
5.0405386207
 20
10.1074891657
 10
5.03969658
 20
10.1218051527
 10
5.0392292103
 20
10.1351132515
 10
5.0390739491
 20
10.1480724299
  0
LINE
  5
5AB
100
AcDbEntity
  8
0
100
AcDbLine
 62
9
  6
CONTINUOUS
 10
5.134994585
 20
9.5520362958
 11
5.134994585
 21
9.5181511701
  0
LINE
  5
5AC
100
AcDbEntity
  8
0
100
AcDbLine
 62
9
  6
CONTINUOUS
 10
5.134994585
 20
10.744108564
 11
5.134994585
 21
10.7779936897
  0
LWPOLYLINE
  5
5AD
100
AcDbEntity
  8
0
100
AcDbPolyline
 62
7
  6
CONTINUOUS
 90
22
 70
0
 10
5.5566560862
 20
10.6257685652
 10
5.4875524345
 20
10.6109348153
 10
5.4212920758
 20
10.5861568983
 10
5.3592972033
 20
10.551949941
 10
5.3029011597
 20
10.5090318563
 10
5.2533177357
 20
10.4583068839
 10
5.21161679
 20
10.4008472939
 10
5.1787004638
 20
10.3378696582
 10
5.1552846627
 20
10.2707101778
 10
5.1418829331
 20
10.2007947616
 10
5.1387959837
 20
10.1296094032
 10
5.1461056904
 20
10.0586656038
 10
5.1636722792
 20
9.9894780073
 10
5.1911371368
 20
9.9235216043
 10
5.2279307956
 20
9.8622039758
 10
5.2732849775
 20
9.8068353457
 10
5.3262488592
 20
9.7586007158
 10
5.3857092023
 20
9.7185346726
 10
5.4504139316
 20
9.6874993837
 10
5.5189986441
 20
9.6661662649
 10
5.5900154983
 20
9.6550016905
 10
5.6619638555
 20
9.6542570543
  0
LINE
  5
5AE
100
AcDbEntity
  8
0
100
AcDbLine
 62
7
  6
CONTINUOUS
 10
5.6271205692
 20
10.6303558945
 11
5.5566560862
 21
10.6257685652
  0
LINE
  5
5AF
100
AcDbEntity
  8
AXIS_COSMETIC_THREADS
100
AcDbLine
 62
2
  6
CENTER
 10
5.6271205692
 20
10.1480724299
 11
5.6271205692
 21
9.4602771543
  0
LINE
  5
5B0
100
AcDbEntity
  8
AXIS_COSMETIC_THREADS
100
AcDbLine
 62
2
  6
CENTER
 10
5.6271205692
 20
10.1480724299
 11
5.6271205692
 21
10.8358677055
  0
LINE
  5
5B1
100
AcDbEntity
  8
0
100
AcDbLine
 62
9
  6
CONTINUOUS
 10
5.0704545139
 20
10.6795684929
 11
5.0365693881
 21
10.6795684929
  0
LINE
  5
5B2
100
AcDbEntity
  8
0
100
AcDbLine
 62
9
  6
CONTINUOUS
 10
6.1837866246
 20
10.6795684929
 11
6.2176717503
 21
10.6795684929
  0
LINE
  5
5B3
100
AcDbEntity
  8
0
100
AcDbLine
 62
9
  6
CONTINUOUS
 10
6.1192465535
 20
10.744108564
 11
5.134994585
 21
10.744108564
  0
LINE
  5
5B4
100
AcDbEntity
  8
0
100
AcDbLine
 62
9
  6
CONTINUOUS
 10
6.1192465535
 20
10.7756034277
 11
5.134994585
 21
10.7756034277
  0
LINE
  5
5B5
100
AcDbEntity
  8
AXIS_COSMETIC_THREADS
100
AcDbLine
 62
7
  6
CONTINUOUS
 10
6.1192465535
 20
10.7779936897
 11
5.134994585
 21
10.7779936897
  0
LINE
  5
5B6
100
AcDbEntity
  8
0
100
AcDbLine
 62
7
  6
CONTINUOUS
 10
6.1192465535
 20
10.7779936897
 11
5.134994585
 21
10.7779936897
  0
LWPOLYLINE
  5
5B7
100
AcDbEntity
  8
0
100
AcDbPolyline
 62
7
  6
CONTINUOUS
 90
13
 70
0
 10
5.5779079708
 20
10.7768598841
 10
5.579584915
 20
10.7767487265
 10
5.5845013884
 20
10.7766451455
 10
5.5923223196
 20
10.7765561989
 10
5.602514581
 20
10.776487949
 10
5.6143836312
 20
10.7764450456
 10
5.6271205692
 20
10.7764304123
 10
5.6398575073
 20
10.7764450456
 10
5.6517265575
 20
10.776487949
 10
5.6619188188
 20
10.7765561989
 10
5.6697397501
 20
10.7766451455
 10
5.6746562234
 20
10.7767487265
 10
5.6763331677
 20
10.7768598841
  0
LWPOLYLINE
  5
5B8
100
AcDbEntity
  8
0
100
AcDbPolyline
 62
7
  6
CONTINUOUS
 90
13
 70
0
 10
5.6763331677
 20
10.7768598841
 10
5.6746562234
 20
10.7769710417
 10
5.6697397501
 20
10.7770746227
 10
5.6619188188
 20
10.7771635693
 10
5.6517265575
 20
10.7772318192
 10
5.6398575073
 20
10.7772747225
 10
5.6271205692
 20
10.7772893559
 10
5.6143836312
 20
10.7772747225
 10
5.602514581
 20
10.7772318192
 10
5.5923223196
 20
10.7771635693
 10
5.5845013884
 20
10.7770746227
 10
5.579584915
 20
10.7769710417
 10
5.5779079708
 20
10.7768598841
  0
LWPOLYLINE
  5
5B9
100
AcDbEntity
  8
0
100
AcDbPolyline
 62
7
  6
CONTINUOUS
 90
9
 70
0
 10
5.7856368327
 20
10.6359353243
 10
5.8446595931
 20
10.6111319536
 10
5.9002719439
 20
10.5790498013
 10
5.9513049414
 20
10.5403307724
 10
5.9966098759
 20
10.4960143244
 10
6.0360529432
 20
10.4463733099
 10
6.069828483
 20
10.3905640553
 10
6.0965752106
 20
10.3296198677
 10
6.1143411211
 20
10.2688553457
  0
LWPOLYLINE
  5
5BA
100
AcDbEntity
  8
0
100
AcDbPolyline
 62
7
  6
CONTINUOUS
 90
11
 70
0
 10
5.9105996771
 20
10.5382479488
 10
5.8570850579
 20
10.5742491436
 10
5.7993052658
 20
10.6027966518
 10
5.7384511884
 20
10.6233961385
 10
5.6747531091
 20
10.6359080534
 10
5.609203479
 20
10.6398845578
 10
5.5435305109
 20
10.6350692949
 10
5.4793744276
 20
10.6216422401
 10
5.4176653848
 20
10.5999198902
 10
5.3586554145
 20
10.5698874342
 10
5.3039452793
 20
10.5321689164
  0
LINE
  5
5BB
100
AcDbEntity
  8
AXIS_COSMETIC_THREADS
100
AcDbLine
 62
7
  6
CONTINUOUS
 10
6.0542859236
 20
10.3188496483
 11
6.0542859236
 21
9.9772952115
  0
LINE
  5
5BC
100
AcDbEntity
  8
0
100
AcDbLine
 62
9
  6
CONTINUOUS
 10
6.1192465535
 20
9.5520362958
 11
6.1192465535
 21
9.5181511701
  0
LINE
  5
5BD
100
AcDbEntity
  8
0
100
AcDbLine
 62
9
  6
CONTINUOUS
 10
6.1192465535
 20
10.744108564
 11
6.1192465535
 21
10.7779936897
  0
LWPOLYLINE
  5
5BE
100
AcDbEntity
  8
0
100
AcDbPolyline
 62
7
  6
CONTINUOUS
 90
7
 70
0
 10
6.2161084728
 20
10.1480724299
 10
6.2161231061
 20
10.1353355232
 10
6.2161660095
 20
10.1234664638
 10
6.2162342594
 20
10.1132741895
 10
6.2163232058
 20
10.105453262
 10
6.2164267872
 20
10.1005367707
 10
6.2165379447
 20
10.0988598315
  0
LWPOLYLINE
  5
5BF
100
AcDbEntity
  8
0
100
AcDbPolyline
 62
7
  6
CONTINUOUS
 90
7
 70
0
 10
6.2169674165
 20
10.1480724299
 10
6.2169527832
 20
10.1608093366
 10
6.2169098799
 20
10.1726783961
 10
6.2168416299
 20
10.1828706703
 10
6.2167526835
 20
10.1906915978
 10
6.2166491021
 20
10.1956080891
 10
6.2165379447
 20
10.1972850283
  0
LINE
  5
5C0
100
AcDbEntity
  8
0
100
AcDbLine
 62
9
  6
CONTINUOUS
 10
6.1837866246
 20
9.6165763669
 11
6.1837866246
 21
9.9593234198
  0
LINE
  5
5C1
100
AcDbEntity
  8
0
100
AcDbLine
 62
9
  6
CONTINUOUS
 10
6.1837866246
 20
10.33682144
 11
6.1837866246
 21
10.6795684929
  0
LINE
  5
5C2
100
AcDbEntity
  8
0
100
AcDbLine
 62
9
  6
CONTINUOUS
 10
6.2152814883
 20
10.6795684929
 11
6.2152814883
 21
9.6165763669
  0
LINE
  5
5C3
100
AcDbEntity
  8
AXIS_COSMETIC_THREADS
100
AcDbLine
 62
7
  6
CONTINUOUS
 10
6.2176717503
 20
9.6165763669
 11
6.2176717503
 21
10.6795684929
  0
LINE
  5
5C4
100
AcDbEntity
  8
0
100
AcDbLine
 62
7
  6
CONTINUOUS
 10
6.2176717503
 20
9.6165763669
 11
6.2176717503
 21
10.6795684929
  0
LWPOLYLINE
  5
5C5
100
AcDbEntity
  8
0
100
AcDbPolyline
 62
7
  6
CONTINUOUS
 90
11
 70
0
 10
6.2151671893
 20
10.1480724299
 10
6.2150155914
 20
10.135269341
 10
6.2145594606
 20
10.1221271121
 10
6.2137355949
 20
10.1079571945
 10
6.2124360716
 20
10.0924131085
 10
6.2105085198
 20
10.0751760008
 10
6.207788832
 20
10.056194427
 10
6.2041020627
 20
10.035503122
 10
6.1991749683
 20
10.012801428
 10
6.1925879009
 20
9.9875643141
 10
6.1837866246
 20
9.9593234198
  0
LWPOLYLINE
  5
5C6
100
AcDbEntity
  8
0
100
AcDbPolyline
 62
7
  6
CONTINUOUS
 90
7
 70
0
 10
6.2165379447
 20
10.1972850283
 10
6.2164267872
 20
10.1956080891
 10
6.2163232058
 20
10.1906915978
 10
6.2162342594
 20
10.1828706703
 10
6.2161660095
 20
10.1726783961
 10
6.2161231061
 20
10.1608093366
 10
6.2161084728
 20
10.1480724299
  0
LWPOLYLINE
  5
5C7
100
AcDbEntity
  8
0
100
AcDbPolyline
 62
7
  6
CONTINUOUS
 90
7
 70
0
 10
6.2165379447
 20
10.0988598315
 10
6.2166491021
 20
10.1005367707
 10
6.2167526835
 20
10.105453262
 10
6.2168416299
 20
10.1132741895
 10
6.2169098799
 20
10.1234664638
 10
6.2169527832
 20
10.1353355232
 10
6.2169674165
 20
10.1480724299
  0
LWPOLYLINE
  5
5C8
100
AcDbEntity
  8
0
100
AcDbPolyline
 62
7
  6
CONTINUOUS
 90
11
 70
0
 10
6.1837866246
 20
10.33682144
 10
6.192522439
 20
10.3088103825
 10
6.199074122
 20
10.2837670726
 10
6.2039906016
 20
10.2612072955
 10
6.2076849294
 20
10.2405979623
 10
6.2104258817
 20
10.2216180005
 10
6.2123795312
 20
10.2043119319
 10
6.2137025178
 20
10.1886556941
 10
6.2145445584
 20
10.1743397071
 10
6.2150119282
 20
10.1610316083
 10
6.2151671893
 20
10.1480724299
  0
LWPOLYLINE
  5
5C9
100
AcDbEntity
  8
0
100
AcDbPolyline
 62
7
  6
CONTINUOUS
 90
9
 70
0
 10
15.7785760575
 20
10.1480724299
 10
15.7785843093
 20
10.1384717319
 10
15.7786087478
 20
10.1292399228
 10
15.7786484342
 20
10.1207317732
 10
15.7787018437
 20
10.1132742293
 10
15.778766924
 20
10.1071539163
 10
15.7788411746
 20
10.1026060553
 10
15.7789217418
 20
10.0998054764
 10
15.7790055293
 20
10.0988598315
  0
LWPOLYLINE
  5
5CA
100
AcDbEntity
  8
0
100
AcDbPolyline
 62
7
  6
CONTINUOUS
 90
9
 70
0
 10
15.7794350011
 20
10.1480724299
 10
15.7794267493
 20
10.1576731279
 10
15.7794023108
 20
10.166904937
 10
15.7793626244
 20
10.1754130866
 10
15.7793092149
 20
10.1828706305
 10
15.7792441345
 20
10.1889909435
 10
15.779169884
 20
10.1935388045
 10
15.7790893168
 20
10.1963393834
 10
15.7790055293
 20
10.1972850283
  0
LINE
  5
5CB
100
AcDbEntity
  8
0
100
AcDbLine
 62
7
  6
CONTINUOUS
 10
15.7776999349
 20
10.6795684929
 11
15.7776999349
 21
9.6165763669
  0
LINE
  5
5CC
100
AcDbEntity
  8
AXIS_COSMETIC_THREADS
100
AcDbLine
 62
7
  6
CONTINUOUS
 10
15.7776999349
 20
9.6165763669
 11
15.7776999349
 21
10.6795684929
  0
LINE
  5
5CD
100
AcDbEntity
  8
0
100
AcDbLine
 62
7
  6
CONTINUOUS
 10
15.7796935837
 20
9.6962046057
 11
15.7796935837
 21
9.6165763669
  0
LINE
  5
5CE
100
AcDbEntity
  8
0
100
AcDbLine
 62
9
  6
CONTINUOUS
 10
15.7801417335
 20
10.6795684929
 11
15.7801417335
 21
9.7244926652
  0
LINE
  5
5CF
100
AcDbEntity
  8
0
100
AcDbLine
 62
9
  6
CONTINUOUS
 10
15.7915041576
 20
9.6962046057
 11
15.7915041576
 21
9.6165763669
  0
LINE
  5
5D0
100
AcDbEntity
  8
0
100
AcDbLine
 62
9
  6
CONTINUOUS
 10
15.8116365973
 20
10.6795684929
 11
15.8116365973
 21
9.7712942243
  0
LINE
  5
5D1
100
AcDbEntity
  8
0
100
AcDbLine
 62
7
  6
CONTINUOUS
 10
15.8623456042
 20
9.6377968394
 11
15.8623456042
 21
9.6677968394
  0
LINE
  5
5D2
100
AcDbEntity
  8
0
100
AcDbLine
 62
9
  6
CONTINUOUS
 10
15.8761251317
 20
9.5319553928
 11
15.8761251317
 21
9.5181511701
  0
LINE
  5
5D3
100
AcDbEntity
  8
0
100
AcDbLine
 62
9
  6
CONTINUOUS
 10
15.8761251317
 20
10.7440570274
 11
15.8761251317
 21
10.7779936897
  0
LWPOLYLINE
  5
5D4
100
AcDbEntity
  8
0
100
AcDbPolyline
 62
9
  6
CONTINUOUS
 90
10
 70
0
 10
15.7798653724
 20
9.7242152441
 10
15.7798400303
 20
9.7238854479
 10
15.7798139722
 20
9.7228883144
 10
15.7797882915
 20
9.7211781794
 10
15.7797638678
 20
9.7187341812
 10
15.7797416869
 20
9.7155724772
 10
15.7797227973
 20
9.711763614
 10
15.7797077782
 20
9.7072995348
 10
15.7796975062
 20
9.7021238988
 10
15.7796935837
 20
9.6962046057
  0
LWPOLYLINE
  5
5D5
100
AcDbEntity
  8
0
100
AcDbPolyline
 62
7
  6
CONTINUOUS
 90
9
 70
0
 10
15.7790055293
 20
10.1972850283
 10
15.7789217418
 20
10.1963393834
 10
15.7788411746
 20
10.1935388045
 10
15.778766924
 20
10.1889909435
 10
15.7787018437
 20
10.1828706305
 10
15.7786484342
 20
10.1754130866
 10
15.7786087478
 20
10.166904937
 10
15.7785843093
 20
10.1576731279
 10
15.7785760575
 20
10.1480724299
  0
LWPOLYLINE
  5
5D6
100
AcDbEntity
  8
0
100
AcDbPolyline
 62
7
  6
CONTINUOUS
 90
9
 70
0
 10
15.7790055293
 20
10.0988598315
 10
15.7790893168
 20
10.0998054764
 10
15.779169884
 20
10.1026060553
 10
15.7792441345
 20
10.1071539163
 10
15.7793092149
 20
10.1132742293
 10
15.7793626244
 20
10.1207317732
 10
15.7794023108
 20
10.1292399228
 10
15.7794267493
 20
10.1384717319
 10
15.7794350011
 20
10.1480724299
  0
LINE
  5
5D7
100
AcDbEntity
  8
0
100
AcDbLine
 62
9
  6
CONTINUOUS
 10
15.8085154575
 20
9.7566269861
 11
15.8302209977
 21
9.7349214458
  0
LINE
  5
5D8
100
AcDbEntity
  8
0
100
AcDbLine
 62
9
  6
CONTINUOUS
 10
15.9944702107
 20
9.5706722329
 11
16.0161757509
 21
9.5489666926
  0
LWPOLYLINE
  5
5D9
100
AcDbEntity
  8
0
100
AcDbPolyline
 62
9
  6
CONTINUOUS
 90
4
 70
0
 10
16.0161757483
 20
9.5489666952
 10
16.0169038632
 20
9.5471105448
 10
16.0176781004
 20
9.5452413709
 10
16.0184757419
 20
9.5434140195
  0
LINE
  5
5DA
100
AcDbEntity
  8
0
100
AcDbLine
 62
7
  6
CONTINUOUS
 10
15.8973456042
 20
9.6027968394
 11
15.8973456042
 21
9.6377968394
  0
LINE
  5
5DB
100
AcDbEntity
  8
0
100
AcDbLine
 62
7
  6
CONTINUOUS
 10
15.8973456042
 20
9.6677968394
 11
15.8973456042
 21
9.7027968394
  0
LINE
  5
5DC
100
AcDbEntity
  8
0
100
AcDbLine
 62
7
  6
CONTINUOUS
 10
15.9273456042
 20
9.7027968394
 11
15.9273456042
 21
9.6677968394
  0
LINE
  5
5DD
100
AcDbEntity
  8
0
100
AcDbLine
 62
7
  6
CONTINUOUS
 10
15.9273456042
 20
9.6377968394
 11
15.9273456042
 21
9.6027968394
  0
LINE
  5
5DE
100
AcDbEntity
  8
0
100
AcDbLine
 62
9
  6
CONTINUOUS
 10
15.9557533706
 20
9.5319553928
 11
15.9557533706
 21
9.5201448189
  0
LINE
  5
5DF
100
AcDbEntity
  8
0
100
AcDbLine
 62
7
  6
CONTINUOUS
 10
15.9623456042
 20
9.6677968394
 11
15.9623456042
 21
9.6377968394
  0
LINE
  5
5E0
100
AcDbEntity
  8
DEFAULT_1
100
AcDbLine
 62
7
  6
CENTER
 10
16.0389204073
 20
10.5220881779
 11
16.0389204073
 21
10.3531905401
  0
LINE
  5
5E1
100
AcDbEntity
  8
DEFAULT_1
100
AcDbLine
 62
7
  6
CENTER
 10
16.0389204073
 20
10.5220881779
 11
16.0389204073
 21
10.6909858157
  0
LINE
  5
5E2
100
AcDbEntity
  8
0
100
AcDbLine
 62
9
  6
CONTINUOUS
 10
15.8085154575
 20
9.7566269861
 11
15.8003036443
 21
9.7161413283
  0
LWPOLYLINE
  5
5E3
100
AcDbEntity
  8
0
100
AcDbPolyline
 62
9
  6
CONTINUOUS
 90
4
 70
0
 10
15.8116366319
 20
9.7712942502
 10
15.8105559444
 20
9.7665270486
 10
15.8095122341
 20
9.7616292686
 10
15.8085154575
 20
9.7566269861
  0
LINE
  5
5E4
100
AcDbEntity
  8
0
100
AcDbLine
 62
9
  6
CONTINUOUS
 10
15.8003036443
 20
9.7161413283
 11
15.8003024632
 21
9.7161384512
  0
LWPOLYLINE
  5
5E5
100
AcDbEntity
  8
0
100
AcDbPolyline
 62
9
  6
CONTINUOUS
 90
10
 70
0
 10
15.8000276012
 20
9.7158635892
 10
15.7999109393
 20
9.7156249776
 10
15.7995935706
 20
9.7149191447
 10
15.7990623855
 20
9.7137142051
 10
15.7983119147
 20
9.7119958759
 10
15.7973480338
 20
9.7097764391
 10
15.796192175
 20
9.7071046183
 10
15.794842441
 20
9.7039752121
 10
15.7932825761
 20
9.70034933
 10
15.7915041576
 20
9.6962046057
  0
LINE
  5
5E6
100
AcDbEntity
  8
0
100
AcDbLine
 62
9
  6
CONTINUOUS
 10
15.7801417335
 20
9.7244926652
 11
15.7801402344
 21
9.7244901061
  0
LWPOLYLINE
  5
5E7
100
AcDbEntity
  8
0
100
AcDbPolyline
 62
9
  6
CONTINUOUS
 90
4
 70
0
 10
15.808515471
 20
9.7566269725
 10
15.8066593111
 20
9.7573550909
 10
15.8047901276
 20
9.7581293318
 10
15.8029627667
 20
9.7589269771
  0
LINE
  5
5E8
100
AcDbEntity
  8
0
100
AcDbLine
 62
7
  6
CONTINUOUS
 10
16.2415975727
 20
10.149135422
 11
16.2415975727
 21
10.1092141622
  0
LINE
  5
5E9
100
AcDbEntity
  8
0
100
AcDbLine
 62
7
  6
CONTINUOUS
 10
16.2545896987
 20
10.2223637685
 11
16.2545896987
 21
10.1824425086
  0
LINE
  5
5EA
100
AcDbEntity
  8
0
100
AcDbLine
 62
7
  6
CONTINUOUS
 10
16.2786054467
 20
10.0849621937
 11
16.2786054467
 21
10.0450409338
  0
LINE
  5
5EB
100
AcDbEntity
  8
0
100
AcDbLine
 62
7
  6
CONTINUOUS
 10
16.2815188325
 20
10.1092141622
 11
16.2815188325
 21
10.149135422
  0
LINE
  5
5EC
100
AcDbEntity
  8
0
100
AcDbLine
 62
7
  6
CONTINUOUS
 10
16.2945109585
 20
10.1824425086
 11
16.2945109585
 21
10.2223637685
  0
LINE
  5
5ED
100
AcDbEntity
  8
0
100
AcDbLine
 62
7
  6
CONTINUOUS
 10
16.3108889113
 20
10.269607863
 11
16.3108889113
 21
10.2296866031
  0
LINE
  5
5EE
100
AcDbEntity
  8
0
100
AcDbLine
 62
7
  6
CONTINUOUS
 10
16.3108889113
 20
10.1463795165
 11
16.3108889113
 21
10.1064582567
  0
LINE
  5
5EF
100
AcDbEntity
  8
0
100
AcDbLine
 62
7
  6
CONTINUOUS
 10
16.3185267066
 20
10.0450409338
 11
16.3185267066
 21
10.0849621937
  0
LINE
  5
5F0
100
AcDbEntity
  8
0
100
AcDbLine
 62
9
  6
CONTINUOUS
 10
15.8029627879
 20
9.7589269771
 11
15.7801417335
 21
9.7244926652
  0
LWPOLYLINE
  5
5F1
100
AcDbEntity
  8
0
100
AcDbPolyline
 62
9
  6
CONTINUOUS
 90
5
 70
0
 10
15.8116365973
 20
9.7712941776
 10
15.8094768339
 20
9.7683386319
 10
15.807305157
 20
9.765288417
 10
15.8051307154
 20
9.7621492127
 10
15.8029627879
 20
9.7589269771
  0
LWPOLYLINE
  5
5F2
100
AcDbEntity
  8
0
100
AcDbPolyline
 62
9
  6
CONTINUOUS
 90
5
 70
0
 10
16.7180264901
 20
10.7527308367
 10
16.7148046411
 20
10.7505631787
 10
16.7116656022
 20
10.7483888538
 10
16.7086152746
 20
10.746217107
 10
16.7056592895
 20
10.7440570274
  0
LINE
  5
5F3
100
AcDbEntity
  8
0
100
AcDbLine
 62
9
  6
CONTINUOUS
 10
16.7524608019
 20
10.7755518911
 11
16.7180264901
 21
10.7527308367
  0
LINE
  5
5F4
100
AcDbEntity
  8
0
100
AcDbLine
 62
9
  6
CONTINUOUS
 10
16.7524633611
 20
10.7755533902
 11
16.7524608019
 21
10.7755518911
  0
LWPOLYLINE
  5
5F5
100
AcDbEntity
  8
0
100
AcDbPolyline
 62
9
  6
CONTINUOUS
 90
10
 70
0
 10
16.7807488614
 20
10.764189467
 10
16.7766041373
 20
10.7624110481
 10
16.7729782549
 20
10.7608511839
 10
16.7698488488
 20
10.7595014496
 10
16.767177028
 20
10.7583455908
 10
16.7649575913
 20
10.7573817099
 10
16.7632392621
 20
10.7566312392
 10
16.7620343225
 20
10.756100054
 10
16.7613284895
 20
10.7557826854
 10
16.761089878
 20
10.7556660234
  0
LINE
  5
5F6
100
AcDbEntity
  8
0
100
AcDbLine
 62
9
  6
CONTINUOUS
 10
16.760815016
 20
10.7553911614
 11
16.7608121388
 21
10.7553899803
  0
LWPOLYLINE
  5
5F7
100
AcDbEntity
  8
0
100
AcDbPolyline
 62
9
  6
CONTINUOUS
 90
10
 70
0
 10
15.9557533706
 20
9.5201448189
 10
15.9616726636
 20
9.5201487414
 10
15.9668482997
 20
9.5201590134
 10
15.9713123788
 20
9.5201740325
 10
15.975121242
 20
9.520192922
 10
15.978282946
 20
9.5202151029
 10
15.9807269443
 20
9.5202395266
 10
15.9824370792
 20
9.5202652074
 10
15.9834342128
 20
9.5202912655
 10
15.9837640089
 20
9.5203166076
  0
LINE
  5
5F8
100
AcDbEntity
  8
AXIS_COSMETIC_THREADS
100
AcDbLine
 62
7
  6
CONTINUOUS
 10
16.8603771003
 20
9.5181511701
 11
15.8761251317
 21
9.5181511701
  0
LINE
  5
5F9
100
AcDbEntity
  8
0
100
AcDbLine
 62
7
  6
CONTINUOUS
 10
15.8761251317
 20
9.5181511701
 11
16.8603771003
 21
9.5181511701
  0
LINE
  5
5FA
100
AcDbEntity
  8
0
100
AcDbLine
 62
7
  6
CONTINUOUS
 10
15.8761251317
 20
9.5201448189
 11
15.9557533706
 21
9.5201448189
  0
LINE
  5
5FB
100
AcDbEntity
  8
0
100
AcDbLine
 62
9
  6
CONTINUOUS
 10
15.9840414301
 20
9.5205929687
 11
16.8603771003
 21
9.5205929687
  0
LINE
  5
5FC
100
AcDbEntity
  8
0
100
AcDbLine
 62
9
  6
CONTINUOUS
 10
15.8761251317
 20
9.5319553928
 11
15.9557533706
 21
9.5319553928
  0
LINE
  5
5FD
100
AcDbEntity
  8
0
100
AcDbLine
 62
9
  6
CONTINUOUS
 10
16.0308429429
 20
9.5520878324
 11
16.8603771003
 21
9.5520878324
  0
LWPOLYLINE
  5
5FE
100
AcDbEntity
  8
0
100
AcDbPolyline
 62
7
  6
CONTINUOUS
 90
20
 70
0
 10
16.267751116
 20
9.5194567645
 10
16.2691214727
 20
9.5193124241
 10
16.2731992598
 20
9.5191719161
 10
16.2798611159
 20
9.5190393813
 10
16.288951254
 20
9.5189179709
 10
16.3001769681
 20
9.5188115567
 10
16.3132972527
 20
9.5187224452
 10
16.3278683069
 20
9.5186536328
 10
16.343597044
 20
9.5186065137
 10
16.3599356057
 20
9.5185827216
 10
16.3765666263
 20
9.5185827216
 10
16.392905188
 20
9.5186065137
 10
16.4086339251
 20
9.5186536328
 10
16.4232049793
 20
9.5187224452
 10
16.4363252639
 20
9.5188115567
 10
16.447550978
 20
9.5189179709
 10
16.4566411161
 20
9.5190393813
 10
16.4633029722
 20
9.5191719161
 10
16.4673807593
 20
9.5193124241
 10
16.468751116
 20
9.5194567645
  0
LWPOLYLINE
  5
5FF
100
AcDbEntity
  8
0
100
AcDbPolyline
 62
7
  6
CONTINUOUS
 90
20
 70
0
 10
16.468751116
 20
9.5194567645
 10
16.4673807593
 20
9.5196011048
 10
16.4633029722
 20
9.5197416128
 10
16.4566411161
 20
9.5198741476
 10
16.447550978
 20
9.519995558
 10
16.4363252639
 20
9.5201019722
 10
16.4232049793
 20
9.5201910837
 10
16.4086339251
 20
9.5202598961
 10
16.392905188
 20
9.5203070152
 10
16.3765666263
 20
9.5203308073
 10
16.3599356057
 20
9.5203308073
 10
16.343597044
 20
9.5203070152
 10
16.3278683069
 20
9.5202598961
 10
16.3132972527
 20
9.5201910837
 10
16.3001769681
 20
9.5201019722
 10
16.288951254
 20
9.519995558
 10
16.2798611159
 20
9.5198741476
 10
16.2731992598
 20
9.5197416128
 10
16.2691214727
 20
9.5196011048
 10
16.267751116
 20
9.5194567645
  0
LINE
  5
600
100
AcDbEntity
  8
0
100
AcDbLine
 62
7
  6
CONTINUOUS
 10
16.3482904861
 20
10.2113401464
 11
16.3482904861
 21
10.1714188866
  0
LINE
  5
601
100
AcDbEntity
  8
0
100
AcDbLine
 62
7
  6
CONTINUOUS
 10
16.3482904861
 20
10.0597653433
 11
16.3482904861
 21
10.0198440834
  0
LINE
  5
602
100
AcDbEntity
  8
0
100
AcDbLine
 62
7
  6
CONTINUOUS
 10
16.3508101711
 20
10.1064582567
 11
16.3508101711
 21
10.1463795165
  0
LINE
  5
603
100
AcDbEntity
  8
0
100
AcDbLine
 62
7
  6
CONTINUOUS
 10
16.3508101711
 20
10.2296866031
 11
16.3508101711
 21
10.269607863
  0
LINE
  5
604
100
AcDbEntity
  8
0
100
AcDbLine
 62
7
  6
CONTINUOUS
 10
16.3535503286
 20
10.427599989
 11
16.3535503286
 21
10.4227380859
  0
LINE
  5
605
100
AcDbEntity
  8
AXIS_COSMETIC_THREADS
100
AcDbLine
 62
2
  6
CENTER
 10
16.368251116
 20
10.1480724299
 11
16.368251116
 21
9.4602771543
  0
LINE
  5
606
100
AcDbEntity
  8
AXIS_COSMETIC_THREADS
100
AcDbLine
 62
2
  6
CENTER
 10
16.368251116
 20
10.1480724299
 11
16.368251116
 21
10.8358677055
  0
LINE
  5
607
100
AcDbEntity
  8
0
100
AcDbLine
 62
7
  6
CONTINUOUS
 10
16.3725503286
 20
10.427599989
 11
16.3725503286
 21
10.4233924976
  0
LINE
  5
608
100
AcDbEntity
  8
0
100
AcDbLine
 62
7
  6
CONTINUOUS
 10
16.3810503286
 20
10.427599989
 11
16.3810503286
 21
10.4228577229
  0
LINE
  5
609
100
AcDbEntity
  8
0
100
AcDbLine
 62
7
  6
CONTINUOUS
 10
16.3856920609
 20
10.269607863
 11
16.3856920609
 21
10.2296866031
  0
LINE
  5
60A
100
AcDbEntity
  8
0
100
AcDbLine
 62
7
  6
CONTINUOUS
 10
16.3856920609
 20
10.1463795165
 11
16.3856920609
 21
10.1064582567
  0
LINE
  5
60B
100
AcDbEntity
  8
0
100
AcDbLine
 62
7
  6
CONTINUOUS
 10
16.3882117459
 20
10.0198440834
 11
16.3882117459
 21
10.0597653433
  0
LINE
  5
60C
100
AcDbEntity
  8
0
100
AcDbLine
 62
7
  6
CONTINUOUS
 10
16.3882117459
 20
10.1714188866
 11
16.3882117459
 21
10.2113401464
  0
LINE
  5
60D
100
AcDbEntity
  8
0
100
AcDbLine
 62
7
  6
CONTINUOUS
 10
16.4179755254
 20
10.0849621937
 11
16.4179755254
 21
10.0450409338
  0
LINE
  5
60E
100
AcDbEntity
  8
0
100
AcDbLine
 62
7
  6
CONTINUOUS
 10
16.4256133207
 20
10.1064582567
 11
16.4256133207
 21
10.1463795165
  0
LINE
  5
60F
100
AcDbEntity
  8
0
100
AcDbLine
 62
7
  6
CONTINUOUS
 10
16.4256133207
 20
10.2296866031
 11
16.4256133207
 21
10.269607863
  0
LINE
  5
610
100
AcDbEntity
  8
0
100
AcDbLine
 62
7
  6
CONTINUOUS
 10
16.4419912735
 20
10.2223637685
 11
16.4419912735
 21
10.1824425086
  0
LINE
  5
611
100
AcDbEntity
  8
0
100
AcDbLine
 62
7
  6
CONTINUOUS
 10
16.4549833995
 20
10.149135422
 11
16.4549833995
 21
10.1092141622
  0
LINE
  5
612
100
AcDbEntity
  8
0
100
AcDbLine
 62
7
  6
CONTINUOUS
 10
16.4578967853
 20
10.0450409338
 11
16.4578967853
 21
10.0849621937
  0
LWPOLYLINE
  5
613
100
AcDbEntity
  8
0
100
AcDbPolyline
 62
9
  6
CONTINUOUS
 90
9
 70
0
 10
16.7608118171
 20
10.7553903021
 10
16.7628739551
 20
10.7581724974
 10
16.7640396548
 20
10.7614340402
 10
16.7642085711
 20
10.7648941722
 10
16.7633661635
 20
10.7682550408
 10
16.7615849469
 20
10.7712273375
 10
16.7590182512
 20
10.773555202
 10
16.7558870218
 20
10.775038248
 10
16.7524608005
 20
10.7755488131
  0
LWPOLYLINE
  5
614
100
AcDbEntity
  8
0
100
AcDbPolyline
 62
9
  6
CONTINUOUS
 90
9
 70
0
 10
16.760815016
 20
10.7553911614
 10
16.7628795429
 20
10.7581749042
 10
16.764047064
 20
10.7614381367
 10
16.7642170362
 20
10.7648998406
 10
16.763374822
 20
10.7682619055
 10
16.76159295
 20
10.7712348017
 10
16.7590248694
 20
10.7735625134
 10
16.7558917347
 20
10.7750445865
 10
16.7524633611
 20
10.7755533902
  0
LWPOLYLINE
  5
615
100
AcDbEntity
  8
0
100
AcDbPolyline
 62
7
  6
CONTINUOUS
 90
9
 70
0
 10
16.761089878
 20
10.7556660234
 10
16.7631544048
 20
10.7584497661
 10
16.7643219259
 20
10.7617129983
 10
16.7644918983
 20
10.7651747016
 10
16.7636496845
 20
10.7685367661
 10
16.7618678132
 20
10.7715096622
 10
16.7592997329
 20
10.7738373744
 10
16.7561665979
 20
10.7753194481
 10
16.7527382231
 20
10.7758282522
  0
LINE
  5
616
100
AcDbEntity
  8
0
100
AcDbLine
 62
9
  6
CONTINUOUS
 10
16.7527382231
 20
10.7758282522
 11
16.7524633611
 21
10.7755533902
  0
LINE
  5
617
100
AcDbEntity
  8
0
100
AcDbLine
 62
7
  6
CONTINUOUS
 10
16.7364642514
 20
10.7310403969
 11
16.761089878
 21
10.7556660234
  0
LINE
  5
618
100
AcDbEntity
  8
0
100
AcDbLine
 62
9
  6
CONTINUOUS
 10
16.7420320213
 20
10.7254726269
 11
16.7807488614
 21
10.764189467
  0
LINE
  5
619
100
AcDbEntity
  8
0
100
AcDbLine
 62
9
  6
CONTINUOUS
 10
15.7801402344
 20
9.7244901061
 11
15.7798653724
 21
9.7242152441
  0
LINE
  5
61A
100
AcDbEntity
  8
0
100
AcDbLine
 62
7
  6
CONTINUOUS
 10
15.8000276012
 20
9.7158635892
 11
15.8246532278
 21
9.7404892158
  0
LINE
  5
61B
100
AcDbEntity
  8
0
100
AcDbLine
 62
9
  6
CONTINUOUS
 10
15.7915041576
 20
9.6962046057
 11
15.8302209977
 21
9.7349214458
  0
LINE
  5
61C
100
AcDbEntity
  8
0
100
AcDbLine
 62
7
  6
CONTINUOUS
 10
15.9273456042
 20
9.6027968394
 11
15.8973456042
 21
9.6027968394
  0
LINE
  5
61D
100
AcDbEntity
  8
0
100
AcDbLine
 62
9
  6
CONTINUOUS
 10
15.7915041576
 20
9.6165763669
 11
15.7776999349
 21
9.6165763669
  0
LINE
  5
61E
100
AcDbEntity
  8
0
100
AcDbLine
 62
9
  6
CONTINUOUS
 10
16.9248656347
 20
9.6165763669
 11
16.9588022971
 21
9.6165763669
  0
LINE
  5
61F
100
AcDbEntity
  8
0
100
AcDbLine
 62
7
  6
CONTINUOUS
 10
15.9623456042
 20
9.6377968394
 11
15.9273456042
 21
9.6377968394
  0
LINE
  5
620
100
AcDbEntity
  8
0
100
AcDbLine
 62
7
  6
CONTINUOUS
 10
15.8973456042
 20
9.6377968394
 11
15.8623456042
 21
9.6377968394
  0
LINE
  5
621
100
AcDbEntity
  8
0
100
AcDbLine
 62
7
  6
CONTINUOUS
 10
15.8623456042
 20
9.6677968394
 11
15.8973456042
 21
9.6677968394
  0
LINE
  5
622
100
AcDbEntity
  8
0
100
AcDbLine
 62
7
  6
CONTINUOUS
 10
15.9273456042
 20
9.6677968394
 11
15.9623456042
 21
9.6677968394
  0
LINE
  5
623
100
AcDbEntity
  8
0
100
AcDbLine
 62
9
  6
CONTINUOUS
 10
15.7915041576
 20
9.6962046057
 11
15.7796935837
 21
9.6962046057
  0
LINE
  5
624
100
AcDbEntity
  8
0
100
AcDbLine
 62
7
  6
CONTINUOUS
 10
15.8973456042
 20
9.7027968394
 11
15.9273456042
 21
9.7027968394
  0
LINE
  5
625
100
AcDbEntity
  8
0
100
AcDbLine
 62
7
  6
CONTINUOUS
 10
16.4819125333
 20
10.1824425086
 11
16.4819125333
 21
10.2223637685
  0
LINE
  5
626
100
AcDbEntity
  8
0
100
AcDbLine
 62
7
  6
CONTINUOUS
 10
16.4949046593
 20
10.1092141622
 11
16.4949046593
 21
10.149135422
  0
LWPOLYLINE
  5
627
100
AcDbEntity
  8
0
100
AcDbPolyline
 62
9
  6
CONTINUOUS
 90
9
 70
0
 10
15.9756904149
 20
9.5407545578
 10
15.9736282769
 20
9.5379723624
 10
15.9724625772
 20
9.5347108197
 10
15.9722936609
 20
9.5312506876
 10
15.9731360685
 20
9.527889819
 10
15.9749172851
 20
9.5249175224
 10
15.9774839808
 20
9.5225896578
 10
15.9806152102
 20
9.5211066118
 10
15.9840414315
 20
9.5205960467
  0
LWPOLYLINE
  5
628
100
AcDbEntity
  8
0
100
AcDbPolyline
 62
7
  6
CONTINUOUS
 90
9
 70
0
 10
15.975412354
 20
9.5404788364
 10
15.9733478272
 20
9.5376950937
 10
15.9721803061
 20
9.5344318615
 10
15.9720103337
 20
9.5309701582
 10
15.9728525475
 20
9.5276080938
 10
15.9746344188
 20
9.5246351976
 10
15.9772024991
 20
9.5223074854
 10
15.9803356341
 20
9.5208254117
 10
15.9837640089
 20
9.5203166076
  0
LWPOLYLINE
  5
629
100
AcDbEntity
  8
0
100
AcDbPolyline
 62
9
  6
CONTINUOUS
 90
9
 70
0
 10
15.975687216
 20
9.5407536984
 10
15.9736226891
 20
9.5379699557
 10
15.972455168
 20
9.5347067231
 10
15.9722851958
 20
9.5312450192
 10
15.97312741
 20
9.5278829543
 10
15.974909282
 20
9.5249100582
 10
15.9774773626
 20
9.5225823464
 10
15.9806104973
 20
9.5211002733
 10
15.9840388709
 20
9.5205914696
  0
LINE
  5
62A
100
AcDbEntity
  8
0
100
AcDbLine
 62
9
  6
CONTINUOUS
 10
16.9449980744
 20
10.5999402541
 11
16.9062812343
 21
10.561223414
  0
LINE
  5
62B
100
AcDbEntity
  8
0
100
AcDbLine
 62
7
  6
CONTINUOUS
 10
16.9118490042
 20
10.5556556441
 11
16.9364746308
 21
10.5802812706
  0
LWPOLYLINE
  5
62C
100
AcDbEntity
  8
0
100
AcDbPolyline
 62
7
  6
CONTINUOUS
 90
9
 70
0
 10
16.9364746308
 20
10.5802812706
 10
16.939258299
 20
10.5823457577
 10
16.9425214743
 20
10.5835132927
 10
16.9459831589
 20
10.5836833061
 10
16.9493452436
 20
10.5828411315
 10
16.9523181842
 20
10.5810592766
 10
16.9546459428
 20
10.5784911846
 10
16.9561280468
 20
10.5753580196
 10
16.9566368596
 20
10.5719296157
  0
LWPOLYLINE
  5
62D
100
AcDbEntity
  8
0
100
AcDbPolyline
 62
9
  6
CONTINUOUS
 90
9
 70
0
 10
16.9361997688
 20
10.5800064086
 10
16.9389835115
 20
10.5820709355
 10
16.9422467437
 20
10.5832384566
 10
16.945708447
 20
10.583408429
 10
16.9490705114
 20
10.5825662152
 10
16.9520434076
 20
10.5807843438
 10
16.9543711198
 20
10.5782162636
 10
16.9558531935
 20
10.5750831286
 10
16.9563619976
 20
10.5716547537
  0
LWPOLYLINE
  5
62E
100
AcDbEntity
  8
0
100
AcDbPolyline
 62
9
  6
CONTINUOUS
 90
9
 70
0
 10
15.8003024632
 20
9.7161384512
 10
15.7975187205
 20
9.7140739243
 10
15.7942554883
 20
9.7129064032
 10
15.790793785
 20
9.7127364309
 10
15.7874317206
 20
9.7135786446
 10
15.7844588244
 20
9.715360516
 10
15.7821311122
 20
9.7179285963
 10
15.7806490385
 20
9.7210617312
 10
15.7801402344
 20
9.7244901061
  0
LWPOLYLINE
  5
62F
100
AcDbEntity
  8
0
100
AcDbPolyline
 62
7
  6
CONTINUOUS
 90
9
 70
0
 10
15.8000276012
 20
9.7158635892
 10
15.797243933
 20
9.7137991021
 10
15.7939807577
 20
9.7126315671
 10
15.7905190731
 20
9.7124615537
 10
15.7871569884
 20
9.7133037283
 10
15.7841840478
 20
9.7150855832
 10
15.7818562892
 20
9.7176536753
 10
15.7803741852
 20
9.7207868402
 10
15.7798653724
 20
9.7242152441
  0
LWPOLYLINE
  5
630
100
AcDbEntity
  8
0
100
AcDbPolyline
 62
9
  6
CONTINUOUS
 90
9
 70
0
 10
16.9361985881
 20
10.580003531
 10
16.9389822196
 20
10.582067171
 10
16.9422452635
 20
10.5832340192
 10
16.9457067525
 20
10.5834036032
 10
16.9490686322
 20
10.5825613207
 10
16.9520414244
 20
10.5807796967
 10
16.9543691536
 20
10.5782121397
 10
16.955851388
 20
10.5750797323
 10
16.9563604985
 20
10.5716521946
  0
LWPOLYLINE
  5
631
100
AcDbEntity
  8
0
100
AcDbPolyline
 62
9
  6
CONTINUOUS
 90
9
 70
0
 10
15.8003036439
 20
9.7161413288
 10
15.7975200124
 20
9.7140776888
 10
15.7942569685
 20
9.7129108406
 10
15.7907954795
 20
9.7127412566
 10
15.7874335998
 20
9.7135835392
 10
15.7844608076
 20
9.7153651631
 10
15.7821330784
 20
9.7179327201
 10
15.780650844
 20
9.7210651275
 10
15.7801417335
 20
9.7244926652
  0
LINE
  5
632
100
AcDbEntity
  8
0
100
AcDbLine
 62
9
  6
CONTINUOUS
 10
15.9756900932
 20
9.5407548795
 11
16.0161757509
 21
9.5489666926
  0
LWPOLYLINE
  5
633
100
AcDbEntity
  8
0
100
AcDbPolyline
 62
9
  6
CONTINUOUS
 90
4
 70
0
 10
16.0161757509
 20
9.5489666926
 10
16.0211775268
 20
9.5499633652
 10
16.0260752656
 20
9.5510070607
 10
16.0308429429
 20
9.5520878324
  0
LINE
  5
634
100
AcDbEntity
  8
0
100
AcDbLine
 62
9
  6
CONTINUOUS
 10
16.9361985877
 20
10.5800035315
 11
16.9361997688
 21
10.5800064086
  0
LWPOLYLINE
  5
635
100
AcDbEntity
  8
0
100
AcDbPolyline
 62
9
  6
CONTINUOUS
 90
10
 70
0
 10
16.9364746308
 20
10.5802812706
 10
16.9365912927
 20
10.5805198822
 10
16.9369086614
 20
10.5812257152
 10
16.9374398465
 20
10.5824306547
 10
16.9381903173
 20
10.5841489839
 10
16.9391541982
 20
10.5863684207
 10
16.940310057
 20
10.5890402415
 10
16.941659791
 20
10.5921696477
 10
16.9432196559
 20
10.5957955298
 10
16.9449980744
 20
10.5999402541
  0
LINE
  5
636
100
AcDbEntity
  8
0
100
AcDbLine
 62
9
  6
CONTINUOUS
 10
16.9563604985
 20
10.5716521946
 11
16.9563619976
 21
10.5716547537
  0
LINE
  5
637
100
AcDbEntity
  8
0
100
AcDbLine
 62
9
  6
CONTINUOUS
 10
16.9335394441
 20
10.5372178827
 11
16.9563604985
 21
10.5716521946
  0
LWPOLYLINE
  5
638
100
AcDbEntity
  8
0
100
AcDbPolyline
 62
9
  6
CONTINUOUS
 90
4
 70
0
 10
16.9248656347
 20
10.5248506817
 10
16.9277482823
 20
10.5288124884
 10
16.9306471781
 20
10.5329399714
 10
16.9335394441
 20
10.5372178827
  0
LINE
  5
639
100
AcDbEntity
  8
0
100
AcDbLine
 62
9
  6
CONTINUOUS
 10
16.9563619976
 20
10.5716547537
 11
16.9566368596
 21
10.5719296157
  0
LINE
  5
63A
100
AcDbEntity
  8
0
100
AcDbLine
 62
9
  6
CONTINUOUS
 10
15.9944702107
 20
9.5706722329
 11
15.9557533706
 21
9.5319553928
  0
LINE
  5
63B
100
AcDbEntity
  8
0
100
AcDbLine
 62
7
  6
CONTINUOUS
 10
15.975412354
 20
9.5404788364
 11
16.0000379806
 21
9.5651044629
  0
LINE
  5
63C
100
AcDbEntity
  8
0
100
AcDbLine
 62
9
  6
CONTINUOUS
 10
15.9837640089
 20
9.5203166076
 11
15.9840388709
 21
9.5205914696
  0
LINE
  5
63D
100
AcDbEntity
  8
0
100
AcDbLine
 62
7
  6
CONTINUOUS
 10
16.3482904861
 20
10.0198440834
 11
16.3882117459
 21
10.0198440834
  0
LINE
  5
63E
100
AcDbEntity
  8
0
100
AcDbLine
 62
7
  6
CONTINUOUS
 10
16.7741566278
 20
10.6283480205
 11
16.7741566278
 21
10.6583480205
  0
LINE
  5
63F
100
AcDbEntity
  8
0
100
AcDbLine
 62
9
  6
CONTINUOUS
 10
16.7807488614
 20
10.764189467
 11
16.7807488614
 21
10.7760000409
  0
LINE
  5
640
100
AcDbEntity
  8
0
100
AcDbLine
 62
7
  6
CONTINUOUS
 10
16.8091566278
 20
10.5933480205
 11
16.8091566278
 21
10.6283480205
  0
LINE
  5
641
100
AcDbEntity
  8
0
100
AcDbLine
 62
7
  6
CONTINUOUS
 10
16.8091566278
 20
10.6583480205
 11
16.8091566278
 21
10.6933480205
  0
LINE
  5
642
100
AcDbEntity
  8
0
100
AcDbLine
 62
7
  6
CONTINUOUS
 10
16.8391566278
 20
10.6933480205
 11
16.8391566278
 21
10.6583480205
  0
LINE
  5
643
100
AcDbEntity
  8
0
100
AcDbLine
 62
7
  6
CONTINUOUS
 10
16.8391566278
 20
10.6283480205
 11
16.8391566278
 21
10.5933480205
  0
LINE
  5
644
100
AcDbEntity
  8
0
100
AcDbLine
 62
9
  6
CONTINUOUS
 10
16.8603771003
 20
9.5520878324
 11
16.8603771003
 21
9.5181511701
  0
LINE
  5
645
100
AcDbEntity
  8
0
100
AcDbLine
 62
9
  6
CONTINUOUS
 10
16.8603771003
 20
10.764189467
 11
16.8603771003
 21
10.7779936897
  0
LINE
  5
646
100
AcDbEntity
  8
0
100
AcDbLine
 62
7
  6
CONTINUOUS
 10
16.8741566278
 20
10.6583480205
 11
16.8741566278
 21
10.6283480205
  0
LINE
  5
647
100
AcDbEntity
  8
0
100
AcDbLine
 62
9
  6
CONTINUOUS
 10
16.9279867745
 20
10.5395178737
 11
16.9361985877
 21
10.5800035315
  0
LWPOLYLINE
  5
648
100
AcDbEntity
  8
0
100
AcDbPolyline
 62
9
  6
CONTINUOUS
 90
4
 70
0
 10
16.9248656347
 20
10.5248506817
 10
16.925946278
 20
10.5296177679
 10
16.9269899912
 20
10.5345155588
 10
16.9279867745
 20
10.5395178737
  0
LWPOLYLINE
  5
649
100
AcDbEntity
  8
0
100
AcDbPolyline
 62
9
  6
CONTINUOUS
 90
4
 70
0
 10
16.0184757419
 20
9.5434140231
 10
16.022753189
 20
9.5463059689
 10
16.0268806285
 20
9.5492048199
 10
16.0308429429
 20
9.5520878324
  0
LINE
  5
64A
100
AcDbEntity
  8
0
100
AcDbLine
 62
9
  6
CONTINUOUS
 10
15.9840414301
 20
9.5205929687
 11
16.0184757419
 21
9.5434140231
  0
LINE
  5
64B
100
AcDbEntity
  8
0
100
AcDbLine
 62
7
  6
CONTINUOUS
 10
16.2786054467
 20
10.0450409338
 11
16.3185267066
 21
10.0450409338
  0
LINE
  5
64C
100
AcDbEntity
  8
0
100
AcDbLine
 62
7
  6
CONTINUOUS
 10
16.4179755254
 20
10.0450409338
 11
16.4578967853
 21
10.0450409338
  0
LINE
  5
64D
100
AcDbEntity
  8
0
100
AcDbLine
 62
7
  6
CONTINUOUS
 10
16.3882117459
 20
10.0597653433
 11
16.3482904861
 21
10.0597653433
  0
LINE
  5
64E
100
AcDbEntity
  8
0
100
AcDbLine
 62
7
  6
CONTINUOUS
 10
16.4578967853
 20
10.0849621937
 11
16.4179755254
 21
10.0849621937
  0
LINE
  5
64F
100
AcDbEntity
  8
0
100
AcDbLine
 62
7
  6
CONTINUOUS
 10
16.3185267066
 20
10.0849621937
 11
16.2786054467
 21
10.0849621937
  0
LINE
  5
650
100
AcDbEntity
  8
0
100
AcDbLine
 62
7
  6
CONTINUOUS
 10
16.3108889113
 20
10.1064582567
 11
16.3508101711
 21
10.1064582567
  0
LINE
  5
651
100
AcDbEntity
  8
0
100
AcDbLine
 62
7
  6
CONTINUOUS
 10
16.3856920609
 20
10.1064582567
 11
16.4256133207
 21
10.1064582567
  0
LINE
  5
652
100
AcDbEntity
  8
0
100
AcDbLine
 62
7
  6
CONTINUOUS
 10
16.2415975727
 20
10.1092141622
 11
16.2815188325
 21
10.1092141622
  0
LINE
  5
653
100
AcDbEntity
  8
0
100
AcDbLine
 62
7
  6
CONTINUOUS
 10
16.4549833995
 20
10.1092141622
 11
16.4949046593
 21
10.1092141622
  0
LINE
  5
654
100
AcDbEntity
  8
0
100
AcDbLine
 62
7
  6
CONTINUOUS
 10
16.4256133207
 20
10.1463795165
 11
16.3856920609
 21
10.1463795165
  0
LINE
  5
655
100
AcDbEntity
  8
0
100
AcDbLine
 62
7
  6
CONTINUOUS
 10
16.3508101711
 20
10.1463795165
 11
16.3108889113
 21
10.1463795165
  0
LINE
  5
656
100
AcDbEntity
  8
AXIS_COSMETIC_THREADS
100
AcDbLine
 62
2
  6
CENTER
 10
16.368251116
 20
10.1480724299
 11
15.6804558404
 21
10.1480724299
  0
LINE
  5
657
100
AcDbEntity
  8
AXIS_COSMETIC_THREADS
100
AcDbLine
 62
2
  6
CENTER
 10
16.368251116
 20
10.1480724299
 11
17.0560463916
 21
10.1480724299
  0
LINE
  5
658
100
AcDbEntity
  8
0
100
AcDbLine
 62
7
  6
CONTINUOUS
 10
16.4949046593
 20
10.149135422
 11
16.4549833995
 21
10.149135422
  0
LINE
  5
659
100
AcDbEntity
  8
0
100
AcDbLine
 62
7
  6
CONTINUOUS
 10
16.2815188325
 20
10.149135422
 11
16.2415975727
 21
10.149135422
  0
LWPOLYLINE
  5
65A
100
AcDbEntity
  8
0
100
AcDbPolyline
 62
7
  6
CONTINUOUS
 90
9
 70
0
 10
16.9570672309
 20
10.1480724299
 10
16.9570754827
 20
10.1384717319
 10
16.9570999212
 20
10.1292399228
 10
16.9571396076
 20
10.1207317732
 10
16.9571930171
 20
10.1132742293
 10
16.9572580975
 20
10.1071539163
 10
16.957332348
 20
10.1026060553
 10
16.9574129152
 20
10.0998054764
 10
16.9574967027
 20
10.0988598315
  0
LWPOLYLINE
  5
65B
100
AcDbEntity
  8
0
100
AcDbPolyline
 62
7
  6
CONTINUOUS
 90
9
 70
0
 10
16.9579261745
 20
10.1480724299
 10
16.9579179227
 20
10.1576731279
 10
16.9578934842
 20
10.166904937
 10
16.9578537978
 20
10.1754130866
 10
16.9578003883
 20
10.1828706305
 10
16.957735308
 20
10.1889909435
 10
16.9576610574
 20
10.1935388045
 10
16.9575804902
 20
10.1963393834
 10
16.9574967027
 20
10.1972850283
  0
LINE
  5
65C
100
AcDbEntity
  8
0
100
AcDbLine
 62
9
  6
CONTINUOUS
 10
16.9248656347
 20
9.6165763669
 11
16.9248656347
 21
10.5248506817
  0
LINE
  5
65D
100
AcDbEntity
  8
0
100
AcDbLine
 62
9
  6
CONTINUOUS
 10
16.9449980744
 20
10.5999402541
 11
16.9449980744
 21
10.6795684929
  0
LINE
  5
65E
100
AcDbEntity
  8
0
100
AcDbLine
 62
9
  6
CONTINUOUS
 10
16.9563604985
 20
9.6165763669
 11
16.9563604985
 21
10.5716521946
  0
LINE
  5
65F
100
AcDbEntity
  8
0
100
AcDbLine
 62
7
  6
CONTINUOUS
 10
16.9568086483
 20
10.5999402541
 11
16.9568086483
 21
10.6795684929
  0
LINE
  5
660
100
AcDbEntity
  8
AXIS_COSMETIC_THREADS
100
AcDbLine
 62
7
  6
CONTINUOUS
 10
16.9588022971
 20
10.6795684929
 11
16.9588022971
 21
9.6165763669
  0
LINE
  5
661
100
AcDbEntity
  8
0
100
AcDbLine
 62
7
  6
CONTINUOUS
 10
16.9588022971
 20
9.6165763669
 11
16.9588022971
 21
10.6795684929
  0
LWPOLYLINE
  5
662
100
AcDbEntity
  8
0
100
AcDbPolyline
 62
9
  6
CONTINUOUS
 90
10
 70
0
 10
16.9566368596
 20
10.5719296157
 10
16.9566622017
 20
10.5722594119
 10
16.9566882598
 20
10.5732565454
 10
16.9567139405
 20
10.5749666804
 10
16.9567383642
 20
10.5774106786
 10
16.9567605451
 20
10.5805723826
 10
16.9567794347
 20
10.5843812458
 10
16.9567944538
 20
10.588845325
 10
16.9568047258
 20
10.594020961
 10
16.9568086483
 20
10.5999402541
  0
LWPOLYLINE
  5
663
100
AcDbEntity
  8
0
100
AcDbPolyline
 62
7
  6
CONTINUOUS
 90
9
 70
0
 10
16.9574967027
 20
10.1972850283
 10
16.9574129152
 20
10.1963393834
 10
16.957332348
 20
10.1935388045
 10
16.9572580975
 20
10.1889909435
 10
16.9571930171
 20
10.1828706305
 10
16.9571396076
 20
10.1754130866
 10
16.9570999212
 20
10.166904937
 10
16.9570754827
 20
10.1576731279
 10
16.9570672309
 20
10.1480724299
  0
LWPOLYLINE
  5
664
100
AcDbEntity
  8
0
100
AcDbPolyline
 62
7
  6
CONTINUOUS
 90
9
 70
0
 10
16.9574967027
 20
10.0988598315
 10
16.9575804902
 20
10.0998054764
 10
16.9576610574
 20
10.1026060553
 10
16.957735308
 20
10.1071539163
 10
16.9578003883
 20
10.1132742293
 10
16.9578537978
 20
10.1207317732
 10
16.9578934842
 20
10.1292399228
 10
16.9579179227
 20
10.1384717319
 10
16.9579261745
 20
10.1480724299
  0
LINE
  5
665
100
AcDbEntity
  8
0
100
AcDbLine
 62
9
  6
CONTINUOUS
 10
15.9840388709
 20
9.5205914696
 11
15.9840414301
 21
9.5205929687
  0
LINE
  5
666
100
AcDbEntity
  8
0
100
AcDbLine
 62
7
  6
CONTINUOUS
 10
16.3482904861
 20
10.1714188866
 11
16.3882117459
 21
10.1714188866
  0
LINE
  5
667
100
AcDbEntity
  8
0
100
AcDbLine
 62
7
  6
CONTINUOUS
 10
16.2545896987
 20
10.1824425086
 11
16.2945109585
 21
10.1824425086
  0
LINE
  5
668
100
AcDbEntity
  8
0
100
AcDbLine
 62
7
  6
CONTINUOUS
 10
16.4419912735
 20
10.1824425086
 11
16.4819125333
 21
10.1824425086
  0
LINE
  5
669
100
AcDbEntity
  8
0
100
AcDbLine
 62
7
  6
CONTINUOUS
 10
16.3882117459
 20
10.2113401464
 11
16.3482904861
 21
10.2113401464
  0
LINE
  5
66A
100
AcDbEntity
  8
0
100
AcDbLine
 62
7
  6
CONTINUOUS
 10
16.4819125333
 20
10.2223637685
 11
16.4419912735
 21
10.2223637685
  0
LINE
  5
66B
100
AcDbEntity
  8
0
100
AcDbLine
 62
7
  6
CONTINUOUS
 10
16.2945109585
 20
10.2223637685
 11
16.2545896987
 21
10.2223637685
  0
LINE
  5
66C
100
AcDbEntity
  8
0
100
AcDbLine
 62
7
  6
CONTINUOUS
 10
16.3108889113
 20
10.2296866031
 11
16.3508101711
 21
10.2296866031
  0
LINE
  5
66D
100
AcDbEntity
  8
0
100
AcDbLine
 62
7
  6
CONTINUOUS
 10
16.3856920609
 20
10.2296866031
 11
16.4256133207
 21
10.2296866031
  0
LINE
  5
66E
100
AcDbEntity
  8
0
100
AcDbLine
 62
7
  6
CONTINUOUS
 10
16.4256133207
 20
10.269607863
 11
16.3856920609
 21
10.269607863
  0
LINE
  5
66F
100
AcDbEntity
  8
0
100
AcDbLine
 62
7
  6
CONTINUOUS
 10
16.3508101711
 20
10.269607863
 11
16.3108889113
 21
10.269607863
  0
LWPOLYLINE
  5
670
100
AcDbEntity
  8
0
100
AcDbPolyline
 62
9
  6
CONTINUOUS
 90
4
 70
0
 10
16.7203264837
 20
10.7471781646
 10
16.7195983688
 20
10.7490343151
 10
16.7188241316
 20
10.7509034889
 10
16.7180264901
 20
10.7527308403
  0
LWPOLYLINE
  5
671
100
AcDbEntity
  8
0
100
AcDbPolyline
 62
9
  6
CONTINUOUS
 90
10
 70
0
 10
15.9557533706
 20
9.5319553928
 10
15.9598980947
 20
9.5337338118
 10
15.9635239771
 20
9.5352936759
 10
15.9666533832
 20
9.5366434102
 10
15.969325204
 20
9.537799269
 10
15.9715446407
 20
9.5387631499
 10
15.9732629699
 20
9.5395136206
 10
15.9744679095
 20
9.5400448058
 10
15.9751737425
 20
9.5403621745
 10
15.975412354
 20
9.5404788364
  0
LINE
  5
672
100
AcDbEntity
  8
0
100
AcDbLine
 62
9
  6
CONTINUOUS
 10
15.975687216
 20
9.5407536984
 11
15.9756900932
 21
9.5407548795
  0
LINE
  5
673
100
AcDbEntity
  8
0
100
AcDbLine
 62
7
  6
CONTINUOUS
 10
16.4062802809
 20
10.4208243984
 11
16.41141547
 21
10.4208243984
  0
LINE
  5
674
100
AcDbEntity
  8
AXIS_COSMETIC_THREADS
100
AcDbLine
 62
7
  6
CONTINUOUS
 10
16.392266864
 20
10.427599989
 11
16.3521093837
 21
10.427599989
  0
LINE
  5
675
100
AcDbEntity
  8
0
100
AcDbLine
 62
9
  6
CONTINUOUS
 10
16.7203264811
 20
10.7471781672
 11
16.7420320213
 21
10.7254726269
  0
LINE
  5
676
100
AcDbEntity
  8
0
100
AcDbLine
 62
9
  6
CONTINUOUS
 10
16.9062812343
 20
10.561223414
 11
16.9279867745
 21
10.5395178737
  0
LINE
  5
677
100
AcDbEntity
  8
DEFAULT_1
100
AcDbLine
 62
7
  6
CENTER
 10
16.0389204073
 20
10.5220881779
 11
15.8700227695
 21
10.5220881779
  0
LINE
  5
678
100
AcDbEntity
  8
DEFAULT_1
100
AcDbLine
 62
7
  6
CENTER
 10
16.0389204073
 20
10.5220881779
 11
16.2078180451
 21
10.5220881779
  0
LINE
  5
679
100
AcDbEntity
  8
0
100
AcDbLine
 62
7
  6
CONTINUOUS
 10
16.8391566278
 20
10.5933480205
 11
16.8091566278
 21
10.5933480205
  0
LINE
  5
67A
100
AcDbEntity
  8
0
100
AcDbLine
 62
9
  6
CONTINUOUS
 10
16.9449980744
 20
10.5999402541
 11
16.9568086483
 21
10.5999402541
  0
LWPOLYLINE
  5
67B
100
AcDbEntity
  8
0
100
AcDbPolyline
 62
9
  6
CONTINUOUS
 90
4
 70
0
 10
16.927986761
 20
10.5395178873
 10
16.9298429209
 20
10.5387897689
 10
16.9317121044
 20
10.538015528
 10
16.9335394653
 20
10.5372178827
  0
LINE
  5
67C
100
AcDbEntity
  8
0
100
AcDbLine
 62
7
  6
CONTINUOUS
 10
16.8741566278
 20
10.6283480205
 11
16.8391566278
 21
10.6283480205
  0
LINE
  5
67D
100
AcDbEntity
  8
0
100
AcDbLine
 62
7
  6
CONTINUOUS
 10
16.8091566278
 20
10.6283480205
 11
16.7741566278
 21
10.6283480205
  0
LINE
  5
67E
100
AcDbEntity
  8
0
100
AcDbLine
 62
7
  6
CONTINUOUS
 10
16.7741566278
 20
10.6583480205
 11
16.8091566278
 21
10.6583480205
  0
LINE
  5
67F
100
AcDbEntity
  8
0
100
AcDbLine
 62
7
  6
CONTINUOUS
 10
16.8391566278
 20
10.6583480205
 11
16.8741566278
 21
10.6583480205
  0
LINE
  5
680
100
AcDbEntity
  8
0
100
AcDbLine
 62
9
  6
CONTINUOUS
 10
15.8116365973
 20
10.6795684929
 11
15.7776999349
 21
10.6795684929
  0
LINE
  5
681
100
AcDbEntity
  8
0
100
AcDbLine
 62
9
  6
CONTINUOUS
 10
16.9449980744
 20
10.6795684929
 11
16.9588022971
 21
10.6795684929
  0
LINE
  5
682
100
AcDbEntity
  8
0
100
AcDbLine
 62
7
  6
CONTINUOUS
 10
16.8091566278
 20
10.6933480205
 11
16.8391566278
 21
10.6933480205
  0
LINE
  5
683
100
AcDbEntity
  8
0
100
AcDbLine
 62
9
  6
CONTINUOUS
 10
16.7056592504
 20
10.7440570274
 11
15.8761251317
 21
10.7440570274
  0
LWPOLYLINE
  5
684
100
AcDbEntity
  8
0
100
AcDbPolyline
 62
7
  6
CONTINUOUS
 90
17
 70
0
 10
16.3190385176
 20
10.7766880954
 10
16.3199841629
 20
10.7766043078
 10
16.3227847328
 20
10.7765237409
 10
16.327332594
 20
10.7764494902
 10
16.3334528964
 20
10.7763844099
 10
16.3409104509
 20
10.7763310003
 10
16.3494185869
 20
10.776291314
 10
16.3586504044
 20
10.7762668754
 10
16.368251116
 20
10.7762586235
 10
16.3778518276
 20
10.7762668754
 10
16.3870836451
 20
10.776291314
 10
16.3955917811
 20
10.7763310003
 10
16.4030493356
 20
10.7763844099
 10
16.409169638
 20
10.7764494902
 10
16.4137174992
 20
10.7765237409
 10
16.4165180691
 20
10.7766043078
 10
16.4174637144
 20
10.7766880954
  0
LWPOLYLINE
  5
685
100
AcDbEntity
  8
0
100
AcDbPolyline
 62
7
  6
CONTINUOUS
 90
17
 70
0
 10
16.4174637144
 20
10.7766880954
 10
16.4165180691
 20
10.7767718829
 10
16.4137174992
 20
10.7768524498
 10
16.409169638
 20
10.7769267005
 10
16.4030493356
 20
10.7769917808
 10
16.3955917811
 20
10.7770451904
 10
16.3870836451
 20
10.7770848767
 10
16.3778518276
 20
10.7771093153
 10
16.368251116
 20
10.7771175672
 10
16.3586504044
 20
10.7771093153
 10
16.3494185869
 20
10.7770848767
 10
16.3409104509
 20
10.7770451904
 10
16.3334528964
 20
10.7769917808
 10
16.327332594
 20
10.7769267005
 10
16.3227847328
 20
10.7768524498
 10
16.3199841629
 20
10.7767718829
 10
16.3190385176
 20
10.7766880954
  0
LINE
  5
686
100
AcDbEntity
  8
0
100
AcDbLine
 62
9
  6
CONTINUOUS
 10
16.7608121388
 20
10.7553899803
 11
16.7203264811
 21
10.7471781672
  0
LWPOLYLINE
  5
687
100
AcDbEntity
  8
0
100
AcDbPolyline
 62
9
  6
CONTINUOUS
 90
4
 70
0
 10
16.7203264811
 20
10.7471781672
 10
16.7153247325
 20
10.7461815002
 10
16.7104270024
 20
10.7451378071
 10
16.7056592288
 20
10.7440569984
  0
LWPOLYLINE
  5
688
100
AcDbEntity
  8
0
100
AcDbPolyline
 62
9
  6
CONTINUOUS
 90
10
 70
0
 10
16.7807488614
 20
10.7760000409
 10
16.7748295684
 20
10.7759961184
 10
16.7696539323
 20
10.7759858464
 10
16.7651898532
 20
10.7759708273
 10
16.76138099
 20
10.7759519378
 10
16.758219286
 20
10.7759297569
 10
16.7557752877
 20
10.7759053332
 10
16.7540651528
 20
10.7758796525
 10
16.7530680192
 20
10.7758535943
 10
16.7527382231
 20
10.7758282522
  0
LINE
  5
689
100
AcDbEntity
  8
0
100
AcDbLine
 62
9
  6
CONTINUOUS
 10
16.8603771003
 20
10.764189467
 11
16.7807488614
 21
10.764189467
  0
LINE
  5
68A
100
AcDbEntity
  8
0
100
AcDbLine
 62
9
  6
CONTINUOUS
 10
16.7524608019
 20
10.7755518911
 11
15.8761251317
 21
10.7755518911
  0
LINE
  5
68B
100
AcDbEntity
  8
0
100
AcDbLine
 62
7
  6
CONTINUOUS
 10
16.8603771003
 20
10.7760000409
 11
16.7807488614
 21
10.7760000409
  0
LINE
  5
68C
100
AcDbEntity
  8
0
100
AcDbLine
 62
7
  6
CONTINUOUS
 10
16.8603771003
 20
10.7779936897
 11
15.8761251317
 21
10.7779936897
  0
LINE
  5
68D
100
AcDbEntity
  8
AXIS_COSMETIC_THREADS
100
AcDbLine
 62
7
  6
CONTINUOUS
 10
15.8761251317
 20
10.7779936897
 11
16.8603771003
 21
10.7779936897
  0
LINE
  5
68E
100
AcDbEntity
  8
0
100
AcDbLine
 62
7
  6
CONTINUOUS
 10
9.2864498855
 20
13.0082665119
 11
9.2705428104
 21
13.0241735871
  0
LINE
  5
68F
100
AcDbEntity
  8
0
100
AcDbLine
 62
7
  6
CONTINUOUS
 10
9.2705428104
 20
13.0241735871
 11
9.2705428104
 21
14.1603940595
  0
LINE
  5
690
100
AcDbEntity
  8
0
100
AcDbLine
 62
7
  6
CONTINUOUS
 10
9.2864498855
 20
13.0082665119
 11
9.2864498855
 21
14.1763011346
  0
LINE
  5
691
100
AcDbEntity
  8
0
100
AcDbLine
 62
7
  6
CONTINUOUS
 10
9.719361708
 20
13.0356177679
 11
9.719361708
 21
14.1489498786
  0
LINE
  5
692
100
AcDbEntity
  8
0
100
AcDbLine
 62
9
  6
CONTINUOUS
 10
9.7505829195
 20
13.0041229042
 11
9.7505829195
 21
14.1804447424
  0
LINE
  5
693
100
AcDbEntity
  8
DEFAULT_2
100
AcDbLine
 62
8
  6
HIDDEN
 10
9.8355034403
 20
13.0033818141
 11
9.8355034403
 21
13.0017326422
  0
LINE
  5
694
100
AcDbEntity
  8
DEFAULT_2
100
AcDbLine
 62
8
  6
HIDDEN
 10
9.8355034403
 20
14.1811858325
 11
9.8355034403
 21
14.1828350044
  0
LINE
  5
695
100
AcDbEntity
  8
0
100
AcDbLine
 62
7
  6
CONTINUOUS
 10
9.2864498855
 20
14.1763011346
 11
9.2705428104
 21
14.1603940595
  0
LINE
  5
696
100
AcDbEntity
  8
0
100
AcDbLine
 62
7
  6
CONTINUOUS
 10
12.327904276
 20
13.0041744408
 11
12.0481018655
 21
13.0017326422
  0
LINE
  5
697
100
AcDbEntity
  8
0
100
AcDbLine
 62
7
  6
CONTINUOUS
 10
12.2567632828
 20
13.0017326422
 11
12.1386530466
 21
13.0017326422
  0
LINE
  5
698
100
AcDbEntity
  8
AXIS_COSMETIC_THREADS
100
AcDbLine
 62
7
  6
CONTINUOUS
 10
12.0481018655
 20
13.0017326422
 11
10.0244798182
 21
13.0017326422
  0
LINE
  5
699
100
AcDbEntity
  8
0
100
AcDbLine
 62
7
  6
CONTINUOUS
 10
9.8355034403
 20
13.0017326422
 11
9.9536136765
 21
13.0017326422
  0
LINE
  5
69A
100
AcDbEntity
  8
0
100
AcDbLine
 62
7
  6
CONTINUOUS
 10
9.7505829195
 20
13.0041229042
 11
10.0244798182
 21
13.0017326422
  0
LINE
  5
69B
100
AcDbEntity
  8
0
100
AcDbLine
 62
7
  6
CONTINUOUS
 10
9.748162935
 20
13.0042372032
 11
9.2864498855
 21
13.0082665119
  0
LINE
  5
69C
100
AcDbEntity
  8
AXIS_COSMETIC_THREADS
100
AcDbLine
 62
7
  6
CENTER
 10
9.8945585584
 20
13.5922838233
 11
9.8945585584
 21
13.4430712249
  0
LINE
  5
69D
100
AcDbEntity
  8
AXIS_COSMETIC_THREADS
100
AcDbLine
 62
7
  6
CENTER
 10
9.8945585584
 20
13.5922838233
 11
9.8945585584
 21
13.7414964217
  0
LINE
  5
69E
100
AcDbEntity
  8
DEFAULT_2
100
AcDbLine
 62
8
  6
HIDDEN
 10
9.9536136765
 20
13.0023510816
 11
9.9536136765
 21
13.0017326422
  0
LINE
  5
69F
100
AcDbEntity
  8
DEFAULT_2
100
AcDbLine
 62
8
  6
HIDDEN
 10
9.9536136765
 20
14.1822165649
 11
9.9536136765
 21
14.1828350044
  0
LINE
  5
6A0
100
AcDbEntity
  8
0
100
AcDbLine
 62
7
  6
CONTINUOUS
 10
10.0244798182
 20
13.0017326422
 11
10.0244798182
 21
14.1828350044
  0
LINE
  5
6A1
100
AcDbEntity
  8
AXIS_COSMETIC_THREADS
100
AcDbLine
 62
7
  6
CONTINUOUS
 10
10.0244798182
 20
13.0017326422
 11
10.0244798182
 21
14.1828350044
  0
LINE
  5
6A2
100
AcDbEntity
  8
0
100
AcDbLine
 62
9
  6
CONTINUOUS
 10
12.3591254875
 20
13.100157839
 11
12.0481018655
 21
13.100157839
  0
LINE
  5
6A3
100
AcDbEntity
  8
AXIS_COSMETIC_THREADS
100
AcDbLine
 62
9
  6
CONTINUOUS
 10
12.0481018655
 20
13.100157839
 11
10.0244798182
 21
13.100157839
  0
LINE
  5
6A4
100
AcDbEntity
  8
0
100
AcDbLine
 62
9
  6
CONTINUOUS
 10
9.719361708
 20
13.100157839
 11
10.0244798182
 21
13.100157839
  0
LINE
  5
6A5
100
AcDbEntity
  8
0
100
AcDbLine
 62
7
  6
CONTINUOUS
 10
12.362613977
 20
13.1213783115
 11
12.3591254875
 21
13.1213783115
  0
LINE
  5
6A6
100
AcDbEntity
  8
0
100
AcDbLine
 62
7
  6
CONTINUOUS
 10
12.3591254875
 20
13.1513783115
 11
12.362613977
 21
13.1513783115
  0
LINE
  5
6A7
100
AcDbEntity
  8
AXIS_COSMETIC_THREADS
100
AcDbLine
 62
7
  6
CONTINUOUS
 10
12.5559758812
 20
13.3580318548
 11
12.3591254875
 21
13.3580318548
  0
LINE
  5
6A8
100
AcDbEntity
  8
AXIS_COSMETIC_THREADS
100
AcDbLine
 62
7
  6
CENTER
 10
12.1977081647
 20
13.5922838233
 11
11.9972081647
 21
13.5922838233
  0
LINE
  5
6A9
100
AcDbEntity
  8
AXIS_COSMETIC_THREADS
100
AcDbLine
 62
7
  6
CENTER
 10
9.8945585584
 20
13.5922838233
 11
9.74534596
 21
13.5922838233
  0
LINE
  5
6AA
100
AcDbEntity
  8
AXIS_COSMETIC_THREADS
100
AcDbLine
 62
2
  6
CENTER
 10
9.1902278497
 20
13.5922838233
 11
9.6628415718
 21
13.5922838233
  0
LINE
  5
6AB
100
AcDbEntity
  8
AXIS_COSMETIC_THREADS
100
AcDbLine
 62
7
  6
CENTER
 10
9.8945585584
 20
13.5922838233
 11
10.0437711568
 21
13.5922838233
  0
LINE
  5
6AC
100
AcDbEntity
  8
AXIS_COSMETIC_THREADS
100
AcDbLine
 62
2
  6
CENTER
 10
10.1397033613
 20
13.5922838233
 11
11.9575788544
 21
13.5922838233
  0
LINE
  5
6AD
100
AcDbEntity
  8
AXIS_COSMETIC_THREADS
100
AcDbLine
 62
7
  6
CENTER
 10
12.1977081647
 20
13.5922838233
 11
12.3934603339
 21
13.5922838233
  0
LINE
  5
6AE
100
AcDbEntity
  8
AXIS_COSMETIC_THREADS
100
AcDbLine
 62
2
  6
CENTER
 10
12.3934603339
 20
13.5922838233
 11
12.7427825505
 21
13.5922838233
  0
LINE
  5
6AF
100
AcDbEntity
  8
AXIS_COSMETIC_THREADS
100
AcDbLine
 62
7
  6
CONTINUOUS
 10
12.5559758812
 20
13.8265357918
 11
12.3591254875
 21
13.8265357918
  0
LINE
  5
6B0
100
AcDbEntity
  8
0
100
AcDbLine
 62
7
  6
CONTINUOUS
 10
12.3584645771
 20
13.9981893351
 11
12.3580048664
 21
13.9981893351
  0
LINE
  5
6B1
100
AcDbEntity
  8
0
100
AcDbLine
 62
9
  6
CONTINUOUS
 10
12.2882593458
 20
14.0047815687
 11
12.2765513915
 21
14.0047815687
  0
LINE
  5
6B2
100
AcDbEntity
  8
0
100
AcDbLine
 62
7
  6
CONTINUOUS
 10
12.362613977
 20
14.0331893351
 11
12.3580048664
 21
14.0331893351
  0
LINE
  5
6B3
100
AcDbEntity
  8
0
100
AcDbLine
 62
7
  6
CONTINUOUS
 10
12.3580048664
 20
14.0631893351
 11
12.362613977
 21
14.0631893351
  0
LINE
  5
6B4
100
AcDbEntity
  8
0
100
AcDbLine
 62
9
  6
CONTINUOUS
 10
12.2882593458
 20
14.0844098075
 11
12.0481018655
 21
14.0844098075
  0
LINE
  5
6B5
100
AcDbEntity
  8
AXIS_COSMETIC_THREADS
100
AcDbLine
 62
9
  6
CONTINUOUS
 10
12.0481018655
 20
14.0844098075
 11
10.0244798182
 21
14.0844098075
  0
LINE
  5
6B6
100
AcDbEntity
  8
0
100
AcDbLine
 62
9
  6
CONTINUOUS
 10
9.719361708
 20
14.0844098075
 11
10.0244798182
 21
14.0844098075
  0
LINE
  5
6B7
100
AcDbEntity
  8
0
100
AcDbLine
 62
7
  6
CONTINUOUS
 10
12.3580048664
 20
14.0981893351
 11
12.3584645771
 21
14.0981893351
  0
LINE
  5
6B8
100
AcDbEntity
  8
0
100
AcDbLine
 62
9
  6
CONTINUOUS
 10
12.2962364309
 20
13.9767709303
 11
12.3277324939
 21
13.9764960684
  0
LINE
  5
6B9
100
AcDbEntity
  8
0
100
AcDbLine
 62
7
  6
CONTINUOUS
 10
12.2962364309
 20
13.9885815042
 11
12.3277324944
 21
13.9883066423
  0
LINE
  5
6BA
100
AcDbEntity
  8
0
100
AcDbLine
 62
9
  6
CONTINUOUS
 10
12.3277324939
 20
13.9764960684
 11
12.327904276
 21
13.9764935092
  0
LINE
  5
6BB
100
AcDbEntity
  8
0
100
AcDbLine
 62
7
  6
CONTINUOUS
 10
12.3280500036
 20
13.988301911
 11
12.3277331637
 21
13.9883066284
  0
LWPOLYLINE
  5
6BC
100
AcDbEntity
  8
0
100
AcDbPolyline
 62
7
  6
CONTINUOUS
 90
28
 70
0
 10
12.2962364175
 20
13.9885813524
 10
12.2961078751
 20
13.9885863872
 10
12.2955823304
 20
13.9886830245
 10
12.2950144696
 20
13.9889042267
 10
12.2944884201
 20
13.9891989533
 10
12.2939802255
 20
13.9895586365
 10
12.2934969132
 20
13.9899667353
 10
12.2930296346
 20
13.990423822
 10
12.2925773626
 20
13.9909275076
 10
12.2921453294
 20
13.9914690783
 10
12.2917367057
 20
13.9920411531
 10
12.2913527405
 20
13.9926380636
 10
12.2909935223
 20
13.9932557763
 10
12.2906584674
 20
13.9938917051
 10
12.290346512
 20
13.9945447849
 10
12.2900563316
 20
13.9952155479
 10
12.2897866191
 20
13.9959057767
 10
12.2895362347
 20
13.9966183772
 10
12.2893046588
 20
13.9973563309
 10
12.2890944813
 20
13.9981132082
 10
12.2889068224
 20
13.9988857054
 10
12.2887421249
 20
13.9996724107
 10
12.2886007685
 20
14.0004720099
 10
12.2884831633
 20
14.0012833762
 10
12.2883897779
 20
14.0021055571
 10
12.288321087
 20
14.0029376649
 10
12.2882775789
 20
14.0037788529
 10
12.2882597694
 20
14.0046282882
  0
LWPOLYLINE
  5
6BD
100
AcDbEntity
  8
0
100
AcDbPolyline
 62
9
  6
CONTINUOUS
 90
10
 70
0
 10
12.327904276
 20
13.9764935092
 10
12.3319695599
 20
13.9760432658
 10
12.3362341889
 20
13.9746886594
 10
12.3403844182
 20
13.9724215236
 10
12.3442623813
 20
13.9693261322
 10
12.3478450212
 20
13.9654141032
 10
12.3510584323
 20
13.9607329644
 10
12.3538437472
 20
13.9553152863
 10
12.3561590382
 20
13.9491065081
 10
12.3579075852
 20
13.9420591973
  0
LINE
  5
6BE
100
AcDbEntity
  8
0
100
AcDbLine
 62
7
  6
CONTINUOUS
 10
9.748162935
 20
14.1803304434
 11
9.2864498855
 21
14.1763011346
  0
LINE
  5
6BF
100
AcDbEntity
  8
0
100
AcDbLine
 62
7
  6
CONTINUOUS
 10
9.7505829195
 20
14.1804447424
 11
10.0244798182
 21
14.1828350044
  0
LINE
  5
6C0
100
AcDbEntity
  8
AXIS_COSMETIC_THREADS
100
AcDbLine
 62
7
  6
CONTINUOUS
 10
12.3220455767
 20
14.1576893351
 11
12.2882593458
 21
14.1576893351
  0
LINE
  5
6C1
100
AcDbEntity
  8
AXIS_COSMETIC_THREADS
100
AcDbLine
 62
7
  6
CONTINUOUS
 10
12.0481018655
 20
14.1828350044
 11
10.0244798182
 21
14.1828350044
  0
LINE
  5
6C2
100
AcDbEntity
  8
0
100
AcDbLine
 62
7
  6
CONTINUOUS
 10
9.9536136765
 20
14.1828350044
 11
9.8355034403
 21
14.1828350044
  0
LINE
  5
6C3
100
AcDbEntity
  8
0
100
AcDbLine
 62
7
  6
CONTINUOUS
 10
12.1386530466
 20
14.1828350044
 11
12.2567632828
 21
14.1828350044
  0
LINE
  5
6C4
100
AcDbEntity
  8
0
100
AcDbLine
 62
9
  6
CONTINUOUS
 10
12.327904276
 20
14.160231295
 11
12.3276294245
 21
14.1602324761
  0
LINE
  5
6C5
100
AcDbEntity
  8
0
100
AcDbLine
 62
9
  6
CONTINUOUS
 10
12.3276294245
 20
14.1602324761
 11
12.2961333615
 21
14.1605073381
  0
LINE
  5
6C6
100
AcDbEntity
  8
0
100
AcDbLine
 62
7
  6
CONTINUOUS
 10
12.327904276
 20
14.1803932057
 11
12.0481018655
 21
14.1828350044
  0
LWPOLYLINE
  5
6C7
100
AcDbEntity
  8
0
100
AcDbPolyline
 62
9
  6
CONTINUOUS
 90
10
 70
0
 10
12.2961333615
 20
14.1605073381
 10
12.2949712347
 20
14.160624
 10
12.2937767806
 20
14.1609413687
 10
12.2925999176
 20
14.1614725538
 10
12.2914805806
 20
14.1622230246
 10
12.2904641938
 20
14.1631869055
 10
12.2895984031
 20
14.1643427643
 10
12.2889099704
 20
14.1656924983
 10
12.2884391805
 20
14.1672523632
 10
12.2882593458
 20
14.1690307817
  0
LINE
  5
6C8
100
AcDbEntity
  8
0
100
AcDbLine
 62
9
  6
CONTINUOUS
 10
12.3488242838
 20
14.1416788736
 11
12.345851081
 21
14.1400941989
  0
LWPOLYLINE
  5
6C9
100
AcDbEntity
  8
0
100
AcDbPolyline
 62
9
  6
CONTINUOUS
 90
10
 70
0
 10
12.3579075852
 20
14.1520194818
 10
12.3561590166
 20
14.1537003337
 10
12.3538436573
 20
14.1551809086
 10
12.3510583191
 20
14.1564727874
 10
12.3478450095
 20
14.1575889384
 10
12.3442628972
 20
14.1585220244
 10
12.3403852756
 20
14.1592604644
 10
12.3362337677
 20
14.1598007886
 10
12.3319692227
 20
14.1601235484
 10
12.327904276
 20
14.160231295
  0
LINE
  5
6CA
100
AcDbEntity
  8
0
100
AcDbLine
 62
7
  6
CONTINUOUS
 10
12.0481018655
 20
13.0017326422
 11
12.0481018655
 21
14.1828350044
  0
LINE
  5
6CB
100
AcDbEntity
  8
AXIS_COSMETIC_THREADS
100
AcDbLine
 62
7
  6
CONTINUOUS
 10
12.0481018655
 20
13.0017326422
 11
12.0481018655
 21
14.1828350044
  0
LINE
  5
6CC
100
AcDbEntity
  8
DEFAULT_2
100
AcDbLine
 62
8
  6
HIDDEN
 10
12.1386530466
 20
13.0025228704
 11
12.1386530466
 21
13.0017326422
  0
LINE
  5
6CD
100
AcDbEntity
  8
DEFAULT_2
100
AcDbLine
 62
8
  6
HIDDEN
 10
12.1386530466
 20
14.1820447762
 11
12.1386530466
 21
14.1828350044
  0
LWPOLYLINE
  5
6CE
100
AcDbEntity
  8
0
100
AcDbPolyline
 62
9
  6
CONTINUOUS
 90
4
 70
0
 10
12.3579075852
 20
14.1520194818
 10
12.3558018964
 20
14.1481950351
 10
12.3527394529
 20
14.1447086762
 10
12.3488242838
 20
14.1416788736
  0
LWPOLYLINE
  5
6CF
100
AcDbEntity
  8
0
100
AcDbPolyline
 62
9
  6
CONTINUOUS
 90
10
 70
0
 10
12.2765513915
 20
14.0047815687
 10
12.2770008668
 20
13.9988622757
 10
12.2781779194
 20
13.9936866396
 10
12.2798989379
 20
13.9892225605
 10
12.2820634687
 20
13.9854136973
 10
12.2846051471
 20
13.9822519933
 10
12.2874038266
 20
13.979807995
 10
12.2903465448
 20
13.9780978601
 10
12.2933325114
 20
13.9771007264
 10
12.2962364309
 20
13.9767709303
  0
LWPOLYLINE
  5
6D0
100
AcDbEntity
  8
0
100
AcDbPolyline
 62
7
  6
CONTINUOUS
 90
4
 70
0
 10
12.3591254865
 20
13.9297058339
 10
12.3590540288
 20
13.9335926281
 10
12.3587164769
 20
13.939171749
 10
12.3582820359
 20
13.9434508728
  0
LINE
  5
6D1
100
AcDbEntity
  8
AXIS_COSMETIC_THREADS
100
AcDbLine
 62
7
  6
CENTER
 10
12.1977081647
 20
13.5922838233
 11
12.1977081647
 21
13.3917838233
  0
LINE
  5
6D2
100
AcDbEntity
  8
AXIS_COSMETIC_THREADS
100
AcDbLine
 62
7
  6
CENTER
 10
12.1977081647
 20
13.5922838233
 11
12.1977081647
 21
13.7927838233
  0
LINE
  5
6D3
100
AcDbEntity
  8
DEFAULT_2
100
AcDbLine
 62
8
  6
HIDDEN
 10
12.2567632828
 20
13.0035536028
 11
12.2567632828
 21
13.0017326422
  0
LINE
  5
6D4
100
AcDbEntity
  8
DEFAULT_2
100
AcDbLine
 62
8
  6
HIDDEN
 10
12.2567632828
 20
14.1810140438
 11
12.2567632828
 21
14.1828350044
  0
LINE
  5
6D5
100
AcDbEntity
  8
0
100
AcDbLine
 62
9
  6
CONTINUOUS
 10
12.2765513915
 20
14.1808413556
 11
12.2765513915
 21
14.0047815687
  0
LINE
  5
6D6
100
AcDbEntity
  8
0
100
AcDbLine
 62
7
  6
CONTINUOUS
 10
12.2882593458
 20
14.1690307817
 11
12.2882597694
 21
14.0046282882
  0
LINE
  5
6D7
100
AcDbEntity
  8
0
100
AcDbLine
 62
9
  6
CONTINUOUS
 10
12.2961333615
 20
14.1605073381
 11
12.2961333615
 21
14.1576893351
  0
LINE
  5
6D8
100
AcDbEntity
  8
0
100
AcDbLine
 62
9
  6
CONTINUOUS
 10
12.3220455767
 20
14.1576893351
 11
12.3220455806
 21
13.9883562712
  0
LINE
  5
6D9
100
AcDbEntity
  8
0
100
AcDbLine
 62
9
  6
CONTINUOUS
 10
12.3276294245
 20
14.1602324761
 11
12.3276294245
 21
14.1568555449
  0
LINE
  5
6DA
100
AcDbEntity
  8
0
100
AcDbLine
 62
9
  6
CONTINUOUS
 10
12.327904276
 20
13.9764935092
 11
12.327904276
 21
13.0041744408
  0
LINE
  5
6DB
100
AcDbEntity
  8
0
100
AcDbLine
 62
9
  6
CONTINUOUS
 10
12.3452155738
 20
14.142078224
 11
12.3452155823
 21
13.9793625769
  0
LWPOLYLINE
  5
6DC
100
AcDbEntity
  8
0
100
AcDbPolyline
 62
9
  6
CONTINUOUS
 90
9
 70
0
 10
12.2961333615
 20
14.1605073381
 10
12.2961756514
 20
14.1632910063
 10
12.2962143025
 20
14.1665541816
 10
12.2962459863
 20
14.1700158661
 10
12.2962679741
 20
14.1733779509
 10
12.2962783718
 20
14.1763508915
 10
12.2962762841
 20
14.1786786501
 10
12.2962618906
 20
14.1801607541
 10
12.2962364309
 20
14.1806695668
  0
LWPOLYLINE
  5
6DD
100
AcDbEntity
  8
0
100
AcDbPolyline
 62
9
  6
CONTINUOUS
 90
9
 70
0
 10
12.3276294245
 20
14.1602324761
 10
12.3276717347
 20
14.1630162188
 10
12.3277104013
 20
14.166279451
 10
12.3277420945
 20
14.1697411543
 10
12.3277640849
 20
14.1731032187
 10
12.3277744788
 20
14.1760761149
 10
12.3277723812
 20
14.1784038271
 10
12.3277579726
 20
14.1798859008
 10
12.3277324939
 20
14.1803947049
  0
LWPOLYLINE
  5
6DE
100
AcDbEntity
  8
0
100
AcDbPolyline
 62
9
  6
CONTINUOUS
 90
9
 70
0
 10
12.327904276
 20
14.1602312954
 10
12.3279720462
 20
14.1630149269
 10
12.3280251056
 20
14.1662779708
 10
12.3280588852
 20
14.1697394598
 10
12.3280704766
 20
14.1731013395
 10
12.3280588825
 20
14.1760741317
 10
12.3280251016
 20
14.1784018609
 10
12.3279720427
 20
14.1798840952
 10
12.327904276
 20
14.1803932057
  0
LWPOLYLINE
  5
6DF
100
AcDbEntity
  8
0
100
AcDbPolyline
 62
9
  6
CONTINUOUS
 90
4
 70
0
 10
12.3579076523
 20
14.1520194682
 10
12.3582508882
 20
14.1538756282
 10
12.3582508906
 20
14.1557448117
 10
12.3579076594
 20
14.1575721726
  0
LWPOLYLINE
  5
6E0
100
AcDbEntity
  8
0
100
AcDbPolyline
 62
9
  6
CONTINUOUS
 90
7
 70
0
 10
12.2962364309
 20
13.9885815042
 10
12.2962460316
 20
13.9885246056
 10
12.2962680221
 20
13.9876823918
 10
12.296278416
 20
13.9859005205
 10
12.2962763183
 20
13.9833324402
 10
12.2962619097
 20
13.9801993052
 10
12.2962364309
 20
13.9767709303
  0
LWPOLYLINE
  5
6E1
100
AcDbEntity
  8
0
100
AcDbPolyline
 62
9
  6
CONTINUOUS
 90
7
 70
0
 10
12.3277324944
 20
13.9883066423
 10
12.3277420951
 20
13.9882497435
 10
12.3277640855
 20
13.9874075292
 10
12.3277744794
 20
13.9856256573
 10
12.3277723816
 20
13.9830575767
 10
12.3277579728
 20
13.979924442
 10
12.3277324939
 20
13.9764960684
  0
LWPOLYLINE
  5
6E2
100
AcDbEntity
  8
0
100
AcDbPolyline
 62
9
  6
CONTINUOUS
 90
5
 70
0
 10
12.3579075852
 20
13.9420591973
 10
12.3584461729
 20
13.9388373484
 10
12.3588261754
 20
13.9356983095
 10
12.3590513284
 20
13.9326479819
 10
12.3591254875
 20
13.9296919968
  0
LWPOLYLINE
  5
6E3
100
AcDbEntity
  8
0
100
AcDbPolyline
 62
7
  6
CONTINUOUS
 90
10
 70
0
 10
12.3582821067
 20
13.9434507465
 10
12.3570537437
 20
13.9513636843
 10
12.3550544905
 20
13.9596700974
 10
12.3524348959
 20
13.9671591561
 10
12.3491007061
 20
13.9738904028
 10
12.3451183897
 20
13.9794994722
 10
12.3407964751
 20
13.9836255228
 10
12.3361791919
 20
13.9864163109
 10
12.3310675293
 20
13.988007989
 10
12.3280499238
 20
13.9882984342
  0
LWPOLYLINE
  5
6E4
100
AcDbEntity
  8
0
100
AcDbPolyline
 62
9
  6
CONTINUOUS
 90
7
 70
0
 10
12.3280499288
 20
13.9882984339
 10
12.328058785
 20
13.9882412784
 10
12.3280703634
 20
13.9873988708
 10
12.3280587703
 20
13.9856176542
 10
12.3280250049
 20
13.9830509585
 10
12.3279719743
 20
13.979919729
 10
12.3279042454
 20
13.9764935078
  0
LWPOLYLINE
  5
6E5
100
AcDbEntity
  8
0
100
AcDbPolyline
 62
9
  6
CONTINUOUS
 90
4
 70
0
 10
12.3591254875
 20
14.148898342
 10
12.3589933069
 20
14.1499789853
 10
12.3585903315
 20
14.1510226985
 10
12.3579075852
 20
14.1520194818
  0
LINE
  5
6E6
100
AcDbEntity
  8
0
100
AcDbLine
 62
7
  6
CONTINUOUS
 10
12.3591254863
 20
13.9297062595
 11
12.3591254875
 21
13.929691936
  0
LINE
  5
6E7
100
AcDbEntity
  8
0
100
AcDbLine
 62
7
  6
CONTINUOUS
 10
12.3591254875
 20
14.148898342
 11
12.3591254875
 21
14.0922093986
  0
LINE
  5
6E8
100
AcDbEntity
  8
0
100
AcDbLine
 62
7
  6
CONTINUOUS
 10
12.3591254875
 20
14.0631893351
 11
12.3591254875
 21
14.0331893351
  0
LINE
  5
6E9
100
AcDbEntity
  8
0
100
AcDbLine
 62
7
  6
CONTINUOUS
 10
12.3591254875
 20
14.0041692716
 11
12.3591254875
 21
13.9297062595
  0
LINE
  5
6EA
100
AcDbEntity
  8
0
100
AcDbLine
 62
7
  6
CONTINUOUS
 10
12.3591254875
 20
13.9296919968
 11
12.3591254875
 21
13.0356693046
  0
LWPOLYLINE
  5
6EB
100
AcDbEntity
  8
0
100
AcDbPolyline
 62
9
  6
CONTINUOUS
 90
3
 70
0
 10
12.3582820516
 20
13.94345074
 10
12.3582508299
 20
13.9428568389
 10
12.3579075977
 20
13.9420591973
  0
LINE
  5
6EC
100
AcDbEntity
  8
AXIS_COSMETIC_THREADS
100
AcDbLine
 62
7
  6
CONTINUOUS
 10
12.5559758812
 20
13.3580337629
 11
12.5559758812
 21
13.8265338837
  0
LINE
  5
6ED
100
AcDbEntity
  8
0
100
AcDbLine
 62
7
  6
CONTINUOUS
 10
9.2864498855
 20
7.5553516626
 11
9.2705428104
 21
7.5394445875
  0
LINE
  5
6EE
100
AcDbEntity
  8
0
100
AcDbLine
 62
7
  6
CONTINUOUS
 10
9.2705428104
 20
6.4032241151
 11
9.2705428104
 21
7.5394445875
  0
LINE
  5
6EF
100
AcDbEntity
  8
0
100
AcDbLine
 62
7
  6
CONTINUOUS
 10
9.2864498855
 20
6.3873170399
 11
9.2864498855
 21
7.5553516626
  0
LINE
  5
6F0
100
AcDbEntity
  8
0
100
AcDbLine
 62
7
  6
CONTINUOUS
 10
9.719361708
 20
6.4146682959
 11
9.719361708
 21
7.5280004067
  0
LINE
  5
6F1
100
AcDbEntity
  8
0
100
AcDbLine
 62
9
  6
CONTINUOUS
 10
9.7505829195
 20
6.3831734322
 11
9.7505829195
 21
7.5594952704
  0
LINE
  5
6F2
100
AcDbEntity
  8
DEFAULT_2
100
AcDbLine
 62
8
  6
HIDDEN
 10
9.8355034403
 20
6.3824323421
 11
9.8355034403
 21
6.3807831702
  0
LINE
  5
6F3
100
AcDbEntity
  8
DEFAULT_2
100
AcDbLine
 62
8
  6
HIDDEN
 10
9.8355034403
 20
7.5602363605
 11
9.8355034403
 21
7.5618855324
  0
LINE
  5
6F4
100
AcDbEntity
  8
0
100
AcDbLine
 62
7
  6
CONTINUOUS
 10
9.2864498855
 20
6.3873170399
 11
9.2705428104
 21
6.4032241151
  0
LINE
  5
6F5
100
AcDbEntity
  8
DEFAULT_2
100
AcDbLine
 62
8
  6
HIDDEN
 10
9.9536136765
 20
6.3814016096
 11
9.9536136765
 21
6.3807831702
  0
LINE
  5
6F6
100
AcDbEntity
  8
DEFAULT_2
100
AcDbLine
 62
8
  6
HIDDEN
 10
9.9536136765
 20
7.5612670929
 11
9.9536136765
 21
7.5618855324
  0
LINE
  5
6F7
100
AcDbEntity
  8
0
100
AcDbLine
 62
7
  6
CONTINUOUS
 10
10.0244798182
 20
6.3807831702
 11
10.0244798182
 21
7.5618855324
  0
LINE
  5
6F8
100
AcDbEntity
  8
AXIS_COSMETIC_THREADS
100
AcDbLine
 62
7
  6
CONTINUOUS
 10
10.0244798182
 20
6.3807831702
 11
10.0244798182
 21
7.5618855324
  0
LINE
  5
6F9
100
AcDbEntity
  8
0
100
AcDbLine
 62
9
  6
CONTINUOUS
 10
12.3488242838
 20
7.5207294016
 11
12.345851081
 21
7.5191447269
  0
LINE
  5
6FA
100
AcDbEntity
  8
0
100
AcDbLine
 62
7
  6
CONTINUOUS
 10
12.327904276
 20
6.3832249688
 11
12.0481018655
 21
6.3807831702
  0
LINE
  5
6FB
100
AcDbEntity
  8
AXIS_COSMETIC_THREADS
100
AcDbLine
 62
7
  6
CONTINUOUS
 10
12.0481018655
 20
6.3807831702
 11
10.0244798182
 21
6.3807831702
  0
LINE
  5
6FC
100
AcDbEntity
  8
0
100
AcDbLine
 62
7
  6
CONTINUOUS
 10
9.9536136765
 20
6.3807831702
 11
9.8355034403
 21
6.3807831702
  0
LINE
  5
6FD
100
AcDbEntity
  8
0
100
AcDbLine
 62
7
  6
CONTINUOUS
 10
12.1386530466
 20
6.3807831702
 11
12.2567632828
 21
6.3807831702
  0
LINE
  5
6FE
100
AcDbEntity
  8
0
100
AcDbLine
 62
7
  6
CONTINUOUS
 10
9.7505829195
 20
6.3831734322
 11
10.0244798182
 21
6.3807831702
  0
LINE
  5
6FF
100
AcDbEntity
  8
0
100
AcDbLine
 62
7
  6
CONTINUOUS
 10
9.748162935
 20
6.3832877312
 11
9.2864498855
 21
6.3873170399
  0
LINE
  5
700
100
AcDbEntity
  8
0
100
AcDbLine
 62
9
  6
CONTINUOUS
 10
12.3591254875
 20
6.479208367
 11
12.0481018655
 21
6.479208367
  0
LINE
  5
701
100
AcDbEntity
  8
AXIS_COSMETIC_THREADS
100
AcDbLine
 62
9
  6
CONTINUOUS
 10
12.0481018655
 20
6.479208367
 11
10.0244798182
 21
6.479208367
  0
LINE
  5
702
100
AcDbEntity
  8
0
100
AcDbLine
 62
9
  6
CONTINUOUS
 10
9.719361708
 20
6.479208367
 11
10.0244798182
 21
6.479208367
  0
LINE
  5
703
100
AcDbEntity
  8
0
100
AcDbLine
 62
7
  6
CONTINUOUS
 10
12.362613977
 20
6.5004288395
 11
12.3591254875
 21
6.5004288395
  0
LINE
  5
704
100
AcDbEntity
  8
0
100
AcDbLine
 62
7
  6
CONTINUOUS
 10
12.3591254875
 20
6.5304288395
 11
12.362613977
 21
6.5304288395
  0
LINE
  5
705
100
AcDbEntity
  8
AXIS_COSMETIC_THREADS
100
AcDbLine
 62
7
  6
CONTINUOUS
 10
12.5559758812
 20
6.7370823828
 11
12.3591254875
 21
6.7370823828
  0
LINE
  5
706
100
AcDbEntity
  8
AXIS_COSMETIC_THREADS
100
AcDbLine
 62
7
  6
CENTER
 10
12.1977081647
 20
6.9713343513
 11
11.9972081647
 21
6.9713343513
  0
LINE
  5
707
100
AcDbEntity
  8
AXIS_COSMETIC_THREADS
100
AcDbLine
 62
2
  6
CENTER
 10
9.1902278497
 20
6.9713343513
 11
11.8993488421
 21
6.9713343513
  0
LINE
  5
708
100
AcDbEntity
  8
AXIS_COSMETIC_THREADS
100
AcDbLine
 62
7
  6
CENTER
 10
12.1977081647
 20
6.9713343513
 11
12.3982081647
 21
6.9713343513
  0
LINE
  5
709
100
AcDbEntity
  8
AXIS_COSMETIC_THREADS
100
AcDbLine
 62
2
  6
CENTER
 10
12.5047397858
 20
6.9713343513
 11
12.7573934112
 21
6.9713343513
  0
LWPOLYLINE
  5
70A
100
AcDbEntity
  8
0
100
AcDbPolyline
 62
9
  6
CONTINUOUS
 90
4
 70
0
 10
12.3579075852
 20
7.5310700098
 10
12.3558018964
 20
7.5272455631
 10
12.3527394529
 20
7.5237592042
 10
12.3488242838
 20
7.5207294016
  0
LINE
  5
70B
100
AcDbEntity
  8
AXIS_COSMETIC_THREADS
100
AcDbLine
 62
7
  6
CONTINUOUS
 10
12.5559758812
 20
7.2055863198
 11
12.3591254875
 21
7.2055863198
  0
LINE
  5
70C
100
AcDbEntity
  8
0
100
AcDbLine
 62
7
  6
CONTINUOUS
 10
12.3584645771
 20
7.3772398631
 11
12.3580048664
 21
7.3772398631
  0
LINE
  5
70D
100
AcDbEntity
  8
0
100
AcDbLine
 62
9
  6
CONTINUOUS
 10
12.2882593458
 20
7.3838320967
 11
12.2765513915
 21
7.3838320967
  0
LINE
  5
70E
100
AcDbEntity
  8
0
100
AcDbLine
 62
7
  6
CONTINUOUS
 10
12.362613977
 20
7.4122398631
 11
12.3580048664
 21
7.4122398631
  0
LINE
  5
70F
100
AcDbEntity
  8
0
100
AcDbLine
 62
7
  6
CONTINUOUS
 10
12.3580048664
 20
7.4422398631
 11
12.362613977
 21
7.4422398631
  0
LINE
  5
710
100
AcDbEntity
  8
0
100
AcDbLine
 62
9
  6
CONTINUOUS
 10
12.2882593458
 20
7.4634603355
 11
12.0481018655
 21
7.4634603355
  0
LINE
  5
711
100
AcDbEntity
  8
AXIS_COSMETIC_THREADS
100
AcDbLine
 62
9
  6
CONTINUOUS
 10
12.0481018655
 20
7.4634603355
 11
10.0244798182
 21
7.4634603355
  0
LINE
  5
712
100
AcDbEntity
  8
0
100
AcDbLine
 62
9
  6
CONTINUOUS
 10
9.719361708
 20
7.4634603355
 11
10.0244798182
 21
7.4634603355
  0
LINE
  5
713
100
AcDbEntity
  8
0
100
AcDbLine
 62
7
  6
CONTINUOUS
 10
12.3580048664
 20
7.4772398631
 11
12.3584645771
 21
7.4772398631
  0
LINE
  5
714
100
AcDbEntity
  8
0
100
AcDbLine
 62
9
  6
CONTINUOUS
 10
12.2962364309
 20
7.3558214583
 11
12.3277324939
 21
7.3555465964
  0
LINE
  5
715
100
AcDbEntity
  8
0
100
AcDbLine
 62
7
  6
CONTINUOUS
 10
12.2962364309
 20
7.3676320322
 11
12.3277324944
 21
7.3673571703
  0
LINE
  5
716
100
AcDbEntity
  8
0
100
AcDbLine
 62
9
  6
CONTINUOUS
 10
12.3277324939
 20
7.3555465964
 11
12.327904276
 21
7.3555440372
  0
LINE
  5
717
100
AcDbEntity
  8
0
100
AcDbLine
 62
7
  6
CONTINUOUS
 10
12.3280500036
 20
7.3673524391
 11
12.3277331637
 21
7.3673571564
  0
LWPOLYLINE
  5
718
100
AcDbEntity
  8
0
100
AcDbPolyline
 62
7
  6
CONTINUOUS
 90
28
 70
0
 10
12.2962364175
 20
7.3676318804
 10
12.2961078751
 20
7.3676369152
 10
12.2955823304
 20
7.3677335525
 10
12.2950144696
 20
7.3679547547
 10
12.2944884201
 20
7.3682494813
 10
12.2939802255
 20
7.3686091645
 10
12.2934969132
 20
7.3690172633
 10
12.2930296346
 20
7.36947435
 10
12.2925773626
 20
7.3699780356
 10
12.2921453294
 20
7.3705196063
 10
12.2917367057
 20
7.3710916811
 10
12.2913527405
 20
7.3716885916
 10
12.2909935223
 20
7.3723063043
 10
12.2906584674
 20
7.3729422331
 10
12.290346512
 20
7.3735953129
 10
12.2900563316
 20
7.3742660759
 10
12.2897866191
 20
7.3749563047
 10
12.2895362347
 20
7.3756689052
 10
12.2893046588
 20
7.3764068589
 10
12.2890944813
 20
7.3771637362
 10
12.2889068224
 20
7.3779362334
 10
12.2887421249
 20
7.3787229387
 10
12.2886007685
 20
7.3795225379
 10
12.2884831633
 20
7.3803339042
 10
12.2883897779
 20
7.3811560851
 10
12.288321087
 20
7.3819881929
 10
12.2882775789
 20
7.3828293809
 10
12.2882597694
 20
7.3836788162
  0
LWPOLYLINE
  5
719
100
AcDbEntity
  8
0
100
AcDbPolyline
 62
9
  6
CONTINUOUS
 90
10
 70
0
 10
12.327904276
 20
7.3555440372
 10
12.3319695599
 20
7.3550937938
 10
12.3362341889
 20
7.3537391874
 10
12.3403844182
 20
7.3514720516
 10
12.3442623813
 20
7.3483766602
 10
12.3478450212
 20
7.3444646312
 10
12.3510584323
 20
7.3397834924
 10
12.3538437472
 20
7.3343658143
 10
12.3561590382
 20
7.3281570361
 10
12.3579075852
 20
7.3211097253
  0
LINE
  5
71A
100
AcDbEntity
  8
0
100
AcDbLine
 62
7
  6
CONTINUOUS
 10
12.0481018655
 20
6.3807831702
 11
12.0481018655
 21
7.5618855324
  0
LINE
  5
71B
100
AcDbEntity
  8
AXIS_COSMETIC_THREADS
100
AcDbLine
 62
7
  6
CONTINUOUS
 10
12.0481018655
 20
6.3807831702
 11
12.0481018655
 21
7.5618855324
  0
LINE
  5
71C
100
AcDbEntity
  8
DEFAULT_2
100
AcDbLine
 62
8
  6
HIDDEN
 10
12.1386530466
 20
6.3815733984
 11
12.1386530466
 21
6.3807831702
  0
LINE
  5
71D
100
AcDbEntity
  8
DEFAULT_2
100
AcDbLine
 62
8
  6
HIDDEN
 10
12.1386530466
 20
7.5610953042
 11
12.1386530466
 21
7.5618855324
  0
LWPOLYLINE
  5
71E
100
AcDbEntity
  8
0
100
AcDbPolyline
 62
9
  6
CONTINUOUS
 90
4
 70
0
 10
12.3579076523
 20
7.5310699962
 10
12.3582508882
 20
7.5329261562
 10
12.3582508906
 20
7.5347953397
 10
12.3579076594
 20
7.5366227006
  0
LINE
  5
71F
100
AcDbEntity
  8
0
100
AcDbLine
 62
7
  6
CONTINUOUS
 10
9.748162935
 20
7.5593809714
 11
9.2864498855
 21
7.5553516626
  0
LINE
  5
720
100
AcDbEntity
  8
0
100
AcDbLine
 62
7
  6
CONTINUOUS
 10
9.7505829195
 20
7.5594952704
 11
10.0244798182
 21
7.5618855324
  0
LINE
  5
721
100
AcDbEntity
  8
AXIS_COSMETIC_THREADS
100
AcDbLine
 62
7
  6
CONTINUOUS
 10
12.3220455767
 20
7.5367398631
 11
12.2882593458
 21
7.5367398631
  0
LINE
  5
722
100
AcDbEntity
  8
0
100
AcDbLine
 62
7
  6
CONTINUOUS
 10
12.2567632828
 20
7.5618855324
 11
12.1386530466
 21
7.5618855324
  0
LINE
  5
723
100
AcDbEntity
  8
AXIS_COSMETIC_THREADS
100
AcDbLine
 62
7
  6
CONTINUOUS
 10
12.0481018655
 20
7.5618855324
 11
10.0244798182
 21
7.5618855324
  0
LINE
  5
724
100
AcDbEntity
  8
0
100
AcDbLine
 62
7
  6
CONTINUOUS
 10
9.8355034403
 20
7.5618855324
 11
9.9536136765
 21
7.5618855324
  0
LINE
  5
725
100
AcDbEntity
  8
0
100
AcDbLine
 62
9
  6
CONTINUOUS
 10
12.327904276
 20
7.539281823
 11
12.3276294245
 21
7.5392830041
  0
LINE
  5
726
100
AcDbEntity
  8
0
100
AcDbLine
 62
9
  6
CONTINUOUS
 10
12.3276294245
 20
7.5392830041
 11
12.2961333615
 21
7.5395578661
  0
LINE
  5
727
100
AcDbEntity
  8
0
100
AcDbLine
 62
7
  6
CONTINUOUS
 10
12.327904276
 20
7.5594437337
 11
12.0481018655
 21
7.5618855324
  0
LWPOLYLINE
  5
728
100
AcDbEntity
  8
0
100
AcDbPolyline
 62
9
  6
CONTINUOUS
 90
10
 70
0
 10
12.2961333615
 20
7.5395578661
 10
12.2949712347
 20
7.539674528
 10
12.2937767806
 20
7.5399918967
 10
12.2925999176
 20
7.5405230818
 10
12.2914805806
 20
7.5412735526
 10
12.2904641938
 20
7.5422374335
 10
12.2895984031
 20
7.5433932923
 10
12.2889099704
 20
7.5447430263
 10
12.2884391805
 20
7.5463028912
 10
12.2882593458
 20
7.5480813097
  0
LWPOLYLINE
  5
729
100
AcDbEntity
  8
0
100
AcDbPolyline
 62
9
  6
CONTINUOUS
 90
10
 70
0
 10
12.2765513915
 20
7.3838320967
 10
12.2770008668
 20
7.3779128037
 10
12.2781779194
 20
7.3727371676
 10
12.2798989379
 20
7.3682730885
 10
12.2820634687
 20
7.3644642253
 10
12.2846051471
 20
7.3613025213
 10
12.2874038266
 20
7.358858523
 10
12.2903465448
 20
7.3571483881
 10
12.2933325114
 20
7.3561512544
 10
12.2962364309
 20
7.3558214583
  0
LINE
  5
72A
100
AcDbEntity
  8
AXIS_COSMETIC_THREADS
100
AcDbLine
 62
7
  6
CENTER
 10
12.1977081647
 20
6.9713343513
 11
12.1977081647
 21
6.7708343513
  0
LINE
  5
72B
100
AcDbEntity
  8
AXIS_COSMETIC_THREADS
100
AcDbLine
 62
7
  6
CENTER
 10
12.1977081647
 20
6.9713343513
 11
12.1977081647
 21
7.1718343513
  0
LINE
  5
72C
100
AcDbEntity
  8
DEFAULT_2
100
AcDbLine
 62
8
  6
HIDDEN
 10
12.2567632828
 20
6.3826041308
 11
12.2567632828
 21
6.3807831702
  0
LINE
  5
72D
100
AcDbEntity
  8
DEFAULT_2
100
AcDbLine
 62
8
  6
HIDDEN
 10
12.2567632828
 20
7.5600645718
 11
12.2567632828
 21
7.5618855324
  0
LINE
  5
72E
100
AcDbEntity
  8
0
100
AcDbLine
 62
9
  6
CONTINUOUS
 10
12.2765513915
 20
7.5598918836
 11
12.2765513915
 21
7.3838320967
  0
LINE
  5
72F
100
AcDbEntity
  8
0
100
AcDbLine
 62
7
  6
CONTINUOUS
 10
12.2882593458
 20
7.5480813097
 11
12.2882597694
 21
7.3836788162
  0
LINE
  5
730
100
AcDbEntity
  8
0
100
AcDbLine
 62
9
  6
CONTINUOUS
 10
12.2961333615
 20
7.5395578661
 11
12.2961333615
 21
7.5367398631
  0
LINE
  5
731
100
AcDbEntity
  8
0
100
AcDbLine
 62
9
  6
CONTINUOUS
 10
12.3220455767
 20
7.5367398631
 11
12.3220455806
 21
7.3674067992
  0
LINE
  5
732
100
AcDbEntity
  8
0
100
AcDbLine
 62
9
  6
CONTINUOUS
 10
12.3276294245
 20
7.5392830041
 11
12.3276294245
 21
7.5359060729
  0
LINE
  5
733
100
AcDbEntity
  8
0
100
AcDbLine
 62
9
  6
CONTINUOUS
 10
12.327904276
 20
7.3555440372
 11
12.327904276
 21
6.3832249688
  0
LINE
  5
734
100
AcDbEntity
  8
0
100
AcDbLine
 62
9
  6
CONTINUOUS
 10
12.3452155738
 20
7.521128752
 11
12.3452155823
 21
7.3584131049
  0
LWPOLYLINE
  5
735
100
AcDbEntity
  8
0
100
AcDbPolyline
 62
9
  6
CONTINUOUS
 90
9
 70
0
 10
12.2961333615
 20
7.5395578661
 10
12.2961756514
 20
7.5423415343
 10
12.2962143025
 20
7.5456047096
 10
12.2962459863
 20
7.5490663941
 10
12.2962679741
 20
7.5524284789
 10
12.2962783718
 20
7.5554014195
 10
12.2962762841
 20
7.5577291781
 10
12.2962618906
 20
7.5592112821
 10
12.2962364309
 20
7.5597200948
  0
LWPOLYLINE
  5
736
100
AcDbEntity
  8
0
100
AcDbPolyline
 62
9
  6
CONTINUOUS
 90
9
 70
0
 10
12.3276294245
 20
7.5392830041
 10
12.3276717347
 20
7.5420667468
 10
12.3277104013
 20
7.545329979
 10
12.3277420945
 20
7.5487916823
 10
12.3277640849
 20
7.5521537467
 10
12.3277744788
 20
7.5551266429
 10
12.3277723812
 20
7.5574543551
 10
12.3277579726
 20
7.5589364288
 10
12.3277324939
 20
7.5594452329
  0
LWPOLYLINE
  5
737
100
AcDbEntity
  8
0
100
AcDbPolyline
 62
9
  6
CONTINUOUS
 90
9
 70
0
 10
12.327904276
 20
7.5392818234
 10
12.3279720462
 20
7.5420654549
 10
12.3280251056
 20
7.5453284988
 10
12.3280588852
 20
7.5487899878
 10
12.3280704766
 20
7.5521518675
 10
12.3280588825
 20
7.5551246597
 10
12.3280251016
 20
7.5574523889
 10
12.3279720427
 20
7.5589346232
 10
12.327904276
 20
7.5594437337
  0
LWPOLYLINE
  5
738
100
AcDbEntity
  8
0
100
AcDbPolyline
 62
9
  6
CONTINUOUS
 90
3
 70
0
 10
12.3582820516
 20
7.322501268
 10
12.3582508299
 20
7.3219073669
 10
12.3579075977
 20
7.3211097253
  0
LWPOLYLINE
  5
739
100
AcDbEntity
  8
0
100
AcDbPolyline
 62
7
  6
CONTINUOUS
 90
4
 70
0
 10
12.3591254865
 20
7.3087564469
 10
12.3590540281
 20
7.3126431732
 10
12.3587164774
 20
7.3182222717
 10
12.3582820359
 20
7.3225014008
  0
LINE
  5
73A
100
AcDbEntity
  8
0
100
AcDbLine
 62
7
  6
CONTINUOUS
 10
12.3591254875
 20
7.52794887
 11
12.3591254875
 21
7.4712599266
  0
LINE
  5
73B
100
AcDbEntity
  8
0
100
AcDbLine
 62
7
  6
CONTINUOUS
 10
12.3591254875
 20
7.4422398631
 11
12.3591254875
 21
7.4122398631
  0
LINE
  5
73C
100
AcDbEntity
  8
0
100
AcDbLine
 62
7
  6
CONTINUOUS
 10
12.3591254875
 20
7.3832197996
 11
12.3591254875
 21
7.3087568741
  0
LINE
  5
73D
100
AcDbEntity
  8
0
100
AcDbLine
 62
7
  6
CONTINUOUS
 10
12.3591254875
 20
7.3087425243
 11
12.3591254875
 21
6.4147198326
  0
LINE
  5
73E
100
AcDbEntity
  8
0
100
AcDbLine
 62
7
  6
CONTINUOUS
 10
12.3591254863
 20
7.3087568741
 11
12.3591254875
 21
7.3087425243
  0
LINE
  5
73F
100
AcDbEntity
  8
NOTES
100
AcDbLine
 62
2
  6
CONTINUOUS
 10
13.3370300293
 20
7.9354557495
 11
13.4453623047
 21
7.9354557495
  0
LWPOLYLINE
  5
740
100
AcDbEntity
  8
0
100
AcDbPolyline
 62
9
  6
CONTINUOUS
 90
7
 70
0
 10
12.2962364309
 20
7.3676320322
 10
12.2962460316
 20
7.3675751336
 10
12.2962680221
 20
7.3667329198
 10
12.296278416
 20
7.3649510485
 10
12.2962763183
 20
7.3623829682
 10
12.2962619097
 20
7.3592498332
 10
12.2962364309
 20
7.3558214583
  0
LWPOLYLINE
  5
741
100
AcDbEntity
  8
0
100
AcDbPolyline
 62
9
  6
CONTINUOUS
 90
7
 70
0
 10
12.3277324944
 20
7.3673571703
 10
12.3277420951
 20
7.3673002715
 10
12.3277640855
 20
7.3664580572
 10
12.3277744794
 20
7.3646761853
 10
12.3277723816
 20
7.3621081047
 10
12.3277579728
 20
7.35897497
 10
12.3277324939
 20
7.3555465964
  0
LWPOLYLINE
  5
742
100
AcDbEntity
  8
0
100
AcDbPolyline
 62
9
  6
CONTINUOUS
 90
4
 70
0
 10
12.3579075852
 20
7.3211097253
 10
12.3585902391
 20
7.3168322783
 10
12.3589932608
 20
7.3127048388
 10
12.3591254875
 20
7.3087425243
  0
LWPOLYLINE
  5
743
100
AcDbEntity
  8
0
100
AcDbPolyline
 62
7
  6
CONTINUOUS
 90
10
 70
0
 10
12.3582821067
 20
7.3225012745
 10
12.3570537437
 20
7.3304142123
 10
12.3550544905
 20
7.3387206254
 10
12.3524348959
 20
7.3462096841
 10
12.3491007061
 20
7.3529409308
 10
12.3451183897
 20
7.3585500002
 10
12.3407964751
 20
7.3626760508
 10
12.3361791919
 20
7.3654668389
 10
12.3310675293
 20
7.367058517
 10
12.3280499238
 20
7.3673489622
  0
LWPOLYLINE
  5
744
100
AcDbEntity
  8
0
100
AcDbPolyline
 62
9
  6
CONTINUOUS
 90
7
 70
0
 10
12.3280499288
 20
7.3673489619
 10
12.328058785
 20
7.3672918064
 10
12.3280703634
 20
7.3664493988
 10
12.3280587703
 20
7.3646681822
 10
12.3280250049
 20
7.3621014865
 10
12.3279719743
 20
7.358970257
 10
12.3279042454
 20
7.3555440358
  0
LWPOLYLINE
  5
745
100
AcDbEntity
  8
0
100
AcDbPolyline
 62
9
  6
CONTINUOUS
 90
4
 70
0
 10
12.3591254875
 20
7.5279488354
 10
12.3589933045
 20
7.5290295228
 10
12.3585903279
 20
7.5300732331
 10
12.3579075852
 20
7.5310700098
  0
LINE
  5
746
100
AcDbEntity
  8
AXIS_COSMETIC_THREADS
100
AcDbLine
 62
7
  6
CONTINUOUS
 10
12.5559758812
 20
6.7370842909
 11
12.5559758812
 21
7.2055844117
  0
LWPOLYLINE
  5
747
100
AcDbEntity
  8
0
100
AcDbPolyline
 62
9
  6
CONTINUOUS
 90
10
 70
0
 10
12.3579075852
 20
7.5310700098
 10
12.3561590166
 20
7.5327508617
 10
12.3538436573
 20
7.5342314366
 10
12.3510583191
 20
7.5355233154
 10
12.3478450095
 20
7.5366394664
 10
12.3442628972
 20
7.5375725524
 10
12.3403852756
 20
7.5383109924
 10
12.3362337677
 20
7.5388513166
 10
12.3319692227
 20
7.5391740764
 10
12.327904276
 20
7.539281823
  0
LINE
  5
748
100
AcDbEntity
  8
NOTES
100
AcDbLine
 62
2
  6
CONTINUOUS
 10
13.391196167
 20
7.9354557495
 11
13.391196167
 21
7.8312887573
  0
LWPOLYLINE
  5
749
100
AcDbEntity
  8
NOTES
100
AcDbPolyline
 62
2
  6
CONTINUOUS
 90
3
 70
0
 10
13.3536965332
 20
7.8937888184
 10
13.391196167
 20
7.8312887573
 10
13.4286958008
 20
7.8937888184
  0
LINE
  5
74A
100
AcDbEntity
  8
0
100
AcDbLine
 62
7
  6
CONTINUOUS
 10
9.2705428104
 20
3.0744197849
 11
9.2705428104
 21
4.210626944
  0
LINE
  5
74B
100
AcDbEntity
  8
0
100
AcDbLine
 62
7
  6
CONTINUOUS
 10
9.2864498855
 20
3.0585060531
 11
9.2864498855
 21
4.2265406758
  0
LINE
  5
74C
100
AcDbEntity
  8
0
100
AcDbLine
 62
7
  6
CONTINUOUS
 10
9.2864498855
 20
4.2265406758
 11
9.2705428104
 21
4.2106336007
  0
LINE
  5
74D
100
AcDbEntity
  8
0
100
AcDbLine
 62
7
  6
CONTINUOUS
 10
9.2864498855
 20
3.0585060531
 11
9.2705428104
 21
3.0744131283
  0
LWPOLYLINE
  5
74E
100
AcDbEntity
  8
0
100
AcDbPolyline
 62
7
  6
CONTINUOUS
 90
11
 70
0
 10
9.719361708
 20
3.8312723746
 10
9.7205974417
 20
3.8032613171
 10
9.7233206251
 20
3.7782180072
 10
9.7266957906
 20
3.7556582301
 10
9.7303425812
 20
3.7350488969
 10
9.734054439
 20
3.7160689351
 10
9.7376499069
 20
3.6987628664
 10
9.7410068157
 20
3.6831066286
 10
9.7440790182
 20
3.6687906417
 10
9.7467368005
 20
3.6554825429
 10
9.748162935
 20
3.6425233645
  0
LINE
  5
74F
100
AcDbEntity
  8
0
100
AcDbLine
 62
7
  6
CONTINUOUS
 10
9.719361708
 20
3.0464872304
 11
9.719361708
 21
3.4537743544
  0
LINE
  5
750
100
AcDbEntity
  8
0
100
AcDbLine
 62
7
  6
CONTINUOUS
 10
9.719361708
 20
3.8312723746
 11
9.719361708
 21
4.2385594986
  0
LINE
  5
751
100
AcDbEntity
  8
0
100
AcDbLine
 62
9
  6
CONTINUOUS
 10
9.7505829195
 20
3.0149923667
 11
9.7505829195
 21
4.2700543623
  0
LWPOLYLINE
  5
752
100
AcDbEntity
  8
0
100
AcDbPolyline
 62
7
  6
CONTINUOUS
 90
11
 70
0
 10
9.748162935
 20
3.6425233645
 10
9.7467646525
 20
3.6297202756
 10
9.7441469923
 20
3.6165780466
 10
9.7411078396
 20
3.602408129
 10
9.7377730024
 20
3.586864043
 10
9.7341861693
 20
3.5696269354
 10
9.730464242
 20
3.5506453616
 10
9.7267894317
 20
3.5299540566
 10
9.7233768529
 20
3.5072523626
 10
9.7206164165
 20
3.4820152487
 10
9.719361708
 20
3.4537743544
  0
LINE
  5
753
100
AcDbEntity
  8
DEFAULT_2
100
AcDbLine
 62
8
  6
HIDDEN
 10
9.8355034403
 20
3.0142512765
 11
9.8355034403
 21
3.0126021046
  0
LINE
  5
754
100
AcDbEntity
  8
AXIS_COSMETIC_THREADS
100
AcDbLine
 62
7
  6
CENTER
 10
9.8945585584
 20
3.6425233645
 11
9.8945585584
 21
3.4933107661
  0
LINE
  5
755
100
AcDbEntity
  8
AXIS_COSMETIC_THREADS
100
AcDbLine
 62
7
  6
CENTER
 10
9.8945585584
 20
3.6425233645
 11
9.8945585584
 21
3.7917359629
  0
LINE
  5
756
100
AcDbEntity
  8
DEFAULT_2
100
AcDbLine
 62
8
  6
HIDDEN
 10
9.9536136765
 20
3.0132205441
 11
9.9536136765
 21
3.0126021046
  0
LINE
  5
757
100
AcDbEntity
  8
0
100
AcDbLine
 62
7
  6
CONTINUOUS
 10
10.0244798182
 20
3.0126021046
 11
10.0244798182
 21
4.2724446243
  0
LINE
  5
758
100
AcDbEntity
  8
AXIS_COSMETIC_THREADS
100
AcDbLine
 62
7
  6
CONTINUOUS
 10
10.0244798182
 20
3.0126021046
 11
10.0244798182
 21
4.2724446243
  0
LWPOLYLINE
  5
759
100
AcDbEntity
  8
0
100
AcDbPolyline
 62
9
  6
CONTINUOUS
 90
10
 70
0
 10
12.2962364309
 20
3.2186661787
 10
12.2933325114
 20
3.2183363825
 10
12.2903465448
 20
3.217339249
 10
12.2874038266
 20
3.215629114
 10
12.284605147
 20
3.2131851158
 10
12.2820634687
 20
3.2100234118
 10
12.2798989379
 20
3.2062145486
 10
12.2781779195
 20
3.2017504694
 10
12.2770008665
 20
3.1965748334
 10
12.2765513915
 20
3.1906555403
  0
LWPOLYLINE
  5
75A
100
AcDbEntity
  8
0
100
AcDbPolyline
 62
7
  6
CONTINUOUS
 90
10
 70
0
 10
12.328049916
 20
3.2071386393
 10
12.3312786045
 20
3.2074666213
 10
12.3363599401
 20
3.2091041388
 10
12.3409424569
 20
3.211924635
 10
12.3452361866
 20
3.2160752031
 10
12.3491925613
 20
3.2217029072
 10
12.3525014561
 20
3.2284388228
 10
12.3550991533
 20
3.2359205229
 10
12.3570807205
 20
3.2442131471
 10
12.3582821105
 20
3.2519863623
  0
LWPOLYLINE
  5
75B
100
AcDbEntity
  8
0
100
AcDbPolyline
 62
9
  6
CONTINUOUS
 90
10
 70
0
 10
12.327904276
 20
3.0352058141
 10
12.3319692967
 20
3.0353135645
 10
12.3362338416
 20
3.0356363274
 10
12.3403852896
 20
3.036176642
 10
12.3442629494
 20
3.0369150959
 10
12.3478449938
 20
3.0378481747
 10
12.3510583693
 20
3.0389643595
 10
12.3538436905
 20
3.040256233
 10
12.3561590303
 20
3.041736792
 10
12.3579075852
 20
3.0434176272
  0
LINE
  5
75C
100
AcDbEntity
  8
0
100
AcDbLine
 62
7
  6
CONTINUOUS
 10
12.0481018655
 20
3.0126021046
 11
12.327904276
 21
3.0150439033
  0
LINE
  5
75D
100
AcDbEntity
  8
0
100
AcDbLine
 62
9
  6
CONTINUOUS
 10
12.2961333615
 20
3.034929771
 11
12.3276294245
 21
3.035204633
  0
LINE
  5
75E
100
AcDbEntity
  8
0
100
AcDbLine
 62
9
  6
CONTINUOUS
 10
12.3276294245
 20
3.035204633
 11
12.327904276
 21
3.0352058141
  0
LINE
  5
75F
100
AcDbEntity
  8
0
100
AcDbLine
 62
7
  6
CONTINUOUS
 10
12.2567632828
 20
3.0126021046
 11
12.1386530466
 21
3.0126021046
  0
LINE
  5
760
100
AcDbEntity
  8
AXIS_COSMETIC_THREADS
100
AcDbLine
 62
7
  6
CONTINUOUS
 10
12.0481018655
 20
3.0126021046
 11
10.0244798182
 21
3.0126021046
  0
LINE
  5
761
100
AcDbEntity
  8
0
100
AcDbLine
 62
7
  6
CONTINUOUS
 10
9.9536136765
 20
3.0126021046
 11
9.8355034403
 21
3.0126021046
  0
LINE
  5
762
100
AcDbEntity
  8
AXIS_COSMETIC_THREADS
100
AcDbLine
 62
7
  6
CONTINUOUS
 10
12.322045579
 20
3.0377477739
 11
12.2882593458
 21
3.0377477739
  0
LINE
  5
763
100
AcDbEntity
  8
0
100
AcDbLine
 62
7
  6
CONTINUOUS
 10
9.7505829195
 20
3.0149923667
 11
10.0244798182
 21
3.0126021046
  0
LINE
  5
764
100
AcDbEntity
  8
0
100
AcDbLine
 62
7
  6
CONTINUOUS
 10
9.719361708
 20
3.0547280889
 11
9.2864498855
 21
3.0585060531
  0
LINE
  5
765
100
AcDbEntity
  8
0
100
AcDbLine
 62
7
  6
CONTINUOUS
 10
12.3277324938
 20
3.2071304748
 11
12.3280495734
 21
3.2071351889
  0
LINE
  5
766
100
AcDbEntity
  8
0
100
AcDbLine
 62
7
  6
CONTINUOUS
 10
12.3584655498
 20
3.0972477739
 11
12.3580048664
 21
3.0972477739
  0
LINE
  5
767
100
AcDbEntity
  8
0
100
AcDbLine
 62
9
  6
CONTINUOUS
 10
12.2882593458
 20
3.1110273015
 11
12.0481018655
 21
3.1110273015
  0
LINE
  5
768
100
AcDbEntity
  8
AXIS_COSMETIC_THREADS
100
AcDbLine
 62
9
  6
CONTINUOUS
 10
12.0481018655
 20
3.1110273015
 11
10.0244798182
 21
3.1110273015
  0
LINE
  5
769
100
AcDbEntity
  8
0
100
AcDbLine
 62
9
  6
CONTINUOUS
 10
9.719361708
 20
3.1110273015
 11
10.0244798182
 21
3.1110273015
  0
LINE
  5
76A
100
AcDbEntity
  8
0
100
AcDbLine
 62
7
  6
CONTINUOUS
 10
12.362613977
 20
3.1322477739
 11
12.3580048664
 21
3.1322477739
  0
LINE
  5
76B
100
AcDbEntity
  8
0
100
AcDbLine
 62
7
  6
CONTINUOUS
 10
12.3580048664
 20
3.1622477739
 11
12.362613977
 21
3.1622477739
  0
LINE
  5
76C
100
AcDbEntity
  8
0
100
AcDbLine
 62
9
  6
CONTINUOUS
 10
12.327904276
 20
3.2189435998
 11
12.3277324939
 21
3.2189410407
  0
LINE
  5
76D
100
AcDbEntity
  8
0
100
AcDbLine
 62
7
  6
CONTINUOUS
 10
12.3277324939
 20
3.2071304668
 11
12.2962363901
 21
3.2068556044
  0
LINE
  5
76E
100
AcDbEntity
  8
0
100
AcDbLine
 62
9
  6
CONTINUOUS
 10
12.3277324939
 20
3.2189410407
 11
12.2962364309
 21
3.2186661787
  0
LINE
  5
76F
100
AcDbEntity
  8
0
100
AcDbLine
 62
9
  6
CONTINUOUS
 10
12.2882593458
 20
3.1906555403
 11
12.2765513915
 21
3.1906555403
  0
LINE
  5
770
100
AcDbEntity
  8
0
100
AcDbLine
 62
7
  6
CONTINUOUS
 10
12.3580048664
 20
3.1972477739
 11
12.3584655498
 21
3.1972477739
  0
LINE
  5
771
100
AcDbEntity
  8
AXIS_COSMETIC_THREADS
100
AcDbLine
 62
7
  6
CONTINUOUS
 10
12.5559758812
 20
3.408271396
 11
12.3591254875
 21
3.408271396
  0
LINE
  5
772
100
AcDbEntity
  8
AXIS_COSMETIC_THREADS
100
AcDbLine
 62
7
  6
CENTER
 10
12.1977081647
 20
3.6425233645
 11
12.0484955663
 21
3.6425233645
  0
LINE
  5
773
100
AcDbEntity
  8
AXIS_COSMETIC_THREADS
100
AcDbLine
 62
7
  6
CENTER
 10
9.8945585584
 20
3.6425233645
 11
9.74534596
 21
3.6425233645
  0
LINE
  5
774
100
AcDbEntity
  8
AXIS_COSMETIC_THREADS
100
AcDbLine
 62
2
  6
CENTER
 10
9.1902278497
 20
3.6425233645
 11
9.6689914677
 21
3.6425233645
  0
LINE
  5
775
100
AcDbEntity
  8
AXIS_COSMETIC_THREADS
100
AcDbLine
 62
7
  6
CENTER
 10
9.8945585584
 20
3.6425233645
 11
10.0437711568
 21
3.6425233645
  0
LINE
  5
776
100
AcDbEntity
  8
AXIS_COSMETIC_THREADS
100
AcDbLine
 62
2
  6
CENTER
 10
10.1765884898
 20
3.6425233645
 11
11.9827308952
 21
3.6425233645
  0
LINE
  5
777
100
AcDbEntity
  8
AXIS_COSMETIC_THREADS
100
AcDbLine
 62
7
  6
CENTER
 10
12.1977081647
 20
3.6425233645
 11
12.3469207631
 21
3.6425233645
  0
LINE
  5
778
100
AcDbEntity
  8
AXIS_COSMETIC_THREADS
100
AcDbLine
 62
2
  6
CENTER
 10
12.4856710638
 20
3.6425233645
 11
12.7790964868
 21
3.6425233645
  0
LINE
  5
779
100
AcDbEntity
  8
AXIS_COSMETIC_THREADS
100
AcDbLine
 62
7
  6
CONTINUOUS
 10
12.5559758812
 20
3.876775333
 11
12.3591254875
 21
3.876775333
  0
LINE
  5
77A
100
AcDbEntity
  8
0
100
AcDbLine
 62
9
  6
CONTINUOUS
 10
12.3488242839
 20
3.0537582354
 11
12.3458510817
 21
3.0553429098
  0
LINE
  5
77B
100
AcDbEntity
  8
0
100
AcDbLine
 62
7
  6
CONTINUOUS
 10
12.362613977
 20
4.122798955
 11
12.3591254875
 21
4.122798955
  0
LINE
  5
77C
100
AcDbEntity
  8
0
100
AcDbLine
 62
7
  6
CONTINUOUS
 10
9.719361708
 20
4.2303186401
 11
9.2864498855
 21
4.2265406758
  0
LINE
  5
77D
100
AcDbEntity
  8
0
100
AcDbLine
 62
7
  6
CONTINUOUS
 10
12.3591254875
 20
4.152798955
 11
12.362613977
 21
4.152798955
  0
LINE
  5
77E
100
AcDbEntity
  8
0
100
AcDbLine
 62
9
  6
CONTINUOUS
 10
12.3591254875
 20
4.1740194275
 11
12.0481018655
 21
4.1740194275
  0
LINE
  5
77F
100
AcDbEntity
  8
AXIS_COSMETIC_THREADS
100
AcDbLine
 62
9
  6
CONTINUOUS
 10
12.0481018655
 20
4.1740194275
 11
10.0244798182
 21
4.1740194275
  0
LINE
  5
780
100
AcDbEntity
  8
0
100
AcDbLine
 62
9
  6
CONTINUOUS
 10
9.719361708
 20
4.1740194275
 11
10.0244798182
 21
4.1740194275
  0
LINE
  5
781
100
AcDbEntity
  8
0
100
AcDbLine
 62
7
  6
CONTINUOUS
 10
9.7505829195
 20
4.2700543623
 11
10.0244798182
 21
4.2724446243
  0
LINE
  5
782
100
AcDbEntity
  8
0
100
AcDbLine
 62
7
  6
CONTINUOUS
 10
12.3227081647
 20
4.2724446243
 11
12.0727081647
 21
4.2724446243
  0
LINE
  5
783
100
AcDbEntity
  8
AXIS_COSMETIC_THREADS
100
AcDbLine
 62
7
  6
CONTINUOUS
 10
12.0481018655
 20
4.2724446243
 11
10.0244798182
 21
4.2724446243
  0
LINE
  5
784
100
AcDbEntity
  8
0
100
AcDbLine
 62
7
  6
CONTINUOUS
 10
12.327904276
 20
4.2700028257
 11
12.0481018655
 21
4.2724446243
  0
LINE
  5
785
100
AcDbEntity
  8
NOTES
100
AcDbLine
 62
2
  6
CONTINUOUS
 10
13.3085471191
 20
4.4581280823
 11
13.4168807373
 21
4.4581280823
  0
LWPOLYLINE
  5
786
100
AcDbEntity
  8
0
100
AcDbPolyline
 62
9
  6
CONTINUOUS
 90
4
 70
0
 10
12.3579075852
 20
3.0434176272
 10
12.3558018965
 20
3.0472420737
 10
12.3527394531
 20
3.0507284327
 10
12.3488242839
 20
3.0537582354
  0
LINE
  5
787
100
AcDbEntity
  8
0
100
AcDbLine
 62
7
  6
CONTINUOUS
 10
12.0481018655
 20
3.0126021046
 11
12.0481018655
 21
4.2724446243
  0
LINE
  5
788
100
AcDbEntity
  8
AXIS_COSMETIC_THREADS
100
AcDbLine
 62
7
  6
CONTINUOUS
 10
12.0481018655
 20
3.0126021046
 11
12.0481018655
 21
4.2724446243
  0
LINE
  5
789
100
AcDbEntity
  8
DEFAULT_2
100
AcDbLine
 62
8
  6
HIDDEN
 10
12.0727081647
 20
4.2722298884
 11
12.0727081647
 21
4.2724446243
  0
LINE
  5
78A
100
AcDbEntity
  8
DEFAULT_2
100
AcDbLine
 62
8
  6
HIDDEN
 10
12.1386530466
 20
3.0133923328
 11
12.1386530466
 21
3.0126021046
  0
LINE
  5
78B
100
AcDbEntity
  8
AXIS_COSMETIC_THREADS
100
AcDbLine
 62
7
  6
CENTER
 10
12.1977081647
 20
3.6425233645
 11
12.1977081647
 21
3.4933107661
  0
LINE
  5
78C
100
AcDbEntity
  8
AXIS_COSMETIC_THREADS
100
AcDbLine
 62
7
  6
CENTER
 10
12.1977081647
 20
3.6425233645
 11
12.1977081647
 21
3.7917359629
  0
LWPOLYLINE
  5
78D
100
AcDbEntity
  8
0
100
AcDbPolyline
 62
9
  6
CONTINUOUS
 90
3
 70
0
 10
12.3582821105
 20
3.2519863623
 10
12.3582508906
 20
3.2525802664
 10
12.3579076594
 20
3.2533779117
  0
LWPOLYLINE
  5
78E
100
AcDbEntity
  8
0
100
AcDbPolyline
 62
9
  6
CONTINUOUS
 90
9
 70
0
 10
12.327904272
 20
3.0352054923
 10
12.3279720047
 20
3.032423297
 10
12.3280250304
 20
3.0291617542
 10
12.328058785
 20
3.0257016222
 10
12.3280703634
 20
3.0223407536
 10
12.3280587703
 20
3.0193684569
 10
12.3280250049
 20
3.0170405924
 10
12.3279719743
 20
3.0155575464
 10
12.3279042454
 20
3.0150469813
  0
LWPOLYLINE
  5
78F
100
AcDbEntity
  8
0
100
AcDbPolyline
 62
9
  6
CONTINUOUS
 90
9
 70
0
 10
12.2961333615
 20
3.034929771
 10
12.2961756718
 20
3.0321460283
 10
12.2962143384
 20
3.0288827961
 10
12.2962460316
 20
3.0254210928
 10
12.2962680221
 20
3.0220590283
 10
12.296278416
 20
3.0190861322
 10
12.2962763183
 20
3.01675842
 10
12.2962619097
 20
3.0152763463
 10
12.2962364309
 20
3.0147675422
  0
LWPOLYLINE
  5
790
100
AcDbEntity
  8
0
100
AcDbPolyline
 62
9
  6
CONTINUOUS
 90
9
 70
0
 10
12.3276294245
 20
3.035204633
 10
12.327671735
 20
3.0324208902
 10
12.3277104018
 20
3.0291576577
 10
12.3277420951
 20
3.0256959538
 10
12.3277640855
 20
3.0223338889
 10
12.3277744794
 20
3.0193609927
 10
12.3277723816
 20
3.017033281
 10
12.3277579728
 20
3.0155512079
 10
12.3277324939
 20
3.0150424042
  0
LINE
  5
791
100
AcDbEntity
  8
DEFAULT_2
100
AcDbLine
 62
8
  6
HIDDEN
 10
12.2567632828
 20
3.0144230652
 11
12.2567632828
 21
3.0126021046
  0
LINE
  5
792
100
AcDbEntity
  8
0
100
AcDbLine
 62
9
  6
CONTINUOUS
 10
12.2765513915
 20
3.1906555403
 11
12.2765513915
 21
3.0145957535
  0
LINE
  5
793
100
AcDbEntity
  8
0
100
AcDbLine
 62
7
  6
CONTINUOUS
 10
12.2882593458
 20
3.1906555403
 11
12.2882593458
 21
3.0264063273
  0
LINE
  5
794
100
AcDbEntity
  8
0
100
AcDbLine
 62
9
  6
CONTINUOUS
 10
12.2961333615
 20
3.0377477739
 11
12.2961333615
 21
3.034929771
  0
LINE
  5
795
100
AcDbEntity
  8
0
100
AcDbLine
 62
9
  6
CONTINUOUS
 10
12.3220455943
 20
3.207080838
 11
12.322045579
 21
3.0377477739
  0
LINE
  5
796
100
AcDbEntity
  8
DEFAULT_2
100
AcDbLine
 62
8
  6
HIDDEN
 10
12.3227081647
 20
4.2700481715
 11
12.3227081647
 21
4.2724446243
  0
LINE
  5
797
100
AcDbEntity
  8
0
100
AcDbLine
 62
9
  6
CONTINUOUS
 10
12.3276294245
 20
3.038581564
 11
12.3276294245
 21
3.035204633
  0
LINE
  5
798
100
AcDbEntity
  8
0
100
AcDbLine
 62
9
  6
CONTINUOUS
 10
12.327904276
 20
4.2700028257
 11
12.327904276
 21
3.2189435998
  0
LWPOLYLINE
  5
799
100
AcDbEntity
  8
0
100
AcDbPolyline
 62
7
  6
CONTINUOUS
 90
28
 70
0
 10
12.2882593391
 20
3.1906566966
 10
12.2882613695
 20
3.1909894961
 10
12.2882858316
 20
3.191863995
 10
12.288337525
 20
3.1927297127
 10
12.2884159137
 20
3.1935857221
 10
12.2885204845
 20
3.1944310679
 10
12.2886507346
 20
3.195264739
 10
12.2888061762
 20
3.1960856216
 10
12.2889864013
 20
3.1968923583
 10
12.2891909782
 20
3.1976834325
 10
12.289419389
 20
3.1984572141
 10
12.2896693908
 20
3.1992073509
 10
12.289939239
 20
3.1999306467
 10
12.2902300854
 20
3.2006312093
 10
12.2905433796
 20
3.2013118768
 10
12.2908806914
 20
3.2019740846
 10
12.2912434387
 20
3.2026175348
 10
12.291632567
 20
3.203240049
 10
12.2920483305
 20
3.2038377372
 10
12.292489864
 20
3.2044048566
 10
12.2929542248
 20
3.2049335856
 10
12.2934361154
 20
3.2054144359
 10
12.2939331846
 20
3.2058415786
 10
12.2944554287
 20
3.2062169933
 10
12.2949978142
 20
3.2065248131
 10
12.2955854803
 20
3.2067549972
 10
12.2961280025
 20
3.2068520329
 10
12.2962363813
 20
3.2068557564
  0
LWPOLYLINE
  5
79A
100
AcDbEntity
  8
0
100
AcDbPolyline
 62
9
  6
CONTINUOUS
 90
4
 70
0
 10
12.3579075982
 20
3.0434176298
 10
12.3582508301
 20
3.0415614793
 10
12.3582508299
 20
3.0396923055
 10
12.3579075977
 20
3.0378649541
  0
LINE
  5
79B
100
AcDbEntity
  8
0
100
AcDbLine
 62
9
  6
CONTINUOUS
 10
12.345215584
 20
3.2160552874
 11
12.3452155781
 21
3.0533588958
  0
LINE
  5
79C
100
AcDbEntity
  8
0
100
AcDbLine
 62
7
  6
CONTINUOUS
 10
12.3591254875
 20
3.1622477739
 11
12.3591254875
 21
3.1322477739
  0
LINE
  5
79D
100
AcDbEntity
  8
0
100
AcDbLine
 62
7
  6
CONTINUOUS
 10
12.3591254875
 20
3.1034798353
 11
12.3591254875
 21
3.046538767
  0
LINE
  5
79E
100
AcDbEntity
  8
0
100
AcDbLine
 62
7
  6
CONTINUOUS
 10
12.3591254875
 20
4.238507962
 11
12.3591254875
 21
3.1910157126
  0
LWPOLYLINE
  5
79F
100
AcDbEntity
  8
0
100
AcDbPolyline
 62
9
  6
CONTINUOUS
 90
4
 70
0
 10
12.3591254875
 20
3.2657451127
 10
12.3589932943
 20
3.261783306
 10
12.3585902989
 20
3.257655823
 10
12.3579075852
 20
3.2533779117
  0
LWPOLYLINE
  5
7A0
100
AcDbEntity
  8
0
100
AcDbPolyline
 62
7
  6
CONTINUOUS
 90
4
 70
0
 10
12.3582820341
 20
3.2519862341
 10
12.3587273562
 20
3.2563954945
 10
12.3590586643
 20
3.2619745726
 10
12.3591254864
 20
3.2657308504
  0
LWPOLYLINE
  5
7A1
100
AcDbEntity
  8
0
100
AcDbPolyline
 62
9
  6
CONTINUOUS
 90
10
 70
0
 10
12.2882593458
 20
3.0264063273
 10
12.2884391804
 20
3.0281847463
 10
12.2889099704
 20
3.0297446105
 10
12.2895984031
 20
3.0310943448
 10
12.2904641938
 20
3.0322502035
 10
12.2914805806
 20
3.0332140845
 10
12.2925999176
 20
3.0339645552
 10
12.2937767806
 20
3.0344957404
 10
12.2949712347
 20
3.034813109
 10
12.2961333615
 20
3.034929771
  0
LWPOLYLINE
  5
7A2
100
AcDbEntity
  8
0
100
AcDbPolyline
 62
9
  6
CONTINUOUS
 90
7
 70
0
 10
12.3280499909
 20
3.2071351977
 10
12.3280588852
 20
3.2071921912
 10
12.3280704766
 20
3.2080344737
 10
12.3280588825
 20
3.2098160977
 10
12.3280251016
 20
3.2123836547
 10
12.3279720427
 20
3.2155160621
 10
12.327904276
 20
3.2189435998
  0
LWPOLYLINE
  5
7A3
100
AcDbEntity
  8
0
100
AcDbPolyline
 62
9
  6
CONTINUOUS
 90
7
 70
0
 10
12.2962363894
 20
3.2068556044
 10
12.2962459863
 20
3.2069124882
 10
12.2962679741
 20
3.2077546629
 10
12.2962783718
 20
3.2095365178
 10
12.2962762841
 20
3.2121046098
 10
12.2962618906
 20
3.2152377747
 10
12.2962364309
 20
3.2186661787
  0
LWPOLYLINE
  5
7A4
100
AcDbEntity
  8
0
100
AcDbPolyline
 62
9
  6
CONTINUOUS
 90
7
 70
0
 10
12.3277324939
 20
3.2071304668
 10
12.3277420945
 20
3.2071873654
 10
12.3277640849
 20
3.2080295792
 10
12.3277744788
 20
3.2098114505
 10
12.3277723812
 20
3.2123795308
 10
12.3277579726
 20
3.2155126658
 10
12.3277324939
 20
3.2189410407
  0
LWPOLYLINE
  5
7A5
100
AcDbEntity
  8
0
100
AcDbPolyline
 62
9
  6
CONTINUOUS
 90
10
 70
0
 10
12.3579075852
 20
3.2533779117
 10
12.3561590237
 20
3.2463305494
 10
12.353843715
 20
3.2401217254
 10
12.3510583898
 20
3.2347040251
 10
12.3478450513
 20
3.2300229938
 10
12.344262337
 20
3.2261109166
 10
12.3403844102
 20
3.2230155719
 10
12.3362340978
 20
3.2207484626
 10
12.3319694849
 20
3.2193938318
 10
12.327904276
 20
3.2189435998
  0
LWPOLYLINE
  5
7A6
100
AcDbEntity
  8
0
100
AcDbPolyline
 62
9
  6
CONTINUOUS
 90
4
 70
0
 10
12.3579075852
 20
3.0434176272
 10
12.3585902695
 20
3.0444142942
 10
12.3589932723
 20
3.0454579873
 10
12.3591254875
 20
3.046538796
  0
LINE
  5
7A7
100
AcDbEntity
  8
AXIS_COSMETIC_THREADS
100
AcDbLine
 62
7
  6
CONTINUOUS
 10
12.5559758812
 20
3.876775333
 11
12.5559758812
 21
3.408271396
  0
LINE
  5
7A8
100
AcDbEntity
  8
NOTES
100
AcDbLine
 62
2
  6
CONTINUOUS
 10
13.3627145996
 20
4.4581280823
 11
13.3627145996
 21
4.3539614258
  0
LWPOLYLINE
  5
7A9
100
AcDbEntity
  8
NOTES
100
AcDbPolyline
 62
2
  6
CONTINUOUS
 90
3
 70
0
 10
13.325213623
 20
4.4164614868
 10
13.3627145996
 20
4.3539614258
 10
13.4002142334
 20
4.4164614868
  0
CIRCLE
  5
7AA
100
AcDbEntity
  8
0
100
AcDbCircle
 62
7
  6
CONTINUOUS
 10
15.2229827477
 20
1.1139932523
 40
0.252091
  0
CIRCLE
  5
7AB
100
AcDbEntity
  8
0
100
AcDbCircle
 62
7
  6
CONTINUOUS
 10
15.2229827477
 20
1.1139932523
 40
0.182698
  0
ARC
  5
7AC
100
AcDbEntity
  8
0
100
AcDbCircle
 62
7
  6
CONTINUOUS
 10
9.750857771
 20
9.5520362958
 40
0.031496063
100
AcDbArc
 50
180.0
 51
269.4999999999
  0
CIRCLE
  5
7AD
100
AcDbEntity
  8
DEFAULT_2
100
AcDbCircle
 62
8
  6
HIDDEN
 10
9.8945585584
 20
10.1480724299
 40
0.0590551181
  0
CIRCLE
  5
7AE
100
AcDbEntity
  8
0
100
AcDbCircle
 62
7
  6
CONTINUOUS
 10
9.8945585584
 20
10.1480724299
 40
0.0492125984
  0
ARC
  5
7AF
100
AcDbEntity
  8
0
100
AcDbCircle
 62
7
  6
CONTINUOUS
 10
9.750857771
 20
10.744108564
 40
0.031496063
100
AcDbArc
 50
90.5
 51
180.0
  0
ARC
  5
7B0
100
AcDbEntity
  8
AXIS_COSMETIC_THREADS
100
AcDbCircle
 62
7
  6
CONTINUOUS
 10
12.1135156028
 20
9.6527968394
 40
0.25
100
AcDbArc
 50
337.9413489379
 51
348.4056404208
  0
ARC
  5
7B1
100
AcDbEntity
  8
AXIS_COSMETIC_THREADS
100
AcDbCircle
 62
7
  6
CONTINUOUS
 10
12.1135156028
 20
9.6527968394
 40
0.25
100
AcDbArc
 50
11.5943595792
 51
18.0446764043
  0
ARC
  5
7B2
100
AcDbEntity
  8
0
100
AcDbCircle
 62
7
  6
CONTINUOUS
 10
12.1135156028
 20
9.6527968394
 40
0.2495495943
100
AcDbArc
 50
3.4460286884
 51
11.5580686517
  0
ARC
  5
7B3
100
AcDbEntity
  8
0
100
AcDbCircle
 62
7
  6
CONTINUOUS
 10
12.1135156028
 20
9.6527968394
 40
0.2495495943
100
AcDbArc
 50
348.4419313483
 51
356.5539713116
  0
ARC
  5
7B4
100
AcDbEntity
  8
0
100
AcDbCircle
 62
7
  6
CONTINUOUS
 10
12.1135156028
 20
9.6527968394
 40
0.2449489743
100
AcDbArc
 50
356.4891677884
 51
3.5108322116
  0
ARC
  5
7B5
100
AcDbEntity
  8
0
100
AcDbCircle
 62
7
  6
CONTINUOUS
 10
12.3276294245
 20
9.5520878324
 40
0.031496063
100
AcDbArc
 50
270.5
 51
360.0
  0
ARC
  5
7B6
100
AcDbEntity
  8
0
100
AcDbCircle
 62
7
  6
CONTINUOUS
 10
12.3220455767
 20
9.5682968394
 40
0.025
100
AcDbArc
 50
270.0000053164
 51
337.9413728511
  0
ARC
  5
7B7
100
AcDbEntity
  8
0
100
AcDbCircle
 62
7
  6
CONTINUOUS
 10
12.2764483222
 20
9.5319553928
 40
0.0118110236
100
AcDbArc
 50
270.5
 51
360.0
  0
ARC
  5
7B8
100
AcDbEntity
  8
0
100
AcDbCircle
 62
7
  6
CONTINUOUS
 10
12.1135156028
 20
10.6433480205
 40
0.2495495943
100
AcDbArc
 50
3.4460286884
 51
10.1003547709
  0
ARC
  5
7B9
100
AcDbEntity
  8
0
100
AcDbCircle
 62
7
  6
CONTINUOUS
 10
12.1135156028
 20
10.6433480205
 40
0.2495495943
100
AcDbArc
 50
349.8996452291
 51
356.5539713116
  0
CIRCLE
  5
7BA
100
AcDbEntity
  8
DEFAULT_2
100
AcDbCircle
 62
8
  6
HIDDEN
 10
12.1977081647
 20
10.1480724299
 40
0.0590551181
  0
CIRCLE
  5
7BB
100
AcDbEntity
  8
0
100
AcDbCircle
 62
7
  6
CONTINUOUS
 10
12.1977081647
 20
10.1480724299
 40
0.0492125984
  0
ARC
  5
7BC
100
AcDbEntity
  8
0
100
AcDbCircle
 62
7
  6
CONTINUOUS
 10
12.3276294245
 20
10.7440570274
 40
0.031496063
100
AcDbArc
 50
0.0
 51
89.5
  0
CIRCLE
  5
7BD
100
AcDbEntity
  8
AXIS_COSMETIC_THREADS
100
AcDbCircle
 62
7
  6
CONTINUOUS
 10
12.1977081647
 20
10.1480724299
 40
0.0164511913
  0
ARC
  5
7BE
100
AcDbEntity
  8
AXIS_COSMETIC_THREADS
100
AcDbCircle
 62
7
  6
CONTINUOUS
 10
5.4261930996
 20
9.9360211563
 40
0.1901574803
100
AcDbArc
 50
156.6468651413
 51
223.1241115193
  0
ARC
  5
7BF
100
AcDbEntity
  8
0
100
AcDbCircle
 62
7
  6
CONTINUOUS
 10
5.134994585
 20
9.6165763669
 40
0.0984251969
100
AcDbArc
 50
180.0
 51
270.0
  0
ARC
  5
7C0
100
AcDbEntity
  8
AXIS_COSMETIC_THREADS
100
AcDbCircle
 62
7
  6
CONTINUOUS
 10
5.134994585
 20
9.6165763669
 40
0.0984251969
100
AcDbArc
 50
180.0
 51
258.5374569093
  0
ARC
  5
7C1
100
AcDbEntity
  8
0
100
AcDbCircle
 62
9
  6
CONTINUOUS
 10
5.134994585
 20
9.6165763669
 40
0.0960349348
100
AcDbArc
 50
180.0
 51
270.0
  0
ARC
  5
7C2
100
AcDbEntity
  8
0
100
AcDbCircle
 62
9
  6
CONTINUOUS
 10
5.134994585
 20
9.6165763669
 40
0.0645400657
100
AcDbArc
 50
180.0
 51
270.0
  0
ARC
  5
7C3
100
AcDbEntity
  8
AXIS_COSMETIC_THREADS
100
AcDbCircle
 62
7
  6
CONTINUOUS
 10
5.3368972664
 20
10.1813594418
 40
0.1901574803
100
AcDbArc
 50
177.5518450419
 51
243.3531348587
  0
ARC
  5
7C4
100
AcDbEntity
  8
AXIS_COSMETIC_THREADS
100
AcDbCircle
 62
7
  6
CONTINUOUS
 10
5.4985772621
 20
10.4103970549
 40
0.1901574803
100
AcDbArc
 50
47.4694336392
 51
114.4466332734
  0
ARC
  5
7C5
100
AcDbEntity
  8
0
100
AcDbCircle
 62
7
  6
CONTINUOUS
 10
5.134994585
 20
10.6795684929
 40
0.0984251969
100
AcDbArc
 50
90.0
 51
180.0
  0
ARC
  5
7C6
100
AcDbEntity
  8
AXIS_COSMETIC_THREADS
100
AcDbCircle
 62
7
  6
CONTINUOUS
 10
5.134994585
 20
10.6795684929
 40
0.0984251969
100
AcDbArc
 50
90.0
 51
168.5374569093
  0
ARC
  5
7C7
100
AcDbEntity
  8
0
100
AcDbCircle
 62
9
  6
CONTINUOUS
 10
5.134994585
 20
10.6795684929
 40
0.0960349348
100
AcDbArc
 50
90.0
 51
180.0
  0
ARC
  5
7C8
100
AcDbEntity
  8
0
100
AcDbCircle
 62
9
  6
CONTINUOUS
 10
5.134994585
 20
10.6795684929
 40
0.0645400657
100
AcDbArc
 50
90.0
 51
180.0
  0
ARC
  5
7C9
100
AcDbEntity
  8
AXIS_COSMETIC_THREADS
100
AcDbCircle
 62
7
  6
CONTINUOUS
 10
5.8641284432
 20
9.9772952115
 40
0.1901574803
100
AcDbArc
 50
328.5680140064
 51
360.0
  0
ARC
  5
7CA
100
AcDbEntity
  8
0
100
AcDbCircle
 62
7
  6
CONTINUOUS
 10
6.1192465535
 20
9.6165763669
 40
0.0984251969
100
AcDbArc
 50
270.0
 51
360.0
  0
ARC
  5
7CB
100
AcDbEntity
  8
AXIS_COSMETIC_THREADS
100
AcDbCircle
 62
7
  6
CONTINUOUS
 10
6.1192465535
 20
9.6165763669
 40
0.0984251969
100
AcDbArc
 50
270.0
 51
348.5374569093
  0
ARC
  5
7CC
100
AcDbEntity
  8
0
100
AcDbCircle
 62
9
  6
CONTINUOUS
 10
6.1192465535
 20
9.6165763669
 40
0.0960349348
100
AcDbArc
 50
270.0
 51
360.0
  0
ARC
  5
7CD
100
AcDbEntity
  8
0
100
AcDbCircle
 62
9
  6
CONTINUOUS
 10
6.1192465535
 20
9.6165763669
 40
0.0645400657
100
AcDbArc
 50
270.0
 51
360.0
  0
ARC
  5
7CE
100
AcDbEntity
  8
0
100
AcDbCircle
 62
7
  6
CONTINUOUS
 10
5.6271205692
 20
10.1480724299
 40
0.5877952756
100
AcDbArc
 50
198.7302792338
 51
341.2697207662
  0
ARC
  5
7CF
100
AcDbEntity
  8
0
100
AcDbCircle
 62
7
  6
CONTINUOUS
 10
5.6271205692
 20
10.1480724299
 40
0.5877952756
100
AcDbArc
 50
18.7302792338
 51
161.2697207662
  0
CIRCLE
  5
7D0
100
AcDbEntity
  8
0
100
AcDbCircle
 62
7
  6
CONTINUOUS
 10
5.6271205692
 20
10.1480724299
 40
0.5840173114
  0
CIRCLE
  5
7D1
100
AcDbEntity
  8
0
100
AcDbCircle
 62
7
  6
CONTINUOUS
 10
5.6271205692
 20
10.1480724299
 40
0.5681102362
  0
ARC
  5
7D2
100
AcDbEntity
  8
0
100
AcDbCircle
 62
7
  6
CONTINUOUS
 10
5.6271205692
 20
10.1480724299
 40
0.5019685039
100
AcDbArc
 50
130.0769515459
 51
13.9230484542
  0
ARC
  5
7D3
100
AcDbEntity
  8
0
100
AcDbCircle
 62
7
  6
CONTINUOUS
 10
5.6271205692
 20
10.1480724299
 40
0.4822834646
100
AcDbArc
 50
92.3492166066
 51
89.9999999998
  0
CIRCLE
  5
7D4
100
AcDbEntity
  8
0
100
AcDbCircle
 62
7
  6
CONTINUOUS
 10
5.6271205692
 20
10.1480724299
 40
0.2165354331
  0
CIRCLE
  5
7D5
100
AcDbEntity
  8
0
100
AcDbCircle
 62
7
  6
CONTINUOUS
 10
5.6271205692
 20
10.1480724299
 40
0.1968503937
  0
ARC
  5
7D6
100
AcDbEntity
  8
AXIS_COSMETIC_THREADS
100
AcDbCircle
 62
7
  6
CONTINUOUS
 10
5.8641284432
 20
10.3188496483
 40
0.1901574803
100
AcDbArc
 50
0.0
 51
33.00680471
  0
ARC
  5
7D7
100
AcDbEntity
  8
AXIS_COSMETIC_THREADS
100
AcDbCircle
 62
7
  6
CONTINUOUS
 10
5.7556638763
 20
10.4103970549
 40
0.1901574803
100
AcDbArc
 50
68.1509390637
 51
132.5305663608
  0
ARC
  5
7D8
100
AcDbEntity
  8
0
100
AcDbCircle
 62
7
  6
CONTINUOUS
 10
6.1192465535
 20
10.6795684929
 40
0.0984251969
100
AcDbArc
 50
0.0
 51
90.0
  0
ARC
  5
7D9
100
AcDbEntity
  8
AXIS_COSMETIC_THREADS
100
AcDbCircle
 62
7
  6
CONTINUOUS
 10
6.1192465535
 20
10.6795684929
 40
0.0984251969
100
AcDbArc
 50
0.0
 51
78.5374569093
  0
ARC
  5
7DA
100
AcDbEntity
  8
0
100
AcDbCircle
 62
9
  6
CONTINUOUS
 10
6.1192465535
 20
10.6795684929
 40
0.0960349348
100
AcDbArc
 50
0.0
 51
90.0
  0
ARC
  5
7DB
100
AcDbEntity
  8
0
100
AcDbCircle
 62
9
  6
CONTINUOUS
 10
6.1192465535
 20
10.6795684929
 40
0.0645400657
100
AcDbArc
 50
0.0
 51
90.0
  0
ARC
  5
7DC
100
AcDbEntity
  8
0
100
AcDbCircle
 62
9
  6
CONTINUOUS
 10
15.9123456042
 20
9.6527968394
 40
0.155511811
100
AcDbArc
 50
319.6393180521
 51
130.3606709212
  0
ARC
  5
7DD
100
AcDbEntity
  8
0
100
AcDbCircle
 62
7
  6
CONTINUOUS
 10
15.9123456042
 20
9.6527968394
 40
0.124015748
100
AcDbArc
 50
315.0
 51
135.0
  0
ARC
  5
7DE
100
AcDbEntity
  8
0
100
AcDbCircle
 62
9
  6
CONTINUOUS
 10
15.9123456042
 20
9.6527968394
 40
0.1161417196
100
AcDbArc
 50
315.0
 51
135.0
  0
CIRCLE
  5
7DF
100
AcDbEntity
  8
0
100
AcDbCircle
 62
7
  6
CONTINUOUS
 10
15.9123456042
 20
9.6527968394
 40
0.1095
  0
ARC
  5
7E0
100
AcDbEntity
  8
0
100
AcDbCircle
 62
7
  6
CONTINUOUS
 10
15.8761251317
 20
9.6165763669
 40
0.0984251969
100
AcDbArc
 50
180.0
 51
270.0
  0
ARC
  5
7E1
100
AcDbEntity
  8
AXIS_COSMETIC_THREADS
100
AcDbCircle
 62
7
  6
CONTINUOUS
 10
15.8761251317
 20
9.6165763669
 40
0.0984251969
100
AcDbArc
 50
191.4547393014
 51
270.0
  0
ARC
  5
7E2
100
AcDbEntity
  8
0
100
AcDbCircle
 62
7
  6
CONTINUOUS
 10
15.8761251317
 20
9.6165763669
 40
0.096431548
100
AcDbArc
 50
180.0
 51
270.0
  0
CIRCLE
  5
7E3
100
AcDbEntity
  8
0
100
AcDbCircle
 62
9
  6
CONTINUOUS
 10
15.9123456042
 20
9.6527968394
 40
0.093888839
  0
ARC
  5
7E4
100
AcDbEntity
  8
0
100
AcDbCircle
 62
9
  6
CONTINUOUS
 10
15.8761251317
 20
9.6165763669
 40
0.0846209724
100
AcDbArc
 50
180.0
 51
270.0
  0
ARC
  5
7E5
100
AcDbEntity
  8
0
100
AcDbCircle
 62
7
  6
CONTINUOUS
 10
15.8761251317
 20
10.6795684929
 40
0.0984251969
100
AcDbArc
 50
90.0
 51
180.0
  0
ARC
  5
7E6
100
AcDbEntity
  8
AXIS_COSMETIC_THREADS
100
AcDbCircle
 62
7
  6
CONTINUOUS
 10
15.8761251317
 20
10.6795684929
 40
0.0984251969
100
AcDbArc
 50
101.4547393014
 51
180.0
  0
ARC
  5
7E7
100
AcDbEntity
  8
0
100
AcDbCircle
 62
9
  6
CONTINUOUS
 10
15.8761251317
 20
10.6795684929
 40
0.0959833982
100
AcDbArc
 50
90.0
 51
180.0
  0
CIRCLE
  5
7E8
100
AcDbEntity
  8
0
100
AcDbCircle
 62
7
  6
CONTINUOUS
 10
16.0389204073
 20
10.5220881779
 40
0.0885826772
  0
CIRCLE
  5
7E9
100
AcDbEntity
  8
0
100
AcDbCircle
 62
7
  6
CONTINUOUS
 10
16.0389204073
 20
10.5220881779
 40
0.0688976378
  0
CIRCLE
  5
7EA
100
AcDbEntity
  8
0
100
AcDbCircle
 62
7
  6
CONTINUOUS
 10
16.0389204073
 20
10.5220881779
 40
0.065
  0
ARC
  5
7EB
100
AcDbEntity
  8
0
100
AcDbCircle
 62
9
  6
CONTINUOUS
 10
15.8761251317
 20
10.6795684929
 40
0.0644885338
100
AcDbArc
 50
90.0
 51
180.0
  0
CIRCLE
  5
7EC
100
AcDbEntity
  8
0
100
AcDbCircle
 62
7
  6
CONTINUOUS
 10
16.0389204073
 20
10.5220881779
 40
0.0575
  0
ARC
  5
7ED
100
AcDbEntity
  8
02___PRT_ALL_AXES
100
AcDbCircle
 62
7
  6
CONTINUOUS
 10
15.9745503286
 20
10.5023243984
 40
0.049
100
AcDbArc
 50
306.7159890332
 51
311.2987687114
  0
ARC
  5
7EE
100
AcDbEntity
  8
02___PRT_ALL_AXES
100
AcDbCircle
 62
7
  6
CONTINUOUS
 10
15.9745503286
 20
10.5023243984
 40
0.049
100
AcDbArc
 50
82.9427958289
 51
87.5582830693
  0
ARC
  5
7EF
100
AcDbEntity
  8
DEFAULT_2
100
AcDbCircle
 62
8
  6
HIDDEN
 10
15.9745578243
 20
10.5024406173
 40
0.043
100
AcDbArc
 50
84.9170930749
 51
90.2765643962
  0
ARC
  5
7F0
100
AcDbEntity
  8
DEFAULT_2
100
AcDbCircle
 62
8
  6
HIDDEN
 10
15.9745578243
 20
10.5024406173
 40
0.043
100
AcDbArc
 50
303.6560890507
 51
308.9980177345
  0
ARC
  5
7F1
100
AcDbEntity
  8
AXIS_COSMETIC_THREADS
100
AcDbCircle
 62
7
  6
CONTINUOUS
 10
15.9745578243
 20
10.5024406173
 40
0.035
100
AcDbArc
 50
299.4283807081
 51
305.9967683657
  0
ARC
  5
7F2
100
AcDbEntity
  8
AXIS_COSMETIC_THREADS
100
AcDbCircle
 62
7
  6
CONTINUOUS
 10
15.9745578243
 20
10.5024406173
 40
0.035
100
AcDbArc
 50
87.8937788905
 51
94.5213698181
  0
ARC
  5
7F3
100
AcDbEntity
  8
AXIS_COSMETIC_THREADS
100
AcDbCircle
 62
7
  6
CONTINUOUS
 10
16.3521093837
 20
10.3964976268
 40
0.0311023622
100
AcDbArc
 50
90.0
 51
126.2567419473
  0
ARC
  5
7F4
100
AcDbEntity
  8
0
100
AcDbCircle
 62
7
  6
CONTINUOUS
 10
16.8603771003
 20
9.6165763669
 40
0.0984251969
100
AcDbArc
 50
270.0
 51
360.0
  0
ARC
  5
7F5
100
AcDbEntity
  8
AXIS_COSMETIC_THREADS
100
AcDbCircle
 62
7
  6
CONTINUOUS
 10
16.8603771003
 20
9.6165763669
 40
0.0984251969
100
AcDbArc
 50
281.4547393014
 51
360.0
  0
ARC
  5
7F6
100
AcDbEntity
  8
0
100
AcDbCircle
 62
9
  6
CONTINUOUS
 10
16.8603771003
 20
9.6165763669
 40
0.0959833982
100
AcDbArc
 50
270.0
 51
360.0
  0
ARC
  5
7F7
100
AcDbEntity
  8
0
100
AcDbCircle
 62
9
  6
CONTINUOUS
 10
16.8603771003
 20
9.6165763669
 40
0.0644885338
100
AcDbArc
 50
270.0
 51
360.0
  0
CIRCLE
  5
7F8
100
AcDbEntity
  8
AXIS_COSMETIC_THREADS
100
AcDbCircle
 62
7
  6
CONTINUOUS
 10
16.368251116
 20
10.1480724299
 40
0.2854330709
  0
CIRCLE
  5
7F9
100
AcDbEntity
  8
AXIS_COSMETIC_THREADS
100
AcDbCircle
 62
7
  6
CONTINUOUS
 10
16.368251116
 20
10.1480724299
 40
0.2755905512
  0
CIRCLE
  5
7FA
100
AcDbEntity
  8
AXIS_COSMETIC_THREADS
100
AcDbCircle
 62
7
  6
CONTINUOUS
 10
16.368251116
 20
10.1480724299
 40
0.2342519685
  0
CIRCLE
  5
7FB
100
AcDbEntity
  8
0
100
AcDbCircle
 62
7
  6
CONTINUOUS
 10
16.368251116
 20
10.1480724299
 40
0.1919291339
  0
ARC
  5
7FC
100
AcDbEntity
  8
0
100
AcDbCircle
 62
9
  6
CONTINUOUS
 10
16.8241566278
 20
10.6433480205
 40
0.155511811
100
AcDbArc
 50
139.6393272749
 51
310.3606819479
  0
CIRCLE
  5
7FD
100
AcDbEntity
  8
0
100
AcDbCircle
 62
7
  6
CONTINUOUS
 10
16.368251116
 20
10.1480724299
 40
0.1476377953
  0
ARC
  5
7FE
100
AcDbEntity
  8
0
100
AcDbCircle
 62
7
  6
CONTINUOUS
 10
16.8241566278
 20
10.6433480205
 40
0.124015748
100
AcDbArc
 50
135.0
 51
315.0
  0
ARC
  5
7FF
100
AcDbEntity
  8
0
100
AcDbCircle
 62
9
  6
CONTINUOUS
 10
16.8241566278
 20
10.6433480205
 40
0.1161417196
100
AcDbArc
 50
135.0
 51
315.0
  0
CIRCLE
  5
800
100
AcDbEntity
  8
0
100
AcDbCircle
 62
7
  6
CONTINUOUS
 10
16.8241566278
 20
10.6433480205
 40
0.1095
  0
ARC
  5
801
100
AcDbEntity
  8
0
100
AcDbCircle
 62
7
  6
CONTINUOUS
 10
16.8603771003
 20
10.6795684929
 40
0.0984251969
100
AcDbArc
 50
0.0
 51
90.0
  0
ARC
  5
802
100
AcDbEntity
  8
AXIS_COSMETIC_THREADS
100
AcDbCircle
 62
7
  6
CONTINUOUS
 10
16.8603771003
 20
10.6795684929
 40
0.0984251969
100
AcDbArc
 50
11.4547393014
 51
90.0
  0
ARC
  5
803
100
AcDbEntity
  8
0
100
AcDbCircle
 62
7
  6
CONTINUOUS
 10
16.8603771003
 20
10.6795684929
 40
0.096431548
100
AcDbArc
 50
0.0
 51
90.0
  0
CIRCLE
  5
804
100
AcDbEntity
  8
0
100
AcDbCircle
 62
9
  6
CONTINUOUS
 10
16.8241566278
 20
10.6433480205
 40
0.093888839
  0
ARC
  5
805
100
AcDbEntity
  8
0
100
AcDbCircle
 62
9
  6
CONTINUOUS
 10
16.8603771003
 20
10.6795684929
 40
0.0846209724
100
AcDbArc
 50
0.0
 51
90.0
  0
ARC
  5
806
100
AcDbEntity
  8
AXIS_COSMETIC_THREADS
100
AcDbCircle
 62
7
  6
CONTINUOUS
 10
16.392266864
 20
10.3964976268
 40
0.0311023622
100
AcDbArc
 50
48.0701954589
 51
90.0
  0
CIRCLE
  5
807
100
AcDbEntity
  8
DEFAULT_2
100
AcDbCircle
 62
8
  6
HIDDEN
 10
9.8945585584
 20
13.5922838233
 40
0.0590551181
  0
CIRCLE
  5
808
100
AcDbEntity
  8
0
100
AcDbCircle
 62
7
  6
CONTINUOUS
 10
9.8945585584
 20
13.5922838233
 40
0.0492125984
  0
ARC
  5
809
100
AcDbEntity
  8
0
100
AcDbCircle
 62
7
  6
CONTINUOUS
 10
9.750857771
 20
13.0356177679
 40
0.031496063
100
AcDbArc
 50
180.0
 51
269.5
  0
ARC
  5
80A
100
AcDbEntity
  8
0
100
AcDbCircle
 62
7
  6
CONTINUOUS
 10
9.750857771
 20
14.1489498786
 40
0.031496063
100
AcDbArc
 50
90.5
 51
180.0
  0
ARC
  5
80B
100
AcDbEntity
  8
0
100
AcDbCircle
 62
7
  6
CONTINUOUS
 10
12.1135156028
 20
13.1363783115
 40
0.2495495943
100
AcDbArc
 50
3.4460286884
 51
10.1480655499
  0
ARC
  5
80C
100
AcDbEntity
  8
0
100
AcDbCircle
 62
7
  6
CONTINUOUS
 10
12.1135156028
 20
13.1363783115
 40
0.2495495943
100
AcDbArc
 50
349.8519344501
 51
356.5539713116
  0
CIRCLE
  5
80D
100
AcDbEntity
  8
DEFAULT_2
100
AcDbCircle
 62
8
  6
HIDDEN
 10
12.1977081647
 20
13.5922838233
 40
0.0590551181
  0
CIRCLE
  5
80E
100
AcDbEntity
  8
0
100
AcDbCircle
 62
7
  6
CONTINUOUS
 10
12.1977081647
 20
13.5922838233
 40
0.0492125984
  0
CIRCLE
  5
80F
100
AcDbEntity
  8
AXIS_COSMETIC_THREADS
100
AcDbCircle
 62
7
  6
CONTINUOUS
 10
12.1977081647
 20
13.5922838233
 40
0.0164511913
  0
ARC
  5
810
100
AcDbEntity
  8
0
100
AcDbCircle
 62
7
  6
CONTINUOUS
 10
12.3276294245
 20
13.0356693046
 40
0.031496063
100
AcDbArc
 50
270.5
 51
360.0
  0
ARC
  5
811
100
AcDbEntity
  8
AXIS_COSMETIC_THREADS
100
AcDbCircle
 62
7
  6
CONTINUOUS
 10
12.1135156028
 20
14.0481893351
 40
0.25
100
AcDbArc
 50
341.9543988692
 51
348.4630409672
  0
ARC
  5
812
100
AcDbEntity
  8
AXIS_COSMETIC_THREADS
100
AcDbCircle
 62
7
  6
CONTINUOUS
 10
12.1135156028
 20
14.0481893351
 40
0.25
100
AcDbArc
 50
11.5369590328
 51
22.0586537192
  0
ARC
  5
813
100
AcDbEntity
  8
0
100
AcDbCircle
 62
7
  6
CONTINUOUS
 10
12.1135156028
 20
14.0481893351
 40
0.2495495943
100
AcDbArc
 50
3.4460286884
 51
11.5580686517
  0
ARC
  5
814
100
AcDbEntity
  8
0
100
AcDbCircle
 62
7
  6
CONTINUOUS
 10
12.1135156028
 20
14.0481893351
 40
0.2495495943
100
AcDbArc
 50
348.4419313483
 51
356.5539713116
  0
ARC
  5
815
100
AcDbEntity
  8
0
100
AcDbCircle
 62
7
  6
CONTINUOUS
 10
12.1135156028
 20
14.0481893351
 40
0.2449489743
100
AcDbArc
 50
356.4891677884
 51
3.5108322116
  0
ARC
  5
816
100
AcDbEntity
  8
0
100
AcDbCircle
 62
7
  6
CONTINUOUS
 10
12.3276294245
 20
14.148898342
 40
0.031496063
100
AcDbArc
 50
0.0
 51
89.5
  0
ARC
  5
817
100
AcDbEntity
  8
0
100
AcDbCircle
 62
7
  6
CONTINUOUS
 10
12.3220455767
 20
14.1326893351
 40
0.025
100
AcDbArc
 50
22.0586537108
 51
89.9999999938
  0
ARC
  5
818
100
AcDbEntity
  8
0
100
AcDbCircle
 62
7
  6
CONTINUOUS
 10
12.2764483222
 20
14.1690307817
 40
0.0118110236
100
AcDbArc
 50
0.0
 51
89.5
  0
ARC
  5
819
100
AcDbEntity
  8
0
100
AcDbCircle
 62
7
  6
CONTINUOUS
 10
9.750857771
 20
6.4146682959
 40
0.031496063
100
AcDbArc
 50
180.0
 51
269.5
  0
ARC
  5
81A
100
AcDbEntity
  8
0
100
AcDbCircle
 62
7
  6
CONTINUOUS
 10
9.750857771
 20
7.5280004067
 40
0.031496063
100
AcDbArc
 50
90.5
 51
180.0
  0
ARC
  5
81B
100
AcDbEntity
  8
0
100
AcDbCircle
 62
7
  6
CONTINUOUS
 10
12.1135156028
 20
6.5154288395
 40
0.2495495943
100
AcDbArc
 50
3.4460286884
 51
10.1480655499
  0
ARC
  5
81C
100
AcDbEntity
  8
0
100
AcDbCircle
 62
7
  6
CONTINUOUS
 10
12.1135156028
 20
6.5154288395
 40
0.2495495943
100
AcDbArc
 50
349.8519344501
 51
356.5539713116
  0
CIRCLE
  5
81D
100
AcDbEntity
  8
DEFAULT_2
100
AcDbCircle
 62
8
  6
HIDDEN
 10
12.1977081647
 20
6.9713343513
 40
0.125
  0
CIRCLE
  5
81E
100
AcDbEntity
  8
0
100
AcDbCircle
 62
7
  6
CONTINUOUS
 10
12.1977081647
 20
6.9713343513
 40
0.1005
  0
ARC
  5
81F
100
AcDbEntity
  8
0
100
AcDbCircle
 62
7
  6
CONTINUOUS
 10
12.3276294245
 20
6.4147198326
 40
0.031496063
100
AcDbArc
 50
270.5
 51
360.0
  0
ARC
  5
820
100
AcDbEntity
  8
AXIS_COSMETIC_THREADS
100
AcDbCircle
 62
7
  6
CONTINUOUS
 10
12.1135156028
 20
7.4272398631
 40
0.25
100
AcDbArc
 50
341.9543988692
 51
348.4630409672
  0
ARC
  5
821
100
AcDbEntity
  8
AXIS_COSMETIC_THREADS
100
AcDbCircle
 62
7
  6
CONTINUOUS
 10
12.1135156028
 20
7.4272398631
 40
0.25
100
AcDbArc
 50
11.5369590328
 51
22.0586537192
  0
ARC
  5
822
100
AcDbEntity
  8
0
100
AcDbCircle
 62
7
  6
CONTINUOUS
 10
12.1135156028
 20
7.4272398631
 40
0.2495495943
100
AcDbArc
 50
3.4460286884
 51
11.5580686517
  0
ARC
  5
823
100
AcDbEntity
  8
0
100
AcDbCircle
 62
7
  6
CONTINUOUS
 10
12.1135156028
 20
7.4272398631
 40
0.2495495943
100
AcDbArc
 50
348.4419313483
 51
356.5539713116
  0
ARC
  5
824
100
AcDbEntity
  8
0
100
AcDbCircle
 62
7
  6
CONTINUOUS
 10
12.1135156028
 20
7.4272398631
 40
0.2449489743
100
AcDbArc
 50
356.4891677884
 51
3.5108322116
  0
ARC
  5
825
100
AcDbEntity
  8
0
100
AcDbCircle
 62
7
  6
CONTINUOUS
 10
12.3276294245
 20
7.52794887
 40
0.031496063
100
AcDbArc
 50
0.0
 51
89.5
  0
ARC
  5
826
100
AcDbEntity
  8
0
100
AcDbCircle
 62
7
  6
CONTINUOUS
 10
12.3220455767
 20
7.5117398631
 40
0.025
100
AcDbArc
 50
22.0586536992
 51
89.9999999922
  0
ARC
  5
827
100
AcDbEntity
  8
0
100
AcDbCircle
 62
7
  6
CONTINUOUS
 10
12.2764483222
 20
7.5480813097
 40
0.0118110236
100
AcDbArc
 50
0.0
 51
89.5
  0
ARC
  5
828
100
AcDbEntity
  8
0
100
AcDbCircle
 62
7
  6
CONTINUOUS
 10
9.750857771
 20
3.0464872304
 40
0.031496063
100
AcDbArc
 50
180.0
 51
269.4999999999
  0
CIRCLE
  5
829
100
AcDbEntity
  8
DEFAULT_2
100
AcDbCircle
 62
8
  6
HIDDEN
 10
9.8945585584
 20
3.6425233645
 40
0.0590551181
  0
CIRCLE
  5
82A
100
AcDbEntity
  8
0
100
AcDbCircle
 62
7
  6
CONTINUOUS
 10
9.8945585584
 20
3.6425233645
 40
0.0492125984
  0
ARC
  5
82B
100
AcDbEntity
  8
0
100
AcDbCircle
 62
7
  6
CONTINUOUS
 10
9.750857771
 20
4.2385594986
 40
0.031496063
100
AcDbArc
 50
90.5
 51
180.0
  0
ARC
  5
82C
100
AcDbEntity
  8
AXIS_COSMETIC_THREADS
100
AcDbCircle
 62
7
  6
CONTINUOUS
 10
12.1135156028
 20
3.1472477739
 40
0.25
100
AcDbArc
 50
11.5943595792
 51
18.0446764043
  0
ARC
  5
82D
100
AcDbEntity
  8
AXIS_COSMETIC_THREADS
100
AcDbCircle
 62
7
  6
CONTINUOUS
 10
12.1135156028
 20
3.1472477739
 40
0.25
100
AcDbArc
 50
337.9413489379
 51
348.4056404208
  0
ARC
  5
82E
100
AcDbEntity
  8
0
100
AcDbCircle
 62
7
  6
CONTINUOUS
 10
12.1135156028
 20
3.1472477739
 40
0.2495495943
100
AcDbArc
 50
348.4419313483
 51
356.5539713116
  0
ARC
  5
82F
100
AcDbEntity
  8
0
100
AcDbCircle
 62
7
  6
CONTINUOUS
 10
12.1135156028
 20
3.1472477739
 40
0.2495495943
100
AcDbArc
 50
3.4460286884
 51
11.5580686517
  0
ARC
  5
830
100
AcDbEntity
  8
0
100
AcDbCircle
 62
7
  6
CONTINUOUS
 10
12.1135156028
 20
3.1472477739
 40
0.2449489743
100
AcDbArc
 50
356.4891677884
 51
3.5108322116
  0
ARC
  5
831
100
AcDbEntity
  8
0
100
AcDbCircle
 62
7
  6
CONTINUOUS
 10
12.3276294245
 20
3.046538767
 40
0.031496063
100
AcDbArc
 50
270.5
 51
360.0
  0
ARC
  5
832
100
AcDbEntity
  8
0
100
AcDbCircle
 62
7
  6
CONTINUOUS
 10
12.3220455767
 20
3.0627477739
 40
0.025
100
AcDbArc
 50
270.0000053165
 51
337.9413728511
  0
ARC
  5
833
100
AcDbEntity
  8
0
100
AcDbCircle
 62
7
  6
CONTINUOUS
 10
12.2764483222
 20
3.0264063273
 40
0.0118110236
100
AcDbArc
 50
270.5
 51
360.0
  0
ARC
  5
834
100
AcDbEntity
  8
0
100
AcDbCircle
 62
7
  6
CONTINUOUS
 10
12.1135156028
 20
4.137798955
 40
0.2495495943
100
AcDbArc
 50
349.8996452291
 51
356.5539713116
  0
ARC
  5
835
100
AcDbEntity
  8
0
100
AcDbCircle
 62
7
  6
CONTINUOUS
 10
12.1135156028
 20
4.137798955
 40
0.2495495943
100
AcDbArc
 50
3.4460286884
 51
10.1003547709
  0
CIRCLE
  5
836
100
AcDbEntity
  8
DEFAULT_2
100
AcDbCircle
 62
8
  6
HIDDEN
 10
12.1977081647
 20
3.6425233645
 40
0.0590551181
  0
CIRCLE
  5
837
100
AcDbEntity
  8
0
100
AcDbCircle
 62
7
  6
CONTINUOUS
 10
12.1977081647
 20
3.6425233645
 40
0.0492125984
  0
ARC
  5
838
100
AcDbEntity
  8
0
100
AcDbCircle
 62
7
  6
CONTINUOUS
 10
12.3276294245
 20
4.238507962
 40
0.031496063
100
AcDbArc
 50
0.0
 51
89.5
  0
ENDSEC
  0
SECTION
  2
OBJECTS
  0
DICTIONARY
  5
C
100
AcDbDictionary
280
0
281
1
  3
ACAD_GROUP
350
D
  3
ACAD_MLINESTYLE
350
17
  3
ACAD_LAYOUT
350
1A
  3
ACAD_PLOTSETTINGS
350
19
  3
ACAD_PLOTSTYLENAME
350
E
  0
DICTIONARY
  5
D
102
{ACAD_REACTORS
330
C
102
}
100
AcDbDictionary
280
0
281
1
  0
ACDBDICTIONARYWDFLT
  5
E
102
{ACAD_REACTORS
330
C
102
}
100
AcDbDictionary
281
1
  3
Normal
350
F
100
AcDbDictionaryWithDefault
340
F
  0
DICTIONARY
  5
17
102
{ACAD_REACTORS
330
C
102
}
100
AcDbDictionary
280
0
281
1
  3
Standard
350
18
  0
DICTIONARY
  5
19
102
{ACAD_REACTORS
330
C
102
}
100
AcDbDictionary
281
1
  0
DICTIONARY
  5
1A
102
{ACAD_REACTORS
330
C
102
}
100
AcDbDictionary
281
1
  3
Layout1
350
1E
  3
Model
350
22
  0
ACDBPLACEHOLDER
  5
F
102
{ACAD_REACTORS
330
E
102
}
  0
MLINESTYLE
  5
18
102
{ACAD_REACTORS
330
17
102
}
100
AcDbMlineStyle
  2
STANDARD
 70
0
  3

 62
256
 51
90.0
 52
90.0
 71
2
 49
0.5
 62
256
  6
BYLAYER
 49
-0.5
 62
256
  6
BYLAYER
  0
LAYOUT
  5
1E
102
{ACAD_REACTORS
330
1A
102
}
100
AcDbPlotSettings
  1

  2

  4

  6

 40
0.0
 41
0.0
 42
0.0
 43
0.0
 44
0.0
 45
0.0
 46
0.0
 47
0.0
 48
0.0
 49
0.0
140
0.0
141
0.0
142
1.0
143
1.0
 70
0
 72
0
 73
0
 74
0
  7

 75
0
147
1.0
148
0.0
149
0.0
100
AcDbLayout
  1
Layout1
 70
0
 71
0
 10
0.0
 20
0.0
 11
0.0
 21
0.0
 12
0.0
 22
0.0
 32
0.0
 14
0.0
 24
0.0
 34
0.0
 15
0.0
 25
0.0
 35
0.0
146
0.0
 13
0.0
 23
0.0
 33
0.0
 16
0.0
 26
0.0
 36
0.0
 17
0.0
 27
0.0
 37
0.0
 76
0
330
1B
331
0
345
0
346
0
  0
LAYOUT
  5
22
102
{ACAD_REACTORS
330
1A
102
}
100
AcDbPlotSettings
  1

  2

  4

  6

 40
0.0
 41
0.0
 42
0.0
 43
0.0
 44
0.0
 45
0.0
 46
0.0
 47
0.0
 48
0.0
 49
0.0
140
0.0
141
0.0
142
1.0
143
1.0
 70
0
 72
0
 73
0
 74
0
  7

 75
0
147
1.0
148
0.0
149
0.0
100
AcDbLayout
  1
Model
 70
0
 71
0
 10
0.0
 20
0.0
 11
0.0
 21
0.0
 12
0.0
 22
0.0
 32
0.0
 14
0.0
 24
0.0
 34
0.0
 15
0.0
 25
0.0
 35
0.0
146
0.0
 13
0.0
 23
0.0
 33
0.0
 16
0.0
 26
0.0
 36
0.0
 17
0.0
 27
0.0
 37
0.0
 76
0
330
1F
331
0
345
0
346
0
  0
ENDSEC
  0
EOF
