999
DXF file: 142560_1.dxf
999
Pro/ENGINEER 2006170 by Parametric Technology Corporation
  0
SECTION
  2
HEADER
  9
$ACADVER
  1
AC1015
  9
$DWGCODEPAGE
  3
ANSI_1252
  9
$EXTMAX
 10
17.0
 20
11.0
 30
0.0
  9
$EXTMIN
 10
0.0
 20
0.0
 30
0.0
  9
$LIMMIN
 10
0.0
 20
0.0
  9
$LIMMAX
 10
17.0
 20
11.0
  9
$VIEWCTR
 10
8.5
 20
5.5
  9
$VIEWSIZE
 40
11.0
  9
$CLAYER
  8
0
  9
$LTSCALE
 40
0.935
  9
$CELTYPE
  6
BYLAYER
  9
$DIMSCALE
 40
1.0
  9
$DIMASZ
 40
0.1875
  9
$DIMEXO
 40
0.10625
  9
$DIMDLI
 40
0.646
  9
$DIMEXE
 40
0.306
  9
$DIMCEN
 40
0.153
  9
$DIMLFAC
 40
1.0
  9
$DIMBLK
  1
_FILLED
  9
$DIMTXT
 40
0.1
  9
$DIMTOL
 70
1
  9
$DIMLIM
 70
0
  9
$DIMTFAC
 40
1.0
  9
$DIMTP
 40
0.005
  9
$DIMTM
 40
0.005
  9
$PDMODE
 70
3
  9
$PDSIZE
 40
0.3125
  9
$HANDSEED
  5
78E
  9
$MEASUREMENT
 70
0
  9
$INSUNITS
 70
1
  0
ENDSEC
  0
SECTION
  2
CLASSES
  0
CLASS
  1
ACDBDICTIONARYWDFLT
  2
AcDbDictionaryWithDefault
  3
AutoCAD 2000
 90
0
280
0
281
0
  0
CLASS
  1
ACDBPLACEHOLDER
  2
AcDbPlaceHolder
  3
AutoCAD 2000
 90
0
280
0
281
0
  0
CLASS
  1
LAYOUT
  2
AcDbLayout
  3
AutoCAD 2000
 90
0
280
0
281
0
  0
ENDSEC
  0
SECTION
  2
TABLES
  0
TABLE
  2
VPORT
  5
8
100
AcDbSymbolTable
 70
2
  0
VPORT
  5
1F4
100
AcDbSymbolTableRecord
100
AcDbViewportTableRecord
  2
*ACTIVE
 70
0
 10
0.0
 20
0.0
 11
1.0
 21
1.0
 12
8.5
 22
5.5
 13
0.0
 23
0.0
 14
1.0
 24
1.0
 15
0.0
 25
0.0
 16
0.0
 26
0.0
 36
1.0
 17
0.0
 27
0.0
 37
0.0
 40
11.0
 41
1.5454545455
 42
50.0
 43
0.0
 44
0.0
 50
0.0
 51
0.0
 71
0
 72
100
 73
1
 74
1
 75
0
 76
0
 77
0
 78
0
  0
ENDTAB
  0
TABLE
  2
LTYPE
  5
5
100
AcDbSymbolTable
 70
6
  0
LTYPE
  5
14
100
AcDbSymbolTableRecord
100
AcDbLinetypeTableRecord
  2
BYBLOCK
 70
0
  3

 72
65
 73
0
 40
0.0
  0
LTYPE
  5
15
100
AcDbSymbolTableRecord
100
AcDbLinetypeTableRecord
  2
BYLAYER
 70
0
  3

 72
65
 73
0
 40
0.0
  0
LTYPE
  5
16
100
AcDbSymbolTableRecord
100
AcDbLinetypeTableRecord
  2
CONTINUOUS
 70
64
  3
Solid line
 72
65
 73
0
 40
0.0
  0
LTYPE
  5
1F5
100
AcDbSymbolTableRecord
100
AcDbLinetypeTableRecord
  2
CENTER
 70
64
  3
____ _ ____ _ ____ _ ____ _ ____ _ ____ _ ____
 72
65
 73
4
 40
0.6
 49
0.375
 74
0
 49
-0.075
 74
0
 49
0.075
 74
0
 49
-0.075
 74
0
  0
LTYPE
  5
1F6
100
AcDbSymbolTableRecord
100
AcDbLinetypeTableRecord
  2
HIDDEN
 70
64
  3
- - - - - - - - - - - - - - - - - - - -
 72
65
 73
2
 40
0.2
 49
0.1
 74
0
 49
-0.1
 74
0
  0
LTYPE
  5
1F7
100
AcDbSymbolTableRecord
100
AcDbLinetypeTableRecord
  2
PHANTOM
 70
64
  3
_____ _ _ _____ _ _ _____ _ _ _____
 72
65
 73
6
 40
0.8
 49
0.45
 74
0
 49
-0.05
 74
0
 49
0.1
 74
0
 49
-0.05
 74
0
 49
0.1
 74
0
 49
-0.05
 74
0
  0
LTYPE
  5
1F8
100
AcDbSymbolTableRecord
100
AcDbLinetypeTableRecord
  2
DOT
 70
64
  3
. . . . . . . . . . . . . . . . . . . .
 72
65
 73
2
 40
0.2
 49
0.1
 74
0
 49
-0.1
 74
0
  0
LTYPE
  5
1F9
100
AcDbSymbolTableRecord
100
AcDbLinetypeTableRecord
  2
DASHED
 70
64
  3
- - - - - - - - - - - - - - - - - - - -
 72
65
 73
2
 40
0.2
 49
0.1
 74
0
 49
-0.1
 74
0
  0
ENDTAB
  0
TABLE
  2
LAYER
  5
2
100
AcDbSymbolTable
 70
36
  0
LAYER
  5
10
100
AcDbSymbolTableRecord
100
AcDbLayerTableRecord
  2
0
 70
0
 62
7
  6
CONTINUOUS
370
-3
390
F
  0
LAYER
  5
1FA
100
AcDbSymbolTableRecord
100
AcDbLayerTableRecord
  2
DEFAULT_1
 70
0
 62
7
  6
CENTER
370
-3
390
F
  0
LAYER
  5
1FB
100
AcDbSymbolTableRecord
100
AcDbLayerTableRecord
  2
DEFAULT_2
 70
0
 62
8
  6
HIDDEN
370
-3
390
F
  0
LAYER
  5
1FC
100
AcDbSymbolTableRecord
100
AcDbLayerTableRecord
  2
DEFAULT_3
 70
0
 62
7
  6
PHANTOM
370
-3
390
F
  0
LAYER
  5
1FD
100
AcDbSymbolTableRecord
100
AcDbLayerTableRecord
  2
_2D_DELETED_OBJS
 70
0
 62
7
  6
CONTINUOUS
370
-3
390
F
  0
LAYER
  5
1FE
100
AcDbSymbolTableRecord
100
AcDbLayerTableRecord
  2
_BLACK_HOLE
 70
0
 62
7
  6
CONTINUOUS
370
-3
390
F
  0
LAYER
  5
1FF
100
AcDbSymbolTableRecord
100
AcDbLayerTableRecord
  2
01___PRT_ALL_DTM_PLN
 70
0
 62
7
  6
CONTINUOUS
370
-3
390
F
  0
LAYER
  5
200
100
AcDbSymbolTableRecord
100
AcDbLayerTableRecord
  2
01___PRT_DEF_DTM_PLN
 70
0
 62
7
  6
CONTINUOUS
370
-3
390
F
  0
LAYER
  5
201
100
AcDbSymbolTableRecord
100
AcDbLayerTableRecord
  2
02___PRT_ALL_AXES
 70
0
 62
7
  6
CONTINUOUS
370
-3
390
F
  0
LAYER
  5
202
100
AcDbSymbolTableRecord
100
AcDbLayerTableRecord
  2
03___PRT_ALL_CURVES
 70
0
 62
7
  6
CONTINUOUS
370
-3
390
F
  0
LAYER
  5
203
100
AcDbSymbolTableRecord
100
AcDbLayerTableRecord
  2
04___PRT_ALL_DTM_PNT
 70
0
 62
7
  6
CONTINUOUS
370
-3
390
F
  0
LAYER
  5
204
100
AcDbSymbolTableRecord
100
AcDbLayerTableRecord
  2
05___PRT_ALL_DTM_CSYS
 70
0
 62
7
  6
CONTINUOUS
370
-3
390
F
  0
LAYER
  5
205
100
AcDbSymbolTableRecord
100
AcDbLayerTableRecord
  2
05___PRT_DEF_DTM_CSYS
 70
0
 62
7
  6
CONTINUOUS
370
-3
390
F
  0
LAYER
  5
206
100
AcDbSymbolTableRecord
100
AcDbLayerTableRecord
  2
06___PRT_ALL_SURFS
 70
0
 62
7
  6
CONTINUOUS
370
-3
390
F
  0
LAYER
  5
207
100
AcDbSymbolTableRecord
100
AcDbLayerTableRecord
  2
AXIS
 70
0
 62
7
  6
CONTINUOUS
370
-3
390
F
  0
LAYER
  5
208
100
AcDbSymbolTableRecord
100
AcDbLayerTableRecord
  2
AXIS_COSMETIC_THREADS
 70
0
 62
7
  6
CONTINUOUS
370
-3
390
F
  0
LAYER
  5
209
100
AcDbSymbolTableRecord
100
AcDbLayerTableRecord
  2
DATUM_CURVES
 70
0
 62
7
  6
CONTINUOUS
370
-3
390
F
  0
LAYER
  5
20A
100
AcDbSymbolTableRecord
100
AcDbLayerTableRecord
  2
DATUM_PLANES
 70
0
 62
7
  6
CONTINUOUS
370
-3
390
F
  0
LAYER
  5
20B
100
AcDbSymbolTableRecord
100
AcDbLayerTableRecord
  2
NOTES
 70
0
 62
7
  6
CONTINUOUS
370
-3
390
F
  0
LAYER
  5
20C
100
AcDbSymbolTableRecord
100
AcDbLayerTableRecord
  2
QUILTS
 70
0
 62
7
  6
CONTINUOUS
370
-3
390
F
  0
LAYER
  5
20D
100
AcDbSymbolTableRecord
100
AcDbLayerTableRecord
  2
SCHEME_DIMS
 70
0
 62
7
  6
CONTINUOUS
370
-3
390
F
  0
LAYER
  5
20E
100
AcDbSymbolTableRecord
100
AcDbLayerTableRecord
  2
SYMBOLS
 70
0
 62
7
  6
CONTINUOUS
370
-3
390
F
  0
ENDTAB
  0
TABLE
  2
STYLE
  5
3
100
AcDbSymbolTable
 70
1
  0
STYLE
  5
11
100
AcDbSymbolTableRecord
100
AcDbTextStyleTableRecord
  2
STANDARD
 70
0
 40
0.0
 41
1.0
 50
0.0
 71
0
 42
0.2
  3
txt
  4

  0
ENDTAB
  0
TABLE
  2
VIEW
  5
6
100
AcDbSymbolTable
 70
0
  0
ENDTAB
  0
TABLE
  2
UCS
  5
7
100
AcDbSymbolTable
 70
0
  0
ENDTAB
  0
TABLE
  2
APPID
  5
9
100
AcDbSymbolTable
 70
1
  0
APPID
  5
20F
100
AcDbSymbolTableRecord
100
AcDbRegAppTableRecord
  2
ACAD
 70
0
  0
ENDTAB
  0
TABLE
  2
BLOCK_RECORD
  5
1
100
AcDbSymbolTable
 70
0
  0
BLOCK_RECORD
  5
1F
100
AcDbSymbolTableRecord
100
AcDbBlockTableRecord
  2
*MODEL_SPACE
  0
BLOCK_RECORD
  5
1B
100
AcDbSymbolTableRecord
100
AcDbBlockTableRecord
  2
*PAPER_SPACE
  0
BLOCK_RECORD
  5
210
100
AcDbSymbolTableRecord
100
AcDbBlockTableRecord
  2
_FILLED
  0
BLOCK_RECORD
  5
211
100
AcDbSymbolTableRecord
100
AcDbBlockTableRecord
  2
BANNER_LOGO_TITLEBLOCK_BL0
  0
BLOCK_RECORD
  5
212
100
AcDbSymbolTableRecord
100
AcDbBlockTableRecord
  2
*D0
  0
BLOCK_RECORD
  5
213
100
AcDbSymbolTableRecord
100
AcDbBlockTableRecord
  2
*D1
  0
BLOCK_RECORD
  5
214
100
AcDbSymbolTableRecord
100
AcDbBlockTableRecord
  2
*D2
  0
BLOCK_RECORD
  5
215
100
AcDbSymbolTableRecord
100
AcDbBlockTableRecord
  2
*D3
  0
BLOCK_RECORD
  5
216
100
AcDbSymbolTableRecord
100
AcDbBlockTableRecord
  2
*D4
  0
BLOCK_RECORD
  5
217
100
AcDbSymbolTableRecord
100
AcDbBlockTableRecord
  2
*D5
  0
BLOCK_RECORD
  5
218
100
AcDbSymbolTableRecord
100
AcDbBlockTableRecord
  2
*D6
  0
BLOCK_RECORD
  5
219
100
AcDbSymbolTableRecord
100
AcDbBlockTableRecord
  2
*D7
  0
ENDTAB
  0
TABLE
  2
DIMSTYLE
  5
A
100
AcDbSymbolTable
 70
1
100
AcDbDimStyleTable
 71
0
  0
DIMSTYLE
105
21A
100
AcDbSymbolTableRecord
100
AcDbDimStyleTableRecord
  2
STANDARD
 70
0
  3

  4

 40
1.0
 41
0.1875
 42
0.0625
 43
0.38
 44
0.18
 45
0.0
 46
0.0
 47
0.005
 48
0.005
140
0.1
141
0.09
142
0.0
143
25.4
144
1.0
145
0.0
146
1.0
147
0.09
 71
1.0
 72
0.0
 73
1
 74
1
 75
0
 76
0
 77
0
 78
4
170
0
171
2
172
0
173
0
174
0
175
0
176
0
177
0
178
0
270
2
271
3
272
3
273
2
274
2
275
0
280
0
281
0
282
0
283
1
284
4
285
0
286
0
287
3
288
0
340
11
341
210
342
210
343
210
344
210
  0
DIMSTYLE
105
21B
100
AcDbSymbolTableRecord
100
AcDbDimStyleTableRecord
  2
DIMSTYLE_1
 70
0
  3

  4

 40
1.0
 41
0.1875
 42
0.0625
 43
0.38
 44
0.18
 45
0.0
 46
0.0
 47
0.1
 48
0.1
140
0.1
141
0.09
142
0.0
143
25.4
144
1.0
145
0.0
146
1.0
147
0.09
 71
0.0
 72
0.0
 73
1
 74
1
 75
0
 76
0
 77
0
 78
4
170
0
171
2
172
0
173
0
174
0
175
0
176
0
177
0
178
0
270
2
271
1
272
1
273
2
274
2
275
0
280
0
281
0
282
0
283
1
284
4
285
0
286
0
287
3
288
0
340
11
341
210
342
210
343
210
344
210
  0
DIMSTYLE
105
21C
100
AcDbSymbolTableRecord
100
AcDbDimStyleTableRecord
  2
DIMSTYLE_2
 70
0
  3

  4

 40
1.0
 41
0.1875
 42
0.0625
 43
0.38
 44
0.18
 45
0.0
 46
0.0
 47
0.1
 48
0.1
140
0.1
141
0.09
142
0.0
143
25.4
144
1.0
145
0.0
146
1.0
147
0.09
 71
0.0
 72
0.0
 73
1
 74
1
 75
0
 76
0
 77
0
 78
4
170
0
171
2
172
0
173
0
174
0
175
0
176
0
177
0
178
0
270
2
271
1
272
1
273
2
274
2
275
0
280
0
281
0
282
0
283
1
284
4
285
0
286
0
287
3
288
0
340
11
341
210
342
210
343
210
344
210
  0
DIMSTYLE
105
21D
100
AcDbSymbolTableRecord
100
AcDbDimStyleTableRecord
  2
DIMSTYLE_3
 70
0
  3

  4

 40
1.0
 41
0.1875
 42
0.0625
 43
0.38
 44
0.18
 45
0.0
 46
0.0
 47
0.1
 48
0.1
140
0.1
141
0.09
142
0.0
143
25.4
144
1.0
145
0.0
146
1.0
147
0.09
 71
0.0
 72
0.0
 73
1
 74
1
 75
0
 76
0
 77
0
 78
4
170
0
171
2
172
0
173
0
174
0
175
0
176
0
177
0
178
0
270
2
271
1
272
1
273
2
274
2
275
0
280
0
281
0
282
0
283
1
284
4
285
0
286
0
287
3
288
0
340
11
341
210
342
210
343
210
344
210
  0
ENDTAB
  0
ENDSEC
  0
SECTION
  2
BLOCKS
  0
BLOCK
  5
20
100
AcDbEntity
  8
0
100
AcDbBlockBegin
  2
*MODEL_SPACE
 70
0
 10
0.0
 20
0.0
 30
0.0
  3
*MODEL_SPACE
  1

  0
ENDBLK
  5
21
100
AcDbEntity
  8
0
100
AcDbBlockEnd
  0
BLOCK
  5
1C
100
AcDbEntity
  8
0
100
AcDbBlockBegin
  2
*PAPER_SPACE
 70
0
 10
0.0
 20
0.0
 30
0.0
  3
*PAPER_SPACE
  1

  0
ENDBLK
  5
1D
100
AcDbEntity
  8
0
100
AcDbBlockEnd
  0
BLOCK
  5
21E
100
AcDbEntity
  8
0
100
AcDbBlockBegin
 62
2
  6
CONTINUOUS
  2
BANNER_LOGO_TITLEBLOCK_BL0
 70
64
 10
12.9046655056
 20
2.5403783448
  3
BANNER_LOGO_TITLEBLOCK_BL0
  1

  0
LWPOLYLINE
  5
21F
100
AcDbEntity
  8
0
100
AcDbPolyline
 62
2
  6
CONTINUOUS
 90
29
 70
0
 10
12.0796650004
 20
2.5403783448
 10
12.1000078385
 20
2.5005819703
 10
12.1615890075
 20
2.4620382478
 10
12.2590135686
 20
2.4281250935
 10
12.3910903821
 20
2.3992568791
 10
12.5462480343
 20
2.3779627503
 10
12.7225901426
 20
2.3645025835
 10
12.9046652672
 20
2.3600565514
 10
13.0867408686
 20
2.3645025835
 10
13.2630829769
 20
2.3779627503
 10
13.4182401522
 20
2.3992568791
 10
13.5503174426
 20
2.4281250935
 10
13.6477415269
 20
2.4620382478
 10
13.7093231727
 20
2.5005819703
 10
13.7296660108
 20
2.5403783448
 10
13.7093231727
 20
2.5801747193
 10
13.6477415269
 20
2.6187184418
 10
13.5503174426
 20
2.6526315961
 10
13.4182401522
 20
2.6814998105
 10
13.2630829769
 20
2.7027939393
 10
13.0867408686
 20
2.7162541061
 10
12.9046652672
 20
2.7207001382
 10
12.7225901426
 20
2.7162541061
 10
12.5462480343
 20
2.7027939393
 10
12.3910903821
 20
2.6814998105
 10
12.2590135686
 20
2.6526315961
 10
12.1615890075
 20
2.6187184418
 10
12.1000078385
 20
2.5801747193
 10
12.0796650004
 20
2.5403783448
  0
ARC
  5
220
100
AcDbEntity
  8
0
100
AcDbCircle
 62
2
  6
CONTINUOUS
 10
12.400005721
 20
2.5168763464
 40
0.0153945295
100
AcDbArc
 50
354.0454548824
 51
5.1878013979
  0
ARC
  5
221
100
AcDbEntity
  8
0
100
AcDbCircle
 62
2
  6
CONTINUOUS
 10
12.3931760319
 20
2.5166878286
 40
0.0222174455
100
AcDbArc
 50
4.0793399388
 51
69.834329283
  0
LINE
  5
222
100
AcDbEntity
  8
0
100
AcDbLine
 62
2
  6
CONTINUOUS
 10
12.4008351814
 20
2.5375433389
 11
12.3907841758
 21
2.5410923409
  0
LINE
  5
223
100
AcDbEntity
  8
0
100
AcDbLine
 62
2
  6
CONTINUOUS
 10
12.3907841758
 20
2.5410923409
 11
12.3990241804
 21
2.5458683435
  0
ARC
  5
224
100
AcDbEntity
  8
0
100
AcDbCircle
 62
2
  6
CONTINUOUS
 10
12.3771587979
 20
2.5826952352
 40
0.0428289026
100
AcDbArc
 50
300.6990502959
 51
319.0591802498
  0
ARC
  5
225
100
AcDbEntity
  8
0
100
AcDbCircle
 62
2
  6
CONTINUOUS
 10
12.3971873948
 20
2.5665668817
 40
0.0171568255
100
AcDbArc
 50
315.9145124245
 51
16.0049121282
  0
ARC
  5
226
100
AcDbEntity
  8
0
100
AcDbCircle
 62
2
  6
CONTINUOUS
 10
12.3922357827
 20
2.5632132173
 40
0.0229166529
100
AcDbArc
 50
20.6563876465
 51
62.3316896973
  0
ARC
  5
227
100
AcDbEntity
  8
0
100
AcDbCircle
 62
2
  6
CONTINUOUS
 10
12.371573659
 20
2.5302846524
 40
0.061747717
100
AcDbArc
 50
59.5385584989
 51
90.0050977555
  0
LINE
  5
228
100
AcDbEntity
  8
0
100
AcDbLine
 62
2
  6
CONTINUOUS
 10
12.3715681652
 20
2.5920323691
 11
12.2055050731
 21
2.5920323691
  0
ARC
  5
229
100
AcDbEntity
  8
0
100
AcDbCircle
 62
2
  6
CONTINUOUS
 10
12.2055050712
 20
2.5895573696
 40
0.0024749995
100
AcDbArc
 50
89.9999571957
 51
180.0000428043
  0
LINE
  5
22A
100
AcDbEntity
  8
0
100
AcDbLine
 62
2
  6
CONTINUOUS
 10
12.2030300717
 20
2.5895573678
 11
12.2030300717
 21
2.5697573568
  0
ARC
  5
22B
100
AcDbEntity
  8
0
100
AcDbCircle
 62
2
  6
CONTINUOUS
 10
12.2055050712
 20
2.5697573549
 40
0.0024749995
100
AcDbArc
 50
179.9999571957
 51
270.0000428043
  0
LINE
  5
22C
100
AcDbEntity
  8
0
100
AcDbLine
 62
2
  6
CONTINUOUS
 10
12.2055050731
 20
2.5672823554
 11
12.2294470864
 21
2.5672823554
  0
ARC
  5
22D
100
AcDbEntity
  8
0
100
AcDbCircle
 62
2
  6
CONTINUOUS
 10
12.2294470882
 20
2.5648073559
 40
0.0024749995
100
AcDbArc
 50
359.9999571957
 51
90.0000428043
  0
LINE
  5
22E
100
AcDbEntity
  8
0
100
AcDbLine
 62
2
  6
CONTINUOUS
 10
12.2319220877
 20
2.564807354
 11
12.2319220877
 21
2.5184523283
  0
ARC
  5
22F
100
AcDbEntity
  8
0
100
AcDbCircle
 62
2
  6
CONTINUOUS
 10
12.2294470882
 20
2.5184523265
 40
0.0024749995
100
AcDbArc
 50
269.9999571957
 51
0.0000428043
  0
LINE
  5
230
100
AcDbEntity
  8
0
100
AcDbLine
 62
2
  6
CONTINUOUS
 10
12.2294470864
 20
2.515977327
 11
12.2055050731
 21
2.515977327
  0
ARC
  5
231
100
AcDbEntity
  8
0
100
AcDbCircle
 62
2
  6
CONTINUOUS
 10
12.2055050712
 20
2.5135023274
 40
0.0024749995
100
AcDbArc
 50
89.9999571957
 51
180.0000428043
  0
LINE
  5
232
100
AcDbEntity
  8
0
100
AcDbLine
 62
2
  6
CONTINUOUS
 10
12.2030300717
 20
2.5135023256
 11
12.2030300717
 21
2.4937023146
  0
ARC
  5
233
100
AcDbEntity
  8
0
100
AcDbCircle
 62
2
  6
CONTINUOUS
 10
12.2055050712
 20
2.4937023128
 40
0.0024749995
100
AcDbArc
 50
179.9999571957
 51
270.0000428043
  0
LINE
  5
234
100
AcDbEntity
  8
0
100
AcDbLine
 62
2
  6
CONTINUOUS
 10
12.2055050731
 20
2.4912273132
 11
12.3819511709
 21
2.4912273132
  0
ARC
  5
235
100
AcDbEntity
  8
0
100
AcDbCircle
 62
2
  6
CONTINUOUS
 10
12.3792298263
 20
2.539634765
 40
0.048483885
100
AcDbArc
 50
273.21763719
 51
303.0749121182
  0
ARC
  5
236
100
AcDbEntity
  8
0
100
AcDbCircle
 62
2
  6
CONTINUOUS
 10
12.3940692204
 20
2.5168671561
 40
0.0213072145
100
AcDbArc
 50
303.0488228549
 51
355.7263138674
  0
LINE
  5
237
100
AcDbEntity
  8
0
100
AcDbLine
 62
2
  6
CONTINUOUS
 10
12.2949101227
 20
2.5499573458
 11
12.3362731456
 21
2.5499573458
  0
ARC
  5
238
100
AcDbEntity
  8
0
100
AcDbCircle
 62
2
  6
CONTINUOUS
 10
12.3362731456
 20
2.5586198506
 40
0.0086625048
100
AcDbArc
 50
270.0
 51
90.0
  0
LINE
  5
239
100
AcDbEntity
  8
0
100
AcDbLine
 62
2
  6
CONTINUOUS
 10
12.3362731456
 20
2.5672823554
 11
12.2949101227
 21
2.5672823554
  0
ARC
  5
23A
100
AcDbEntity
  8
0
100
AcDbCircle
 62
2
  6
CONTINUOUS
 10
12.2949101208
 20
2.5648073559
 40
0.0024749995
100
AcDbArc
 50
89.9999571957
 51
180.0000428043
  0
LINE
  5
23B
100
AcDbEntity
  8
0
100
AcDbLine
 62
2
  6
CONTINUOUS
 10
12.2924351213
 20
2.564807354
 11
12.2924351213
 21
2.5524323472
  0
ARC
  5
23C
100
AcDbEntity
  8
0
100
AcDbCircle
 62
2
  6
CONTINUOUS
 10
12.2949101208
 20
2.5524323453
 40
0.0024749995
100
AcDbArc
 50
179.9999571957
 51
270.0000428043
  0
LINE
  5
23D
100
AcDbEntity
  8
0
100
AcDbLine
 62
2
  6
CONTINUOUS
 10
12.2924351213
 20
2.5184523283
 11
12.2924351213
 21
2.5308273352
  0
ARC
  5
23E
100
AcDbEntity
  8
0
100
AcDbCircle
 62
2
  6
CONTINUOUS
 10
12.2949101208
 20
2.530827337
 40
0.0024749995
100
AcDbArc
 50
89.9999571957
 51
180.0000428043
  0
LINE
  5
23F
100
AcDbEntity
  8
0
100
AcDbLine
 62
2
  6
CONTINUOUS
 10
12.2949101227
 20
2.5333023366
 11
12.3362731456
 21
2.5333023366
  0
ARC
  5
240
100
AcDbEntity
  8
0
100
AcDbCircle
 62
2
  6
CONTINUOUS
 10
12.3362731456
 20
2.5246398318
 40
0.0086625048
100
AcDbArc
 50
270.0
 51
90.0
  0
LINE
  5
241
100
AcDbEntity
  8
0
100
AcDbLine
 62
2
  6
CONTINUOUS
 10
12.3362731456
 20
2.515977327
 11
12.2949101227
 21
2.515977327
  0
ARC
  5
242
100
AcDbEntity
  8
0
100
AcDbCircle
 62
2
  6
CONTINUOUS
 10
12.2949101208
 20
2.5184523265
 40
0.0024749995
100
AcDbArc
 50
179.9999571957
 51
270.0000428043
  0
ARC
  5
243
100
AcDbEntity
  8
0
100
AcDbCircle
 62
2
  6
CONTINUOUS
 10
13.5806801742
 20
2.5212486481
 40
0.044722495
100
AcDbArc
 50
195.531588407
 51
204.7624440448
  0
LINE
  5
244
100
AcDbEntity
  8
0
100
AcDbLine
 62
2
  6
CONTINUOUS
 10
13.5375908118
 20
2.5092733232
 11
13.5357868108
 21
2.5153423266
  0
ARC
  5
245
100
AcDbEntity
  8
0
100
AcDbCircle
 62
2
  6
CONTINUOUS
 10
13.4974076135
 20
2.5055452462
 40
0.0396099176
100
AcDbArc
 50
14.3201081283
 51
22.4984722084
  0
ARC
  5
246
100
AcDbEntity
  8
0
100
AcDbCircle
 62
2
  6
CONTINUOUS
 10
13.5201739219
 20
2.5145168728
 40
0.0151491919
100
AcDbArc
 50
24.098260853
 51
63.0369451818
  0
ARC
  5
247
100
AcDbEntity
  8
0
100
AcDbCircle
 62
2
  6
CONTINUOUS
 10
13.5161192671
 20
2.5062372524
 40
0.0243676582
100
AcDbArc
 50
63.3666028271
 51
90.3937697637
  0
LINE
  5
248
100
AcDbEntity
  8
0
100
AcDbLine
 62
2
  6
CONTINUOUS
 10
13.5159517998
 20
2.5306043351
 11
13.4883447845
 21
2.5306043351
  0
ARC
  5
249
100
AcDbEntity
  8
0
100
AcDbCircle
 62
2
  6
CONTINUOUS
 10
13.4883447827
 20
2.5281293355
 40
0.0024749995
100
AcDbArc
 50
89.9999571957
 51
180.0000428043
  0
LINE
  5
24A
100
AcDbEntity
  8
0
100
AcDbLine
 62
2
  6
CONTINUOUS
 10
13.4858697831
 20
2.5281293337
 11
13.4858697831
 21
2.5184303283
  0
ARC
  5
24B
100
AcDbEntity
  8
0
100
AcDbCircle
 62
2
  6
CONTINUOUS
 10
13.4883447827
 20
2.5184303265
 40
0.0024749995
100
AcDbArc
 50
179.9999571957
 51
270.0000428043
  0
LINE
  5
24C
100
AcDbEntity
  8
0
100
AcDbLine
 62
2
  6
CONTINUOUS
 10
13.4883447845
 20
2.5159553269
 11
13.5130037982
 21
2.5159553269
  0
ARC
  5
24D
100
AcDbEntity
  8
0
100
AcDbCircle
 62
2
  6
CONTINUOUS
 10
13.5130038
 20
2.5134803274
 40
0.0024749995
100
AcDbArc
 50
359.9999571957
 51
90.0000428043
  0
LINE
  5
24E
100
AcDbEntity
  8
0
100
AcDbLine
 62
2
  6
CONTINUOUS
 10
13.5154787995
 20
2.5134803256
 11
13.5154787995
 21
2.4937023146
  0
ARC
  5
24F
100
AcDbEntity
  8
0
100
AcDbCircle
 62
2
  6
CONTINUOUS
 10
13.5130038
 20
2.4937023128
 40
0.0024749995
100
AcDbArc
 50
269.9999571957
 51
0.0000428043
  0
LINE
  5
250
100
AcDbEntity
  8
0
100
AcDbLine
 62
2
  6
CONTINUOUS
 10
13.5130037982
 20
2.4912273132
 11
13.3994327352
 21
2.4912273132
  0
ARC
  5
251
100
AcDbEntity
  8
0
100
AcDbCircle
 62
2
  6
CONTINUOUS
 10
13.3994327333
 20
2.4937023128
 40
0.0024749995
100
AcDbArc
 50
179.9999571957
 51
270.0000428043
  0
LINE
  5
252
100
AcDbEntity
  8
0
100
AcDbLine
 62
2
  6
CONTINUOUS
 10
13.3969577338
 20
2.4937023146
 11
13.3969577338
 21
2.5135023256
  0
ARC
  5
253
100
AcDbEntity
  8
0
100
AcDbCircle
 62
2
  6
CONTINUOUS
 10
13.3994327333
 20
2.5135023274
 40
0.0024749995
100
AcDbArc
 50
89.9999571957
 51
180.0000428043
  0
LINE
  5
254
100
AcDbEntity
  8
0
100
AcDbLine
 62
2
  6
CONTINUOUS
 10
13.3994327352
 20
2.515977327
 11
13.4221787478
 21
2.515977327
  0
ARC
  5
255
100
AcDbEntity
  8
0
100
AcDbCircle
 62
2
  6
CONTINUOUS
 10
13.4221787497
 20
2.5184523265
 40
0.0024749995
100
AcDbArc
 50
269.9999571957
 51
0.0000428042
  0
LINE
  5
256
100
AcDbEntity
  8
0
100
AcDbLine
 62
2
  6
CONTINUOUS
 10
13.4246537492
 20
2.5184523283
 11
13.4246537492
 21
2.564807354
  0
ARC
  5
257
100
AcDbEntity
  8
0
100
AcDbCircle
 62
2
  6
CONTINUOUS
 10
13.4221787497
 20
2.5648073559
 40
0.0024749995
100
AcDbArc
 50
359.9999571957
 51
90.0000428043
  0
LINE
  5
258
100
AcDbEntity
  8
0
100
AcDbLine
 62
2
  6
CONTINUOUS
 10
13.4221787478
 20
2.5672823554
 11
13.3994327352
 21
2.5672823554
  0
ARC
  5
259
100
AcDbEntity
  8
0
100
AcDbCircle
 62
2
  6
CONTINUOUS
 10
13.3994327333
 20
2.5697573549
 40
0.0024749995
100
AcDbArc
 50
179.9999571957
 51
270.0000428043
  0
LINE
  5
25A
100
AcDbEntity
  8
0
100
AcDbLine
 62
2
  6
CONTINUOUS
 10
13.3969577338
 20
2.5697573568
 11
13.3969577338
 21
2.5895573678
  0
ARC
  5
25B
100
AcDbEntity
  8
0
100
AcDbCircle
 62
2
  6
CONTINUOUS
 10
13.3994327333
 20
2.5895573696
 40
0.0024749995
100
AcDbArc
 50
89.9999571957
 51
180.0000428043
  0
LINE
  5
25C
100
AcDbEntity
  8
0
100
AcDbLine
 62
2
  6
CONTINUOUS
 10
13.3994327352
 20
2.5920323691
 11
13.5490138181
 21
2.5920323691
  0
ARC
  5
25D
100
AcDbEntity
  8
0
100
AcDbCircle
 62
2
  6
CONTINUOUS
 10
13.5463505148
 20
2.4094934586
 40
0.1825583387
100
AcDbArc
 50
79.8618509324
 51
89.1640948679
  0
ARC
  5
25E
100
AcDbEntity
  8
0
100
AcDbCircle
 62
2
  6
CONTINUOUS
 10
13.5726548052
 20
2.5503169747
 40
0.039319019
100
AcDbArc
 50
59.1202086415
 51
81.4730239328
  0
ARC
  5
25F
100
AcDbEntity
  8
0
100
AcDbCircle
 62
2
  6
CONTINUOUS
 10
13.5783142014
 20
2.5566516438
 40
0.0310192946
100
AcDbArc
 50
34.7540871
 51
62.0879016178
  0
ARC
  5
260
100
AcDbEntity
  8
0
100
AcDbCircle
 62
2
  6
CONTINUOUS
 10
13.5900029525
 20
2.565201245
 40
0.0165459396
100
AcDbArc
 50
1.548452892
 51
33.5033152417
  0
ARC
  5
261
100
AcDbEntity
  8
0
100
AcDbCircle
 62
2
  6
CONTINUOUS
 10
13.5932995477
 20
2.5653696972
 40
0.0132462337
100
AcDbArc
 50
331.1510006998
 51
1.205404301
  0
ARC
  5
262
100
AcDbEntity
  8
0
100
AcDbCircle
 62
2
  6
CONTINUOUS
 10
13.5822888914
 20
2.5720482849
 40
0.0261183659
100
AcDbArc
 50
305.6373831893
 51
329.9727629745
  0
ARC
  5
263
100
AcDbEntity
  8
0
100
AcDbCircle
 62
2
  6
CONTINUOUS
 10
13.5519569538
 20
2.6152551345
 40
0.0789082104
100
AcDbArc
 50
292.906155071
 51
305.2574666259
  0
ARC
  5
264
100
AcDbEntity
  8
0
100
AcDbCircle
 62
2
  6
CONTINUOUS
 10
13.5282557878
 20
2.4386010294
 40
0.117346916
100
AcDbArc
 50
58.614769177
 51
62.3737227606
  0
ARC
  5
265
100
AcDbEntity
  8
0
100
AcDbCircle
 62
2
  6
CONTINUOUS
 10
13.5761387404
 20
2.5167282896
 40
0.0257145923
100
AcDbArc
 50
39.3804255939
 51
59.0361096173
  0
ARC
  5
266
100
AcDbEntity
  8
0
100
AcDbCircle
 62
2
  6
CONTINUOUS
 10
13.5750183849
 20
2.5166552064
 40
0.0266349791
100
AcDbArc
 50
20.3630922153
 51
37.9727053099
  0
ARC
  5
267
100
AcDbEntity
  8
0
100
AcDbCircle
 62
2
  6
CONTINUOUS
 10
13.5571178432
 20
2.509473798
 40
0.0459185159
100
AcDbArc
 50
15.6740290068
 51
20.9917271228
  0
ARC
  5
268
100
AcDbEntity
  8
0
100
AcDbCircle
 62
2
  6
CONTINUOUS
 10
13.6156881783
 20
2.525116781
 40
0.0147197649
100
AcDbArc
 50
192.7054516565
 51
206.0594861022
  0
ARC
  5
269
100
AcDbEntity
  8
0
100
AcDbCircle
 62
2
  6
CONTINUOUS
 10
13.6071938412
 20
2.5209082945
 40
0.0052403997
100
AcDbArc
 50
205.5232099488
 51
227.5054868079
  0
ARC
  5
26A
100
AcDbEntity
  8
0
100
AcDbCircle
 62
2
  6
CONTINUOUS
 10
13.6054655419
 20
2.5190929218
 40
0.0027347709
100
AcDbArc
 50
228.5117626737
 51
266.1485845754
  0
LINE
  5
26B
100
AcDbEntity
  8
0
100
AcDbLine
 62
2
  6
CONTINUOUS
 10
13.6052818493
 20
2.5163643272
 11
13.60639085
 21
2.5163643272
  0
ARC
  5
26C
100
AcDbEntity
  8
0
100
AcDbCircle
 62
2
  6
CONTINUOUS
 10
13.6063292954
 20
2.5296129864
 40
0.0132488022
100
AcDbArc
 50
270.266200055
 51
281.2404888597
  0
ARC
  5
26D
100
AcDbEntity
  8
0
100
AcDbCircle
 62
2
  6
CONTINUOUS
 10
13.6075235364
 20
2.5238762928
 40
0.0073895522
100
AcDbArc
 50
280.8288201977
 51
305.0837508495
  0
ARC
  5
26E
100
AcDbEntity
  8
0
100
AcDbCircle
 62
2
  6
CONTINUOUS
 10
13.607924718
 20
2.5230254464
 40
0.0064647042
100
AcDbArc
 50
306.5086174083
 51
340.2162360092
  0
ARC
  5
26F
100
AcDbEntity
  8
0
100
AcDbCircle
 62
2
  6
CONTINUOUS
 10
13.6027235414
 20
2.524769508
 40
0.0119498009
100
AcDbArc
 50
340.7883861657
 51
1.1691452593
  0
LINE
  5
270
100
AcDbEntity
  8
0
100
AcDbLine
 62
2
  6
CONTINUOUS
 10
13.6146708546
 20
2.525013332
 11
13.6146708546
 21
2.5276393334
  0
ARC
  5
271
100
AcDbEntity
  8
0
100
AcDbCircle
 62
2
  6
CONTINUOUS
 10
13.6171458541
 20
2.5276393353
 40
0.0024749995
100
AcDbArc
 50
89.9999571957
 51
180.0000428043
  0
LINE
  5
272
100
AcDbEntity
  8
0
100
AcDbLine
 62
2
  6
CONTINUOUS
 10
13.6171458559
 20
2.5301143348
 11
13.6292558626
 21
2.5301143348
  0
ARC
  5
273
100
AcDbEntity
  8
0
100
AcDbCircle
 62
2
  6
CONTINUOUS
 10
13.6292558645
 20
2.5276393353
 40
0.0024749995
100
AcDbArc
 50
359.9999571957
 51
90.0000428043
  0
LINE
  5
274
100
AcDbEntity
  8
0
100
AcDbLine
 62
2
  6
CONTINUOUS
 10
13.631730864
 20
2.5276393334
 11
13.631730864
 21
2.516087327
  0
ARC
  5
275
100
AcDbEntity
  8
0
100
AcDbCircle
 62
2
  6
CONTINUOUS
 10
13.6141751675
 20
2.5161916447
 40
0.0175560065
100
AcDbArc
 50
332.2279060967
 51
359.6595469939
  0
ARC
  5
276
100
AcDbEntity
  8
0
100
AcDbCircle
 62
2
  6
CONTINUOUS
 10
13.6048681567
 20
2.5210861501
 40
0.0280715479
100
AcDbArc
 50
308.5071794988
 51
332.2400656899
  0
ARC
  5
277
100
AcDbEntity
  8
0
100
AcDbCircle
 62
2
  6
CONTINUOUS
 10
13.5978759713
 20
2.5286873679
 40
0.0383802683
100
AcDbArc
 50
288.7656836787
 51
309.6104317088
  0
ARC
  5
278
100
AcDbEntity
  8
0
100
AcDbCircle
 62
2
  6
CONTINUOUS
 10
13.6036139387
 20
2.5111006186
 40
0.0198837666
100
AcDbArc
 50
271.8586572978
 51
289.4131338543
  0
LINE
  5
279
100
AcDbEntity
  8
0
100
AcDbLine
 62
2
  6
CONTINUOUS
 10
13.6042588488
 20
2.4912273132
 11
13.5568948225
 21
2.4912273132
  0
ARC
  5
27A
100
AcDbEntity
  8
0
100
AcDbCircle
 62
2
  6
CONTINUOUS
 10
13.5577001432
 20
2.5085494649
 40
0.0173408616
100
AcDbArc
 50
232.4713476722
 51
267.338189944
  0
ARC
  5
27B
100
AcDbEntity
  8
0
100
AcDbCircle
 62
2
  6
CONTINUOUS
 10
13.5607987082
 20
2.5143997688
 40
0.0238935861
100
AcDbArc
 50
209.8247607259
 51
235.1255079367
  0
ARC
  5
27C
100
AcDbEntity
  8
0
100
AcDbCircle
 62
2
  6
CONTINUOUS
 10
13.5295131508
 20
2.5629115009
 40
0.0110815393
100
AcDbArc
 50
306.758405961
 51
320.4502234234
  0
ARC
  5
27D
100
AcDbEntity
  8
0
100
AcDbCircle
 62
2
  6
CONTINUOUS
 10
13.5238839599
 20
2.5706523294
 40
0.0206523367
100
AcDbArc
 50
289.6883413472
 51
306.4184925496
  0
ARC
  5
27E
100
AcDbEntity
  8
0
100
AcDbCircle
 62
2
  6
CONTINUOUS
 10
13.5219564542
 20
2.5750459767
 40
0.0254407115
100
AcDbArc
 50
270.7327484175
 51
290.441894219
  0
LINE
  5
27F
100
AcDbEntity
  8
0
100
AcDbLine
 62
2
  6
CONTINUOUS
 10
13.5222818033
 20
2.5496073456
 11
13.4883447845
 21
2.5496073456
  0
ARC
  5
280
100
AcDbEntity
  8
0
100
AcDbCircle
 62
2
  6
CONTINUOUS
 10
13.4883447827
 20
2.5520823451
 40
0.0024749995
100
AcDbArc
 50
179.9999571957
 51
270.0000428043
  0
LINE
  5
281
100
AcDbEntity
  8
0
100
AcDbLine
 62
2
  6
CONTINUOUS
 10
13.4858697831
 20
2.552082347
 11
13.4858697831
 21
2.564807354
  0
ARC
  5
282
100
AcDbEntity
  8
0
100
AcDbCircle
 62
2
  6
CONTINUOUS
 10
13.4883447827
 20
2.5648073559
 40
0.0024749995
100
AcDbArc
 50
89.9999571957
 51
180.0000428043
  0
LINE
  5
283
100
AcDbEntity
  8
0
100
AcDbLine
 62
2
  6
CONTINUOUS
 10
13.4883447845
 20
2.5672823554
 11
13.5251458049
 21
2.5672823554
  0
ARC
  5
284
100
AcDbEntity
  8
0
100
AcDbCircle
 62
2
  6
CONTINUOUS
 10
13.5236009174
 20
2.5388278764
 40
0.0284963867
100
AcDbArc
 50
70.3834917948
 51
86.8922743861
  0
ARC
  5
285
100
AcDbEntity
  8
0
100
AcDbCircle
 62
2
  6
CONTINUOUS
 10
13.5284605274
 20
2.5518696094
 40
0.0145814632
100
AcDbArc
 50
54.6746025112
 51
71.1660573124
  0
ARC
  5
286
100
AcDbEntity
  8
0
100
AcDbCircle
 62
2
  6
CONTINUOUS
 10
13.5335900184
 20
2.5587235346
 40
0.0060275915
100
AcDbArc
 50
20.9055592135
 51
56.7851676243
  0
ARC
  5
287
100
AcDbEntity
  8
0
100
AcDbCircle
 62
2
  6
CONTINUOUS
 10
13.5348905773
 20
2.5593838168
 40
0.0045795888
100
AcDbArc
 50
355.6235353944
 51
18.9942678268
  0
ARC
  5
288
100
AcDbEntity
  8
0
100
AcDbCircle
 62
2
  6
CONTINUOUS
 10
13.533683767
 20
2.559677593
 40
0.0058087709
100
AcDbArc
 50
318.8515287446
 51
353.6422345323
  0
LINE
  5
289
100
AcDbEntity
  8
0
100
AcDbLine
 62
2
  6
CONTINUOUS
 10
12.672340332
 20
2.5920323691
 11
12.7727983877
 21
2.5920323691
  0
ARC
  5
28A
100
AcDbEntity
  8
0
100
AcDbCircle
 62
2
  6
CONTINUOUS
 10
12.7727985224
 20
2.5895582013
 40
0.0024741678
100
AcDbArc
 50
46.3477981899
 51
90.0031206038
  0
LINE
  5
28B
100
AcDbEntity
  8
0
100
AcDbLine
 62
2
  6
CONTINUOUS
 10
12.7745063886
 20
2.5913483688
 11
12.8345394219
 21
2.534068337
  0
ARC
  5
28C
100
AcDbEntity
  8
0
100
AcDbCircle
 62
2
  6
CONTINUOUS
 10
12.8362481229
 20
2.5358592748
 40
0.0024753014
100
AcDbArc
 50
226.3461263059
 51
0.0014637321
  0
LINE
  5
28D
100
AcDbEntity
  8
0
100
AcDbLine
 62
2
  6
CONTINUOUS
 10
12.8387234242
 20
2.535859338
 11
12.8387234242
 21
2.564807354
  0
ARC
  5
28E
100
AcDbEntity
  8
0
100
AcDbCircle
 62
2
  6
CONTINUOUS
 10
12.8362484247
 20
2.5648073559
 40
0.0024749995
100
AcDbArc
 50
359.9999571957
 51
90.0000428043
  0
LINE
  5
28F
100
AcDbEntity
  8
0
100
AcDbLine
 62
2
  6
CONTINUOUS
 10
12.8362484229
 20
2.5672823554
 11
12.8174724125
 21
2.5672823554
  0
ARC
  5
290
100
AcDbEntity
  8
0
100
AcDbCircle
 62
2
  6
CONTINUOUS
 10
12.8174724106
 20
2.5697573549
 40
0.0024749995
100
AcDbArc
 50
179.9999571957
 51
270.0000428043
  0
LINE
  5
291
100
AcDbEntity
  8
0
100
AcDbLine
 62
2
  6
CONTINUOUS
 10
12.8149974111
 20
2.5697573568
 11
12.8149974111
 21
2.5895573678
  0
ARC
  5
292
100
AcDbEntity
  8
0
100
AcDbCircle
 62
2
  6
CONTINUOUS
 10
12.8174724106
 20
2.5895573696
 40
0.0024749995
100
AcDbArc
 50
89.9999571957
 51
180.0000428043
  0
LINE
  5
293
100
AcDbEntity
  8
0
100
AcDbLine
 62
2
  6
CONTINUOUS
 10
12.8174724125
 20
2.5920323691
 11
12.8914734535
 21
2.5920323691
  0
ARC
  5
294
100
AcDbEntity
  8
0
100
AcDbCircle
 62
2
  6
CONTINUOUS
 10
12.8914734553
 20
2.5895573696
 40
0.0024749995
100
AcDbArc
 50
359.9999571957
 51
90.0000428043
  0
LINE
  5
295
100
AcDbEntity
  8
0
100
AcDbLine
 62
2
  6
CONTINUOUS
 10
12.8939484549
 20
2.5895573678
 11
12.8939484549
 21
2.5697573568
  0
ARC
  5
296
100
AcDbEntity
  8
0
100
AcDbCircle
 62
2
  6
CONTINUOUS
 10
12.8914734553
 20
2.5697573549
 40
0.0024749995
100
AcDbArc
 50
269.9999571957
 51
0.0000428043
  0
LINE
  5
297
100
AcDbEntity
  8
0
100
AcDbLine
 62
2
  6
CONTINUOUS
 10
12.8914734535
 20
2.5672823554
 11
12.8735404436
 21
2.5672823554
  0
ARC
  5
298
100
AcDbEntity
  8
0
100
AcDbCircle
 62
2
  6
CONTINUOUS
 10
12.8735404417
 20
2.5648073559
 40
0.0024749995
100
AcDbArc
 50
89.9999571957
 51
180.0000428043
  0
LINE
  5
299
100
AcDbEntity
  8
0
100
AcDbLine
 62
2
  6
CONTINUOUS
 10
12.8710654422
 20
2.564807354
 11
12.8710654422
 21
2.4937023146
  0
ARC
  5
29A
100
AcDbEntity
  8
0
100
AcDbCircle
 62
2
  6
CONTINUOUS
 10
12.8685904427
 20
2.4937023128
 40
0.0024749995
100
AcDbArc
 50
269.9999571957
 51
0.0000428043
  0
LINE
  5
29B
100
AcDbEntity
  8
0
100
AcDbLine
 62
2
  6
CONTINUOUS
 10
12.8685904408
 20
2.4912273132
 11
12.7943853997
 21
2.4912273132
  0
ARC
  5
29C
100
AcDbEntity
  8
0
100
AcDbCircle
 62
2
  6
CONTINUOUS
 10
12.7943847649
 20
2.4937027294
 40
0.0024754162
100
AcDbArc
 50
226.3593695813
 51
270.0146919953
  0
LINE
  5
29D
100
AcDbEntity
  8
0
100
AcDbLine
 62
2
  6
CONTINUOUS
 10
12.7926763987
 20
2.4919113136
 11
12.7293963636
 21
2.5522893471
  0
ARC
  5
29E
100
AcDbEntity
  8
0
100
AcDbCircle
 62
2
  6
CONTINUOUS
 10
12.7276876627
 20
2.5504984093
 40
0.0024753014
100
AcDbArc
 50
46.3461263059
 51
180.0014637321
  0
LINE
  5
29F
100
AcDbEntity
  8
0
100
AcDbLine
 62
2
  6
CONTINUOUS
 10
12.7252123613
 20
2.5504983461
 11
12.7252123613
 21
2.5184523283
  0
ARC
  5
2A0
100
AcDbEntity
  8
0
100
AcDbCircle
 62
2
  6
CONTINUOUS
 10
12.7276873608
 20
2.5184523265
 40
0.0024749995
100
AcDbArc
 50
179.9999571957
 51
270.0000428043
  0
LINE
  5
2A1
100
AcDbEntity
  8
0
100
AcDbLine
 62
2
  6
CONTINUOUS
 10
12.7276873627
 20
2.515977327
 11
12.7480043739
 21
2.515977327
  0
ARC
  5
2A2
100
AcDbEntity
  8
0
100
AcDbCircle
 62
2
  6
CONTINUOUS
 10
12.7480043758
 20
2.5135023274
 40
0.0024749995
100
AcDbArc
 50
359.9999571957
 51
90.0000428043
  0
LINE
  5
2A3
100
AcDbEntity
  8
0
100
AcDbLine
 62
2
  6
CONTINUOUS
 10
12.7504793753
 20
2.5135023256
 11
12.7504793753
 21
2.4937023146
  0
ARC
  5
2A4
100
AcDbEntity
  8
0
100
AcDbCircle
 62
2
  6
CONTINUOUS
 10
12.7480043758
 20
2.4937023128
 40
0.0024749995
100
AcDbArc
 50
269.9999571957
 51
0.0000428043
  0
LINE
  5
2A5
100
AcDbEntity
  8
0
100
AcDbLine
 62
2
  6
CONTINUOUS
 10
12.7480043739
 20
2.4912273132
 11
12.672340332
 21
2.4912273132
  0
ARC
  5
2A6
100
AcDbEntity
  8
0
100
AcDbCircle
 62
2
  6
CONTINUOUS
 10
12.6723403301
 20
2.4937023128
 40
0.0024749995
100
AcDbArc
 50
179.9999571957
 51
270.0000428043
  0
LINE
  5
2A7
100
AcDbEntity
  8
0
100
AcDbLine
 62
2
  6
CONTINUOUS
 10
12.6698653306
 20
2.4937023146
 11
12.6698653306
 21
2.5135023256
  0
ARC
  5
2A8
100
AcDbEntity
  8
0
100
AcDbCircle
 62
2
  6
CONTINUOUS
 10
12.6723403301
 20
2.5135023274
 40
0.0024749995
100
AcDbArc
 50
89.9999571957
 51
180.0000428043
  0
LINE
  5
2A9
100
AcDbEntity
  8
0
100
AcDbLine
 62
2
  6
CONTINUOUS
 10
12.672340332
 20
2.515977327
 11
12.6909873423
 21
2.515977327
  0
ARC
  5
2AA
100
AcDbEntity
  8
0
100
AcDbCircle
 62
2
  6
CONTINUOUS
 10
12.6909873442
 20
2.5184523265
 40
0.0024749995
100
AcDbArc
 50
269.9999571957
 51
0.0000428043
  0
LINE
  5
2AB
100
AcDbEntity
  8
0
100
AcDbLine
 62
2
  6
CONTINUOUS
 10
12.6934623437
 20
2.5184523283
 11
12.6934623437
 21
2.564807354
  0
ARC
  5
2AC
100
AcDbEntity
  8
0
100
AcDbCircle
 62
2
  6
CONTINUOUS
 10
12.6909873442
 20
2.5648073559
 40
0.0024749995
100
AcDbArc
 50
359.9999571957
 51
90.0000428043
  0
LINE
  5
2AD
100
AcDbEntity
  8
0
100
AcDbLine
 62
2
  6
CONTINUOUS
 10
12.6909873423
 20
2.5672823554
 11
12.672340332
 21
2.5672823554
  0
ARC
  5
2AE
100
AcDbEntity
  8
0
100
AcDbCircle
 62
2
  6
CONTINUOUS
 10
12.6723403301
 20
2.5697573549
 40
0.0024749995
100
AcDbArc
 50
179.9999571957
 51
270.0000428043
  0
LINE
  5
2AF
100
AcDbEntity
  8
0
100
AcDbLine
 62
2
  6
CONTINUOUS
 10
12.6698653306
 20
2.5697573568
 11
12.6698653306
 21
2.5895573678
  0
ARC
  5
2B0
100
AcDbEntity
  8
0
100
AcDbCircle
 62
2
  6
CONTINUOUS
 10
12.6723403301
 20
2.5895573696
 40
0.0024749995
100
AcDbArc
 50
89.9999571957
 51
180.0000428043
  0
LINE
  5
2B1
100
AcDbEntity
  8
0
100
AcDbLine
 62
2
  6
CONTINUOUS
 10
12.5246402501
 20
2.5655893545
 11
12.5175232461
 21
2.5543723483
  0
ARC
  5
2B2
100
AcDbEntity
  8
0
100
AcDbCircle
 62
2
  6
CONTINUOUS
 10
12.519613138
 20
2.5530463862
 40
0.0024750401
100
AcDbArc
 50
147.6063258012
 51
270.0025305754
  0
LINE
  5
2B3
100
AcDbEntity
  8
0
100
AcDbLine
 62
2
  6
CONTINUOUS
 10
12.5196132473
 20
2.5505713461
 11
12.5401702587
 21
2.5505713461
  0
ARC
  5
2B4
100
AcDbEntity
  8
0
100
AcDbCircle
 62
2
  6
CONTINUOUS
 10
12.5401702375
 20
2.5530465533
 40
0.0024752071
100
AcDbArc
 50
270.0004896793
 51
32.9089806818
  0
LINE
  5
2B5
100
AcDbEntity
  8
0
100
AcDbLine
 62
2
  6
CONTINUOUS
 10
12.5422482598
 20
2.5543913483
 11
12.5349892558
 21
2.5656073545
  0
ARC
  5
2B6
100
AcDbEntity
  8
0
100
AcDbCircle
 62
2
  6
CONTINUOUS
 10
12.532910715
 20
2.564262895
 40
0.0024754602
100
AcDbArc
 50
32.8959418573
 51
89.9875097202
  0
LINE
  5
2B7
100
AcDbEntity
  8
0
100
AcDbLine
 62
2
  6
CONTINUOUS
 10
12.5329112547
 20
2.5667383551
 11
12.5267302512
 21
2.5667383551
  0
ARC
  5
2B8
100
AcDbEntity
  8
0
100
AcDbCircle
 62
2
  6
CONTINUOUS
 10
12.5267301809
 20
2.5642631548
 40
0.0024752003
100
AcDbArc
 50
89.998372645
 51
147.602165307
  0
LINE
  5
2B9
100
AcDbEntity
  8
0
100
AcDbLine
 62
2
  6
CONTINUOUS
 10
12.548053263
 20
2.5284903339
 11
12.5536792662
 21
2.5197973291
  0
ARC
  5
2BA
100
AcDbEntity
  8
0
100
AcDbCircle
 62
2
  6
CONTINUOUS
 10
12.5516012439
 20
2.5184525341
 40
0.0024752071
100
AcDbArc
 50
270.0004896794
 51
32.9089806818
  0
LINE
  5
2BB
100
AcDbEntity
  8
0
100
AcDbLine
 62
2
  6
CONTINUOUS
 10
12.551601265
 20
2.515977327
 11
12.537150257
 21
2.515977327
  0
ARC
  5
2BC
100
AcDbEntity
  8
0
100
AcDbCircle
 62
2
  6
CONTINUOUS
 10
12.5371502552
 20
2.5135023274
 40
0.0024749995
100
AcDbArc
 50
89.9999571957
 51
180.0000428043
  0
LINE
  5
2BD
100
AcDbEntity
  8
0
100
AcDbLine
 62
2
  6
CONTINUOUS
 10
12.5346752556
 20
2.5135023256
 11
12.5346752556
 21
2.4937023146
  0
ARC
  5
2BE
100
AcDbEntity
  8
0
100
AcDbCircle
 62
2
  6
CONTINUOUS
 10
12.5371502552
 20
2.4937023128
 40
0.0024749995
100
AcDbArc
 50
179.9999571957
 51
270.0000428043
  0
LINE
  5
2BF
100
AcDbEntity
  8
0
100
AcDbLine
 62
2
  6
CONTINUOUS
 10
12.537150257
 20
2.4912273132
 11
12.6424313154
 21
2.4912273132
  0
ARC
  5
2C0
100
AcDbEntity
  8
0
100
AcDbCircle
 62
2
  6
CONTINUOUS
 10
12.6424313172
 20
2.4937023128
 40
0.0024749995
100
AcDbArc
 50
269.9999571957
 51
0.0000428043
  0
LINE
  5
2C1
100
AcDbEntity
  8
0
100
AcDbLine
 62
2
  6
CONTINUOUS
 10
12.6449063168
 20
2.4937023146
 11
12.6449063168
 21
2.5135023256
  0
ARC
  5
2C2
100
AcDbEntity
  8
0
100
AcDbCircle
 62
2
  6
CONTINUOUS
 10
12.6424313172
 20
2.5135023274
 40
0.0024749995
100
AcDbArc
 50
359.9999571957
 51
90.0000428043
  0
LINE
  5
2C3
100
AcDbEntity
  8
0
100
AcDbLine
 62
2
  6
CONTINUOUS
 10
12.6424313154
 20
2.515977327
 11
12.6224153043
 21
2.515977327
  0
ARC
  5
2C4
100
AcDbEntity
  8
0
100
AcDbCircle
 62
2
  6
CONTINUOUS
 10
12.6224154248
 20
2.518451368
 40
0.002474041
100
AcDbArc
 50
212.9056413127
 51
269.9972091756
  0
LINE
  5
2C5
100
AcDbEntity
  8
0
100
AcDbLine
 62
2
  6
CONTINUOUS
 10
12.6203383031
 20
2.5171073276
 11
12.5725822767
 21
2.5909023685
  0
ARC
  5
2C6
100
AcDbEntity
  8
0
100
AcDbCircle
 62
2
  6
CONTINUOUS
 10
12.570504655
 20
2.589557409
 40
0.0024749602
100
AcDbArc
 50
32.9172174468
 51
90.0087853097
  0
LINE
  5
2C7
100
AcDbEntity
  8
0
100
AcDbLine
 62
2
  6
CONTINUOUS
 10
12.5705042755
 20
2.5920323691
 11
12.5133292438
 21
2.5920323691
  0
ARC
  5
2C8
100
AcDbEntity
  8
0
100
AcDbCircle
 62
2
  6
CONTINUOUS
 10
12.5133291735
 20
2.5895571688
 40
0.0024752003
100
AcDbArc
 50
89.9983726451
 51
147.602165307
  0
LINE
  5
2C9
100
AcDbEntity
  8
0
100
AcDbLine
 62
2
  6
CONTINUOUS
 10
12.5112392426
 20
2.5908833685
 11
12.4644392167
 21
2.5171263276
  0
ARC
  5
2CA
100
AcDbEntity
  8
0
100
AcDbCircle
 62
2
  6
CONTINUOUS
 10
12.4623492858
 20
2.5184525273
 40
0.0024752003
100
AcDbArc
 50
269.9983726451
 51
327.602165307
  0
LINE
  5
2CB
100
AcDbEntity
  8
0
100
AcDbLine
 62
2
  6
CONTINUOUS
 10
12.4623492155
 20
2.515977327
 11
12.4394882028
 21
2.515977327
  0
ARC
  5
2CC
100
AcDbEntity
  8
0
100
AcDbCircle
 62
2
  6
CONTINUOUS
 10
12.439488201
 20
2.5135023274
 40
0.0024749995
100
AcDbArc
 50
89.9999571957
 51
180.0000428043
  0
LINE
  5
2CD
100
AcDbEntity
  8
0
100
AcDbLine
 62
2
  6
CONTINUOUS
 10
12.4370132015
 20
2.5135023256
 11
12.4370132015
 21
2.4937023146
  0
ARC
  5
2CE
100
AcDbEntity
  8
0
100
AcDbCircle
 62
2
  6
CONTINUOUS
 10
12.439488201
 20
2.4937023128
 40
0.0024749995
100
AcDbArc
 50
179.9999571957
 51
270.0000428043
  0
LINE
  5
2CF
100
AcDbEntity
  8
0
100
AcDbLine
 62
2
  6
CONTINUOUS
 10
12.4394882028
 20
2.4912273132
 11
12.5168642458
 21
2.4912273132
  0
ARC
  5
2D0
100
AcDbEntity
  8
0
100
AcDbCircle
 62
2
  6
CONTINUOUS
 10
12.5168642476
 20
2.4937023128
 40
0.0024749995
100
AcDbArc
 50
269.9999571957
 51
0.0000428043
  0
LINE
  5
2D1
100
AcDbEntity
  8
0
100
AcDbLine
 62
2
  6
CONTINUOUS
 10
12.5193392471
 20
2.4937023146
 11
12.5193392471
 21
2.5135023256
  0
ARC
  5
2D2
100
AcDbEntity
  8
0
100
AcDbCircle
 62
2
  6
CONTINUOUS
 10
12.5168642476
 20
2.5135023274
 40
0.0024749995
100
AcDbArc
 50
359.9999571957
 51
90.0000428043
  0
LINE
  5
2D3
100
AcDbEntity
  8
0
100
AcDbLine
 62
2
  6
CONTINUOUS
 10
12.5168642458
 20
2.515977327
 11
12.5055812395
 21
2.515977327
  0
ARC
  5
2D4
100
AcDbEntity
  8
0
100
AcDbCircle
 62
2
  6
CONTINUOUS
 10
12.5055811302
 20
2.518452367
 40
0.0024750401
100
AcDbArc
 50
147.6063258011
 51
270.0025305754
  0
LINE
  5
2D5
100
AcDbEntity
  8
0
100
AcDbLine
 62
2
  6
CONTINUOUS
 10
12.5034912383
 20
2.5197783291
 11
12.5090072414
 21
2.5284723339
  0
ARC
  5
2D6
100
AcDbEntity
  8
0
100
AcDbCircle
 62
2
  6
CONTINUOUS
 10
12.5110971723
 20
2.5271461342
 40
0.0024752003
100
AcDbArc
 50
89.998372645
 51
147.602165307
  0
LINE
  5
2D7
100
AcDbEntity
  8
0
100
AcDbLine
 62
2
  6
CONTINUOUS
 10
12.5110972426
 20
2.5296213345
 11
12.5459752619
 21
2.5296213345
  0
ARC
  5
2D8
100
AcDbEntity
  8
0
100
AcDbCircle
 62
2
  6
CONTINUOUS
 10
12.5459747223
 20
2.5271458744
 40
0.0024754602
100
AcDbArc
 50
32.8959418573
 51
89.9875097202
  0
LINE
  5
2D9
100
AcDbEntity
  8
0
100
AcDbLine
 62
2
  6
CONTINUOUS
 10
12.9205934696
 20
2.5920323691
 11
13.0210515254
 21
2.5920323691
  0
ARC
  5
2DA
100
AcDbEntity
  8
0
100
AcDbCircle
 62
2
  6
CONTINUOUS
 10
13.0210516601
 20
2.5895582013
 40
0.0024741678
100
AcDbArc
 50
46.3477981899
 51
90.0031206038
  0
LINE
  5
2DB
100
AcDbEntity
  8
0
100
AcDbLine
 62
2
  6
CONTINUOUS
 10
13.0227595263
 20
2.5913483688
 11
13.0827925596
 21
2.534068337
  0
ARC
  5
2DC
100
AcDbEntity
  8
0
100
AcDbCircle
 62
2
  6
CONTINUOUS
 10
13.0845012605
 20
2.5358592748
 40
0.0024753014
100
AcDbArc
 50
226.3461263059
 51
0.0014637321
  0
LINE
  5
2DD
100
AcDbEntity
  8
0
100
AcDbLine
 62
2
  6
CONTINUOUS
 10
13.0869765619
 20
2.535859338
 11
13.0869765619
 21
2.564807354
  0
ARC
  5
2DE
100
AcDbEntity
  8
0
100
AcDbCircle
 62
2
  6
CONTINUOUS
 10
13.0845015624
 20
2.5648073559
 40
0.0024749995
100
AcDbArc
 50
359.9999571957
 51
90.0000428043
  0
LINE
  5
2DF
100
AcDbEntity
  8
0
100
AcDbLine
 62
2
  6
CONTINUOUS
 10
13.0845015605
 20
2.5672823554
 11
13.0657255501
 21
2.5672823554
  0
ARC
  5
2E0
100
AcDbEntity
  8
0
100
AcDbCircle
 62
2
  6
CONTINUOUS
 10
13.0657255483
 20
2.5697573549
 40
0.0024749995
100
AcDbArc
 50
179.9999571957
 51
270.0000428043
  0
LINE
  5
2E1
100
AcDbEntity
  8
0
100
AcDbLine
 62
2
  6
CONTINUOUS
 10
13.0632505488
 20
2.5697573568
 11
13.0632505488
 21
2.5895573678
  0
ARC
  5
2E2
100
AcDbEntity
  8
0
100
AcDbCircle
 62
2
  6
CONTINUOUS
 10
13.0657255483
 20
2.5895573696
 40
0.0024749995
100
AcDbArc
 50
89.9999571957
 51
180.0000428043
  0
LINE
  5
2E3
100
AcDbEntity
  8
0
100
AcDbLine
 62
2
  6
CONTINUOUS
 10
13.0657255501
 20
2.5920323691
 11
13.1397265912
 21
2.5920323691
  0
ARC
  5
2E4
100
AcDbEntity
  8
0
100
AcDbCircle
 62
2
  6
CONTINUOUS
 10
13.139726593
 20
2.5895573696
 40
0.0024749995
100
AcDbArc
 50
359.9999571957
 51
90.0000428043
  0
LINE
  5
2E5
100
AcDbEntity
  8
0
100
AcDbLine
 62
2
  6
CONTINUOUS
 10
13.1422015925
 20
2.5895573678
 11
13.1422015925
 21
2.5697573568
  0
ARC
  5
2E6
100
AcDbEntity
  8
0
100
AcDbCircle
 62
2
  6
CONTINUOUS
 10
13.139726593
 20
2.5697573549
 40
0.0024749995
100
AcDbArc
 50
269.9999571957
 51
0.0000428042
  0
LINE
  5
2E7
100
AcDbEntity
  8
0
100
AcDbLine
 62
2
  6
CONTINUOUS
 10
13.1397265912
 20
2.5672823554
 11
13.1217935812
 21
2.5672823554
  0
ARC
  5
2E8
100
AcDbEntity
  8
0
100
AcDbCircle
 62
2
  6
CONTINUOUS
 10
13.1217935794
 20
2.5648073559
 40
0.0024749995
100
AcDbArc
 50
89.9999571957
 51
180.0000428042
  0
LINE
  5
2E9
100
AcDbEntity
  8
0
100
AcDbLine
 62
2
  6
CONTINUOUS
 10
13.1193185799
 20
2.564807354
 11
13.1193185799
 21
2.4937023146
  0
ARC
  5
2EA
100
AcDbEntity
  8
0
100
AcDbCircle
 62
2
  6
CONTINUOUS
 10
13.1168435803
 20
2.4937023128
 40
0.0024749995
100
AcDbArc
 50
269.9999571957
 51
0.0000428043
  0
LINE
  5
2EB
100
AcDbEntity
  8
0
100
AcDbLine
 62
2
  6
CONTINUOUS
 10
13.1168435785
 20
2.4912273132
 11
13.0426375373
 21
2.4912273132
  0
ARC
  5
2EC
100
AcDbEntity
  8
0
100
AcDbCircle
 62
2
  6
CONTINUOUS
 10
13.0426374026
 20
2.493701481
 40
0.0024741678
100
AcDbArc
 50
226.3477981898
 51
270.0031206038
  0
LINE
  5
2ED
100
AcDbEntity
  8
0
100
AcDbLine
 62
2
  6
CONTINUOUS
 10
13.0409295364
 20
2.4919113136
 11
12.9776495013
 21
2.5522893471
  0
ARC
  5
2EE
100
AcDbEntity
  8
0
100
AcDbCircle
 62
2
  6
CONTINUOUS
 10
12.9759408003
 20
2.5504984093
 40
0.0024753014
100
AcDbArc
 50
46.3461263059
 51
180.0014637321
  0
LINE
  5
2EF
100
AcDbEntity
  8
0
100
AcDbLine
 62
2
  6
CONTINUOUS
 10
12.973465499
 20
2.5504983461
 11
12.973465499
 21
2.5184523283
  0
ARC
  5
2F0
100
AcDbEntity
  8
0
100
AcDbCircle
 62
2
  6
CONTINUOUS
 10
12.9759404985
 20
2.5184523265
 40
0.0024749995
100
AcDbArc
 50
179.9999571957
 51
270.0000428043
  0
LINE
  5
2F1
100
AcDbEntity
  8
0
100
AcDbLine
 62
2
  6
CONTINUOUS
 10
12.9759405003
 20
2.515977327
 11
12.9962575116
 21
2.515977327
  0
ARC
  5
2F2
100
AcDbEntity
  8
0
100
AcDbCircle
 62
2
  6
CONTINUOUS
 10
12.9962575135
 20
2.5135023274
 40
0.0024749995
100
AcDbArc
 50
359.9999571957
 51
90.0000428043
  0
LINE
  5
2F3
100
AcDbEntity
  8
0
100
AcDbLine
 62
2
  6
CONTINUOUS
 10
12.998732513
 20
2.5135023256
 11
12.998732513
 21
2.4937023146
  0
ARC
  5
2F4
100
AcDbEntity
  8
0
100
AcDbCircle
 62
2
  6
CONTINUOUS
 10
12.9962575135
 20
2.4937023128
 40
0.0024749995
100
AcDbArc
 50
269.9999571957
 51
0.0000428043
  0
LINE
  5
2F5
100
AcDbEntity
  8
0
100
AcDbLine
 62
2
  6
CONTINUOUS
 10
12.9962575116
 20
2.4912273132
 11
12.9205934696
 21
2.4912273132
  0
ARC
  5
2F6
100
AcDbEntity
  8
0
100
AcDbCircle
 62
2
  6
CONTINUOUS
 10
12.9205934678
 20
2.4937023128
 40
0.0024749995
100
AcDbArc
 50
179.9999571957
 51
270.0000428043
  0
LINE
  5
2F7
100
AcDbEntity
  8
0
100
AcDbLine
 62
2
  6
CONTINUOUS
 10
12.9181184683
 20
2.4937023146
 11
12.9181184683
 21
2.5135023256
  0
ARC
  5
2F8
100
AcDbEntity
  8
0
100
AcDbCircle
 62
2
  6
CONTINUOUS
 10
12.9205934678
 20
2.5135023274
 40
0.0024749995
100
AcDbArc
 50
89.9999571957
 51
180.0000428042
  0
LINE
  5
2F9
100
AcDbEntity
  8
0
100
AcDbLine
 62
2
  6
CONTINUOUS
 10
12.9205934696
 20
2.515977327
 11
12.93923948
 21
2.515977327
  0
ARC
  5
2FA
100
AcDbEntity
  8
0
100
AcDbCircle
 62
2
  6
CONTINUOUS
 10
12.9392394818
 20
2.5184523265
 40
0.0024749995
100
AcDbArc
 50
269.9999571957
 51
0.0000428043
  0
LINE
  5
2FB
100
AcDbEntity
  8
0
100
AcDbLine
 62
2
  6
CONTINUOUS
 10
12.9417144814
 20
2.5184523283
 11
12.9417144814
 21
2.564807354
  0
ARC
  5
2FC
100
AcDbEntity
  8
0
100
AcDbCircle
 62
2
  6
CONTINUOUS
 10
12.9392394818
 20
2.5648073559
 40
0.0024749995
100
AcDbArc
 50
359.9999571957
 51
90.0000428043
  0
LINE
  5
2FD
100
AcDbEntity
  8
0
100
AcDbLine
 62
2
  6
CONTINUOUS
 10
12.93923948
 20
2.5672823554
 11
12.9205934696
 21
2.5672823554
  0
ARC
  5
2FE
100
AcDbEntity
  8
0
100
AcDbCircle
 62
2
  6
CONTINUOUS
 10
12.9205934678
 20
2.5697573549
 40
0.0024749995
100
AcDbArc
 50
179.9999571957
 51
270.0000428043
  0
LINE
  5
2FF
100
AcDbEntity
  8
0
100
AcDbLine
 62
2
  6
CONTINUOUS
 10
12.9181184683
 20
2.5697573568
 11
12.9181184683
 21
2.5895573678
  0
ARC
  5
300
100
AcDbEntity
  8
0
100
AcDbCircle
 62
2
  6
CONTINUOUS
 10
12.9205934678
 20
2.5895573696
 40
0.0024749995
100
AcDbArc
 50
89.9999571957
 51
180.0000428042
  0
LINE
  5
301
100
AcDbEntity
  8
0
100
AcDbLine
 62
2
  6
CONTINUOUS
 10
13.2934226764
 20
2.5324773361
 11
13.2582556569
 21
2.5324773361
  0
ARC
  5
302
100
AcDbEntity
  8
0
100
AcDbCircle
 62
2
  6
CONTINUOUS
 10
13.2582556551
 20
2.5300023366
 40
0.0024749995
100
AcDbArc
 50
89.9999571957
 51
180.0000428043
  0
LINE
  5
303
100
AcDbEntity
  8
0
100
AcDbLine
 62
2
  6
CONTINUOUS
 10
13.2557806555
 20
2.5300023347
 11
13.2557806555
 21
2.5184523283
  0
ARC
  5
304
100
AcDbEntity
  8
0
100
AcDbCircle
 62
2
  6
CONTINUOUS
 10
13.2582556551
 20
2.5184523265
 40
0.0024749995
100
AcDbArc
 50
179.9999571957
 51
270.0000428043
  0
LINE
  5
305
100
AcDbEntity
  8
0
100
AcDbLine
 62
2
  6
CONTINUOUS
 10
13.2582556569
 20
2.515977327
 11
13.3232596929
 21
2.515977327
  0
ARC
  5
306
100
AcDbEntity
  8
0
100
AcDbCircle
 62
2
  6
CONTINUOUS
 10
13.3232596948
 20
2.5184523265
 40
0.0024749995
100
AcDbArc
 50
269.9999571957
 51
0.0000428043
  0
LINE
  5
307
100
AcDbEntity
  8
0
100
AcDbLine
 62
2
  6
CONTINUOUS
 10
13.3257346943
 20
2.5184523283
 11
13.3257346943
 21
2.5267023329
  0
ARC
  5
308
100
AcDbEntity
  8
0
100
AcDbCircle
 62
2
  6
CONTINUOUS
 10
13.3282096938
 20
2.5267023348
 40
0.0024749995
100
AcDbArc
 50
89.9999571957
 51
180.0000428043
  0
LINE
  5
309
100
AcDbEntity
  8
0
100
AcDbLine
 62
2
  6
CONTINUOUS
 10
13.3282096957
 20
2.5291773343
 11
13.3705287192
 21
2.5291773343
  0
ARC
  5
30A
100
AcDbEntity
  8
0
100
AcDbCircle
 62
2
  6
CONTINUOUS
 10
13.370528721
 20
2.5267023348
 40
0.0024749995
100
AcDbArc
 50
359.9999571957
 51
90.0000428043
  0
LINE
  5
30B
100
AcDbEntity
  8
0
100
AcDbLine
 62
2
  6
CONTINUOUS
 10
13.3730037205
 20
2.5267023329
 11
13.3730037205
 21
2.4937023146
  0
ARC
  5
30C
100
AcDbEntity
  8
0
100
AcDbCircle
 62
2
  6
CONTINUOUS
 10
13.370528721
 20
2.4937023128
 40
0.0024749995
100
AcDbArc
 50
269.9999571957
 51
0.0000428043
  0
LINE
  5
30D
100
AcDbEntity
  8
0
100
AcDbLine
 62
2
  6
CONTINUOUS
 10
13.3705287192
 20
2.4912273132
 11
13.1673166065
 21
2.4912273132
  0
ARC
  5
30E
100
AcDbEntity
  8
0
100
AcDbCircle
 62
2
  6
CONTINUOUS
 10
13.1673166046
 20
2.4937023128
 40
0.0024749995
100
AcDbArc
 50
179.9999571957
 51
270.0000428043
  0
LINE
  5
30F
100
AcDbEntity
  8
0
100
AcDbLine
 62
2
  6
CONTINUOUS
 10
13.1648416051
 20
2.4937023146
 11
13.1648416051
 21
2.5135023256
  0
ARC
  5
310
100
AcDbEntity
  8
0
100
AcDbCircle
 62
2
  6
CONTINUOUS
 10
13.1673166046
 20
2.5135023274
 40
0.0024749995
100
AcDbArc
 50
89.9999571957
 51
180.0000428043
  0
LINE
  5
311
100
AcDbEntity
  8
0
100
AcDbLine
 62
2
  6
CONTINUOUS
 10
13.1673166065
 20
2.515977327
 11
13.1912396197
 21
2.515977327
  0
ARC
  5
312
100
AcDbEntity
  8
0
100
AcDbCircle
 62
2
  6
CONTINUOUS
 10
13.1912396216
 20
2.5184523265
 40
0.0024749995
100
AcDbArc
 50
269.9999571957
 51
0.0000428042
  0
LINE
  5
313
100
AcDbEntity
  8
0
100
AcDbLine
 62
2
  6
CONTINUOUS
 10
13.1937146211
 20
2.5184523283
 11
13.1937146211
 21
2.564807354
  0
ARC
  5
314
100
AcDbEntity
  8
0
100
AcDbCircle
 62
2
  6
CONTINUOUS
 10
13.1912396216
 20
2.5648073559
 40
0.0024749995
100
AcDbArc
 50
359.9999571957
 51
90.0000428043
  0
LINE
  5
315
100
AcDbEntity
  8
0
100
AcDbLine
 62
2
  6
CONTINUOUS
 10
13.1912396197
 20
2.5672823554
 11
13.1673166065
 21
2.5672823554
  0
ARC
  5
316
100
AcDbEntity
  8
0
100
AcDbCircle
 62
2
  6
CONTINUOUS
 10
13.1673166046
 20
2.5697573549
 40
0.0024749995
100
AcDbArc
 50
179.9999571957
 51
270.0000428043
  0
LINE
  5
317
100
AcDbEntity
  8
0
100
AcDbLine
 62
2
  6
CONTINUOUS
 10
13.1648416051
 20
2.5697573568
 11
13.1648416051
 21
2.5895573678
  0
ARC
  5
318
100
AcDbEntity
  8
0
100
AcDbCircle
 62
2
  6
CONTINUOUS
 10
13.1673166046
 20
2.5895573696
 40
0.0024749995
100
AcDbArc
 50
89.9999571957
 51
180.0000428043
  0
LINE
  5
319
100
AcDbEntity
  8
0
100
AcDbLine
 62
2
  6
CONTINUOUS
 10
13.1673166065
 20
2.5920323691
 11
13.3691097184
 21
2.5920323691
  0
ARC
  5
31A
100
AcDbEntity
  8
0
100
AcDbCircle
 62
2
  6
CONTINUOUS
 10
13.3691097202
 20
2.5895573696
 40
0.0024749995
100
AcDbArc
 50
359.9999571957
 51
90.0000428043
  0
LINE
  5
31B
100
AcDbEntity
  8
0
100
AcDbLine
 62
2
  6
CONTINUOUS
 10
13.3715847197
 20
2.5895573678
 11
13.3715847197
 21
2.5565573495
  0
ARC
  5
31C
100
AcDbEntity
  8
0
100
AcDbCircle
 62
2
  6
CONTINUOUS
 10
13.3691097202
 20
2.5565573476
 40
0.0024749995
100
AcDbArc
 50
269.9999571957
 51
0.0000428042
  0
LINE
  5
31D
100
AcDbEntity
  8
0
100
AcDbLine
 62
2
  6
CONTINUOUS
 10
13.3691097184
 20
2.5540823481
 11
13.3272456952
 21
2.5540823481
  0
ARC
  5
31E
100
AcDbEntity
  8
0
100
AcDbCircle
 62
2
  6
CONTINUOUS
 10
13.3272456933
 20
2.5565573476
 40
0.0024749995
100
AcDbArc
 50
179.9999571957
 51
270.0000428043
  0
LINE
  5
31F
100
AcDbEntity
  8
0
100
AcDbLine
 62
2
  6
CONTINUOUS
 10
13.3247706938
 20
2.5565573495
 11
13.3247706938
 21
2.564807354
  0
ARC
  5
320
100
AcDbEntity
  8
0
100
AcDbCircle
 62
2
  6
CONTINUOUS
 10
13.3222956943
 20
2.5648073559
 40
0.0024749995
100
AcDbArc
 50
359.9999571957
 51
90.0000428043
  0
LINE
  5
321
100
AcDbEntity
  8
0
100
AcDbLine
 62
2
  6
CONTINUOUS
 10
13.3222956924
 20
2.5672823554
 11
13.2582556569
 21
2.5672823554
  0
ARC
  5
322
100
AcDbEntity
  8
0
100
AcDbCircle
 62
2
  6
CONTINUOUS
 10
13.2582556551
 20
2.5648073559
 40
0.0024749995
100
AcDbArc
 50
89.9999571957
 51
180.0000428043
  0
LINE
  5
323
100
AcDbEntity
  8
0
100
AcDbLine
 62
2
  6
CONTINUOUS
 10
13.2557806555
 20
2.564807354
 11
13.2557806555
 21
2.5532573476
  0
ARC
  5
324
100
AcDbEntity
  8
0
100
AcDbCircle
 62
2
  6
CONTINUOUS
 10
13.2582556551
 20
2.5532573458
 40
0.0024749995
100
AcDbArc
 50
179.9999571957
 51
270.0000428043
  0
LINE
  5
325
100
AcDbEntity
  8
0
100
AcDbLine
 62
2
  6
CONTINUOUS
 10
13.2582556569
 20
2.5507823463
 11
13.2934226764
 21
2.5507823463
  0
ARC
  5
326
100
AcDbEntity
  8
0
100
AcDbCircle
 62
2
  6
CONTINUOUS
 10
13.2934226783
 20
2.5483073467
 40
0.0024749995
100
AcDbArc
 50
359.9999571957
 51
90.0000428043
  0
LINE
  5
327
100
AcDbEntity
  8
0
100
AcDbLine
 62
2
  6
CONTINUOUS
 10
13.2958976778
 20
2.5483073449
 11
13.2958976778
 21
2.5349523375
  0
ARC
  5
328
100
AcDbEntity
  8
0
100
AcDbCircle
 62
2
  6
CONTINUOUS
 10
13.2934226783
 20
2.5349523356
 40
0.0024749995
100
AcDbArc
 50
269.9999571957
 51
0.0000428042
  0
LINE
  5
329
100
AcDbEntity
  8
0
100
AcDbLine
 62
2
  6
CONTINUOUS
 10
13.7286871589
 20
2.5350697372
 11
13.7286871589
 21
2.5456869438
  0
LINE
  5
32A
100
AcDbEntity
  8
0
100
AcDbLine
 62
2
  6
CONTINUOUS
 10
13.7086871478
 20
2.5004302075
 11
13.7086871478
 21
2.5803264735
  0
LINE
  5
32B
100
AcDbEntity
  8
0
100
AcDbLine
 62
2
  6
CONTINUOUS
 10
13.6886871368
 20
2.4843919416
 11
13.6886871368
 21
2.5963647394
  0
LINE
  5
32C
100
AcDbEntity
  8
0
100
AcDbLine
 62
2
  6
CONTINUOUS
 10
13.6686871257
 20
2.4726017898
 11
13.6686871257
 21
2.6081548911
  0
LINE
  5
32D
100
AcDbEntity
  8
0
100
AcDbLine
 62
2
  6
CONTINUOUS
 10
13.6486871146
 20
2.4628062688
 11
13.6486871146
 21
2.6179504122
  0
LINE
  5
32E
100
AcDbEntity
  8
0
100
AcDbLine
 62
2
  6
CONTINUOUS
 10
13.6286871035
 20
2.4541253507
 11
13.6286871035
 21
2.5062483056
  0
LINE
  5
32F
100
AcDbEntity
  8
0
100
AcDbLine
 62
2
  6
CONTINUOUS
 10
13.6286871035
 20
2.5301143348
 11
13.6286871035
 21
2.6266313303
  0
LINE
  5
330
100
AcDbEntity
  8
0
100
AcDbLine
 62
2
  6
CONTINUOUS
 10
13.6086870924
 20
2.4465537903
 11
13.6086870924
 21
2.4918774918
  0
LINE
  5
331
100
AcDbEntity
  8
0
100
AcDbLine
 62
2
  6
CONTINUOUS
 10
13.6086870924
 20
2.5165781173
 11
13.6086870924
 21
2.6342028907
  0
LINE
  5
332
100
AcDbEntity
  8
0
100
AcDbLine
 62
2
  6
CONTINUOUS
 10
13.5886870813
 20
2.4398033466
 11
13.5886870813
 21
2.4912273132
  0
LINE
  5
333
100
AcDbEntity
  8
0
100
AcDbLine
 62
2
  6
CONTINUOUS
 10
13.5886870813
 20
2.5391840845
 11
13.5886870813
 21
2.5454298327
  0
LINE
  5
334
100
AcDbEntity
  8
0
100
AcDbLine
 62
2
  6
CONTINUOUS
 10
13.5886870813
 20
2.5862063472
 11
13.5886870813
 21
2.6409533343
  0
LINE
  5
335
100
AcDbEntity
  8
0
100
AcDbLine
 62
2
  6
CONTINUOUS
 10
13.5686870702
 20
2.4334702189
 11
13.5686870702
 21
2.4912273132
  0
LINE
  5
336
100
AcDbEntity
  8
0
100
AcDbLine
 62
2
  6
CONTINUOUS
 10
13.5686870702
 20
2.5906587765
 11
13.5686870702
 21
2.647286462
  0
LINE
  5
337
100
AcDbEntity
  8
0
100
AcDbLine
 62
2
  6
CONTINUOUS
 10
13.5486870591
 20
2.4278968124
 11
13.5486870591
 21
2.4937461006
  0
LINE
  5
338
100
AcDbEntity
  8
0
100
AcDbLine
 62
2
  6
CONTINUOUS
 10
13.5486870591
 20
2.5920323691
 11
13.5486870591
 21
2.6528598686
  0
LINE
  5
339
100
AcDbEntity
  8
0
100
AcDbLine
 62
2
  6
CONTINUOUS
 10
13.528687048
 20
2.4225427674
 11
13.528687048
 21
2.5270426993
  0
LINE
  5
33A
100
AcDbEntity
  8
0
100
AcDbLine
 62
2
  6
CONTINUOUS
 10
13.528687048
 20
2.5505166259
 11
13.528687048
 21
2.5668657091
  0
LINE
  5
33B
100
AcDbEntity
  8
0
100
AcDbLine
 62
2
  6
CONTINUOUS
 10
13.528687048
 20
2.5920323691
 11
13.528687048
 21
2.6582139136
  0
LINE
  5
33C
100
AcDbEntity
  8
0
100
AcDbLine
 62
2
  6
CONTINUOUS
 10
13.5086870369
 20
2.4177306791
 11
13.5086870369
 21
2.4912273132
  0
LINE
  5
33D
100
AcDbEntity
  8
0
100
AcDbLine
 62
2
  6
CONTINUOUS
 10
13.5086870369
 20
2.5159553269
 11
13.5086870369
 21
2.5306043351
  0
LINE
  5
33E
100
AcDbEntity
  8
0
100
AcDbLine
 62
2
  6
CONTINUOUS
 10
13.5086870369
 20
2.5496073456
 11
13.5086870369
 21
2.5672823554
  0
LINE
  5
33F
100
AcDbEntity
  8
0
100
AcDbLine
 62
2
  6
CONTINUOUS
 10
13.5086870369
 20
2.5920323691
 11
13.5086870369
 21
2.6630260019
  0
LINE
  5
340
100
AcDbEntity
  8
0
100
AcDbLine
 62
2
  6
CONTINUOUS
 10
13.4886870258
 20
2.4131795254
 11
13.4886870258
 21
2.4912273132
  0
LINE
  5
341
100
AcDbEntity
  8
0
100
AcDbLine
 62
2
  6
CONTINUOUS
 10
13.4886870258
 20
2.5159553269
 11
13.4886870258
 21
2.5306043351
  0
LINE
  5
342
100
AcDbEntity
  8
0
100
AcDbLine
 62
2
  6
CONTINUOUS
 10
13.4886870258
 20
2.5496073456
 11
13.4886870258
 21
2.5672823554
  0
LINE
  5
343
100
AcDbEntity
  8
0
100
AcDbLine
 62
2
  6
CONTINUOUS
 10
13.4886870258
 20
2.5920323691
 11
13.4886870258
 21
2.6675771555
  0
LINE
  5
344
100
AcDbEntity
  8
0
100
AcDbLine
 62
2
  6
CONTINUOUS
 10
13.4686870147
 20
2.4088819672
 11
13.4686870147
 21
2.4912273132
  0
LINE
  5
345
100
AcDbEntity
  8
0
100
AcDbLine
 62
2
  6
CONTINUOUS
 10
13.4686870147
 20
2.5920323691
 11
13.4686870147
 21
2.6718747138
  0
LINE
  5
346
100
AcDbEntity
  8
0
100
AcDbLine
 62
2
  6
CONTINUOUS
 10
13.4486870037
 20
2.4050092072
 11
13.4486870037
 21
2.4912273132
  0
LINE
  5
347
100
AcDbEntity
  8
0
100
AcDbLine
 62
2
  6
CONTINUOUS
 10
13.4486870037
 20
2.5920323691
 11
13.4486870037
 21
2.6757474738
  0
LINE
  5
348
100
AcDbEntity
  8
0
100
AcDbLine
 62
2
  6
CONTINUOUS
 10
13.4286869926
 20
2.4011364471
 11
13.4286869926
 21
2.4912273132
  0
LINE
  5
349
100
AcDbEntity
  8
0
100
AcDbLine
 62
2
  6
CONTINUOUS
 10
13.4286869926
 20
2.5920323691
 11
13.4286869926
 21
2.6796202339
  0
LINE
  5
34A
100
AcDbEntity
  8
0
100
AcDbLine
 62
2
  6
CONTINUOUS
 10
13.4086869815
 20
2.3980226662
 11
13.4086869815
 21
2.4912273132
  0
LINE
  5
34B
100
AcDbEntity
  8
0
100
AcDbLine
 62
2
  6
CONTINUOUS
 10
13.4086869815
 20
2.515977327
 11
13.4086869815
 21
2.5672823554
  0
LINE
  5
34C
100
AcDbEntity
  8
0
100
AcDbLine
 62
2
  6
CONTINUOUS
 10
13.4086869815
 20
2.5920323691
 11
13.4086869815
 21
2.6827340148
  0
LINE
  5
34D
100
AcDbEntity
  8
0
100
AcDbLine
 62
2
  6
CONTINUOUS
 10
13.3886869704
 20
2.3950052774
 11
13.3886869704
 21
2.6857514036
  0
LINE
  5
34E
100
AcDbEntity
  8
0
100
AcDbLine
 62
2
  6
CONTINUOUS
 10
13.3686869593
 20
2.3919878885
 11
13.3686869593
 21
2.4912273132
  0
LINE
  5
34F
100
AcDbEntity
  8
0
100
AcDbLine
 62
2
  6
CONTINUOUS
 10
13.3686869593
 20
2.5291773343
 11
13.3686869593
 21
2.5540823481
  0
LINE
  5
350
100
AcDbEntity
  8
0
100
AcDbLine
 62
2
  6
CONTINUOUS
 10
13.3686869593
 20
2.5920323691
 11
13.3686869593
 21
2.6887687924
  0
LINE
  5
351
100
AcDbEntity
  8
0
100
AcDbLine
 62
2
  6
CONTINUOUS
 10
13.3486869482
 20
2.3889704997
 11
13.3486869482
 21
2.4912273132
  0
LINE
  5
352
100
AcDbEntity
  8
0
100
AcDbLine
 62
2
  6
CONTINUOUS
 10
13.3486869482
 20
2.5291773343
 11
13.3486869482
 21
2.5540823481
  0
LINE
  5
353
100
AcDbEntity
  8
0
100
AcDbLine
 62
2
  6
CONTINUOUS
 10
13.3486869482
 20
2.5920323691
 11
13.3486869482
 21
2.6917861813
  0
LINE
  5
354
100
AcDbEntity
  8
0
100
AcDbLine
 62
2
  6
CONTINUOUS
 10
13.3286869371
 20
2.3859531109
 11
13.3286869371
 21
2.4912273132
  0
LINE
  5
355
100
AcDbEntity
  8
0
100
AcDbLine
 62
2
  6
CONTINUOUS
 10
13.3286869371
 20
2.5291773343
 11
13.3286869371
 21
2.5540823481
  0
LINE
  5
356
100
AcDbEntity
  8
0
100
AcDbLine
 62
2
  6
CONTINUOUS
 10
13.3286869371
 20
2.5920323691
 11
13.3286869371
 21
2.6948035701
  0
LINE
  5
357
100
AcDbEntity
  8
0
100
AcDbLine
 62
2
  6
CONTINUOUS
 10
13.308686926
 20
2.3833355437
 11
13.308686926
 21
2.4912273132
  0
LINE
  5
358
100
AcDbEntity
  8
0
100
AcDbLine
 62
2
  6
CONTINUOUS
 10
13.308686926
 20
2.515977327
 11
13.308686926
 21
2.5672823554
  0
LINE
  5
359
100
AcDbEntity
  8
0
100
AcDbLine
 62
2
  6
CONTINUOUS
 10
13.308686926
 20
2.5920323691
 11
13.308686926
 21
2.6974211373
  0
LINE
  5
35A
100
AcDbEntity
  8
0
100
AcDbLine
 62
2
  6
CONTINUOUS
 10
13.2886869149
 20
2.3812612684
 11
13.2886869149
 21
2.4912273132
  0
LINE
  5
35B
100
AcDbEntity
  8
0
100
AcDbLine
 62
2
  6
CONTINUOUS
 10
13.2886869149
 20
2.515977327
 11
13.2886869149
 21
2.5324773361
  0
LINE
  5
35C
100
AcDbEntity
  8
0
100
AcDbLine
 62
2
  6
CONTINUOUS
 10
13.2886869149
 20
2.5507823463
 11
13.2886869149
 21
2.5672823554
  0
LINE
  5
35D
100
AcDbEntity
  8
0
100
AcDbLine
 62
2
  6
CONTINUOUS
 10
13.2886869149
 20
2.5920323691
 11
13.2886869149
 21
2.6994954125
  0
LINE
  5
35E
100
AcDbEntity
  8
0
100
AcDbLine
 62
2
  6
CONTINUOUS
 10
13.2686869038
 20
2.3791869932
 11
13.2686869038
 21
2.4912273132
  0
LINE
  5
35F
100
AcDbEntity
  8
0
100
AcDbLine
 62
2
  6
CONTINUOUS
 10
13.2686869038
 20
2.515977327
 11
13.2686869038
 21
2.5324773361
  0
LINE
  5
360
100
AcDbEntity
  8
0
100
AcDbLine
 62
2
  6
CONTINUOUS
 10
13.2686869038
 20
2.5507823463
 11
13.2686869038
 21
2.5672823554
  0
LINE
  5
361
100
AcDbEntity
  8
0
100
AcDbLine
 62
2
  6
CONTINUOUS
 10
13.2686869038
 20
2.5920323691
 11
13.2686869038
 21
2.7015696878
  0
LINE
  5
362
100
AcDbEntity
  8
0
100
AcDbLine
 62
2
  6
CONTINUOUS
 10
13.2486868927
 20
2.377112718
 11
13.2486868927
 21
2.4912273132
  0
LINE
  5
363
100
AcDbEntity
  8
0
100
AcDbLine
 62
2
  6
CONTINUOUS
 10
13.2486868927
 20
2.5920323691
 11
13.2486868927
 21
2.703643963
  0
LINE
  5
364
100
AcDbEntity
  8
0
100
AcDbLine
 62
2
  6
CONTINUOUS
 10
13.2286868817
 20
2.3750384428
 11
13.2286868817
 21
2.4912273132
  0
LINE
  5
365
100
AcDbEntity
  8
0
100
AcDbLine
 62
2
  6
CONTINUOUS
 10
13.2286868817
 20
2.5920323691
 11
13.2286868817
 21
2.7057182382
  0
LINE
  5
366
100
AcDbEntity
  8
0
100
AcDbLine
 62
2
  6
CONTINUOUS
 10
13.2086868706
 20
2.3729641676
 11
13.2086868706
 21
2.4912273132
  0
LINE
  5
367
100
AcDbEntity
  8
0
100
AcDbLine
 62
2
  6
CONTINUOUS
 10
13.2086868706
 20
2.5920323691
 11
13.2086868706
 21
2.7077925134
  0
LINE
  5
368
100
AcDbEntity
  8
0
100
AcDbLine
 62
2
  6
CONTINUOUS
 10
13.1886868595
 20
2.3712344456
 11
13.1886868595
 21
2.4912273132
  0
LINE
  5
369
100
AcDbEntity
  8
0
100
AcDbLine
 62
2
  6
CONTINUOUS
 10
13.1886868595
 20
2.515977327
 11
13.1886868595
 21
2.5672823554
  0
LINE
  5
36A
100
AcDbEntity
  8
0
100
AcDbLine
 62
2
  6
CONTINUOUS
 10
13.1886868595
 20
2.5920323691
 11
13.1886868595
 21
2.7095222354
  0
LINE
  5
36B
100
AcDbEntity
  8
0
100
AcDbLine
 62
2
  6
CONTINUOUS
 10
13.1686868484
 20
2.3699682418
 11
13.1686868484
 21
2.4912273132
  0
LINE
  5
36C
100
AcDbEntity
  8
0
100
AcDbLine
 62
2
  6
CONTINUOUS
 10
13.1686868484
 20
2.515977327
 11
13.1686868484
 21
2.5672823554
  0
LINE
  5
36D
100
AcDbEntity
  8
0
100
AcDbLine
 62
2
  6
CONTINUOUS
 10
13.1686868484
 20
2.5920323691
 11
13.1686868484
 21
2.7107884392
  0
LINE
  5
36E
100
AcDbEntity
  8
0
100
AcDbLine
 62
2
  6
CONTINUOUS
 10
13.1486868373
 20
2.3687020381
 11
13.1486868373
 21
2.7120546429
  0
LINE
  5
36F
100
AcDbEntity
  8
0
100
AcDbLine
 62
2
  6
CONTINUOUS
 10
13.1286868262
 20
2.3674358343
 11
13.1286868262
 21
2.5672823554
  0
LINE
  5
370
100
AcDbEntity
  8
0
100
AcDbLine
 62
2
  6
CONTINUOUS
 10
13.1286868262
 20
2.5920323691
 11
13.1286868262
 21
2.7133208466
  0
LINE
  5
371
100
AcDbEntity
  8
0
100
AcDbLine
 62
2
  6
CONTINUOUS
 10
13.1086868151
 20
2.3661696306
 11
13.1086868151
 21
2.4912273132
  0
LINE
  5
372
100
AcDbEntity
  8
0
100
AcDbLine
 62
2
  6
CONTINUOUS
 10
13.1086868151
 20
2.5920323691
 11
13.1086868151
 21
2.7145870504
  0
LINE
  5
373
100
AcDbEntity
  8
0
100
AcDbLine
 62
2
  6
CONTINUOUS
 10
13.088686804
 20
2.3649034269
 11
13.088686804
 21
2.4912273132
  0
LINE
  5
374
100
AcDbEntity
  8
0
100
AcDbLine
 62
2
  6
CONTINUOUS
 10
13.088686804
 20
2.5920323691
 11
13.088686804
 21
2.7158532541
  0
LINE
  5
375
100
AcDbEntity
  8
0
100
AcDbLine
 62
2
  6
CONTINUOUS
 10
13.0686867929
 20
2.3636739922
 11
13.0686867929
 21
2.4912273132
  0
LINE
  5
376
100
AcDbEntity
  8
0
100
AcDbLine
 62
2
  6
CONTINUOUS
 10
13.0686867929
 20
2.5475272398
 11
13.0686867929
 21
2.5672823554
  0
LINE
  5
377
100
AcDbEntity
  8
0
100
AcDbLine
 62
2
  6
CONTINUOUS
 10
13.0686867929
 20
2.5920323691
 11
13.0686867929
 21
2.7170826887
  0
LINE
  5
378
100
AcDbEntity
  8
0
100
AcDbLine
 62
2
  6
CONTINUOUS
 10
13.0486867818
 20
2.363143203
 11
13.0486867818
 21
2.4912273132
  0
LINE
  5
379
100
AcDbEntity
  8
0
100
AcDbLine
 62
2
  6
CONTINUOUS
 10
13.0486867818
 20
2.5666100882
 11
13.0486867818
 21
2.717613478
  0
LINE
  5
37A
100
AcDbEntity
  8
0
100
AcDbLine
 62
2
  6
CONTINUOUS
 10
13.0286867707
 20
2.3626124138
 11
13.0286867707
 21
2.50359263
  0
LINE
  5
37B
100
AcDbEntity
  8
0
100
AcDbLine
 62
2
  6
CONTINUOUS
 10
13.0286867707
 20
2.5856929366
 11
13.0286867707
 21
2.7181442672
  0
LINE
  5
37C
100
AcDbEntity
  8
0
100
AcDbLine
 62
2
  6
CONTINUOUS
 10
13.0086867596
 20
2.3620816246
 11
13.0086867596
 21
2.5226754472
  0
LINE
  5
37D
100
AcDbEntity
  8
0
100
AcDbLine
 62
2
  6
CONTINUOUS
 10
13.0086867596
 20
2.5920323691
 11
13.0086867596
 21
2.7186750564
  0
LINE
  5
37E
100
AcDbEntity
  8
0
100
AcDbLine
 62
2
  6
CONTINUOUS
 10
12.9886867486
 20
2.3615508354
 11
12.9886867486
 21
2.4912273132
  0
LINE
  5
37F
100
AcDbEntity
  8
0
100
AcDbLine
 62
2
  6
CONTINUOUS
 10
12.9886867486
 20
2.515977327
 11
12.9886867486
 21
2.5417582644
  0
LINE
  5
380
100
AcDbEntity
  8
0
100
AcDbLine
 62
2
  6
CONTINUOUS
 10
12.9886867486
 20
2.5920323691
 11
12.9886867486
 21
2.7192058456
  0
LINE
  5
381
100
AcDbEntity
  8
0
100
AcDbLine
 62
2
  6
CONTINUOUS
 10
12.9686867375
 20
2.3610200462
 11
12.9686867375
 21
2.4912273132
  0
LINE
  5
382
100
AcDbEntity
  8
0
100
AcDbLine
 62
2
  6
CONTINUOUS
 10
12.9686867375
 20
2.5920323691
 11
12.9686867375
 21
2.7197366348
  0
LINE
  5
383
100
AcDbEntity
  8
0
100
AcDbLine
 62
2
  6
CONTINUOUS
 10
12.9486867264
 20
2.360489257
 11
12.9486867264
 21
2.4912273132
  0
LINE
  5
384
100
AcDbEntity
  8
0
100
AcDbLine
 62
2
  6
CONTINUOUS
 10
12.9486867264
 20
2.5920323691
 11
12.9486867264
 21
2.720267424
  0
LINE
  5
385
100
AcDbEntity
  8
0
100
AcDbLine
 62
2
  6
CONTINUOUS
 10
12.9286867153
 20
2.3602836008
 11
12.9286867153
 21
2.4912273132
  0
LINE
  5
386
100
AcDbEntity
  8
0
100
AcDbLine
 62
2
  6
CONTINUOUS
 10
12.9286867153
 20
2.515977327
 11
12.9286867153
 21
2.5672823554
  0
LINE
  5
387
100
AcDbEntity
  8
0
100
AcDbLine
 62
2
  6
CONTINUOUS
 10
12.9286867153
 20
2.5920323691
 11
12.9286867153
 21
2.7204730802
  0
LINE
  5
388
100
AcDbEntity
  8
0
100
AcDbLine
 62
2
  6
CONTINUOUS
 10
12.9086867042
 20
2.3604597639
 11
12.9086867042
 21
2.7202969171
  0
LINE
  5
389
100
AcDbEntity
  8
0
100
AcDbLine
 62
2
  6
CONTINUOUS
 10
12.8886866931
 20
2.360635927
 11
12.8886866931
 21
2.5672823554
  0
LINE
  5
38A
100
AcDbEntity
  8
0
100
AcDbLine
 62
2
  6
CONTINUOUS
 10
12.8886866931
 20
2.5920323691
 11
12.8886866931
 21
2.720120754
  0
LINE
  5
38B
100
AcDbEntity
  8
0
100
AcDbLine
 62
2
  6
CONTINUOUS
 10
12.868686682
 20
2.3608120901
 11
12.868686682
 21
2.491232357
  0
LINE
  5
38C
100
AcDbEntity
  8
0
100
AcDbLine
 62
2
  6
CONTINUOUS
 10
12.868686682
 20
2.5920323691
 11
12.868686682
 21
2.7199445909
  0
LINE
  5
38D
100
AcDbEntity
  8
0
100
AcDbLine
 62
2
  6
CONTINUOUS
 10
12.8486866709
 20
2.3609882532
 11
12.8486866709
 21
2.4912273132
  0
LINE
  5
38E
100
AcDbEntity
  8
0
100
AcDbLine
 62
2
  6
CONTINUOUS
 10
12.8486866709
 20
2.5920323691
 11
12.8486866709
 21
2.7197684278
  0
LINE
  5
38F
100
AcDbEntity
  8
0
100
AcDbLine
 62
2
  6
CONTINUOUS
 10
12.8286866598
 20
2.3611644163
 11
12.8286866598
 21
2.4912273132
  0
LINE
  5
390
100
AcDbEntity
  8
0
100
AcDbLine
 62
2
  6
CONTINUOUS
 10
12.8286866598
 20
2.5396527025
 11
12.8286866598
 21
2.5672823554
  0
LINE
  5
391
100
AcDbEntity
  8
0
100
AcDbLine
 62
2
  6
CONTINUOUS
 10
12.8286866598
 20
2.5920323691
 11
12.8286866598
 21
2.7195922647
  0
LINE
  5
392
100
AcDbEntity
  8
0
100
AcDbLine
 62
2
  6
CONTINUOUS
 10
12.8086866487
 20
2.3613405794
 11
12.8086866487
 21
2.4912273132
  0
LINE
  5
393
100
AcDbEntity
  8
0
100
AcDbLine
 62
2
  6
CONTINUOUS
 10
12.8086866487
 20
2.5587355508
 11
12.8086866487
 21
2.7194161016
  0
LINE
  5
394
100
AcDbEntity
  8
0
100
AcDbLine
 62
2
  6
CONTINUOUS
 10
12.7886866376
 20
2.3621089572
 11
12.7886866376
 21
2.4957181055
  0
LINE
  5
395
100
AcDbEntity
  8
0
100
AcDbLine
 62
2
  6
CONTINUOUS
 10
12.7886866376
 20
2.5778183992
 11
12.7886866376
 21
2.7186477238
  0
LINE
  5
396
100
AcDbEntity
  8
0
100
AcDbLine
 62
2
  6
CONTINUOUS
 10
12.7686866266
 20
2.3630013935
 11
12.7686866266
 21
2.5148009227
  0
LINE
  5
397
100
AcDbEntity
  8
0
100
AcDbLine
 62
2
  6
CONTINUOUS
 10
12.7686866266
 20
2.5920323691
 11
12.7686866266
 21
2.7177552874
  0
LINE
  5
398
100
AcDbEntity
  8
0
100
AcDbLine
 62
2
  6
CONTINUOUS
 10
12.7486866155
 20
2.3638938299
 11
12.7486866155
 21
2.4913263218
  0
LINE
  5
399
100
AcDbEntity
  8
0
100
AcDbLine
 62
2
  6
CONTINUOUS
 10
12.7486866155
 20
2.5158783184
 11
12.7486866155
 21
2.5338837399
  0
LINE
  5
39A
100
AcDbEntity
  8
0
100
AcDbLine
 62
2
  6
CONTINUOUS
 10
12.7486866155
 20
2.5920323691
 11
12.7486866155
 21
2.7168628511
  0
LINE
  5
39B
100
AcDbEntity
  8
0
100
AcDbLine
 62
2
  6
CONTINUOUS
 10
12.7286866044
 20
2.3647862663
 11
12.7286866044
 21
2.4912273132
  0
LINE
  5
39C
100
AcDbEntity
  8
0
100
AcDbLine
 62
2
  6
CONTINUOUS
 10
12.7286866044
 20
2.515977327
 11
12.7286866044
 21
2.5527601554
  0
LINE
  5
39D
100
AcDbEntity
  8
0
100
AcDbLine
 62
2
  6
CONTINUOUS
 10
12.7286866044
 20
2.5920323691
 11
12.7286866044
 21
2.7159704147
  0
LINE
  5
39E
100
AcDbEntity
  8
0
100
AcDbLine
 62
2
  6
CONTINUOUS
 10
12.7086865933
 20
2.3656787026
 11
12.7086865933
 21
2.4912273132
  0
LINE
  5
39F
100
AcDbEntity
  8
0
100
AcDbLine
 62
2
  6
CONTINUOUS
 10
12.7086865933
 20
2.5920323691
 11
12.7086865933
 21
2.7150779784
  0
LINE
  5
3A0
100
AcDbEntity
  8
0
100
AcDbLine
 62
2
  6
CONTINUOUS
 10
12.6886865822
 20
2.366571139
 11
12.6886865822
 21
2.4912273132
  0
LINE
  5
3A1
100
AcDbEntity
  8
0
100
AcDbLine
 62
2
  6
CONTINUOUS
 10
12.6886865822
 20
2.515977327
 11
12.6886865822
 21
2.5672823554
  0
LINE
  5
3A2
100
AcDbEntity
  8
0
100
AcDbLine
 62
2
  6
CONTINUOUS
 10
12.6886865822
 20
2.5920323691
 11
12.6886865822
 21
2.714185542
  0
LINE
  5
3A3
100
AcDbEntity
  8
0
100
AcDbLine
 62
2
  6
CONTINUOUS
 10
12.6686865711
 20
2.3677104027
 11
12.6686865711
 21
2.7130462783
  0
LINE
  5
3A4
100
AcDbEntity
  8
0
100
AcDbLine
 62
2
  6
CONTINUOUS
 10
12.64868656
 20
2.3693682721
 11
12.64868656
 21
2.7113884089
  0
LINE
  5
3A5
100
AcDbEntity
  8
0
100
AcDbLine
 62
2
  6
CONTINUOUS
 10
12.6286865489
 20
2.3710261415
 11
12.6286865489
 21
2.4912273132
  0
LINE
  5
3A6
100
AcDbEntity
  8
0
100
AcDbLine
 62
2
  6
CONTINUOUS
 10
12.6286865489
 20
2.515977327
 11
12.6286865489
 21
2.7097305395
  0
LINE
  5
3A7
100
AcDbEntity
  8
0
100
AcDbLine
 62
2
  6
CONTINUOUS
 10
12.6086865378
 20
2.372684011
 11
12.6086865378
 21
2.4912273132
  0
LINE
  5
3A8
100
AcDbEntity
  8
0
100
AcDbLine
 62
2
  6
CONTINUOUS
 10
12.6086865378
 20
2.5351122279
 11
12.6086865378
 21
2.70807267
  0
LINE
  5
3A9
100
AcDbEntity
  8
0
100
AcDbLine
 62
2
  6
CONTINUOUS
 10
12.5886865267
 20
2.3743418804
 11
12.5886865267
 21
2.4912273132
  0
LINE
  5
3AA
100
AcDbEntity
  8
0
100
AcDbLine
 62
2
  6
CONTINUOUS
 10
12.5886865267
 20
2.5660172622
 11
12.5886865267
 21
2.7064148006
  0
LINE
  5
3AB
100
AcDbEntity
  8
0
100
AcDbLine
 62
2
  6
CONTINUOUS
 10
12.5686865156
 20
2.3759997498
 11
12.5686865156
 21
2.4912273132
  0
LINE
  5
3AC
100
AcDbEntity
  8
0
100
AcDbLine
 62
2
  6
CONTINUOUS
 10
12.5686865156
 20
2.5920323691
 11
12.5686865156
 21
2.7047569312
  0
LINE
  5
3AD
100
AcDbEntity
  8
0
100
AcDbLine
 62
2
  6
CONTINUOUS
 10
12.5486865045
 20
2.3777575277
 11
12.5486865045
 21
2.4912273132
  0
LINE
  5
3AE
100
AcDbEntity
  8
0
100
AcDbLine
 62
2
  6
CONTINUOUS
 10
12.5486865045
 20
2.515977327
 11
12.5486865045
 21
2.5275118824
  0
LINE
  5
3AF
100
AcDbEntity
  8
0
100
AcDbLine
 62
2
  6
CONTINUOUS
 10
12.5486865045
 20
2.5920323691
 11
12.5486865045
 21
2.7029991533
  0
LINE
  5
3B0
100
AcDbEntity
  8
0
100
AcDbLine
 62
2
  6
CONTINUOUS
 10
12.5286864935
 20
2.3802813811
 11
12.5286864935
 21
2.5296213345
  0
LINE
  5
3B1
100
AcDbEntity
  8
0
100
AcDbLine
 62
2
  6
CONTINUOUS
 10
12.5286864935
 20
2.5505713461
 11
12.5286864935
 21
2.5667383551
  0
LINE
  5
3B2
100
AcDbEntity
  8
0
100
AcDbLine
 62
2
  6
CONTINUOUS
 10
12.5286864935
 20
2.5920323691
 11
12.5286864935
 21
2.7004752999
  0
LINE
  5
3B3
100
AcDbEntity
  8
0
100
AcDbLine
 62
2
  6
CONTINUOUS
 10
12.5086864824
 20
2.3828052346
 11
12.5086864824
 21
2.4912273132
  0
LINE
  5
3B4
100
AcDbEntity
  8
0
100
AcDbLine
 62
2
  6
CONTINUOUS
 10
12.5086864824
 20
2.515977327
 11
12.5086864824
 21
2.5279667721
  0
LINE
  5
3B5
100
AcDbEntity
  8
0
100
AcDbLine
 62
2
  6
CONTINUOUS
 10
12.5086864824
 20
2.5868602074
 11
12.5086864824
 21
2.6979514464
  0
LINE
  5
3B6
100
AcDbEntity
  8
0
100
AcDbLine
 62
2
  6
CONTINUOUS
 10
12.4886864713
 20
2.385329088
 11
12.4886864713
 21
2.4912273132
  0
LINE
  5
3B7
100
AcDbEntity
  8
0
100
AcDbLine
 62
2
  6
CONTINUOUS
 10
12.4886864713
 20
2.5553401045
 11
12.4886864713
 21
2.695427593
  0
LINE
  5
3B8
100
AcDbEntity
  8
0
100
AcDbLine
 62
2
  6
CONTINUOUS
 10
12.4686864602
 20
2.3878529415
 11
12.4686864602
 21
2.4912273132
  0
LINE
  5
3B9
100
AcDbEntity
  8
0
100
AcDbLine
 62
2
  6
CONTINUOUS
 10
12.4686864602
 20
2.5238200015
 11
12.4686864602
 21
2.6929037395
  0
LINE
  5
3BA
100
AcDbEntity
  8
0
100
AcDbLine
 62
2
  6
CONTINUOUS
 10
12.4486864491
 20
2.390376795
 11
12.4486864491
 21
2.4912273132
  0
LINE
  5
3BB
100
AcDbEntity
  8
0
100
AcDbLine
 62
2
  6
CONTINUOUS
 10
12.4486864491
 20
2.515977327
 11
12.4486864491
 21
2.690379886
  0
LINE
  5
3BC
100
AcDbEntity
  8
0
100
AcDbLine
 62
2
  6
CONTINUOUS
 10
12.428686438
 20
2.3931794042
 11
12.428686438
 21
2.6875772768
  0
LINE
  5
3BD
100
AcDbEntity
  8
0
100
AcDbLine
 62
2
  6
CONTINUOUS
 10
12.4086864269
 20
2.3964643301
 11
12.4086864269
 21
2.5013773986
  0
LINE
  5
3BE
100
AcDbEntity
  8
0
100
AcDbLine
 62
2
  6
CONTINUOUS
 10
12.4086864269
 20
2.5325739971
 11
12.4086864269
 21
2.5537224311
  0
LINE
  5
3BF
100
AcDbEntity
  8
0
100
AcDbLine
 62
2
  6
CONTINUOUS
 10
12.4086864269
 20
2.5791473398
 11
12.4086864269
 21
2.6842923509
  0
LINE
  5
3C0
100
AcDbEntity
  8
0
100
AcDbLine
 62
2
  6
CONTINUOUS
 10
12.3886864158
 20
2.399749256
 11
12.3886864158
 21
2.4921022658
  0
LINE
  5
3C1
100
AcDbEntity
  8
0
100
AcDbLine
 62
2
  6
CONTINUOUS
 10
12.3886864158
 20
2.5895929958
 11
12.3886864158
 21
2.681007425
  0
LINE
  5
3C2
100
AcDbEntity
  8
0
100
AcDbLine
 62
2
  6
CONTINUOUS
 10
12.3686864047
 20
2.403451877
 11
12.3686864047
 21
2.4912273132
  0
LINE
  5
3C3
100
AcDbEntity
  8
0
100
AcDbLine
 62
2
  6
CONTINUOUS
 10
12.3686864047
 20
2.5920323691
 11
12.3686864047
 21
2.677304804
  0
LINE
  5
3C4
100
AcDbEntity
  8
0
100
AcDbLine
 62
2
  6
CONTINUOUS
 10
12.3486863936
 20
2.407324637
 11
12.3486863936
 21
2.4912273132
  0
LINE
  5
3C5
100
AcDbEntity
  8
0
100
AcDbLine
 62
2
  6
CONTINUOUS
 10
12.3486863936
 20
2.5920323691
 11
12.3486863936
 21
2.673432044
  0
LINE
  5
3C6
100
AcDbEntity
  8
0
100
AcDbLine
 62
2
  6
CONTINUOUS
 10
12.3286863825
 20
2.4113493968
 11
12.3286863825
 21
2.4912273132
  0
LINE
  5
3C7
100
AcDbEntity
  8
0
100
AcDbLine
 62
2
  6
CONTINUOUS
 10
12.3286863825
 20
2.515977327
 11
12.3286863825
 21
2.5333023366
  0
LINE
  5
3C8
100
AcDbEntity
  8
0
100
AcDbLine
 62
2
  6
CONTINUOUS
 10
12.3286863825
 20
2.5499573458
 11
12.3286863825
 21
2.5672823554
  0
LINE
  5
3C9
100
AcDbEntity
  8
0
100
AcDbLine
 62
2
  6
CONTINUOUS
 10
12.3286863825
 20
2.5920323691
 11
12.3286863825
 21
2.6694072842
  0
LINE
  5
3CA
100
AcDbEntity
  8
0
100
AcDbLine
 62
2
  6
CONTINUOUS
 10
12.3086863715
 20
2.4159005505
 11
12.3086863715
 21
2.4912273132
  0
LINE
  5
3CB
100
AcDbEntity
  8
0
100
AcDbLine
 62
2
  6
CONTINUOUS
 10
12.3086863715
 20
2.515977327
 11
12.3086863715
 21
2.5333023366
  0
LINE
  5
3CC
100
AcDbEntity
  8
0
100
AcDbLine
 62
2
  6
CONTINUOUS
 10
12.3086863715
 20
2.5499573458
 11
12.3086863715
 21
2.5672823554
  0
LINE
  5
3CD
100
AcDbEntity
  8
0
100
AcDbLine
 62
2
  6
CONTINUOUS
 10
12.3086863715
 20
2.5920323691
 11
12.3086863715
 21
2.6648561305
  0
LINE
  5
3CE
100
AcDbEntity
  8
0
100
AcDbLine
 62
2
  6
CONTINUOUS
 10
12.2886863604
 20
2.4204517041
 11
12.2886863604
 21
2.4912273132
  0
LINE
  5
3CF
100
AcDbEntity
  8
0
100
AcDbLine
 62
2
  6
CONTINUOUS
 10
12.2886863604
 20
2.5920323691
 11
12.2886863604
 21
2.6603049769
  0
LINE
  5
3D0
100
AcDbEntity
  8
0
100
AcDbLine
 62
2
  6
CONTINUOUS
 10
12.2686863493
 20
2.4257438218
 11
12.2686863493
 21
2.4912273132
  0
LINE
  5
3D1
100
AcDbEntity
  8
0
100
AcDbLine
 62
2
  6
CONTINUOUS
 10
12.2686863493
 20
2.5920323691
 11
12.2686863493
 21
2.6550128592
  0
LINE
  5
3D2
100
AcDbEntity
  8
0
100
AcDbLine
 62
2
  6
CONTINUOUS
 10
12.2486863382
 20
2.4310978667
 11
12.2486863382
 21
2.4912273132
  0
LINE
  5
3D3
100
AcDbEntity
  8
0
100
AcDbLine
 62
2
  6
CONTINUOUS
 10
12.2486863382
 20
2.5920323691
 11
12.2486863382
 21
2.6496588142
  0
LINE
  5
3D4
100
AcDbEntity
  8
0
100
AcDbLine
 62
2
  6
CONTINUOUS
 10
12.2286863271
 20
2.4372566433
 11
12.2286863271
 21
2.4912273132
  0
LINE
  5
3D5
100
AcDbEntity
  8
0
100
AcDbLine
 62
2
  6
CONTINUOUS
 10
12.2286863271
 20
2.515977327
 11
12.2286863271
 21
2.5672823554
  0
LINE
  5
3D6
100
AcDbEntity
  8
0
100
AcDbLine
 62
2
  6
CONTINUOUS
 10
12.2286863271
 20
2.5920323691
 11
12.2286863271
 21
2.6435000377
  0
LINE
  5
3D7
100
AcDbEntity
  8
0
100
AcDbLine
 62
2
  6
CONTINUOUS
 10
12.208686316
 20
2.443589771
 11
12.208686316
 21
2.4912273132
  0
LINE
  5
3D8
100
AcDbEntity
  8
0
100
AcDbLine
 62
2
  6
CONTINUOUS
 10
12.208686316
 20
2.515977327
 11
12.208686316
 21
2.5672823554
  0
LINE
  5
3D9
100
AcDbEntity
  8
0
100
AcDbLine
 62
2
  6
CONTINUOUS
 10
12.208686316
 20
2.5920323691
 11
12.208686316
 21
2.63716691
  0
LINE
  5
3DA
100
AcDbEntity
  8
0
100
AcDbLine
 62
2
  6
CONTINUOUS
 10
12.1886863049
 20
2.4510806436
 11
12.1886863049
 21
2.6296760373
  0
LINE
  5
3DB
100
AcDbEntity
  8
0
100
AcDbLine
 62
2
  6
CONTINUOUS
 10
12.1686862938
 20
2.4591016523
 11
12.1686862938
 21
2.6216550287
  0
LINE
  5
3DC
100
AcDbEntity
  8
0
100
AcDbLine
 62
2
  6
CONTINUOUS
 10
12.1486862827
 20
2.468314272
 11
12.1486862827
 21
2.612442409
  0
LINE
  5
3DD
100
AcDbEntity
  8
0
100
AcDbLine
 62
2
  6
CONTINUOUS
 10
12.1286862716
 20
2.4794932339
 11
12.1286862716
 21
2.601263447
  0
LINE
  5
3DE
100
AcDbEntity
  8
0
100
AcDbLine
 62
2
  6
CONTINUOUS
 10
12.1086862605
 20
2.4934150665
 11
12.1086862605
 21
2.5873416144
  0
LINE
  5
3DF
100
AcDbEntity
  8
0
100
AcDbLine
 62
2
  6
CONTINUOUS
 10
12.0886862494
 20
2.5144449553
 11
12.0886862494
 21
2.5663117257
  0
ENDBLK
  5
3E0
100
AcDbEntity
  8
0
  6
BYBLOCK
 62
0
100
AcDbBlockEnd
  0
BLOCK
  5
3E1
100
AcDbEntity
  8
SCHEME_DIMS
100
AcDbBlockBegin
 62
2
  6
CONTINUOUS
  2
*D0
 70
65
 10
0.0
 20
0.0
  3
*D0
  1

  0
TEXT
  5
3E2
100
AcDbEntity
  8
SCHEME_DIMS
100
AcDbText
 62
2
  6
CONTINUOUS
 10
5.5506860623
 20
8.9572054958
  7
STANDARD
 40
0.1
  1
%%c
 41
1.3333333333
 72
0
100
AcDbText
  0
TEXT
  5
3E3
100
AcDbEntity
  8
SCHEME_DIMS
100
AcDbText
 62
2
  6
CONTINUOUS
 10
5.6840193957
 20
8.9572054958
  7
STANDARD
 40
0.1
  1
5,4
 41
1.0
 72
0
100
AcDbText
  0
TEXT
  5
3E4
100
AcDbEntity
  8
SCHEME_DIMS
100
AcDbText
 62
2
  6
CONTINUOUS
 10
5.7840193957
 20
8.8072054958
  7
STANDARD
 40
0.1
  1
.21
 41
1.0
 72
0
100
AcDbText
  0
TEXT
  5
3E5
100
AcDbEntity
  8
SCHEME_DIMS
100
AcDbText
 62
2
  6
CONTINUOUS
 10
5.6840193957
 20
8.8072054958
  7
STANDARD
 40
0.1
  1
[
 41
1.0
 72
0
100
AcDbText
  0
TEXT
  5
3E6
100
AcDbEntity
  8
SCHEME_DIMS
100
AcDbText
 62
2
  6
CONTINUOUS
 10
6.0840193957
 20
8.8072054958
  7
STANDARD
 40
0.1
  1
]
 41
1.0
 72
0
100
AcDbText
  0
LINE
  5
3E7
100
AcDbEntity
  8
SCHEME_DIMS
100
AcDbLine
 62
2
  6
CONTINUOUS
 10
4.277951082
 20
8.0716660415
 11
5.3006860623
 21
9.0072054958
  0
LINE
  5
3E8
100
AcDbEntity
  8
SCHEME_DIMS
100
AcDbLine
 62
2
  6
CONTINUOUS
 10
5.3006860623
 20
9.0072054958
 11
5.4506860623
 21
9.0072054958
  0
INSERT
  5
3E9
100
AcDbEntity
  8
SCHEME_DIMS
100
AcDbBlockReference
 62
2
  6
CONTINUOUS
  2
_FILLED
 10
4.277951082
 20
8.0716660415
 41
0.1875
 42
0.1875
 43
0.1875
 50
222.4504912192
  0
ENDBLK
  5
3EA
100
AcDbEntity
  8
0
  6
BYBLOCK
 62
0
100
AcDbBlockEnd
  0
BLOCK
  5
3EB
100
AcDbEntity
  8
SCHEME_DIMS
100
AcDbBlockBegin
 62
2
  6
CONTINUOUS
  2
*D1
 70
65
 10
0.0
 20
0.0
  3
*D1
  1

  0
TEXT
  5
3EC
100
AcDbEntity
  8
SCHEME_DIMS
100
AcDbText
 62
2
  6
CONTINUOUS
 10
3.3324677068
 20
9.4544684161
  7
STANDARD
 40
0.1
  1
28,8
 41
1.0
 72
0
100
AcDbText
  0
TEXT
  5
3ED
100
AcDbEntity
  8
SCHEME_DIMS
100
AcDbText
 62
2
  6
CONTINUOUS
 10
3.4324677068
 20
9.3044684161
  7
STANDARD
 40
0.1
  1
1.14
 41
1.0
 72
0
100
AcDbText
  0
TEXT
  5
3EE
100
AcDbEntity
  8
SCHEME_DIMS
100
AcDbText
 62
2
  6
CONTINUOUS
 10
3.3324677068
 20
9.3044684161
  7
STANDARD
 40
0.1
  1
[
 41
1.0
 72
0
100
AcDbText
  0
TEXT
  5
3EF
100
AcDbEntity
  8
SCHEME_DIMS
100
AcDbText
 62
2
  6
CONTINUOUS
 10
3.8324677068
 20
9.3044684161
  7
STANDARD
 40
0.1
  1
]
 41
1.0
 72
0
100
AcDbText
  0
LINE
  5
3F0
100
AcDbEntity
  8
SCHEME_DIMS
100
AcDbLine
 62
2
  6
CONTINUOUS
 10
3.0646921163
 20
8.574250712
 11
3.0646921163
 21
9.6294684161
  0
LINE
  5
3F1
100
AcDbEntity
  8
SCHEME_DIMS
100
AcDbLine
 62
2
  6
CONTINUOUS
 10
4.2002432974
 20
9.1884053242
 11
4.2002432974
 21
9.6294684161
  0
LINE
  5
3F2
100
AcDbEntity
  8
SCHEME_DIMS
100
AcDbLine
 62
2
  6
CONTINUOUS
 10
3.0646921163
 20
9.5044684161
 11
2.6646921163
 21
9.5044684161
  0
LINE
  5
3F3
100
AcDbEntity
  8
SCHEME_DIMS
100
AcDbLine
 62
2
  6
CONTINUOUS
 10
4.2002432974
 20
9.5044684161
 11
4.6002432974
 21
9.5044684161
  0
INSERT
  5
3F4
100
AcDbEntity
  8
SCHEME_DIMS
100
AcDbBlockReference
 62
2
  6
CONTINUOUS
  2
_FILLED
 10
3.0646921163
 20
9.5044684161
 41
0.1875
 42
0.1875
 43
0.1875
  0
INSERT
  5
3F5
100
AcDbEntity
  8
SCHEME_DIMS
100
AcDbBlockReference
 62
2
  6
CONTINUOUS
  2
_FILLED
 10
4.2002432974
 20
9.5044684161
 41
0.1875
 42
0.1875
 43
0.1875
 50
180.0
  0
ENDBLK
  5
3F6
100
AcDbEntity
  8
0
  6
BYBLOCK
 62
0
100
AcDbBlockEnd
  0
BLOCK
  5
3F7
100
AcDbEntity
  8
SCHEME_DIMS
100
AcDbBlockBegin
 62
2
  6
CONTINUOUS
  2
*D2
 70
65
 10
0.0
 20
0.0
  3
*D2
  1

  0
TEXT
  5
3F8
100
AcDbEntity
  8
SCHEME_DIMS
100
AcDbText
 62
2
  6
CONTINUOUS
 10
5.8228401957
 20
7.1845973913
  7
STANDARD
 40
0.1
  1
R
 41
1.0
 72
0
100
AcDbText
  0
TEXT
  5
3F9
100
AcDbEntity
  8
SCHEME_DIMS
100
AcDbText
 62
2
  6
CONTINUOUS
 10
5.9228401957
 20
7.1845973913
  7
STANDARD
 40
0.1
  1
25,5
 41
1.0
 72
0
100
AcDbText
  0
TEXT
  5
3FA
100
AcDbEntity
  8
SCHEME_DIMS
100
AcDbText
 62
2
  6
CONTINUOUS
 10
6.0228401957
 20
7.0345973913
  7
STANDARD
 40
0.1
  1
1.00
 41
1.0
 72
0
100
AcDbText
  0
TEXT
  5
3FB
100
AcDbEntity
  8
SCHEME_DIMS
100
AcDbText
 62
2
  6
CONTINUOUS
 10
5.9228401957
 20
7.0345973913
  7
STANDARD
 40
0.1
  1
[
 41
1.0
 72
0
100
AcDbText
  0
TEXT
  5
3FC
100
AcDbEntity
  8
SCHEME_DIMS
100
AcDbText
 62
2
  6
CONTINUOUS
 10
6.4228401957
 20
7.0345973913
  7
STANDARD
 40
0.1
  1
]
 41
1.0
 72
0
100
AcDbText
  0
LINE
  5
3FD
100
AcDbEntity
  8
SCHEME_DIMS
100
AcDbLine
 62
2
  6
CONTINUOUS
 10
5.0769099275
 20
7.5113542818
 11
5.5728401957
 21
7.2345973913
  0
LINE
  5
3FE
100
AcDbEntity
  8
SCHEME_DIMS
100
AcDbLine
 62
2
  6
CONTINUOUS
 10
5.5728401957
 20
7.2345973913
 11
5.7228401957
 21
7.2345973913
  0
INSERT
  5
3FF
100
AcDbEntity
  8
SCHEME_DIMS
100
AcDbBlockReference
 62
2
  6
CONTINUOUS
  2
_FILLED
 10
5.0769099275
 20
7.5113542818
 41
0.1875
 42
0.1875
 43
0.1875
 50
150.83603357
  0
ENDBLK
  5
400
100
AcDbEntity
  8
0
  6
BYBLOCK
 62
0
100
AcDbBlockEnd
  0
BLOCK
  5
401
100
AcDbEntity
  8
SCHEME_DIMS
100
AcDbBlockBegin
 62
2
  6
CONTINUOUS
  2
*D3
 70
65
 10
0.0
 20
0.0
  3
*D3
  1

  0
TEXT
  5
402
100
AcDbEntity
  8
SCHEME_DIMS
100
AcDbText
 62
2
  6
CONTINUOUS
 10
5.4041803053
 20
4.0254616293
  7
STANDARD
 40
0.1
  1
35,8
 41
1.0
 72
0
100
AcDbText
  0
TEXT
  5
403
100
AcDbEntity
  8
SCHEME_DIMS
100
AcDbText
 62
2
  6
CONTINUOUS
 10
5.5041803053
 20
3.8754616293
  7
STANDARD
 40
0.1
  1
1.41
 41
1.0
 72
0
100
AcDbText
  0
TEXT
  5
404
100
AcDbEntity
  8
SCHEME_DIMS
100
AcDbText
 62
2
  6
CONTINUOUS
 10
5.4041803053
 20
3.8754616293
  7
STANDARD
 40
0.1
  1
[
 41
1.0
 72
0
100
AcDbText
  0
TEXT
  5
405
100
AcDbEntity
  8
SCHEME_DIMS
100
AcDbText
 62
2
  6
CONTINUOUS
 10
5.9041803053
 20
3.8754616293
  7
STANDARD
 40
0.1
  1
]
 41
1.0
 72
0
100
AcDbText
  0
LINE
  5
406
100
AcDbEntity
  8
SCHEME_DIMS
100
AcDbLine
 62
2
  6
CONTINUOUS
 10
5.2666803053
 20
3.2957372199
 11
5.8291803053
 21
3.2957372199
  0
LINE
  5
407
100
AcDbEntity
  8
SCHEME_DIMS
100
AcDbLine
 62
2
  6
CONTINUOUS
 10
3.0225858171
 20
4.7051860388
 11
5.8291803053
 21
4.7051860388
  0
LINE
  5
408
100
AcDbEntity
  8
SCHEME_DIMS
100
AcDbLine
 62
2
  6
CONTINUOUS
 10
5.7041803053
 20
3.2957372199
 11
5.7041803053
 21
3.7754616293
  0
LINE
  5
409
100
AcDbEntity
  8
SCHEME_DIMS
100
AcDbLine
 62
2
  6
CONTINUOUS
 10
5.7041803053
 20
4.7051860388
 11
5.7041803053
 21
4.2254616293
  0
INSERT
  5
40A
100
AcDbEntity
  8
SCHEME_DIMS
100
AcDbBlockReference
 62
2
  6
CONTINUOUS
  2
_FILLED
 10
5.7041803053
 20
3.2957372199
 41
0.1875
 42
0.1875
 43
0.1875
 50
270.0
  0
INSERT
  5
40B
100
AcDbEntity
  8
SCHEME_DIMS
100
AcDbBlockReference
 62
2
  6
CONTINUOUS
  2
_FILLED
 10
5.7041803053
 20
4.7051860388
 41
0.1875
 42
0.1875
 43
0.1875
 50
90.0
  0
ENDBLK
  5
40C
100
AcDbEntity
  8
0
  6
BYBLOCK
 62
0
100
AcDbBlockEnd
  0
BLOCK
  5
40D
100
AcDbEntity
  8
SCHEME_DIMS
100
AcDbBlockBegin
 62
2
  6
CONTINUOUS
  2
*D4
 70
65
 10
0.0
 20
0.0
  3
*D4
  1

  0
TEXT
  5
40E
100
AcDbEntity
  8
SCHEME_DIMS
100
AcDbText
 62
2
  6
CONTINUOUS
 10
3.1528990086
 20
2.3707372199
  7
STANDARD
 40
0.1
  1
89
 41
1.0
 72
0
100
AcDbText
  0
TEXT
  5
40F
100
AcDbEntity
  8
SCHEME_DIMS
100
AcDbText
 62
2
  6
CONTINUOUS
 10
3.2528990086
 20
2.2207372199
  7
STANDARD
 40
0.1
  1
3.50
 41
1.0
 72
0
100
AcDbText
  0
TEXT
  5
410
100
AcDbEntity
  8
SCHEME_DIMS
100
AcDbText
 62
2
  6
CONTINUOUS
 10
3.1528990086
 20
2.2207372199
  7
STANDARD
 40
0.1
  1
[
 41
1.0
 72
0
100
AcDbText
  0
TEXT
  5
411
100
AcDbEntity
  8
SCHEME_DIMS
100
AcDbText
 62
2
  6
CONTINUOUS
 10
3.6528990086
 20
2.2207372199
  7
STANDARD
 40
0.1
  1
]
 41
1.0
 72
0
100
AcDbText
  0
LINE
  5
412
100
AcDbEntity
  8
SCHEME_DIMS
100
AcDbLine
 62
2
  6
CONTINUOUS
 10
1.701617712
 20
3.7927861527
 11
1.701617712
 21
2.2957372199
  0
LINE
  5
413
100
AcDbEntity
  8
SCHEME_DIMS
100
AcDbLine
 62
2
  6
CONTINUOUS
 10
5.2041803053
 20
3.2165135515
 11
5.2041803053
 21
2.2957372199
  0
LINE
  5
414
100
AcDbEntity
  8
SCHEME_DIMS
100
AcDbLine
 62
2
  6
CONTINUOUS
 10
1.701617712
 20
2.4207372199
 11
3.0528990086
 21
2.4207372199
  0
LINE
  5
415
100
AcDbEntity
  8
SCHEME_DIMS
100
AcDbLine
 62
2
  6
CONTINUOUS
 10
5.2041803053
 20
2.4207372199
 11
3.8528990086
 21
2.4207372199
  0
INSERT
  5
416
100
AcDbEntity
  8
SCHEME_DIMS
100
AcDbBlockReference
 62
2
  6
CONTINUOUS
  2
_FILLED
 10
1.701617712
 20
2.4207372199
 41
0.1875
 42
0.1875
 43
0.1875
 50
180.0
  0
INSERT
  5
417
100
AcDbEntity
  8
SCHEME_DIMS
100
AcDbBlockReference
 62
2
  6
CONTINUOUS
  2
_FILLED
 10
5.2041803053
 20
2.4207372199
 41
0.1875
 42
0.1875
 43
0.1875
  0
ENDBLK
  5
418
100
AcDbEntity
  8
0
  6
BYBLOCK
 62
0
100
AcDbBlockEnd
  0
BLOCK
  5
419
100
AcDbEntity
  8
SCHEME_DIMS
100
AcDbBlockBegin
 62
2
  6
CONTINUOUS
  2
*D5
 70
65
 10
0.0
 20
0.0
  3
*D5
  1

  0
TEXT
  5
41A
100
AcDbEntity
  8
SCHEME_DIMS
100
AcDbText
 62
2
  6
CONTINUOUS
 10
7.9589827513
 20
7.1899291575
  7
STANDARD
 40
0.1
  1
68,7
 41
1.0
 72
0
100
AcDbText
  0
TEXT
  5
41B
100
AcDbEntity
  8
SCHEME_DIMS
100
AcDbText
 62
2
  6
CONTINUOUS
 10
8.0589827513
 20
7.0399291575
  7
STANDARD
 40
0.1
  1
2.71
 41
1.0
 72
0
100
AcDbText
  0
TEXT
  5
41C
100
AcDbEntity
  8
SCHEME_DIMS
100
AcDbText
 62
2
  6
CONTINUOUS
 10
7.9589827513
 20
7.0399291575
  7
STANDARD
 40
0.1
  1
[
 41
1.0
 72
0
100
AcDbText
  0
TEXT
  5
41D
100
AcDbEntity
  8
SCHEME_DIMS
100
AcDbText
 62
2
  6
CONTINUOUS
 10
8.4589827513
 20
7.0399291575
  7
STANDARD
 40
0.1
  1
]
 41
1.0
 72
0
100
AcDbText
  0
LINE
  5
41E
100
AcDbEntity
  8
SCHEME_DIMS
100
AcDbLine
 62
2
  6
CONTINUOUS
 10
9.3141047986
 20
5.8116070275
 11
8.1339827513
 21
5.8116070275
  0
LINE
  5
41F
100
AcDbEntity
  8
SCHEME_DIMS
100
AcDbLine
 62
2
  6
CONTINUOUS
 10
9.5163646411
 20
8.5182512874
 11
8.1339827513
 21
8.5182512874
  0
LINE
  5
420
100
AcDbEntity
  8
SCHEME_DIMS
100
AcDbLine
 62
2
  6
CONTINUOUS
 10
8.2589827513
 20
5.8116070275
 11
8.2589827513
 21
6.9399291575
  0
LINE
  5
421
100
AcDbEntity
  8
SCHEME_DIMS
100
AcDbLine
 62
2
  6
CONTINUOUS
 10
8.2589827513
 20
8.5182512874
 11
8.2589827513
 21
7.3899291575
  0
INSERT
  5
422
100
AcDbEntity
  8
SCHEME_DIMS
100
AcDbBlockReference
 62
2
  6
CONTINUOUS
  2
_FILLED
 10
8.2589827513
 20
5.8116070275
 41
0.1875
 42
0.1875
 43
0.1875
 50
270.0
  0
INSERT
  5
423
100
AcDbEntity
  8
SCHEME_DIMS
100
AcDbBlockReference
 62
2
  6
CONTINUOUS
  2
_FILLED
 10
8.2589827513
 20
8.5182512874
 41
0.1875
 42
0.1875
 43
0.1875
 50
90.0
  0
ENDBLK
  5
424
100
AcDbEntity
  8
0
  6
BYBLOCK
 62
0
100
AcDbBlockEnd
  0
BLOCK
  5
425
100
AcDbEntity
  8
SCHEME_DIMS
100
AcDbBlockBegin
 62
2
  6
CONTINUOUS
  2
*D6
 70
65
 10
0.0
 20
0.0
  3
*D6
  1

  0
TEXT
  5
426
100
AcDbEntity
  8
SCHEME_DIMS
100
AcDbText
 62
2
  6
CONTINUOUS
 10
8.3839827513
 20
8.2844173464
  7
STANDARD
 40
0.1
  1
13,1
 41
1.0
 72
0
100
AcDbText
  0
TEXT
  5
427
100
AcDbEntity
  8
SCHEME_DIMS
100
AcDbText
 62
2
  6
CONTINUOUS
 10
8.4839827513
 20
8.1344173464
  7
STANDARD
 40
0.1
  1
.52
 41
1.0
 72
0
100
AcDbText
  0
TEXT
  5
428
100
AcDbEntity
  8
SCHEME_DIMS
100
AcDbText
 62
2
  6
CONTINUOUS
 10
8.3839827513
 20
8.1344173464
  7
STANDARD
 40
0.1
  1
[
 41
1.0
 72
0
100
AcDbText
  0
TEXT
  5
429
100
AcDbEntity
  8
SCHEME_DIMS
100
AcDbText
 62
2
  6
CONTINUOUS
 10
8.7839827513
 20
8.1344173464
  7
STANDARD
 40
0.1
  1
]
 41
1.0
 72
0
100
AcDbText
  0
LINE
  5
42A
100
AcDbEntity
  8
SCHEME_DIMS
100
AcDbLine
 62
2
  6
CONTINUOUS
 10
9.046027623
 20
8.0005834055
 11
8.5089827513
 21
8.0005834055
  0
LINE
  5
42B
100
AcDbEntity
  8
SCHEME_DIMS
100
AcDbLine
 62
2
  6
CONTINUOUS
 10
9.5163646411
 20
8.5182512874
 11
8.5089827513
 21
8.5182512874
  0
LINE
  5
42C
100
AcDbEntity
  8
SCHEME_DIMS
100
AcDbLine
 62
2
  6
CONTINUOUS
 10
8.6339827513
 20
8.0005834055
 11
8.6339827513
 21
7.6005834055
  0
LINE
  5
42D
100
AcDbEntity
  8
SCHEME_DIMS
100
AcDbLine
 62
2
  6
CONTINUOUS
 10
8.6339827513
 20
8.5182512874
 11
8.6339827513
 21
8.9182512874
  0
INSERT
  5
42E
100
AcDbEntity
  8
SCHEME_DIMS
100
AcDbBlockReference
 62
2
  6
CONTINUOUS
  2
_FILLED
 10
8.6339827513
 20
8.0005834055
 41
0.1875
 42
0.1875
 43
0.1875
 50
90.0
  0
INSERT
  5
42F
100
AcDbEntity
  8
SCHEME_DIMS
100
AcDbBlockReference
 62
2
  6
CONTINUOUS
  2
_FILLED
 10
8.6339827513
 20
8.5182512874
 41
0.1875
 42
0.1875
 43
0.1875
 50
270.0
  0
ENDBLK
  5
430
100
AcDbEntity
  8
0
  6
BYBLOCK
 62
0
100
AcDbBlockEnd
  0
BLOCK
  5
431
100
AcDbEntity
  8
SCHEME_DIMS
100
AcDbBlockBegin
 62
2
  6
CONTINUOUS
  2
*D7
 70
65
 10
0.0
 20
0.0
  3
*D7
  1

  0
TEXT
  5
432
100
AcDbEntity
  8
SCHEME_DIMS
100
AcDbText
 62
2
  6
CONTINUOUS
 10
1.8446312921
 20
2.7457372199
  7
STANDARD
 40
0.1
  1
20
 41
1.0
 72
0
100
AcDbText
  0
TEXT
  5
433
100
AcDbEntity
  8
SCHEME_DIMS
100
AcDbText
 62
2
  6
CONTINUOUS
 10
1.9446312921
 20
2.5957372199
  7
STANDARD
 40
0.1
  1
.79
 41
1.0
 72
0
100
AcDbText
  0
TEXT
  5
434
100
AcDbEntity
  8
SCHEME_DIMS
100
AcDbText
 62
2
  6
CONTINUOUS
 10
1.8446312921
 20
2.5957372199
  7
STANDARD
 40
0.1
  1
[
 41
1.0
 72
0
100
AcDbText
  0
TEXT
  5
435
100
AcDbEntity
  8
SCHEME_DIMS
100
AcDbText
 62
2
  6
CONTINUOUS
 10
2.2446312921
 20
2.5957372199
  7
STANDARD
 40
0.1
  1
]
 41
1.0
 72
0
100
AcDbText
  0
LINE
  5
436
100
AcDbEntity
  8
SCHEME_DIMS
100
AcDbLine
 62
2
  6
CONTINUOUS
 10
2.4876448722
 20
3.6130639915
 11
2.4876448722
 21
2.6707372199
  0
LINE
  5
437
100
AcDbEntity
  8
SCHEME_DIMS
100
AcDbLine
 62
2
  6
CONTINUOUS
 10
1.701617712
 20
3.8340234333
 11
1.701617712
 21
2.6707372199
  0
LINE
  5
438
100
AcDbEntity
  8
SCHEME_DIMS
100
AcDbLine
 62
2
  6
CONTINUOUS
 10
2.4876448722
 20
2.7957372199
 11
2.8876448722
 21
2.7957372199
  0
LINE
  5
439
100
AcDbEntity
  8
SCHEME_DIMS
100
AcDbLine
 62
2
  6
CONTINUOUS
 10
1.701617712
 20
2.7957372199
 11
1.301617712
 21
2.7957372199
  0
INSERT
  5
43A
100
AcDbEntity
  8
SCHEME_DIMS
100
AcDbBlockReference
 62
2
  6
CONTINUOUS
  2
_FILLED
 10
2.4876448722
 20
2.7957372199
 41
0.1875
 42
0.1875
 43
0.1875
 50
180.0
  0
INSERT
  5
43B
100
AcDbEntity
  8
SCHEME_DIMS
100
AcDbBlockReference
 62
2
  6
CONTINUOUS
  2
_FILLED
 10
1.701617712
 20
2.7957372199
 41
0.1875
 42
0.1875
 43
0.1875
  0
ENDBLK
  5
43C
100
AcDbEntity
  8
0
  6
BYBLOCK
 62
0
100
AcDbBlockEnd
  0
BLOCK
  5
43D
100
AcDbEntity
  8
0
100
AcDbBlockBegin
  2
_FILLED
 70
64
 10
0.0
 20
0.0
  3
_FILLED
  1

  0
SOLID
  5
43E
100
AcDbEntity
  8
0
  6
BYBLOCK
 62
0
100
AcDbTrace
 10
0.0
 20
0.0
 11
-1.0
 21
0.1666666667
 12
-1.0
 22
-0.1666666667
 13
-1.0
 23
-0.1666666667
  0
ENDBLK
  5
43F
100
AcDbEntity
  8
0
  6
BYBLOCK
 62
0
100
AcDbBlockEnd
  0
ENDSEC
  0
SECTION
  2
ENTITIES
  0
TEXT
  5
440
100
AcDbEntity
  8
0
100
AcDbText
 62
2
  6
CONTINUOUS
 10
10.1487658475
 20
1.694867839
  7
STANDARD
 40
0.1
  1
%%uTHIRD ANGLE PROJECTION
 41
0.8
 72
1
 11
11.0287658475
 21
1.694867839
100
AcDbText
  0
TEXT
  5
441
100
AcDbEntity
  8
0
100
AcDbText
 62
2
  6
CONTINUOUS
 10
12.88
 20
1.377
  7
STANDARD
 40
0.08
  1
DRAWING NO.
 41
1.0
 72
0
100
AcDbText
  0
TEXT
  5
442
100
AcDbEntity
  8
0
100
AcDbText
 62
2
  6
CONTINUOUS
 10
10.044
 20
2.436432
  7
STANDARD
 40
0.08
  1
and is proprietary in general
 41
0.85
 72
1
 11
11.03
 21
2.436432
100
AcDbText
  0
TEXT
  5
443
100
AcDbEntity
  8
0
100
AcDbText
 62
2
  6
CONTINUOUS
 10
10.078
 20
2.316432
  7
STANDARD
 40
0.08
  1
and in detail.  Its contents
 41
0.85
 72
1
 11
11.03
 21
2.316432
100
AcDbText
  0
TEXT
  5
444
100
AcDbEntity
  8
0
100
AcDbText
 62
2
  6
CONTINUOUS
 10
10.214
 20
2.196432
  7
STANDARD
 40
0.08
  1
shall not be revealed to
 41
0.85
 72
1
 11
11.03
 21
2.196432
100
AcDbText
  0
TEXT
  5
445
100
AcDbEntity
  8
0
100
AcDbText
 62
2
  6
CONTINUOUS
 10
10.248
 20
2.076432
  7
STANDARD
 40
0.08
  1
outside parties without
 41
0.85
 72
1
 11
11.03
 21
2.076432
100
AcDbText
  0
TEXT
  5
446
100
AcDbEntity
  8
0
100
AcDbText
 62
2
  6
CONTINUOUS
 10
10.146
 20
1.956432
  7
STANDARD
 40
0.08
  1
written consent of BANNER.
 41
0.85
 72
1
 11
11.03
 21
1.956432
100
AcDbText
  0
TEXT
  5
447
100
AcDbEntity
  8
0
100
AcDbText
 62
2
  6
CONTINUOUS
 10
12.08
 20
2.117
  7
STANDARD
 40
0.1
  1
TITLE
 41
0.8
 72
0
100
AcDbText
  0
TEXT
  5
448
100
AcDbEntity
  8
0
100
AcDbText
 62
2
  6
CONTINUOUS
 10
12.08
 20
1.377
  7
STANDARD
 40
0.08
  1
SIZE
 41
1.0
 72
0
100
AcDbText
  0
TEXT
  5
449
100
AcDbEntity
  8
0
100
AcDbText
 62
2
  6
CONTINUOUS
 10
12.08
 20
1.007
  7
STANDARD
 40
0.08
  1
SCALE
 41
1.0
 72
0
100
AcDbText
  0
TEXT
  5
44A
100
AcDbEntity
  8
0
100
AcDbText
 62
2
  6
CONTINUOUS
 10
12.46
 20
1.237
  7
STANDARD
 40
0.1
  1
B
 41
0.8
 72
1
 11
12.5
 21
1.237
100
AcDbText
  0
TEXT
  5
44B
100
AcDbEntity
  8
0
100
AcDbText
 62
2
  6
CONTINUOUS
 10
10.112
 20
2.556432
  7
STANDARD
 40
0.08
  1
of BANNER ENGINEERING CORP.
 41
0.85
 72
1
 11
11.03
 21
2.556432
100
AcDbText
  0
TEXT
  5
44C
100
AcDbEntity
  8
0
100
AcDbText
 62
2
  6
CONTINUOUS
 10
10.078
 20
2.676432
  7
STANDARD
 40
0.08
  1
This drawing is the property
 41
0.85
 72
1
 11
11.03
 21
2.676432
100
AcDbText
  0
TEXT
  5
44D
100
AcDbEntity
  8
0
100
AcDbText
 62
2
  6
CONTINUOUS
 10
14.19
 20
2.3134
  7
STANDARD
 40
0.1
  1
MINNEAPOLIS, MN 55440
 41
0.8
 72
1
 11
15.03
 21
2.3134
100
AcDbText
  0
TEXT
  5
44E
100
AcDbEntity
  8
0
100
AcDbText
 62
2
  6
CONTINUOUS
 10
14.255
 20
1.007
  7
STANDARD
 40
0.08
  1
SHEET
 41
1.0
 72
0
100
AcDbText
  0
TEXT
  5
44F
100
AcDbEntity
  8
0
100
AcDbText
 62
2
  6
CONTINUOUS
 10
15.63
 20
1.377
  7
STANDARD
 40
0.08
  1
REV.
 41
1.0
 72
0
100
AcDbText
  0
TEXT
  5
450
100
AcDbEntity
  8
0
100
AcDbText
 62
2
  6
CONTINUOUS
 10
16.03
 20
0.765443
  7
STANDARD
 40
0.07
  1
PRO/E
 41
1.0
 72
2
 11
16.38
 21
0.765443
100
AcDbText
  0
TEXT
  5
451
100
AcDbEntity
  8
0
100
AcDbText
 62
2
  6
CONTINUOUS
 10
13.7052
 20
2.631049
  7
STANDARD
 40
0.12
  1
BANNER ENGINEERING CORP.
 41
0.92
 72
1
 11
15.03
 21
2.631049
100
AcDbText
  0
TEXT
  5
452
100
AcDbEntity
  8
0
100
AcDbText
 62
2
  6
CONTINUOUS
 10
14.51
 20
2.4724
  7
STANDARD
 40
0.1
  1
P.O. BOX 9414
 41
0.8
 72
1
 11
15.03
 21
2.4724
100
AcDbText
  0
TEXT
  5
453
100
AcDbEntity
  8
0
100
AcDbText
 62
2
  6
CONTINUOUS
 10
9.445
 20
10.212
  7
STANDARD
 40
0.1
  1
4
 41
0.8
 72
1
 11
9.485
 21
10.212
100
AcDbText
  0
TEXT
  5
454
100
AcDbEntity
  8
0
100
AcDbText
 62
2
  6
CONTINUOUS
 10
11.415
 20
10.212
  7
STANDARD
 40
0.1
  1
3
 41
0.8
 72
1
 11
11.455
 21
10.212
100
AcDbText
  0
TEXT
  5
455
100
AcDbEntity
  8
0
100
AcDbText
 62
2
  6
CONTINUOUS
 10
13.385
 20
10.212
  7
STANDARD
 40
0.1
  1
2
 41
0.8
 72
1
 11
13.425
 21
10.212
100
AcDbText
  0
TEXT
  5
456
100
AcDbEntity
  8
0
100
AcDbText
 62
2
  6
CONTINUOUS
 10
15.355
 20
10.212
  7
STANDARD
 40
0.1
  1
1
 41
0.8
 72
1
 11
15.395
 21
10.212
100
AcDbText
  0
TEXT
  5
457
100
AcDbEntity
  8
0
100
AcDbText
 62
2
  6
CONTINUOUS
 10
3.535
 20
10.212
  7
STANDARD
 40
0.1
  1
7
 41
0.8
 72
1
 11
3.575
 21
10.212
100
AcDbText
  0
TEXT
  5
458
100
AcDbEntity
  8
0
100
AcDbText
 62
2
  6
CONTINUOUS
 10
5.505
 20
10.212
  7
STANDARD
 40
0.1
  1
6
 41
0.8
 72
1
 11
5.545
 21
10.212
100
AcDbText
  0
TEXT
  5
459
100
AcDbEntity
  8
0
100
AcDbText
 62
2
  6
CONTINUOUS
 10
7.475
 20
10.212
  7
STANDARD
 40
0.1
  1
5
 41
0.8
 72
1
 11
7.515
 21
10.212
100
AcDbText
  0
TEXT
  5
45A
100
AcDbEntity
  8
0
100
AcDbText
 62
2
  6
CONTINUOUS
 10
1.565
 20
10.212
  7
STANDARD
 40
0.1
  1
8
 41
0.8
 72
1
 11
1.605
 21
10.212
100
AcDbText
  0
TEXT
  5
45B
100
AcDbEntity
  8
0
100
AcDbText
 62
2
  6
CONTINUOUS
 10
1.565
 20
0.687
  7
STANDARD
 40
0.1
  1
8
 41
0.8
 72
1
 11
1.605
 21
0.687
100
AcDbText
  0
TEXT
  5
45C
100
AcDbEntity
  8
0
100
AcDbText
 62
2
  6
CONTINUOUS
 10
3.535
 20
0.687
  7
STANDARD
 40
0.1
  1
7
 41
0.8
 72
1
 11
3.575
 21
0.687
100
AcDbText
  0
TEXT
  5
45D
100
AcDbEntity
  8
0
100
AcDbText
 62
2
  6
CONTINUOUS
 10
5.505
 20
0.687
  7
STANDARD
 40
0.1
  1
6
 41
0.8
 72
1
 11
5.545
 21
0.687
100
AcDbText
  0
TEXT
  5
45E
100
AcDbEntity
  8
0
100
AcDbText
 62
2
  6
CONTINUOUS
 10
7.475
 20
0.687
  7
STANDARD
 40
0.1
  1
5
 41
0.8
 72
1
 11
7.515
 21
0.687
100
AcDbText
  0
TEXT
  5
45F
100
AcDbEntity
  8
0
100
AcDbText
 62
2
  6
CONTINUOUS
 10
9.445
 20
0.687
  7
STANDARD
 40
0.1
  1
4
 41
0.8
 72
1
 11
9.485
 21
0.687
100
AcDbText
  0
TEXT
  5
460
100
AcDbEntity
  8
0
100
AcDbText
 62
2
  6
CONTINUOUS
 10
11.415
 20
0.687
  7
STANDARD
 40
0.1
  1
3
 41
0.8
 72
1
 11
11.455
 21
0.687
100
AcDbText
  0
TEXT
  5
461
100
AcDbEntity
  8
0
100
AcDbText
 62
2
  6
CONTINUOUS
 10
13.385
 20
0.687
  7
STANDARD
 40
0.1
  1
2
 41
0.8
 72
1
 11
13.425
 21
0.687
100
AcDbText
  0
TEXT
  5
462
100
AcDbEntity
  8
0
100
AcDbText
 62
2
  6
CONTINUOUS
 10
15.355
 20
0.687
  7
STANDARD
 40
0.1
  1
1
 41
0.8
 72
1
 11
15.395
 21
0.687
100
AcDbText
  0
TEXT
  5
463
100
AcDbEntity
  8
0
100
AcDbText
 62
2
  6
CONTINUOUS
 10
0.44
 20
4.2995
  7
STANDARD
 40
0.1
  1
B
 41
0.8
 72
2
 11
0.52
 21
4.2995
100
AcDbText
  0
TEXT
  5
464
100
AcDbEntity
  8
0
100
AcDbText
 62
2
  6
CONTINUOUS
 10
0.44
 20
1.9995
  7
STANDARD
 40
0.1
  1
A
 41
0.8
 72
2
 11
0.52
 21
1.9995
100
AcDbText
  0
TEXT
  5
465
100
AcDbEntity
  8
0
100
AcDbText
 62
2
  6
CONTINUOUS
 10
0.44
 20
8.8995
  7
STANDARD
 40
0.1
  1
D
 41
0.8
 72
2
 11
0.52
 21
8.8995
100
AcDbText
  0
TEXT
  5
466
100
AcDbEntity
  8
0
100
AcDbText
 62
2
  6
CONTINUOUS
 10
0.44
 20
6.5995
  7
STANDARD
 40
0.1
  1
C
 41
0.8
 72
2
 11
0.52
 21
6.5995
100
AcDbText
  0
TEXT
  5
467
100
AcDbEntity
  8
0
100
AcDbText
 62
2
  6
CONTINUOUS
 10
16.48
 20
8.8995
  7
STANDARD
 40
0.1
  1
D
 41
0.8
 72
0
100
AcDbText
  0
TEXT
  5
468
100
AcDbEntity
  8
0
100
AcDbText
 62
2
  6
CONTINUOUS
 10
16.48
 20
6.5995
  7
STANDARD
 40
0.1
  1
C
 41
0.8
 72
0
100
AcDbText
  0
TEXT
  5
469
100
AcDbEntity
  8
0
100
AcDbText
 62
2
  6
CONTINUOUS
 10
16.48
 20
4.2995
  7
STANDARD
 40
0.1
  1
B
 41
0.8
 72
0
100
AcDbText
  0
TEXT
  5
46A
100
AcDbEntity
  8
0
100
AcDbText
 62
2
  6
CONTINUOUS
 10
16.48
 20
1.9995
  7
STANDARD
 40
0.1
  1
A
 41
0.8
 72
0
100
AcDbText
  0
MTEXT
  5
46B
100
AcDbEntity
  8
0
100
AcDbMText
 62
2
  6
CONTINUOUS
  7
STANDARD
 71
1
 72
1
 10
14.819264911
 20
1.0627941725
 30
0.0
 11
1.0
 21
0.0
 31
0.0
  1
1 OF 1
 40
0.1
 41
0.6
  0
TEXT
  5
46C
100
AcDbEntity
  8
0
100
AcDbText
 62
7
  6
CONTINUOUS
 10
13.8911999818
 20
1.2547321586
  7
STANDARD
 40
0.12
  1
142560
 41
1.0
 72
0
100
AcDbText
  0
TEXT
  5
46D
100
AcDbEntity
  8
0
100
AcDbText
 62
2
  6
CONTINUOUS
 10
12.644264911
 20
0.9627941725
  7
STANDARD
 40
0.1
  1
1:1
 41
1.0
 72
0
100
AcDbText
  0
MTEXT
  5
46E
100
AcDbEntity
  8
0
100
AcDbMText
 62
2
  6
CONTINUOUS
  7
STANDARD
 71
1
 72
1
 10
1.0597007627
 20
1.6202922458
 30
0.0
 11
1.0
 21
0.0
 31
0.0
  1
NOTES:\P1. ALL DIMENSIONS ARE MILLIMETERS [INCHES] UNLESS OTHERWISE NOTED.
 40
0.1
 41
6.6
  0
INSERT
  5
46F
100
AcDbEntity
  8
0
100
AcDbBlockReference
 62
2
  6
CONTINUOUS
  2
BANNER_LOGO_TITLEBLOCK_BL0
 10
12.9046655056
 20
2.5403783448
  0
DIMENSION
  5
470
100
AcDbEntity
  8
SCHEME_DIMS
100
AcDbDimension
 62
2
  6
CONTINUOUS
  2
*D0
 10
4.277951082
 20
8.0716660415
 11
5.867352729
 21
8.9322054958
 70
163
 42
5.35
  1
<>
  3
DIMSTYLE_1
100
AcDbDiametricDimension
 15
4.1225355128
 25
7.9295007694
  0
DIMENSION
  5
471
100
AcDbEntity
  8
SCHEME_DIMS
100
AcDbDimension
 62
2
  6
CONTINUOUS
  2
*D1
 10
4.2002432974
 20
9.5044684161
 11
3.6324677068
 21
9.4294684161
 70
160
 42
28.843
  3
DIMSTYLE_2
100
AcDbAlignedDimension
 13
3.0646921163
 23
8.574250712
 14
4.2002432974
 24
9.1884053242
100
AcDbRotatedDimension
  0
DIMENSION
  5
472
100
AcDbEntity
  8
SCHEME_DIMS
100
AcDbDimension
 62
2
  6
CONTINUOUS
  2
*D2
 10
4.2002432974
 20
8.0005834055
 11
6.1728401957
 21
7.1595973913
 70
164
 42
25.5
  1
<>
  3
DIMSTYLE_3
100
AcDbRadialDimension
 15
5.0769099275
 25
7.5113542818
  0
DIMENSION
  5
473
100
AcDbEntity
  8
SCHEME_DIMS
100
AcDbDimension
 62
2
  6
CONTINUOUS
  2
*D3
 10
5.7041803053
 20
4.7051860388
 11
5.7041803053
 21
4.0004616293
 70
160
 42
35.8
  3
DIMSTYLE_2
100
AcDbAlignedDimension
 13
5.2666803053
 23
3.2957372199
 14
3.0225858171
 24
4.7051860388
 50
90.0
100
AcDbRotatedDimension
  0
DIMENSION
  5
474
100
AcDbEntity
  8
SCHEME_DIMS
100
AcDbDimension
 62
2
  6
CONTINUOUS
  2
*D4
 10
5.2041803053
 20
2.4207372199
 11
3.4528990086
 21
2.3457372199
 70
160
 42
88.9650898701
  3
DIMSTYLE_2
100
AcDbAlignedDimension
 13
1.701617712
 23
3.7927861527
 14
5.2041803053
 24
3.2165135515
100
AcDbRotatedDimension
  0
DIMENSION
  5
475
100
AcDbEntity
  8
SCHEME_DIMS
100
AcDbDimension
 62
2
  6
CONTINUOUS
  2
*D5
 10
8.2589827513
 20
8.5182512874
 11
8.2589827513
 21
7.1649291575
 70
160
 42
68.7487642005
  3
DIMSTYLE_2
100
AcDbAlignedDimension
 13
9.3141047986
 23
5.8116070275
 14
9.5163646411
 24
8.5182512874
 50
90.0
100
AcDbRotatedDimension
  0
DIMENSION
  5
476
100
AcDbEntity
  8
SCHEME_DIMS
100
AcDbDimension
 62
2
  6
CONTINUOUS
  2
*D6
 10
8.6339827513
 20
8.5182512874
 11
8.6339827513
 21
8.2594173464
 70
160
 42
13.1487642005
  3
DIMSTYLE_2
100
AcDbAlignedDimension
 13
9.046027623
 23
8.0005834055
 14
9.5163646411
 24
8.5182512874
 50
90.0
100
AcDbRotatedDimension
  0
DIMENSION
  5
477
100
AcDbEntity
  8
SCHEME_DIMS
100
AcDbDimension
 62
2
  6
CONTINUOUS
  2
*D7
 10
1.701617712
 20
2.7957372199
 11
2.0946312921
 21
2.7207372199
 70
160
 42
19.9650898701
  3
DIMSTYLE_2
100
AcDbAlignedDimension
 13
2.4876448722
 23
3.6130639915
 14
1.701617712
 24
3.8340234333
 50
180.0
100
AcDbRotatedDimension
  0
LINE
  5
478
100
AcDbEntity
  8
0
100
AcDbLine
 62
2
  6
CONTINUOUS
 10
16.38
 20
0.887
 11
12.03
 21
0.887
  0
LINE
  5
479
100
AcDbEntity
  8
0
100
AcDbLine
 62
2
  6
CONTINUOUS
 10
16.38
 20
0.887
 11
16.38
 21
2.807
  0
LINE
  5
47A
100
AcDbEntity
  8
0
100
AcDbLine
 62
2
  6
CONTINUOUS
 10
16.38
 20
2.807
 11
12.03
 21
2.807
  0
LINE
  5
47B
100
AcDbEntity
  8
0
100
AcDbLine
 62
2
  6
CONTINUOUS
 10
12.03
 20
0.887
 11
12.03
 21
2.807
  0
TEXT
  5
47C
100
AcDbEntity
  8
0
100
AcDbText
 62
7
  6
CONTINUOUS
 10
16.105
 20
1.267
  7
STANDARD
 40
0.1
  1
1
 41
1.0
 72
1
 11
16.155
 21
1.267
100
AcDbText
  0
MTEXT
  5
47D
100
AcDbEntity
  8
0
100
AcDbMText
 62
7
  6
CONTINUOUS
  7
STANDARD
 71
2
 72
1
 10
14.205
 20
1.967
 30
0.0
 11
1.0
 21
0.0
 31
0.0
  1
SMB50RFA\PWEB CAD DRAWINGS 2D/3D
 40
0.1
 41
2.2
  0
MTEXT
  5
47E
100
AcDbEntity
  8
NOTES
100
AcDbMText
 62
2
  6
CONTINUOUS
  7
STANDARD
 71
2
 72
1
 10
13.6807109244
 20
3.6121558529
 30
0.0
 11
1.0
 21
0.0
 31
0.0
  1
ISOMETRIC VIEW\P\H0.1;SCALE  1:1
 40
0.12
 41
1.68
  0
TEXT
  5
47F
100
AcDbEntity
  8
NOTES
100
AcDbText
 62
2
  6
CONTINUOUS
 10
4.1285471239
 20
6.49105775
  7
STANDARD
 40
0.1
  1
3/8-16 UNC X 2" LENGTH SHCS
 41
1.0
 72
0
100
AcDbText
  0
LINE
  5
480
100
AcDbEntity
  8
NOTES
100
AcDbLine
 62
2
  6
CONTINUOUS
 10
2.6751448722
 20
7.1501403173
 11
3.8785471239
 21
6.54105775
  0
LINE
  5
481
100
AcDbEntity
  8
NOTES
100
AcDbLine
 62
2
  6
CONTINUOUS
 10
3.8785471239
 20
6.54105775
 11
4.1285471239
 21
6.54105775
  0
SOLID
  5
482
100
AcDbEntity
  8
NOTES
100
AcDbTrace
 62
2
  6
CONTINUOUS
 10
2.8565495811
 20
7.0933499651
 11
2.6751448722
 21
7.1501403173
 12
2.8283254285
 22
7.0375857543
 13
2.8283254285
 23
7.0375857543
  0
TEXT
  5
483
100
AcDbEntity
  8
NOTES
100
AcDbText
 62
2
  6
CONTINUOUS
 10
2.4627288233
 20
5.2160156971
  7
STANDARD
 40
0.1
  1
10-24 UNC X 3/4" LENGTH SHCS
 41
1.0
 72
0
100
AcDbText
  0
LINE
  5
484
100
AcDbEntity
  8
NOTES
100
AcDbLine
 62
2
  6
CONTINUOUS
 10
1.889968154
 20
4.607784464
 11
2.2127288233
 21
5.2660156971
  0
LINE
  5
485
100
AcDbEntity
  8
NOTES
100
AcDbLine
 62
2
  6
CONTINUOUS
 10
2.2127288233
 20
5.2660156971
 11
2.4627288233
 21
5.2660156971
  0
SOLID
  5
486
100
AcDbEntity
  8
NOTES
100
AcDbTrace
 62
2
  6
CONTINUOUS
 10
1.9444595358
 20
4.7898929531
 11
1.889968154
 21
4.607784464
 12
2.0005762684
 22
4.7623763704
 13
2.0005762684
 23
4.7623763704
  0
LINE
  5
487
100
AcDbEntity
  8
0
100
AcDbLine
 62
2
  6
CONTINUOUS
 10
0.47
 20
5.586103
 11
0.47
 21
5.412897
  0
LINE
  5
488
100
AcDbEntity
  8
0
100
AcDbLine
 62
2
  6
CONTINUOUS
 10
0.62
 20
10.112
 11
0.62
 21
0.887
  0
LINE
  5
489
100
AcDbEntity
  8
0
100
AcDbLine
 62
2
  6
CONTINUOUS
 10
2.59
 20
0.887
 11
2.59
 21
0.637
  0
LINE
  5
48A
100
AcDbEntity
  8
0
100
AcDbLine
 62
2
  6
CONTINUOUS
 10
2.59
 20
10.112
 11
2.59
 21
10.362
  0
LINE
  5
48B
100
AcDbEntity
  8
0
100
AcDbLine
 62
2
  6
CONTINUOUS
 10
8.413397
 20
0.737
 11
8.586603
 21
0.737
  0
LINE
  5
48C
100
AcDbEntity
  8
0
100
AcDbLine
 62
7
  6
CONTINUOUS
 10
11.1389508475
 20
1.425992839
 11
11.7453418475
 21
1.495385839
  0
LINE
  5
48D
100
AcDbEntity
  8
0
100
AcDbLine
 62
2
  6
CONTINUOUS
 10
0.62
 20
0.887
 11
16.38
 21
0.887
  0
LINE
  5
48E
100
AcDbEntity
  8
0
100
AcDbLine
 62
2
  6
CONTINUOUS
 10
12.03
 20
1.137
 11
16.38
 21
1.137
  0
LINE
  5
48F
100
AcDbEntity
  8
0
100
AcDbLine
 62
7
  6
CONTINUOUS
 10
10.2121898475
 20
1.243294839
 11
10.4342808475
 21
1.243294839
  0
LINE
  5
490
100
AcDbEntity
  8
0
100
AcDbLine
 62
7
  6
CONTINUOUS
 10
10.4842808475
 20
1.243294839
 11
10.5842808475
 21
1.243294839
  0
LINE
  5
491
100
AcDbEntity
  8
0
100
AcDbLine
 62
7
  6
CONTINUOUS
 10
10.6342808475
 20
1.243294839
 11
10.8563718475
 21
1.243294839
  0
LINE
  5
492
100
AcDbEntity
  8
0
100
AcDbLine
 62
7
  6
CONTINUOUS
 10
11.0389508475
 20
1.243294839
 11
11.3171028475
 21
1.243294839
  0
LINE
  5
493
100
AcDbEntity
  8
0
100
AcDbLine
 62
7
  6
CONTINUOUS
 10
11.3671028475
 20
1.243294839
 11
11.5171888475
 21
1.243294839
  0
LINE
  5
494
100
AcDbEntity
  8
0
100
AcDbLine
 62
7
  6
CONTINUOUS
 10
11.5671888475
 20
1.243294839
 11
11.8453418475
 21
1.243294839
  0
LINE
  5
495
100
AcDbEntity
  8
0
100
AcDbLine
 62
7
  6
CONTINUOUS
 10
11.7453418475
 20
0.991203839
 11
11.1389508475
 21
1.060596839
  0
LINE
  5
496
100
AcDbEntity
  8
0
100
AcDbLine
 62
2
  6
CONTINUOUS
 10
4.56
 20
0.887
 11
4.56
 21
0.637
  0
LINE
  5
497
100
AcDbEntity
  8
0
100
AcDbLine
 62
2
  6
CONTINUOUS
 10
4.56
 20
10.112
 11
4.56
 21
10.362
  0
LINE
  5
498
100
AcDbEntity
  8
0
100
AcDbLine
 62
2
  6
CONTINUOUS
 10
0.47
 20
5.412897
 11
0.62
 21
5.4995
  0
LINE
  5
499
100
AcDbEntity
  8
0
100
AcDbLine
 62
2
  6
CONTINUOUS
 10
12.03
 20
1.507
 11
16.38
 21
1.507
  0
LINE
  5
49A
100
AcDbEntity
  8
0
100
AcDbLine
 62
2
  6
CONTINUOUS
 10
10.03
 20
1.907
 11
12.03
 21
1.907
  0
LINE
  5
49B
100
AcDbEntity
  8
0
100
AcDbLine
 62
2
  6
CONTINUOUS
 10
0.62
 20
5.4995
 11
0.47
 21
5.586103
  0
LINE
  5
49C
100
AcDbEntity
  8
0
100
AcDbLine
 62
2
  6
CONTINUOUS
 10
12.03
 20
2.267
 11
16.38
 21
2.267
  0
LINE
  5
49D
100
AcDbEntity
  8
0
100
AcDbLine
 62
2
  6
CONTINUOUS
 10
8.5
 20
10.112
 11
8.586603
 21
10.262
  0
LINE
  5
49E
100
AcDbEntity
  8
0
100
AcDbLine
 62
2
  6
CONTINUOUS
 10
16.38
 20
2.807
 11
10.03
 21
2.807
  0
LINE
  5
49F
100
AcDbEntity
  8
0
100
AcDbLine
 62
2
  6
CONTINUOUS
 10
0.62
 20
3.1995
 11
0.37
 21
3.1995
  0
LINE
  5
4A0
100
AcDbEntity
  8
0
100
AcDbLine
 62
2
  6
CONTINUOUS
 10
16.38
 20
3.1995
 11
16.63
 21
3.1995
  0
LINE
  5
4A1
100
AcDbEntity
  8
0
100
AcDbLine
 62
2
  6
CONTINUOUS
 10
8.586603
 20
0.737
 11
8.5
 21
0.887
  0
LINE
  5
4A2
100
AcDbEntity
  8
0
100
AcDbLine
 62
2
  6
CONTINUOUS
 10
6.53
 20
0.887
 11
6.53
 21
0.637
  0
LINE
  5
4A3
100
AcDbEntity
  8
0
100
AcDbLine
 62
2
  6
CONTINUOUS
 10
6.53
 20
10.112
 11
6.53
 21
10.362
  0
LINE
  5
4A4
100
AcDbEntity
  8
0
100
AcDbLine
 62
2
  6
CONTINUOUS
 10
8.5
 20
0.887
 11
8.5
 21
0.637
  0
LINE
  5
4A5
100
AcDbEntity
  8
0
100
AcDbLine
 62
2
  6
CONTINUOUS
 10
8.5
 20
10.112
 11
8.5
 21
10.362
  0
LINE
  5
4A6
100
AcDbEntity
  8
0
100
AcDbLine
 62
2
  6
CONTINUOUS
 10
0.62
 20
5.4995
 11
0.37
 21
5.4995
  0
LINE
  5
4A7
100
AcDbEntity
  8
0
100
AcDbLine
 62
2
  6
CONTINUOUS
 10
16.38
 20
5.4995
 11
16.63
 21
5.4995
  0
LINE
  5
4A8
100
AcDbEntity
  8
0
100
AcDbLine
 62
2
  6
CONTINUOUS
 10
10.03
 20
2.807
 11
10.03
 21
0.887
  0
LINE
  5
4A9
100
AcDbEntity
  8
0
100
AcDbLine
 62
2
  6
CONTINUOUS
 10
10.47
 20
0.887
 11
10.47
 21
0.637
  0
LINE
  5
4AA
100
AcDbEntity
  8
0
100
AcDbLine
 62
2
  6
CONTINUOUS
 10
10.47
 20
10.112
 11
10.47
 21
10.362
  0
LINE
  5
4AB
100
AcDbEntity
  8
0
100
AcDbLine
 62
7
  6
CONTINUOUS
 10
10.5342808475
 20
1.143294839
 11
10.5342808475
 21
0.921203839
  0
LINE
  5
4AC
100
AcDbEntity
  8
0
100
AcDbLine
 62
7
  6
CONTINUOUS
 10
10.5342808475
 20
1.193294839
 11
10.5342808475
 21
1.293294839
  0
LINE
  5
4AD
100
AcDbEntity
  8
0
100
AcDbLine
 62
7
  6
CONTINUOUS
 10
10.5342808475
 20
1.343294839
 11
10.5342808475
 21
1.565385839
  0
LINE
  5
4AE
100
AcDbEntity
  8
0
100
AcDbLine
 62
2
  6
CONTINUOUS
 10
8.5
 20
0.887
 11
8.413397
 21
0.737
  0
LINE
  5
4AF
100
AcDbEntity
  8
0
100
AcDbLine
 62
2
  6
CONTINUOUS
 10
0.62
 20
7.7995
 11
0.37
 21
7.7995
  0
LINE
  5
4B0
100
AcDbEntity
  8
0
100
AcDbLine
 62
2
  6
CONTINUOUS
 10
16.38
 20
7.7995
 11
16.63
 21
7.7995
  0
LINE
  5
4B1
100
AcDbEntity
  8
0
100
AcDbLine
 62
2
  6
CONTINUOUS
 10
8.413397
 20
10.262
 11
8.5
 21
10.112
  0
LINE
  5
4B2
100
AcDbEntity
  8
0
100
AcDbLine
 62
7
  6
CONTINUOUS
 10
11.1389508475
 20
1.060596839
 11
11.1389508475
 21
1.425992839
  0
LINE
  5
4B3
100
AcDbEntity
  8
0
100
AcDbLine
 62
7
  6
CONTINUOUS
 10
11.7453418475
 20
1.495385839
 11
11.7453418475
 21
0.991203839
  0
LINE
  5
4B4
100
AcDbEntity
  8
0
100
AcDbLine
 62
1
  6
CONTINUOUS
 10
12.03
 20
2.807
 11
12.03
 21
0.887
  0
LINE
  5
4B5
100
AcDbEntity
  8
0
100
AcDbLine
 62
2
  6
CONTINUOUS
 10
12.44
 20
0.887
 11
12.44
 21
0.637
  0
LINE
  5
4B6
100
AcDbEntity
  8
0
100
AcDbLine
 62
2
  6
CONTINUOUS
 10
12.44
 20
10.112
 11
12.44
 21
10.362
  0
LINE
  5
4B7
100
AcDbEntity
  8
0
100
AcDbLine
 62
2
  6
CONTINUOUS
 10
16.53
 20
5.586103
 11
16.38
 21
5.4995
  0
LINE
  5
4B8
100
AcDbEntity
  8
0
100
AcDbLine
 62
2
  6
CONTINUOUS
 10
16.38
 20
5.4995
 11
16.53
 21
5.412897
  0
LINE
  5
4B9
100
AcDbEntity
  8
0
100
AcDbLine
 62
2
  6
CONTINUOUS
 10
12.83
 20
1.507
 11
12.83
 21
1.137
  0
LINE
  5
4BA
100
AcDbEntity
  8
0
100
AcDbLine
 62
2
  6
CONTINUOUS
 10
16.38
 20
10.112
 11
0.62
 21
10.112
  0
LINE
  5
4BB
100
AcDbEntity
  8
0
100
AcDbLine
 62
2
  6
CONTINUOUS
 10
8.586603
 20
10.262
 11
8.413397
 21
10.262
  0
LINE
  5
4BC
100
AcDbEntity
  8
0
100
AcDbLine
 62
2
  6
CONTINUOUS
 10
14.205
 20
1.137
 11
14.205
 21
0.887
  0
LINE
  5
4BD
100
AcDbEntity
  8
0
100
AcDbLine
 62
2
  6
CONTINUOUS
 10
14.41
 20
0.887
 11
14.41
 21
0.637
  0
LINE
  5
4BE
100
AcDbEntity
  8
0
100
AcDbLine
 62
2
  6
CONTINUOUS
 10
14.41
 20
10.112
 11
14.41
 21
10.362
  0
LINE
  5
4BF
100
AcDbEntity
  8
0
100
AcDbLine
 62
2
  6
CONTINUOUS
 10
15.58
 20
1.507
 11
15.58
 21
1.137
  0
LINE
  5
4C0
100
AcDbEntity
  8
0
100
AcDbLine
 62
2
  6
CONTINUOUS
 10
16.38
 20
0.887
 11
16.38
 21
10.112
  0
LINE
  5
4C1
100
AcDbEntity
  8
0
100
AcDbLine
 62
2
  6
CONTINUOUS
 10
16.53
 20
5.412897
 11
16.53
 21
5.586103
  0
LWPOLYLINE
  5
4C2
100
AcDbEntity
  8
0
100
AcDbPolyline
 62
7
  6
CONTINUOUS
 90
12
 70
0
 10
12.4541314871
 20
6.4638891104
 10
12.4231844119
 20
6.4332688671
 10
12.3919705562
 20
6.3956549694
 10
12.3638174172
 20
6.3542867392
 10
12.3393955252
 20
6.3101776166
 10
12.3193027251
 20
6.2644057686
 10
12.3040467897
 20
6.2180875912
 10
12.2940296121
 20
6.1723304297
 10
12.2895566064
 20
6.1282845036
 10
12.2907956443
 20
6.0871409768
 10
12.2977410587
 20
6.0499695245
 10
12.3102272326
 20
6.0176993452
  0
LWPOLYLINE
  5
4C3
100
AcDbEntity
  8
0
100
AcDbPolyline
 62
9
  6
CONTINUOUS
 90
17
 70
0
 10
12.4579268
 20
6.4648433731
 10
12.4419298162
 20
6.449840639
 10
12.426006936
 20
6.433323797
 10
12.4105560771
 20
6.4156500662
 10
12.3958391401
 20
6.3971366326
 10
12.3818613879
 20
6.3778264334
 10
12.3682263619
 20
6.3570974577
 10
12.3544459665
 20
6.3338517938
 10
12.3403011126
 20
6.306928743
 10
12.3261024666
 20
6.2755702014
 10
12.3126863426
 20
6.2396092089
 10
12.301281553
 20
6.1994748003
 10
12.2934133042
 20
6.1565109612
 10
12.2905562148
 20
6.1132463652
 10
12.2934029858
 20
6.0734003575
 10
12.3012598942
 20
6.0398314049
 10
12.3126523487
 20
6.0133150011
  0
LWPOLYLINE
  5
4C4
100
AcDbEntity
  8
02___PRT_ALL_AXES
100
AcDbPolyline
 62
7
  6
CONTINUOUS
 90
6
 70
0
 10
12.3143847792
 20
6.0278413093
 10
12.3160659939
 20
6.049059902
 10
12.321058555
 20
6.0676925231
 10
12.329210766
 20
6.0831730296
 10
12.3402749263
 20
6.0950310542
 10
12.3467978015
 20
6.0994848091
  0
LWPOLYLINE
  5
4C5
100
AcDbEntity
  8
02___PRT_ALL_AXES
100
AcDbPolyline
 62
7
  6
CONTINUOUS
 90
18
 70
0
 10
12.3143848911
 20
6.012328096
 10
12.3160403756
 20
6.032001713
 10
12.3209504533
 20
6.049093823
 10
12.3289479176
 20
6.0630223748
 10
12.3397604244
 20
6.0733130482
 10
12.3530197667
 20
6.0796154066
 10
12.3682744135
 20
6.0817148309
 10
12.3850048861
 20
6.0795398276
 10
12.4026414484
 20
6.0731644639
 10
12.4205835083
 20
6.0628058451
 10
12.4382200706
 20
6.0488167216
 10
12.4549505432
 20
6.0316734762
 10
12.47020519
 20
6.0119599015
 10
12.4834645323
 20
5.9903473197
 10
12.494277039
 20
5.9675717214
 10
12.5022745033
 20
5.9444087022
 10
12.5071845811
 20
5.921647051
 10
12.5088400655
 20
5.9000618885
  0
LWPOLYLINE
  5
4C6
100
AcDbEntity
  8
0
100
AcDbPolyline
 62
7
  6
CONTINUOUS
 90
4
 70
0
 10
12.3420162277
 20
6.0962199977
 10
12.342453266
 20
6.1008071973
 10
12.345887131
 20
6.1229593363
 10
12.3506694394
 20
6.145452306
  0
LWPOLYLINE
  5
4C7
100
AcDbEntity
  8
02___PRT_ALL_AXES
100
AcDbPolyline
 62
7
  6
CONTINUOUS
 90
10
 70
0
 10
12.3143848924
 20
6.0123271499
 10
12.3160403756
 20
5.9907429335
 10
12.3209504533
 20
5.9679812823
 10
12.3289479176
 20
5.9448182631
 10
12.3397604244
 20
5.9220426648
 10
12.3530197667
 20
5.900430083
 10
12.3682744135
 20
5.8807165083
 10
12.3850048861
 20
5.8635732629
 10
12.4026414484
 20
5.8495841394
 10
12.4116099815
 20
5.8439304115
  0
LINE
  5
4C8
100
AcDbEntity
  8
02___PRT_ALL_AXES
100
AcDbLine
 62
7
  6
CONTINUOUS
 10
12.3143847793
 20
6.0278402452
 11
12.3143848911
 21
6.0123271611
  0
LINE
  5
4C9
100
AcDbEntity
  8
0
100
AcDbLine
 62
7
  6
CONTINUOUS
 10
12.3564579198
 20
6.0248075865
 11
12.3564579198
 21
5.9512679557
  0
LINE
  5
4CA
100
AcDbEntity
  8
0
100
AcDbLine
 62
7
  6
CONTINUOUS
 10
12.4290385521
 20
6.1499871848
 11
12.4290385521
 21
6.1469662451
  0
LINE
  5
4CB
100
AcDbEntity
  8
0
100
AcDbLine
 62
7
  6
CONTINUOUS
 10
12.595532628
 20
5.9598598768
 11
12.5940609571
 21
5.9575252552
  0
LINE
  5
4CC
100
AcDbEntity
  8
02___PRT_ALL_AXES
100
AcDbLine
 62
7
  6
CONTINUOUS
 10
12.4351541386
 20
6.1504970596
 11
12.3467978015
 21
6.0994848091
  0
LWPOLYLINE
  5
4CD
100
AcDbEntity
  8
AXIS
100
AcDbPolyline
 62
7
  6
CONTINUOUS
 90
4
 70
0
 10
12.9797876449
 20
3.9800859417
 10
12.9881894457
 20
3.9762246042
 10
12.9984132184
 20
3.9734122908
 10
13.0096638971
 20
3.9717184735
  0
LWPOLYLINE
  5
4CE
100
AcDbEntity
  8
AXIS
100
AcDbPolyline
 62
7
  6
CONTINUOUS
 90
11
 70
0
 10
12.865045692
 20
4.0256764534
 10
12.8790188512
 20
4.0176131346
 10
12.89257558
 20
4.009841098
 10
12.9051542789
 20
4.0027827882
 10
12.916331277
 20
3.9967645408
 10
12.9261004882
 20
3.9918217719
 10
12.9348266258
 20
3.9877668376
 10
12.9428794607
 20
3.9844319565
 10
12.9506194662
 20
3.9817122227
 10
12.9583496717
 20
3.9796263295
 10
12.9593321586
 20
3.9794208474
  0
LWPOLYLINE
  5
4CF
100
AcDbEntity
  8
AXIS
100
AcDbPolyline
 62
7
  6
CONTINUOUS
 90
13
 70
0
 10
12.7503511504
 20
4.1125481668
 10
12.7567215301
 20
4.1035562743
 10
12.7642518729
 20
4.0948374661
 10
12.7719911789
 20
4.087146145
 10
12.7797106262
 20
4.080334177
 10
12.7874245463
 20
4.0741501899
 10
12.7954412917
 20
4.0682215921
 10
12.8041134813
 20
4.0622425844
 10
12.8137992544
 20
4.0559605388
 10
12.8248607255
 20
4.0491424801
 10
12.8373503543
 20
4.0417265054
 10
12.8509007343
 20
4.0338470208
 10
12.865045692
 20
4.0256764534
  0
LINE
  5
4D0
100
AcDbEntity
  8
0
100
AcDbLine
 62
7
  6
CONTINUOUS
 10
12.4667670369
 20
5.887582398
 11
12.4667670369
 21
5.9611220288
  0
LINE
  5
4D1
100
AcDbEntity
  8
0
100
AcDbLine
 62
7
  6
CONTINUOUS
 10
12.5636355942
 20
6.5230096318
 11
12.5636355942
 21
6.4434031925
  0
LWPOLYLINE
  5
4D2
100
AcDbEntity
  8
0
100
AcDbPolyline
 62
7
  6
CONTINUOUS
 90
6
 70
0
 10
12.5636355942
 20
6.5230096344
 10
12.5638139531
 20
6.5249526041
 10
12.5643391579
 20
6.5265990451
 10
12.5651881931
 20
6.5278852284
 10
12.5663262993
 20
6.5287587761
 10
12.5671129298
 20
6.5290638058
  0
LWPOLYLINE
  5
4D3
100
AcDbEntity
  8
0
100
AcDbPolyline
 62
7
  6
CONTINUOUS
 90
9
 70
0
 10
12.5371693568
 20
5.9657420683
 10
12.5335363841
 20
5.9420341737
 10
12.530930704
 20
5.9187856674
 10
12.5293632201
 20
5.8960891093
 10
12.5288399396
 20
5.8740296433
 10
12.5293628774
 20
5.8526898589
 10
12.5309300876
 20
5.8321494042
 10
12.5335357186
 20
5.8124847568
 10
12.5371693568
 20
5.7937721402
  0
LWPOLYLINE
  5
4D4
100
AcDbEntity
  8
0
100
AcDbPolyline
 62
7
  6
CONTINUOUS
 90
7
 70
0
 10
12.5851651216
 20
5.9487104148
 10
12.5780448014
 20
5.9103479252
 10
12.5737355647
 20
5.8729107835
 10
12.5722943157
 20
5.8368057614
 10
12.5737355647
 20
5.8023649403
 10
12.5780448014
 20
5.7699036468
 10
12.5851651216
 20
5.7397629458
  0
LWPOLYLINE
  5
4D5
100
AcDbEntity
  8
0
100
AcDbPolyline
 62
7
  6
CONTINUOUS
 90
8
 70
0
 10
12.5925417675
 20
5.9529692978
 10
12.5861156084
 20
5.9199309811
 10
12.5818050094
 20
5.8875900455
 10
12.5796423349
 20
5.8561802909
 10
12.5796423349
 20
5.8259159429
 10
12.5818050094
 20
5.7970034148
 10
12.5861156084
 20
5.7696399006
 10
12.5925417675
 20
5.7440218289
  0
LWPOLYLINE
  5
4D6
100
AcDbEntity
  8
0
100
AcDbPolyline
 62
7
  6
CONTINUOUS
 90
4
 70
0
 10
12.5851651216
 20
5.9487104148
 10
12.5866384838
 20
5.9532083387
 10
12.5888009885
 20
5.956708205
 10
12.5914826773
 20
5.9590155226
  0
LINE
  5
4D7
100
AcDbEntity
  8
0
100
AcDbLine
 62
7
  6
CONTINUOUS
 10
12.5940609571
 20
5.9575252552
 11
12.5925417675
 21
5.9529692978
  0
LINE
  5
4D8
100
AcDbEntity
  8
0
100
AcDbLine
 62
7
  6
CONTINUOUS
 10
12.3564579198
 20
5.9512679557
 11
12.4372106827
 21
5.9978903068
  0
LWPOLYLINE
  5
4D9
100
AcDbEntity
  8
02___PRT_ALL_AXES
100
AcDbPolyline
 62
7
  6
CONTINUOUS
 90
14
 70
0
 10
12.3467978015
 20
6.0994848091
 10
12.3539148568
 20
6.102906297
 10
12.3697161152
 20
6.1065594725
 10
12.3871985883
 20
6.1058795809
 10
12.4058310799
 20
6.1008872804
 10
12.4250474512
 20
6.0917342595
 10
12.4442638226
 20
6.078698628
 10
12.4628963142
 20
6.0621764672
 10
12.4803787872
 20
6.0426697944
 10
12.4961800456
 20
6.02077131
 10
12.5098199762
 20
5.9971463885
 10
12.5208841364
 20
5.9725128611
 10
12.5290363475
 20
5.947619205
 10
12.5323483519
 20
5.9314342636
  0
LWPOLYLINE
  5
4DA
100
AcDbEntity
  8
AXIS
100
AcDbPolyline
 62
7
  6
CONTINUOUS
 90
4
 70
0
 10
12.9593321586
 20
3.9794208474
 10
12.966060844
 20
3.9784107029
 10
12.9735053412
 20
3.9784599857
 10
12.9797876449
 20
3.9800859417
  0
LWPOLYLINE
  5
4DB
100
AcDbEntity
  8
AXIS
100
AcDbPolyline
 62
7
  6
CONTINUOUS
 90
3
 70
0
 10
12.9593331295
 20
3.9794168183
 10
12.969189597
 20
3.9774941936
 10
13.0096637159
 20
3.9717179432
  0
LWPOLYLINE
  5
4DC
100
AcDbEntity
  8
AXIS
100
AcDbPolyline
 62
7
  6
CONTINUOUS
 90
3
 70
0
 10
12.8096243806
 20
4.2851428436
 10
12.7811577611
 20
4.3064049917
 10
12.7579878965
 20
4.3297126073
  0
LWPOLYLINE
  5
4DD
100
AcDbEntity
  8
AXIS
100
AcDbPolyline
 62
7
  6
CONTINUOUS
 90
3
 70
0
 10
12.7673275972
 20
4.3970686068
 10
12.7811577611
 20
4.3831562189
 10
12.8096243806
 20
4.3618940708
  0
LWPOLYLINE
  5
4DE
100
AcDbEntity
  8
AXIS
100
AcDbPolyline
 62
7
  6
CONTINUOUS
 90
3
 70
0
 10
12.9797876449
 20
4.2139386824
 10
12.9736441669
 20
4.2226416757
 10
12.969676277
 20
4.227272366
  0
LWPOLYLINE
  5
4DF
100
AcDbEntity
  8
AXIS
100
AcDbPolyline
 62
7
  6
CONTINUOUS
 90
5
 70
0
 10
12.7579878965
 20
4.3297126073
 10
12.7405490463
 20
4.3546288491
 10
12.729168057
 20
4.3806867266
 10
12.7240582358
 20
4.4073978519
 10
12.7237675753
 20
4.4155336743
  0
LWPOLYLINE
  5
4E0
100
AcDbEntity
  8
02___PRT_ALL_AXES
100
AcDbPolyline
 62
7
  6
CONTINUOUS
 90
8
 70
0
 10
12.657769526
 20
4.5565834469
 10
12.658800138
 20
4.5398605061
 10
12.6670443076
 20
4.5067570053
 10
12.6833645783
 20
4.4746678272
 10
12.7074287162
 20
4.4442462149
 10
12.7387468451
 20
4.4161114646
 10
12.776681418
 20
4.3908363188
 10
12.8204601965
 20
4.3689353064
  0
LWPOLYLINE
  5
4E1
100
AcDbEntity
  8
02___PRT_ALL_AXES
100
AcDbPolyline
 62
7
  6
CONTINUOUS
 90
9
 70
0
 10
12.657769526
 20
4.609656104
 10
12.658800138
 20
4.5929331632
 10
12.6670443076
 20
4.5598296624
 10
12.6833645783
 20
4.5277404843
 10
12.7074287162
 20
4.497318872
 10
12.7387468451
 20
4.4691841217
 10
12.776681418
 20
4.4439089759
 10
12.8204601965
 20
4.4220079636
 10
12.8691919709
 20
4.4039269262
  0
LWPOLYLINE
  5
4E2
100
AcDbEntity
  8
02___PRT_ALL_AXES
100
AcDbPolyline
 62
7
  6
CONTINUOUS
 90
18
 70
0
 10
12.657769526
 20
4.6739476329
 10
12.658800138
 20
4.6572246921
 10
12.6670443076
 20
4.6241211914
 10
12.6833645783
 20
4.5920320133
 10
12.7074287162
 20
4.5616104009
 10
12.7387468451
 20
4.5334756506
 10
12.776681418
 20
4.5082005048
 10
12.8204601965
 20
4.4862994925
 10
12.8691919709
 20
4.4682184551
 10
12.9218847028
 20
4.4543254705
 10
12.9774657201
 20
4.4449033598
 10
13.0348035536
 20
4.4401439299
 10
13.0927309703
 20
4.4401440691
 10
13.1500687352
 20
4.4449037747
 10
13.2056496166
 20
4.4543261526
 10
13.2583421481
 20
4.4682193905
 10
13.3070736617
 20
4.4863006621
 10
13.3508521243
 20
4.5082018849
  0
LWPOLYLINE
  5
4E3
100
AcDbEntity
  8
02___PRT_ALL_AXES
100
AcDbPolyline
 62
7
  6
CONTINUOUS
 90
18
 70
0
 10
12.657769526
 20
4.72702029
 10
12.658800138
 20
4.7102973492
 10
12.6670443076
 20
4.6771938485
 10
12.6833645783
 20
4.6451046704
 10
12.7074287162
 20
4.614683058
 10
12.7387468451
 20
4.5865483078
 10
12.776681418
 20
4.5612731619
 10
12.8204601965
 20
4.5393721496
 10
12.8691919709
 20
4.5212911122
 10
12.9218847028
 20
4.5073981276
 10
12.9774657201
 20
4.4979760169
 10
13.0348035536
 20
4.493216587
 10
13.0927309703
 20
4.4932167262
 10
13.1500687352
 20
4.4979764318
 10
13.2056496166
 20
4.5073988097
 10
13.2583421481
 20
4.5212920476
 10
13.3070736617
 20
4.5393733193
 10
13.3508521243
 20
4.561274542
  0
LINE
  5
4E4
100
AcDbEntity
  8
02___PRT_ALL_AXES
100
AcDbLine
 62
7
  6
CONTINUOUS
 10
12.6577655759
 20
4.5565834452
 11
12.6577655759
 21
4.6096561024
  0
LINE
  5
4E5
100
AcDbEntity
  8
02___PRT_ALL_AXES
100
AcDbLine
 62
7
  6
CONTINUOUS
 10
12.6577655759
 20
4.6739476313
 11
12.6577655759
 21
4.7270202884
  0
LINE
  5
4E6
100
AcDbEntity
  8
02___PRT_ALL_AXES
100
AcDbLine
 62
7
  6
CONTINUOUS
 10
12.8855652838
 20
6.1751979747
 11
12.8912277894
 21
6.179181613
  0
LWPOLYLINE
  5
4E7
100
AcDbEntity
  8
02___PRT_ALL_AXES
100
AcDbPolyline
 62
7
  6
CONTINUOUS
 90
5
 70
0
 10
12.5032971009
 20
5.8284184532
 10
12.5098199762
 20
5.8328722081
 10
12.5208841364
 20
5.8447302328
 10
12.5290363475
 20
5.8602107393
 10
12.5291666583
 20
5.8606970692
  0
LINE
  5
4E8
100
AcDbEntity
  8
02___PRT_ALL_AXES
100
AcDbLine
 62
7
  6
CONTINUOUS
 10
12.8912277894
 20
6.179181613
 11
12.891230803
 21
6.1791833593
  0
LINE
  5
4E9
100
AcDbEntity
  8
0
100
AcDbLine
 62
7
  6
CONTINUOUS
 10
12.4116124783
 20
5.8826553614
 11
12.4667670369
 21
5.9144986705
  0
LINE
  5
4EA
100
AcDbEntity
  8
0
100
AcDbLine
 62
9
  6
CONTINUOUS
 10
12.5851651216
 20
5.9487104148
 11
12.5925417675
 21
5.9529692978
  0
LINE
  5
4EB
100
AcDbEntity
  8
0
100
AcDbLine
 62
7
  6
CONTINUOUS
 10
13.0169934954
 20
6.1803493233
 11
12.9858841975
 21
6.162388469
  0
LWPOLYLINE
  5
4EC
100
AcDbEntity
  8
AXIS
100
AcDbPolyline
 62
7
  6
CONTINUOUS
 90
8
 70
0
 10
13.0096638971
 20
3.9717184735
 10
13.0237461053
 20
3.9709269339
 10
13.0387211264
 20
3.971184779
 10
13.055405277
 20
3.9723785986
 10
13.0738874753
 20
3.9744359432
 10
13.0941278305
 20
3.9772148268
 10
13.1153582888
 20
3.9804104655
 10
13.1364561893
 20
3.98366842
  0
LWPOLYLINE
  5
4ED
100
AcDbEntity
  8
AXIS
100
AcDbPolyline
 62
7
  6
CONTINUOUS
 90
3
 70
0
 10
13.2932020704
 20
4.0285714363
 10
13.2955053021
 20
4.0282740566
 10
13.2971520345
 20
4.0290246592
  0
LINE
  5
4EE
100
AcDbEntity
  8
AXIS
100
AcDbLine
 62
7
  6
CONTINUOUS
 10
12.8379087696
 20
4.3455644406
 11
12.8747370355
 21
4.3291294948
  0
LWPOLYLINE
  5
4EF
100
AcDbEntity
  8
AXIS
100
AcDbPolyline
 62
7
  6
CONTINUOUS
 90
13
 70
0
 10
12.7503511504
 20
4.7313348451
 10
12.7567215301
 20
4.7223429526
 10
12.7642518729
 20
4.7136241443
 10
12.7719911789
 20
4.7059328232
 10
12.7797106262
 20
4.6991208553
 10
12.7874245463
 20
4.6929368682
 10
12.7954412917
 20
4.6870082704
 10
12.8041134813
 20
4.6810292627
 10
12.8137992544
 20
4.6747472171
 10
12.8248607255
 20
4.6679291584
 10
12.8373503543
 20
4.6605131837
 10
12.8509007343
 20
4.6526336991
 10
12.865045692
 20
4.6444631317
  0
LINE
  5
4F0
100
AcDbEntity
  8
AXIS
100
AcDbLine
 62
7
  6
CONTINUOUS
 10
12.7237655759
 20
4.4155406891
 11
12.7237655759
 21
4.42956994
  0
LINE
  5
4F1
100
AcDbEntity
  8
AXIS
100
AcDbLine
 62
7
  6
CONTINUOUS
 10
12.7503511504
 20
4.1125481668
 11
12.7503511504
 21
4.3406238205
  0
LINE
  5
4F2
100
AcDbEntity
  8
AXIS
100
AcDbLine
 62
7
  6
CONTINUOUS
 10
12.7503511504
 20
4.7313348451
 11
12.7503511504
 21
4.9651875858
  0
LINE
  5
4F3
100
AcDbEntity
  8
AXIS
100
AcDbLine
 62
7
  6
CONTINUOUS
 10
12.8096243806
 20
4.2851428436
 11
12.8096243806
 21
4.3618940708
  0
LINE
  5
4F4
100
AcDbEntity
  8
AXIS
100
AcDbLine
 62
7
  6
CONTINUOUS
 10
12.8379087696
 20
4.2688132134
 11
12.8379087696
 21
4.3455644406
  0
LINE
  5
4F5
100
AcDbEntity
  8
0
100
AcDbLine
 62
7
  6
CONTINUOUS
 10
12.840307811
 20
6.208327301
 11
12.840307811
 21
6.3613175172
  0
LWPOLYLINE
  5
4F6
100
AcDbEntity
  8
0
100
AcDbPolyline
 62
7
  6
CONTINUOUS
 90
4
 70
0
 10
12.8137655759
 20
6.2826518563
 10
12.8165418137
 20
6.3090351025
 10
12.8254117025
 20
6.336061817
 10
12.840307811
 20
6.3613175172
  0
LWPOLYLINE
  5
4F7
100
AcDbEntity
  8
AXIS
100
AcDbPolyline
 62
7
  6
CONTINUOUS
 90
13
 70
0
 10
12.7503511504
 20
4.9651875858
 10
12.7526685833
 20
4.9754680604
 10
12.7554323591
 20
4.9858124565
 10
12.7582965034
 20
4.9952397956
 10
12.761162711
 20
5.0037934621
 10
12.7640183718
 20
5.0116812617
 10
12.766967688
 20
5.019327231
 10
12.7701398956
 20
5.0271203135
 10
12.7736669068
 20
5.0353964222
 10
12.7776830547
 20
5.044472612
 10
12.7822226859
 20
5.0544558144
 10
12.7871590891
 20
5.065148004
 10
12.7923302996
 20
5.0762945816
  0
LWPOLYLINE
  5
4F8
100
AcDbEntity
  8
02___PRT_ALL_AXES
100
AcDbPolyline
 62
7
  6
CONTINUOUS
 90
3
 70
0
 10
12.6626410811
 20
4.6418018335
 10
12.6587998968
 20
4.6263770947
 10
12.657769526
 20
4.609656104
  0
LINE
  5
4F9
100
AcDbEntity
  8
02___PRT_ALL_AXES
100
AcDbLine
 62
7
  6
CONTINUOUS
 10
12.5300368467
 20
5.8438565605
 11
12.5032971009
 21
5.8284184532
  0
LINE
  5
4FA
100
AcDbEntity
  8
0
100
AcDbLine
 62
9
  6
CONTINUOUS
 10
12.5851651216
 20
5.7397629458
 11
12.5925417675
 21
5.7440218289
  0
LWPOLYLINE
  5
4FB
100
AcDbEntity
  8
0
100
AcDbPolyline
 62
3
  6
CONTINUOUS
 90
8
 70
0
 10
13.9363177895
 20
6.4636015568
 10
13.9580779866
 20
6.4736203612
 10
13.9831540886
 20
6.4805924259
 10
14.0102886749
 20
6.4841681423
 10
14.0381211041
 20
6.4841682092
 10
14.065255742
 20
6.4805926232
 10
14.0903319446
 20
6.4736206791
 10
14.1120922862
 20
6.4636019793
  0
LWPOLYLINE
  5
4FC
100
AcDbEntity
  8
0
100
AcDbPolyline
 62
7
  6
CONTINUOUS
 90
14
 70
0
 10
13.1758684058
 20
6.2154995044
 10
13.1406861279
 20
6.2009767098
 10
13.1032342156
 20
6.1876387155
 10
13.0638131574
 20
6.1760673524
 10
13.0237372903
 20
6.1672692416
 10
12.9846685446
 20
6.1622317229
 10
12.9483192909
 20
6.1616344673
 10
12.9157834933
 20
6.1656707998
 10
12.8870210244
 20
6.1744033427
 10
12.8620400095
 20
6.1880395052
 10
12.8416088564
 20
6.2064015183
 10
12.8264578952
 20
6.2288276836
 10
12.8170649083
 20
6.2543815855
 10
12.8137655759
 20
6.2826518563
  0
LWPOLYLINE
  5
4FD
100
AcDbEntity
  8
AXIS
100
AcDbPolyline
 62
7
  6
CONTINUOUS
 90
11
 70
0
 10
13.1364561893
 20
3.98366842
 10
13.1563580762
 20
3.9867518707
 10
13.1747635496
 20
3.989657719
 10
13.1914611764
 20
3.9924442717
 10
13.2063278547
 20
3.9951672473
 10
13.2195296724
 20
3.9978923291
 10
13.2314906614
 20
4.0007186127
 10
13.2426415467
 20
4.0037670923
 10
13.2534024914
 20
4.007209413
 10
13.2641051246
 20
4.0112827772
 10
13.2750074492
 20
4.0163602134
  0
LWPOLYLINE
  5
4FE
100
AcDbEntity
  8
AXIS
100
AcDbPolyline
 62
7
  6
CONTINUOUS
 90
7
 70
0
 10
12.8747370355
 20
4.3291294948
 10
12.9151082228
 20
4.3157526686
 10
12.9582656625
 20
4.3056846806
 10
13.0034004642
 20
4.2991142328
 10
13.0496666757
 20
4.2961644735
 10
13.0961971396
 20
4.2968906893
 10
13.1421197454
 20
4.3012792689
  0
LWPOLYLINE
  5
4FF
100
AcDbEntity
  8
02___PRT_ALL_AXES
100
AcDbPolyline
 62
7
  6
CONTINUOUS
 90
11
 70
0
 10
12.8204601965
 20
4.3689353064
 10
12.8691919709
 20
4.3508542691
 10
12.9218847028
 20
4.3369612845
 10
12.9774657201
 20
4.3275391738
 10
13.0348035536
 20
4.3227797439
 10
13.0927309703
 20
4.3227798831
 10
13.1500687352
 20
4.3275395886
 10
13.2056496166
 20
4.3369619666
 10
13.2583421481
 20
4.3508552045
 10
13.3070736617
 20
4.3689364761
 10
13.3508521243
 20
4.3908376989
  0
LWPOLYLINE
  5
500
100
AcDbEntity
  8
AXIS
100
AcDbPolyline
 62
7
  6
CONTINUOUS
 90
3
 70
0
 10
13.2932020704
 20
4.2624241771
 10
13.2847142541
 20
4.2663161973
 10
13.2838985498
 20
4.2665419624
  0
LWPOLYLINE
  5
501
100
AcDbEntity
  8
0
100
AcDbPolyline
 62
7
  6
CONTINUOUS
 90
7
 70
0
 10
12.4675356657
 20
6.1535294204
 10
12.4764859612
 20
6.1220722474
 10
12.486648613
 20
6.0904724437
 10
12.4979121245
 20
6.0588972111
 10
12.5101669136
 20
6.027486227
 10
12.5232929297
 20
5.9963894799
 10
12.5371693568
 20
5.9657420683
  0
LINE
  5
502
100
AcDbEntity
  8
02___PRT_ALL_AXES
100
AcDbLine
 62
7
  6
CONTINUOUS
 10
12.8762655759
 20
4.6379886116
 11
12.8762655759
 21
5.4533832778
  0
LINE
  5
503
100
AcDbEntity
  8
0
100
AcDbLine
 62
7
  6
CONTINUOUS
 10
12.9326935852
 20
6.2219461674
 11
12.9326935852
 21
6.1980876095
  0
LINE
  5
504
100
AcDbEntity
  8
0
100
AcDbLine
 62
7
  6
CONTINUOUS
 10
12.951662746
 20
6.4256079351
 11
12.951662746
 21
6.210994565
  0
LINE
  5
505
100
AcDbEntity
  8
AXIS
100
AcDbLine
 62
7
  6
CONTINUOUS
 10
12.9797876449
 20
3.9800859417
 11
12.9797876449
 21
4.2139386824
  0
LINE
  5
506
100
AcDbEntity
  8
AXIS
100
AcDbLine
 62
7
  6
CONTINUOUS
 10
12.9797876449
 20
4.5988726199
 11
12.9797876449
 21
4.8327253607
  0
LWPOLYLINE
  5
507
100
AcDbEntity
  8
0
100
AcDbPolyline
 62
7
  6
CONTINUOUS
 90
6
 70
0
 10
12.9837031812
 20
5.6644817538
 10
12.9765303612
 20
5.6190309387
 10
12.9729141341
 20
5.574906472
 10
12.9729141341
 20
5.5326515225
 10
12.9765303612
 20
5.4927026902
 10
12.9837031812
 20
5.4555342848
  0
LWPOLYLINE
  5
508
100
AcDbEntity
  8
AXIS
100
AcDbPolyline
 62
9
  6
CONTINUOUS
 90
9
 70
0
 10
12.7923436885
 20
5.0763261016
 10
12.7851701191
 20
5.0555054455
 10
12.7827655761
 20
5.0343334493
 10
12.78516737
 20
5.0131613471
 10
12.7923346672
 20
4.9923507442
 10
12.8041455983
 20
4.972257147
 10
12.8203992907
 20
4.9532239622
 10
12.8408192205
 20
4.9355766946
 10
12.8650632317
 20
4.919613882
  0
LWPOLYLINE
  5
509
100
AcDbEntity
  8
AXIS
100
AcDbPolyline
 62
7
  6
CONTINUOUS
 90
12
 70
0
 10
12.7923302996
 20
5.0762945816
 10
12.7974144382
 20
5.0872455927
 10
12.8023609083
 20
5.0978500002
 10
12.8069553886
 20
5.107548824
 10
12.8110421563
 20
5.115924879
 10
12.8146257129
 20
5.1229532079
 10
12.8178429
 20
5.1289002479
 10
12.8208319294
 20
5.1340091033
 10
12.8237247671
 20
5.1384479965
 10
12.826610888
 20
5.1422151496
 10
12.8294209582
 20
5.1450031351
 10
12.8303779048
 20
5.1456808632
  0
LWPOLYLINE
  5
50A
100
AcDbEntity
  8
0
100
AcDbPolyline
 62
7
  6
CONTINUOUS
 90
17
 70
0
 10
13.3421556951
 20
6.1253460983
 10
13.2909177522
 20
6.0824129411
 10
13.2418315303
 20
6.0324840775
 10
13.1958849306
 20
5.9765643509
 10
13.1540026701
 20
5.9157791785
 10
13.1170276705
 20
5.8513519019
 10
13.0857040935
 20
5.7845791666
 10
13.0606623637
 20
5.7168048267
 10
13.04240648
 20
5.6493928986
 10
13.0313038719
 20
5.5837001092
 10
13.0275780037
 20
5.5210485908
 10
13.0313038719
 20
5.4626993086
 10
13.04240648
 20
5.4098266303
 10
13.0606623637
 20
5.3634946551
 10
13.0857040935
 20
5.3246358414
 10
13.1170276705
 20
5.2940322414
 10
13.136029051
 20
5.2813459486
  0
LWPOLYLINE
  5
50B
100
AcDbEntity
  8
0
100
AcDbPolyline
 62
3
  6
CONTINUOUS
 90
15
 70
0
 10
13.3978331626
 20
6.1527091683
 10
13.3349892726
 20
6.1100776849
 10
13.2740548624
 20
6.0560440114
 10
13.2168813932
 20
5.9922499336
 10
13.165206052
 20
5.9206338021
 10
13.1205989678
 20
5.8433716371
 10
13.0844155043
 20
5.7628110101
 10
13.0577550778
 20
5.6813997152
 10
13.0414277518
 20
5.6016113932
 10
13.0359296239
 20
5.5258703721
 10
13.0414277518
 20
5.4564780044
 10
13.0577550778
 20
5.395542742
 10
13.0844155043
 20
5.3449160722
 10
13.1205989678
 20
5.3061362606
 10
13.1419375523
 20
5.2915799856
  0
LWPOLYLINE
  5
50C
100
AcDbEntity
  8
0
100
AcDbPolyline
 62
7
  6
CONTINUOUS
 90
3
 70
0
 10
13.4718012941
 20
6.1100046138
 10
13.4089574041
 20
6.0673731304
 10
13.3480229939
 20
6.0133394569
  0
LINE
  5
50D
100
AcDbEntity
  8
0
100
AcDbLine
 62
9
  6
CONTINUOUS
 10
12.6007974386
 20
5.7166427276
 11
12.6082680881
 21
5.7209558834
  0
LINE
  5
50E
100
AcDbEntity
  8
0
100
AcDbLine
 62
3
  6
CONTINUOUS
 10
13.9363177895
 20
6.4636015568
 11
13.3978331626
 21
6.1527091683
  0
LINE
  5
50F
100
AcDbEntity
  8
0
100
AcDbLine
 62
7
  6
CONTINUOUS
 10
14.010285921
 20
6.4208970023
 11
13.4718012941
 21
6.1100046138
  0
LINE
  5
510
100
AcDbEntity
  8
0
100
AcDbLine
 62
9
  6
CONTINUOUS
 10
14.1120922862
 20
6.4636019793
 11
14.0381247706
 21
6.4208970692
  0
LWPOLYLINE
  5
511
100
AcDbEntity
  8
0
100
AcDbPolyline
 62
7
  6
CONTINUOUS
 90
8
 70
0
 10
14.010285921
 20
6.4208970023
 10
14.013732262
 20
6.4224837626
 10
14.0177037701
 20
6.4235879857
 10
14.0220012972
 20
6.4241543012
 10
14.0264093474
 20
6.4241543118
 10
14.0307068827
 20
6.4235880169
 10
14.0346784067
 20
6.4224838129
 10
14.0381247706
 20
6.4208970692
  0
LWPOLYLINE
  5
512
100
AcDbEntity
  8
0
100
AcDbPolyline
 62
7
  6
CONTINUOUS
 90
4
 70
0
 10
12.5914826773
 20
5.9590155226
 10
12.5944731862
 20
5.9599991577
 10
12.5977108529
 20
5.9595735135
 10
12.6007974386
 20
5.9577359611
  0
LINE
  5
513
100
AcDbEntity
  8
0
100
AcDbLine
 62
7
  6
CONTINUOUS
 10
13.4718632062
 20
6.1954501788
 11
13.4535106301
 21
6.1896365162
  0
LWPOLYLINE
  5
514
100
AcDbEntity
  8
02___PRT_ALL_AXES
100
AcDbPolyline
 62
7
  6
CONTINUOUS
 90
10
 70
0
 10
12.8691919709
 20
4.4039269262
 10
12.9218847028
 20
4.3900339416
 10
12.9774657201
 20
4.3806118309
 10
13.0348035536
 20
4.375852401
 10
13.0927309703
 20
4.3758525402
 10
13.1500687352
 20
4.3806122458
 10
13.2056496166
 20
4.3900346237
 10
13.2583421481
 20
4.4039278616
 10
13.3070736617
 20
4.4220091332
 10
13.3508521243
 20
4.443910356
  0
LWPOLYLINE
  5
515
100
AcDbEntity
  8
AXIS
100
AcDbPolyline
 62
7
  6
CONTINUOUS
 90
4
 70
0
 10
12.9797876449
 20
4.5988726199
 10
12.9881894457
 20
4.5950112825
 10
12.9984132184
 20
4.5921989691
 10
13.0096638971
 20
4.5905051518
  0
LWPOLYLINE
  5
516
100
AcDbEntity
  8
AXIS
100
AcDbPolyline
 62
7
  6
CONTINUOUS
 90
11
 70
0
 10
12.865045692
 20
4.6444631317
 10
12.8790188512
 20
4.6363998129
 10
12.89257558
 20
4.6286277762
 10
12.9051542789
 20
4.6215694665
 10
12.916331277
 20
4.615551219
 10
12.9261004882
 20
4.6106084502
 10
12.9348266258
 20
4.6065535158
 10
12.9428794607
 20
4.6032186348
 10
12.9506194662
 20
4.600498901
 10
12.9583496717
 20
4.5984130078
 10
12.9593321586
 20
4.5982075257
  0
LWPOLYLINE
  5
517
100
AcDbEntity
  8
0
100
AcDbPolyline
 62
7
  6
CONTINUOUS
 90
8
 70
0
 10
12.8890765963
 20
4.971022604
 10
12.8746523256
 20
4.9868052717
 10
12.8644736814
 20
5.0036586013
 10
12.8587785173
 20
5.0211700658
 10
12.8576712645
 20
5.0389533412
 10
12.8611846338
 20
5.0566881666
 10
12.8692990183
 20
5.0739995786
 10
12.8762655759
 20
5.08313126
  0
LWPOLYLINE
  5
518
100
AcDbEntity
  8
AXIS
100
AcDbPolyline
 62
7
  6
CONTINUOUS
 90
13
 70
0
 10
12.9797876449
 20
4.8327253607
 10
12.9736441669
 20
4.841428354
 10
12.9663515822
 20
4.8499390995
 10
12.9586559278
 20
4.857651981
 10
12.9508222202
 20
4.8646082775
 10
12.9429638915
 20
4.8709312672
 10
12.9348245769
 20
4.8769612659
 10
12.9260560126
 20
4.8830104353
 10
12.916298159
 20
4.8893391131
 10
12.9051840441
 20
4.8961877925
 10
12.8926728973
 20
4.9036147282
 10
12.8791384768
 20
4.9114841159
 10
12.865068575
 20
4.9196112409
  0
LINE
  5
519
100
AcDbEntity
  8
0
100
AcDbLine
 62
9
  6
CONTINUOUS
 10
12.3126523487
 20
6.0133150011
 11
12.3145337248
 21
6.0103866709
  0
LINE
  5
51A
100
AcDbEntity
  8
0
100
AcDbLine
 62
7
  6
CONTINUOUS
 10
12.3102272326
 20
6.0176993452
 11
12.3144986275
 21
6.0108442694
  0
LWPOLYLINE
  5
51B
100
AcDbEntity
  8
0
100
AcDbPolyline
 62
7
  6
CONTINUOUS
 90
7
 70
0
 10
12.5925417675
 20
5.7440218289
 10
12.5940458154
 20
5.7401084351
 10
12.5962408146
 20
5.7358788762
 10
12.5988961826
 20
5.7316866053
 10
12.6019438114
 20
5.7275971582
 10
12.6051810444
 20
5.723893948
 10
12.6082680881
 20
5.7209558834
  0
LINE
  5
51C
100
AcDbEntity
  8
0
100
AcDbLine
 62
7
  6
CONTINUOUS
 10
13.0169934954
 20
6.1803493233
 11
13.0169934954
 21
6.1663996976
  0
LWPOLYLINE
  5
51D
100
AcDbEntity
  8
0
100
AcDbPolyline
 62
7
  6
CONTINUOUS
 90
4
 70
0
 10
13.3137655759
 20
6.320391116
 10
13.3106243331
 20
6.307364763
 10
13.3016335881
 20
6.2938962907
 10
13.2872233408
 20
6.2797899224
  0
LWPOLYLINE
  5
51E
100
AcDbEntity
  8
0
100
AcDbPolyline
 62
7
  6
CONTINUOUS
 90
8
 70
0
 10
13.2515287631
 20
5.752689238
 10
13.2275048748
 20
5.7003214776
 10
13.2087414627
 20
5.6471249486
 10
13.1956760787
 20
5.5942083833
 10
13.1886563623
 20
5.5426883268
 10
13.1879297962
 20
5.4936935094
 10
13.1936093804
 20
5.4483874348
 10
13.2055920242
 20
5.4079551355
  0
LWPOLYLINE
  5
51F
100
AcDbEntity
  8
0
100
AcDbPolyline
 62
7
  6
CONTINUOUS
 90
3
 70
0
 10
13.3118070852
 20
5.848776604
 10
13.2802887583
 20
5.803132582
 10
13.2515287631
 20
5.752689238
  0
LWPOLYLINE
  5
520
100
AcDbEntity
  8
02___PRT_ALL_AXES
100
AcDbPolyline
 62
7
  6
CONTINUOUS
 90
5
 70
0
 10
13.333999562
 20
5.8881568652
 10
13.2946468022
 20
5.8336184267
 10
13.2606767919
 20
5.7747803163
 10
13.2331216928
 20
5.7134303004
 10
13.2321315909
 20
5.7104068876
  0
LWPOLYLINE
  5
521
100
AcDbEntity
  8
0
100
AcDbPolyline
 62
7
  6
CONTINUOUS
 90
4
 70
0
 10
13.3413954355
 20
5.8762125894
 10
13.3573018554
 20
5.8955581142
 10
13.3737595481
 20
5.9139764291
 10
13.3906966151
 20
5.9313867753
  0
LWPOLYLINE
  5
522
100
AcDbEntity
  8
0
100
AcDbPolyline
 62
7
  6
CONTINUOUS
 90
13
 70
0
 10
13.3480229939
 20
6.0133394569
 10
13.2908495247
 20
5.9495453791
 10
13.2391741835
 20
5.8779292476
 10
13.1945670993
 20
5.8006670825
 10
13.1583836358
 20
5.7201064556
 10
13.1317232093
 20
5.6386951606
 10
13.1153958833
 20
5.5589068387
 10
13.1098977553
 20
5.4831658176
 10
13.1153958833
 20
5.4137734499
 10
13.1317232093
 20
5.3528381875
 10
13.1583836358
 20
5.3022115177
 10
13.1945670993
 20
5.2634317061
 10
13.2159056838
 20
5.2488754311
  0
LINE
  5
523
100
AcDbEntity
  8
0
100
AcDbLine
 62
7
  6
CONTINUOUS
 10
13.3126725842
 20
5.8495533702
 11
13.3118075507
 21
5.8487769054
  0
LWPOLYLINE
  5
524
100
AcDbEntity
  8
02___PRT_ALL_AXES
100
AcDbPolyline
 62
7
  6
CONTINUOUS
 90
3
 70
0
 10
13.4239432548
 20
5.9778872297
 10
13.3775393578
 20
5.9367385091
 10
13.333999562
 20
5.8881568652
  0
LINE
  5
525
100
AcDbEntity
  8
02___PRT_ALL_AXES
100
AcDbLine
 62
7
  6
CONTINUOUS
 10
13.4718012941
 20
6.010352744
 11
13.4239432548
 21
5.9778872297
  0
LINE
  5
526
100
AcDbEntity
  8
0
100
AcDbLine
 62
7
  6
CONTINUOUS
 10
13.3906966151
 20
5.9313867753
 11
13.4256725918
 21
5.9522850061
  0
LINE
  5
527
100
AcDbEntity
  8
0
100
AcDbLine
 62
7
  6
CONTINUOUS
 10
13.3413954355
 20
5.8762125894
 11
13.4256725918
 21
5.9265683945
  0
LINE
  5
528
100
AcDbEntity
  8
0
100
AcDbLine
 62
7
  6
CONTINUOUS
 10
13.3127100371
 20
5.8495757509
 11
13.3384314121
 21
5.8649443348
  0
LINE
  5
529
100
AcDbEntity
  8
0
100
AcDbLine
 62
9
  6
CONTINUOUS
 10
13.3213505039
 20
5.8478825342
 11
13.3553149183
 21
5.8681763541
  0
LWPOLYLINE
  5
52A
100
AcDbEntity
  8
0
100
AcDbPolyline
 62
7
  6
CONTINUOUS
 90
6
 70
0
 10
13.3384598934
 20
5.8649613524
 10
13.3391756663
 20
5.8653800888
 10
13.3438461856
 20
5.8676549753
 10
13.3482534966
 20
5.8689605045
 10
13.3521610731
 20
5.8691580538
 10
13.3553149183
 20
5.8681763541
  0
LINE
  5
52B
100
AcDbEntity
  8
0
100
AcDbLine
 62
9
  6
CONTINUOUS
 10
14.1230093444
 20
6.4572991554
 11
14.0490418288
 21
6.4145942453
  0
LINE
  5
52C
100
AcDbEntity
  8
0
100
AcDbLine
 62
7
  6
CONTINUOUS
 10
13.5720035034
 20
6.0360637312
 11
13.5370275268
 21
6.016575424
  0
LINE
  5
52D
100
AcDbEntity
  8
0
100
AcDbLine
 62
7
  6
CONTINUOUS
 10
13.5370275268
 20
5.9908588124
 11
13.621304683
 21
6.0378173041
  0
LINE
  5
52E
100
AcDbEntity
  8
0
100
AcDbLine
 62
7
  6
CONTINUOUS
 10
13.6321339003
 20
6.0345183999
 11
13.6582000375
 21
6.0490422227
  0
LINE
  5
52F
100
AcDbEntity
  8
0
100
AcDbLine
 62
9
  6
CONTINUOUS
 10
13.6352241658
 20
6.0297810688
 11
13.6691885802
 21
6.0487057424
  0
LWPOLYLINE
  5
530
100
AcDbEntity
  8
0
100
AcDbPolyline
 62
3
  6
CONTINUOUS
 90
24
 70
0
 10
14.3992630172
 20
6.4596437216
 10
14.4442436906
 20
6.4813231043
 10
14.5256597528
 20
6.5026130698
 10
14.6146207847
 20
6.5055677485
 10
14.7093391491
 20
6.4901277671
 10
14.8079115176
 20
6.4566033861
 10
14.9083571169
 20
6.4056682649
 10
15.0086575321
 20
6.3383459246
 10
15.1067972655
 20
6.2559891816
 10
15.2008042376
 20
6.1602529622
 10
15.2887894151
 20
6.0530610483
 10
15.3689847703
 20
5.9365674196
 10
15.4397788088
 20
5.8131129699
 10
15.4997489521
 20
5.685178468
 10
15.5476901238
 20
5.5553347079
 10
15.5826389646
 20
5.4261908489
 10
15.6038931914
 20
5.3003419864
 10
15.6110257087
 20
5.1803170042
 10
15.6038931914
 20
5.0685277572
 10
15.5826389646
 20
4.9672206066
 10
15.5476901238
 20
4.87843128
 10
15.4997489521
 20
4.8039439642
 10
15.4397788088
 20
4.7452554527
 10
15.4030893557
 20
4.7207344427
  0
LWPOLYLINE
  5
531
100
AcDbEntity
  8
0
100
AcDbPolyline
 62
7
  6
CONTINUOUS
 90
24
 70
0
 10
14.3252955016
 20
6.4169388115
 10
14.3702761751
 20
6.4386181942
 10
14.4516922373
 20
6.4599081597
 10
14.5406532691
 20
6.4628628383
 10
14.6353716335
 20
6.447422857
 10
14.733944002
 20
6.413898476
 10
14.8343896013
 20
6.3629633547
 10
14.9346900165
 20
6.2956410145
 10
15.0328297499
 20
6.2132842715
 10
15.126836722
 20
6.1175480521
 10
15.2148218995
 20
6.0103561382
 10
15.2950172547
 20
5.8938625095
 10
15.3658112932
 20
5.7704080598
 10
15.4257814366
 20
5.6424735579
 10
15.4737226082
 20
5.5126297977
 10
15.508671449
 20
5.3834859388
 10
15.5299256758
 20
5.2576370763
 10
15.5370581931
 20
5.1376120941
 10
15.5299256758
 20
5.0258228471
 10
15.508671449
 20
4.9245156965
 10
15.4737226082
 20
4.8357263699
 10
15.4257814366
 20
4.7612390541
 10
15.3658112932
 20
4.7025505426
 10
15.3291218402
 20
4.6780295326
  0
LINE
  5
532
100
AcDbEntity
  8
0
100
AcDbLine
 62
3
  6
CONTINUOUS
 10
14.320039803
 20
6.4177816219
 11
14.3242374258
 21
6.4195093992
  0
LWPOLYLINE
  5
533
100
AcDbEntity
  8
AXIS
100
AcDbPolyline
 62
7
  6
CONTINUOUS
 90
3
 70
0
 10
12.9593331295
 20
4.5982034966
 10
12.969189597
 20
4.5962808719
 10
13.0096637159
 20
4.5905046214
  0
LWPOLYLINE
  5
534
100
AcDbEntity
  8
AXIS
100
AcDbPolyline
 62
7
  6
CONTINUOUS
 90
13
 70
0
 10
12.865068575
 20
4.9196112409
 10
12.8509620071
 20
4.927751396
 10
12.8373847217
 20
4.9355339489
 10
12.8248689825
 20
4.9425544221
 10
12.8138090674
 20
4.948508176
 10
12.8041453193
 20
4.953399682
 10
12.7954855511
 20
4.9574301799
 10
12.7874476582
 20
4.9607689312
 10
12.7796602499
 20
4.9635168734
 10
12.7718354005
 20
4.9656369939
 10
12.7640482655
 20
4.9668653803
 10
12.7565860196
 20
4.966807921
 10
12.7503511504
 20
4.9651875858
  0
LWPOLYLINE
  5
535
100
AcDbEntity
  8
0
100
AcDbPolyline
 62
7
  6
CONTINUOUS
 90
4
 70
0
 10
12.9837031812
 20
5.4555342848
 10
12.9841674423
 20
5.452172569
 10
12.9836864803
 20
5.4496081685
 10
12.98234399
 20
5.448091873
  0
LINE
  5
536
100
AcDbEntity
  8
02___PRT_ALL_AXES
100
AcDbLine
 62
7
  6
CONTINUOUS
 10
13.2512655759
 20
5.0108655906
 11
13.2512655759
 21
5.2348816203
  0
LWPOLYLINE
  5
537
100
AcDbEntity
  8
0
100
AcDbPolyline
 62
9
  6
CONTINUOUS
 90
11
 70
0
 10
13.1955815992
 20
5.5472204564
 10
13.1997743419
 20
5.5771291915
 10
13.2060267604
 20
5.6077014708
 10
13.2142914132
 20
5.6387042536
 10
13.2245044556
 20
5.6698983816
 10
13.2365867737
 20
5.7010439813
 10
13.2504506982
 20
5.7319145827
 10
13.2659964362
 20
5.7622835273
 10
13.283097186
 20
5.7919008884
 10
13.3016033755
 20
5.8205137352
 10
13.3213505039
 20
5.8478825342
  0
LINE
  5
538
100
AcDbEntity
  8
0
100
AcDbLine
 62
7
  6
CONTINUOUS
 10
14.2980411064
 20
6.3994207554
 11
14.3252955016
 21
6.4169388115
  0
LINE
  5
539
100
AcDbEntity
  8
0
100
AcDbLine
 62
7
  6
CONTINUOUS
 10
14.2851244974
 20
6.3911509341
 11
14.2980411064
 21
6.3994207554
  0
LINE
  5
53A
100
AcDbEntity
  8
0
100
AcDbLine
 62
7
  6
CONTINUOUS
 10
14.3433508086
 20
6.4273766304
 11
14.3991658303
 21
6.4596012558
  0
LINE
  5
53B
100
AcDbEntity
  8
0
100
AcDbLine
 62
9
  6
CONTINUOUS
 10
13.6800743885
 20
6.0424209589
 11
13.5638967504
 21
5.9753462099
  0
LINE
  5
53C
100
AcDbEntity
  8
0
100
AcDbLine
 62
9
  6
CONTINUOUS
 10
13.4525418154
 20
5.9110557919
 11
13.3322363149
 21
5.8415977522
  0
LINE
  5
53D
100
AcDbEntity
  8
0
100
AcDbLine
 62
9
  6
CONTINUOUS
 10
13.4664591782
 20
5.8869503463
 11
13.3502040928
 21
5.8198308024
  0
LINE
  5
53E
100
AcDbEntity
  8
0
100
AcDbLine
 62
9
  6
CONTINUOUS
 10
13.6900803115
 20
6.0160572574
 11
13.5778141132
 21
5.9512407643
  0
LWPOLYLINE
  5
53F
100
AcDbEntity
  8
AXIS
100
AcDbPolyline
 62
7
  6
CONTINUOUS
 90
6
 70
0
 10
13.1421197454
 20
4.3012792689
 10
13.1865737756
 20
4.3092479579
 10
13.228726038
 20
4.3206474011
 10
13.2677864807
 20
4.3352639408
 10
13.3030230055
 20
4.3528236237
 10
13.3337749111
 20
4.3729971299
  0
LWPOLYLINE
  5
540
100
AcDbEntity
  8
AXIS
100
AcDbPolyline
 62
7
  6
CONTINUOUS
 90
8
 70
0
 10
13.0096638971
 20
4.5905051518
 10
13.0237461053
 20
4.5897136122
 10
13.0387211264
 20
4.5899714573
 10
13.055405277
 20
4.5911652769
 10
13.0738874753
 20
4.5932226215
 10
13.0941278305
 20
4.5960015051
 10
13.1153582888
 20
4.5991971438
 10
13.1364561893
 20
4.6024550983
  0
LWPOLYLINE
  5
541
100
AcDbEntity
  8
AXIS
100
AcDbPolyline
 62
7
  6
CONTINUOUS
 90
3
 70
0
 10
13.2932020704
 20
4.6473581146
 10
13.2955053021
 20
4.6470607349
 10
13.2971520345
 20
4.6478113375
  0
LWPOLYLINE
  5
542
100
AcDbEntity
  8
AXIS
100
AcDbPolyline
 62
7
  6
CONTINUOUS
 90
4
 70
0
 10
12.9593321586
 20
4.5982075257
 10
12.966060844
 20
4.5971973811
 10
12.9735053412
 20
4.597246664
 10
12.9797876449
 20
4.5988726199
  0
LWPOLYLINE
  5
543
100
AcDbEntity
  8
AXIS
100
AcDbPolyline
 62
9
  6
CONTINUOUS
 90
9
 70
0
 10
12.8650632317
 20
4.919613882
 10
12.8927102993
 20
4.9056162292
 10
12.9232750618
 20
4.8938262142
 10
12.9562404823
 20
4.8844413805
 10
12.9910428085
 20
4.8776213872
 10
13.0270872784
 20
4.873482221
 10
13.0637581689
 20
4.8720942611
 10
13.1004291886
 20
4.8734811051
 10
13.1364846142
 20
4.8776203885
  0
LWPOLYLINE
  5
544
100
AcDbEntity
  8
0
100
AcDbPolyline
 62
7
  6
CONTINUOUS
 90
3
 70
0
 10
12.9179233304
 20
4.9501299986
 10
12.9074107409
 20
4.9566706221
 10
12.8890765963
 20
4.971022604
  0
LWPOLYLINE
  5
545
100
AcDbEntity
  8
AXIS
100
AcDbPolyline
 62
7
  6
CONTINUOUS
 90
6
 70
0
 10
12.469420212
 20
5.8217699677
 10
12.5308863939
 20
5.7537990163
 10
12.6661934759
 20
5.6228859283
 10
12.8132596731
 20
5.499228813
 10
12.9703176725
 20
5.3849473296
 10
13.1360265811
 20
5.2813416708
  0
LINE
  5
546
100
AcDbEntity
  8
0
100
AcDbLine
 62
7
  6
CONTINUOUS
 10
12.3564579198
 20
5.9512679557
 11
12.4116124783
 21
5.8826553614
  0
LINE
  5
547
100
AcDbEntity
  8
0
100
AcDbLine
 62
7
  6
CONTINUOUS
 10
12.4667670369
 20
5.9611220288
 11
12.4116124783
 21
6.0297346231
  0
LWPOLYLINE
  5
548
100
AcDbEntity
  8
0
100
AcDbPolyline
 62
9
  6
CONTINUOUS
 90
15
 70
0
 10
13.2060265204
 20
5.4480513482
 10
13.2030741677
 20
5.4730980219
 10
13.2021074793
 20
5.4994426072
 10
13.2031335042
 20
5.5268971868
 10
13.2061447992
 20
5.5552663559
 10
13.2111201726
 20
5.5843511057
 10
13.2180257986
 20
5.6139504683
 10
13.2268123567
 20
5.6438505957
 10
13.2374102144
 20
5.6738200315
 10
13.2497461869
 20
5.7036584403
 10
13.2637686518
 20
5.7332279547
 10
13.2793778469
 20
5.7622963348
 10
13.2962948011
 20
5.7903788825
 10
13.3141090329
 20
5.8169355785
 10
13.3323626502
 20
5.8415248153
  0
LINE
  5
549
100
AcDbEntity
  8
0
100
AcDbLine
 62
7
  6
CONTINUOUS
 10
13.2872233408
 20
6.2797899224
 11
13.2872233408
 21
6.1560786811
  0
LINE
  5
54A
100
AcDbEntity
  8
AXIS
100
AcDbLine
 62
7
  6
CONTINUOUS
 10
13.2932020704
 20
4.0285714363
 11
13.2932020704
 21
4.2624241771
  0
LINE
  5
54B
100
AcDbEntity
  8
AXIS
100
AcDbLine
 62
7
  6
CONTINUOUS
 10
13.2932020704
 20
4.6473581146
 11
13.2932020704
 21
4.8812108553
  0
LINE
  5
54C
100
AcDbEntity
  8
0
100
AcDbLine
 62
7
  6
CONTINUOUS
 10
13.3421556951
 20
6.1253460983
 11
13.3421556951
 21
6.1149391794
  0
LINE
  5
54D
100
AcDbEntity
  8
AXIS
100
AcDbLine
 62
7
  6
CONTINUOUS
 10
13.3771800014
 20
4.2095191561
 11
13.3771800014
 21
4.3399525705
  0
LINE
  5
54E
100
AcDbEntity
  8
AXIS
100
AcDbLine
 62
7
  6
CONTINUOUS
 10
13.3771800014
 20
4.8283058344
 11
13.3771800014
 21
5.0621585752
  0
LINE
  5
54F
100
AcDbEntity
  8
AXIS
100
AcDbLine
 62
7
  6
CONTINUOUS
 10
13.4037655759
 20
4.4155406891
 11
13.4037655759
 21
4.4295699289
  0
LWPOLYLINE
  5
550
100
AcDbEntity
  8
0
100
AcDbPolyline
 62
7
  6
CONTINUOUS
 90
5
 70
0
 10
13.2518244265
 20
5.0108655906
 10
13.2477795271
 20
4.99582312
 10
13.2400882507
 20
4.9811701306
 10
13.2288626357
 20
4.9672293135
 10
13.2144515454
 20
4.9544168866
  0
LWPOLYLINE
  5
551
100
AcDbEntity
  8
0
100
AcDbPolyline
 62
7
  6
CONTINUOUS
 90
4
 70
0
 10
13.3502040928
 20
5.3123440845
 10
13.3482683783
 20
5.30718934
 10
13.3452033902
 20
5.3032245339
 10
13.3429341033
 20
5.3016126507
  0
LINE
  5
552
100
AcDbEntity
  8
0
100
AcDbLine
 62
7
  6
CONTINUOUS
 10
13.2518244265
 20
5.0108655906
 11
13.2512655759
 21
5.0095582557
  0
LINE
  5
553
100
AcDbEntity
  8
0
100
AcDbLine
 62
9
  6
CONTINUOUS
 10
12.973916512
 20
5.4498837047
 11
12.9811803662
 21
5.4540774678
  0
LWPOLYLINE
  5
554
100
AcDbEntity
  8
AXIS
100
AcDbPolyline
 62
7
  6
CONTINUOUS
 90
13
 70
0
 10
13.2932020704
 20
4.8812108553
 10
13.2847142541
 20
4.8851028756
 10
13.2749295059
 20
4.8878110322
 10
13.2644717236
 20
4.889456678
 10
13.2537287272
 20
4.8902461482
 10
13.2429563479
 20
4.8903760327
 10
13.2318235563
 20
4.8899884097
 10
13.2198371327
 20
4.8891228134
 10
13.2064795439
 20
4.8877535043
 10
13.1912431425
 20
4.8858296496
 10
13.1740979292
 20
4.8833807695
 10
13.1555990984
 20
4.880573892
 10
13.136487227
 20
4.877621216
  0
LWPOLYLINE
  5
555
100
AcDbEntity
  8
0
100
AcDbPolyline
 62
7
  6
CONTINUOUS
 90
7
 70
0
 10
12.6007974386
 20
5.7166427276
 10
12.5977740456
 20
5.7195147483
 10
12.5946229843
 20
5.7231138342
 10
12.5915925231
 20
5.7271785451
 10
12.5888842881
 20
5.7314686805
 10
12.5866564471
 20
5.7358050852
 10
12.5851651216
 20
5.7397629458
  0
LWPOLYLINE
  5
556
100
AcDbEntity
  8
0
100
AcDbPolyline
 62
7
  6
CONTINUOUS
 90
7
 70
0
 10
13.2512655759
 20
5.0836146403
 10
13.2528788262
 20
5.0818494631
 10
13.2630574704
 20
5.0649961335
 10
13.2687526346
 20
5.047484669
 10
13.2698598873
 20
5.0297013936
 10
13.266346518
 20
5.0119665683
 10
13.2582321335
 20
4.9946551563
  0
LWPOLYLINE
  5
557
100
AcDbEntity
  8
0
100
AcDbPolyline
 62
7
  6
CONTINUOUS
 90
4
 70
0
 10
13.2055920242
 20
5.4079551355
 10
13.2234674418
 20
5.3734770213
 10
13.246605774
 20
5.3456553609
 10
13.2743518632
 20
5.3248432114
  0
LWPOLYLINE
  5
558
100
AcDbEntity
  8
02___PRT_ALL_AXES
100
AcDbPolyline
 62
7
  6
CONTINUOUS
 90
3
 70
0
 10
13.4697616258
 20
4.6096561007
 10
13.4687310138
 20
4.6263790415
 10
13.4648900707
 20
4.6418019001
  0
LWPOLYLINE
  5
559
100
AcDbEntity
  8
02___PRT_ALL_AXES
100
AcDbPolyline
 62
7
  6
CONTINUOUS
 90
7
 70
0
 10
13.4697616258
 20
4.7270202867
 10
13.4687310138
 20
4.7437432276
 10
13.4604868442
 20
4.7768467283
 10
13.4441665735
 20
4.8089359064
 10
13.4201024356
 20
4.8393575187
 10
13.3887843067
 20
4.867492269
 10
13.3771800014
 20
4.8752240157
  0
LINE
  5
55A
100
AcDbEntity
  8
0
100
AcDbLine
 62
7
  6
CONTINUOUS
 10
13.4256725918
 20
5.9265683945
 11
13.4256725918
 21
5.9522850061
  0
LINE
  5
55B
100
AcDbEntity
  8
0
100
AcDbLine
 62
7
  6
CONTINUOUS
 10
13.4535106301
 20
6.1848543773
 11
13.4535106301
 21
6.1896365162
  0
LINE
  5
55C
100
AcDbEntity
  8
0
100
AcDbLine
 62
7
  6
CONTINUOUS
 10
13.4664591782
 20
5.3748576447
 11
13.4664591782
 21
5.8869503463
  0
LINE
  5
55D
100
AcDbEntity
  8
02___PRT_ALL_AXES
100
AcDbLine
 62
7
  6
CONTINUOUS
 10
13.4697655759
 20
4.5565834452
 11
13.4697655759
 21
4.6096561024
  0
LINE
  5
55E
100
AcDbEntity
  8
02___PRT_ALL_AXES
100
AcDbLine
 62
7
  6
CONTINUOUS
 10
13.4697655759
 20
4.6739476313
 11
13.4697655759
 21
4.7270202884
  0
LINE
  5
55F
100
AcDbEntity
  8
0
100
AcDbLine
 62
7
  6
CONTINUOUS
 10
13.5370275268
 20
6.016575424
 11
13.5370275268
 21
5.9908588124
  0
LINE
  5
560
100
AcDbEntity
  8
0
100
AcDbLine
 62
7
  6
CONTINUOUS
 10
13.5370275268
 20
5.4466252424
 11
13.5370275268
 21
5.4209086308
  0
LWPOLYLINE
  5
561
100
AcDbEntity
  8
AXIS
100
AcDbPolyline
 62
7
  6
CONTINUOUS
 90
18
 70
0
 10
13.4037641479
 20
4.4155487307
 10
13.4018874785
 20
4.3949369469
 10
13.3938446343
 20
4.3684676073
 10
13.3796153053
 20
4.3428805313
 10
13.3594661831
 20
4.318655283
 10
13.3337749111
 20
4.2962459027
 10
13.3030230055
 20
4.2760723965
 10
13.2677864807
 20
4.2585127135
 10
13.228726038
 20
4.2438961739
 10
13.1865737756
 20
4.2324967307
 10
13.1421197454
 20
4.2245280417
 10
13.0961971396
 20
4.2201394621
 10
13.0496666757
 20
4.2194132463
 10
13.0034004642
 20
4.2223630056
 10
12.9582656625
 20
4.2289334534
 10
12.9151082228
 20
4.2390014413
 10
12.8747370355
 20
4.2523782676
 10
12.8379087696
 20
4.2688132134
  0
LWPOLYLINE
  5
562
100
AcDbEntity
  8
0
100
AcDbPolyline
 62
7
  6
CONTINUOUS
 90
4
 70
0
 10
13.4664591782
 20
5.3748576399
 10
13.465777988
 20
5.3702842559
 10
13.4638013042
 20
5.3669456826
 10
13.4622062622
 20
5.3657534905
  0
LINE
  5
563
100
AcDbEntity
  8
AXIS
100
AcDbLine
 62
7
  6
CONTINUOUS
 10
13.2954215315
 20
4.2722842967
 11
13.2932020704
 21
4.2624241771
  0
LWPOLYLINE
  5
564
100
AcDbEntity
  8
AXIS
100
AcDbPolyline
 62
9
  6
CONTINUOUS
 90
9
 70
0
 10
13.3351884056
 20
4.9923313679
 10
13.3423609665
 20
5.0131489991
 10
13.3447655757
 20
5.0343207001
 10
13.3423639802
 20
5.0554925171
 10
13.335197009
 20
5.0763028601
 10
13.3233865222
 20
5.0963962372
 10
13.3071333786
 20
5.1154292548
 10
13.2867140841
 20
5.1330764201
 10
13.2624694422
 20
5.1490400822
  0
LWPOLYLINE
  5
565
100
AcDbEntity
  8
AXIS
100
AcDbPolyline
 62
7
  6
CONTINUOUS
 90
13
 70
0
 10
13.3351962183
 20
4.992350169
 10
13.3301150381
 20
4.9813979054
 10
13.3251687919
 20
4.9706863932
 10
13.3205745829
 20
4.9605862469
 10
13.3164880822
 20
4.9513512643
 10
13.3129047304
 20
4.9429369738
 10
13.3096876972
 20
4.935020132
 10
13.3066987828
 20
4.9272482532
 10
13.3038060358
 20
4.9192208933
 10
13.3009200063
 20
4.9105507591
 10
13.29811003
 20
4.9012292312
 10
13.295481202
 20
4.8913360654
 10
13.2932020704
 20
4.8812108553
  0
LINE
  5
566
100
AcDbEntity
  8
AXIS
100
AcDbLine
 62
7
  6
CONTINUOUS
 10
12.8525212471
 20
5.1583472367
 11
12.8303785501
 21
5.1456864735
  0
LWPOLYLINE
  5
567
100
AcDbEntity
  8
AXIS
100
AcDbPolyline
 62
7
  6
CONTINUOUS
 90
11
 70
0
 10
13.1364561893
 20
4.6024550983
 10
13.1563580762
 20
4.605538549
 10
13.1747635496
 20
4.6084443972
 10
13.1914611764
 20
4.61123095
 10
13.2063278547
 20
4.6139539256
 10
13.2195296724
 20
4.6166790074
 10
13.2314906614
 20
4.619505291
 10
13.2426415467
 20
4.6225537705
 10
13.2534024914
 20
4.6259960913
 10
13.2641051246
 20
4.6300694555
 10
13.2750074492
 20
4.6351468917
  0
LINE
  5
568
100
AcDbEntity
  8
AXIS
100
AcDbLine
 62
9
  6
CONTINUOUS
 10
13.2624694422
 20
5.1490400822
 11
13.2512655759
 21
5.1547126144
  0
LINE
  5
569
100
AcDbEntity
  8
AXIS
100
AcDbLine
 62
7
  6
CONTINUOUS
 10
13.2512655759
 20
5.1555047301
 11
13.2624625778
 21
5.1490435049
  0
LWPOLYLINE
  5
56A
100
AcDbEntity
  8
AXIS
100
AcDbPolyline
 62
7
  6
CONTINUOUS
 90
13
 70
0
 10
13.2624625778
 20
5.1490435049
 10
13.2765691448
 20
5.1408951675
 10
13.2901464302
 20
5.1330003763
 10
13.3026621694
 20
5.1255692457
 10
13.3137220845
 20
5.1187523985
 10
13.3233858326
 20
5.1124854218
 10
13.3320456007
 20
5.106516707
 10
13.3400834937
 20
5.100574309
 10
13.3478709019
 20
5.0943303301
 10
13.3556957514
 20
5.0874152971
 10
13.3634828863
 20
5.079652078
 10
13.3709451322
 20
5.0709781543
 10
13.3771800014
 20
5.0621585752
  0
LWPOLYLINE
  5
56B
100
AcDbEntity
  8
0
100
AcDbPolyline
 62
7
  6
CONTINUOUS
 90
4
 70
0
 10
12.6082680881
 20
5.7209558834
 10
12.7233578372
 20
5.6288232606
 10
12.8479679363
 20
5.5396213145
 10
12.9811803662
 20
5.4540774678
  0
LINE
  5
56C
100
AcDbEntity
  8
0
100
AcDbLine
 62
9
  6
CONTINUOUS
 10
13.2838487175
 20
5.3458999177
 11
13.2706972635
 21
5.3601958282
  0
LWPOLYLINE
  5
56D
100
AcDbEntity
  8
0
100
AcDbPolyline
 62
9
  6
CONTINUOUS
 90
19
 70
0
 10
13.2706972635
 20
5.3601958282
 10
13.2592594987
 20
5.3766176372
 10
13.2495946042
 20
5.3950714693
 10
13.241777601
 20
5.4154186827
 10
13.23586971
 20
5.437500852
 10
13.2319140259
 20
5.4611550778
 10
13.2299398963
 20
5.486206949
 10
13.2299624371
 20
5.5124685089
 10
13.2319814665
 20
5.5397421923
 10
13.2359817159
 20
5.5678242142
 10
13.2419341254
 20
5.5965090356
 10
13.2497957305
 20
5.6255854116
 10
13.2595029274
 20
5.6548196575
 10
13.2709759684
 20
5.6839809472
 10
13.2841559013
 20
5.7129152914
 10
13.2989775367
 20
5.74145272
 10
13.3152018964
 20
5.7691446105
 10
13.3324312542
 20
5.7954297033
 10
13.3502040928
 20
5.8198308024
  0
LINE
  5
56E
100
AcDbEntity
  8
0
100
AcDbLine
 62
7
  6
CONTINUOUS
 10
13.5778141132
 20
5.9512407643
 11
13.5778141132
 21
5.4391480627
  0
LWPOLYLINE
  5
56F
100
AcDbEntity
  8
0
100
AcDbPolyline
 62
7
  6
CONTINUOUS
 90
6
 70
0
 10
13.6900803115
 20
6.0160572574
 10
13.690684118
 20
6.021980962
 10
13.6898917441
 20
6.0281727666
 10
13.6877260453
 20
6.0340319539
 10
13.6843660929
 20
6.0389473889
 10
13.6800743896
 20
6.0424209595
  0
LWPOLYLINE
  5
570
100
AcDbEntity
  8
0
100
AcDbPolyline
 62
7
  6
CONTINUOUS
 90
4
 70
0
 10
13.5778141132
 20
5.4391480578
 10
13.577132923
 20
5.4345746738
 10
13.5751562392
 20
5.4312361006
 10
13.5739073907
 20
5.4302437823
  0
LWPOLYLINE
  5
571
100
AcDbEntity
  8
0
100
AcDbPolyline
 62
7
  6
CONTINUOUS
 90
3
 70
0
 10
13.6898947526
 20
5.5022333121
 10
13.6906841166
 20
5.5048819782
 10
13.6900803115
 20
5.5085705396
  0
LWPOLYLINE
  5
572
100
AcDbEntity
  8
AXIS
100
AcDbPolyline
 62
7
  6
CONTINUOUS
 90
13
 70
0
 10
13.3351913428
 20
4.7171783404
 10
13.3404549291
 20
4.7285242398
 10
13.3454914954
 20
4.7394364103
 10
13.35011665
 20
4.7496190194
 10
13.3541808846
 20
4.7588264951
 10
13.3577151786
 20
4.7671518282
 10
13.3608625156
 20
4.7749220119
 10
13.3637635303
 20
4.7824837538
 10
13.3665565862
 20
4.7902398294
 10
13.3693590472
 20
4.7986425757
 10
13.3721642275
 20
4.8079094728
 10
13.3748779963
 20
4.8180878529
 10
13.3771800014
 20
4.8283058344
  0
LWPOLYLINE
  5
573
100
AcDbEntity
  8
0
100
AcDbPolyline
 62
7
  6
CONTINUOUS
 90
14
 70
0
 10
13.6898947169
 20
5.5022332882
 10
13.7188507428
 20
5.5449524755
 10
13.7469654173
 20
5.5946988913
 10
13.770641597
 20
5.6464125099
 10
13.7893430721
 20
5.6989865702
 10
13.8026363298
 20
5.7512998792
 10
13.8101972914
 20
5.8022500062
 10
13.8118097801
 20
5.850789376
 10
13.8073636241
 20
5.8958695617
 10
13.7969072286
 20
5.9364215673
 10
13.7806827112
 20
5.9715093004
 10
13.7591041134
 20
6.0003916817
 10
13.7327314726
 20
6.0224994588
 10
13.7263168368
 20
6.0264296457
  0
LWPOLYLINE
  5
574
100
AcDbEntity
  8
0
100
AcDbPolyline
 62
7
  6
CONTINUOUS
 90
4
 70
0
 10
13.2582321335
 20
4.9946551563
 10
13.2457344616
 20
4.9782733556
 10
13.2293074877
 20
4.9633009468
 10
13.209609397
 20
4.9501291155
  0
LINE
  5
575
100
AcDbEntity
  8
0
100
AcDbLine
 62
7
  6
CONTINUOUS
 10
13.6890031496
 20
5.5014108947
 11
13.6898947526
 21
5.5022333121
  0
LWPOLYLINE
  5
576
100
AcDbEntity
  8
02___PRT_ALL_AXES
100
AcDbPolyline
 62
7
  6
CONTINUOUS
 90
3
 70
0
 10
13.4718012941
 20
5.3738666078
 10
13.5196593334
 20
5.406332122
 10
13.536618107
 20
5.4213703383
  0
LWPOLYLINE
  5
577
100
AcDbEntity
  8
02___PRT_ALL_AXES
100
AcDbPolyline
 62
7
  6
CONTINUOUS
 90
7
 70
0
 10
12.7503511504
 20
4.8752239332
 10
12.7387448191
 20
4.8674907065
 10
12.7074270961
 20
4.8393558057
 10
12.6833633968
 20
4.8089340776
 10
12.667043589
 20
4.7768448211
 10
12.6587998968
 20
4.7437412807
 10
12.657769526
 20
4.72702029
  0
LINE
  5
578
100
AcDbEntity
  8
0
100
AcDbLine
 62
9
  6
CONTINUOUS
 10
13.5778141132
 20
5.4391480627
 11
13.6900803115
 21
5.5085705396
  0
LINE
  5
579
100
AcDbEntity
  8
0
100
AcDbLine
 62
7
  6
CONTINUOUS
 10
13.5739123157
 20
5.4302417347
 11
13.6889666589
 21
5.5013883273
  0
LINE
  5
57A
100
AcDbEntity
  8
0
100
AcDbLine
 62
7
  6
CONTINUOUS
 10
13.5589169922
 20
5.4339876395
 11
13.5370275268
 21
5.4209086308
  0
LINE
  5
57B
100
AcDbEntity
  8
0
100
AcDbLine
 62
9
  6
CONTINUOUS
 10
13.3502040928
 20
5.3123440845
 11
13.4664591782
 21
5.3748576447
  0
LINE
  5
57C
100
AcDbEntity
  8
0
100
AcDbLine
 62
7
  6
CONTINUOUS
 10
13.3429630094
 20
5.3016281922
 11
13.4622055746
 21
5.3657482026
  0
LWPOLYLINE
  5
57D
100
AcDbEntity
  8
AXIS
100
AcDbPolyline
 62
9
  6
CONTINUOUS
 90
6
 70
0
 10
12.8762655759
 20
5.1547123204
 10
12.8650807389
 20
5.149050522
 10
12.8408270716
 20
5.1330839482
 10
12.820398159
 20
5.1154296406
 10
12.8041310954
 20
5.0963773642
 10
12.7923436885
 20
5.0763261016
  0
LINE
  5
57E
100
AcDbEntity
  8
02___PRT_ALL_AXES
100
AcDbLine
 62
7
  6
CONTINUOUS
 10
13.4658923474
 20
5.3710520437
 11
13.4718012941
 21
5.3738666078
  0
LWPOLYLINE
  5
57F
100
AcDbEntity
  8
AXIS
100
AcDbPolyline
 62
7
  6
CONTINUOUS
 90
4
 70
0
 10
12.8525214128
 20
5.1583469427
 10
12.8630572269
 20
5.1632694239
 10
12.8737994413
 20
5.1673826805
 10
12.8762655759
 20
5.1681754822
  0
LWPOLYLINE
  5
580
100
AcDbEntity
  8
0
100
AcDbPolyline
 62
7
  6
CONTINUOUS
 90
8
 70
0
 10
14.010285921
 20
5.5851071265
 10
14.013732262
 20
5.5866938868
 10
14.0177037701
 20
5.5877981099
 10
14.0220012972
 20
5.5883644254
 10
14.0264093474
 20
5.588364436
 10
14.0307068827
 20
5.5877981411
 10
14.0346784067
 20
5.5866939371
 10
14.0381247706
 20
5.5851071934
  0
LWPOLYLINE
  5
581
100
AcDbEntity
  8
0
100
AcDbPolyline
 62
7
  6
CONTINUOUS
 90
3
 70
0
 10
13.3429341033
 20
5.3016126507
 10
13.3412608845
 20
5.3008918404
 10
13.3364605311
 20
5.3005387358
  0
LWPOLYLINE
  5
582
100
AcDbEntity
  8
0
100
AcDbPolyline
 62
7
  6
CONTINUOUS
 90
4
 70
0
 10
13.5739073907
 20
5.4302437823
 10
13.5720775875
 20
5.4294585911
 10
13.568197992
 20
5.4294159446
 10
13.5638967504
 20
5.4311126398
  0
LWPOLYLINE
  5
583
100
AcDbEntity
  8
AXIS
100
AcDbPolyline
 62
7
  6
CONTINUOUS
 90
13
 70
0
 10
13.3771800014
 20
5.0621585752
 10
13.374862483
 20
5.0624522563
 10
13.3720986054
 20
5.0608862741
 10
13.3692343626
 20
5.0579706517
 10
13.3663680602
 20
5.0541724399
 10
13.3635122984
 20
5.0497537844
 10
13.3605628558
 20
5.0446896389
 10
13.3573904808
 20
5.0388119802
 10
13.3538632486
 20
5.031888227
 10
13.3498468203
 20
5.0236565253
 10
13.3453068819
 20
5.014075875
 10
13.3403702037
 20
5.003494449
 10
13.3351962183
 20
4.992350169
  0
LWPOLYLINE
  5
584
100
AcDbEntity
  8
0
100
AcDbPolyline
 62
7
  6
CONTINUOUS
 90
6
 70
0
 10
13.2159056838
 20
5.2488754311
 10
13.2391741835
 20
5.2376770577
 10
13.2908495247
 20
5.2257301144
 10
13.3480229939
 20
5.2279538781
 10
13.4089574041
 20
5.2442807809
 10
13.4718012941
 20
5.274214738
  0
LWPOLYLINE
  5
585
100
AcDbEntity
  8
0
100
AcDbPolyline
 62
7
  6
CONTINUOUS
 90
4
 70
0
 10
13.136029051
 20
5.2813459486
 10
13.1540026701
 20
5.2722997619
 10
13.1958849306
 20
5.2598757696
 10
13.1969443421
 20
5.259809699
  0
LINE
  5
586
100
AcDbEntity
  8
0
100
AcDbLine
 62
7
  6
CONTINUOUS
 10
13.2846059525
 20
5.3189231467
 11
13.2846006127
 21
5.3189262285
  0
LINE
  5
587
100
AcDbEntity
  8
0
100
AcDbLine
 62
7
  6
CONTINUOUS
 10
13.1419319927
 20
5.2915703752
 11
13.2159001242
 21
5.2488658207
  0
LINE
  5
588
100
AcDbEntity
  8
0
100
AcDbLine
 62
7
  6
CONTINUOUS
 10
13.2743518632
 20
5.3248432114
 11
13.2845874149
 21
5.3189338466
  0
LINE
  5
589
100
AcDbEntity
  8
0
100
AcDbLine
 62
9
  6
CONTINUOUS
 10
13.2846006127
 20
5.3189262285
 11
13.2789151538
 21
5.3223974845
  0
LWPOLYLINE
  5
58A
100
AcDbEntity
  8
0
100
AcDbPolyline
 62
9
  6
CONTINUOUS
 90
12
 70
0
 10
13.2743518632
 20
5.3248432114
 10
13.2661026645
 20
5.3300249898
 10
13.2505357664
 20
5.342436972
 10
13.2366548583
 20
5.3572937782
 10
13.2245609736
 20
5.3744793611
 10
13.2143390476
 20
5.3938680015
 10
13.2060654295
 20
5.4153136407
 10
13.1998028052
 20
5.4386537641
 10
13.1955989123
 20
5.4637111307
 10
13.1934859546
 20
5.49029506
 10
13.1934801733
 20
5.5182023182
 10
13.1955815992
 20
5.5472204564
  0
LWPOLYLINE
  5
58B
100
AcDbEntity
  8
0
100
AcDbPolyline
 62
7
  6
CONTINUOUS
 90
4
 70
0
 10
12.973916512
 20
5.4498837047
 10
12.841094727
 20
5.5351229935
 10
12.7162230308
 20
5.624400497
 10
12.6007974386
 20
5.7166427276
  0
LWPOLYLINE
  5
58C
100
AcDbEntity
  8
0
100
AcDbPolyline
 62
9
  6
CONTINUOUS
 90
8
 70
0
 10
13.2789151538
 20
5.3223974845
 10
13.2633399762
 20
5.33410386
 10
13.2493552502
 20
5.3480851023
 10
13.2370644825
 20
5.3642149974
 10
13.2265197932
 20
5.3824080109
 10
13.2177906739
 20
5.4025459559
 10
13.2109433831
 20
5.4244793384
 10
13.2060265204
 20
5.4480513482
  0
LWPOLYLINE
  5
58D
100
AcDbEntity
  8
0
100
AcDbPolyline
 62
7
  6
CONTINUOUS
 90
4
 70
0
 10
12.6007974386
 20
5.9577359611
 10
12.7162278308
 20
5.8654901039
 10
12.8411055981
 20
5.776208866
 10
12.973916512
 20
5.6909769381
  0
LWPOLYLINE
  5
58E
100
AcDbEntity
  8
0
100
AcDbPolyline
 62
7
  6
CONTINUOUS
 90
7
 70
0
 10
12.973916512
 20
5.6909769381
 10
12.9772179806
 20
5.6882887636
 10
12.980109123
 20
5.6844737986
 10
12.9823047273
 20
5.6798763842
 10
12.983684753
 20
5.6747973594
 10
12.9841674424
 20
5.6694875503
 10
12.9837031812
 20
5.6644817538
  0
LWPOLYLINE
  5
58F
100
AcDbEntity
  8
0
100
AcDbPolyline
 62
7
  6
CONTINUOUS
 90
6
 70
0
 10
13.4664591782
 20
5.8869503512
 10
13.465777988
 20
5.8923102881
 10
13.4638013042
 20
5.8979312875
 10
13.4607226525
 20
5.9032636373
 10
13.456843057
 20
5.9077859535
 10
13.4525418154
 20
5.9110557919
  0
LWPOLYLINE
  5
590
100
AcDbEntity
  8
0
100
AcDbPolyline
 62
7
  6
CONTINUOUS
 90
6
 70
0
 10
13.5778141132
 20
5.9512407691
 10
13.577132923
 20
5.956600706
 10
13.5751562392
 20
5.9622217055
 10
13.5720775875
 20
5.9675540552
 10
13.568197992
 20
5.9720763715
 10
13.5638967504
 20
5.9753462099
  0
LINE
  5
591
100
AcDbEntity
  8
0
100
AcDbLine
 62
7
  6
CONTINUOUS
 10
13.2144515454
 20
4.9544168866
 11
13.20312541
 21
4.9468968997
  0
LINE
  5
592
100
AcDbEntity
  8
0
100
AcDbLine
 62
7
  6
CONTINUOUS
 10
13.4718012941
 20
5.274214738
 11
14.010285921
 21
5.5851071265
  0
LWPOLYLINE
  5
593
100
AcDbEntity
  8
AXIS
100
AcDbPolyline
 62
9
  6
CONTINUOUS
 90
9
 70
0
 10
13.1364846142
 20
4.8776203885
 10
13.1712102407
 20
4.8844221568
 10
13.2042131692
 20
4.8938119117
 10
13.2347950325
 20
4.9056047927
 10
13.26245384
 20
4.9196061912
 10
13.2867077642
 20
4.9355735588
 10
13.3071366212
 20
4.9532287234
 10
13.323403293
 20
4.972281885
 10
13.3351884056
 20
4.9923313679
  0
LWPOLYLINE
  5
594
100
AcDbEntity
  8
AXIS
100
AcDbPolyline
 62
7
  6
CONTINUOUS
 90
13
 70
0
 10
13.136487227
 20
4.877621216
 10
13.1168824906
 20
4.8745839615
 10
13.0981658033
 20
4.8716293424
 10
13.081024123
 20
4.8687646405
 10
13.0659955286
 20
4.8659999661
 10
13.0528985276
 20
4.8632802818
 10
13.0411880577
 20
4.8604991174
 10
13.0303297328
 20
4.857524267
 10
13.0197997198
 20
4.8541610617
 10
13.0091900959
 20
4.850141243
 10
12.9985757835
 20
4.8452454523
 10
12.9883639583
 20
4.839302326
 10
12.9797876449
 20
4.8327253607
  0
LWPOLYLINE
  5
595
100
AcDbEntity
  8
0
100
AcDbPolyline
 62
7
  6
CONTINUOUS
 90
3
 70
0
 10
13.2846018504
 20
5.3189255565
 10
13.3102791287
 20
5.3071919779
 10
13.3364598575
 20
5.3005383313
  0
LWPOLYLINE
  5
596
100
AcDbEntity
  8
02___PRT_ALL_AXES
100
AcDbPolyline
 62
7
  6
CONTINUOUS
 90
3
 70
0
 10
12.4250446175
 20
5.836170639
 10
12.4442638226
 20
5.827015982
 10
12.4628963142
 20
5.8220236815
  0
LINE
  5
597
100
AcDbEntity
  8
0
100
AcDbLine
 62
7
  6
CONTINUOUS
 10
12.9811803662
 20
5.4540774678
 11
12.984105561
 21
5.4526206519
  0
LINE
  5
598
100
AcDbEntity
  8
02___PRT_ALL_AXES
100
AcDbLine
 62
7
  6
CONTINUOUS
 10
12.4116099815
 20
5.8439304115
 11
12.4205835083
 21
5.8392255206
  0
LINE
  5
599
100
AcDbEntity
  8
02___PRT_ALL_AXES
100
AcDbLine
 62
7
  6
CONTINUOUS
 10
12.4250446175
 20
5.836170639
 11
12.4116099886
 21
5.8439273474
  0
LWPOLYLINE
  5
59A
100
AcDbEntity
  8
AXIS
100
AcDbPolyline
 62
7
  6
CONTINUOUS
 90
13
 70
0
 10
13.3351913428
 20
4.0983916621
 10
13.3404549291
 20
4.1097375616
 10
13.3454914954
 20
4.120649732
 10
13.35011665
 20
4.1308323411
 10
13.3541808846
 20
4.1400398168
 10
13.3577151786
 20
4.1483651499
 10
13.3608625156
 20
4.1561353336
 10
13.3637635303
 20
4.1636970755
 10
13.3665565862
 20
4.1714531511
 10
13.3693590472
 20
4.1798558974
 10
13.3721642275
 20
4.1891227945
 10
13.3748779963
 20
4.1993011746
 10
13.3771800014
 20
4.2095191561
  0
LINE
  5
59B
100
AcDbEntity
  8
0
100
AcDbLine
 62
7
  6
CONTINUOUS
 10
13.209609397
 20
4.9501291155
 11
13.2096069567
 21
4.9501277118
  0
LWPOLYLINE
  5
59C
100
AcDbEntity
  8
0
100
AcDbPolyline
 62
7
  6
CONTINUOUS
 90
12
 70
0
 10
13.2096069567
 20
4.9501277118
 10
13.1867829299
 20
4.938750776
 10
13.160839244
 20
4.9292641032
 10
13.1324592001
 20
4.9220492799
 10
13.1024754406
 20
4.9173665593
 10
13.0717604841
 20
4.9153400617
 10
13.0409592985
 20
4.9159808264
 10
13.010627444
 20
4.9192704918
 10
12.981436679
 20
4.9251486153
 10
12.9541016476
 20
4.9334776259
 10
12.9292448926
 20
4.9440637728
 10
12.9179233304
 20
4.9501299986
  0
LWPOLYLINE
  5
59D
100
AcDbEntity
  8
0
100
AcDbPolyline
 62
9
  6
CONTINUOUS
 90
5
 70
0
 10
13.3502040928
 20
5.3123440845
 10
13.3321183487
 20
5.3170309588
 10
13.3148524377
 20
5.3241744349
 10
13.2986445167
 20
5.3338331372
 10
13.2838487175
 20
5.3458999177
  0
LINE
  5
59E
100
AcDbEntity
  8
0
100
AcDbLine
 62
7
  6
CONTINUOUS
 10
13.5370275268
 20
5.4209086308
 11
13.4664591782
 21
5.4616503641
  0
LINE
  5
59F
100
AcDbEntity
  8
0
100
AcDbLine
 62
7
  6
CONTINUOUS
 10
13.5638967504
 20
5.4311126398
 11
13.5370275268
 21
5.4466252424
  0
LINE
  5
5A0
100
AcDbEntity
  8
0
100
AcDbLine
 62
9
  6
CONTINUOUS
 10
14.010285921
 20
5.5851071265
 11
14.010285921
 21
6.4208970023
  0
LINE
  5
5A1
100
AcDbEntity
  8
0
100
AcDbLine
 62
9
  6
CONTINUOUS
 10
14.0381247706
 20
5.5851071934
 11
14.0381247706
 21
6.4208970692
  0
LWPOLYLINE
  5
5A2
100
AcDbEntity
  8
AXIS
100
AcDbPolyline
 62
7
  6
CONTINUOUS
 90
12
 70
0
 10
13.2971520345
 20
4.6478113375
 10
13.2981367304
 20
4.6485114362
 10
13.3009289073
 20
4.6512883449
 10
13.303774249
 20
4.6549994732
 10
13.3066257322
 20
4.6593648021
 10
13.3095867452
 20
4.6644124291
 10
13.3127894954
 20
4.6703192229
 10
13.3163704222
 20
4.6773305412
 10
13.3204634714
 20
4.6857106232
 10
13.3250705289
 20
4.6954308817
 10
13.3300436504
 20
4.7060906218
 10
13.3351913428
 20
4.7171783404
  0
LWPOLYLINE
  5
5A3
100
AcDbEntity
  8
0
100
AcDbPolyline
 62
7
  6
CONTINUOUS
 90
5
 70
0
 10
14.7744980285
 20
5.638654856
 10
14.7714235502
 20
5.6366633255
 10
14.7612253404
 20
5.6254907755
 10
14.7548592791
 20
5.609783366
 10
14.7526953385
 20
5.5904539546
  0
LWPOLYLINE
  5
5A4
100
AcDbEntity
  8
02___PRT_ALL_AXES
100
AcDbPolyline
 62
7
  6
CONTINUOUS
 90
3
 70
0
 10
12.4205835083
 20
5.8392255206
 10
12.4382200706
 20
5.8328501569
 10
12.4549505432
 20
5.8306751536
  0
LWPOLYLINE
  5
5A5
100
AcDbEntity
  8
0
100
AcDbPolyline
 62
7
  6
CONTINUOUS
 90
6
 70
0
 10
13.3322363133
 20
5.8415977513
 10
13.3368101089
 20
5.8382870463
 10
13.3412608859
 20
5.8340013957
 10
13.3452033913
 20
5.829168042
 10
13.3482683795
 20
5.8242883239
 10
13.3502040928
 20
5.8198308024
  0
LWPOLYLINE
  5
5A6
100
AcDbEntity
  8
AXIS
100
AcDbPolyline
 62
7
  6
CONTINUOUS
 90
3
 70
0
 10
13.3337749111
 20
4.3729971299
 10
13.3594661831
 20
4.3954065102
 10
13.3616502757
 20
4.3980324404
  0
LWPOLYLINE
  5
5A7
100
AcDbEntity
  8
02___PRT_ALL_AXES
100
AcDbPolyline
 62
7
  6
CONTINUOUS
 90
7
 70
0
 10
13.3508521243
 20
4.561274542
 10
13.3887863327
 20
4.5865498703
 10
13.4201040558
 20
4.6146847711
 10
13.444167755
 20
4.6451064991
 10
13.4604875628
 20
4.6771957557
 10
13.468731255
 20
4.710299296
 10
13.4697616258
 20
4.7270202867
  0
LWPOLYLINE
  5
5A8
100
AcDbEntity
  8
02___PRT_ALL_AXES
100
AcDbPolyline
 62
7
  6
CONTINUOUS
 90
7
 70
0
 10
13.3508521243
 20
4.5082018849
 10
13.3887863327
 20
4.5334772131
 10
13.4201040558
 20
4.561612114
 10
13.444167755
 20
4.592033842
 10
13.4604875628
 20
4.6241230986
 10
13.468731255
 20
4.6572266389
 10
13.4697616258
 20
4.6739476296
  0
LWPOLYLINE
  5
5A9
100
AcDbEntity
  8
AXIS
100
AcDbPolyline
 62
7
  6
CONTINUOUS
 90
3
 70
0
 10
13.2750074492
 20
4.6351468917
 10
13.2844945532
 20
4.6406942522
 10
13.2932020704
 20
4.6473581146
  0
LINE
  5
5AA
100
AcDbEntity
  8
AXIS
100
AcDbLine
 62
7
  6
CONTINUOUS
 10
12.8212881483
 20
4.36862811
 11
12.8096243806
 21
4.3618940708
  0
LINE
  5
5AB
100
AcDbEntity
  8
AXIS
100
AcDbLine
 62
7
  6
CONTINUOUS
 10
12.8379087696
 20
4.3455644406
 11
12.8557253782
 21
4.355850803
  0
LINE
  5
5AC
100
AcDbEntity
  8
AXIS
100
AcDbLine
 62
7
  6
CONTINUOUS
 10
12.8379087696
 20
4.3014727457
 11
12.8096243806
 21
4.2851428436
  0
LWPOLYLINE
  5
5AD
100
AcDbEntity
  8
AXIS
100
AcDbPolyline
 62
7
  6
CONTINUOUS
 90
3
 70
0
 10
13.275008314
 20
4.6351453556
 10
13.2867017712
 20
4.6415359358
 10
13.2971514465
 20
4.6478062218
  0
LWPOLYLINE
  5
5AE
100
AcDbEntity
  8
0
100
AcDbPolyline
 62
7
  6
CONTINUOUS
 90
7
 70
0
 10
12.5371693568
 20
5.7937721402
 10
12.5232729146
 20
5.7972859078
 10
12.510142244
 20
5.8013544584
 10
12.4978923333
 20
5.8059937312
 10
12.4866372882
 20
5.8112149238
 10
12.4764824996
 20
5.8170277812
 10
12.4698856428
 20
5.8217518672
  0
LWPOLYLINE
  5
5AF
100
AcDbEntity
  8
0
100
AcDbPolyline
 62
7
  6
CONTINUOUS
 90
4
 70
0
 10
13.3213505039
 20
5.8478825342
 10
13.3171682841
 20
5.8497252785
 10
13.3138728544
 20
5.8499960947
 10
13.3126725842
 20
5.8495533702
  0
LINE
  5
5B0
100
AcDbEntity
  8
0
100
AcDbLine
 62
7
  6
CONTINUOUS
 10
13.3213505039
 20
5.8478825342
 11
13.3322363149
 21
5.8415977522
  0
LINE
  5
5B1
100
AcDbEntity
  8
0
100
AcDbLine
 62
7
  6
CONTINUOUS
 10
13.3553149183
 20
5.8681763541
 11
13.3413954355
 21
5.8762125894
  0
LWPOLYLINE
  5
5B2
100
AcDbEntity
  8
02___PRT_ALL_AXES
100
AcDbPolyline
 62
7
  6
CONTINUOUS
 90
7
 70
0
 10
13.3508521243
 20
4.443910356
 10
13.3887863327
 20
4.4691856842
 10
13.4201040558
 20
4.4973205851
 10
13.444167755
 20
4.5277423131
 10
13.4604875628
 20
4.5598315696
 10
13.468731255
 20
4.59293511
 10
13.4697616258
 20
4.6096561007
  0
LWPOLYLINE
  5
5B3
100
AcDbEntity
  8
02___PRT_ALL_AXES
100
AcDbPolyline
 62
7
  6
CONTINUOUS
 90
7
 70
0
 10
13.3508521243
 20
4.3908376989
 10
13.3887863327
 20
4.4161130271
 10
13.4201040558
 20
4.444247928
 10
13.444167755
 20
4.474669656
 10
13.4604875628
 20
4.5067589125
 10
13.468731255
 20
4.5398624529
 10
13.4697616258
 20
4.5565834436
  0
LWPOLYLINE
  5
5B4
100
AcDbEntity
  8
0
100
AcDbPolyline
 62
7
  6
CONTINUOUS
 90
5
 70
0
 10
14.8798311143
 20
5.4562653353
 10
14.8829055926
 20
5.4582568658
 10
14.8931038024
 20
5.4694294158
 10
14.8994698637
 20
5.4851368253
 10
14.9016338043
 20
5.5044662367
  0
LWPOLYLINE
  5
5B5
100
AcDbEntity
  8
AXIS
100
AcDbPolyline
 62
7
  6
CONTINUOUS
 90
3
 70
0
 10
12.9939116629
 20
4.2237443271
 10
12.9883639583
 20
4.2205156477
 10
12.9797876449
 20
4.2139386824
  0
LWPOLYLINE
  5
5B6
100
AcDbEntity
  8
0
100
AcDbPolyline
 62
7
  6
CONTINUOUS
 90
4
 70
0
 10
12.98234399
 20
5.448091873
 10
12.9801124917
 20
5.4476060397
 10
12.9772159981
 20
5.4482441569
 10
12.973916512
 20
5.4498837047
  0
LINE
  5
5B7
100
AcDbEntity
  8
0
100
AcDbLine
 62
7
  6
CONTINUOUS
 10
13.3790723527
 20
5.9380978945
 11
13.3906966151
 21
5.9313867753
  0
LINE
  5
5B8
100
AcDbEntity
  8
0
100
AcDbLine
 62
7
  6
CONTINUOUS
 10
13.4525418154
 20
5.9110557919
 11
13.4256725918
 21
5.9265683945
  0
LINE
  5
5B9
100
AcDbEntity
  8
0
100
AcDbLine
 62
7
  6
CONTINUOUS
 10
12.951662746
 20
6.210994565
 11
12.9326935852
 21
6.2219461674
  0
LINE
  5
5BA
100
AcDbEntity
  8
0
100
AcDbLine
 62
7
  6
CONTINUOUS
 10
14.0490418288
 20
5.5788043695
 11
14.0381247706
 21
5.5851071934
  0
LINE
  5
5BB
100
AcDbEntity
  8
0
100
AcDbLine
 62
7
  6
CONTINUOUS
 10
13.4256725918
 20
5.9522850061
 11
13.4071383886
 21
5.9629854912
  0
LINE
  5
5BC
100
AcDbEntity
  8
0
100
AcDbLine
 62
7
  6
CONTINUOUS
 10
13.5370275268
 20
5.9908588124
 11
13.5638967504
 21
5.9753462099
  0
LWPOLYLINE
  5
5BD
100
AcDbEntity
  8
0
100
AcDbPolyline
 62
7
  6
CONTINUOUS
 90
5
 70
0
 10
14.2980411064
 20
5.3064647639
 10
14.2460722874
 20
5.3908158733
 10
14.18542435
 20
5.4664556985
 10
14.1187688132
 20
5.5300523332
 10
14.0490418288
 20
5.5788043695
  0
LWPOLYLINE
  5
5BE
100
AcDbEntity
  8
02___PRT_ALL_AXES
100
AcDbPolyline
 62
7
  6
CONTINUOUS
 90
4
 70
0
 10
12.4628963142
 20
5.8220236815
 10
12.4803787872
 20
5.8213437899
 10
12.4961800456
 20
5.8249969654
 10
12.5032971009
 20
5.8284184532
  0
LWPOLYLINE
  5
5BF
100
AcDbEntity
  8
0
100
AcDbPolyline
 62
7
  6
CONTINUOUS
 90
3
 70
0
 10
13.2108723151
 20
6.198686074
 10
13.2405415352
 20
6.184044586
 10
13.2567477251
 20
6.1730984499
  0
LWPOLYLINE
  5
5C0
100
AcDbEntity
  8
0
100
AcDbPolyline
 62
7
  6
CONTINUOUS
 90
3
 70
0
 10
13.3421556951
 20
6.1253460983
 10
13.257605118
 20
6.1726489609
 10
13.1758684058
 20
6.2154995044
  0
LINE
  5
5C1
100
AcDbEntity
  8
0
100
AcDbLine
 62
7
  6
CONTINUOUS
 10
13.5134468196
 20
6.0301894437
 11
13.5370275268
 21
6.016575424
  0
LINE
  5
5C2
100
AcDbEntity
  8
0
100
AcDbLine
 62
7
  6
CONTINUOUS
 10
13.5588598183
 20
6.0436520696
 11
13.5720035034
 21
6.0360637312
  0
LINE
  5
5C3
100
AcDbEntity
  8
0
100
AcDbLine
 62
9
  6
CONTINUOUS
 10
13.3978331626
 20
6.1527091683
 11
13.4718012941
 21
6.1100046138
  0
LINE
  5
5C4
100
AcDbEntity
  8
0
100
AcDbLine
 62
7
  6
CONTINUOUS
 10
13.6352241658
 20
6.0297810688
 11
13.621304683
 21
6.0378173041
  0
LINE
  5
5C5
100
AcDbEntity
  8
0
100
AcDbLine
 62
7
  6
CONTINUOUS
 10
13.6407686491
 20
6.0400703962
 11
13.6414215988
 21
6.039693424
  0
LINE
  5
5C6
100
AcDbEntity
  8
0
100
AcDbLine
 62
7
  6
CONTINUOUS
 10
13.6691885802
 20
6.0487057424
 11
13.6800743885
 21
6.0424209589
  0
LINE
  5
5C7
100
AcDbEntity
  8
0
100
AcDbLine
 62
7
  6
CONTINUOUS
 10
13.7161872209
 20
6.0322779548
 11
13.7264227726
 21
6.0263685899
  0
LINE
  5
5C8
100
AcDbEntity
  8
0
100
AcDbLine
 62
9
  6
CONTINUOUS
 10
13.7161833074
 20
6.0322802141
 11
13.7161872209
 21
6.0322779548
  0
LWPOLYLINE
  5
5C9
100
AcDbEntity
  8
0
100
AcDbPolyline
 62
7
  6
CONTINUOUS
 90
5
 70
0
 10
13.6352241658
 20
6.0297810688
 10
13.6329789739
 20
6.0312878513
 10
13.6317204946
 20
6.0326202828
 10
13.6314451141
 20
6.0336996684
 10
13.6321214978
 20
6.0345114893
  0
LWPOLYLINE
  5
5CA
100
AcDbEntity
  8
AXIS
100
AcDbPolyline
 62
7
  6
CONTINUOUS
 90
12
 70
0
 10
13.2971520345
 20
4.0290246592
 10
13.2981367304
 20
4.0297247579
 10
13.3009289073
 20
4.0325016666
 10
13.303774249
 20
4.0362127949
 10
13.3066257322
 20
4.0405781238
 10
13.3095867452
 20
4.0456257509
 10
13.3127894954
 20
4.0515325446
 10
13.3163704222
 20
4.058543863
 10
13.3204634714
 20
4.0669239449
 10
13.3250705289
 20
4.0766442034
 10
13.3300436504
 20
4.0873039435
 10
13.3351913428
 20
4.0983916621
  0
LWPOLYLINE
  5
5CB
100
AcDbEntity
  8
0
100
AcDbPolyline
 62
9
  6
CONTINUOUS
 90
3
 70
0
 10
13.6802007238
 20
6.0423480216
 10
13.6982569912
 20
6.0383767058
 10
13.7155596574
 20
6.0319586794
  0
LINE
  5
5CC
100
AcDbEntity
  8
0
100
AcDbLine
 62
7
  6
CONTINUOUS
 10
13.6829745486
 20
6.0462798757
 11
13.6649462423
 21
6.0502498075
  0
LINE
  5
5CD
100
AcDbEntity
  8
0
100
AcDbLine
 62
9
  6
CONTINUOUS
 10
13.6691885802
 20
6.0487057424
 11
13.6888444307
 21
6.0441669596
  0
LWPOLYLINE
  5
5CE
100
AcDbEntity
  8
02___PRT_ALL_AXES
100
AcDbPolyline
 62
7
  6
CONTINUOUS
 90
5
 70
0
 10
13.6417082806
 20
6.0398531606
 10
13.6096030261
 20
6.0472756496
 10
13.5660632304
 20
6.045582168
 10
13.5196593334
 20
6.0331486036
 10
13.4718012941
 20
6.010352744
  0
LWPOLYLINE
  5
5CF
100
AcDbEntity
  8
0
100
AcDbPolyline
 62
9
  6
CONTINUOUS
 90
24
 70
0
 10
13.6900803115
 20
6.0160572574
 10
13.7075455065
 20
6.0117286492
 10
13.7242189981
 20
6.0049271989
 10
13.7398708009
 20
5.9955895643
 10
13.754158934
 20
5.9838158784
 10
13.7668591418
 20
5.969780489
 10
13.7779044596
 20
5.9535852543
 10
13.787237737
 20
5.9353228771
 10
13.7947865271
 20
5.9151305131
 10
13.8004917094
 20
5.893165375
 10
13.8043116681
 20
5.8695895086
 10
13.8062180624
 20
5.8445767435
 10
13.806196295
 20
5.8183147371
 10
13.8042465415
 20
5.7910010581
 10
13.8003835466
 20
5.762839794
 10
13.7946353733
 20
5.7340370595
 10
13.7870435117
 20
5.7048049506
 10
13.7776693834
 20
5.6753784118
 10
13.7665899997
 20
5.6459898491
 10
13.7538622901
 20
5.6167944195
 10
13.7395492073
 20
5.5879633846
 10
13.7238815298
 20
5.5599501007
 10
13.7072433372
 20
5.5333237063
 10
13.6900803115
 20
5.5085705396
  0
LWPOLYLINE
  5
5D0
100
AcDbEntity
  8
02___PRT_ALL_AXES
100
AcDbPolyline
 62
7
  6
CONTINUOUS
 90
8
 70
0
 10
13.1598462664
 20
6.20888577
 10
13.1571393949
 20
6.2097210907
 10
13.1113666181
 20
6.217737376
 10
13.06376456
 20
6.220444067
 10
13.016162541
 20
6.2177371471
 10
12.9703898799
 20
6.2097206418
 10
12.9282055944
 20
6.1967026208
 10
12.891230803
 20
6.1791833593
  0
LWPOLYLINE
  5
5D1
100
AcDbEntity
  8
0
100
AcDbPolyline
 62
7
  6
CONTINUOUS
 90
8
 70
0
 10
12.840307811
 20
6.3613175172
 10
12.779567089
 20
6.3824015436
 10
12.7239165436
 20
6.4002361965
 10
12.6705041634
 20
6.4159942623
 10
12.6171205242
 20
6.4303843672
 10
12.5635735881
 20
6.4434182855
 10
12.5103632004
 20
6.4549386912
 10
12.4579268987
 20
6.4648433556
  0
LINE
  5
5D2
100
AcDbEntity
  8
0
100
AcDbLine
 62
7
  6
CONTINUOUS
 10
13.2018025557
 20
6.2019035035
 11
13.2108723151
 21
6.198686074
  0
LINE
  5
5D3
100
AcDbEntity
  8
0
100
AcDbLine
 62
7
  6
CONTINUOUS
 10
13.6691885802
 20
6.0487057424
 11
13.664945656
 21
6.0502494425
  0
LWPOLYLINE
  5
5D4
100
AcDbEntity
  8
0
100
AcDbPolyline
 62
9
  6
CONTINUOUS
 90
3
 70
0
 10
13.6888444307
 20
6.0441669596
 10
13.7073252651
 20
6.036950939
 10
13.7161833074
 20
6.0322802141
  0
LWPOLYLINE
  5
5D5
100
AcDbEntity
  8
0
100
AcDbPolyline
 62
7
  6
CONTINUOUS
 90
3
 70
0
 10
13.7161872209
 20
6.0322779548
 10
13.7001216689
 20
6.0402629447
 10
13.6829745486
 20
6.0462798757
  0
LINE
  5
5D6
100
AcDbEntity
  8
0
100
AcDbLine
 62
9
  6
CONTINUOUS
 10
13.7155596574
 20
6.0319586794
 11
13.7263180345
 21
6.0264289955
  0
LWPOLYLINE
  5
5D7
100
AcDbEntity
  8
0
100
AcDbPolyline
 62
7
  6
CONTINUOUS
 90
3
 70
0
 10
13.2872233408
 20
6.2797899224
 10
13.3689554669
 20
6.2369418626
 10
13.4535106301
 20
6.1896365162
  0
LWPOLYLINE
  5
5D8
100
AcDbEntity
  8
AXIS
100
AcDbPolyline
 62
7
  6
CONTINUOUS
 90
7
 70
0
 10
13.5554351982
 20
6.2437002028
 10
13.4886961823
 20
6.2791903689
 10
13.312115533
 20
6.357828468
 10
13.131628601
 20
6.4235177244
 10
12.949878414
 20
6.4756197633
 10
12.7819447739
 20
6.5117740946
 10
12.6313460106
 20
6.534632788
  0
LWPOLYLINE
  5
5D9
100
AcDbEntity
  8
0
100
AcDbPolyline
 62
7
  6
CONTINUOUS
 90
11
 70
0
 10
14.7526953385
 20
5.5904539546
 10
14.7548592791
 20
5.5686258964
 10
14.7612253404
 20
5.5455677588
 10
14.7714235502
 20
5.5226195969
 10
14.7848612255
 20
5.5011150746
 10
14.8007574175
 20
5.4823039563
 10
14.8181882973
 20
5.4672794761
 10
14.8361408455
 20
5.456914802
 10
14.8535717253
 20
5.4518122913
 10
14.8694679173
 20
5.4522684833
 10
14.8798311143
 20
5.4562653353
  0
LWPOLYLINE
  5
5DA
100
AcDbEntity
  8
AXIS
100
AcDbPolyline
 62
7
  6
CONTINUOUS
 90
3
 70
0
 10
13.2750074492
 20
4.0163602134
 10
13.2844945532
 20
4.021907574
 10
13.2932020704
 20
4.0285714363
  0
LWPOLYLINE
  5
5DB
100
AcDbEntity
  8
AXIS
100
AcDbPolyline
 62
7
  6
CONTINUOUS
 90
3
 70
0
 10
13.275008314
 20
4.0163586773
 10
13.2867017712
 20
4.0227492575
 10
13.2971514465
 20
4.0290195435
  0
LWPOLYLINE
  5
5DC
100
AcDbEntity
  8
02___PRT_ALL_AXES
100
AcDbPolyline
 62
7
  6
CONTINUOUS
 90
7
 70
0
 10
12.4549505432
 20
5.8306751536
 10
12.47020519
 20
5.8327745779
 10
12.4834645323
 20
5.8390769363
 10
12.494277039
 20
5.8493676097
 10
12.5022745033
 20
5.8632961615
 10
12.5071845811
 20
5.8803882715
 10
12.5088400655
 20
5.9000618885
  0
LWPOLYLINE
  5
5DD
100
AcDbEntity
  8
0
100
AcDbPolyline
 62
7
  6
CONTINUOUS
 90
4
 70
0
 10
13.5720035034
 20
6.0360637312
 10
13.5889405704
 20
6.0382105086
 10
13.6053982631
 20
6.038795787
 10
13.621304683
 20
6.0378173041
  0
LINE
  5
5DE
100
AcDbEntity
  8
0
100
AcDbLine
 62
7
  6
CONTINUOUS
 10
12.4116124783
 20
5.8826553614
 11
12.4667670369
 21
5.887582398
  0
LWPOLYLINE
  5
5DF
100
AcDbEntity
  8
0
100
AcDbPolyline
 62
7
  6
CONTINUOUS
 90
3
 70
0
 10
13.664945656
 20
6.0502494425
 10
13.6600610808
 20
6.0498667673
 10
13.6582286077
 20
6.0490581395
  0
LINE
  5
5E0
100
AcDbEntity
  8
0
100
AcDbLine
 62
7
  6
CONTINUOUS
 10
13.0559014054
 20
6.174330435
 11
13.0169934954
 21
6.1803493233
  0
LWPOLYLINE
  5
5E1
100
AcDbEntity
  8
0
100
AcDbPolyline
 62
7
  6
CONTINUOUS
 90
5
 70
0
 10
14.8361408455
 20
5.6276407152
 10
14.8181882973
 20
5.6380053893
 10
14.8007574175
 20
5.6431079
 10
14.7848612255
 20
5.642651708
 10
14.7744980285
 20
5.638654856
  0
LWPOLYLINE
  5
5E2
100
AcDbEntity
  8
0
100
AcDbPolyline
 62
3
  6
CONTINUOUS
 90
8
 70
0
 10
14.8266628541
 20
5.6331588648
 10
14.8288267947
 20
5.6113308065
 10
14.835192856
 20
5.5882726689
 10
14.8453910658
 20
5.5653245071
 10
14.8588287411
 20
5.5438199847
 10
14.8747249331
 20
5.5250088665
 10
14.8921558129
 20
5.5099843862
 10
14.9016537886
 20
5.5045008514
  0
LWPOLYLINE
  5
5E3
100
AcDbEntity
  8
0
100
AcDbPolyline
 62
7
  6
CONTINUOUS
 90
7
 70
0
 10
14.9016338043
 20
5.5044662367
 10
14.8994698637
 20
5.5262942949
 10
14.8931038024
 20
5.5493524325
 10
14.8829055926
 20
5.5723005944
 10
14.8694679173
 20
5.5938051168
 10
14.8535717253
 20
5.612616235
 10
14.8361408455
 20
5.6276407152
  0
LINE
  5
5E4
100
AcDbEntity
  8
0
100
AcDbLine
 62
7
  6
CONTINUOUS
 10
12.4116124783
 20
6.0297346231
 11
12.3564579198
 21
6.0248075865
  0
LWPOLYLINE
  5
5E5
100
AcDbEntity
  8
0
100
AcDbPolyline
 62
7
  6
CONTINUOUS
 90
4
 70
0
 10
12.3506694394
 20
6.145452306
 10
12.3712482254
 20
6.146198733
 10
12.3937558104
 20
6.1473936659
 10
12.4176915765
 20
6.1490411535
  0
LWPOLYLINE
  5
5E6
100
AcDbEntity
  8
0
100
AcDbPolyline
 62
7
  6
CONTINUOUS
 90
8
 70
0
 10
12.5692818636
 20
6.5291337677
 10
12.6217201089
 20
6.5192287089
 10
12.6748871882
 20
6.5077182127
 10
12.7283912445
 20
6.494696395
 10
12.7817771314
 20
6.4803078252
 10
12.8352642715
 20
6.4645288311
 10
12.8909758941
 20
6.4466740063
 10
12.951662746
 20
6.4256079351
  0
LWPOLYLINE
  5
5E7
100
AcDbEntity
  8
0
100
AcDbPolyline
 62
7
  6
CONTINUOUS
 90
13
 70
0
 10
15.3291218402
 20
4.6780295326
 10
15.2950172547
 20
4.6608401579
 10
15.2148218995
 20
4.6369460541
 10
15.126836722
 20
4.6313483737
 10
15.0328297499
 20
4.6441595999
 10
14.9346900165
 20
4.6751222962
 10
14.8343896013
 20
4.7236142794
 10
14.733944002
 20
4.7886611219
 10
14.6353716335
 20
4.8689557329
 10
14.5406532691
 20
4.9628846236
 10
14.4516922373
 20
5.0685603298
 10
14.3702761751
 20
5.1838593394
 10
14.2980411064
 20
5.3064647639
  0
LWPOLYLINE
  5
5E8
100
AcDbEntity
  8
0
100
AcDbPolyline
 62
7
  6
CONTINUOUS
 90
3
 70
0
 10
12.4176915765
 20
6.1490411535
 10
12.4425079671
 20
6.1511101703
 10
12.4675356657
 20
6.1535294204
  0
LINE
  5
5E9
100
AcDbEntity
  8
0
100
AcDbLine
 62
7
  6
CONTINUOUS
 10
12.6313460337
 20
6.5346327852
 11
12.6313313695
 21
6.5346345727
  0
LWPOLYLINE
  5
5EA
100
AcDbEntity
  8
0
100
AcDbPolyline
 62
7
  6
CONTINUOUS
 90
5
 70
0
 10
14.0490418288
 20
6.4145942453
 10
14.1187688132
 20
6.3828343166
 10
14.18542435
 20
6.3694655084
 10
14.2460722874
 20
6.3750767118
 10
14.2851244974
 20
6.3911509341
  0
LINE
  5
5EB
100
AcDbEntity
  8
0
100
AcDbLine
 62
9
  6
CONTINUOUS
 10
13.9363177895
 20
6.4636015568
 11
14.010285921
 21
6.4208970023
  0
LINE
  5
5EC
100
AcDbEntity
  8
0
100
AcDbLine
 62
7
  6
CONTINUOUS
 10
14.0381247706
 20
6.4208970692
 11
14.0490418288
 21
6.4145942453
  0
LINE
  5
5ED
100
AcDbEntity
  8
0
100
AcDbLine
 62
3
  6
CONTINUOUS
 10
14.1120922862
 20
6.4636019793
 11
14.1230093444
 21
6.4572991554
  0
LINE
  5
5EE
100
AcDbEntity
  8
0
100
AcDbLine
 62
7
  6
CONTINUOUS
 10
15.3291308281
 20
4.6780238456
 11
15.4030983437
 21
4.7207287557
  0
LWPOLYLINE
  5
5EF
100
AcDbEntity
  8
0
100
AcDbPolyline
 62
7
  6
CONTINUOUS
 90
7
 70
0
 10
12.951662746
 20
6.210994565
 10
12.987819164
 20
6.219497814
 10
13.0258251563
 20
6.2246472299
 10
13.0647540706
 20
6.2263179232
 10
13.1036570533
 20
6.2244697207
 10
13.141586108
 20
6.2191481093
 10
13.1688333014
 20
6.2125955033
  0
LWPOLYLINE
  5
5F0
100
AcDbEntity
  8
0
100
AcDbPolyline
 62
7
  6
CONTINUOUS
 90
4
 70
0
 10
12.4579268987
 20
6.4648433556
 10
12.4563401683
 20
6.4648901738
 10
12.4549488856
 20
6.4644566913
 10
12.454131777
 20
6.4638886801
  0
LINE
  5
5F1
100
AcDbEntity
  8
0
100
AcDbLine
 62
7
  6
CONTINUOUS
 10
12.5677086036
 20
6.5291823313
 11
12.5692818636
 21
6.5291337677
  0
LWPOLYLINE
  5
5F2
100
AcDbEntity
  8
0
100
AcDbPolyline
 62
9
  6
CONTINUOUS
 90
5
 70
0
 10
12.6313313695
 20
6.5346345727
 10
12.618353796
 20
6.5355772777
 10
12.6024052494
 20
6.5351139508
 10
12.5859661146
 20
6.5329450551
 10
12.5692817377
 20
6.529133793
  0
LWPOLYLINE
  5
5F3
100
AcDbEntity
  8
0
100
AcDbPolyline
 62
7
  6
CONTINUOUS
 90
4
 70
0
 10
12.6313309242
 20
6.5346346028
 10
12.6211369068
 20
6.5354998836
 10
12.5937124115
 20
6.5343930626
 10
12.5671127908
 20
6.5290641035
  0
LWPOLYLINE
  5
5F4
100
AcDbEntity
  8
0
100
AcDbPolyline
 62
3
  6
CONTINUOUS
 90
4
 70
0
 10
14.1230093444
 20
6.4572991554
 10
14.1927363288
 20
6.4255392267
 10
14.2593918655
 20
6.4121704185
 10
14.320039803
 20
6.4177816219
  0
LWPOLYLINE
  5
5F5
100
AcDbEntity
  8
0
100
AcDbPolyline
 62
7
  6
CONTINUOUS
 90
14
 70
0
 10
12.951662746
 20
6.4256079351
 10
12.9883490289
 20
6.4301329081
 10
13.0266094803
 20
6.4303170955
 10
13.0654377361
 20
6.4267718873
 10
13.1042487574
 20
6.4201836264
 10
13.1424215159
 20
6.4112375742
 10
13.1784438236
 20
6.4008521886
 10
13.211463477
 20
6.3897514618
 10
13.2406036068
 20
6.3785127041
 10
13.2652921093
 20
6.3674262949
 10
13.2855415624
 20
6.356293742
 10
13.3009474254
 20
6.3447966715
 10
13.3105536532
 20
6.3328278321
 10
13.3137655759
 20
6.320391116
  0
LWPOLYLINE
  5
5F6
100
AcDbEntity
  8
AXIS
100
AcDbPolyline
 62
7
  6
CONTINUOUS
 90
13
 70
0
 10
2.3254094466
 20
5.8369030787
 10
2.3344184864
 20
5.8303947878
 10
2.3450679549
 20
5.8250411463
 10
2.3560129409
 20
5.8210936604
 10
2.3669298425
 20
5.8182091083
 10
2.3778389276
 20
5.8160897588
 10
2.3891762703
 20
5.8144973172
 10
2.4014405475
 20
5.8133065921
 10
2.4151382421
 20
5.8124614159
 10
2.4307814594
 20
5.8119325015
 10
2.4484443884
 20
5.8116811278
 10
2.4676074398
 20
5.8116121187
 10
2.4876113475
 20
5.8116070275
  0
LWPOLYLINE
  5
5F7
100
AcDbEntity
  8
AXIS
100
AcDbPolyline
 62
7
  6
CONTINUOUS
 90
8
 70
0
 10
2.1631740209
 20
5.8369030787
 10
2.1676238378
 20
5.8304604677
 10
2.1727077368
 20
5.8252928319
 10
2.1781021926
 20
5.8213253453
 10
2.1835993482
 20
5.8183618004
 10
2.1891083751
 20
5.8161833064
 10
2.1948290856
 20
5.8145514126
 10
2.2010169322
 20
5.8133338551
  0
LINE
  5
5F8
100
AcDbEntity
  8
0
100
AcDbLine
 62
7
  6
CONTINUOUS
 10
1.701617712
 20
7.7038393683
 11
1.701617712
 21
8.2973274506
  0
LINE
  5
5F9
100
AcDbEntity
  8
AXIS
100
AcDbLine
 62
7
  6
CONTINUOUS
 10
2.2010169322
 20
5.8133338551
 11
2.2079355394
 21
5.812471084
  0
LWPOLYLINE
  5
5FA
100
AcDbEntity
  8
0
100
AcDbPolyline
 62
7
  6
CONTINUOUS
 90
7
 70
0
 10
1.701617712
 20
7.7038393651
 10
1.7018699485
 20
7.7013336249
 10
1.7026126972
 20
7.6989458042
 10
1.7038134092
 20
7.6967702285
 10
1.7054229278
 20
7.6948956244
 10
1.7073777932
 20
7.6933994734
 10
1.7096027095
 20
7.6923465213
  0
LWPOLYLINE
  5
5FB
100
AcDbEntity
  8
0
100
AcDbPolyline
 62
9
  6
CONTINUOUS
 90
27
 70
0
 10
1.701617712
 20
8.2973274506
 10
1.7020022035
 20
8.2907415109
 10
1.7023838429
 20
8.2823553973
 10
1.7027533958
 20
8.2723184776
 10
1.7031051843
 20
8.2608114343
 10
1.7034396774
 20
8.2478581991
 10
1.7037670851
 20
8.2329602391
 10
1.7040985286
 20
8.215172201
 10
1.7044387111
 20
8.1932961036
 10
1.7047794779
 20
8.1662671475
 10
1.705100712
 20
8.1333286236
 10
1.7053731281
 20
8.094148885
 10
1.7055606172
 20
8.04925509
 10
1.7056285002
 20
8.0005697927
 10
1.7055605983
 20
7.9519051664
 10
1.7053731804
 20
7.907027362
 10
1.705100943
 20
7.8678658091
 10
1.7047799027
 20
7.8349375807
 10
1.7044393708
 20
7.8079174799
 10
1.7040995491
 20
7.7860542658
 10
1.7037683763
 20
7.7682702232
 10
1.7034411293
 20
7.753369562
 10
1.7031063718
 20
7.7403977341
 10
1.7027544224
 20
7.7288790389
 10
1.7023854646
 20
7.718851209
 10
1.7020047115
 20
7.7104742468
 10
1.701617712
 20
7.7038393683
  0
LWPOLYLINE
  5
5FC
100
AcDbEntity
  8
0
100
AcDbPolyline
 62
9
  6
CONTINUOUS
 90
27
 70
0
 10
1.7096025297
 20
8.3088202294
 10
1.709991275
 20
8.3021460051
 10
1.7103782307
 20
8.29356321
 10
1.710753726
 20
8.2832183062
 10
1.7111113946
 20
8.2713082072
 10
1.7114511074
 20
8.2578816495
 10
1.7117824958
 20
8.2424667998
 10
1.712117423
 20
8.2240760003
 10
1.7124612093
 20
8.2014479388
 10
1.7128063041
 20
8.1734269165
 10
1.713132375
 20
8.1391967633
 10
1.7134095479
 20
8.0983841698
 10
1.7136007578
 20
8.0515196302
 10
1.7136701603
 20
8.0006215589
 10
1.7136010002
 20
7.9497386105
 10
1.7134100671
 20
7.9028789718
 10
1.7131331941
 20
7.8620709299
 10
1.7128073812
 20
7.8278386582
 10
1.7124625271
 20
7.799814727
 10
1.712119097
 20
7.7771910591
 10
1.7117844335
 20
7.7587977734
 10
1.7114532083
 20
7.7433753011
 10
1.711113247
 20
7.7299259915
 10
1.7107554469
 20
7.7180008455
 10
1.7103807352
 20
7.7076658263
 10
1.7099945071
 20
7.6990843015
 10
1.7096025287
 20
7.6923465821
  0
LWPOLYLINE
  5
5FD
100
AcDbEntity
  8
0
100
AcDbPolyline
 62
7
  6
CONTINUOUS
 90
9
 70
0
 10
1.817311171
 20
7.8999681647
 10
1.8167672063
 20
7.9246712849
 10
1.8163765116
 20
7.9497614097
 10
1.8161412766
 20
7.9751056988
 10
1.8160627063
 20
8.0005774396
 10
1.8161412049
 20
8.0260494939
 10
1.816376383
 20
8.051395033
 10
1.816767068
 20
8.0764881586
 10
1.817311171
 20
8.1011986463
  0
LINE
  5
5FE
100
AcDbEntity
  8
0
100
AcDbLine
 62
7
  6
CONTINUOUS
 10
1.8262275494
 20
8.0960507728
 11
1.8262275494
 21
7.9051160381
  0
LWPOLYLINE
  5
5FF
100
AcDbEntity
  8
0
100
AcDbPolyline
 62
7
  6
CONTINUOUS
 90
7
 70
0
 10
1.7096026672
 20
8.3088202757
 10
1.7073587009
 20
8.3077556612
 10
1.7053911383
 20
8.3062410034
 10
1.7037838439
 20
8.3043537771
 10
1.7025960181
 20
8.3021816701
 10
1.7018657211
 20
8.2998123471
 10
1.701617712
 20
8.2973274554
  0
LWPOLYLINE
  5
600
100
AcDbEntity
  8
AXIS
100
AcDbPolyline
 62
7
  6
CONTINUOUS
 90
5
 70
0
 10
2.7309779944
 20
5.8116070275
 10
2.7412799807
 20
5.8116126745
 10
2.7508073654
 20
5.8116843276
 10
2.7594507027
 20
5.811933457
 10
2.7671462702
 20
5.812451627
  0
LWPOLYLINE
  5
601
100
AcDbEntity
  8
AXIS
100
AcDbPolyline
 62
7
  6
CONTINUOUS
 90
13
 70
0
 10
2.244292669
 20
5.8116070231
 10
2.2544561182
 20
5.8116124209
 10
2.2641868794
 20
5.8116856698
 10
2.2731229465
 20
5.8119510549
 10
2.2809753159
 20
5.8125023969
 10
2.2878037404
 20
5.8133718524
 10
2.2938844629
 20
5.8145825751
 10
2.2994892071
 20
5.816188056
 10
2.3048853162
 20
5.8183164498
 10
2.3102995753
 20
5.8212120462
 10
2.3157190963
 20
5.8251588747
 10
2.3209620294
 20
5.8304633549
 10
2.3254094466
 20
5.8369030787
  0
LWPOLYLINE
  5
602
100
AcDbEntity
  8
AXIS
100
AcDbPolyline
 62
7
  6
CONTINUOUS
 90
13
 70
0
 10
2.4876113475
 20
5.8116070275
 10
2.5073722964
 20
5.8116118112
 10
2.5265443263
 20
5.8116788867
 10
2.5443332189
 20
5.8119285383
 10
2.5601398154
 20
5.8124608692
 10
2.5739555089
 20
5.8133149515
 10
2.5862960796
 20
5.8145188543
 10
2.5976844605
 20
5.8161285497
 10
2.6086304357
 20
5.8182704409
 10
2.6195625516
 20
5.8211816901
 10
2.6304677507
 20
5.8251453283
 10
2.6409958158
 20
5.8304695844
 10
2.6498802978
 20
5.8369030787
  0
LINE
  5
603
100
AcDbEntity
  8
AXIS
100
AcDbLine
 62
7
  6
CONTINUOUS
 10
2.2066448722
 20
5.8116070275
 11
2.7686448722
 21
5.8116070275
  0
LWPOLYLINE
  5
604
100
AcDbEntity
  8
AXIS
100
AcDbPolyline
 62
7
  6
CONTINUOUS
 90
5
 70
0
 10
2.2079355394
 20
5.812471084
 10
2.2158437085
 20
5.8119332444
 10
2.224744899
 20
5.8116803267
 10
2.2343531427
 20
5.811611958
 10
2.244292669
 20
5.8116070231
  0
LWPOLYLINE
  5
605
100
AcDbEntity
  8
AXIS
100
AcDbPolyline
 62
7
  6
CONTINUOUS
 90
13
 70
0
 10
2.3254094466
 20
6.1233109764
 10
2.3209324405
 20
6.1297862652
 10
2.3155931527
 20
6.1351619662
 10
2.3100599648
 20
6.1391496474
 10
2.3045227909
 20
6.1420618651
 10
2.299005992
 20
6.144186404
 10
2.2933082622
 20
6.1457676132
 10
2.2871799324
 20
6.1469407989
 10
2.2803661642
 20
6.1477692568
 10
2.2726074417
 20
6.1482867978
 10
2.2638374114
 20
6.1485337457
 10
2.2543008645
 20
6.1486019558
 10
2.2443106977
 20
6.1486070277
  0
LINE
  5
606
100
AcDbEntity
  8
0
100
AcDbLine
 62
7
  6
CONTINUOUS
 10
1.9135818801
 20
8.0456167265
 11
1.9135818801
 21
7.9555500845
  0
LINE
  5
607
100
AcDbEntity
  8
AXIS
100
AcDbLine
 62
7
  6
CENTER
 10
1.9915818801
 20
8.0005834055
 11
1.9915818801
 21
7.792315689
  0
LINE
  5
608
100
AcDbEntity
  8
0
100
AcDbLine
 62
7
  6
CONTINUOUS
 10
1.9915818801
 20
7.8096486708
 11
1.9915818801
 21
7.7984439505
  0
LINE
  5
609
100
AcDbEntity
  8
0
100
AcDbLine
 62
7
  6
CONTINUOUS
 10
1.9915818801
 20
8.1915181402
 11
1.9915818801
 21
8.2027228605
  0
LINE
  5
60A
100
AcDbEntity
  8
AXIS
100
AcDbLine
 62
7
  6
CENTER
 10
1.9915818801
 20
8.0005834055
 11
1.9915818801
 21
8.208851122
  0
LWPOLYLINE
  5
60B
100
AcDbEntity
  8
0
100
AcDbPolyline
 62
7
  6
CONTINUOUS
 90
6
 70
0
 10
1.817311171
 20
8.1011986463
 10
1.8505719993
 20
8.1208218677
 10
1.8855087231
 20
8.1413064081
 10
1.9212276418
 20
8.1621175266
 10
1.9568862743
 20
8.1827619345
 10
1.9915818801
 20
8.2027228605
  0
LINE
  5
60C
100
AcDbEntity
  8
0
100
AcDbLine
 62
7
  6
CONTINUOUS
 10
1.9915818801
 20
8.1915181402
 11
1.8262275494
 21
8.0960507728
  0
LWPOLYLINE
  5
60D
100
AcDbEntity
  8
AXIS
100
AcDbPolyline
 62
7
  6
CONTINUOUS
 90
7
 70
0
 10
2.7671462702
 20
5.812451627
 10
2.7739800415
 20
5.813287814
 10
2.780171512
 20
5.8144830435
 10
2.7859436413
 20
5.816103893
 10
2.7915139224
 20
5.8182809752
 10
2.7970540192
 20
5.8212419673
 10
2.8024836745
 20
5.8252085856
  0
LWPOLYLINE
  5
60E
100
AcDbEntity
  8
AXIS
100
AcDbPolyline
 62
7
  6
CONTINUOUS
 90
12
 70
0
 10
2.6498802978
 20
6.1233109764
 10
2.6411921441
 20
6.1296258809
 10
2.6308789149
 20
6.1348928158
 10
2.6199956613
 20
6.1388975729
 10
2.608917172
 20
6.1418780977
 10
2.5978038633
 20
6.1440655794
 10
2.5862931821
 20
6.1456955435
 10
2.5738926111
 20
6.146904053
 10
2.5600929797
 20
6.1477553742
 10
2.5443753131
 20
6.1482845672
 10
2.5266819532
 20
6.1485341502
 10
2.5076448533
 20
6.148601711
  0
LWPOLYLINE
  5
60F
100
AcDbEntity
  8
AXIS
100
AcDbPolyline
 62
7
  6
CONTINUOUS
 90
8
 70
0
 10
2.1631740209
 20
6.5947534724
 10
2.1676238378
 20
6.5883108614
 10
2.1727077368
 20
6.5831432256
 10
2.1781021926
 20
6.579175739
 10
2.1835993482
 20
6.5762121941
 10
2.1891083751
 20
6.5740337001
 10
2.1948290856
 20
6.5724018063
 10
2.2010169322
 20
6.5711842488
  0
LWPOLYLINE
  5
610
100
AcDbEntity
  8
AXIS
100
AcDbPolyline
 62
7
  6
CONTINUOUS
 90
11
 70
0
 10
2.6498802978
 20
5.8369030787
 10
2.6542293948
 20
5.8305820887
 10
2.6595216149
 20
5.8252006713
 10
2.6656964946
 20
5.8207825135
 10
2.6726348967
 20
5.8173569991
 10
2.6803865467
 20
5.8148355072
 10
2.6890229082
 20
5.8131365121
 10
2.6985900087
 20
5.8121544352
 10
2.7090671992
 20
5.8117229391
 10
2.7200569053
 20
5.8116142654
 10
2.7309779944
 20
5.8116070275
  0
LWPOLYLINE
  5
611
100
AcDbEntity
  8
0
100
AcDbPolyline
 62
7
  6
CONTINUOUS
 90
9
 70
0
 10
2.1739822298
 20
8.1058922965
 10
2.174474828
 20
8.0799178372
 10
2.1748281346
 20
8.0536403224
 10
2.1750406712
 20
8.0271639249
 10
2.1751116233
 20
8.0005878613
 10
2.1750407177
 20
7.9740115842
 10
2.1748282182
 20
7.9475342812
 10
2.1744749182
 20
7.9212545483
 10
2.1739822298
 20
7.8952745145
  0
LINE
  5
612
100
AcDbEntity
  8
0
100
AcDbLine
 62
7
  6
CONTINUOUS
 10
2.0695818801
 20
7.9555500845
 11
2.0695818801
 21
8.0456167265
  0
LINE
  5
613
100
AcDbEntity
  8
02___PRT_ALL_AXES
100
AcDbLine
 62
7
  6
CONTINUOUS
 10
2.0816448722
 20
6.321347185
 11
2.0816448722
 21
6.386347185
  0
LINE
  5
614
100
AcDbEntity
  8
02___PRT_ALL_AXES
100
AcDbLine
 62
7
  6
CONTINUOUS
 10
2.0816448722
 20
6.4650873425
 11
2.0816448722
 21
6.5300873425
  0
LINE
  5
615
100
AcDbEntity
  8
AXIS
100
AcDbLine
 62
7
  6
CONTINUOUS
 10
2.1476448722
 20
6.1486070275
 11
2.1476448722
 21
6.2426070275
  0
LINE
  5
616
100
AcDbEntity
  8
0
100
AcDbLine
 62
7
  6
CONTINUOUS
 10
2.1569362108
 20
7.9051160381
 11
2.1569362108
 21
8.0960507728
  0
LINE
  5
617
100
AcDbEntity
  8
AXIS
100
AcDbLine
 62
7
  6
CONTINUOUS
 10
2.1631740209
 20
5.8369030787
 11
2.1631740209
 21
6.1233109764
  0
LINE
  5
618
100
AcDbEntity
  8
AXIS
100
AcDbLine
 62
7
  6
CONTINUOUS
 10
2.1631740209
 20
6.5947534724
 11
2.1631740209
 21
6.8811613701
  0
LINE
  5
619
100
AcDbEntity
  8
0
100
AcDbLine
 62
7
  6
CONTINUOUS
 10
1.9915818801
 20
8.0906500475
 11
1.9135818801
 21
8.0456167265
  0
LINE
  5
61A
100
AcDbEntity
  8
0
100
AcDbLine
 62
7
  6
CONTINUOUS
 10
1.8262275494
 20
7.9051160381
 11
1.817311171
 21
7.8999681647
  0
LINE
  5
61B
100
AcDbEntity
  8
0
100
AcDbLine
 62
7
  6
CONTINUOUS
 10
2.1569362108
 20
8.0960507728
 11
2.1739822298
 21
8.1058922965
  0
LWPOLYLINE
  5
61C
100
AcDbEntity
  8
0
100
AcDbPolyline
 62
7
  6
CONTINUOUS
 90
17
 70
0
 10
2.7249210564
 20
8.5110860506
 10
2.7102365551
 20
8.5034925129
 10
2.6901125742
 20
8.4935155102
 10
2.6644544736
 20
8.4815605186
 10
2.6338357963
 20
8.468504552
 10
2.5994095403
 20
8.4555346725
 10
2.5628105108
 20
8.4439072615
 10
2.5254850644
 20
8.4345318836
 10
2.4876892853
 20
8.4277696884
 10
2.4494216646
 20
8.423867443
 10
2.4116306066
 20
8.4230124762
 10
2.3754526133
 20
8.4250144495
 10
2.3418253059
 20
8.4293262674
 10
2.3120559315
 20
8.435065418
 10
2.2865588889
 20
8.4413668205
 10
2.2657762531
 20
8.4474132608
 10
2.250368688
 20
8.452404529
  0
LWPOLYLINE
  5
61D
100
AcDbEntity
  8
AXIS
100
AcDbPolyline
 62
7
  6
CONTINUOUS
 90
12
 70
0
 10
2.4676940923
 20
6.1486020238
 10
2.4484929911
 20
6.1485332926
 10
2.4307931366
 20
6.1482818191
 10
2.4151521197
 20
6.1477532884
 10
2.4014855731
 20
6.146910994
 10
2.3892388624
 20
6.1457240919
 10
2.3778716125
 20
6.1441297018
 10
2.3668586
 20
6.1419888406
 10
2.3557926379
 20
6.1390525893
 10
2.3447800118
 20
6.1350508665
 10
2.3342268465
 20
6.1297040465
 10
2.3254094466
 20
6.1233109764
  0
LWPOLYLINE
  5
61E
100
AcDbEntity
  8
AXIS
100
AcDbPolyline
 62
7
  6
CONTINUOUS
 90
13
 70
0
 10
2.7309940608
 20
6.1486070295
 10
2.7208458911
 20
6.1486016601
 10
2.71115741
 20
6.1485292407
 10
2.7022842135
 20
6.1482685329
 10
2.6945048319
 20
6.1477299708
 10
2.6877253178
 20
6.1468805349
 10
2.6816635257
 20
6.1456930992
 10
2.6760428369
 20
6.1441069953
 10
2.670592095
 20
6.1419830545
 10
2.6651001434
 20
6.1390700193
 10
2.6596057649
 20
6.1350850378
 10
2.6543197293
 20
6.1297410883
 10
2.6498802978
 20
6.1233109764
  0
LINE
  5
61F
100
AcDbEntity
  8
AXIS
100
AcDbLine
 62
7
  6
CONTINUOUS
 10
2.4876437087
 20
6.1486070346
 11
2.4676940923
 21
6.1486020238
  0
LINE
  5
620
100
AcDbEntity
  8
AXIS
100
AcDbLine
 62
7
  6
CONTINUOUS
 10
2.147644924
 20
6.1486070275
 11
2.8276448217
 21
6.1486070275
  0
LINE
  5
621
100
AcDbEntity
  8
AXIS
100
AcDbLine
 62
7
  6
CONTINUOUS
 10
2.5076448533
 20
6.148601711
 11
2.4876437087
 21
6.1486070346
  0
LINE
  5
622
100
AcDbEntity
  8
AXIS
100
AcDbLine
 62
7
  6
CONTINUOUS
 10
2.7741391949
 20
6.1469013293
 11
2.7672247904
 21
6.1477551197
  0
LWPOLYLINE
  5
623
100
AcDbEntity
  8
AXIS
100
AcDbPolyline
 62
7
  6
CONTINUOUS
 90
13
 70
0
 10
2.3254094466
 20
6.5947534724
 10
2.3344184864
 20
6.5882451815
 10
2.3450679549
 20
6.58289154
 10
2.3560129409
 20
6.5789440541
 10
2.3669298425
 20
6.576059502
 10
2.3778389276
 20
6.5739401525
 10
2.3891762703
 20
6.5723477109
 10
2.4014405475
 20
6.5711569858
 10
2.4151382421
 20
6.5703118096
 10
2.4307814594
 20
6.5697828952
 10
2.4484443884
 20
6.5695315215
 10
2.4676074398
 20
6.5694625124
 10
2.4876113475
 20
6.5694574212
  0
LWPOLYLINE
  5
624
100
AcDbEntity
  8
AXIS
100
AcDbPolyline
 62
7
  6
CONTINUOUS
 90
7
 70
0
 10
2.8077221016
 20
6.1296858418
 10
2.8026571376
 20
6.1348565137
 10
2.797243785
 20
6.1388534084
 10
2.7916827947
 20
6.1418557527
 10
2.7861065947
 20
6.1440558457
 10
2.7803438312
 20
6.1456904153
 10
2.7741391949
 20
6.1469013293
  0
LINE
  5
625
100
AcDbEntity
  8
AXIS
100
AcDbLine
 62
7
  6
CONTINUOUS
 10
2.8121157235
 20
6.1233109764
 11
2.8077221016
 21
6.1296858418
  0
LINE
  5
626
100
AcDbEntity
  8
0
100
AcDbLine
 62
7
  6
CONTINUOUS
 10
2.2514243998
 20
8.1285361614
 11
2.2514243998
 21
7.8726306496
  0
LINE
  5
627
100
AcDbEntity
  8
02___PRT_ALL_AXES
100
AcDbLine
 62
7
  6
CONTINUOUS
 10
2.3001448722
 20
6.2426070275
 11
2.3001448722
 21
6.321347185
  0
LINE
  5
628
100
AcDbEntity
  8
02___PRT_ALL_AXES
100
AcDbLine
 62
7
  6
CONTINUOUS
 10
2.3001448722
 20
6.386347185
 11
2.3001448722
 21
6.4650873425
  0
LINE
  5
629
100
AcDbEntity
  8
02___PRT_ALL_AXES
100
AcDbLine
 62
7
  6
CONTINUOUS
 10
2.3001448722
 20
6.5300873425
 11
2.3001448722
 21
6.5694574212
  0
LINE
  5
62A
100
AcDbEntity
  8
02___PRT_ALL_AXES
100
AcDbLine
 62
7
  6
CONTINUOUS
 10
2.3001448722
 20
6.9064574212
 11
2.3001448722
 21
7.5631576719
  0
LINE
  5
62B
100
AcDbEntity
  8
AXIS
100
AcDbLine
 62
7
  6
CONTINUOUS
 10
2.3254094466
 20
5.8369030787
 11
2.3254094466
 21
6.1233109764
  0
LINE
  5
62C
100
AcDbEntity
  8
AXIS
100
AcDbLine
 62
7
  6
CONTINUOUS
 10
2.3254094466
 20
6.5947534724
 11
2.3254094466
 21
6.8811613701
  0
LINE
  5
62D
100
AcDbEntity
  8
0
100
AcDbLine
 62
7
  6
CONTINUOUS
 10
1.9915818801
 20
7.9105167635
 11
2.0695818801
 21
7.9555500845
  0
LWPOLYLINE
  5
62E
100
AcDbEntity
  8
AXIS
100
AcDbPolyline
 62
7
  6
CONTINUOUS
 90
9
 70
0
 10
2.2081616048
 20
6.1477641089
 10
2.2012385973
 20
6.1469151454
 10
2.1950233727
 20
6.1457087179
 10
2.1892489216
 20
6.1440778311
 10
2.1836603013
 20
6.1418802619
 10
2.1780846573
 20
6.1388777138
 10
2.1726559342
 20
6.1348766374
 10
2.1675771768
 20
6.1296973551
 10
2.1631740209
 20
6.1233109764
  0
LINE
  5
62F
100
AcDbEntity
  8
AXIS
100
AcDbLine
 62
7
  6
CONTINUOUS
 10
2.209358742
 20
6.1478439116
 11
2.2081616048
 21
6.1477641089
  0
LINE
  5
630
100
AcDbEntity
  8
AXIS
100
AcDbLine
 62
7
  6
CONTINUOUS
 10
2.147644924
 20
6.2426070275
 11
2.4676448722
 21
6.2426070275
  0
LINE
  5
631
100
AcDbEntity
  8
AXIS
100
AcDbLine
 62
7
  6
CONTINUOUS
 10
2.5076448722
 20
6.2426070275
 11
2.8276448217
 21
6.2426070275
  0
LINE
  5
632
100
AcDbEntity
  8
02___PRT_ALL_AXES
100
AcDbLine
 62
7
  6
CONTINUOUS
 10
2.0816448722
 20
6.321347185
 11
2.8936448722
 21
6.321347185
  0
LWPOLYLINE
  5
633
100
AcDbEntity
  8
AXIS
100
AcDbPolyline
 62
7
  6
CONTINUOUS
 90
13
 70
0
 10
2.3254094466
 20
6.8811613701
 10
2.3209324405
 20
6.8876366589
 10
2.3155931527
 20
6.8930123599
 10
2.3100599648
 20
6.8970000411
 10
2.3045227909
 20
6.8999122588
 10
2.299005992
 20
6.9020367977
 10
2.2933082622
 20
6.9036180069
 10
2.2871799324
 20
6.9047911926
 10
2.2803661642
 20
6.9056196505
 10
2.2726074417
 20
6.9061371915
 10
2.2638374114
 20
6.9063841394
 10
2.2543008645
 20
6.9064523495
 10
2.2443106977
 20
6.9064574214
  0
LWPOLYLINE
  5
634
100
AcDbEntity
  8
AXIS
100
AcDbPolyline
 62
7
  6
CONTINUOUS
 90
11
 70
0
 10
2.6498802978
 20
6.5947534724
 10
2.6542293948
 20
6.5884324824
 10
2.6595216149
 20
6.583051065
 10
2.6656964946
 20
6.5786329072
 10
2.6726348967
 20
6.5752073928
 10
2.6803865467
 20
6.5726859009
 10
2.6890229082
 20
6.5709869058
 10
2.6985900087
 20
6.5700048289
 10
2.7090671992
 20
6.5695733328
 10
2.7200569053
 20
6.5694646591
 10
2.7309779944
 20
6.5694574212
  0
LINE
  5
635
100
AcDbEntity
  8
AXIS
100
AcDbLine
 62
7
  6
CONTINUOUS
 10
2.4676448722
 20
6.1486070275
 11
2.4676448722
 21
6.2426070275
  0
LINE
  5
636
100
AcDbEntity
  8
02___PRT_ALL_AXES
100
AcDbLine
 62
7
  6
CENTER
 10
2.4876448722
 20
8.2866070275
 11
2.4876448722
 21
5.7116070275
  0
LINE
  5
637
100
AcDbEntity
  8
AXIS
100
AcDbLine
 62
7
  6
CONTINUOUS
 10
2.5076448722
 20
6.1486070275
 11
2.5076448722
 21
6.2426070275
  0
LINE
  5
638
100
AcDbEntity
  8
0
100
AcDbLine
 62
7
  6
CONTINUOUS
 10
1.9915818801
 20
7.8096486708
 11
2.1569362108
 21
7.9051160381
  0
LWPOLYLINE
  5
639
100
AcDbEntity
  8
0
100
AcDbPolyline
 62
7
  6
CONTINUOUS
 90
7
 70
0
 10
2.1739822298
 20
7.8952745145
 10
2.1432083382
 20
7.8786307324
 10
2.1123798639
 20
7.8620703562
 10
2.0816461701
 20
7.8456809597
 10
2.0511662766
 20
7.8295545903
 10
2.0210884556
 20
7.8137769311
 10
1.9915818801
 20
7.7984439505
  0
LINE
  5
63A
100
AcDbEntity
  8
02___PRT_ALL_AXES
100
AcDbLine
 62
7
  6
CONTINUOUS
 10
2.0816448722
 20
6.386347185
 11
2.8936448722
 21
6.386347185
  0
LINE
  5
63B
100
AcDbEntity
  8
02___PRT_ALL_AXES
100
AcDbLine
 62
7
  6
CONTINUOUS
 10
2.0816448722
 20
6.4650873425
 11
2.8936448722
 21
6.4650873425
  0
LINE
  5
63C
100
AcDbEntity
  8
AXIS
100
AcDbLine
 62
7
  6
CONTINUOUS
 10
2.2010169322
 20
6.5711842488
 11
2.2079355394
 21
6.5703214777
  0
LINE
  5
63D
100
AcDbEntity
  8
AXIS
100
AcDbLine
 62
7
  6
CONTINUOUS
 10
2.6498802978
 20
5.8369030787
 11
2.6498802978
 21
6.1233109764
  0
LINE
  5
63E
100
AcDbEntity
  8
AXIS
100
AcDbLine
 62
7
  6
CONTINUOUS
 10
2.6498802978
 20
6.5947534724
 11
2.6498802978
 21
6.8811613701
  0
LINE
  5
63F
100
AcDbEntity
  8
02___PRT_ALL_AXES
100
AcDbLine
 62
7
  6
CONTINUOUS
 10
2.6751448722
 20
6.2426070275
 11
2.6751448722
 21
6.321347185
  0
LINE
  5
640
100
AcDbEntity
  8
02___PRT_ALL_AXES
100
AcDbLine
 62
7
  6
CONTINUOUS
 10
2.6751448722
 20
6.386347185
 11
2.6751448722
 21
6.4650873425
  0
LINE
  5
641
100
AcDbEntity
  8
02___PRT_ALL_AXES
100
AcDbLine
 62
7
  6
CONTINUOUS
 10
2.6751448722
 20
6.5300873425
 11
2.6751448722
 21
6.5694574212
  0
LINE
  5
642
100
AcDbEntity
  8
02___PRT_ALL_AXES
100
AcDbLine
 62
7
  6
CONTINUOUS
 10
2.6751448722
 20
6.9064574212
 11
2.6751448722
 21
7.5146255916
  0
LINE
  5
643
100
AcDbEntity
  8
0
100
AcDbLine
 62
9
  6
CONTINUOUS
 10
3.1161947156
 20
8.3338546602
 11
3.1132758879
 21
8.3309358325
  0
LINE
  5
644
100
AcDbEntity
  8
0
100
AcDbLine
 62
9
  6
CONTINUOUS
 10
3.1358767568
 20
8.314172619
 11
3.1330561995
 21
8.3113520616
  0
LWPOLYLINE
  5
645
100
AcDbEntity
  8
AXIS
100
AcDbPolyline
 62
7
  6
CONTINUOUS
 90
5
 70
0
 10
2.7309779944
 20
6.5694574212
 10
2.7412799807
 20
6.5694630682
 10
2.7508073654
 20
6.5695347213
 10
2.7594507027
 20
6.5697838507
 10
2.7671462702
 20
6.5703020207
  0
LWPOLYLINE
  5
646
100
AcDbEntity
  8
AXIS
100
AcDbPolyline
 62
7
  6
CONTINUOUS
 90
13
 70
0
 10
2.244292669
 20
6.5694574168
 10
2.2544561182
 20
6.5694628146
 10
2.2641868794
 20
6.5695360635
 10
2.2731229465
 20
6.5698014486
 10
2.2809753159
 20
6.5703527906
 10
2.2878037404
 20
6.5712222461
 10
2.2938844629
 20
6.5724329688
 10
2.2994892071
 20
6.5740384497
 10
2.3048853162
 20
6.5761668435
 10
2.3102995753
 20
6.5790624399
 10
2.3157190963
 20
6.5830092684
 10
2.3209620294
 20
6.5883137486
 10
2.3254094466
 20
6.5947534724
  0
LWPOLYLINE
  5
647
100
AcDbEntity
  8
AXIS
100
AcDbPolyline
 62
7
  6
CONTINUOUS
 90
13
 70
0
 10
2.4876113475
 20
6.5694574212
 10
2.5073722964
 20
6.5694622049
 10
2.5265443263
 20
6.5695292804
 10
2.5443332189
 20
6.569778932
 10
2.5601398154
 20
6.5703112629
 10
2.5739555089
 20
6.5711653452
 10
2.5862960796
 20
6.572369248
 10
2.5976844605
 20
6.5739789434
 10
2.6086304357
 20
6.5761208346
 10
2.6195625516
 20
6.5790320838
 10
2.6304677507
 20
6.582995722
 10
2.6409958158
 20
6.5883199781
 10
2.6498802978
 20
6.5947534724
  0
LINE
  5
648
100
AcDbEntity
  8
02___PRT_ALL_AXES
100
AcDbLine
 62
7
  6
CONTINUOUS
 10
2.0816448722
 20
6.5300873425
 11
2.8936448722
 21
6.5300873425
  0
LINE
  5
649
100
AcDbEntity
  8
AXIS
100
AcDbLine
 62
7
  6
CONTINUOUS
 10
2.2066448722
 20
6.5694574212
 11
2.7686448722
 21
6.5694574212
  0
LWPOLYLINE
  5
64A
100
AcDbEntity
  8
AXIS
100
AcDbPolyline
 62
7
  6
CONTINUOUS
 90
5
 70
0
 10
2.2079355394
 20
6.5703214777
 10
2.2158437085
 20
6.5697836381
 10
2.224744899
 20
6.5695307204
 10
2.2343531427
 20
6.5694623517
 10
2.244292669
 20
6.5694574168
  0
LWPOLYLINE
  5
64B
100
AcDbEntity
  8
AXIS
100
AcDbPolyline
 62
7
  6
CONTINUOUS
 90
13
 70
0
 10
2.6498802978
 20
6.8811613701
 10
2.6411921441
 20
6.8874762746
 10
2.6308789149
 20
6.8927432095
 10
2.6199956613
 20
6.8967479666
 10
2.608917172
 20
6.8997284914
 10
2.5978038633
 20
6.9019159731
 10
2.5862931821
 20
6.9035459372
 10
2.5738926111
 20
6.9047544467
 10
2.5600929797
 20
6.9056057679
 10
2.5443753131
 20
6.9061349609
 10
2.5266819532
 20
6.9063845439
 10
2.5075414719
 20
6.9064524716
 10
2.4876437087
 20
6.9064574283
  0
LWPOLYLINE
  5
64C
100
AcDbEntity
  8
AXIS
100
AcDbPolyline
 62
7
  6
CONTINUOUS
 90
7
 70
0
 10
2.8077221016
 20
6.8875362355
 10
2.8026571376
 20
6.8927069074
 10
2.797243785
 20
6.8967038021
 10
2.7916827947
 20
6.8997061464
 10
2.7861065947
 20
6.9019062394
 10
2.7803438312
 20
6.903540809
 10
2.7741391949
 20
6.904751723
  0
LINE
  5
64D
100
AcDbEntity
  8
AXIS
100
AcDbLine
 62
7
  6
CONTINUOUS
 10
2.8121157235
 20
6.8811613701
 11
2.8077221016
 21
6.8875362355
  0
LINE
  5
64E
100
AcDbEntity
  8
AXIS
100
AcDbLine
 62
7
  6
CONTINUOUS
 10
2.8121157235
 20
5.8369030787
 11
2.8121157235
 21
6.1233109764
  0
LINE
  5
64F
100
AcDbEntity
  8
AXIS
100
AcDbLine
 62
7
  6
CONTINUOUS
 10
2.8121157235
 20
6.5947534724
 11
2.8121157235
 21
6.8811613701
  0
LINE
  5
650
100
AcDbEntity
  8
AXIS
100
AcDbLine
 62
7
  6
CONTINUOUS
 10
2.8276448722
 20
6.1486070275
 11
2.8276448722
 21
6.2426070275
  0
LWPOLYLINE
  5
651
100
AcDbEntity
  8
AXIS
100
AcDbPolyline
 62
7
  6
CONTINUOUS
 90
7
 70
0
 10
2.7671462702
 20
6.5703020207
 10
2.7739800415
 20
6.5711382077
 10
2.780171512
 20
6.5723334372
 10
2.7859436413
 20
6.5739542867
 10
2.7915139224
 20
6.5761313689
 10
2.7970540192
 20
6.579092361
 10
2.8024836745
 20
6.5830589793
  0
LINE
  5
652
100
AcDbEntity
  8
0
100
AcDbLine
 62
7
  6
CONTINUOUS
 10
2.8813456596
 20
8.1285361614
 11
2.8813456596
 21
7.8726306496
  0
LINE
  5
653
100
AcDbEntity
  8
02___PRT_ALL_AXES
100
AcDbLine
 62
7
  6
CONTINUOUS
 10
2.8936448722
 20
6.321347185
 11
2.8936448722
 21
6.386347185
  0
LINE
  5
654
100
AcDbEntity
  8
02___PRT_ALL_AXES
100
AcDbLine
 62
7
  6
CONTINUOUS
 10
2.8936448722
 20
6.4650873425
 11
2.8936448722
 21
6.5300873425
  0
LINE
  5
655
100
AcDbEntity
  8
0
100
AcDbLine
 62
7
  6
CONTINUOUS
 10
2.9600858171
 20
8.5182512874
 11
2.9600858171
 21
7.4829155236
  0
LWPOLYLINE
  5
656
100
AcDbEntity
  8
0
100
AcDbPolyline
 62
7
  6
CONTINUOUS
 90
9
 70
0
 10
3.0781960533
 20
8.3115545802
 10
3.0786965321
 20
8.3160755974
 10
3.079988305
 20
8.3199706364
 10
3.0818616936
 20
8.3232917349
 10
3.084233692
 20
8.3261144269
 10
3.0870992666
 20
8.3284635751
 10
3.090410801
 20
8.3302575825
 10
3.094063654
 20
8.3313892805
 10
3.0978810927
 20
8.331774254
  0
LWPOLYLINE
  5
657
100
AcDbEntity
  8
0
100
AcDbPolyline
 62
7
  6
CONTINUOUS
 90
17
 70
0
 10
2.250368688
 20
7.5487622819
 10
2.2657764929
 20
7.5537536245
 10
2.2865587993
 20
7.5597999661
 10
2.312055268
 20
7.5661012454
 10
2.3418280887
 20
7.5718409966
 10
2.3754646019
 20
7.5761534803
 10
2.4116546011
 20
7.5781547471
 10
2.4494563736
 20
7.5772972035
 10
2.4877326698
 20
7.5733909943
 10
2.5255353599
 20
7.5666240618
 10
2.5628704024
 20
7.5572424419
 10
2.5994803907
 20
7.545607411
 10
2.6339054883
 20
7.5326341178
 10
2.6645025718
 20
7.5195847218
 10
2.6901362126
 20
7.5076398831
 10
2.7102438383
 20
7.497670596
 10
2.7249210564
 20
7.4900807604
  0
LWPOLYLINE
  5
658
100
AcDbEntity
  8
AXIS
100
AcDbPolyline
 62
7
  6
CONTINUOUS
 90
13
 70
0
 10
2.7309940608
 20
6.9064574232
 10
2.7208458911
 20
6.9064520538
 10
2.71115741
 20
6.9063796344
 10
2.7022842135
 20
6.9061189266
 10
2.6945048319
 20
6.9055803645
 10
2.6877253178
 20
6.9047309286
 10
2.6816635257
 20
6.9035434929
 10
2.6760428369
 20
6.901957389
 10
2.670592095
 20
6.8998334482
 10
2.6651001434
 20
6.896920413
 10
2.6596057649
 20
6.8929354315
 10
2.6543197293
 20
6.887591482
 10
2.6498802978
 20
6.8811613701
  0
LWPOLYLINE
  5
659
100
AcDbEntity
  8
AXIS
100
AcDbPolyline
 62
7
  6
CONTINUOUS
 90
4
 70
0
 10
2.2443106977
 20
6.9064574214
 10
2.2344887435
 20
6.9064527541
 10
2.2249327486
 20
6.9063868885
 10
2.2160567563
 20
6.9061408039
  0
LWPOLYLINE
  5
65A
100
AcDbEntity
  8
AXIS
100
AcDbPolyline
 62
7
  6
CONTINUOUS
 90
13
 70
0
 10
2.4876437087
 20
6.9064574283
 10
2.4676940923
 20
6.9064524175
 10
2.4484929911
 20
6.9063836863
 10
2.4307931366
 20
6.9061322128
 10
2.4151521197
 20
6.9056036821
 10
2.4014855731
 20
6.9047613877
 10
2.3892388624
 20
6.9035744856
 10
2.3778716125
 20
6.9019800955
 10
2.3668586
 20
6.8998392343
 10
2.3557926379
 20
6.896902983
 10
2.3447800118
 20
6.8929012602
 10
2.3342268465
 20
6.8875544402
 10
2.3254094466
 20
6.8811613701
  0
LINE
  5
65B
100
AcDbEntity
  8
AXIS
100
AcDbLine
 62
7
  6
CONTINUOUS
 10
2.2066448722
 20
6.9064574212
 11
2.7309932248
 21
6.9064574212
  0
LINE
  5
65C
100
AcDbEntity
  8
AXIS
100
AcDbLine
 62
7
  6
CONTINUOUS
 10
2.7310186649
 20
6.9064574212
 11
2.7686448722
 21
6.9064574212
  0
LWPOLYLINE
  5
65D
100
AcDbEntity
  8
AXIS
100
AcDbPolyline
 62
7
  6
CONTINUOUS
 90
5
 70
0
 10
2.7672247904
 20
6.9056055134
 10
2.7593378399
 20
6.9061361062
 10
2.7504628145
 20
6.9063853399
 10
2.7408871044
 20
6.9064525882
 10
2.7309940608
 20
6.9064574232
  0
LINE
  5
65E
100
AcDbEntity
  8
AXIS
100
AcDbLine
 62
7
  6
CONTINUOUS
 10
2.7741391949
 20
6.904751723
 11
2.7672247904
 21
6.9056055134
  0
LINE
  5
65F
100
AcDbEntity
  8
0
100
AcDbLine
 62
7
  6
CONTINUOUS
 10
1.7096026672
 20
7.6923465353
 11
1.7073687928
 21
7.6934063618
  0
LWPOLYLINE
  5
660
100
AcDbEntity
  8
0
100
AcDbPolyline
 62
9
  6
CONTINUOUS
 90
24
 70
0
 10
3.1330561995
 20
7.6898147493
 10
3.1326174068
 20
7.7079045331
 10
3.1321985048
 20
7.7284431941
 10
3.1318052715
 20
7.7513399096
 10
3.1314462988
 20
7.7762216377
 10
3.1311272209
 20
7.8027106436
 10
3.1308497202
 20
7.8306331451
 10
3.1306152325
 20
7.8598337589
 10
3.1304255779
 20
7.8900914583
 10
3.1302822419
 20
7.92117041
 10
3.1301862698
 20
7.9528416786
 10
3.1301383739
 20
7.9848716172
 10
3.1301389208
 20
8.0170197064
 10
3.1301879061
 20
8.0490441053
 10
3.1302849593
 20
8.080705657
 10
3.1304293755
 20
8.1117724735
 10
3.1306201121
 20
8.1420151733
 10
3.1308556262
 20
8.1711909855
 10
3.1311339828
 20
8.1990716633
 10
3.1314537516
 20
8.2255088653
 10
3.1318133512
 20
8.2503389366
 10
3.1322069833
 20
8.2731756161
 10
3.1326249985
 20
8.2936030906
 10
3.1330561995
 20
8.3113520616
  0
LWPOLYLINE
  5
661
100
AcDbEntity
  8
0
100
AcDbPolyline
 62
9
  6
CONTINUOUS
 90
25
 70
0
 10
3.1134545523
 20
7.6702309775
 10
3.1130240906
 20
7.6882927874
 10
3.1126115942
 20
7.7088003373
 10
3.1122219206
 20
7.7317018235
 10
3.1118627182
 20
7.7566930174
 10
3.1115401956
 20
7.7833823978
 10
3.1112567398
 20
7.811544583
 10
3.1110135529
 20
7.8410391646
 10
3.1108122374
 20
7.8716738596
 10
3.1106543216
 20
7.9032202546
 10
3.1105409263
 20
7.9354530542
 10
3.1104728375
 20
7.9681481338
 10
3.1104505432
 20
8.001074548
 10
3.110474206
 20
8.0339973259
 10
3.1105436542
 20
8.0666822397
 10
3.1106583989
 20
8.0989000519
 10
3.1108176601
 20
8.1304277677
 10
3.1110203002
 20
8.161037217
 10
3.1112647133
 20
8.1904925576
 10
3.1115492116
 20
8.2185984924
 10
3.1118726046
 20
8.2452214822
 10
3.1122325914
 20
8.2701453348
 10
3.1126227383
 20
8.2929672493
 10
3.1130335788
 20
8.3133066285
 10
3.1134545523
 20
8.3309358339
  0
LINE
  5
662
100
AcDbEntity
  8
0
100
AcDbLine
 62
7
  6
CONTINUOUS
 10
3.0646921163
 20
8.5123944291
 11
3.0646921163
 21
7.4887723819
  0
LINE
  5
663
100
AcDbEntity
  8
0
100
AcDbLine
 62
7
  6
CONTINUOUS
 10
3.0781960533
 20
7.6358160878
 11
3.0781960533
 21
7.669392557
  0
LINE
  5
664
100
AcDbEntity
  8
0
100
AcDbLine
 62
7
  6
CONTINUOUS
 10
3.0781960533
 20
7.6898147493
 11
3.0781960533
 21
8.3115545802
  0
LINE
  5
665
100
AcDbEntity
  8
0
100
AcDbLine
 62
7
  6
CONTINUOUS
 10
3.0781960533
 20
8.331774254
 11
3.0781960533
 21
8.3653507232
  0
LINE
  5
666
100
AcDbEntity
  8
0
100
AcDbLine
 62
9
  6
CONTINUOUS
 10
3.0843771557
 20
7.4887723819
 11
3.0843771557
 21
7.6673121508
  0
LINE
  5
667
100
AcDbEntity
  8
0
100
AcDbLine
 62
9
  6
CONTINUOUS
 10
3.0843771557
 20
8.3338546602
 11
3.0843771557
 21
8.5123944291
  0
LINE
  5
668
100
AcDbEntity
  8
0
100
AcDbLine
 62
9
  6
CONTINUOUS
 10
3.0978810927
 20
7.669392557
 11
3.0978810927
 21
8.331774254
  0
LINE
  5
669
100
AcDbEntity
  8
0
100
AcDbLine
 62
7
  6
CONTINUOUS
 10
3.1358767568
 20
7.686994192
 11
3.1358767568
 21
8.314172619
  0
LWPOLYLINE
  5
66A
100
AcDbEntity
  8
0
100
AcDbPolyline
 62
7
  6
CONTINUOUS
 90
6
 70
0
 10
3.1358767568
 20
7.6869941861
 10
3.1349134124
 20
7.6809113377
 10
3.132117971
 20
7.6754247815
 10
3.1277641182
 20
7.6710709308
 10
3.1222775645
 20
7.6682754934
 10
3.1161947156
 20
7.6673121508
  0
LWPOLYLINE
  5
66B
100
AcDbEntity
  8
0
100
AcDbPolyline
 62
7
  6
CONTINUOUS
 90
6
 70
0
 10
3.1330561995
 20
7.6898147493
 10
3.1321144022
 20
7.6839285054
 10
3.1293868468
 20
7.6785124013
 10
3.1250677119
 20
7.6741241431
 10
3.1195447149
 20
7.67125112
 10
3.1132758879
 20
7.6702309785
  0
LWPOLYLINE
  5
66C
100
AcDbEntity
  8
AXIS
100
AcDbPolyline
 62
7
  6
CONTINUOUS
 90
9
 70
0
 10
2.2081616048
 20
6.9056145026
 10
2.2012385973
 20
6.9047655391
 10
2.1950233727
 20
6.9035591116
 10
2.1892489216
 20
6.9019282248
 10
2.1836603013
 20
6.8997306556
 10
2.1780846573
 20
6.8967281075
 10
2.1726559342
 20
6.8927270311
 10
2.1675771768
 20
6.8875477489
 10
2.1631740209
 20
6.8811613701
  0
LINE
  5
66D
100
AcDbEntity
  8
AXIS
100
AcDbLine
 62
7
  6
CONTINUOUS
 10
2.2160567563
 20
6.9061408039
 11
2.2081616048
 21
6.9056145026
  0
LWPOLYLINE
  5
66E
100
AcDbEntity
  8
0
100
AcDbPolyline
 62
7
  6
CONTINUOUS
 90
6
 70
0
 10
1.9915818801
 20
7.7984439505
 10
1.9568922994
 20
7.8184013993
 10
1.9211976026
 20
7.8390667308
 10
1.8854413888
 20
7.8598997597
 10
1.8505062343
 20
7.8803836255
 10
1.817311171
 20
7.8999681647
  0
LINE
  5
66F
100
AcDbEntity
  8
0
100
AcDbLine
 62
7
  6
CONTINUOUS
 10
1.8262275494
 20
7.9051160381
 11
1.9915818801
 21
7.8096486708
  0
LINE
  5
670
100
AcDbEntity
  8
0
100
AcDbLine
 62
7
  6
CONTINUOUS
 10
1.9135818801
 20
7.9555500845
 11
1.9915818801
 21
7.9105167635
  0
LWPOLYLINE
  5
671
100
AcDbEntity
  8
0
100
AcDbPolyline
 62
7
  6
CONTINUOUS
 90
8
 70
0
 10
1.7096027095
 20
7.6923465213
 10
1.7837612785
 20
7.6673992696
 10
1.85895057
 20
7.6439029069
 10
1.934616417
 20
7.6220192427
 10
2.010115148
 20
7.6018930449
 10
2.0857570721
 20
7.5833981553
 10
2.1645448763
 20
7.5658727107
 10
2.250368688
 20
7.5487622819
  0
LINE
  5
672
100
AcDbEntity
  8
0
100
AcDbLine
 62
7
  6
CONTINUOUS
 10
2.1569362108
 20
7.9051160381
 11
2.1739822298
 21
7.8952745145
  0
LINE
  5
673
100
AcDbEntity
  8
0
100
AcDbLine
 62
7
  6
CONTINUOUS
 10
1.8262275494
 20
8.0960507728
 11
1.817311171
 21
8.1011986463
  0
LINE
  5
674
100
AcDbEntity
  8
0
100
AcDbLine
 62
7
  6
CONTINUOUS
 10
2.0695818801
 20
8.0456167265
 11
1.9915818801
 21
8.0906500475
  0
LWPOLYLINE
  5
675
100
AcDbEntity
  8
0
100
AcDbPolyline
 62
7
  6
CONTINUOUS
 90
6
 70
0
 10
3.1358767568
 20
8.3141726249
 10
3.1349134124
 20
8.3202554733
 10
3.132117971
 20
8.3257420295
 10
3.1277641182
 20
8.3300958801
 10
3.1222775645
 20
8.3328913176
 10
3.1161947156
 20
8.3338546602
  0
LINE
  5
676
100
AcDbEntity
  8
0
100
AcDbLine
 62
7
  6
CONTINUOUS
 10
2.1569362108
 20
8.0960507728
 11
1.9915818801
 21
8.1915181402
  0
LINE
  5
677
100
AcDbEntity
  8
0
100
AcDbLine
 62
9
  6
CONTINUOUS
 10
3.1132758879
 20
7.6702309785
 11
3.1161947156
 21
7.6673121508
  0
LINE
  5
678
100
AcDbEntity
  8
0
100
AcDbLine
 62
9
  6
CONTINUOUS
 10
3.1330561995
 20
7.6898147493
 11
3.1358767568
 21
7.686994192
  0
LWPOLYLINE
  5
679
100
AcDbEntity
  8
AXIS
100
AcDbPolyline
 62
7
  6
CONTINUOUS
 90
3
 70
0
 10
2.8024836745
 20
6.5830589793
 10
2.8076083759
 20
6.5882417935
 10
2.8121157235
 20
6.5947534724
  0
LINE
  5
67A
100
AcDbEntity
  8
0
100
AcDbLine
 62
7
  6
CONTINUOUS
 10
2.9600858171
 20
7.4887723819
 11
3.0998161431
 21
7.4887723819
  0
LWPOLYLINE
  5
67B
100
AcDbEntity
  8
0
100
AcDbPolyline
 62
7
  6
CONTINUOUS
 90
3
 70
0
 10
2.7249210564
 20
7.4900807604
 10
2.8405072563
 20
7.4847667067
 10
2.9600858171
 20
7.4829155236
  0
LWPOLYLINE
  5
67C
100
AcDbEntity
  8
0
100
AcDbPolyline
 62
7
  6
CONTINUOUS
 90
7
 70
0
 10
1.9915818801
 20
8.2027228605
 10
2.0210992438
 20
8.1873842466
 10
2.0511982818
 20
8.1715953578
 10
2.0816976718
 20
8.1554584922
 10
2.1124396574
 20
8.1390644491
 10
2.1432539272
 20
8.1225115038
 10
2.1739822298
 20
8.1058922965
  0
LINE
  5
67D
100
AcDbEntity
  8
0
100
AcDbLine
 62
7
  6
CONTINUOUS
 10
3.0646921163
 20
7.6358160878
 11
3.0781960533
 21
7.6358160878
  0
LINE
  5
67E
100
AcDbEntity
  8
0
100
AcDbLine
 62
7
  6
CONTINUOUS
 10
3.0646921163
 20
7.63667948
 11
3.0781960533
 21
7.63667948
  0
LINE
  5
67F
100
AcDbEntity
  8
0
100
AcDbLine
 62
7
  6
CONTINUOUS
 10
3.0781960533
 20
7.6673121508
 11
3.1161947156
 21
7.6673121508
  0
LINE
  5
680
100
AcDbEntity
  8
0
100
AcDbLine
 62
7
  6
CONTINUOUS
 10
3.0978810927
 20
7.669392557
 11
3.0781960533
 21
7.669392557
  0
LINE
  5
681
100
AcDbEntity
  8
0
100
AcDbLine
 62
7
  6
CONTINUOUS
 10
3.0978810927
 20
7.6702309785
 11
3.1132758879
 21
7.6702309785
  0
LWPOLYLINE
  5
682
100
AcDbEntity
  8
0
100
AcDbPolyline
 62
7
  6
CONTINUOUS
 90
9
 70
0
 10
3.0978810927
 20
7.669392557
 10
3.0940629239
 20
7.6697776792
 10
3.0904086643
 20
7.6709101311
 10
3.0870978945
 20
7.6727041604
 10
3.0842329349
 20
7.6750531332
 10
3.0818608912
 20
7.6778762306
 10
3.0799877185
 20
7.6811974875
 10
3.0786963241
 20
7.6850921416
 10
3.0781960533
 20
7.6896122307
  0
LWPOLYLINE
  5
683
100
AcDbEntity
  8
0
100
AcDbPolyline
 62
7
  6
CONTINUOUS
 90
6
 70
0
 10
3.0978810927
 20
7.6702309785
 10
3.0916646549
 20
7.6712331961
 10
3.0861395281
 20
7.6740963589
 10
3.081832025
 20
7.6784751167
 10
3.0791172455
 20
7.6838942857
 10
3.0781960533
 20
7.6898147493
  0
LINE
  5
684
100
AcDbEntity
  8
0
100
AcDbLine
 62
7
  6
CONTINUOUS
 10
2.8616606202
 20
7.8529456102
 11
2.2711094391
 21
7.8529456102
  0
LWPOLYLINE
  5
685
100
AcDbEntity
  8
AXIS
100
AcDbPolyline
 62
7
  6
CONTINUOUS
 90
3
 70
0
 10
2.8024836745
 20
5.8252085856
 10
2.8076083759
 20
5.8303913998
 10
2.8121157235
 20
5.8369030787
  0
LINE
  5
686
100
AcDbEntity
  8
02___PRT_ALL_AXES
100
AcDbLine
 62
7
  6
CENTER
 10
4.2002432974
 20
8.0005834055
 11
3.0844665744
 21
8.0005834055
  0
LINE
  5
687
100
AcDbEntity
  8
AXIS
100
AcDbLine
 62
7
  6
CENTER
 10
1.9915818801
 20
8.0005834055
 11
1.7833141635
 21
8.0005834055
  0
LINE
  5
688
100
AcDbEntity
  8
AXIS
100
AcDbLine
 62
7
  6
CENTER
 10
1.9915818801
 20
8.0005834055
 11
2.1998495966
 21
8.0005834055
  0
LINE
  5
689
100
AcDbEntity
  8
02___PRT_ALL_AXES
100
AcDbLine
 62
7
  6
CENTER
 10
4.2002432974
 20
8.0005834055
 11
5.3160200203
 21
8.0005834055
  0
LINE
  5
68A
100
AcDbEntity
  8
02___PRT_ALL_AXES
100
AcDbLine
 62
7
  6
CENTER
 10
4.2002432974
 20
8.0005834055
 11
4.2002432974
 21
6.8848066825
  0
LINE
  5
68B
100
AcDbEntity
  8
02___PRT_ALL_AXES
100
AcDbLine
 62
7
  6
CENTER
 10
4.2002432974
 20
8.0005834055
 11
4.2002432974
 21
9.1163601284
  0
LINE
  5
68C
100
AcDbEntity
  8
0
100
AcDbLine
 62
7
  6
CONTINUOUS
 10
2.2711094391
 20
8.1482212008
 11
2.8616606202
 21
8.1482212008
  0
LWPOLYLINE
  5
68D
100
AcDbEntity
  8
0
100
AcDbPolyline
 62
7
  6
CONTINUOUS
 90
6
 70
0
 10
3.0978810927
 20
8.3309358325
 10
3.0916646549
 20
8.3299336149
 10
3.0861395281
 20
8.3270704521
 10
3.081832025
 20
8.3226916942
 10
3.0791172455
 20
8.3172725253
 10
3.0781960533
 20
8.3113520616
  0
LINE
  5
68E
100
AcDbEntity
  8
0
100
AcDbLine
 62
7
  6
CONTINUOUS
 10
3.0978810927
 20
8.3309358325
 11
3.1132758879
 21
8.3309358325
  0
LINE
  5
68F
100
AcDbEntity
  8
0
100
AcDbLine
 62
7
  6
CONTINUOUS
 10
3.0978810927
 20
8.331774254
 11
3.0781960533
 21
8.331774254
  0
LINE
  5
690
100
AcDbEntity
  8
0
100
AcDbLine
 62
7
  6
CONTINUOUS
 10
3.1161947156
 20
8.3338546602
 11
3.0781960533
 21
8.3338546602
  0
LINE
  5
691
100
AcDbEntity
  8
0
100
AcDbLine
 62
7
  6
CONTINUOUS
 10
3.0646921163
 20
8.364487331
 11
3.0781960533
 21
8.364487331
  0
LINE
  5
692
100
AcDbEntity
  8
0
100
AcDbLine
 62
7
  6
CONTINUOUS
 10
3.0781960533
 20
8.3653507232
 11
3.0646921163
 21
8.3653507232
  0
LWPOLYLINE
  5
693
100
AcDbEntity
  8
0
100
AcDbPolyline
 62
7
  6
CONTINUOUS
 90
6
 70
0
 10
3.1132758879
 20
8.3309358325
 10
3.1195447144
 20
8.3299156912
 10
3.1250677114
 20
8.3270426683
 10
3.1293868464
 20
8.3226544102
 10
3.1321144021
 20
8.3172383062
 10
3.1330561995
 20
8.3113520616
  0
LWPOLYLINE
  5
694
100
AcDbEntity
  8
0
100
AcDbPolyline
 62
7
  6
CONTINUOUS
 90
3
 70
0
 10
2.9600858171
 20
8.5182512874
 10
2.8405137421
 20
8.5164003052
 10
2.7249210564
 20
8.5110860506
  0
LINE
  5
695
100
AcDbEntity
  8
0
100
AcDbLine
 62
7
  6
CONTINUOUS
 10
2.9600858171
 20
8.5123944291
 11
3.0998161431
 21
8.5123944291
  0
LWPOLYLINE
  5
696
100
AcDbEntity
  8
0
100
AcDbPolyline
 62
7
  6
CONTINUOUS
 90
8
 70
0
 10
2.250368688
 20
8.452404529
 10
2.1644686927
 20
8.4352779999
 10
2.0857672643
 20
8.4177710368
 10
2.0102310663
 20
8.3993033774
 10
1.9347355141
 20
8.3791806489
 10
1.8590090261
 20
8.3572814851
 10
1.7837584875
 20
8.3337666361
 10
1.7096026672
 20
8.3088202757
  0
LWPOLYLINE
  5
697
100
AcDbEntity
  8
AXIS
100
AcDbPolyline
 62
7
  6
CONTINUOUS
 90
13
 70
0
 10
9.7981058255
 20
5.8116070171
 10
9.8157184021
 20
5.8116124312
 10
9.8325713436
 20
5.8116857347
 10
9.8480476528
 20
5.8119512117
 10
9.8616470583
 20
5.8125026449
 10
9.87347322
 20
5.8133721708
 10
9.8840045787
 20
5.8145829436
 10
9.8937117137
 20
5.8161884616
 10
9.9030576062
 20
5.8183168843
 10
9.9124349691
 20
5.8212124886
 10
9.9218214311
 20
5.8251592735
 10
9.9309020196
 20
5.8304636144
 10
9.9386047986
 20
5.8369030787
  0
LWPOLYLINE
  5
698
100
AcDbEntity
  8
AXIS
100
AcDbPolyline
 62
7
  6
CONTINUOUS
 90
13
 70
0
 10
9.5170701295
 20
5.8116070275
 10
9.534913693
 20
5.8116126745
 10
9.5514156075
 20
5.8116843276
 10
9.5663863068
 20
5.811933457
 10
9.5797154208
 20
5.812451627
 10
9.5915518599
 20
5.813287814
 10
9.6022758012
 20
5.8144830435
 10
9.6122734226
 20
5.816103893
 10
9.6219214324
 20
5.8182809752
 10
9.6315171616
 20
5.8212419673
 10
9.6409216003
 20
5.8252085856
 10
9.6497978435
 20
5.8303913998
 10
9.6576047986
 20
5.8369030787
  0
LINE
  5
699
100
AcDbEntity
  8
AXIS
100
AcDbLine
 62
7
  6
CONTINUOUS
 10
9.3766036363
 20
5.8116070275
 11
9.4513569879
 21
5.8116070275
  0
LINE
  5
69A
100
AcDbEntity
  8
AXIS
100
AcDbLine
 62
7
  6
CONTINUOUS
 10
9.5076047986
 20
5.8116070275
 11
9.9386059622
 21
5.8116070275
  0
LWPOLYLINE
  5
69B
100
AcDbEntity
  8
AXIS
100
AcDbPolyline
 62
7
  6
CONTINUOUS
 90
11
 70
0
 10
9.3766047986
 20
5.8369030787
 10
9.3841376555
 20
5.8305820887
 10
9.3933040496
 20
5.8252006713
 10
9.4039992549
 20
5.8207825135
 10
9.4160169199
 20
5.8173569991
 10
9.4294431715
 20
5.8148355072
 10
9.4444017884
 20
5.8131365121
 10
9.4609724926
 20
5.8121544352
 10
9.4791195188
 20
5.8117229391
 10
9.4981542482
 20
5.8116142654
 10
9.5170701295
 20
5.8116070275
  0
LWPOLYLINE
  5
69C
100
AcDbEntity
  8
AXIS
100
AcDbPolyline
 62
7
  6
CONTINUOUS
 90
13
 70
0
 10
9.6576047986
 20
5.8369030787
 10
9.665311682
 20
5.8304607632
 10
9.6741167492
 20
5.8252932932
 10
9.6834597005
 20
5.8213258699
 10
9.6929805475
 20
5.8183623201
 10
9.7025219443
 20
5.8161837867
 10
9.712429841
 20
5.8145518449
 10
9.7231466186
 20
5.8133342244
 10
9.7351288192
 20
5.8124713676
 10
9.7488246418
 20
5.8119334215
 10
9.7642403961
 20
5.8116803982
 10
9.7808810433
 20
5.811611969
 10
9.7981058255
 20
5.8116070171
  0
LWPOLYLINE
  5
69D
100
AcDbEntity
  8
AXIS
100
AcDbPolyline
 62
7
  6
CONTINUOUS
 90
13
 70
0
 10
9.5170979572
 20
6.1486070295
 10
9.4995208117
 20
6.1486016601
 10
9.4827398702
 20
6.1485292407
 10
9.467371043
 20
6.1482685329
 10
9.4538967588
 20
6.1477299708
 10
9.4421542959
 20
6.1468805349
 10
9.4316549641
 20
6.1456930992
 10
9.4219196455
 20
6.1441069953
 10
9.4124786836
 20
6.1419830545
 10
9.4029663444
 20
6.1390700193
 10
9.3934498016
 20
6.1350850378
 10
9.3842941194
 20
6.1297410883
 10
9.3766047986
 20
6.1233109764
  0
LWPOLYLINE
  5
69E
100
AcDbEntity
  8
AXIS
100
AcDbPolyline
 62
7
  6
CONTINUOUS
 90
13
 70
0
 10
9.7981221396
 20
6.1486070278
 10
9.7811199149
 20
6.1486023543
 10
9.7645691954
 20
6.1485364541
 10
9.7491964336
 20
6.1482903086
 10
9.7355225236
 20
6.1477639454
 10
9.7235322082
 20
6.1469149313
 10
9.7127676382
 20
6.1457084653
 10
9.7027663804
 20
6.1440775477
 10
9.6930869097
 20
6.1418799527
 10
9.6834299168
 20
6.1388774017
 10
9.6740274067
 20
6.1348763649
 10
9.66523104
 20
6.1296971821
 10
9.6576047986
 20
6.1233109764
  0
LINE
  5
69F
100
AcDbEntity
  8
AXIS
100
AcDbLine
 62
7
  6
CONTINUOUS
 10
9.9976019949
 20
6.1486070275
 11
9.3181935436
 21
6.1486070275
  0
LINE
  5
6A0
100
AcDbEntity
  8
AXIS
100
AcDbLine
 62
7
  6
CONTINUOUS
 10
9.3181935436
 20
6.2426070275
 11
9.9976019949
 21
6.2426070275
  0
LINE
  5
6A1
100
AcDbEntity
  8
02___PRT_ALL_AXES
100
AcDbLine
 62
7
  6
CONTINUOUS
 10
9.2516047986
 20
6.321347185
 11
10.0636047986
 21
6.321347185
  0
LWPOLYLINE
  5
6A2
100
AcDbEntity
  8
AXIS
100
AcDbPolyline
 62
7
  6
CONTINUOUS
 90
13
 70
0
 10
9.6576047986
 20
6.1233109764
 10
9.6499948222
 20
6.1296858418
 10
9.6412220472
 20
6.1348565137
 10
9.6318458456
 20
6.1388534084
 10
9.6222139278
 20
6.1418557527
 10
9.612555666
 20
6.1440558457
 10
9.6025742669
 20
6.1456904153
 10
9.5918275216
 20
6.1469013293
 10
9.5798514217
 20
6.1477551197
 10
9.5661908227
 20
6.1482857125
 10
9.5508188279
 20
6.1485349462
 10
9.5342332114
 20
6.1486021945
 10
9.5170979572
 20
6.1486070295
  0
LINE
  5
6A3
100
AcDbEntity
  8
02___PRT_ALL_AXES
100
AcDbLine
 62
7
  6
CONTINUOUS
 10
9.2516047986
 20
6.386347185
 11
10.0636047986
 21
6.386347185
  0
LINE
  5
6A4
100
AcDbEntity
  8
02___PRT_ALL_AXES
100
AcDbLine
 62
7
  6
CONTINUOUS
 10
9.2516047986
 20
6.4650873425
 11
10.0636047986
 21
6.4650873425
  0
LWPOLYLINE
  5
6A5
100
AcDbEntity
  8
AXIS
100
AcDbPolyline
 62
7
  6
CONTINUOUS
 90
13
 70
0
 10
9.9386047986
 20
6.1233109764
 10
9.9308501104
 20
6.1297864637
 10
9.9216018521
 20
6.1351622719
 10
9.9120177599
 20
6.1391499853
 10
9.9024267761
 20
6.1420621949
 10
9.8928710624
 20
6.1441867085
 10
9.8830018816
 20
6.1457678857
 10
9.8723867432
 20
6.1469410305
 10
9.860584211
 20
6.1477694343
 10
9.8471447709
 20
6.1482869086
 10
9.8319536051
 20
6.1485337914
 10
9.8154349011
 20
6.1486019631
 10
9.7981221396
 20
6.1486070278
  0
LWPOLYLINE
  5
6A6
100
AcDbEntity
  8
AXIS
100
AcDbPolyline
 62
7
  6
CONTINUOUS
 90
11
 70
0
 10
9.3766047986
 20
6.5947534724
 10
9.3841376555
 20
6.5884324824
 10
9.3933040496
 20
6.583051065
 10
9.4039992549
 20
6.5786329072
 10
9.4160169199
 20
6.5752073928
 10
9.4294431715
 20
6.5726859009
 10
9.4444017884
 20
6.5709869058
 10
9.4609724926
 20
6.5700048289
 10
9.4791195188
 20
6.5695733328
 10
9.4981542482
 20
6.5694646591
 10
9.5170701295
 20
6.5694574212
  0
LWPOLYLINE
  5
6A7
100
AcDbEntity
  8
AXIS
100
AcDbPolyline
 62
7
  6
CONTINUOUS
 90
13
 70
0
 10
9.7981058255
 20
6.5694574108
 10
9.8157184021
 20
6.5694628249
 10
9.8325713436
 20
6.5695361284
 10
9.8480476528
 20
6.5698016054
 10
9.8616470583
 20
6.5703530386
 10
9.87347322
 20
6.5712225645
 10
9.8840045787
 20
6.5724333373
 10
9.8937117137
 20
6.5740388553
 10
9.9030576062
 20
6.5761672781
 10
9.9124349691
 20
6.5790628823
 10
9.9218214311
 20
6.5830096672
 10
9.9309020196
 20
6.5883140081
 10
9.9386047986
 20
6.5947534724
  0
LWPOLYLINE
  5
6A8
100
AcDbEntity
  8
AXIS
100
AcDbPolyline
 62
7
  6
CONTINUOUS
 90
13
 70
0
 10
9.5170701295
 20
6.5694574212
 10
9.534913693
 20
6.5694630682
 10
9.5514156075
 20
6.5695347213
 10
9.5663863068
 20
6.5697838507
 10
9.5797154208
 20
6.5703020207
 10
9.5915518599
 20
6.5711382077
 10
9.6022758012
 20
6.5723334372
 10
9.6122734226
 20
6.5739542867
 10
9.6219214324
 20
6.5761313689
 10
9.6315171616
 20
6.579092361
 10
9.6409216003
 20
6.5830589793
 10
9.6497978435
 20
6.5882417935
 10
9.6576047986
 20
6.5947534724
  0
LINE
  5
6A9
100
AcDbEntity
  8
02___PRT_ALL_AXES
100
AcDbLine
 62
7
  6
CONTINUOUS
 10
9.2516047986
 20
6.5300873425
 11
10.0636047986
 21
6.5300873425
  0
LINE
  5
6AA
100
AcDbEntity
  8
AXIS
100
AcDbLine
 62
7
  6
CONTINUOUS
 10
9.7980870608
 20
6.5694574212
 11
9.5170866977
 21
6.5694574212
  0
LINE
  5
6AB
100
AcDbEntity
  8
AXIS
100
AcDbLine
 62
7
  6
CONTINUOUS
 10
9.3766036363
 20
6.5694574212
 11
9.4701047986
 21
6.5694574212
  0
LINE
  5
6AC
100
AcDbEntity
  8
AXIS
100
AcDbLine
 62
7
  6
CONTINUOUS
 10
9.7981197544
 20
6.5694574212
 11
9.9386059622
 21
6.5694574212
  0
LWPOLYLINE
  5
6AD
100
AcDbEntity
  8
AXIS
100
AcDbPolyline
 62
7
  6
CONTINUOUS
 90
13
 70
0
 10
9.6576047986
 20
6.5947534724
 10
9.665311682
 20
6.5883111569
 10
9.6741167492
 20
6.5831436869
 10
9.6834597005
 20
6.5791762636
 10
9.6929805475
 20
6.5762127138
 10
9.7025219443
 20
6.5740341804
 10
9.712429841
 20
6.5724022386
 10
9.7231466186
 20
6.5711846181
 10
9.7351288192
 20
6.5703217613
 10
9.7488246418
 20
6.5697838152
 10
9.7642403961
 20
6.5695307919
 10
9.7808810433
 20
6.5694623627
 10
9.7981058255
 20
6.5694574108
  0
LINE
  5
6AE
100
AcDbEntity
  8
02___PRT_ALL_AXES
100
AcDbLine
 62
7
  6
CONTINUOUS
 10
9.2516047986
 20
6.321347185
 11
9.2516047986
 21
6.386347185
  0
LINE
  5
6AF
100
AcDbEntity
  8
02___PRT_ALL_AXES
100
AcDbLine
 62
7
  6
CONTINUOUS
 10
9.2516047986
 20
6.4650873425
 11
9.2516047986
 21
6.5300873425
  0
LINE
  5
6B0
100
AcDbEntity
  8
AXIS
100
AcDbLine
 62
7
  6
CONTINUOUS
 10
9.3181935436
 20
6.1486070275
 11
9.3181935436
 21
6.2426070275
  0
LINE
  5
6B1
100
AcDbEntity
  8
AXIS
100
AcDbLine
 62
7
  6
CONTINUOUS
 10
9.3766047986
 20
5.8116070085
 11
9.3766047986
 21
6.1486070346
  0
LINE
  5
6B2
100
AcDbEntity
  8
AXIS
100
AcDbLine
 62
7
  6
CONTINUOUS
 10
9.3766047986
 20
6.5694574022
 11
9.3766047986
 21
6.9064574283
  0
LWPOLYLINE
  5
6B3
100
AcDbEntity
  8
0
100
AcDbPolyline
 62
7
  6
CONTINUOUS
 90
6
 70
0
 10
9.417275019
 20
7.6898147493
 10
9.415479299
 20
7.6839285054
 10
9.4138723114
 20
7.6785124013
 10
9.412615914
 20
7.6741241431
 10
9.4118445809
 20
7.67125112
 10
9.4116451121
 20
7.6702309785
  0
LWPOLYLINE
  5
6B4
100
AcDbEntity
  8
AXIS
100
AcDbPolyline
 62
7
  6
CONTINUOUS
 90
13
 70
0
 10
9.5170979572
 20
6.9064574232
 10
9.4995208117
 20
6.9064520538
 10
9.4827398702
 20
6.9063796344
 10
9.467371043
 20
6.9061189266
 10
9.4538967588
 20
6.9055803645
 10
9.4421542959
 20
6.9047309286
 10
9.4316549641
 20
6.9035434929
 10
9.4219196455
 20
6.901957389
 10
9.4124786836
 20
6.8998334482
 10
9.4029663444
 20
6.896920413
 10
9.3934498016
 20
6.8929354315
 10
9.3842941194
 20
6.887591482
 10
9.3766047986
 20
6.8811613701
  0
LWPOLYLINE
  5
6B5
100
AcDbEntity
  8
AXIS
100
AcDbPolyline
 62
7
  6
CONTINUOUS
 90
13
 70
0
 10
9.7981221396
 20
6.9064574215
 10
9.7811199149
 20
6.906452748
 10
9.7645691954
 20
6.9063868478
 10
9.7491964336
 20
6.9061407023
 10
9.7355225236
 20
6.9056143391
 10
9.7235322082
 20
6.904765325
 10
9.7127676382
 20
6.903558859
 10
9.7027663804
 20
6.9019279414
 10
9.6930869097
 20
6.8997303464
 10
9.6834299168
 20
6.8967277954
 10
9.6740274067
 20
6.8927267586
 10
9.66523104
 20
6.8875475758
 10
9.6576047986
 20
6.8811613701
  0
LINE
  5
6B6
100
AcDbEntity
  8
AXIS
100
AcDbLine
 62
7
  6
CONTINUOUS
 10
9.3766042621
 20
6.9064574212
 11
9.4701047986
 21
6.9064574212
  0
LINE
  5
6B7
100
AcDbEntity
  8
AXIS
100
AcDbLine
 62
7
  6
CONTINUOUS
 10
9.517095098
 20
6.9064574212
 11
9.7980935885
 21
6.9064574212
  0
LINE
  5
6B8
100
AcDbEntity
  8
AXIS
100
AcDbLine
 62
7
  6
CONTINUOUS
 10
9.7981398965
 20
6.9064574212
 11
9.9386054675
 21
6.9064574212
  0
LWPOLYLINE
  5
6B9
100
AcDbEntity
  8
AXIS
100
AcDbPolyline
 62
7
  6
CONTINUOUS
 90
13
 70
0
 10
9.6576047986
 20
6.8811613701
 10
9.6499948222
 20
6.8875362355
 10
9.6412220472
 20
6.8927069074
 10
9.6318458456
 20
6.8967038021
 10
9.6222139278
 20
6.8997061464
 10
9.612555666
 20
6.9019062394
 10
9.6025742669
 20
6.903540809
 10
9.5918275216
 20
6.904751723
 10
9.5798514217
 20
6.9056055134
 10
9.5661908227
 20
6.9061361062
 10
9.5508188279
 20
6.9063853399
 10
9.5342332114
 20
6.9064525882
 10
9.5170979572
 20
6.9064574232
  0
LINE
  5
6BA
100
AcDbEntity
  8
02___PRT_ALL_AXES
100
AcDbLine
 62
7
  6
CONTINUOUS
 10
9.4701047986
 20
6.2426070275
 11
9.4701047986
 21
6.321347185
  0
LINE
  5
6BB
100
AcDbEntity
  8
02___PRT_ALL_AXES
100
AcDbLine
 62
7
  6
CONTINUOUS
 10
9.4701047986
 20
6.386347185
 11
9.4701047986
 21
6.4650873425
  0
LINE
  5
6BC
100
AcDbEntity
  8
02___PRT_ALL_AXES
100
AcDbLine
 62
7
  6
CONTINUOUS
 10
9.4701047986
 20
6.5300873425
 11
9.4701047986
 21
6.5694574212
  0
LINE
  5
6BD
100
AcDbEntity
  8
02___PRT_ALL_AXES
100
AcDbLine
 62
7
  6
CONTINUOUS
 10
9.4701047986
 20
6.9064574212
 11
9.4701047986
 21
7.513092719
  0
LINE
  5
6BE
100
AcDbEntity
  8
0
100
AcDbLine
 62
7
  6
CONTINUOUS
 10
10.438825271
 20
6.9966463976
 11
10.5434315702
 21
6.9966463976
  0
LWPOLYLINE
  5
6BF
100
AcDbEntity
  8
AXIS
100
AcDbPolyline
 62
7
  6
CONTINUOUS
 90
13
 70
0
 10
9.9386047986
 20
6.8811613701
 10
9.9308501104
 20
6.8876368574
 10
9.9216018521
 20
6.8930126656
 10
9.9120177599
 20
6.897000379
 10
9.9024267761
 20
6.8999125886
 10
9.8928710624
 20
6.9020371022
 10
9.8830018816
 20
6.9036182795
 10
9.8723867432
 20
6.9047914242
 10
9.860584211
 20
6.905619828
 10
9.8471447709
 20
6.9061373023
 10
9.8319536051
 20
6.9063841851
 10
9.8154349011
 20
6.9064523568
 10
9.7981221396
 20
6.9064574215
  0
LINE
  5
6C0
100
AcDbEntity
  8
0
100
AcDbLine
 62
7
  6
CONTINUOUS
 10
9.5788646411
 20
8.5182512874
 11
9.5788646411
 21
8.505505558
  0
LINE
  5
6C1
100
AcDbEntity
  8
0
100
AcDbLine
 62
7
  6
CONTINUOUS
 10
9.5788646411
 20
7.495661253
 11
9.5788646411
 21
7.4829155236
  0
LINE
  5
6C2
100
AcDbEntity
  8
0
100
AcDbLine
 62
7
  6
CONTINUOUS
 10
9.5788646411
 20
7.6197040996
 11
9.5788646411
 21
8.3814627114
  0
LWPOLYLINE
  5
6C3
100
AcDbEntity
  8
0
100
AcDbPolyline
 62
7
  6
CONTINUOUS
 90
6
 70
0
 10
9.4116451121
 20
8.3309358325
 10
9.411844584
 20
8.3299156912
 10
9.4126159164
 20
8.3270426683
 10
9.4138723133
 20
8.3226544102
 10
9.4154793008
 20
8.3172383062
 10
9.417275019
 20
8.3113520616
  0
LINE
  5
6C4
100
AcDbEntity
  8
AXIS
100
AcDbLine
 62
7
  6
CENTER
 10
9.6576047986
 20
8.6110860506
 11
9.6576047986
 21
8.5606204617
  0
LINE
  5
6C5
100
AcDbEntity
  8
AXIS
100
AcDbLine
 62
7
  6
CENTER
 10
9.6576047986
 20
7.4405463493
 11
9.6576047986
 21
7.3900807604
  0
LINE
  5
6C6
100
AcDbEntity
  8
02___PRT_ALL_AXES
100
AcDbLine
 62
7
  6
CENTER
 10
9.6576047986
 20
8.2866070275
 11
9.6576047986
 21
5.7116070275
  0
LINE
  5
6C7
100
AcDbEntity
  8
AXIS
100
AcDbLine
 62
2
  6
CENTER
 10
9.6576047986
 20
8.0005834055
 11
9.6576047986
 21
7.4405463493
  0
LINE
  5
6C8
100
AcDbEntity
  8
AXIS
100
AcDbLine
 62
7
  6
CONTINUOUS
 10
9.6576047986
 20
5.8369030787
 11
9.6576047986
 21
6.1233109764
  0
LINE
  5
6C9
100
AcDbEntity
  8
AXIS
100
AcDbLine
 62
7
  6
CONTINUOUS
 10
9.6576047986
 20
6.5947534724
 11
9.6576047986
 21
6.8811613701
  0
LINE
  5
6CA
100
AcDbEntity
  8
AXIS
100
AcDbLine
 62
2
  6
CENTER
 10
9.6576047986
 20
8.0005834055
 11
9.6576047986
 21
8.5606204617
  0
LINE
  5
6CB
100
AcDbEntity
  8
0
100
AcDbLine
 62
7
  6
CONTINUOUS
 10
9.7363449561
 20
7.4829155236
 11
9.7363449561
 21
7.4887723819
  0
LINE
  5
6CC
100
AcDbEntity
  8
0
100
AcDbLine
 62
7
  6
CONTINUOUS
 10
9.7363449561
 20
7.6197040996
 11
9.7363449561
 21
8.3814627114
  0
LINE
  5
6CD
100
AcDbEntity
  8
0
100
AcDbLine
 62
7
  6
CONTINUOUS
 10
9.7363449561
 20
8.5123944291
 11
9.7363449561
 21
8.5182512874
  0
LWPOLYLINE
  5
6CE
100
AcDbEntity
  8
0
100
AcDbPolyline
 62
7
  6
CONTINUOUS
 90
6
 70
0
 10
9.8979345781
 20
8.3113520616
 10
9.8997302981
 20
8.3172383056
 10
9.9013372857
 20
8.3226544096
 10
9.9025936832
 20
8.3270426679
 10
9.9033650162
 20
8.329915691
 10
9.9035644851
 20
8.3309358325
  0
LINE
  5
6CF
100
AcDbEntity
  8
02___PRT_ALL_AXES
100
AcDbLine
 62
7
  6
CONTINUOUS
 10
9.8451047986
 20
6.2426070275
 11
9.8451047986
 21
6.321347185
  0
LINE
  5
6D0
100
AcDbEntity
  8
02___PRT_ALL_AXES
100
AcDbLine
 62
7
  6
CONTINUOUS
 10
9.8451047986
 20
6.386347185
 11
9.8451047986
 21
6.4650873425
  0
LINE
  5
6D1
100
AcDbEntity
  8
02___PRT_ALL_AXES
100
AcDbLine
 62
7
  6
CONTINUOUS
 10
9.8451047986
 20
6.5300873425
 11
9.8451047986
 21
6.5694574212
  0
LINE
  5
6D2
100
AcDbEntity
  8
02___PRT_ALL_AXES
100
AcDbLine
 62
7
  6
CONTINUOUS
 10
9.8451047986
 20
6.9064574212
 11
9.8451047986
 21
7.4887723819
  0
LWPOLYLINE
  5
6D3
100
AcDbEntity
  8
0
100
AcDbPolyline
 62
9
  6
CONTINUOUS
 90
24
 70
0
 10
9.417275019
 20
7.6898147493
 10
9.3921366042
 20
7.7079045331
 10
9.3681377225
 20
7.7284431941
 10
9.345609402
 20
7.7513399096
 10
9.3250438707
 20
7.7762216377
 10
9.3067639092
 20
7.8027106436
 10
9.2908659028
 20
7.8306331451
 10
9.2774321107
 20
7.8598337589
 10
9.2665668088
 20
7.8900914583
 10
9.2583550917
 20
7.92117041
 10
9.2528568591
 20
7.9528416786
 10
9.2501129029
 20
7.9848716172
 10
9.2501442337
 20
8.0170197064
 10
9.2529505987
 20
8.0490441053
 10
9.2585107752
 20
8.080705657
 10
9.2667843711
 20
8.1117724735
 10
9.2777116676
 20
8.1420151733
 10
9.2912042583
 20
8.1711909855
 10
9.3071512971
 20
8.1990716633
 10
9.3254708431
 20
8.2255088653
 10
9.3460722857
 20
8.2503389366
 10
9.3686234553
 20
8.2731756161
 10
9.3925715296
 20
8.2936030906
 10
9.417275019
 20
8.3113520616
  0
LINE
  5
6D4
100
AcDbEntity
  8
AXIS
100
AcDbLine
 62
7
  6
CONTINUOUS
 10
9.9386047986
 20
5.8116070275
 11
9.9386047986
 21
6.1477532884
  0
LINE
  5
6D5
100
AcDbEntity
  8
AXIS
100
AcDbLine
 62
7
  6
CONTINUOUS
 10
9.9386047986
 20
6.5694574212
 11
9.9386047986
 21
6.9064574283
  0
LINE
  5
6D6
100
AcDbEntity
  8
0
100
AcDbLine
 62
7
  6
CONTINUOUS
 10
9.6576047986
 20
7.4887723819
 11
10.438825271
 21
7.4887723819
  0
LWPOLYLINE
  5
6D7
100
AcDbEntity
  8
0
100
AcDbPolyline
 62
7
  6
CONTINUOUS
 90
6
 70
0
 10
9.9035644851
 20
7.6702309785
 10
9.9033650132
 20
7.6712511198
 10
9.9025936807
 20
7.6741241426
 10
9.9013372839
 20
7.6785124008
 10
9.8997302964
 20
7.6839285048
 10
9.8979345781
 20
7.6898147493
  0
LINE
  5
6D8
100
AcDbEntity
  8
AXIS
100
AcDbLine
 62
7
  6
CONTINUOUS
 10
9.9976047986
 20
6.1486070275
 11
9.9976047986
 21
6.2426070275
  0
LINE
  5
6D9
100
AcDbEntity
  8
02___PRT_ALL_AXES
100
AcDbLine
 62
7
  6
CONTINUOUS
 10
10.0636047986
 20
6.321347185
 11
10.0636047986
 21
6.386347185
  0
LINE
  5
6DA
100
AcDbEntity
  8
02___PRT_ALL_AXES
100
AcDbLine
 62
7
  6
CONTINUOUS
 10
10.0636047986
 20
6.4650873425
 11
10.0636047986
 21
6.5300873425
  0
LINE
  5
6DB
100
AcDbEntity
  8
0
100
AcDbLine
 62
7
  6
CONTINUOUS
 10
9.7858086625
 20
7.63667948
 11
9.7363449561
 21
7.6358160878
  0
LINE
  5
6DC
100
AcDbEntity
  8
0
100
AcDbLine
 62
7
  6
CONTINUOUS
 10
9.5294009347
 20
7.63667948
 11
9.5788646411
 21
7.6358160878
  0
LINE
  5
6DD
100
AcDbEntity
  8
0
100
AcDbLine
 62
7
  6
CONTINUOUS
 10
9.7363449561
 20
7.6673121508
 11
9.9035644851
 21
7.6702309785
  0
LINE
  5
6DE
100
AcDbEntity
  8
0
100
AcDbLine
 62
9
  6
CONTINUOUS
 10
9.7363449561
 20
7.686994192
 11
9.8979345781
 21
7.6898147493
  0
LINE
  5
6DF
100
AcDbEntity
  8
0
100
AcDbLine
 62
7
  6
CONTINUOUS
 10
9.4116451137
 20
7.6702309785
 11
9.5788646411
 21
7.6673121508
  0
LINE
  5
6E0
100
AcDbEntity
  8
0
100
AcDbLine
 62
9
  6
CONTINUOUS
 10
9.417275019
 20
7.6898147493
 11
9.5788646411
 21
7.686994192
  0
LINE
  5
6E1
100
AcDbEntity
  8
02___PRT_ALL_AXES
100
AcDbLine
 62
7
  6
CONTINUOUS
 10
9.5788646411
 20
7.8116070275
 11
9.7363449561
 21
7.8116070275
  0
LINE
  5
6E2
100
AcDbEntity
  8
0
100
AcDbLine
 62
9
  6
CONTINUOUS
 10
10.4191402316
 20
7.4887723819
 11
10.4191402316
 21
8.5123944291
  0
LINE
  5
6E3
100
AcDbEntity
  8
AXIS
100
AcDbLine
 62
2
  6
CENTER
 10
9.6576047986
 20
8.0005834055
 11
9.0975677424
 21
8.0005834055
  0
LINE
  5
6E4
100
AcDbEntity
  8
AXIS
100
AcDbLine
 62
2
  6
CENTER
 10
9.6576047986
 20
8.0005834055
 11
10.2176418548
 21
8.0005834055
  0
LINE
  5
6E5
100
AcDbEntity
  8
0
100
AcDbLine
 62
7
  6
CONTINUOUS
 10
10.438825271
 20
9.0045197386
 11
10.438825271
 21
6.9966470724
  0
LINE
  5
6E6
100
AcDbEntity
  8
0
100
AcDbLine
 62
3
  6
CONTINUOUS
 10
10.5434315702
 20
9.0045197386
 11
10.5434315702
 21
6.9966470724
  0
LINE
  5
6E7
100
AcDbEntity
  8
02___PRT_ALL_AXES
100
AcDbLine
 62
7
  6
CONTINUOUS
 10
9.5788646411
 20
8.1491070275
 11
9.7363449561
 21
8.1491070275
  0
LINE
  5
6E8
100
AcDbEntity
  8
02___PRT_ALL_AXES
100
AcDbLine
 62
7
  6
CONTINUOUS
 10
9.5788646411
 20
8.1866070275
 11
9.7363449561
 21
8.1866070275
  0
LWPOLYLINE
  5
6E9
100
AcDbEntity
  8
0
100
AcDbPolyline
 62
9
  6
CONTINUOUS
 90
24
 70
0
 10
9.8979345781
 20
8.3113520616
 10
9.923072993
 20
8.2932622779
 10
9.9470718747
 20
8.2727236169
 10
9.9696001951
 20
8.2498269014
 10
9.9901657265
 20
8.2249451733
 10
10.008445688
 20
8.1984561674
 10
10.0243436943
 20
8.1705336659
 10
10.0377774865
 20
8.1413330521
 10
10.0486427883
 20
8.1110753527
 10
10.0568545054
 20
8.0799964009
 10
10.062352738
 20
8.0483251323
 10
10.0650966942
 20
8.0162951938
 10
10.0650653635
 20
7.9841471046
 10
10.0622589985
 20
7.9521227057
 10
10.056698822
 20
7.920461154
 10
10.048425226
 20
7.8893943375
 10
10.0374979295
 20
7.8591516376
 10
10.0240053389
 20
7.8299758255
 10
10.0080583
 20
7.8020951477
 10
9.989738754
 20
7.7756579457
 10
9.9691373115
 20
7.7508278744
 10
9.9465861418
 20
7.7279911948
 10
9.9226380676
 20
7.7075637204
 10
9.8979345781
 20
7.6898147493
  0
LINE
  5
6EA
100
AcDbEntity
  8
0
100
AcDbLine
 62
9
  6
CONTINUOUS
 10
9.5788646411
 20
8.314172619
 11
9.417275019
 21
8.3113520616
  0
LINE
  5
6EB
100
AcDbEntity
  8
0
100
AcDbLine
 62
7
  6
CONTINUOUS
 10
9.5788646411
 20
8.3338546602
 11
9.4116451121
 21
8.3309358325
  0
LINE
  5
6EC
100
AcDbEntity
  8
0
100
AcDbLine
 62
9
  6
CONTINUOUS
 10
9.8979345781
 20
8.3113520616
 11
9.7363449561
 21
8.314172619
  0
LINE
  5
6ED
100
AcDbEntity
  8
0
100
AcDbLine
 62
7
  6
CONTINUOUS
 10
9.9035644835
 20
8.3309358325
 11
9.7363449561
 21
8.3338546602
  0
LINE
  5
6EE
100
AcDbEntity
  8
0
100
AcDbLine
 62
7
  6
CONTINUOUS
 10
9.5294009347
 20
8.364487331
 11
9.5788646411
 21
8.3653507232
  0
LINE
  5
6EF
100
AcDbEntity
  8
0
100
AcDbLine
 62
7
  6
CONTINUOUS
 10
9.7858086625
 20
8.364487331
 11
9.7363449561
 21
8.3653507232
  0
LINE
  5
6F0
100
AcDbEntity
  8
0
100
AcDbLine
 62
7
  6
CONTINUOUS
 10
9.6576047986
 20
8.5123944291
 11
10.438825271
 21
8.5123944291
  0
LINE
  5
6F1
100
AcDbEntity
  8
0
100
AcDbLine
 62
7
  6
CONTINUOUS
 10
10.438825271
 20
9.0045204134
 11
10.5434315702
 21
9.0045204134
  0
LINE
  5
6F2
100
AcDbEntity
  8
0
100
AcDbLine
 62
7
  6
CONTINUOUS
 10
1.701617712
 20
4.102823834
 11
1.7056285002
 21
3.87304593
  0
LINE
  5
6F3
100
AcDbEntity
  8
0
100
AcDbLine
 62
9
  6
CONTINUOUS
 10
1.7136701604
 20
4.5010705548
 11
1.7096025287
 21
4.2603041517
  0
LINE
  5
6F4
100
AcDbEntity
  8
0
100
AcDbLine
 62
7
  6
CONTINUOUS
 10
1.7056285002
 20
4.490082053
 11
1.701617712
 21
4.260304149
  0
LINE
  5
6F5
100
AcDbEntity
  8
0
100
AcDbLine
 62
9
  6
CONTINUOUS
 10
1.7096025297
 20
4.1028238319
 11
1.7136701604
 21
3.8620574282
  0
LINE
  5
6F6
100
AcDbEntity
  8
0
100
AcDbLine
 62
7
  6
CONTINUOUS
 10
1.817311171
 20
4.5196991348
 11
1.8160627062
 21
4.5339691524
  0
LINE
  5
6F7
100
AcDbEntity
  8
02___PRT_ALL_AXES
100
AcDbLine
 62
7
  6
CONTINUOUS
 10
1.8350818801
 20
4.5219214089
 11
1.8350818801
 21
4.588784464
  0
LINE
  5
6F8
100
AcDbEntity
  8
02___PRT_ALL_AXES
100
AcDbLine
 62
7
  6
CONTINUOUS
 10
1.8965818801
 20
3.686784464
 11
1.8965818801
 21
3.8355849719
  0
LINE
  5
6F9
100
AcDbEntity
  8
02___PRT_ALL_AXES
100
AcDbLine
 62
7
  6
CONTINUOUS
 10
1.8965818801
 20
4.102823834
 11
1.8965818801
 21
4.260304149
  0
LINE
  5
6FA
100
AcDbEntity
  8
0
100
AcDbLine
 62
7
  6
CONTINUOUS
 10
1.8160627062
 20
3.8291588306
 11
1.817311171
 21
3.8434288482
  0
LINE
  5
6FB
100
AcDbEntity
  8
02___PRT_ALL_AXES
100
AcDbLine
 62
7
  6
CONTINUOUS
 10
1.8350818801
 20
4.588784464
 11
1.8540818801
 21
4.607784464
  0
LINE
  5
6FC
100
AcDbEntity
  8
0
100
AcDbLine
 62
7
  6
CONTINUOUS
 10
2.1739822298
 20
3.7505066302
 11
2.1751116233
 21
3.7375976035
  0
LINE
  5
6FD
100
AcDbEntity
  8
02___PRT_ALL_AXES
100
AcDbLine
 62
7
  6
CONTINUOUS
 10
2.0865818801
 20
3.686784464
 11
2.0865818801
 21
3.785142865
  0
LINE
  5
6FE
100
AcDbEntity
  8
02___PRT_ALL_AXES
100
AcDbLine
 62
7
  6
CONTINUOUS
 10
2.0865818801
 20
4.102823834
 11
2.0865818801
 21
4.1200858793
  0
LINE
  5
6FF
100
AcDbEntity
  8
02___PRT_ALL_AXES
100
AcDbLine
 62
7
  6
CONTINUOUS
 10
2.0865818801
 20
4.2430421037
 11
2.0865818801
 21
4.260304149
  0
LINE
  5
700
100
AcDbEntity
  8
0
100
AcDbLine
 62
7
  6
CONTINUOUS
 10
2.1751116233
 20
4.6255303795
 11
2.1739822298
 21
4.6126213528
  0
LINE
  5
701
100
AcDbEntity
  8
02___PRT_ALL_AXES
100
AcDbLine
 62
7
  6
CONTINUOUS
 10
1.9155818801
 20
3.667784464
 11
1.8965818801
 21
3.686784464
  0
LINE
  5
702
100
AcDbEntity
  8
0
100
AcDbLine
 62
7
  6
CONTINUOUS
 10
2.2514243998
 20
4.6403897676
 11
2.2514243998
 21
4.6221876235
  0
LINE
  5
703
100
AcDbEntity
  8
0
100
AcDbLine
 62
7
  6
CONTINUOUS
 10
2.2514243998
 20
3.7409403595
 11
2.2514243998
 21
3.7227382154
  0
LINE
  5
704
100
AcDbEntity
  8
AXIS
100
AcDbLine
 62
7
  6
CONTINUOUS
 10
2.1631740209
 20
4.1815639915
 11
2.3254094466
 21
4.4625639915
  0
LWPOLYLINE
  5
705
100
AcDbEntity
  8
0
100
AcDbPolyline
 62
7
  6
CONTINUOUS
 90
7
 70
0
 10
2.1739822298
 20
4.6126213528
 10
2.1432083382
 20
4.6014998238
 10
2.1123798639
 20
4.5892407426
 10
2.0816461701
 20
4.5758308548
 10
2.0511662766
 20
4.5612678112
 10
2.0210884556
 20
4.5455508394
 10
1.9915818801
 20
4.5286968047
  0
LINE
  5
706
100
AcDbEntity
  8
AXIS
100
AcDbLine
 62
7
  6
CONTINUOUS
 10
1.7136701087
 20
4.5010705375
 11
1.8160627246
 21
4.533969158
  0
LINE
  5
707
100
AcDbEntity
  8
AXIS
100
AcDbLine
 62
7
  6
CONTINUOUS
 10
2.3254094466
 20
3.9005639915
 11
2.1631740209
 21
4.1815639915
  0
LINE
  5
708
100
AcDbEntity
  8
AXIS
100
AcDbLine
 62
7
  6
CONTINUOUS
 10
2.4676448722
 20
4.4625639915
 11
2.4676448722
 21
4.5209752465
  0
LINE
  5
709
100
AcDbEntity
  8
02___PRT_ALL_AXES
100
AcDbLine
 62
7
  6
CENTER
 10
2.4876448722
 20
4.1815639915
 11
2.4876448722
 21
3.6755639915
  0
LINE
  5
70A
100
AcDbEntity
  8
02___PRT_ALL_AXES
100
AcDbLine
 62
7
  6
CENTER
 10
2.4876448722
 20
4.1815639915
 11
2.4876448722
 21
4.6875639915
  0
LINE
  5
70B
100
AcDbEntity
  8
AXIS
100
AcDbLine
 62
7
  6
CONTINUOUS
 10
2.5076448722
 20
4.5209752465
 11
2.5076448722
 21
4.4625639915
  0
LWPOLYLINE
  5
70C
100
AcDbEntity
  8
0
100
AcDbPolyline
 62
7
  6
CONTINUOUS
 90
7
 70
0
 10
2.2514243998
 20
3.7409403595
 10
2.2521109627
 20
3.7423374483
 10
2.2540878378
 20
3.743418813
 10
2.2571313989
 20
3.7441020817
 10
2.2611747335
 20
3.7443535906
 10
2.2660022616
 20
3.7441047935
 10
2.2711094391
 20
3.743362683
  0
LWPOLYLINE
  5
70D
100
AcDbEntity
  8
0
100
AcDbPolyline
 62
7
  6
CONTINUOUS
 90
6
 70
0
 10
1.9915818801
 20
3.8344311783
 10
2.0210992438
 20
3.8175712508
 10
2.0511982818
 20
3.8018441821
 10
2.0816976718
 20
3.7872736151
 10
2.1124396574
 20
3.7738623346
 10
2.1432316037
 20
3.7616197512
  0
LWPOLYLINE
  5
70E
100
AcDbEntity
  8
0
100
AcDbPolyline
 62
7
  6
CONTINUOUS
 90
7
 70
0
 10
2.8813456596
 20
4.688493853
 10
2.8806670536
 20
4.6871586743
 10
2.8786516812
 20
4.685823471
 10
2.8755079538
 20
4.6846287448
 10
2.871422455
 20
4.6836485887
 10
2.8666426557
 20
4.6829650273
 10
2.8616606202
 20
4.6826491477
  0
LINE
  5
70F
100
AcDbEntity
  8
02___PRT_ALL_AXES
100
AcDbLine
 62
7
  6
CONTINUOUS
 10
2.0675818801
 20
3.667784464
 11
2.0865818801
 21
3.686784464
  0
LINE
  5
710
100
AcDbEntity
  8
AXIS
100
AcDbLine
 62
7
  6
CONTINUOUS
 10
2.8121157235
 20
4.1815639915
 11
2.6498802978
 21
3.9005639915
  0
LINE
  5
711
100
AcDbEntity
  8
0
100
AcDbLine
 62
7
  6
CONTINUOUS
 10
2.6528054411
 20
4.0902432837
 11
2.648969789
 21
4.0844488357
  0
LINE
  5
712
100
AcDbEntity
  8
0
100
AcDbLine
 62
7
  6
CONTINUOUS
 10
2.64217042
 20
4.0775454191
 11
2.6528054411
 21
4.0902432837
  0
LINE
  5
713
100
AcDbEntity
  8
0
100
AcDbLine
 62
3
  6
CONTINUOUS
 10
5.2041803053
 20
3.2957372199
 11
3.0843771557
 21
3.2957372199
  0
LINE
  5
714
100
AcDbEntity
  8
AXIS
100
AcDbLine
 62
7
  6
CONTINUOUS
 10
1.7136701087
 20
3.8620574456
 11
1.8160627246
 21
3.829158825
  0
LINE
  5
715
100
AcDbEntity
  8
0
100
AcDbLine
 62
7
  6
CONTINUOUS
 10
2.1432316037
 20
3.7616197512
 11
2.1739822298
 21
3.7505066302
  0
LINE
  5
716
100
AcDbEntity
  8
0
100
AcDbLine
 62
7
  6
CONTINUOUS
 10
2.8813456596
 20
4.7043912006
 11
2.8813456596
 21
4.688493853
  0
LINE
  5
717
100
AcDbEntity
  8
0
100
AcDbLine
 62
7
  6
CONTINUOUS
 10
2.8813456596
 20
3.67463413
 11
2.8813456596
 21
3.6587367825
  0
LINE
  5
718
100
AcDbEntity
  8
0
100
AcDbLine
 62
7
  6
CONTINUOUS
 10
2.9600858171
 20
4.7051860388
 11
2.9600858171
 21
4.260304149
  0
LINE
  5
719
100
AcDbEntity
  8
0
100
AcDbLine
 62
3
  6
CONTINUOUS
 10
2.9600858171
 20
4.260304149
 11
2.9600858171
 21
4.102823834
  0
LINE
  5
71A
100
AcDbEntity
  8
0
100
AcDbLine
 62
7
  6
CONTINUOUS
 10
2.9600858171
 20
4.102823834
 11
2.9600858171
 21
4.0768692639
  0
LINE
  5
71B
100
AcDbEntity
  8
0
100
AcDbLine
 62
3
  6
CONTINUOUS
 10
2.9600858171
 20
4.0768692639
 11
2.9600858171
 21
3.4200285584
  0
LINE
  5
71C
100
AcDbEntity
  8
0
100
AcDbLine
 62
7
  6
CONTINUOUS
 10
5.2041803053
 20
3.4003435191
 11
3.0843771557
 21
3.4003435191
  0
LINE
  5
71D
100
AcDbEntity
  8
0
100
AcDbLine
 62
9
  6
CONTINUOUS
 10
2.9600858171
 20
3.4200285584
 11
3.0646921163
 21
3.4200285584
  0
LINE
  5
71E
100
AcDbEntity
  8
AXIS
100
AcDbLine
 62
7
  6
CONTINUOUS
 10
2.1751116114
 20
3.7375976059
 11
2.2514243998
 21
3.7227382154
  0
LINE
  5
71F
100
AcDbEntity
  8
02___PRT_ALL_AXES
100
AcDbLine
 62
7
  6
CONTINUOUS
 10
2.1375976397
 20
4.5992687043
 11
2.1290818801
 21
4.607784464
  0
LINE
  5
720
100
AcDbEntity
  8
0
100
AcDbLine
 62
7
  6
CONTINUOUS
 10
3.0646921163
 20
4.6933750151
 11
3.0646921163
 21
3.4200285584
  0
LINE
  5
721
100
AcDbEntity
  8
0
100
AcDbLine
 62
7
  6
CONTINUOUS
 10
3.0781960533
 20
3.7740836765
 11
3.0781960533
 21
3.9531800468
  0
LINE
  5
722
100
AcDbEntity
  8
0
100
AcDbLine
 62
7
  6
CONTINUOUS
 10
3.0781960533
 20
3.9836374405
 11
3.0781960533
 21
4.102823834
  0
LINE
  5
723
100
AcDbEntity
  8
0
100
AcDbLine
 62
7
  6
CONTINUOUS
 10
3.0781960533
 20
4.260304149
 11
3.0781960533
 21
4.3794905425
  0
LINE
  5
724
100
AcDbEntity
  8
0
100
AcDbLine
 62
7
  6
CONTINUOUS
 10
3.0781960533
 20
4.4099479362
 11
3.0781960533
 21
4.5890443065
  0
LINE
  5
725
100
AcDbEntity
  8
0
100
AcDbLine
 62
9
  6
CONTINUOUS
 10
3.0843771557
 20
3.2957372199
 11
3.0843771557
 21
3.4003435191
  0
LWPOLYLINE
  5
726
100
AcDbEntity
  8
0
100
AcDbPolyline
 62
7
  6
CONTINUOUS
 90
9
 70
0
 10
3.0781960533
 20
3.9531800468
 10
3.0786965321
 20
3.959467223
 10
3.079988305
 20
3.9651059253
 10
3.0818616936
 20
3.970089095
 10
3.084233692
 20
3.9744605106
 10
3.0870992666
 20
3.9782000515
 10
3.090410801
 20
3.9811213944
 10
3.094063654
 20
3.9829946817
 10
3.0978810927
 20
3.9836374405
  0
LWPOLYLINE
  5
727
100
AcDbEntity
  8
0
100
AcDbPolyline
 62
7
  6
CONTINUOUS
 90
4
 70
0
 10
2.2711094391
 20
3.743362683
 10
2.4657101773
 20
3.7120042302
 10
2.6633603071
 20
3.690957022
 10
2.8616606202
 20
3.6804788353
  0
LINE
  5
728
100
AcDbEntity
  8
AXIS
100
AcDbLine
 62
7
  6
CONTINUOUS
 10
2.6498802978
 20
4.4625639915
 11
2.8121157235
 21
4.1815639915
  0
LINE
  5
729
100
AcDbEntity
  8
0
100
AcDbLine
 62
9
  6
CONTINUOUS
 10
3.1132758879
 20
4.4275236764
 11
3.1161947156
 21
4.260304149
  0
LINE
  5
72A
100
AcDbEntity
  8
0
100
AcDbLine
 62
7
  6
CONTINUOUS
 10
3.1358767568
 20
4.260304149
 11
3.1301325892
 21
4.5893872941
  0
LINE
  5
72B
100
AcDbEntity
  8
0
100
AcDbLine
 62
9
  6
CONTINUOUS
 10
3.1134545523
 20
4.4275236764
 11
3.1104505381
 21
4.6087293458
  0
LINE
  5
72C
100
AcDbEntity
  8
0
100
AcDbLine
 62
9
  6
CONTINUOUS
 10
3.0978810927
 20
3.7543986372
 11
3.0978810927
 21
3.9836374405
  0
LINE
  5
72D
100
AcDbEntity
  8
0
100
AcDbLine
 62
9
  6
CONTINUOUS
 10
3.0978810927
 20
4.3794905425
 11
3.0978810927
 21
4.6087293458
  0
LINE
  5
72E
100
AcDbEntity
  8
0
100
AcDbLine
 62
9
  6
CONTINUOUS
 10
3.0998161431
 20
3.2957372199
 11
3.0998161431
 21
3.4003435191
  0
LINE
  5
72F
100
AcDbEntity
  8
0
100
AcDbLine
 62
9
  6
CONTINUOUS
 10
3.1104505381
 20
3.7543986372
 11
3.1134545523
 21
3.9356043072
  0
LINE
  5
730
100
AcDbEntity
  8
0
100
AcDbLine
 62
9
  6
CONTINUOUS
 10
3.1161947156
 20
4.102823834
 11
3.1132758879
 21
3.9356043072
  0
LINE
  5
731
100
AcDbEntity
  8
0
100
AcDbLine
 62
7
  6
CONTINUOUS
 10
3.1301325892
 20
3.7737406889
 11
3.1358767568
 21
4.102823834
  0
LINE
  5
732
100
AcDbEntity
  8
02___PRT_ALL_AXES
100
AcDbLine
 62
7
  6
CONTINUOUS
 10
2.0675818801
 20
3.667784464
 11
1.9155818801
 21
3.667784464
  0
LINE
  5
733
100
AcDbEntity
  8
02___PRT_ALL_AXES
100
AcDbLine
 62
7
  6
CONTINUOUS
 10
2.0865818801
 20
3.686784464
 11
1.8965818801
 21
3.686784464
  0
LINE
  5
734
100
AcDbEntity
  8
0
100
AcDbLine
 62
7
  6
CONTINUOUS
 10
3.0978810927
 20
3.7543986372
 11
3.1104508754
 21
3.7543986372
  0
LINE
  5
735
100
AcDbEntity
  8
AXIS
100
AcDbLine
 62
7
  6
CONTINUOUS
 10
2.8813456596
 20
3.6587353464
 11
2.9600858171
 21
3.6579419443
  0
LWPOLYLINE
  5
736
100
AcDbEntity
  8
0
100
AcDbPolyline
 62
7
  6
CONTINUOUS
 90
7
 70
0
 10
2.8616606202
 20
3.6804788353
 10
2.8666457767
 20
3.6801626385
 10
2.8714165841
 20
3.6794805012
 10
2.8755006877
 20
3.6785014298
 10
2.8786469027
 20
3.6773068478
 10
2.8806670916
 20
3.6759692708
 10
2.8813456596
 20
3.67463413
  0
LWPOLYLINE
  5
737
100
AcDbEntity
  8
0
100
AcDbPolyline
 62
7
  6
CONTINUOUS
 90
6
 70
0
 10
1.817311171
 20
3.8434288482
 10
1.8505719993
 20
3.8392706624
 10
1.8855087231
 20
3.8361643122
 10
1.9212276418
 20
3.8342955219
 10
1.9568862743
 20
3.8337324149
 10
1.9915818801
 20
3.8344311783
  0
LINE
  5
738
100
AcDbEntity
  8
0
100
AcDbLine
 62
7
  6
CONTINUOUS
 10
2.4518311406
 20
3.9962673055
 11
2.4485564712
 21
3.9971759096
  0
LINE
  5
739
100
AcDbEntity
  8
0
100
AcDbLine
 62
7
  6
CONTINUOUS
 10
2.4518311406
 20
3.9962673055
 11
2.4456961308
 21
3.9981657087
  0
LINE
  5
73A
100
AcDbEntity
  8
0
100
AcDbLine
 62
7
  6
CONTINUOUS
 10
3.0646921163
 20
3.7957372199
 11
3.0781960533
 21
3.7957372199
  0
LINE
  5
73B
100
AcDbEntity
  8
0
100
AcDbLine
 62
9
  6
CONTINUOUS
 10
3.4519528325
 20
3.2957372199
 11
3.4519528325
 21
3.4003435191
  0
LWPOLYLINE
  5
73C
100
AcDbEntity
  8
0
100
AcDbPolyline
 62
7
  6
CONTINUOUS
 90
6
 70
0
 10
3.1132758879
 20
3.935604305
 10
3.1195447144
 20
3.9358037769
 10
3.1250677114
 20
3.9365751093
 10
3.1293868464
 20
3.9378315062
 10
3.1321144021
 20
3.9394384937
 10
3.1330561995
 20
3.9412342119
  0
LINE
  5
73D
100
AcDbEntity
  8
AXIS
100
AcDbLine
 62
7
  6
CONTINUOUS
 10
2.6498802978
 20
3.9005639915
 11
2.3254094466
 21
3.9005639915
  0
LINE
  5
73E
100
AcDbEntity
  8
0
100
AcDbLine
 62
7
  6
CONTINUOUS
 10
3.0978810927
 20
3.935604305
 11
3.1132758879
 21
3.9356043072
  0
LINE
  5
73F
100
AcDbEntity
  8
0
100
AcDbLine
 62
7
  6
CONTINUOUS
 10
3.0978810927
 20
3.9836374405
 11
3.0781960533
 21
3.9836374405
  0
LWPOLYLINE
  5
740
100
AcDbEntity
  8
0
100
AcDbPolyline
 62
7
  6
CONTINUOUS
 90
6
 70
0
 10
3.0978810927
 20
3.935604305
 10
3.0916646549
 20
3.9359062179
 10
3.0861395281
 20
3.9367709299
 10
3.081832025
 20
3.9380997457
 10
3.0791172455
 20
3.9397551609
 10
3.0781960533
 20
3.9415777633
  0
LWPOLYLINE
  5
741
100
AcDbEntity
  8
0
100
AcDbPolyline
 62
7
  6
CONTINUOUS
 90
6
 70
0
 10
3.1330561995
 20
4.4218937711
 10
3.1321144022
 20
4.4236894911
 10
3.1293868468
 20
4.4252964787
 10
3.1250677119
 20
4.4265528761
 10
3.1195447149
 20
4.4273242092
 10
3.1132758879
 20
4.427523678
  0
LINE
  5
742
100
AcDbEntity
  8
0
100
AcDbLine
 62
7
  6
CONTINUOUS
 10
3.0646921163
 20
4.0533601276
 11
3.0781960533
 21
4.0533601276
  0
LINE
  5
743
100
AcDbEntity
  8
0
100
AcDbLine
 62
7
  6
CONTINUOUS
 10
3.1358767568
 20
4.102823834
 11
3.0646921163
 21
4.102823834
  0
LINE
  5
744
100
AcDbEntity
  8
0
100
AcDbLine
 62
7
  6
CONTINUOUS
 10
2.9600858171
 20
4.102823834
 11
2.8849527362
 21
4.102823834
  0
LINE
  5
745
100
AcDbEntity
  8
0
100
AcDbLine
 62
7
  6
CONTINUOUS
 10
2.0903370082
 20
4.102823834
 11
1.701617712
 21
4.102823834
  0
LINE
  5
746
100
AcDbEntity
  8
02___PRT_ALL_AXES
100
AcDbLine
 62
7
  6
CENTER
 10
2.4876448722
 20
4.1815639915
 11
1.9816448722
 21
4.1815639915
  0
LINE
  5
747
100
AcDbEntity
  8
02___PRT_ALL_AXES
100
AcDbLine
 62
7
  6
CENTER
 10
2.4876448722
 20
4.1815639915
 11
2.9936448722
 21
4.1815639915
  0
LINE
  5
748
100
AcDbEntity
  8
0
100
AcDbLine
 62
9
  6
CONTINUOUS
 10
2.9600858171
 20
4.1815639915
 11
3.0646921163
 21
4.1815639915
  0
LINE
  5
749
100
AcDbEntity
  8
0
100
AcDbLine
 62
7
  6
CONTINUOUS
 10
1.701617712
 20
4.260304149
 11
2.0903370082
 21
4.260304149
  0
LINE
  5
74A
100
AcDbEntity
  8
0
100
AcDbLine
 62
7
  6
CONTINUOUS
 10
2.8849527362
 20
4.260304149
 11
2.9600858171
 21
4.260304149
  0
LINE
  5
74B
100
AcDbEntity
  8
0
100
AcDbLine
 62
7
  6
CONTINUOUS
 10
3.0646921163
 20
4.260304149
 11
3.1358767568
 21
4.260304149
  0
LINE
  5
74C
100
AcDbEntity
  8
0
100
AcDbLine
 62
7
  6
CONTINUOUS
 10
3.0646921163
 20
4.3097678554
 11
3.0781960533
 21
4.3097678554
  0
LINE
  5
74D
100
AcDbEntity
  8
0
100
AcDbLine
 62
7
  6
CONTINUOUS
 10
3.0978810927
 20
4.3794905425
 11
3.0781960533
 21
4.3794905425
  0
LWPOLYLINE
  5
74E
100
AcDbEntity
  8
0
100
AcDbPolyline
 62
7
  6
CONTINUOUS
 90
9
 70
0
 10
3.0978810927
 20
4.3794905425
 10
3.0940629239
 20
4.380133549
 10
3.0904086643
 20
4.3820080732
 10
3.0870978945
 20
4.3849294221
 10
3.0842329349
 20
4.3886686499
 10
3.0818608912
 20
4.3930406499
 10
3.0799877185
 20
4.398023995
 10
3.0786963241
 20
4.4036620783
 10
3.0781960533
 20
4.4099479362
  0
LWPOLYLINE
  5
74F
100
AcDbEntity
  8
0
100
AcDbPolyline
 62
7
  6
CONTINUOUS
 90
6
 70
0
 10
3.0978810927
 20
4.427523678
 10
3.0916646549
 20
4.4272217652
 10
3.0861395281
 20
4.4263570531
 10
3.081832025
 20
4.4250282373
 10
3.0791172455
 20
4.4233728221
 10
3.0781960533
 20
4.4215502198
  0
LINE
  5
750
100
AcDbEntity
  8
0
100
AcDbLine
 62
7
  6
CONTINUOUS
 10
3.0978810927
 20
4.427523678
 11
3.1132758879
 21
4.4275236764
  0
LINE
  5
751
100
AcDbEntity
  8
AXIS
100
AcDbLine
 62
7
  6
CONTINUOUS
 10
2.3254094466
 20
4.4625639915
 11
2.6498802978
 21
4.4625639915
  0
LWPOLYLINE
  5
752
100
AcDbEntity
  8
0
100
AcDbPolyline
 62
7
  6
CONTINUOUS
 90
5
 70
0
 10
1.9915818801
 20
4.5286968047
 10
1.9568922994
 20
4.5293955536
 10
1.9211976026
 20
4.5288314393
 10
1.8854413888
 20
4.526958907
 10
1.850538602
 20
4.5238531454
  0
LINE
  5
753
100
AcDbEntity
  8
0
100
AcDbLine
 62
7
  6
CONTINUOUS
 10
3.0646921163
 20
4.5673907632
 11
3.0781960533
 21
4.5673907632
  0
LINE
  5
754
100
AcDbEntity
  8
02___PRT_ALL_AXES
100
AcDbLine
 62
7
  6
CONTINUOUS
 10
1.8350818801
 20
4.588784464
 11
2.1113341335
 21
4.588784464
  0
LINE
  5
755
100
AcDbEntity
  8
02___PRT_ALL_AXES
100
AcDbLine
 62
7
  6
CONTINUOUS
 10
1.8540818801
 20
4.607784464
 11
2.1290818801
 21
4.607784464
  0
LINE
  5
756
100
AcDbEntity
  8
0
100
AcDbLine
 62
7
  6
CONTINUOUS
 10
3.0978810927
 20
4.6087293458
 11
3.1104508754
 21
4.6087293458
  0
LINE
  5
757
100
AcDbEntity
  8
0
100
AcDbLine
 62
7
  6
CONTINUOUS
 10
1.850538602
 20
4.5238531454
 11
1.817311171
 21
4.5196991348
  0
LWPOLYLINE
  5
758
100
AcDbEntity
  8
0
100
AcDbPolyline
 62
7
  6
CONTINUOUS
 90
4
 70
0
 10
2.8616606202
 20
4.6826491477
 10
2.6633436047
 20
4.6721696326
 10
2.4657023415
 20
4.6511227051
 10
2.2711094391
 20
4.6197653
  0
LINE
  5
759
100
AcDbEntity
  8
AXIS
100
AcDbLine
 62
7
  6
CONTINUOUS
 10
2.8813456596
 20
4.7043926367
 11
2.9600858171
 21
4.7051860388
  0
LINE
  5
75A
100
AcDbEntity
  8
0
100
AcDbLine
 62
7
  6
CONTINUOUS
 10
2.9600858171
 20
4.6933750151
 11
3.0646921163
 21
4.6933750151
  0
LINE
  5
75B
100
AcDbEntity
  8
AXIS
100
AcDbLine
 62
7
  6
CONTINUOUS
 10
2.1751116114
 20
4.6255303771
 11
2.2514243998
 21
4.6403897676
  0
LWPOLYLINE
  5
75C
100
AcDbEntity
  8
0
100
AcDbPolyline
 62
7
  6
CONTINUOUS
 90
7
 70
0
 10
2.2711094391
 20
4.6197653
 10
2.2661016777
 20
4.6190332382
 10
2.2613866557
 20
4.6187744691
 10
2.2573268969
 20
4.6190004137
 10
2.2541754968
 20
4.6196790259
 10
2.252124199
 20
4.620778367
 10
2.2514243998
 20
4.6221876235
  0
LINE
  5
75D
100
AcDbEntity
  8
0
100
AcDbLine
 62
7
  6
CONTINUOUS
 10
5.2041803053
 20
3.4003435191
 11
5.2041803053
 21
3.2957372199
  0
CIRCLE
  5
75E
100
AcDbEntity
  8
0
100
AcDbCircle
 62
7
  6
CONTINUOUS
 10
10.5342808475
 20
1.243294839
 40
0.252091
  0
CIRCLE
  5
75F
100
AcDbEntity
  8
0
100
AcDbCircle
 62
7
  6
CONTINUOUS
 10
10.5342808475
 20
1.243294839
 40
0.182698
  0
ARC
  5
760
100
AcDbEntity
  8
0
100
AcDbCircle
 62
7
  6
CONTINUOUS
 10
4.2002432974
 20
8.0005834055
 40
1.0039370079
100
AcDbArc
 50
221.8103148958
 51
138.1896851042
  0
ARC
  5
761
100
AcDbEntity
  8
0
100
AcDbCircle
 62
7
  6
CONTINUOUS
 10
3.0998161431
 20
8.984835374
 40
0.4724409449
100
AcDbArc
 50
270.0
 51
318.1896851042
  0
ARC
  5
762
100
AcDbEntity
  8
0
100
AcDbCircle
 62
7
  6
CONTINUOUS
 10
3.0998161431
 20
7.016331437
 40
0.4724409449
100
AcDbArc
 50
41.8103148958
 51
90.0
  0
CIRCLE
  5
763
100
AcDbEntity
  8
02___PRT_ALL_AXES
100
AcDbCircle
 62
7
  6
CONTINUOUS
 10
1.9915818801
 20
8.0005834055
 40
0.1565
  0
CIRCLE
  5
764
100
AcDbEntity
  8
02___PRT_ALL_AXES
100
AcDbCircle
 62
7
  6
CONTINUOUS
 10
1.9915818801
 20
8.0005834055
 40
0.1375
  0
CIRCLE
  5
765
100
AcDbEntity
  8
0
100
AcDbCircle
 62
7
  6
CONTINUOUS
 10
4.2002432974
 20
8.0005834055
 40
0.1053149606
  0
ARC
  5
766
100
AcDbEntity
  8
AXIS
100
AcDbCircle
 62
7
  6
CONTINUOUS
 10
2.2066448722
 20
6.8564574212
 40
0.05
100
AcDbArc
 50
90.0
 51
150.3909646446
  0
ARC
  5
767
100
AcDbEntity
  8
AXIS
100
AcDbCircle
 62
7
  6
CONTINUOUS
 10
2.2066448722
 20
6.6194574212
 40
0.05
100
AcDbArc
 50
209.6090353554
 51
270.0
  0
ARC
  5
768
100
AcDbEntity
  8
AXIS
100
AcDbCircle
 62
7
  6
CONTINUOUS
 10
2.7686448722
 20
6.6194574212
 40
0.05
100
AcDbArc
 50
270.0
 51
330.3909646446
  0
ARC
  5
769
100
AcDbEntity
  8
AXIS
100
AcDbCircle
 62
7
  6
CONTINUOUS
 10
2.7686448722
 20
6.8564574212
 40
0.05
100
AcDbArc
 50
29.6090353554
 51
90.0
  0
ARC
  5
76A
100
AcDbEntity
  8
AXIS
100
AcDbCircle
 62
7
  6
CONTINUOUS
 10
2.2066448722
 20
6.0986070275
 40
0.05
100
AcDbArc
 50
90.0
 51
150.3909646446
  0
ARC
  5
76B
100
AcDbEntity
  8
AXIS
100
AcDbCircle
 62
7
  6
CONTINUOUS
 10
2.2066448722
 20
5.8616070275
 40
0.05
100
AcDbArc
 50
209.6090353554
 51
270.0
  0
ARC
  5
76C
100
AcDbEntity
  8
AXIS
100
AcDbCircle
 62
7
  6
CONTINUOUS
 10
2.7686448722
 20
5.8616070275
 40
0.05
100
AcDbArc
 50
270.0
 51
330.3909646446
  0
ARC
  5
76D
100
AcDbEntity
  8
AXIS
100
AcDbCircle
 62
7
  6
CONTINUOUS
 10
2.7686448722
 20
6.0986070275
 40
0.05
100
AcDbArc
 50
29.6090353554
 51
90.0
  0
ARC
  5
76E
100
AcDbEntity
  8
0
100
AcDbCircle
 62
7
  6
CONTINUOUS
 10
2.8616606202
 20
7.8726306496
 40
0.0196850394
100
AcDbArc
 50
270.0
 51
360.0
  0
ARC
  5
76F
100
AcDbEntity
  8
0
100
AcDbCircle
 62
7
  6
CONTINUOUS
 10
2.8616606202
 20
8.1285361614
 40
0.0196850394
100
AcDbArc
 50
0.0
 51
90.0
  0
ARC
  5
770
100
AcDbEntity
  8
0
100
AcDbCircle
 62
7
  6
CONTINUOUS
 10
2.2711094391
 20
8.1285361614
 40
0.0196850394
100
AcDbArc
 50
90.0
 51
180.0
  0
ARC
  5
771
100
AcDbEntity
  8
0
100
AcDbCircle
 62
7
  6
CONTINUOUS
 10
2.2711094391
 20
7.8726306496
 40
0.0196850394
100
AcDbArc
 50
180.0
 51
270.0
  0
ARC
  5
772
100
AcDbEntity
  8
0
100
AcDbCircle
 62
7
  6
CONTINUOUS
 10
9.6576047986
 20
8.0005834055
 40
0.5236220472
100
AcDbArc
 50
98.6487134442
 51
261.3512865558
  0
ARC
  5
773
100
AcDbEntity
  8
0
100
AcDbCircle
 62
7
  6
CONTINUOUS
 10
9.6576047986
 20
8.0005834055
 40
0.5236220472
100
AcDbArc
 50
278.6487134442
 51
281.5728527078
  0
ARC
  5
774
100
AcDbEntity
  8
0
100
AcDbCircle
 62
7
  6
CONTINUOUS
 10
9.6576047986
 20
8.0005834055
 40
0.5236220472
100
AcDbArc
 50
78.4271472922
 51
81.3512865558
  0
ARC
  5
775
100
AcDbEntity
  8
0
100
AcDbCircle
 62
7
  6
CONTINUOUS
 10
9.6576047986
 20
8.0005834055
 40
0.5118110236
100
AcDbArc
 50
90.0
 51
270.0
  0
ARC
  5
776
100
AcDbEntity
  8
0
100
AcDbCircle
 62
7
  6
CONTINUOUS
 10
9.6221717277
 20
8.0005834055
 40
0.3917322835
100
AcDbArc
 50
122.5085003572
 51
237.4914996428
  0
ARC
  5
777
100
AcDbEntity
  8
0
100
AcDbCircle
 62
7
  6
CONTINUOUS
 10
9.6930378694
 20
8.0005834055
 40
0.3917322835
100
AcDbArc
 50
302.5085003572
 51
57.4914996428
  0
ARC
  5
778
100
AcDbEntity
  8
02___PRT_ALL_AXES
100
AcDbCircle
 62
7
  6
CONTINUOUS
 10
9.6576047986
 20
8.0005834055
 40
0.3897637795
100
AcDbArc
 50
58.3463426806
 51
121.6536573194
  0
ARC
  5
779
100
AcDbEntity
  8
02___PRT_ALL_AXES
100
AcDbCircle
 62
7
  6
CONTINUOUS
 10
9.6576047986
 20
8.0005834055
 40
0.3897637795
100
AcDbArc
 50
238.3463426806
 51
301.6536573194
  0
ARC
  5
77A
100
AcDbEntity
  8
0
100
AcDbCircle
 62
7
  6
CONTINUOUS
 10
9.6576047986
 20
8.0005834055
 40
0.3858267717
100
AcDbArc
 50
239.13658117
 51
250.5925675879
  0
ARC
  5
77B
100
AcDbEntity
  8
0
100
AcDbCircle
 62
7
  6
CONTINUOUS
 10
9.6576047986
 20
8.0005834055
 40
0.3858267717
100
AcDbArc
 50
109.4074324121
 51
120.86341883
  0
ARC
  5
77C
100
AcDbEntity
  8
0
100
AcDbCircle
 62
7
  6
CONTINUOUS
 10
9.6576047986
 20
8.0005834055
 40
0.3858267717
100
AcDbArc
 50
59.13658117
 51
70.5925675879
  0
ARC
  5
77D
100
AcDbEntity
  8
0
100
AcDbCircle
 62
7
  6
CONTINUOUS
 10
9.6576047986
 20
8.0005834055
 40
0.3858267717
100
AcDbArc
 50
289.4074324121
 51
300.86341883
  0
ARC
  5
77E
100
AcDbEntity
  8
0
100
AcDbCircle
 62
7
  6
CONTINUOUS
 10
1.7174377249
 20
3.8732520605
 40
0.0118110236
100
AcDbArc
 50
181.0
 51
251.3992901102
  0
ARC
  5
77F
100
AcDbEntity
  8
0
100
AcDbCircle
 62
7
  6
CONTINUOUS
 10
1.7174377249
 20
4.4898759225
 40
0.0118110236
100
AcDbArc
 50
108.6007098905
 51
179.0000000007
  0
ARC
  5
780
100
AcDbEntity
  8
0
100
AcDbCircle
 62
7
  6
CONTINUOUS
 10
2.9600858171
 20
0.7975571575
 40
3.8977863616
100
AcDbArc
 50
91.1575251151
 51
100.4752779006
  0
ARC
  5
781
100
AcDbEntity
  8
0
100
AcDbCircle
 62
3
  6
CONTINUOUS
 10
3.0843771557
 20
3.4200285584
 40
0.1242913386
100
AcDbArc
 50
180.0
 51
270.0
  0
ARC
  5
782
100
AcDbEntity
  8
0
100
AcDbCircle
 62
7
  6
CONTINUOUS
 10
3.0978810927
 20
3.7740836765
 40
0.0196850394
100
AcDbArc
 50
180.0
 51
270.0
  0
ARC
  5
783
100
AcDbEntity
  8
0
100
AcDbCircle
 62
7
  6
CONTINUOUS
 10
3.0843771557
 20
3.4200285584
 40
0.0196850394
100
AcDbArc
 50
180.0
 51
270.0
  0
ARC
  5
784
100
AcDbEntity
  8
0
100
AcDbCircle
 62
7
  6
CONTINUOUS
 10
3.1104505381
 20
3.7740836772
 40
0.0196850394
100
AcDbArc
 50
270.0000000036
 51
359.0
  0
ARC
  5
785
100
AcDbEntity
  8
0
100
AcDbCircle
 62
7
  6
CONTINUOUS
 10
2.9600858171
 20
7.5655708256
 40
3.8977863616
100
AcDbArc
 50
259.5247220994
 51
268.8424748849
  0
CIRCLE
  5
786
100
AcDbEntity
  8
02___PRT_ALL_AXES
100
AcDbCircle
 62
7
  6
CONTINUOUS
 10
2.4876448722
 20
4.1815639915
 40
0.406
  0
ARC
  5
787
100
AcDbEntity
  8
AXIS
100
AcDbCircle
 62
7
  6
CONTINUOUS
 10
2.4876448722
 20
4.1815639915
 40
0.34
100
AcDbArc
 50
93.3722866834
 51
86.6277133166
  0
CIRCLE
  5
788
100
AcDbEntity
  8
AXIS
100
AcDbCircle
 62
9
  6
CONTINUOUS
 10
2.4876448722
 20
4.1815639915
 40
0.281
  0
CIRCLE
  5
789
100
AcDbEntity
  8
0
100
AcDbCircle
 62
7
  6
CONTINUOUS
 10
2.4876448722
 20
4.1815639915
 40
0.2062500241
  0
ARC
  5
78A
100
AcDbEntity
  8
0
100
AcDbCircle
 62
7
  6
CONTINUOUS
 10
2.4876448722
 20
4.1815639915
 40
0.1887259526
100
AcDbArc
 50
259.0608830513
 51
331.0608830513
  0
CIRCLE
  5
78B
100
AcDbEntity
  8
02___PRT_ALL_AXES
100
AcDbCircle
 62
7
  6
CONTINUOUS
 10
2.4876448722
 20
4.1815639915
 40
0.15
  0
ARC
  5
78C
100
AcDbEntity
  8
0
100
AcDbCircle
 62
7
  6
CONTINUOUS
 10
3.0978810927
 20
4.5890443065
 40
0.0196850394
100
AcDbArc
 50
90.0
 51
180.0
  0
ARC
  5
78D
100
AcDbEntity
  8
0
100
AcDbCircle
 62
7
  6
CONTINUOUS
 10
3.1104505381
 20
4.5890443058
 40
0.0196850394
100
AcDbArc
 50
1.0
 51
89.9999999964
  0
ENDSEC
  0
SECTION
  2
OBJECTS
  0
DICTIONARY
  5
C
100
AcDbDictionary
280
0
281
1
  3
ACAD_GROUP
350
D
  3
ACAD_MLINESTYLE
350
17
  3
ACAD_LAYOUT
350
1A
  3
ACAD_PLOTSETTINGS
350
19
  3
ACAD_PLOTSTYLENAME
350
E
  0
DICTIONARY
  5
D
102
{ACAD_REACTORS
330
C
102
}
100
AcDbDictionary
280
0
281
1
  0
ACDBDICTIONARYWDFLT
  5
E
102
{ACAD_REACTORS
330
C
102
}
100
AcDbDictionary
281
1
  3
Normal
350
F
100
AcDbDictionaryWithDefault
340
F
  0
DICTIONARY
  5
17
102
{ACAD_REACTORS
330
C
102
}
100
AcDbDictionary
280
0
281
1
  3
Standard
350
18
  0
DICTIONARY
  5
19
102
{ACAD_REACTORS
330
C
102
}
100
AcDbDictionary
281
1
  0
DICTIONARY
  5
1A
102
{ACAD_REACTORS
330
C
102
}
100
AcDbDictionary
281
1
  3
Layout1
350
1E
  3
Model
350
22
  0
ACDBPLACEHOLDER
  5
F
102
{ACAD_REACTORS
330
E
102
}
  0
MLINESTYLE
  5
18
102
{ACAD_REACTORS
330
17
102
}
100
AcDbMlineStyle
  2
STANDARD
 70
0
  3

 62
256
 51
90.0
 52
90.0
 71
2
 49
0.5
 62
256
  6
BYLAYER
 49
-0.5
 62
256
  6
BYLAYER
  0
LAYOUT
  5
1E
102
{ACAD_REACTORS
330
1A
102
}
100
AcDbPlotSettings
  1

  2

  4

  6

 40
0.0
 41
0.0
 42
0.0
 43
0.0
 44
0.0
 45
0.0
 46
0.0
 47
0.0
 48
0.0
 49
0.0
140
0.0
141
0.0
142
1.0
143
1.0
 70
0
 72
0
 73
0
 74
0
  7

 75
0
147
1.0
148
0.0
149
0.0
100
AcDbLayout
  1
Layout1
 70
0
 71
0
 10
0.0
 20
0.0
 11
0.0
 21
0.0
 12
0.0
 22
0.0
 32
0.0
 14
0.0
 24
0.0
 34
0.0
 15
0.0
 25
0.0
 35
0.0
146
0.0
 13
0.0
 23
0.0
 33
0.0
 16
0.0
 26
0.0
 36
0.0
 17
0.0
 27
0.0
 37
0.0
 76
0
330
1B
331
0
345
0
346
0
  0
LAYOUT
  5
22
102
{ACAD_REACTORS
330
1A
102
}
100
AcDbPlotSettings
  1

  2

  4

  6

 40
0.0
 41
0.0
 42
0.0
 43
0.0
 44
0.0
 45
0.0
 46
0.0
 47
0.0
 48
0.0
 49
0.0
140
0.0
141
0.0
142
1.0
143
1.0
 70
0
 72
0
 73
0
 74
0
  7

 75
0
147
1.0
148
0.0
149
0.0
100
AcDbLayout
  1
Model
 70
0
 71
0
 10
0.0
 20
0.0
 11
0.0
 21
0.0
 12
0.0
 22
0.0
 32
0.0
 14
0.0
 24
0.0
 34
0.0
 15
0.0
 25
0.0
 35
0.0
146
0.0
 13
0.0
 23
0.0
 33
0.0
 16
0.0
 26
0.0
 36
0.0
 17
0.0
 27
0.0
 37
0.0
 76
0
330
1F
331
0
345
0
346
0
  0
ENDSEC
  0
EOF
