999
DXF file: 141860_1.dxf
999
Pro/ENGINEER 2006170 by Parametric Technology Corporation
  0
SECTION
  2
HEADER
  9
$ACADVER
  1
AC1015
  9
$DWGCODEPAGE
  3
ANSI_1252
  9
$EXTMAX
 10
17.0
 20
11.0
 30
0.0
  9
$EXTMIN
 10
0.0
 20
0.0
 30
0.0
  9
$LIMMIN
 10
0.0
 20
0.0
  9
$LIMMAX
 10
17.0
 20
11.0
  9
$VIEWCTR
 10
8.5
 20
5.5
  9
$VIEWSIZE
 40
11.0
  9
$CLAYER
  8
0
  9
$LTSCALE
 40
0.935
  9
$CELTYPE
  6
BYLAYER
  9
$DIMSCALE
 40
1.0
  9
$DIMASZ
 40
0.1875
  9
$DIMEXO
 40
0.10625
  9
$DIMDLI
 40
0.646
  9
$DIMEXE
 40
0.306
  9
$DIMCEN
 40
0.153
  9
$DIMLFAC
 40
1.0
  9
$DIMBLK
  1
_FILLED
  9
$DIMTXT
 40
0.1
  9
$DIMTOL
 70
1
  9
$DIMLIM
 70
0
  9
$DIMTFAC
 40
1.0
  9
$DIMTP
 40
0.005
  9
$DIMTM
 40
0.005
  9
$PDMODE
 70
3
  9
$PDSIZE
 40
0.3125
  9
$HANDSEED
  5
6D1
  9
$MEASUREMENT
 70
0
  9
$INSUNITS
 70
1
  0
ENDSEC
  0
SECTION
  2
CLASSES
  0
CLASS
  1
ACDBDICTIONARYWDFLT
  2
AcDbDictionaryWithDefault
  3
AutoCAD 2000
 90
0
280
0
281
0
  0
CLASS
  1
ACDBPLACEHOLDER
  2
AcDbPlaceHolder
  3
AutoCAD 2000
 90
0
280
0
281
0
  0
CLASS
  1
LAYOUT
  2
AcDbLayout
  3
AutoCAD 2000
 90
0
280
0
281
0
  0
ENDSEC
  0
SECTION
  2
TABLES
  0
TABLE
  2
VPORT
  5
8
100
AcDbSymbolTable
 70
2
  0
VPORT
  5
1F4
100
AcDbSymbolTableRecord
100
AcDbViewportTableRecord
  2
*ACTIVE
 70
0
 10
0.0
 20
0.0
 11
1.0
 21
1.0
 12
8.5
 22
5.5
 13
0.0
 23
0.0
 14
1.0
 24
1.0
 15
0.0
 25
0.0
 16
0.0
 26
0.0
 36
1.0
 17
0.0
 27
0.0
 37
0.0
 40
11.0
 41
1.5454545455
 42
50.0
 43
0.0
 44
0.0
 50
0.0
 51
0.0
 71
0
 72
100
 73
1
 74
1
 75
0
 76
0
 77
0
 78
0
  0
ENDTAB
  0
TABLE
  2
LTYPE
  5
5
100
AcDbSymbolTable
 70
6
  0
LTYPE
  5
14
100
AcDbSymbolTableRecord
100
AcDbLinetypeTableRecord
  2
BYBLOCK
 70
0
  3

 72
65
 73
0
 40
0.0
  0
LTYPE
  5
15
100
AcDbSymbolTableRecord
100
AcDbLinetypeTableRecord
  2
BYLAYER
 70
0
  3

 72
65
 73
0
 40
0.0
  0
LTYPE
  5
16
100
AcDbSymbolTableRecord
100
AcDbLinetypeTableRecord
  2
CONTINUOUS
 70
64
  3
Solid line
 72
65
 73
0
 40
0.0
  0
LTYPE
  5
1F5
100
AcDbSymbolTableRecord
100
AcDbLinetypeTableRecord
  2
CENTER
 70
64
  3
____ _ ____ _ ____ _ ____ _ ____ _ ____ _ ____
 72
65
 73
4
 40
0.6
 49
0.375
 74
0
 49
-0.075
 74
0
 49
0.075
 74
0
 49
-0.075
 74
0
  0
LTYPE
  5
1F6
100
AcDbSymbolTableRecord
100
AcDbLinetypeTableRecord
  2
HIDDEN
 70
64
  3
- - - - - - - - - - - - - - - - - - - -
 72
65
 73
2
 40
0.2
 49
0.1
 74
0
 49
-0.1
 74
0
  0
LTYPE
  5
1F7
100
AcDbSymbolTableRecord
100
AcDbLinetypeTableRecord
  2
PHANTOM
 70
64
  3
_____ _ _ _____ _ _ _____ _ _ _____
 72
65
 73
6
 40
0.8
 49
0.45
 74
0
 49
-0.05
 74
0
 49
0.1
 74
0
 49
-0.05
 74
0
 49
0.1
 74
0
 49
-0.05
 74
0
  0
LTYPE
  5
1F8
100
AcDbSymbolTableRecord
100
AcDbLinetypeTableRecord
  2
DOT
 70
64
  3
. . . . . . . . . . . . . . . . . . . .
 72
65
 73
2
 40
0.2
 49
0.1
 74
0
 49
-0.1
 74
0
  0
LTYPE
  5
1F9
100
AcDbSymbolTableRecord
100
AcDbLinetypeTableRecord
  2
DASHED
 70
64
  3
- - - - - - - - - - - - - - - - - - - -
 72
65
 73
2
 40
0.2
 49
0.1
 74
0
 49
-0.1
 74
0
  0
ENDTAB
  0
TABLE
  2
LAYER
  5
2
100
AcDbSymbolTable
 70
36
  0
LAYER
  5
10
100
AcDbSymbolTableRecord
100
AcDbLayerTableRecord
  2
0
 70
0
 62
7
  6
CONTINUOUS
370
-3
390
F
  0
LAYER
  5
1FA
100
AcDbSymbolTableRecord
100
AcDbLayerTableRecord
  2
DEFAULT_1
 70
0
 62
7
  6
CENTER
370
-3
390
F
  0
LAYER
  5
1FB
100
AcDbSymbolTableRecord
100
AcDbLayerTableRecord
  2
DEFAULT_2
 70
0
 62
8
  6
HIDDEN
370
-3
390
F
  0
LAYER
  5
1FC
100
AcDbSymbolTableRecord
100
AcDbLayerTableRecord
  2
DEFAULT_3
 70
0
 62
7
  6
PHANTOM
370
-3
390
F
  0
LAYER
  5
1FD
100
AcDbSymbolTableRecord
100
AcDbLayerTableRecord
  2
_2D_DELETED_OBJS
 70
0
 62
7
  6
CONTINUOUS
370
-3
390
F
  0
LAYER
  5
1FE
100
AcDbSymbolTableRecord
100
AcDbLayerTableRecord
  2
AXIS_COSMETIC_THREADS
 70
0
 62
7
  6
CONTINUOUS
370
-3
390
F
  0
LAYER
  5
1FF
100
AcDbSymbolTableRecord
100
AcDbLayerTableRecord
  2
CONSTRUCTION
 70
0
 62
7
  6
CONTINUOUS
370
-3
390
F
  0
LAYER
  5
200
100
AcDbSymbolTableRecord
100
AcDbLayerTableRecord
  2
DATUM_PLANES
 70
0
 62
7
  6
CONTINUOUS
370
-3
390
F
  0
LAYER
  5
201
100
AcDbSymbolTableRecord
100
AcDbLayerTableRecord
  2
DRIVEN_DIMS
 70
0
 62
7
  6
CONTINUOUS
370
-3
390
F
  0
LAYER
  5
202
100
AcDbSymbolTableRecord
100
AcDbLayerTableRecord
  2
NOTES
 70
0
 62
7
  6
CONTINUOUS
370
-3
390
F
  0
LAYER
  5
203
100
AcDbSymbolTableRecord
100
AcDbLayerTableRecord
  2
QUILTS
 70
0
 62
7
  6
CONTINUOUS
370
-3
390
F
  0
LAYER
  5
204
100
AcDbSymbolTableRecord
100
AcDbLayerTableRecord
  2
SCHEME_DIMS
 70
0
 62
7
  6
CONTINUOUS
370
-3
390
F
  0
LAYER
  5
205
100
AcDbSymbolTableRecord
100
AcDbLayerTableRecord
  2
SKETCHED_ENT
 70
0
 62
7
  6
CONTINUOUS
370
-3
390
F
  0
LAYER
  5
206
100
AcDbSymbolTableRecord
100
AcDbLayerTableRecord
  2
SYMBOLS
 70
0
 62
7
  6
CONTINUOUS
370
-3
390
F
  0
ENDTAB
  0
TABLE
  2
STYLE
  5
3
100
AcDbSymbolTable
 70
1
  0
STYLE
  5
11
100
AcDbSymbolTableRecord
100
AcDbTextStyleTableRecord
  2
STANDARD
 70
0
 40
0.0
 41
1.0
 50
0.0
 71
0
 42
0.2
  3
txt
  4

  0
ENDTAB
  0
TABLE
  2
VIEW
  5
6
100
AcDbSymbolTable
 70
0
  0
ENDTAB
  0
TABLE
  2
UCS
  5
7
100
AcDbSymbolTable
 70
0
  0
ENDTAB
  0
TABLE
  2
APPID
  5
9
100
AcDbSymbolTable
 70
1
  0
APPID
  5
207
100
AcDbSymbolTableRecord
100
AcDbRegAppTableRecord
  2
ACAD
 70
0
  0
ENDTAB
  0
TABLE
  2
BLOCK_RECORD
  5
1
100
AcDbSymbolTable
 70
0
  0
BLOCK_RECORD
  5
1F
100
AcDbSymbolTableRecord
100
AcDbBlockTableRecord
  2
*MODEL_SPACE
  0
BLOCK_RECORD
  5
1B
100
AcDbSymbolTableRecord
100
AcDbBlockTableRecord
  2
*PAPER_SPACE
  0
BLOCK_RECORD
  5
208
100
AcDbSymbolTableRecord
100
AcDbBlockTableRecord
  2
_FILLED
  0
BLOCK_RECORD
  5
209
100
AcDbSymbolTableRecord
100
AcDbBlockTableRecord
  2
BANNER_LOGO_TITLEBLOCK_BL0
  0
BLOCK_RECORD
  5
20A
100
AcDbSymbolTableRecord
100
AcDbBlockTableRecord
  2
*D0
  0
BLOCK_RECORD
  5
20B
100
AcDbSymbolTableRecord
100
AcDbBlockTableRecord
  2
*D1
  0
BLOCK_RECORD
  5
20C
100
AcDbSymbolTableRecord
100
AcDbBlockTableRecord
  2
*D2
  0
BLOCK_RECORD
  5
20D
100
AcDbSymbolTableRecord
100
AcDbBlockTableRecord
  2
*D3
  0
BLOCK_RECORD
  5
20E
100
AcDbSymbolTableRecord
100
AcDbBlockTableRecord
  2
*D4
  0
BLOCK_RECORD
  5
20F
100
AcDbSymbolTableRecord
100
AcDbBlockTableRecord
  2
*D5
  0
BLOCK_RECORD
  5
210
100
AcDbSymbolTableRecord
100
AcDbBlockTableRecord
  2
*D6
  0
BLOCK_RECORD
  5
211
100
AcDbSymbolTableRecord
100
AcDbBlockTableRecord
  2
*D7
  0
ENDTAB
  0
TABLE
  2
DIMSTYLE
  5
A
100
AcDbSymbolTable
 70
1
100
AcDbDimStyleTable
 71
0
  0
DIMSTYLE
105
212
100
AcDbSymbolTableRecord
100
AcDbDimStyleTableRecord
  2
STANDARD
 70
0
  3

  4

 40
1.0
 41
0.1875
 42
0.0625
 43
0.38
 44
0.18
 45
0.0
 46
0.0
 47
0.005
 48
0.005
140
0.1
141
0.09
142
0.0
143
25.4
144
1.0
145
0.0
146
1.0
147
0.09
 71
1.0
 72
0.0
 73
1
 74
1
 75
0
 76
0
 77
0
 78
4
170
0
171
2
172
0
173
0
174
0
175
0
176
0
177
0
178
0
270
2
271
3
272
3
273
2
274
2
275
0
280
0
281
0
282
0
283
1
284
4
285
0
286
0
287
3
288
0
340
11
341
208
342
208
343
208
344
208
  0
DIMSTYLE
105
213
100
AcDbSymbolTableRecord
100
AcDbDimStyleTableRecord
  2
DIMSTYLE_1
 70
0
  3

  4

 40
1.0
 41
0.1875
 42
0.0625
 43
0.38
 44
0.18
 45
0.0
 46
0.0
 47
0.1
 48
0.1
140
0.1
141
0.09
142
0.0
143
25.4
144
1.0
145
0.0
146
1.0
147
0.09
 71
0.0
 72
0.0
 73
1
 74
1
 75
0
 76
0
 77
0
 78
4
170
0
171
2
172
0
173
0
174
0
175
0
176
0
177
0
178
0
270
2
271
1
272
1
273
2
274
2
275
0
280
0
281
0
282
0
283
1
284
4
285
0
286
0
287
3
288
0
340
11
341
208
342
208
343
208
344
208
  0
DIMSTYLE
105
214
100
AcDbSymbolTableRecord
100
AcDbDimStyleTableRecord
  2
DIMSTYLE_2
 70
0
  3

  4

 40
1.0
 41
0.1875
 42
0.0625
 43
0.38
 44
0.18
 45
0.0
 46
0.0
 47
0.1
 48
0.1
140
0.1
141
0.09
142
0.0
143
25.4
144
1.0
145
0.0
146
1.0
147
0.09
 71
0.0
 72
0.0
 73
1
 74
1
 75
0
 76
0
 77
0
 78
4
170
0
171
2
172
0
173
0
174
0
175
0
176
0
177
0
178
0
270
2
271
1
272
1
273
2
274
2
275
0
280
0
281
0
282
0
283
1
284
4
285
0
286
0
287
3
288
0
340
11
341
208
342
208
343
208
344
208
  0
ENDTAB
  0
ENDSEC
  0
SECTION
  2
BLOCKS
  0
BLOCK
  5
20
100
AcDbEntity
  8
0
100
AcDbBlockBegin
  2
*MODEL_SPACE
 70
0
 10
0.0
 20
0.0
 30
0.0
  3
*MODEL_SPACE
  1

  0
ENDBLK
  5
21
100
AcDbEntity
  8
0
100
AcDbBlockEnd
  0
BLOCK
  5
1C
100
AcDbEntity
  8
0
100
AcDbBlockBegin
  2
*PAPER_SPACE
 70
0
 10
0.0
 20
0.0
 30
0.0
  3
*PAPER_SPACE
  1

  0
ENDBLK
  5
1D
100
AcDbEntity
  8
0
100
AcDbBlockEnd
  0
BLOCK
  5
215
100
AcDbEntity
  8
0
100
AcDbBlockBegin
 62
2
  6
CONTINUOUS
  2
BANNER_LOGO_TITLEBLOCK_BL0
 70
64
 10
12.9046655056
 20
2.5403783448
  3
BANNER_LOGO_TITLEBLOCK_BL0
  1

  0
LWPOLYLINE
  5
216
100
AcDbEntity
  8
0
100
AcDbPolyline
 62
2
  6
CONTINUOUS
 90
29
 70
0
 10
12.0796650004
 20
2.5403783448
 10
12.1000078385
 20
2.5005819703
 10
12.1615890075
 20
2.4620382478
 10
12.2590135686
 20
2.4281250935
 10
12.3910903821
 20
2.3992568791
 10
12.5462480343
 20
2.3779627503
 10
12.7225901426
 20
2.3645025835
 10
12.9046652672
 20
2.3600565514
 10
13.0867408686
 20
2.3645025835
 10
13.2630829769
 20
2.3779627503
 10
13.4182401522
 20
2.3992568791
 10
13.5503174426
 20
2.4281250935
 10
13.6477415269
 20
2.4620382478
 10
13.7093231727
 20
2.5005819703
 10
13.7296660108
 20
2.5403783448
 10
13.7093231727
 20
2.5801747193
 10
13.6477415269
 20
2.6187184418
 10
13.5503174426
 20
2.6526315961
 10
13.4182401522
 20
2.6814998105
 10
13.2630829769
 20
2.7027939393
 10
13.0867408686
 20
2.7162541061
 10
12.9046652672
 20
2.7207001382
 10
12.7225901426
 20
2.7162541061
 10
12.5462480343
 20
2.7027939393
 10
12.3910903821
 20
2.6814998105
 10
12.2590135686
 20
2.6526315961
 10
12.1615890075
 20
2.6187184418
 10
12.1000078385
 20
2.5801747193
 10
12.0796650004
 20
2.5403783448
  0
ARC
  5
217
100
AcDbEntity
  8
0
100
AcDbCircle
 62
2
  6
CONTINUOUS
 10
12.400005721
 20
2.5168763464
 40
0.0153945295
100
AcDbArc
 50
354.0454548824
 51
5.1878013979
  0
ARC
  5
218
100
AcDbEntity
  8
0
100
AcDbCircle
 62
2
  6
CONTINUOUS
 10
12.3931760319
 20
2.5166878286
 40
0.0222174455
100
AcDbArc
 50
4.0793399388
 51
69.834329283
  0
LINE
  5
219
100
AcDbEntity
  8
0
100
AcDbLine
 62
2
  6
CONTINUOUS
 10
12.4008351814
 20
2.5375433389
 11
12.3907841758
 21
2.5410923409
  0
LINE
  5
21A
100
AcDbEntity
  8
0
100
AcDbLine
 62
2
  6
CONTINUOUS
 10
12.3907841758
 20
2.5410923409
 11
12.3990241804
 21
2.5458683435
  0
ARC
  5
21B
100
AcDbEntity
  8
0
100
AcDbCircle
 62
2
  6
CONTINUOUS
 10
12.3771587979
 20
2.5826952352
 40
0.0428289026
100
AcDbArc
 50
300.6990502959
 51
319.0591802498
  0
ARC
  5
21C
100
AcDbEntity
  8
0
100
AcDbCircle
 62
2
  6
CONTINUOUS
 10
12.3971873948
 20
2.5665668817
 40
0.0171568255
100
AcDbArc
 50
315.9145124245
 51
16.0049121282
  0
ARC
  5
21D
100
AcDbEntity
  8
0
100
AcDbCircle
 62
2
  6
CONTINUOUS
 10
12.3922357827
 20
2.5632132173
 40
0.0229166529
100
AcDbArc
 50
20.6563876465
 51
62.3316896973
  0
ARC
  5
21E
100
AcDbEntity
  8
0
100
AcDbCircle
 62
2
  6
CONTINUOUS
 10
12.371573659
 20
2.5302846524
 40
0.061747717
100
AcDbArc
 50
59.5385584989
 51
90.0050977555
  0
LINE
  5
21F
100
AcDbEntity
  8
0
100
AcDbLine
 62
2
  6
CONTINUOUS
 10
12.3715681652
 20
2.5920323691
 11
12.2055050731
 21
2.5920323691
  0
ARC
  5
220
100
AcDbEntity
  8
0
100
AcDbCircle
 62
2
  6
CONTINUOUS
 10
12.2055050712
 20
2.5895573696
 40
0.0024749995
100
AcDbArc
 50
89.9999571957
 51
180.0000428043
  0
LINE
  5
221
100
AcDbEntity
  8
0
100
AcDbLine
 62
2
  6
CONTINUOUS
 10
12.2030300717
 20
2.5895573678
 11
12.2030300717
 21
2.5697573568
  0
ARC
  5
222
100
AcDbEntity
  8
0
100
AcDbCircle
 62
2
  6
CONTINUOUS
 10
12.2055050712
 20
2.5697573549
 40
0.0024749995
100
AcDbArc
 50
179.9999571957
 51
270.0000428043
  0
LINE
  5
223
100
AcDbEntity
  8
0
100
AcDbLine
 62
2
  6
CONTINUOUS
 10
12.2055050731
 20
2.5672823554
 11
12.2294470864
 21
2.5672823554
  0
ARC
  5
224
100
AcDbEntity
  8
0
100
AcDbCircle
 62
2
  6
CONTINUOUS
 10
12.2294470882
 20
2.5648073559
 40
0.0024749995
100
AcDbArc
 50
359.9999571957
 51
90.0000428043
  0
LINE
  5
225
100
AcDbEntity
  8
0
100
AcDbLine
 62
2
  6
CONTINUOUS
 10
12.2319220877
 20
2.564807354
 11
12.2319220877
 21
2.5184523283
  0
ARC
  5
226
100
AcDbEntity
  8
0
100
AcDbCircle
 62
2
  6
CONTINUOUS
 10
12.2294470882
 20
2.5184523265
 40
0.0024749995
100
AcDbArc
 50
269.9999571957
 51
0.0000428043
  0
LINE
  5
227
100
AcDbEntity
  8
0
100
AcDbLine
 62
2
  6
CONTINUOUS
 10
12.2294470864
 20
2.515977327
 11
12.2055050731
 21
2.515977327
  0
ARC
  5
228
100
AcDbEntity
  8
0
100
AcDbCircle
 62
2
  6
CONTINUOUS
 10
12.2055050712
 20
2.5135023274
 40
0.0024749995
100
AcDbArc
 50
89.9999571957
 51
180.0000428043
  0
LINE
  5
229
100
AcDbEntity
  8
0
100
AcDbLine
 62
2
  6
CONTINUOUS
 10
12.2030300717
 20
2.5135023256
 11
12.2030300717
 21
2.4937023146
  0
ARC
  5
22A
100
AcDbEntity
  8
0
100
AcDbCircle
 62
2
  6
CONTINUOUS
 10
12.2055050712
 20
2.4937023128
 40
0.0024749995
100
AcDbArc
 50
179.9999571957
 51
270.0000428043
  0
LINE
  5
22B
100
AcDbEntity
  8
0
100
AcDbLine
 62
2
  6
CONTINUOUS
 10
12.2055050731
 20
2.4912273132
 11
12.3819511709
 21
2.4912273132
  0
ARC
  5
22C
100
AcDbEntity
  8
0
100
AcDbCircle
 62
2
  6
CONTINUOUS
 10
12.3792298263
 20
2.539634765
 40
0.048483885
100
AcDbArc
 50
273.21763719
 51
303.0749121182
  0
ARC
  5
22D
100
AcDbEntity
  8
0
100
AcDbCircle
 62
2
  6
CONTINUOUS
 10
12.3940692204
 20
2.5168671561
 40
0.0213072145
100
AcDbArc
 50
303.0488228549
 51
355.7263138674
  0
LINE
  5
22E
100
AcDbEntity
  8
0
100
AcDbLine
 62
2
  6
CONTINUOUS
 10
12.2949101227
 20
2.5499573458
 11
12.3362731456
 21
2.5499573458
  0
ARC
  5
22F
100
AcDbEntity
  8
0
100
AcDbCircle
 62
2
  6
CONTINUOUS
 10
12.3362731456
 20
2.5586198506
 40
0.0086625048
100
AcDbArc
 50
270.0
 51
90.0
  0
LINE
  5
230
100
AcDbEntity
  8
0
100
AcDbLine
 62
2
  6
CONTINUOUS
 10
12.3362731456
 20
2.5672823554
 11
12.2949101227
 21
2.5672823554
  0
ARC
  5
231
100
AcDbEntity
  8
0
100
AcDbCircle
 62
2
  6
CONTINUOUS
 10
12.2949101208
 20
2.5648073559
 40
0.0024749995
100
AcDbArc
 50
89.9999571957
 51
180.0000428043
  0
LINE
  5
232
100
AcDbEntity
  8
0
100
AcDbLine
 62
2
  6
CONTINUOUS
 10
12.2924351213
 20
2.564807354
 11
12.2924351213
 21
2.5524323472
  0
ARC
  5
233
100
AcDbEntity
  8
0
100
AcDbCircle
 62
2
  6
CONTINUOUS
 10
12.2949101208
 20
2.5524323453
 40
0.0024749995
100
AcDbArc
 50
179.9999571957
 51
270.0000428043
  0
LINE
  5
234
100
AcDbEntity
  8
0
100
AcDbLine
 62
2
  6
CONTINUOUS
 10
12.2924351213
 20
2.5184523283
 11
12.2924351213
 21
2.5308273352
  0
ARC
  5
235
100
AcDbEntity
  8
0
100
AcDbCircle
 62
2
  6
CONTINUOUS
 10
12.2949101208
 20
2.530827337
 40
0.0024749995
100
AcDbArc
 50
89.9999571957
 51
180.0000428043
  0
LINE
  5
236
100
AcDbEntity
  8
0
100
AcDbLine
 62
2
  6
CONTINUOUS
 10
12.2949101227
 20
2.5333023366
 11
12.3362731456
 21
2.5333023366
  0
ARC
  5
237
100
AcDbEntity
  8
0
100
AcDbCircle
 62
2
  6
CONTINUOUS
 10
12.3362731456
 20
2.5246398318
 40
0.0086625048
100
AcDbArc
 50
270.0
 51
90.0
  0
LINE
  5
238
100
AcDbEntity
  8
0
100
AcDbLine
 62
2
  6
CONTINUOUS
 10
12.3362731456
 20
2.515977327
 11
12.2949101227
 21
2.515977327
  0
ARC
  5
239
100
AcDbEntity
  8
0
100
AcDbCircle
 62
2
  6
CONTINUOUS
 10
12.2949101208
 20
2.5184523265
 40
0.0024749995
100
AcDbArc
 50
179.9999571957
 51
270.0000428043
  0
ARC
  5
23A
100
AcDbEntity
  8
0
100
AcDbCircle
 62
2
  6
CONTINUOUS
 10
13.5806801742
 20
2.5212486481
 40
0.044722495
100
AcDbArc
 50
195.531588407
 51
204.7624440448
  0
LINE
  5
23B
100
AcDbEntity
  8
0
100
AcDbLine
 62
2
  6
CONTINUOUS
 10
13.5375908118
 20
2.5092733232
 11
13.5357868108
 21
2.5153423266
  0
ARC
  5
23C
100
AcDbEntity
  8
0
100
AcDbCircle
 62
2
  6
CONTINUOUS
 10
13.4974076135
 20
2.5055452462
 40
0.0396099176
100
AcDbArc
 50
14.3201081283
 51
22.4984722084
  0
ARC
  5
23D
100
AcDbEntity
  8
0
100
AcDbCircle
 62
2
  6
CONTINUOUS
 10
13.5201739219
 20
2.5145168728
 40
0.0151491919
100
AcDbArc
 50
24.098260853
 51
63.0369451818
  0
ARC
  5
23E
100
AcDbEntity
  8
0
100
AcDbCircle
 62
2
  6
CONTINUOUS
 10
13.5161192671
 20
2.5062372524
 40
0.0243676582
100
AcDbArc
 50
63.3666028271
 51
90.3937697637
  0
LINE
  5
23F
100
AcDbEntity
  8
0
100
AcDbLine
 62
2
  6
CONTINUOUS
 10
13.5159517998
 20
2.5306043351
 11
13.4883447845
 21
2.5306043351
  0
ARC
  5
240
100
AcDbEntity
  8
0
100
AcDbCircle
 62
2
  6
CONTINUOUS
 10
13.4883447827
 20
2.5281293355
 40
0.0024749995
100
AcDbArc
 50
89.9999571957
 51
180.0000428043
  0
LINE
  5
241
100
AcDbEntity
  8
0
100
AcDbLine
 62
2
  6
CONTINUOUS
 10
13.4858697831
 20
2.5281293337
 11
13.4858697831
 21
2.5184303283
  0
ARC
  5
242
100
AcDbEntity
  8
0
100
AcDbCircle
 62
2
  6
CONTINUOUS
 10
13.4883447827
 20
2.5184303265
 40
0.0024749995
100
AcDbArc
 50
179.9999571957
 51
270.0000428043
  0
LINE
  5
243
100
AcDbEntity
  8
0
100
AcDbLine
 62
2
  6
CONTINUOUS
 10
13.4883447845
 20
2.5159553269
 11
13.5130037982
 21
2.5159553269
  0
ARC
  5
244
100
AcDbEntity
  8
0
100
AcDbCircle
 62
2
  6
CONTINUOUS
 10
13.5130038
 20
2.5134803274
 40
0.0024749995
100
AcDbArc
 50
359.9999571957
 51
90.0000428043
  0
LINE
  5
245
100
AcDbEntity
  8
0
100
AcDbLine
 62
2
  6
CONTINUOUS
 10
13.5154787995
 20
2.5134803256
 11
13.5154787995
 21
2.4937023146
  0
ARC
  5
246
100
AcDbEntity
  8
0
100
AcDbCircle
 62
2
  6
CONTINUOUS
 10
13.5130038
 20
2.4937023128
 40
0.0024749995
100
AcDbArc
 50
269.9999571957
 51
0.0000428043
  0
LINE
  5
247
100
AcDbEntity
  8
0
100
AcDbLine
 62
2
  6
CONTINUOUS
 10
13.5130037982
 20
2.4912273132
 11
13.3994327352
 21
2.4912273132
  0
ARC
  5
248
100
AcDbEntity
  8
0
100
AcDbCircle
 62
2
  6
CONTINUOUS
 10
13.3994327333
 20
2.4937023128
 40
0.0024749995
100
AcDbArc
 50
179.9999571957
 51
270.0000428043
  0
LINE
  5
249
100
AcDbEntity
  8
0
100
AcDbLine
 62
2
  6
CONTINUOUS
 10
13.3969577338
 20
2.4937023146
 11
13.3969577338
 21
2.5135023256
  0
ARC
  5
24A
100
AcDbEntity
  8
0
100
AcDbCircle
 62
2
  6
CONTINUOUS
 10
13.3994327333
 20
2.5135023274
 40
0.0024749995
100
AcDbArc
 50
89.9999571957
 51
180.0000428043
  0
LINE
  5
24B
100
AcDbEntity
  8
0
100
AcDbLine
 62
2
  6
CONTINUOUS
 10
13.3994327352
 20
2.515977327
 11
13.4221787478
 21
2.515977327
  0
ARC
  5
24C
100
AcDbEntity
  8
0
100
AcDbCircle
 62
2
  6
CONTINUOUS
 10
13.4221787497
 20
2.5184523265
 40
0.0024749995
100
AcDbArc
 50
269.9999571957
 51
0.0000428042
  0
LINE
  5
24D
100
AcDbEntity
  8
0
100
AcDbLine
 62
2
  6
CONTINUOUS
 10
13.4246537492
 20
2.5184523283
 11
13.4246537492
 21
2.564807354
  0
ARC
  5
24E
100
AcDbEntity
  8
0
100
AcDbCircle
 62
2
  6
CONTINUOUS
 10
13.4221787497
 20
2.5648073559
 40
0.0024749995
100
AcDbArc
 50
359.9999571957
 51
90.0000428043
  0
LINE
  5
24F
100
AcDbEntity
  8
0
100
AcDbLine
 62
2
  6
CONTINUOUS
 10
13.4221787478
 20
2.5672823554
 11
13.3994327352
 21
2.5672823554
  0
ARC
  5
250
100
AcDbEntity
  8
0
100
AcDbCircle
 62
2
  6
CONTINUOUS
 10
13.3994327333
 20
2.5697573549
 40
0.0024749995
100
AcDbArc
 50
179.9999571957
 51
270.0000428043
  0
LINE
  5
251
100
AcDbEntity
  8
0
100
AcDbLine
 62
2
  6
CONTINUOUS
 10
13.3969577338
 20
2.5697573568
 11
13.3969577338
 21
2.5895573678
  0
ARC
  5
252
100
AcDbEntity
  8
0
100
AcDbCircle
 62
2
  6
CONTINUOUS
 10
13.3994327333
 20
2.5895573696
 40
0.0024749995
100
AcDbArc
 50
89.9999571957
 51
180.0000428043
  0
LINE
  5
253
100
AcDbEntity
  8
0
100
AcDbLine
 62
2
  6
CONTINUOUS
 10
13.3994327352
 20
2.5920323691
 11
13.5490138181
 21
2.5920323691
  0
ARC
  5
254
100
AcDbEntity
  8
0
100
AcDbCircle
 62
2
  6
CONTINUOUS
 10
13.5463505148
 20
2.4094934586
 40
0.1825583387
100
AcDbArc
 50
79.8618509324
 51
89.1640948679
  0
ARC
  5
255
100
AcDbEntity
  8
0
100
AcDbCircle
 62
2
  6
CONTINUOUS
 10
13.5726548052
 20
2.5503169747
 40
0.039319019
100
AcDbArc
 50
59.1202086415
 51
81.4730239328
  0
ARC
  5
256
100
AcDbEntity
  8
0
100
AcDbCircle
 62
2
  6
CONTINUOUS
 10
13.5783142014
 20
2.5566516438
 40
0.0310192946
100
AcDbArc
 50
34.7540871
 51
62.0879016178
  0
ARC
  5
257
100
AcDbEntity
  8
0
100
AcDbCircle
 62
2
  6
CONTINUOUS
 10
13.5900029525
 20
2.565201245
 40
0.0165459396
100
AcDbArc
 50
1.548452892
 51
33.5033152417
  0
ARC
  5
258
100
AcDbEntity
  8
0
100
AcDbCircle
 62
2
  6
CONTINUOUS
 10
13.5932995477
 20
2.5653696972
 40
0.0132462337
100
AcDbArc
 50
331.1510006998
 51
1.205404301
  0
ARC
  5
259
100
AcDbEntity
  8
0
100
AcDbCircle
 62
2
  6
CONTINUOUS
 10
13.5822888914
 20
2.5720482849
 40
0.0261183659
100
AcDbArc
 50
305.6373831893
 51
329.9727629745
  0
ARC
  5
25A
100
AcDbEntity
  8
0
100
AcDbCircle
 62
2
  6
CONTINUOUS
 10
13.5519569538
 20
2.6152551345
 40
0.0789082104
100
AcDbArc
 50
292.906155071
 51
305.2574666259
  0
ARC
  5
25B
100
AcDbEntity
  8
0
100
AcDbCircle
 62
2
  6
CONTINUOUS
 10
13.5282557878
 20
2.4386010294
 40
0.117346916
100
AcDbArc
 50
58.614769177
 51
62.3737227606
  0
ARC
  5
25C
100
AcDbEntity
  8
0
100
AcDbCircle
 62
2
  6
CONTINUOUS
 10
13.5761387404
 20
2.5167282896
 40
0.0257145923
100
AcDbArc
 50
39.3804255939
 51
59.0361096173
  0
ARC
  5
25D
100
AcDbEntity
  8
0
100
AcDbCircle
 62
2
  6
CONTINUOUS
 10
13.5750183849
 20
2.5166552064
 40
0.0266349791
100
AcDbArc
 50
20.3630922153
 51
37.9727053099
  0
ARC
  5
25E
100
AcDbEntity
  8
0
100
AcDbCircle
 62
2
  6
CONTINUOUS
 10
13.5571178432
 20
2.509473798
 40
0.0459185159
100
AcDbArc
 50
15.6740290068
 51
20.9917271228
  0
ARC
  5
25F
100
AcDbEntity
  8
0
100
AcDbCircle
 62
2
  6
CONTINUOUS
 10
13.6156881783
 20
2.525116781
 40
0.0147197649
100
AcDbArc
 50
192.7054516565
 51
206.0594861022
  0
ARC
  5
260
100
AcDbEntity
  8
0
100
AcDbCircle
 62
2
  6
CONTINUOUS
 10
13.6071938412
 20
2.5209082945
 40
0.0052403997
100
AcDbArc
 50
205.5232099488
 51
227.5054868079
  0
ARC
  5
261
100
AcDbEntity
  8
0
100
AcDbCircle
 62
2
  6
CONTINUOUS
 10
13.6054655419
 20
2.5190929218
 40
0.0027347709
100
AcDbArc
 50
228.5117626737
 51
266.1485845754
  0
LINE
  5
262
100
AcDbEntity
  8
0
100
AcDbLine
 62
2
  6
CONTINUOUS
 10
13.6052818493
 20
2.5163643272
 11
13.60639085
 21
2.5163643272
  0
ARC
  5
263
100
AcDbEntity
  8
0
100
AcDbCircle
 62
2
  6
CONTINUOUS
 10
13.6063292954
 20
2.5296129864
 40
0.0132488022
100
AcDbArc
 50
270.266200055
 51
281.2404888597
  0
ARC
  5
264
100
AcDbEntity
  8
0
100
AcDbCircle
 62
2
  6
CONTINUOUS
 10
13.6075235364
 20
2.5238762928
 40
0.0073895522
100
AcDbArc
 50
280.8288201977
 51
305.0837508495
  0
ARC
  5
265
100
AcDbEntity
  8
0
100
AcDbCircle
 62
2
  6
CONTINUOUS
 10
13.607924718
 20
2.5230254464
 40
0.0064647042
100
AcDbArc
 50
306.5086174083
 51
340.2162360092
  0
ARC
  5
266
100
AcDbEntity
  8
0
100
AcDbCircle
 62
2
  6
CONTINUOUS
 10
13.6027235414
 20
2.524769508
 40
0.0119498009
100
AcDbArc
 50
340.7883861657
 51
1.1691452593
  0
LINE
  5
267
100
AcDbEntity
  8
0
100
AcDbLine
 62
2
  6
CONTINUOUS
 10
13.6146708546
 20
2.525013332
 11
13.6146708546
 21
2.5276393334
  0
ARC
  5
268
100
AcDbEntity
  8
0
100
AcDbCircle
 62
2
  6
CONTINUOUS
 10
13.6171458541
 20
2.5276393353
 40
0.0024749995
100
AcDbArc
 50
89.9999571957
 51
180.0000428043
  0
LINE
  5
269
100
AcDbEntity
  8
0
100
AcDbLine
 62
2
  6
CONTINUOUS
 10
13.6171458559
 20
2.5301143348
 11
13.6292558626
 21
2.5301143348
  0
ARC
  5
26A
100
AcDbEntity
  8
0
100
AcDbCircle
 62
2
  6
CONTINUOUS
 10
13.6292558645
 20
2.5276393353
 40
0.0024749995
100
AcDbArc
 50
359.9999571957
 51
90.0000428043
  0
LINE
  5
26B
100
AcDbEntity
  8
0
100
AcDbLine
 62
2
  6
CONTINUOUS
 10
13.631730864
 20
2.5276393334
 11
13.631730864
 21
2.516087327
  0
ARC
  5
26C
100
AcDbEntity
  8
0
100
AcDbCircle
 62
2
  6
CONTINUOUS
 10
13.6141751675
 20
2.5161916447
 40
0.0175560065
100
AcDbArc
 50
332.2279060967
 51
359.6595469939
  0
ARC
  5
26D
100
AcDbEntity
  8
0
100
AcDbCircle
 62
2
  6
CONTINUOUS
 10
13.6048681567
 20
2.5210861501
 40
0.0280715479
100
AcDbArc
 50
308.5071794988
 51
332.2400656899
  0
ARC
  5
26E
100
AcDbEntity
  8
0
100
AcDbCircle
 62
2
  6
CONTINUOUS
 10
13.5978759713
 20
2.5286873679
 40
0.0383802683
100
AcDbArc
 50
288.7656836787
 51
309.6104317088
  0
ARC
  5
26F
100
AcDbEntity
  8
0
100
AcDbCircle
 62
2
  6
CONTINUOUS
 10
13.6036139387
 20
2.5111006186
 40
0.0198837666
100
AcDbArc
 50
271.8586572978
 51
289.4131338543
  0
LINE
  5
270
100
AcDbEntity
  8
0
100
AcDbLine
 62
2
  6
CONTINUOUS
 10
13.6042588488
 20
2.4912273132
 11
13.5568948225
 21
2.4912273132
  0
ARC
  5
271
100
AcDbEntity
  8
0
100
AcDbCircle
 62
2
  6
CONTINUOUS
 10
13.5577001432
 20
2.5085494649
 40
0.0173408616
100
AcDbArc
 50
232.4713476722
 51
267.338189944
  0
ARC
  5
272
100
AcDbEntity
  8
0
100
AcDbCircle
 62
2
  6
CONTINUOUS
 10
13.5607987082
 20
2.5143997688
 40
0.0238935861
100
AcDbArc
 50
209.8247607259
 51
235.1255079367
  0
ARC
  5
273
100
AcDbEntity
  8
0
100
AcDbCircle
 62
2
  6
CONTINUOUS
 10
13.5295131508
 20
2.5629115009
 40
0.0110815393
100
AcDbArc
 50
306.758405961
 51
320.4502234234
  0
ARC
  5
274
100
AcDbEntity
  8
0
100
AcDbCircle
 62
2
  6
CONTINUOUS
 10
13.5238839599
 20
2.5706523294
 40
0.0206523367
100
AcDbArc
 50
289.6883413472
 51
306.4184925496
  0
ARC
  5
275
100
AcDbEntity
  8
0
100
AcDbCircle
 62
2
  6
CONTINUOUS
 10
13.5219564542
 20
2.5750459767
 40
0.0254407115
100
AcDbArc
 50
270.7327484175
 51
290.441894219
  0
LINE
  5
276
100
AcDbEntity
  8
0
100
AcDbLine
 62
2
  6
CONTINUOUS
 10
13.5222818033
 20
2.5496073456
 11
13.4883447845
 21
2.5496073456
  0
ARC
  5
277
100
AcDbEntity
  8
0
100
AcDbCircle
 62
2
  6
CONTINUOUS
 10
13.4883447827
 20
2.5520823451
 40
0.0024749995
100
AcDbArc
 50
179.9999571957
 51
270.0000428043
  0
LINE
  5
278
100
AcDbEntity
  8
0
100
AcDbLine
 62
2
  6
CONTINUOUS
 10
13.4858697831
 20
2.552082347
 11
13.4858697831
 21
2.564807354
  0
ARC
  5
279
100
AcDbEntity
  8
0
100
AcDbCircle
 62
2
  6
CONTINUOUS
 10
13.4883447827
 20
2.5648073559
 40
0.0024749995
100
AcDbArc
 50
89.9999571957
 51
180.0000428043
  0
LINE
  5
27A
100
AcDbEntity
  8
0
100
AcDbLine
 62
2
  6
CONTINUOUS
 10
13.4883447845
 20
2.5672823554
 11
13.5251458049
 21
2.5672823554
  0
ARC
  5
27B
100
AcDbEntity
  8
0
100
AcDbCircle
 62
2
  6
CONTINUOUS
 10
13.5236009174
 20
2.5388278764
 40
0.0284963867
100
AcDbArc
 50
70.3834917948
 51
86.8922743861
  0
ARC
  5
27C
100
AcDbEntity
  8
0
100
AcDbCircle
 62
2
  6
CONTINUOUS
 10
13.5284605274
 20
2.5518696094
 40
0.0145814632
100
AcDbArc
 50
54.6746025112
 51
71.1660573124
  0
ARC
  5
27D
100
AcDbEntity
  8
0
100
AcDbCircle
 62
2
  6
CONTINUOUS
 10
13.5335900184
 20
2.5587235346
 40
0.0060275915
100
AcDbArc
 50
20.9055592135
 51
56.7851676243
  0
ARC
  5
27E
100
AcDbEntity
  8
0
100
AcDbCircle
 62
2
  6
CONTINUOUS
 10
13.5348905773
 20
2.5593838168
 40
0.0045795888
100
AcDbArc
 50
355.6235353944
 51
18.9942678268
  0
ARC
  5
27F
100
AcDbEntity
  8
0
100
AcDbCircle
 62
2
  6
CONTINUOUS
 10
13.533683767
 20
2.559677593
 40
0.0058087709
100
AcDbArc
 50
318.8515287446
 51
353.6422345323
  0
LINE
  5
280
100
AcDbEntity
  8
0
100
AcDbLine
 62
2
  6
CONTINUOUS
 10
12.672340332
 20
2.5920323691
 11
12.7727983877
 21
2.5920323691
  0
ARC
  5
281
100
AcDbEntity
  8
0
100
AcDbCircle
 62
2
  6
CONTINUOUS
 10
12.7727985224
 20
2.5895582013
 40
0.0024741678
100
AcDbArc
 50
46.3477981899
 51
90.0031206038
  0
LINE
  5
282
100
AcDbEntity
  8
0
100
AcDbLine
 62
2
  6
CONTINUOUS
 10
12.7745063886
 20
2.5913483688
 11
12.8345394219
 21
2.534068337
  0
ARC
  5
283
100
AcDbEntity
  8
0
100
AcDbCircle
 62
2
  6
CONTINUOUS
 10
12.8362481229
 20
2.5358592748
 40
0.0024753014
100
AcDbArc
 50
226.3461263059
 51
0.0014637321
  0
LINE
  5
284
100
AcDbEntity
  8
0
100
AcDbLine
 62
2
  6
CONTINUOUS
 10
12.8387234242
 20
2.535859338
 11
12.8387234242
 21
2.564807354
  0
ARC
  5
285
100
AcDbEntity
  8
0
100
AcDbCircle
 62
2
  6
CONTINUOUS
 10
12.8362484247
 20
2.5648073559
 40
0.0024749995
100
AcDbArc
 50
359.9999571957
 51
90.0000428043
  0
LINE
  5
286
100
AcDbEntity
  8
0
100
AcDbLine
 62
2
  6
CONTINUOUS
 10
12.8362484229
 20
2.5672823554
 11
12.8174724125
 21
2.5672823554
  0
ARC
  5
287
100
AcDbEntity
  8
0
100
AcDbCircle
 62
2
  6
CONTINUOUS
 10
12.8174724106
 20
2.5697573549
 40
0.0024749995
100
AcDbArc
 50
179.9999571957
 51
270.0000428043
  0
LINE
  5
288
100
AcDbEntity
  8
0
100
AcDbLine
 62
2
  6
CONTINUOUS
 10
12.8149974111
 20
2.5697573568
 11
12.8149974111
 21
2.5895573678
  0
ARC
  5
289
100
AcDbEntity
  8
0
100
AcDbCircle
 62
2
  6
CONTINUOUS
 10
12.8174724106
 20
2.5895573696
 40
0.0024749995
100
AcDbArc
 50
89.9999571957
 51
180.0000428043
  0
LINE
  5
28A
100
AcDbEntity
  8
0
100
AcDbLine
 62
2
  6
CONTINUOUS
 10
12.8174724125
 20
2.5920323691
 11
12.8914734535
 21
2.5920323691
  0
ARC
  5
28B
100
AcDbEntity
  8
0
100
AcDbCircle
 62
2
  6
CONTINUOUS
 10
12.8914734553
 20
2.5895573696
 40
0.0024749995
100
AcDbArc
 50
359.9999571957
 51
90.0000428043
  0
LINE
  5
28C
100
AcDbEntity
  8
0
100
AcDbLine
 62
2
  6
CONTINUOUS
 10
12.8939484549
 20
2.5895573678
 11
12.8939484549
 21
2.5697573568
  0
ARC
  5
28D
100
AcDbEntity
  8
0
100
AcDbCircle
 62
2
  6
CONTINUOUS
 10
12.8914734553
 20
2.5697573549
 40
0.0024749995
100
AcDbArc
 50
269.9999571957
 51
0.0000428043
  0
LINE
  5
28E
100
AcDbEntity
  8
0
100
AcDbLine
 62
2
  6
CONTINUOUS
 10
12.8914734535
 20
2.5672823554
 11
12.8735404436
 21
2.5672823554
  0
ARC
  5
28F
100
AcDbEntity
  8
0
100
AcDbCircle
 62
2
  6
CONTINUOUS
 10
12.8735404417
 20
2.5648073559
 40
0.0024749995
100
AcDbArc
 50
89.9999571957
 51
180.0000428043
  0
LINE
  5
290
100
AcDbEntity
  8
0
100
AcDbLine
 62
2
  6
CONTINUOUS
 10
12.8710654422
 20
2.564807354
 11
12.8710654422
 21
2.4937023146
  0
ARC
  5
291
100
AcDbEntity
  8
0
100
AcDbCircle
 62
2
  6
CONTINUOUS
 10
12.8685904427
 20
2.4937023128
 40
0.0024749995
100
AcDbArc
 50
269.9999571957
 51
0.0000428043
  0
LINE
  5
292
100
AcDbEntity
  8
0
100
AcDbLine
 62
2
  6
CONTINUOUS
 10
12.8685904408
 20
2.4912273132
 11
12.7943853997
 21
2.4912273132
  0
ARC
  5
293
100
AcDbEntity
  8
0
100
AcDbCircle
 62
2
  6
CONTINUOUS
 10
12.7943847649
 20
2.4937027294
 40
0.0024754162
100
AcDbArc
 50
226.3593695813
 51
270.0146919953
  0
LINE
  5
294
100
AcDbEntity
  8
0
100
AcDbLine
 62
2
  6
CONTINUOUS
 10
12.7926763987
 20
2.4919113136
 11
12.7293963636
 21
2.5522893471
  0
ARC
  5
295
100
AcDbEntity
  8
0
100
AcDbCircle
 62
2
  6
CONTINUOUS
 10
12.7276876627
 20
2.5504984093
 40
0.0024753014
100
AcDbArc
 50
46.3461263059
 51
180.0014637321
  0
LINE
  5
296
100
AcDbEntity
  8
0
100
AcDbLine
 62
2
  6
CONTINUOUS
 10
12.7252123613
 20
2.5504983461
 11
12.7252123613
 21
2.5184523283
  0
ARC
  5
297
100
AcDbEntity
  8
0
100
AcDbCircle
 62
2
  6
CONTINUOUS
 10
12.7276873608
 20
2.5184523265
 40
0.0024749995
100
AcDbArc
 50
179.9999571957
 51
270.0000428043
  0
LINE
  5
298
100
AcDbEntity
  8
0
100
AcDbLine
 62
2
  6
CONTINUOUS
 10
12.7276873627
 20
2.515977327
 11
12.7480043739
 21
2.515977327
  0
ARC
  5
299
100
AcDbEntity
  8
0
100
AcDbCircle
 62
2
  6
CONTINUOUS
 10
12.7480043758
 20
2.5135023274
 40
0.0024749995
100
AcDbArc
 50
359.9999571957
 51
90.0000428043
  0
LINE
  5
29A
100
AcDbEntity
  8
0
100
AcDbLine
 62
2
  6
CONTINUOUS
 10
12.7504793753
 20
2.5135023256
 11
12.7504793753
 21
2.4937023146
  0
ARC
  5
29B
100
AcDbEntity
  8
0
100
AcDbCircle
 62
2
  6
CONTINUOUS
 10
12.7480043758
 20
2.4937023128
 40
0.0024749995
100
AcDbArc
 50
269.9999571957
 51
0.0000428043
  0
LINE
  5
29C
100
AcDbEntity
  8
0
100
AcDbLine
 62
2
  6
CONTINUOUS
 10
12.7480043739
 20
2.4912273132
 11
12.672340332
 21
2.4912273132
  0
ARC
  5
29D
100
AcDbEntity
  8
0
100
AcDbCircle
 62
2
  6
CONTINUOUS
 10
12.6723403301
 20
2.4937023128
 40
0.0024749995
100
AcDbArc
 50
179.9999571957
 51
270.0000428043
  0
LINE
  5
29E
100
AcDbEntity
  8
0
100
AcDbLine
 62
2
  6
CONTINUOUS
 10
12.6698653306
 20
2.4937023146
 11
12.6698653306
 21
2.5135023256
  0
ARC
  5
29F
100
AcDbEntity
  8
0
100
AcDbCircle
 62
2
  6
CONTINUOUS
 10
12.6723403301
 20
2.5135023274
 40
0.0024749995
100
AcDbArc
 50
89.9999571957
 51
180.0000428043
  0
LINE
  5
2A0
100
AcDbEntity
  8
0
100
AcDbLine
 62
2
  6
CONTINUOUS
 10
12.672340332
 20
2.515977327
 11
12.6909873423
 21
2.515977327
  0
ARC
  5
2A1
100
AcDbEntity
  8
0
100
AcDbCircle
 62
2
  6
CONTINUOUS
 10
12.6909873442
 20
2.5184523265
 40
0.0024749995
100
AcDbArc
 50
269.9999571957
 51
0.0000428043
  0
LINE
  5
2A2
100
AcDbEntity
  8
0
100
AcDbLine
 62
2
  6
CONTINUOUS
 10
12.6934623437
 20
2.5184523283
 11
12.6934623437
 21
2.564807354
  0
ARC
  5
2A3
100
AcDbEntity
  8
0
100
AcDbCircle
 62
2
  6
CONTINUOUS
 10
12.6909873442
 20
2.5648073559
 40
0.0024749995
100
AcDbArc
 50
359.9999571957
 51
90.0000428043
  0
LINE
  5
2A4
100
AcDbEntity
  8
0
100
AcDbLine
 62
2
  6
CONTINUOUS
 10
12.6909873423
 20
2.5672823554
 11
12.672340332
 21
2.5672823554
  0
ARC
  5
2A5
100
AcDbEntity
  8
0
100
AcDbCircle
 62
2
  6
CONTINUOUS
 10
12.6723403301
 20
2.5697573549
 40
0.0024749995
100
AcDbArc
 50
179.9999571957
 51
270.0000428043
  0
LINE
  5
2A6
100
AcDbEntity
  8
0
100
AcDbLine
 62
2
  6
CONTINUOUS
 10
12.6698653306
 20
2.5697573568
 11
12.6698653306
 21
2.5895573678
  0
ARC
  5
2A7
100
AcDbEntity
  8
0
100
AcDbCircle
 62
2
  6
CONTINUOUS
 10
12.6723403301
 20
2.5895573696
 40
0.0024749995
100
AcDbArc
 50
89.9999571957
 51
180.0000428043
  0
LINE
  5
2A8
100
AcDbEntity
  8
0
100
AcDbLine
 62
2
  6
CONTINUOUS
 10
12.5246402501
 20
2.5655893545
 11
12.5175232461
 21
2.5543723483
  0
ARC
  5
2A9
100
AcDbEntity
  8
0
100
AcDbCircle
 62
2
  6
CONTINUOUS
 10
12.519613138
 20
2.5530463862
 40
0.0024750401
100
AcDbArc
 50
147.6063258012
 51
270.0025305754
  0
LINE
  5
2AA
100
AcDbEntity
  8
0
100
AcDbLine
 62
2
  6
CONTINUOUS
 10
12.5196132473
 20
2.5505713461
 11
12.5401702587
 21
2.5505713461
  0
ARC
  5
2AB
100
AcDbEntity
  8
0
100
AcDbCircle
 62
2
  6
CONTINUOUS
 10
12.5401702375
 20
2.5530465533
 40
0.0024752071
100
AcDbArc
 50
270.0004896793
 51
32.9089806818
  0
LINE
  5
2AC
100
AcDbEntity
  8
0
100
AcDbLine
 62
2
  6
CONTINUOUS
 10
12.5422482598
 20
2.5543913483
 11
12.5349892558
 21
2.5656073545
  0
ARC
  5
2AD
100
AcDbEntity
  8
0
100
AcDbCircle
 62
2
  6
CONTINUOUS
 10
12.532910715
 20
2.564262895
 40
0.0024754602
100
AcDbArc
 50
32.8959418573
 51
89.9875097202
  0
LINE
  5
2AE
100
AcDbEntity
  8
0
100
AcDbLine
 62
2
  6
CONTINUOUS
 10
12.5329112547
 20
2.5667383551
 11
12.5267302512
 21
2.5667383551
  0
ARC
  5
2AF
100
AcDbEntity
  8
0
100
AcDbCircle
 62
2
  6
CONTINUOUS
 10
12.5267301809
 20
2.5642631548
 40
0.0024752003
100
AcDbArc
 50
89.998372645
 51
147.602165307
  0
LINE
  5
2B0
100
AcDbEntity
  8
0
100
AcDbLine
 62
2
  6
CONTINUOUS
 10
12.548053263
 20
2.5284903339
 11
12.5536792662
 21
2.5197973291
  0
ARC
  5
2B1
100
AcDbEntity
  8
0
100
AcDbCircle
 62
2
  6
CONTINUOUS
 10
12.5516012439
 20
2.5184525341
 40
0.0024752071
100
AcDbArc
 50
270.0004896794
 51
32.9089806818
  0
LINE
  5
2B2
100
AcDbEntity
  8
0
100
AcDbLine
 62
2
  6
CONTINUOUS
 10
12.551601265
 20
2.515977327
 11
12.537150257
 21
2.515977327
  0
ARC
  5
2B3
100
AcDbEntity
  8
0
100
AcDbCircle
 62
2
  6
CONTINUOUS
 10
12.5371502552
 20
2.5135023274
 40
0.0024749995
100
AcDbArc
 50
89.9999571957
 51
180.0000428043
  0
LINE
  5
2B4
100
AcDbEntity
  8
0
100
AcDbLine
 62
2
  6
CONTINUOUS
 10
12.5346752556
 20
2.5135023256
 11
12.5346752556
 21
2.4937023146
  0
ARC
  5
2B5
100
AcDbEntity
  8
0
100
AcDbCircle
 62
2
  6
CONTINUOUS
 10
12.5371502552
 20
2.4937023128
 40
0.0024749995
100
AcDbArc
 50
179.9999571957
 51
270.0000428043
  0
LINE
  5
2B6
100
AcDbEntity
  8
0
100
AcDbLine
 62
2
  6
CONTINUOUS
 10
12.537150257
 20
2.4912273132
 11
12.6424313154
 21
2.4912273132
  0
ARC
  5
2B7
100
AcDbEntity
  8
0
100
AcDbCircle
 62
2
  6
CONTINUOUS
 10
12.6424313172
 20
2.4937023128
 40
0.0024749995
100
AcDbArc
 50
269.9999571957
 51
0.0000428043
  0
LINE
  5
2B8
100
AcDbEntity
  8
0
100
AcDbLine
 62
2
  6
CONTINUOUS
 10
12.6449063168
 20
2.4937023146
 11
12.6449063168
 21
2.5135023256
  0
ARC
  5
2B9
100
AcDbEntity
  8
0
100
AcDbCircle
 62
2
  6
CONTINUOUS
 10
12.6424313172
 20
2.5135023274
 40
0.0024749995
100
AcDbArc
 50
359.9999571957
 51
90.0000428043
  0
LINE
  5
2BA
100
AcDbEntity
  8
0
100
AcDbLine
 62
2
  6
CONTINUOUS
 10
12.6424313154
 20
2.515977327
 11
12.6224153043
 21
2.515977327
  0
ARC
  5
2BB
100
AcDbEntity
  8
0
100
AcDbCircle
 62
2
  6
CONTINUOUS
 10
12.6224154248
 20
2.518451368
 40
0.002474041
100
AcDbArc
 50
212.9056413127
 51
269.9972091756
  0
LINE
  5
2BC
100
AcDbEntity
  8
0
100
AcDbLine
 62
2
  6
CONTINUOUS
 10
12.6203383031
 20
2.5171073276
 11
12.5725822767
 21
2.5909023685
  0
ARC
  5
2BD
100
AcDbEntity
  8
0
100
AcDbCircle
 62
2
  6
CONTINUOUS
 10
12.570504655
 20
2.589557409
 40
0.0024749602
100
AcDbArc
 50
32.9172174468
 51
90.0087853097
  0
LINE
  5
2BE
100
AcDbEntity
  8
0
100
AcDbLine
 62
2
  6
CONTINUOUS
 10
12.5705042755
 20
2.5920323691
 11
12.5133292438
 21
2.5920323691
  0
ARC
  5
2BF
100
AcDbEntity
  8
0
100
AcDbCircle
 62
2
  6
CONTINUOUS
 10
12.5133291735
 20
2.5895571688
 40
0.0024752003
100
AcDbArc
 50
89.9983726451
 51
147.602165307
  0
LINE
  5
2C0
100
AcDbEntity
  8
0
100
AcDbLine
 62
2
  6
CONTINUOUS
 10
12.5112392426
 20
2.5908833685
 11
12.4644392167
 21
2.5171263276
  0
ARC
  5
2C1
100
AcDbEntity
  8
0
100
AcDbCircle
 62
2
  6
CONTINUOUS
 10
12.4623492858
 20
2.5184525273
 40
0.0024752003
100
AcDbArc
 50
269.9983726451
 51
327.602165307
  0
LINE
  5
2C2
100
AcDbEntity
  8
0
100
AcDbLine
 62
2
  6
CONTINUOUS
 10
12.4623492155
 20
2.515977327
 11
12.4394882028
 21
2.515977327
  0
ARC
  5
2C3
100
AcDbEntity
  8
0
100
AcDbCircle
 62
2
  6
CONTINUOUS
 10
12.439488201
 20
2.5135023274
 40
0.0024749995
100
AcDbArc
 50
89.9999571957
 51
180.0000428043
  0
LINE
  5
2C4
100
AcDbEntity
  8
0
100
AcDbLine
 62
2
  6
CONTINUOUS
 10
12.4370132015
 20
2.5135023256
 11
12.4370132015
 21
2.4937023146
  0
ARC
  5
2C5
100
AcDbEntity
  8
0
100
AcDbCircle
 62
2
  6
CONTINUOUS
 10
12.439488201
 20
2.4937023128
 40
0.0024749995
100
AcDbArc
 50
179.9999571957
 51
270.0000428043
  0
LINE
  5
2C6
100
AcDbEntity
  8
0
100
AcDbLine
 62
2
  6
CONTINUOUS
 10
12.4394882028
 20
2.4912273132
 11
12.5168642458
 21
2.4912273132
  0
ARC
  5
2C7
100
AcDbEntity
  8
0
100
AcDbCircle
 62
2
  6
CONTINUOUS
 10
12.5168642476
 20
2.4937023128
 40
0.0024749995
100
AcDbArc
 50
269.9999571957
 51
0.0000428043
  0
LINE
  5
2C8
100
AcDbEntity
  8
0
100
AcDbLine
 62
2
  6
CONTINUOUS
 10
12.5193392471
 20
2.4937023146
 11
12.5193392471
 21
2.5135023256
  0
ARC
  5
2C9
100
AcDbEntity
  8
0
100
AcDbCircle
 62
2
  6
CONTINUOUS
 10
12.5168642476
 20
2.5135023274
 40
0.0024749995
100
AcDbArc
 50
359.9999571957
 51
90.0000428043
  0
LINE
  5
2CA
100
AcDbEntity
  8
0
100
AcDbLine
 62
2
  6
CONTINUOUS
 10
12.5168642458
 20
2.515977327
 11
12.5055812395
 21
2.515977327
  0
ARC
  5
2CB
100
AcDbEntity
  8
0
100
AcDbCircle
 62
2
  6
CONTINUOUS
 10
12.5055811302
 20
2.518452367
 40
0.0024750401
100
AcDbArc
 50
147.6063258011
 51
270.0025305754
  0
LINE
  5
2CC
100
AcDbEntity
  8
0
100
AcDbLine
 62
2
  6
CONTINUOUS
 10
12.5034912383
 20
2.5197783291
 11
12.5090072414
 21
2.5284723339
  0
ARC
  5
2CD
100
AcDbEntity
  8
0
100
AcDbCircle
 62
2
  6
CONTINUOUS
 10
12.5110971723
 20
2.5271461342
 40
0.0024752003
100
AcDbArc
 50
89.998372645
 51
147.602165307
  0
LINE
  5
2CE
100
AcDbEntity
  8
0
100
AcDbLine
 62
2
  6
CONTINUOUS
 10
12.5110972426
 20
2.5296213345
 11
12.5459752619
 21
2.5296213345
  0
ARC
  5
2CF
100
AcDbEntity
  8
0
100
AcDbCircle
 62
2
  6
CONTINUOUS
 10
12.5459747223
 20
2.5271458744
 40
0.0024754602
100
AcDbArc
 50
32.8959418573
 51
89.9875097202
  0
LINE
  5
2D0
100
AcDbEntity
  8
0
100
AcDbLine
 62
2
  6
CONTINUOUS
 10
12.9205934696
 20
2.5920323691
 11
13.0210515254
 21
2.5920323691
  0
ARC
  5
2D1
100
AcDbEntity
  8
0
100
AcDbCircle
 62
2
  6
CONTINUOUS
 10
13.0210516601
 20
2.5895582013
 40
0.0024741678
100
AcDbArc
 50
46.3477981899
 51
90.0031206038
  0
LINE
  5
2D2
100
AcDbEntity
  8
0
100
AcDbLine
 62
2
  6
CONTINUOUS
 10
13.0227595263
 20
2.5913483688
 11
13.0827925596
 21
2.534068337
  0
ARC
  5
2D3
100
AcDbEntity
  8
0
100
AcDbCircle
 62
2
  6
CONTINUOUS
 10
13.0845012605
 20
2.5358592748
 40
0.0024753014
100
AcDbArc
 50
226.3461263059
 51
0.0014637321
  0
LINE
  5
2D4
100
AcDbEntity
  8
0
100
AcDbLine
 62
2
  6
CONTINUOUS
 10
13.0869765619
 20
2.535859338
 11
13.0869765619
 21
2.564807354
  0
ARC
  5
2D5
100
AcDbEntity
  8
0
100
AcDbCircle
 62
2
  6
CONTINUOUS
 10
13.0845015624
 20
2.5648073559
 40
0.0024749995
100
AcDbArc
 50
359.9999571957
 51
90.0000428043
  0
LINE
  5
2D6
100
AcDbEntity
  8
0
100
AcDbLine
 62
2
  6
CONTINUOUS
 10
13.0845015605
 20
2.5672823554
 11
13.0657255501
 21
2.5672823554
  0
ARC
  5
2D7
100
AcDbEntity
  8
0
100
AcDbCircle
 62
2
  6
CONTINUOUS
 10
13.0657255483
 20
2.5697573549
 40
0.0024749995
100
AcDbArc
 50
179.9999571957
 51
270.0000428043
  0
LINE
  5
2D8
100
AcDbEntity
  8
0
100
AcDbLine
 62
2
  6
CONTINUOUS
 10
13.0632505488
 20
2.5697573568
 11
13.0632505488
 21
2.5895573678
  0
ARC
  5
2D9
100
AcDbEntity
  8
0
100
AcDbCircle
 62
2
  6
CONTINUOUS
 10
13.0657255483
 20
2.5895573696
 40
0.0024749995
100
AcDbArc
 50
89.9999571957
 51
180.0000428043
  0
LINE
  5
2DA
100
AcDbEntity
  8
0
100
AcDbLine
 62
2
  6
CONTINUOUS
 10
13.0657255501
 20
2.5920323691
 11
13.1397265912
 21
2.5920323691
  0
ARC
  5
2DB
100
AcDbEntity
  8
0
100
AcDbCircle
 62
2
  6
CONTINUOUS
 10
13.139726593
 20
2.5895573696
 40
0.0024749995
100
AcDbArc
 50
359.9999571957
 51
90.0000428043
  0
LINE
  5
2DC
100
AcDbEntity
  8
0
100
AcDbLine
 62
2
  6
CONTINUOUS
 10
13.1422015925
 20
2.5895573678
 11
13.1422015925
 21
2.5697573568
  0
ARC
  5
2DD
100
AcDbEntity
  8
0
100
AcDbCircle
 62
2
  6
CONTINUOUS
 10
13.139726593
 20
2.5697573549
 40
0.0024749995
100
AcDbArc
 50
269.9999571957
 51
0.0000428042
  0
LINE
  5
2DE
100
AcDbEntity
  8
0
100
AcDbLine
 62
2
  6
CONTINUOUS
 10
13.1397265912
 20
2.5672823554
 11
13.1217935812
 21
2.5672823554
  0
ARC
  5
2DF
100
AcDbEntity
  8
0
100
AcDbCircle
 62
2
  6
CONTINUOUS
 10
13.1217935794
 20
2.5648073559
 40
0.0024749995
100
AcDbArc
 50
89.9999571957
 51
180.0000428042
  0
LINE
  5
2E0
100
AcDbEntity
  8
0
100
AcDbLine
 62
2
  6
CONTINUOUS
 10
13.1193185799
 20
2.564807354
 11
13.1193185799
 21
2.4937023146
  0
ARC
  5
2E1
100
AcDbEntity
  8
0
100
AcDbCircle
 62
2
  6
CONTINUOUS
 10
13.1168435803
 20
2.4937023128
 40
0.0024749995
100
AcDbArc
 50
269.9999571957
 51
0.0000428043
  0
LINE
  5
2E2
100
AcDbEntity
  8
0
100
AcDbLine
 62
2
  6
CONTINUOUS
 10
13.1168435785
 20
2.4912273132
 11
13.0426375373
 21
2.4912273132
  0
ARC
  5
2E3
100
AcDbEntity
  8
0
100
AcDbCircle
 62
2
  6
CONTINUOUS
 10
13.0426374026
 20
2.493701481
 40
0.0024741678
100
AcDbArc
 50
226.3477981898
 51
270.0031206038
  0
LINE
  5
2E4
100
AcDbEntity
  8
0
100
AcDbLine
 62
2
  6
CONTINUOUS
 10
13.0409295364
 20
2.4919113136
 11
12.9776495013
 21
2.5522893471
  0
ARC
  5
2E5
100
AcDbEntity
  8
0
100
AcDbCircle
 62
2
  6
CONTINUOUS
 10
12.9759408003
 20
2.5504984093
 40
0.0024753014
100
AcDbArc
 50
46.3461263059
 51
180.0014637321
  0
LINE
  5
2E6
100
AcDbEntity
  8
0
100
AcDbLine
 62
2
  6
CONTINUOUS
 10
12.973465499
 20
2.5504983461
 11
12.973465499
 21
2.5184523283
  0
ARC
  5
2E7
100
AcDbEntity
  8
0
100
AcDbCircle
 62
2
  6
CONTINUOUS
 10
12.9759404985
 20
2.5184523265
 40
0.0024749995
100
AcDbArc
 50
179.9999571957
 51
270.0000428043
  0
LINE
  5
2E8
100
AcDbEntity
  8
0
100
AcDbLine
 62
2
  6
CONTINUOUS
 10
12.9759405003
 20
2.515977327
 11
12.9962575116
 21
2.515977327
  0
ARC
  5
2E9
100
AcDbEntity
  8
0
100
AcDbCircle
 62
2
  6
CONTINUOUS
 10
12.9962575135
 20
2.5135023274
 40
0.0024749995
100
AcDbArc
 50
359.9999571957
 51
90.0000428043
  0
LINE
  5
2EA
100
AcDbEntity
  8
0
100
AcDbLine
 62
2
  6
CONTINUOUS
 10
12.998732513
 20
2.5135023256
 11
12.998732513
 21
2.4937023146
  0
ARC
  5
2EB
100
AcDbEntity
  8
0
100
AcDbCircle
 62
2
  6
CONTINUOUS
 10
12.9962575135
 20
2.4937023128
 40
0.0024749995
100
AcDbArc
 50
269.9999571957
 51
0.0000428043
  0
LINE
  5
2EC
100
AcDbEntity
  8
0
100
AcDbLine
 62
2
  6
CONTINUOUS
 10
12.9962575116
 20
2.4912273132
 11
12.9205934696
 21
2.4912273132
  0
ARC
  5
2ED
100
AcDbEntity
  8
0
100
AcDbCircle
 62
2
  6
CONTINUOUS
 10
12.9205934678
 20
2.4937023128
 40
0.0024749995
100
AcDbArc
 50
179.9999571957
 51
270.0000428043
  0
LINE
  5
2EE
100
AcDbEntity
  8
0
100
AcDbLine
 62
2
  6
CONTINUOUS
 10
12.9181184683
 20
2.4937023146
 11
12.9181184683
 21
2.5135023256
  0
ARC
  5
2EF
100
AcDbEntity
  8
0
100
AcDbCircle
 62
2
  6
CONTINUOUS
 10
12.9205934678
 20
2.5135023274
 40
0.0024749995
100
AcDbArc
 50
89.9999571957
 51
180.0000428042
  0
LINE
  5
2F0
100
AcDbEntity
  8
0
100
AcDbLine
 62
2
  6
CONTINUOUS
 10
12.9205934696
 20
2.515977327
 11
12.93923948
 21
2.515977327
  0
ARC
  5
2F1
100
AcDbEntity
  8
0
100
AcDbCircle
 62
2
  6
CONTINUOUS
 10
12.9392394818
 20
2.5184523265
 40
0.0024749995
100
AcDbArc
 50
269.9999571957
 51
0.0000428043
  0
LINE
  5
2F2
100
AcDbEntity
  8
0
100
AcDbLine
 62
2
  6
CONTINUOUS
 10
12.9417144814
 20
2.5184523283
 11
12.9417144814
 21
2.564807354
  0
ARC
  5
2F3
100
AcDbEntity
  8
0
100
AcDbCircle
 62
2
  6
CONTINUOUS
 10
12.9392394818
 20
2.5648073559
 40
0.0024749995
100
AcDbArc
 50
359.9999571957
 51
90.0000428043
  0
LINE
  5
2F4
100
AcDbEntity
  8
0
100
AcDbLine
 62
2
  6
CONTINUOUS
 10
12.93923948
 20
2.5672823554
 11
12.9205934696
 21
2.5672823554
  0
ARC
  5
2F5
100
AcDbEntity
  8
0
100
AcDbCircle
 62
2
  6
CONTINUOUS
 10
12.9205934678
 20
2.5697573549
 40
0.0024749995
100
AcDbArc
 50
179.9999571957
 51
270.0000428043
  0
LINE
  5
2F6
100
AcDbEntity
  8
0
100
AcDbLine
 62
2
  6
CONTINUOUS
 10
12.9181184683
 20
2.5697573568
 11
12.9181184683
 21
2.5895573678
  0
ARC
  5
2F7
100
AcDbEntity
  8
0
100
AcDbCircle
 62
2
  6
CONTINUOUS
 10
12.9205934678
 20
2.5895573696
 40
0.0024749995
100
AcDbArc
 50
89.9999571957
 51
180.0000428042
  0
LINE
  5
2F8
100
AcDbEntity
  8
0
100
AcDbLine
 62
2
  6
CONTINUOUS
 10
13.2934226764
 20
2.5324773361
 11
13.2582556569
 21
2.5324773361
  0
ARC
  5
2F9
100
AcDbEntity
  8
0
100
AcDbCircle
 62
2
  6
CONTINUOUS
 10
13.2582556551
 20
2.5300023366
 40
0.0024749995
100
AcDbArc
 50
89.9999571957
 51
180.0000428043
  0
LINE
  5
2FA
100
AcDbEntity
  8
0
100
AcDbLine
 62
2
  6
CONTINUOUS
 10
13.2557806555
 20
2.5300023347
 11
13.2557806555
 21
2.5184523283
  0
ARC
  5
2FB
100
AcDbEntity
  8
0
100
AcDbCircle
 62
2
  6
CONTINUOUS
 10
13.2582556551
 20
2.5184523265
 40
0.0024749995
100
AcDbArc
 50
179.9999571957
 51
270.0000428043
  0
LINE
  5
2FC
100
AcDbEntity
  8
0
100
AcDbLine
 62
2
  6
CONTINUOUS
 10
13.2582556569
 20
2.515977327
 11
13.3232596929
 21
2.515977327
  0
ARC
  5
2FD
100
AcDbEntity
  8
0
100
AcDbCircle
 62
2
  6
CONTINUOUS
 10
13.3232596948
 20
2.5184523265
 40
0.0024749995
100
AcDbArc
 50
269.9999571957
 51
0.0000428043
  0
LINE
  5
2FE
100
AcDbEntity
  8
0
100
AcDbLine
 62
2
  6
CONTINUOUS
 10
13.3257346943
 20
2.5184523283
 11
13.3257346943
 21
2.5267023329
  0
ARC
  5
2FF
100
AcDbEntity
  8
0
100
AcDbCircle
 62
2
  6
CONTINUOUS
 10
13.3282096938
 20
2.5267023348
 40
0.0024749995
100
AcDbArc
 50
89.9999571957
 51
180.0000428043
  0
LINE
  5
300
100
AcDbEntity
  8
0
100
AcDbLine
 62
2
  6
CONTINUOUS
 10
13.3282096957
 20
2.5291773343
 11
13.3705287192
 21
2.5291773343
  0
ARC
  5
301
100
AcDbEntity
  8
0
100
AcDbCircle
 62
2
  6
CONTINUOUS
 10
13.370528721
 20
2.5267023348
 40
0.0024749995
100
AcDbArc
 50
359.9999571957
 51
90.0000428043
  0
LINE
  5
302
100
AcDbEntity
  8
0
100
AcDbLine
 62
2
  6
CONTINUOUS
 10
13.3730037205
 20
2.5267023329
 11
13.3730037205
 21
2.4937023146
  0
ARC
  5
303
100
AcDbEntity
  8
0
100
AcDbCircle
 62
2
  6
CONTINUOUS
 10
13.370528721
 20
2.4937023128
 40
0.0024749995
100
AcDbArc
 50
269.9999571957
 51
0.0000428043
  0
LINE
  5
304
100
AcDbEntity
  8
0
100
AcDbLine
 62
2
  6
CONTINUOUS
 10
13.3705287192
 20
2.4912273132
 11
13.1673166065
 21
2.4912273132
  0
ARC
  5
305
100
AcDbEntity
  8
0
100
AcDbCircle
 62
2
  6
CONTINUOUS
 10
13.1673166046
 20
2.4937023128
 40
0.0024749995
100
AcDbArc
 50
179.9999571957
 51
270.0000428043
  0
LINE
  5
306
100
AcDbEntity
  8
0
100
AcDbLine
 62
2
  6
CONTINUOUS
 10
13.1648416051
 20
2.4937023146
 11
13.1648416051
 21
2.5135023256
  0
ARC
  5
307
100
AcDbEntity
  8
0
100
AcDbCircle
 62
2
  6
CONTINUOUS
 10
13.1673166046
 20
2.5135023274
 40
0.0024749995
100
AcDbArc
 50
89.9999571957
 51
180.0000428043
  0
LINE
  5
308
100
AcDbEntity
  8
0
100
AcDbLine
 62
2
  6
CONTINUOUS
 10
13.1673166065
 20
2.515977327
 11
13.1912396197
 21
2.515977327
  0
ARC
  5
309
100
AcDbEntity
  8
0
100
AcDbCircle
 62
2
  6
CONTINUOUS
 10
13.1912396216
 20
2.5184523265
 40
0.0024749995
100
AcDbArc
 50
269.9999571957
 51
0.0000428042
  0
LINE
  5
30A
100
AcDbEntity
  8
0
100
AcDbLine
 62
2
  6
CONTINUOUS
 10
13.1937146211
 20
2.5184523283
 11
13.1937146211
 21
2.564807354
  0
ARC
  5
30B
100
AcDbEntity
  8
0
100
AcDbCircle
 62
2
  6
CONTINUOUS
 10
13.1912396216
 20
2.5648073559
 40
0.0024749995
100
AcDbArc
 50
359.9999571957
 51
90.0000428043
  0
LINE
  5
30C
100
AcDbEntity
  8
0
100
AcDbLine
 62
2
  6
CONTINUOUS
 10
13.1912396197
 20
2.5672823554
 11
13.1673166065
 21
2.5672823554
  0
ARC
  5
30D
100
AcDbEntity
  8
0
100
AcDbCircle
 62
2
  6
CONTINUOUS
 10
13.1673166046
 20
2.5697573549
 40
0.0024749995
100
AcDbArc
 50
179.9999571957
 51
270.0000428043
  0
LINE
  5
30E
100
AcDbEntity
  8
0
100
AcDbLine
 62
2
  6
CONTINUOUS
 10
13.1648416051
 20
2.5697573568
 11
13.1648416051
 21
2.5895573678
  0
ARC
  5
30F
100
AcDbEntity
  8
0
100
AcDbCircle
 62
2
  6
CONTINUOUS
 10
13.1673166046
 20
2.5895573696
 40
0.0024749995
100
AcDbArc
 50
89.9999571957
 51
180.0000428043
  0
LINE
  5
310
100
AcDbEntity
  8
0
100
AcDbLine
 62
2
  6
CONTINUOUS
 10
13.1673166065
 20
2.5920323691
 11
13.3691097184
 21
2.5920323691
  0
ARC
  5
311
100
AcDbEntity
  8
0
100
AcDbCircle
 62
2
  6
CONTINUOUS
 10
13.3691097202
 20
2.5895573696
 40
0.0024749995
100
AcDbArc
 50
359.9999571957
 51
90.0000428043
  0
LINE
  5
312
100
AcDbEntity
  8
0
100
AcDbLine
 62
2
  6
CONTINUOUS
 10
13.3715847197
 20
2.5895573678
 11
13.3715847197
 21
2.5565573495
  0
ARC
  5
313
100
AcDbEntity
  8
0
100
AcDbCircle
 62
2
  6
CONTINUOUS
 10
13.3691097202
 20
2.5565573476
 40
0.0024749995
100
AcDbArc
 50
269.9999571957
 51
0.0000428042
  0
LINE
  5
314
100
AcDbEntity
  8
0
100
AcDbLine
 62
2
  6
CONTINUOUS
 10
13.3691097184
 20
2.5540823481
 11
13.3272456952
 21
2.5540823481
  0
ARC
  5
315
100
AcDbEntity
  8
0
100
AcDbCircle
 62
2
  6
CONTINUOUS
 10
13.3272456933
 20
2.5565573476
 40
0.0024749995
100
AcDbArc
 50
179.9999571957
 51
270.0000428043
  0
LINE
  5
316
100
AcDbEntity
  8
0
100
AcDbLine
 62
2
  6
CONTINUOUS
 10
13.3247706938
 20
2.5565573495
 11
13.3247706938
 21
2.564807354
  0
ARC
  5
317
100
AcDbEntity
  8
0
100
AcDbCircle
 62
2
  6
CONTINUOUS
 10
13.3222956943
 20
2.5648073559
 40
0.0024749995
100
AcDbArc
 50
359.9999571957
 51
90.0000428043
  0
LINE
  5
318
100
AcDbEntity
  8
0
100
AcDbLine
 62
2
  6
CONTINUOUS
 10
13.3222956924
 20
2.5672823554
 11
13.2582556569
 21
2.5672823554
  0
ARC
  5
319
100
AcDbEntity
  8
0
100
AcDbCircle
 62
2
  6
CONTINUOUS
 10
13.2582556551
 20
2.5648073559
 40
0.0024749995
100
AcDbArc
 50
89.9999571957
 51
180.0000428043
  0
LINE
  5
31A
100
AcDbEntity
  8
0
100
AcDbLine
 62
2
  6
CONTINUOUS
 10
13.2557806555
 20
2.564807354
 11
13.2557806555
 21
2.5532573476
  0
ARC
  5
31B
100
AcDbEntity
  8
0
100
AcDbCircle
 62
2
  6
CONTINUOUS
 10
13.2582556551
 20
2.5532573458
 40
0.0024749995
100
AcDbArc
 50
179.9999571957
 51
270.0000428043
  0
LINE
  5
31C
100
AcDbEntity
  8
0
100
AcDbLine
 62
2
  6
CONTINUOUS
 10
13.2582556569
 20
2.5507823463
 11
13.2934226764
 21
2.5507823463
  0
ARC
  5
31D
100
AcDbEntity
  8
0
100
AcDbCircle
 62
2
  6
CONTINUOUS
 10
13.2934226783
 20
2.5483073467
 40
0.0024749995
100
AcDbArc
 50
359.9999571957
 51
90.0000428043
  0
LINE
  5
31E
100
AcDbEntity
  8
0
100
AcDbLine
 62
2
  6
CONTINUOUS
 10
13.2958976778
 20
2.5483073449
 11
13.2958976778
 21
2.5349523375
  0
ARC
  5
31F
100
AcDbEntity
  8
0
100
AcDbCircle
 62
2
  6
CONTINUOUS
 10
13.2934226783
 20
2.5349523356
 40
0.0024749995
100
AcDbArc
 50
269.9999571957
 51
0.0000428042
  0
LINE
  5
320
100
AcDbEntity
  8
0
100
AcDbLine
 62
2
  6
CONTINUOUS
 10
13.7286871589
 20
2.5350697372
 11
13.7286871589
 21
2.5456869438
  0
LINE
  5
321
100
AcDbEntity
  8
0
100
AcDbLine
 62
2
  6
CONTINUOUS
 10
13.7086871478
 20
2.5004302075
 11
13.7086871478
 21
2.5803264735
  0
LINE
  5
322
100
AcDbEntity
  8
0
100
AcDbLine
 62
2
  6
CONTINUOUS
 10
13.6886871368
 20
2.4843919416
 11
13.6886871368
 21
2.5963647394
  0
LINE
  5
323
100
AcDbEntity
  8
0
100
AcDbLine
 62
2
  6
CONTINUOUS
 10
13.6686871257
 20
2.4726017898
 11
13.6686871257
 21
2.6081548911
  0
LINE
  5
324
100
AcDbEntity
  8
0
100
AcDbLine
 62
2
  6
CONTINUOUS
 10
13.6486871146
 20
2.4628062688
 11
13.6486871146
 21
2.6179504122
  0
LINE
  5
325
100
AcDbEntity
  8
0
100
AcDbLine
 62
2
  6
CONTINUOUS
 10
13.6286871035
 20
2.4541253507
 11
13.6286871035
 21
2.5062483056
  0
LINE
  5
326
100
AcDbEntity
  8
0
100
AcDbLine
 62
2
  6
CONTINUOUS
 10
13.6286871035
 20
2.5301143348
 11
13.6286871035
 21
2.6266313303
  0
LINE
  5
327
100
AcDbEntity
  8
0
100
AcDbLine
 62
2
  6
CONTINUOUS
 10
13.6086870924
 20
2.4465537903
 11
13.6086870924
 21
2.4918774918
  0
LINE
  5
328
100
AcDbEntity
  8
0
100
AcDbLine
 62
2
  6
CONTINUOUS
 10
13.6086870924
 20
2.5165781173
 11
13.6086870924
 21
2.6342028907
  0
LINE
  5
329
100
AcDbEntity
  8
0
100
AcDbLine
 62
2
  6
CONTINUOUS
 10
13.5886870813
 20
2.4398033466
 11
13.5886870813
 21
2.4912273132
  0
LINE
  5
32A
100
AcDbEntity
  8
0
100
AcDbLine
 62
2
  6
CONTINUOUS
 10
13.5886870813
 20
2.5391840845
 11
13.5886870813
 21
2.5454298327
  0
LINE
  5
32B
100
AcDbEntity
  8
0
100
AcDbLine
 62
2
  6
CONTINUOUS
 10
13.5886870813
 20
2.5862063472
 11
13.5886870813
 21
2.6409533343
  0
LINE
  5
32C
100
AcDbEntity
  8
0
100
AcDbLine
 62
2
  6
CONTINUOUS
 10
13.5686870702
 20
2.4334702189
 11
13.5686870702
 21
2.4912273132
  0
LINE
  5
32D
100
AcDbEntity
  8
0
100
AcDbLine
 62
2
  6
CONTINUOUS
 10
13.5686870702
 20
2.5906587765
 11
13.5686870702
 21
2.647286462
  0
LINE
  5
32E
100
AcDbEntity
  8
0
100
AcDbLine
 62
2
  6
CONTINUOUS
 10
13.5486870591
 20
2.4278968124
 11
13.5486870591
 21
2.4937461006
  0
LINE
  5
32F
100
AcDbEntity
  8
0
100
AcDbLine
 62
2
  6
CONTINUOUS
 10
13.5486870591
 20
2.5920323691
 11
13.5486870591
 21
2.6528598686
  0
LINE
  5
330
100
AcDbEntity
  8
0
100
AcDbLine
 62
2
  6
CONTINUOUS
 10
13.528687048
 20
2.4225427674
 11
13.528687048
 21
2.5270426993
  0
LINE
  5
331
100
AcDbEntity
  8
0
100
AcDbLine
 62
2
  6
CONTINUOUS
 10
13.528687048
 20
2.5505166259
 11
13.528687048
 21
2.5668657091
  0
LINE
  5
332
100
AcDbEntity
  8
0
100
AcDbLine
 62
2
  6
CONTINUOUS
 10
13.528687048
 20
2.5920323691
 11
13.528687048
 21
2.6582139136
  0
LINE
  5
333
100
AcDbEntity
  8
0
100
AcDbLine
 62
2
  6
CONTINUOUS
 10
13.5086870369
 20
2.4177306791
 11
13.5086870369
 21
2.4912273132
  0
LINE
  5
334
100
AcDbEntity
  8
0
100
AcDbLine
 62
2
  6
CONTINUOUS
 10
13.5086870369
 20
2.5159553269
 11
13.5086870369
 21
2.5306043351
  0
LINE
  5
335
100
AcDbEntity
  8
0
100
AcDbLine
 62
2
  6
CONTINUOUS
 10
13.5086870369
 20
2.5496073456
 11
13.5086870369
 21
2.5672823554
  0
LINE
  5
336
100
AcDbEntity
  8
0
100
AcDbLine
 62
2
  6
CONTINUOUS
 10
13.5086870369
 20
2.5920323691
 11
13.5086870369
 21
2.6630260019
  0
LINE
  5
337
100
AcDbEntity
  8
0
100
AcDbLine
 62
2
  6
CONTINUOUS
 10
13.4886870258
 20
2.4131795254
 11
13.4886870258
 21
2.4912273132
  0
LINE
  5
338
100
AcDbEntity
  8
0
100
AcDbLine
 62
2
  6
CONTINUOUS
 10
13.4886870258
 20
2.5159553269
 11
13.4886870258
 21
2.5306043351
  0
LINE
  5
339
100
AcDbEntity
  8
0
100
AcDbLine
 62
2
  6
CONTINUOUS
 10
13.4886870258
 20
2.5496073456
 11
13.4886870258
 21
2.5672823554
  0
LINE
  5
33A
100
AcDbEntity
  8
0
100
AcDbLine
 62
2
  6
CONTINUOUS
 10
13.4886870258
 20
2.5920323691
 11
13.4886870258
 21
2.6675771555
  0
LINE
  5
33B
100
AcDbEntity
  8
0
100
AcDbLine
 62
2
  6
CONTINUOUS
 10
13.4686870147
 20
2.4088819672
 11
13.4686870147
 21
2.4912273132
  0
LINE
  5
33C
100
AcDbEntity
  8
0
100
AcDbLine
 62
2
  6
CONTINUOUS
 10
13.4686870147
 20
2.5920323691
 11
13.4686870147
 21
2.6718747138
  0
LINE
  5
33D
100
AcDbEntity
  8
0
100
AcDbLine
 62
2
  6
CONTINUOUS
 10
13.4486870037
 20
2.4050092072
 11
13.4486870037
 21
2.4912273132
  0
LINE
  5
33E
100
AcDbEntity
  8
0
100
AcDbLine
 62
2
  6
CONTINUOUS
 10
13.4486870037
 20
2.5920323691
 11
13.4486870037
 21
2.6757474738
  0
LINE
  5
33F
100
AcDbEntity
  8
0
100
AcDbLine
 62
2
  6
CONTINUOUS
 10
13.4286869926
 20
2.4011364471
 11
13.4286869926
 21
2.4912273132
  0
LINE
  5
340
100
AcDbEntity
  8
0
100
AcDbLine
 62
2
  6
CONTINUOUS
 10
13.4286869926
 20
2.5920323691
 11
13.4286869926
 21
2.6796202339
  0
LINE
  5
341
100
AcDbEntity
  8
0
100
AcDbLine
 62
2
  6
CONTINUOUS
 10
13.4086869815
 20
2.3980226662
 11
13.4086869815
 21
2.4912273132
  0
LINE
  5
342
100
AcDbEntity
  8
0
100
AcDbLine
 62
2
  6
CONTINUOUS
 10
13.4086869815
 20
2.515977327
 11
13.4086869815
 21
2.5672823554
  0
LINE
  5
343
100
AcDbEntity
  8
0
100
AcDbLine
 62
2
  6
CONTINUOUS
 10
13.4086869815
 20
2.5920323691
 11
13.4086869815
 21
2.6827340148
  0
LINE
  5
344
100
AcDbEntity
  8
0
100
AcDbLine
 62
2
  6
CONTINUOUS
 10
13.3886869704
 20
2.3950052774
 11
13.3886869704
 21
2.6857514036
  0
LINE
  5
345
100
AcDbEntity
  8
0
100
AcDbLine
 62
2
  6
CONTINUOUS
 10
13.3686869593
 20
2.3919878885
 11
13.3686869593
 21
2.4912273132
  0
LINE
  5
346
100
AcDbEntity
  8
0
100
AcDbLine
 62
2
  6
CONTINUOUS
 10
13.3686869593
 20
2.5291773343
 11
13.3686869593
 21
2.5540823481
  0
LINE
  5
347
100
AcDbEntity
  8
0
100
AcDbLine
 62
2
  6
CONTINUOUS
 10
13.3686869593
 20
2.5920323691
 11
13.3686869593
 21
2.6887687924
  0
LINE
  5
348
100
AcDbEntity
  8
0
100
AcDbLine
 62
2
  6
CONTINUOUS
 10
13.3486869482
 20
2.3889704997
 11
13.3486869482
 21
2.4912273132
  0
LINE
  5
349
100
AcDbEntity
  8
0
100
AcDbLine
 62
2
  6
CONTINUOUS
 10
13.3486869482
 20
2.5291773343
 11
13.3486869482
 21
2.5540823481
  0
LINE
  5
34A
100
AcDbEntity
  8
0
100
AcDbLine
 62
2
  6
CONTINUOUS
 10
13.3486869482
 20
2.5920323691
 11
13.3486869482
 21
2.6917861813
  0
LINE
  5
34B
100
AcDbEntity
  8
0
100
AcDbLine
 62
2
  6
CONTINUOUS
 10
13.3286869371
 20
2.3859531109
 11
13.3286869371
 21
2.4912273132
  0
LINE
  5
34C
100
AcDbEntity
  8
0
100
AcDbLine
 62
2
  6
CONTINUOUS
 10
13.3286869371
 20
2.5291773343
 11
13.3286869371
 21
2.5540823481
  0
LINE
  5
34D
100
AcDbEntity
  8
0
100
AcDbLine
 62
2
  6
CONTINUOUS
 10
13.3286869371
 20
2.5920323691
 11
13.3286869371
 21
2.6948035701
  0
LINE
  5
34E
100
AcDbEntity
  8
0
100
AcDbLine
 62
2
  6
CONTINUOUS
 10
13.308686926
 20
2.3833355437
 11
13.308686926
 21
2.4912273132
  0
LINE
  5
34F
100
AcDbEntity
  8
0
100
AcDbLine
 62
2
  6
CONTINUOUS
 10
13.308686926
 20
2.515977327
 11
13.308686926
 21
2.5672823554
  0
LINE
  5
350
100
AcDbEntity
  8
0
100
AcDbLine
 62
2
  6
CONTINUOUS
 10
13.308686926
 20
2.5920323691
 11
13.308686926
 21
2.6974211373
  0
LINE
  5
351
100
AcDbEntity
  8
0
100
AcDbLine
 62
2
  6
CONTINUOUS
 10
13.2886869149
 20
2.3812612684
 11
13.2886869149
 21
2.4912273132
  0
LINE
  5
352
100
AcDbEntity
  8
0
100
AcDbLine
 62
2
  6
CONTINUOUS
 10
13.2886869149
 20
2.515977327
 11
13.2886869149
 21
2.5324773361
  0
LINE
  5
353
100
AcDbEntity
  8
0
100
AcDbLine
 62
2
  6
CONTINUOUS
 10
13.2886869149
 20
2.5507823463
 11
13.2886869149
 21
2.5672823554
  0
LINE
  5
354
100
AcDbEntity
  8
0
100
AcDbLine
 62
2
  6
CONTINUOUS
 10
13.2886869149
 20
2.5920323691
 11
13.2886869149
 21
2.6994954125
  0
LINE
  5
355
100
AcDbEntity
  8
0
100
AcDbLine
 62
2
  6
CONTINUOUS
 10
13.2686869038
 20
2.3791869932
 11
13.2686869038
 21
2.4912273132
  0
LINE
  5
356
100
AcDbEntity
  8
0
100
AcDbLine
 62
2
  6
CONTINUOUS
 10
13.2686869038
 20
2.515977327
 11
13.2686869038
 21
2.5324773361
  0
LINE
  5
357
100
AcDbEntity
  8
0
100
AcDbLine
 62
2
  6
CONTINUOUS
 10
13.2686869038
 20
2.5507823463
 11
13.2686869038
 21
2.5672823554
  0
LINE
  5
358
100
AcDbEntity
  8
0
100
AcDbLine
 62
2
  6
CONTINUOUS
 10
13.2686869038
 20
2.5920323691
 11
13.2686869038
 21
2.7015696878
  0
LINE
  5
359
100
AcDbEntity
  8
0
100
AcDbLine
 62
2
  6
CONTINUOUS
 10
13.2486868927
 20
2.377112718
 11
13.2486868927
 21
2.4912273132
  0
LINE
  5
35A
100
AcDbEntity
  8
0
100
AcDbLine
 62
2
  6
CONTINUOUS
 10
13.2486868927
 20
2.5920323691
 11
13.2486868927
 21
2.703643963
  0
LINE
  5
35B
100
AcDbEntity
  8
0
100
AcDbLine
 62
2
  6
CONTINUOUS
 10
13.2286868817
 20
2.3750384428
 11
13.2286868817
 21
2.4912273132
  0
LINE
  5
35C
100
AcDbEntity
  8
0
100
AcDbLine
 62
2
  6
CONTINUOUS
 10
13.2286868817
 20
2.5920323691
 11
13.2286868817
 21
2.7057182382
  0
LINE
  5
35D
100
AcDbEntity
  8
0
100
AcDbLine
 62
2
  6
CONTINUOUS
 10
13.2086868706
 20
2.3729641676
 11
13.2086868706
 21
2.4912273132
  0
LINE
  5
35E
100
AcDbEntity
  8
0
100
AcDbLine
 62
2
  6
CONTINUOUS
 10
13.2086868706
 20
2.5920323691
 11
13.2086868706
 21
2.7077925134
  0
LINE
  5
35F
100
AcDbEntity
  8
0
100
AcDbLine
 62
2
  6
CONTINUOUS
 10
13.1886868595
 20
2.3712344456
 11
13.1886868595
 21
2.4912273132
  0
LINE
  5
360
100
AcDbEntity
  8
0
100
AcDbLine
 62
2
  6
CONTINUOUS
 10
13.1886868595
 20
2.515977327
 11
13.1886868595
 21
2.5672823554
  0
LINE
  5
361
100
AcDbEntity
  8
0
100
AcDbLine
 62
2
  6
CONTINUOUS
 10
13.1886868595
 20
2.5920323691
 11
13.1886868595
 21
2.7095222354
  0
LINE
  5
362
100
AcDbEntity
  8
0
100
AcDbLine
 62
2
  6
CONTINUOUS
 10
13.1686868484
 20
2.3699682418
 11
13.1686868484
 21
2.4912273132
  0
LINE
  5
363
100
AcDbEntity
  8
0
100
AcDbLine
 62
2
  6
CONTINUOUS
 10
13.1686868484
 20
2.515977327
 11
13.1686868484
 21
2.5672823554
  0
LINE
  5
364
100
AcDbEntity
  8
0
100
AcDbLine
 62
2
  6
CONTINUOUS
 10
13.1686868484
 20
2.5920323691
 11
13.1686868484
 21
2.7107884392
  0
LINE
  5
365
100
AcDbEntity
  8
0
100
AcDbLine
 62
2
  6
CONTINUOUS
 10
13.1486868373
 20
2.3687020381
 11
13.1486868373
 21
2.7120546429
  0
LINE
  5
366
100
AcDbEntity
  8
0
100
AcDbLine
 62
2
  6
CONTINUOUS
 10
13.1286868262
 20
2.3674358343
 11
13.1286868262
 21
2.5672823554
  0
LINE
  5
367
100
AcDbEntity
  8
0
100
AcDbLine
 62
2
  6
CONTINUOUS
 10
13.1286868262
 20
2.5920323691
 11
13.1286868262
 21
2.7133208466
  0
LINE
  5
368
100
AcDbEntity
  8
0
100
AcDbLine
 62
2
  6
CONTINUOUS
 10
13.1086868151
 20
2.3661696306
 11
13.1086868151
 21
2.4912273132
  0
LINE
  5
369
100
AcDbEntity
  8
0
100
AcDbLine
 62
2
  6
CONTINUOUS
 10
13.1086868151
 20
2.5920323691
 11
13.1086868151
 21
2.7145870504
  0
LINE
  5
36A
100
AcDbEntity
  8
0
100
AcDbLine
 62
2
  6
CONTINUOUS
 10
13.088686804
 20
2.3649034269
 11
13.088686804
 21
2.4912273132
  0
LINE
  5
36B
100
AcDbEntity
  8
0
100
AcDbLine
 62
2
  6
CONTINUOUS
 10
13.088686804
 20
2.5920323691
 11
13.088686804
 21
2.7158532541
  0
LINE
  5
36C
100
AcDbEntity
  8
0
100
AcDbLine
 62
2
  6
CONTINUOUS
 10
13.0686867929
 20
2.3636739922
 11
13.0686867929
 21
2.4912273132
  0
LINE
  5
36D
100
AcDbEntity
  8
0
100
AcDbLine
 62
2
  6
CONTINUOUS
 10
13.0686867929
 20
2.5475272398
 11
13.0686867929
 21
2.5672823554
  0
LINE
  5
36E
100
AcDbEntity
  8
0
100
AcDbLine
 62
2
  6
CONTINUOUS
 10
13.0686867929
 20
2.5920323691
 11
13.0686867929
 21
2.7170826887
  0
LINE
  5
36F
100
AcDbEntity
  8
0
100
AcDbLine
 62
2
  6
CONTINUOUS
 10
13.0486867818
 20
2.363143203
 11
13.0486867818
 21
2.4912273132
  0
LINE
  5
370
100
AcDbEntity
  8
0
100
AcDbLine
 62
2
  6
CONTINUOUS
 10
13.0486867818
 20
2.5666100882
 11
13.0486867818
 21
2.717613478
  0
LINE
  5
371
100
AcDbEntity
  8
0
100
AcDbLine
 62
2
  6
CONTINUOUS
 10
13.0286867707
 20
2.3626124138
 11
13.0286867707
 21
2.50359263
  0
LINE
  5
372
100
AcDbEntity
  8
0
100
AcDbLine
 62
2
  6
CONTINUOUS
 10
13.0286867707
 20
2.5856929366
 11
13.0286867707
 21
2.7181442672
  0
LINE
  5
373
100
AcDbEntity
  8
0
100
AcDbLine
 62
2
  6
CONTINUOUS
 10
13.0086867596
 20
2.3620816246
 11
13.0086867596
 21
2.5226754472
  0
LINE
  5
374
100
AcDbEntity
  8
0
100
AcDbLine
 62
2
  6
CONTINUOUS
 10
13.0086867596
 20
2.5920323691
 11
13.0086867596
 21
2.7186750564
  0
LINE
  5
375
100
AcDbEntity
  8
0
100
AcDbLine
 62
2
  6
CONTINUOUS
 10
12.9886867486
 20
2.3615508354
 11
12.9886867486
 21
2.4912273132
  0
LINE
  5
376
100
AcDbEntity
  8
0
100
AcDbLine
 62
2
  6
CONTINUOUS
 10
12.9886867486
 20
2.515977327
 11
12.9886867486
 21
2.5417582644
  0
LINE
  5
377
100
AcDbEntity
  8
0
100
AcDbLine
 62
2
  6
CONTINUOUS
 10
12.9886867486
 20
2.5920323691
 11
12.9886867486
 21
2.7192058456
  0
LINE
  5
378
100
AcDbEntity
  8
0
100
AcDbLine
 62
2
  6
CONTINUOUS
 10
12.9686867375
 20
2.3610200462
 11
12.9686867375
 21
2.4912273132
  0
LINE
  5
379
100
AcDbEntity
  8
0
100
AcDbLine
 62
2
  6
CONTINUOUS
 10
12.9686867375
 20
2.5920323691
 11
12.9686867375
 21
2.7197366348
  0
LINE
  5
37A
100
AcDbEntity
  8
0
100
AcDbLine
 62
2
  6
CONTINUOUS
 10
12.9486867264
 20
2.360489257
 11
12.9486867264
 21
2.4912273132
  0
LINE
  5
37B
100
AcDbEntity
  8
0
100
AcDbLine
 62
2
  6
CONTINUOUS
 10
12.9486867264
 20
2.5920323691
 11
12.9486867264
 21
2.720267424
  0
LINE
  5
37C
100
AcDbEntity
  8
0
100
AcDbLine
 62
2
  6
CONTINUOUS
 10
12.9286867153
 20
2.3602836008
 11
12.9286867153
 21
2.4912273132
  0
LINE
  5
37D
100
AcDbEntity
  8
0
100
AcDbLine
 62
2
  6
CONTINUOUS
 10
12.9286867153
 20
2.515977327
 11
12.9286867153
 21
2.5672823554
  0
LINE
  5
37E
100
AcDbEntity
  8
0
100
AcDbLine
 62
2
  6
CONTINUOUS
 10
12.9286867153
 20
2.5920323691
 11
12.9286867153
 21
2.7204730802
  0
LINE
  5
37F
100
AcDbEntity
  8
0
100
AcDbLine
 62
2
  6
CONTINUOUS
 10
12.9086867042
 20
2.3604597639
 11
12.9086867042
 21
2.7202969171
  0
LINE
  5
380
100
AcDbEntity
  8
0
100
AcDbLine
 62
2
  6
CONTINUOUS
 10
12.8886866931
 20
2.360635927
 11
12.8886866931
 21
2.5672823554
  0
LINE
  5
381
100
AcDbEntity
  8
0
100
AcDbLine
 62
2
  6
CONTINUOUS
 10
12.8886866931
 20
2.5920323691
 11
12.8886866931
 21
2.720120754
  0
LINE
  5
382
100
AcDbEntity
  8
0
100
AcDbLine
 62
2
  6
CONTINUOUS
 10
12.868686682
 20
2.3608120901
 11
12.868686682
 21
2.491232357
  0
LINE
  5
383
100
AcDbEntity
  8
0
100
AcDbLine
 62
2
  6
CONTINUOUS
 10
12.868686682
 20
2.5920323691
 11
12.868686682
 21
2.7199445909
  0
LINE
  5
384
100
AcDbEntity
  8
0
100
AcDbLine
 62
2
  6
CONTINUOUS
 10
12.8486866709
 20
2.3609882532
 11
12.8486866709
 21
2.4912273132
  0
LINE
  5
385
100
AcDbEntity
  8
0
100
AcDbLine
 62
2
  6
CONTINUOUS
 10
12.8486866709
 20
2.5920323691
 11
12.8486866709
 21
2.7197684278
  0
LINE
  5
386
100
AcDbEntity
  8
0
100
AcDbLine
 62
2
  6
CONTINUOUS
 10
12.8286866598
 20
2.3611644163
 11
12.8286866598
 21
2.4912273132
  0
LINE
  5
387
100
AcDbEntity
  8
0
100
AcDbLine
 62
2
  6
CONTINUOUS
 10
12.8286866598
 20
2.5396527025
 11
12.8286866598
 21
2.5672823554
  0
LINE
  5
388
100
AcDbEntity
  8
0
100
AcDbLine
 62
2
  6
CONTINUOUS
 10
12.8286866598
 20
2.5920323691
 11
12.8286866598
 21
2.7195922647
  0
LINE
  5
389
100
AcDbEntity
  8
0
100
AcDbLine
 62
2
  6
CONTINUOUS
 10
12.8086866487
 20
2.3613405794
 11
12.8086866487
 21
2.4912273132
  0
LINE
  5
38A
100
AcDbEntity
  8
0
100
AcDbLine
 62
2
  6
CONTINUOUS
 10
12.8086866487
 20
2.5587355508
 11
12.8086866487
 21
2.7194161016
  0
LINE
  5
38B
100
AcDbEntity
  8
0
100
AcDbLine
 62
2
  6
CONTINUOUS
 10
12.7886866376
 20
2.3621089572
 11
12.7886866376
 21
2.4957181055
  0
LINE
  5
38C
100
AcDbEntity
  8
0
100
AcDbLine
 62
2
  6
CONTINUOUS
 10
12.7886866376
 20
2.5778183992
 11
12.7886866376
 21
2.7186477238
  0
LINE
  5
38D
100
AcDbEntity
  8
0
100
AcDbLine
 62
2
  6
CONTINUOUS
 10
12.7686866266
 20
2.3630013935
 11
12.7686866266
 21
2.5148009227
  0
LINE
  5
38E
100
AcDbEntity
  8
0
100
AcDbLine
 62
2
  6
CONTINUOUS
 10
12.7686866266
 20
2.5920323691
 11
12.7686866266
 21
2.7177552874
  0
LINE
  5
38F
100
AcDbEntity
  8
0
100
AcDbLine
 62
2
  6
CONTINUOUS
 10
12.7486866155
 20
2.3638938299
 11
12.7486866155
 21
2.4913263218
  0
LINE
  5
390
100
AcDbEntity
  8
0
100
AcDbLine
 62
2
  6
CONTINUOUS
 10
12.7486866155
 20
2.5158783184
 11
12.7486866155
 21
2.5338837399
  0
LINE
  5
391
100
AcDbEntity
  8
0
100
AcDbLine
 62
2
  6
CONTINUOUS
 10
12.7486866155
 20
2.5920323691
 11
12.7486866155
 21
2.7168628511
  0
LINE
  5
392
100
AcDbEntity
  8
0
100
AcDbLine
 62
2
  6
CONTINUOUS
 10
12.7286866044
 20
2.3647862663
 11
12.7286866044
 21
2.4912273132
  0
LINE
  5
393
100
AcDbEntity
  8
0
100
AcDbLine
 62
2
  6
CONTINUOUS
 10
12.7286866044
 20
2.515977327
 11
12.7286866044
 21
2.5527601554
  0
LINE
  5
394
100
AcDbEntity
  8
0
100
AcDbLine
 62
2
  6
CONTINUOUS
 10
12.7286866044
 20
2.5920323691
 11
12.7286866044
 21
2.7159704147
  0
LINE
  5
395
100
AcDbEntity
  8
0
100
AcDbLine
 62
2
  6
CONTINUOUS
 10
12.7086865933
 20
2.3656787026
 11
12.7086865933
 21
2.4912273132
  0
LINE
  5
396
100
AcDbEntity
  8
0
100
AcDbLine
 62
2
  6
CONTINUOUS
 10
12.7086865933
 20
2.5920323691
 11
12.7086865933
 21
2.7150779784
  0
LINE
  5
397
100
AcDbEntity
  8
0
100
AcDbLine
 62
2
  6
CONTINUOUS
 10
12.6886865822
 20
2.366571139
 11
12.6886865822
 21
2.4912273132
  0
LINE
  5
398
100
AcDbEntity
  8
0
100
AcDbLine
 62
2
  6
CONTINUOUS
 10
12.6886865822
 20
2.515977327
 11
12.6886865822
 21
2.5672823554
  0
LINE
  5
399
100
AcDbEntity
  8
0
100
AcDbLine
 62
2
  6
CONTINUOUS
 10
12.6886865822
 20
2.5920323691
 11
12.6886865822
 21
2.714185542
  0
LINE
  5
39A
100
AcDbEntity
  8
0
100
AcDbLine
 62
2
  6
CONTINUOUS
 10
12.6686865711
 20
2.3677104027
 11
12.6686865711
 21
2.7130462783
  0
LINE
  5
39B
100
AcDbEntity
  8
0
100
AcDbLine
 62
2
  6
CONTINUOUS
 10
12.64868656
 20
2.3693682721
 11
12.64868656
 21
2.7113884089
  0
LINE
  5
39C
100
AcDbEntity
  8
0
100
AcDbLine
 62
2
  6
CONTINUOUS
 10
12.6286865489
 20
2.3710261415
 11
12.6286865489
 21
2.4912273132
  0
LINE
  5
39D
100
AcDbEntity
  8
0
100
AcDbLine
 62
2
  6
CONTINUOUS
 10
12.6286865489
 20
2.515977327
 11
12.6286865489
 21
2.7097305395
  0
LINE
  5
39E
100
AcDbEntity
  8
0
100
AcDbLine
 62
2
  6
CONTINUOUS
 10
12.6086865378
 20
2.372684011
 11
12.6086865378
 21
2.4912273132
  0
LINE
  5
39F
100
AcDbEntity
  8
0
100
AcDbLine
 62
2
  6
CONTINUOUS
 10
12.6086865378
 20
2.5351122279
 11
12.6086865378
 21
2.70807267
  0
LINE
  5
3A0
100
AcDbEntity
  8
0
100
AcDbLine
 62
2
  6
CONTINUOUS
 10
12.5886865267
 20
2.3743418804
 11
12.5886865267
 21
2.4912273132
  0
LINE
  5
3A1
100
AcDbEntity
  8
0
100
AcDbLine
 62
2
  6
CONTINUOUS
 10
12.5886865267
 20
2.5660172622
 11
12.5886865267
 21
2.7064148006
  0
LINE
  5
3A2
100
AcDbEntity
  8
0
100
AcDbLine
 62
2
  6
CONTINUOUS
 10
12.5686865156
 20
2.3759997498
 11
12.5686865156
 21
2.4912273132
  0
LINE
  5
3A3
100
AcDbEntity
  8
0
100
AcDbLine
 62
2
  6
CONTINUOUS
 10
12.5686865156
 20
2.5920323691
 11
12.5686865156
 21
2.7047569312
  0
LINE
  5
3A4
100
AcDbEntity
  8
0
100
AcDbLine
 62
2
  6
CONTINUOUS
 10
12.5486865045
 20
2.3777575277
 11
12.5486865045
 21
2.4912273132
  0
LINE
  5
3A5
100
AcDbEntity
  8
0
100
AcDbLine
 62
2
  6
CONTINUOUS
 10
12.5486865045
 20
2.515977327
 11
12.5486865045
 21
2.5275118824
  0
LINE
  5
3A6
100
AcDbEntity
  8
0
100
AcDbLine
 62
2
  6
CONTINUOUS
 10
12.5486865045
 20
2.5920323691
 11
12.5486865045
 21
2.7029991533
  0
LINE
  5
3A7
100
AcDbEntity
  8
0
100
AcDbLine
 62
2
  6
CONTINUOUS
 10
12.5286864935
 20
2.3802813811
 11
12.5286864935
 21
2.5296213345
  0
LINE
  5
3A8
100
AcDbEntity
  8
0
100
AcDbLine
 62
2
  6
CONTINUOUS
 10
12.5286864935
 20
2.5505713461
 11
12.5286864935
 21
2.5667383551
  0
LINE
  5
3A9
100
AcDbEntity
  8
0
100
AcDbLine
 62
2
  6
CONTINUOUS
 10
12.5286864935
 20
2.5920323691
 11
12.5286864935
 21
2.7004752999
  0
LINE
  5
3AA
100
AcDbEntity
  8
0
100
AcDbLine
 62
2
  6
CONTINUOUS
 10
12.5086864824
 20
2.3828052346
 11
12.5086864824
 21
2.4912273132
  0
LINE
  5
3AB
100
AcDbEntity
  8
0
100
AcDbLine
 62
2
  6
CONTINUOUS
 10
12.5086864824
 20
2.515977327
 11
12.5086864824
 21
2.5279667721
  0
LINE
  5
3AC
100
AcDbEntity
  8
0
100
AcDbLine
 62
2
  6
CONTINUOUS
 10
12.5086864824
 20
2.5868602074
 11
12.5086864824
 21
2.6979514464
  0
LINE
  5
3AD
100
AcDbEntity
  8
0
100
AcDbLine
 62
2
  6
CONTINUOUS
 10
12.4886864713
 20
2.385329088
 11
12.4886864713
 21
2.4912273132
  0
LINE
  5
3AE
100
AcDbEntity
  8
0
100
AcDbLine
 62
2
  6
CONTINUOUS
 10
12.4886864713
 20
2.5553401045
 11
12.4886864713
 21
2.695427593
  0
LINE
  5
3AF
100
AcDbEntity
  8
0
100
AcDbLine
 62
2
  6
CONTINUOUS
 10
12.4686864602
 20
2.3878529415
 11
12.4686864602
 21
2.4912273132
  0
LINE
  5
3B0
100
AcDbEntity
  8
0
100
AcDbLine
 62
2
  6
CONTINUOUS
 10
12.4686864602
 20
2.5238200015
 11
12.4686864602
 21
2.6929037395
  0
LINE
  5
3B1
100
AcDbEntity
  8
0
100
AcDbLine
 62
2
  6
CONTINUOUS
 10
12.4486864491
 20
2.390376795
 11
12.4486864491
 21
2.4912273132
  0
LINE
  5
3B2
100
AcDbEntity
  8
0
100
AcDbLine
 62
2
  6
CONTINUOUS
 10
12.4486864491
 20
2.515977327
 11
12.4486864491
 21
2.690379886
  0
LINE
  5
3B3
100
AcDbEntity
  8
0
100
AcDbLine
 62
2
  6
CONTINUOUS
 10
12.428686438
 20
2.3931794042
 11
12.428686438
 21
2.6875772768
  0
LINE
  5
3B4
100
AcDbEntity
  8
0
100
AcDbLine
 62
2
  6
CONTINUOUS
 10
12.4086864269
 20
2.3964643301
 11
12.4086864269
 21
2.5013773986
  0
LINE
  5
3B5
100
AcDbEntity
  8
0
100
AcDbLine
 62
2
  6
CONTINUOUS
 10
12.4086864269
 20
2.5325739971
 11
12.4086864269
 21
2.5537224311
  0
LINE
  5
3B6
100
AcDbEntity
  8
0
100
AcDbLine
 62
2
  6
CONTINUOUS
 10
12.4086864269
 20
2.5791473398
 11
12.4086864269
 21
2.6842923509
  0
LINE
  5
3B7
100
AcDbEntity
  8
0
100
AcDbLine
 62
2
  6
CONTINUOUS
 10
12.3886864158
 20
2.399749256
 11
12.3886864158
 21
2.4921022658
  0
LINE
  5
3B8
100
AcDbEntity
  8
0
100
AcDbLine
 62
2
  6
CONTINUOUS
 10
12.3886864158
 20
2.5895929958
 11
12.3886864158
 21
2.681007425
  0
LINE
  5
3B9
100
AcDbEntity
  8
0
100
AcDbLine
 62
2
  6
CONTINUOUS
 10
12.3686864047
 20
2.403451877
 11
12.3686864047
 21
2.4912273132
  0
LINE
  5
3BA
100
AcDbEntity
  8
0
100
AcDbLine
 62
2
  6
CONTINUOUS
 10
12.3686864047
 20
2.5920323691
 11
12.3686864047
 21
2.677304804
  0
LINE
  5
3BB
100
AcDbEntity
  8
0
100
AcDbLine
 62
2
  6
CONTINUOUS
 10
12.3486863936
 20
2.407324637
 11
12.3486863936
 21
2.4912273132
  0
LINE
  5
3BC
100
AcDbEntity
  8
0
100
AcDbLine
 62
2
  6
CONTINUOUS
 10
12.3486863936
 20
2.5920323691
 11
12.3486863936
 21
2.673432044
  0
LINE
  5
3BD
100
AcDbEntity
  8
0
100
AcDbLine
 62
2
  6
CONTINUOUS
 10
12.3286863825
 20
2.4113493968
 11
12.3286863825
 21
2.4912273132
  0
LINE
  5
3BE
100
AcDbEntity
  8
0
100
AcDbLine
 62
2
  6
CONTINUOUS
 10
12.3286863825
 20
2.515977327
 11
12.3286863825
 21
2.5333023366
  0
LINE
  5
3BF
100
AcDbEntity
  8
0
100
AcDbLine
 62
2
  6
CONTINUOUS
 10
12.3286863825
 20
2.5499573458
 11
12.3286863825
 21
2.5672823554
  0
LINE
  5
3C0
100
AcDbEntity
  8
0
100
AcDbLine
 62
2
  6
CONTINUOUS
 10
12.3286863825
 20
2.5920323691
 11
12.3286863825
 21
2.6694072842
  0
LINE
  5
3C1
100
AcDbEntity
  8
0
100
AcDbLine
 62
2
  6
CONTINUOUS
 10
12.3086863715
 20
2.4159005505
 11
12.3086863715
 21
2.4912273132
  0
LINE
  5
3C2
100
AcDbEntity
  8
0
100
AcDbLine
 62
2
  6
CONTINUOUS
 10
12.3086863715
 20
2.515977327
 11
12.3086863715
 21
2.5333023366
  0
LINE
  5
3C3
100
AcDbEntity
  8
0
100
AcDbLine
 62
2
  6
CONTINUOUS
 10
12.3086863715
 20
2.5499573458
 11
12.3086863715
 21
2.5672823554
  0
LINE
  5
3C4
100
AcDbEntity
  8
0
100
AcDbLine
 62
2
  6
CONTINUOUS
 10
12.3086863715
 20
2.5920323691
 11
12.3086863715
 21
2.6648561305
  0
LINE
  5
3C5
100
AcDbEntity
  8
0
100
AcDbLine
 62
2
  6
CONTINUOUS
 10
12.2886863604
 20
2.4204517041
 11
12.2886863604
 21
2.4912273132
  0
LINE
  5
3C6
100
AcDbEntity
  8
0
100
AcDbLine
 62
2
  6
CONTINUOUS
 10
12.2886863604
 20
2.5920323691
 11
12.2886863604
 21
2.6603049769
  0
LINE
  5
3C7
100
AcDbEntity
  8
0
100
AcDbLine
 62
2
  6
CONTINUOUS
 10
12.2686863493
 20
2.4257438218
 11
12.2686863493
 21
2.4912273132
  0
LINE
  5
3C8
100
AcDbEntity
  8
0
100
AcDbLine
 62
2
  6
CONTINUOUS
 10
12.2686863493
 20
2.5920323691
 11
12.2686863493
 21
2.6550128592
  0
LINE
  5
3C9
100
AcDbEntity
  8
0
100
AcDbLine
 62
2
  6
CONTINUOUS
 10
12.2486863382
 20
2.4310978667
 11
12.2486863382
 21
2.4912273132
  0
LINE
  5
3CA
100
AcDbEntity
  8
0
100
AcDbLine
 62
2
  6
CONTINUOUS
 10
12.2486863382
 20
2.5920323691
 11
12.2486863382
 21
2.6496588142
  0
LINE
  5
3CB
100
AcDbEntity
  8
0
100
AcDbLine
 62
2
  6
CONTINUOUS
 10
12.2286863271
 20
2.4372566433
 11
12.2286863271
 21
2.4912273132
  0
LINE
  5
3CC
100
AcDbEntity
  8
0
100
AcDbLine
 62
2
  6
CONTINUOUS
 10
12.2286863271
 20
2.515977327
 11
12.2286863271
 21
2.5672823554
  0
LINE
  5
3CD
100
AcDbEntity
  8
0
100
AcDbLine
 62
2
  6
CONTINUOUS
 10
12.2286863271
 20
2.5920323691
 11
12.2286863271
 21
2.6435000377
  0
LINE
  5
3CE
100
AcDbEntity
  8
0
100
AcDbLine
 62
2
  6
CONTINUOUS
 10
12.208686316
 20
2.443589771
 11
12.208686316
 21
2.4912273132
  0
LINE
  5
3CF
100
AcDbEntity
  8
0
100
AcDbLine
 62
2
  6
CONTINUOUS
 10
12.208686316
 20
2.515977327
 11
12.208686316
 21
2.5672823554
  0
LINE
  5
3D0
100
AcDbEntity
  8
0
100
AcDbLine
 62
2
  6
CONTINUOUS
 10
12.208686316
 20
2.5920323691
 11
12.208686316
 21
2.63716691
  0
LINE
  5
3D1
100
AcDbEntity
  8
0
100
AcDbLine
 62
2
  6
CONTINUOUS
 10
12.1886863049
 20
2.4510806436
 11
12.1886863049
 21
2.6296760373
  0
LINE
  5
3D2
100
AcDbEntity
  8
0
100
AcDbLine
 62
2
  6
CONTINUOUS
 10
12.1686862938
 20
2.4591016523
 11
12.1686862938
 21
2.6216550287
  0
LINE
  5
3D3
100
AcDbEntity
  8
0
100
AcDbLine
 62
2
  6
CONTINUOUS
 10
12.1486862827
 20
2.468314272
 11
12.1486862827
 21
2.612442409
  0
LINE
  5
3D4
100
AcDbEntity
  8
0
100
AcDbLine
 62
2
  6
CONTINUOUS
 10
12.1286862716
 20
2.4794932339
 11
12.1286862716
 21
2.601263447
  0
LINE
  5
3D5
100
AcDbEntity
  8
0
100
AcDbLine
 62
2
  6
CONTINUOUS
 10
12.1086862605
 20
2.4934150665
 11
12.1086862605
 21
2.5873416144
  0
LINE
  5
3D6
100
AcDbEntity
  8
0
100
AcDbLine
 62
2
  6
CONTINUOUS
 10
12.0886862494
 20
2.5144449553
 11
12.0886862494
 21
2.5663117257
  0
ENDBLK
  5
3D7
100
AcDbEntity
  8
0
  6
BYBLOCK
 62
0
100
AcDbBlockEnd
  0
BLOCK
  5
3D8
100
AcDbEntity
  8
SCHEME_DIMS
100
AcDbBlockBegin
 62
2
  6
CONTINUOUS
  2
*D0
 70
65
 10
0.0
 20
0.0
  3
*D0
  1

  0
TEXT
  5
3D9
100
AcDbEntity
  8
SCHEME_DIMS
100
AcDbText
 62
2
  6
CONTINUOUS
 10
4.2880351961
 20
7.9020332459
  7
STANDARD
 40
0.1
  1
40
 41
1.0
 72
0
100
AcDbText
  0
TEXT
  5
3DA
100
AcDbEntity
  8
SCHEME_DIMS
100
AcDbText
 62
2
  6
CONTINUOUS
 10
4.3880351961
 20
7.7520332459
  7
STANDARD
 40
0.1
  1
1.58
 41
1.0
 72
0
100
AcDbText
  0
TEXT
  5
3DB
100
AcDbEntity
  8
SCHEME_DIMS
100
AcDbText
 62
2
  6
CONTINUOUS
 10
4.2880351961
 20
7.7520332459
  7
STANDARD
 40
0.1
  1
[
 41
1.0
 72
0
100
AcDbText
  0
TEXT
  5
3DC
100
AcDbEntity
  8
SCHEME_DIMS
100
AcDbText
 62
2
  6
CONTINUOUS
 10
4.7880351961
 20
7.7520332459
  7
STANDARD
 40
0.1
  1
]
 41
1.0
 72
0
100
AcDbText
  0
LINE
  5
3DD
100
AcDbEntity
  8
SCHEME_DIMS
100
AcDbLine
 62
2
  6
CONTINUOUS
 10
3.8005351961
 20
7.4235332459
 11
3.8005351961
 21
8.0770332459
  0
LINE
  5
3DE
100
AcDbEntity
  8
SCHEME_DIMS
100
AcDbLine
 62
2
  6
CONTINUOUS
 10
5.3755351961
 20
7.4235332459
 11
5.3755351961
 21
8.0770332459
  0
LINE
  5
3DF
100
AcDbEntity
  8
SCHEME_DIMS
100
AcDbLine
 62
2
  6
CONTINUOUS
 10
3.8005351961
 20
7.9520332459
 11
4.1880351961
 21
7.9520332459
  0
LINE
  5
3E0
100
AcDbEntity
  8
SCHEME_DIMS
100
AcDbLine
 62
2
  6
CONTINUOUS
 10
5.3755351961
 20
7.9520332459
 11
4.9880351961
 21
7.9520332459
  0
INSERT
  5
3E1
100
AcDbEntity
  8
SCHEME_DIMS
100
AcDbBlockReference
 62
2
  6
CONTINUOUS
  2
_FILLED
 10
3.8005351961
 20
7.9520332459
 41
0.1875
 42
0.1875
 43
0.1875
 50
180.0
  0
INSERT
  5
3E2
100
AcDbEntity
  8
SCHEME_DIMS
100
AcDbBlockReference
 62
2
  6
CONTINUOUS
  2
_FILLED
 10
5.3755351961
 20
7.9520332459
 41
0.1875
 42
0.1875
 43
0.1875
  0
ENDBLK
  5
3E3
100
AcDbEntity
  8
0
  6
BYBLOCK
 62
0
100
AcDbBlockEnd
  0
BLOCK
  5
3E4
100
AcDbEntity
  8
SCHEME_DIMS
100
AcDbBlockBegin
 62
2
  6
CONTINUOUS
  2
*D1
 70
65
 10
0.0
 20
0.0
  3
*D1
  1

  0
TEXT
  5
3E5
100
AcDbEntity
  8
SCHEME_DIMS
100
AcDbText
 62
2
  6
CONTINUOUS
 10
5.8605351961
 20
6.7520332459
  7
STANDARD
 40
0.1
  1
21,6
 41
1.0
 72
0
100
AcDbText
  0
TEXT
  5
3E6
100
AcDbEntity
  8
SCHEME_DIMS
100
AcDbText
 62
2
  6
CONTINUOUS
 10
5.9605351961
 20
6.6020332459
  7
STANDARD
 40
0.1
  1
.85
 41
1.0
 72
0
100
AcDbText
  0
TEXT
  5
3E7
100
AcDbEntity
  8
SCHEME_DIMS
100
AcDbText
 62
2
  6
CONTINUOUS
 10
5.8605351961
 20
6.6020332459
  7
STANDARD
 40
0.1
  1
[
 41
1.0
 72
0
100
AcDbText
  0
TEXT
  5
3E8
100
AcDbEntity
  8
SCHEME_DIMS
100
AcDbText
 62
2
  6
CONTINUOUS
 10
6.2605351961
 20
6.6020332459
  7
STANDARD
 40
0.1
  1
]
 41
1.0
 72
0
100
AcDbText
  0
LINE
  5
3E9
100
AcDbEntity
  8
SCHEME_DIMS
100
AcDbLine
 62
2
  6
CONTINUOUS
 10
5.6470351961
 20
6.3020332459
 11
6.2355351961
 21
6.3020332459
  0
LINE
  5
3EA
100
AcDbEntity
  8
SCHEME_DIMS
100
AcDbLine
 62
2
  6
CONTINUOUS
 10
5.6470351961
 20
7.1520332459
 11
6.2355351961
 21
7.1520332459
  0
LINE
  5
3EB
100
AcDbEntity
  8
SCHEME_DIMS
100
AcDbLine
 62
2
  6
CONTINUOUS
 10
6.1105351961
 20
6.3020332459
 11
6.1105351961
 21
5.9020332459
  0
LINE
  5
3EC
100
AcDbEntity
  8
SCHEME_DIMS
100
AcDbLine
 62
2
  6
CONTINUOUS
 10
6.1105351961
 20
7.1520332459
 11
6.1105351961
 21
7.5520332459
  0
INSERT
  5
3ED
100
AcDbEntity
  8
SCHEME_DIMS
100
AcDbBlockReference
 62
2
  6
CONTINUOUS
  2
_FILLED
 10
6.1105351961
 20
6.3020332459
 41
0.1875
 42
0.1875
 43
0.1875
 50
90.0
  0
INSERT
  5
3EE
100
AcDbEntity
  8
SCHEME_DIMS
100
AcDbBlockReference
 62
2
  6
CONTINUOUS
  2
_FILLED
 10
6.1105351961
 20
7.1520332459
 41
0.1875
 42
0.1875
 43
0.1875
 50
270.0
  0
ENDBLK
  5
3EF
100
AcDbEntity
  8
0
  6
BYBLOCK
 62
0
100
AcDbBlockEnd
  0
BLOCK
  5
3F0
100
AcDbEntity
  8
SCHEME_DIMS
100
AcDbBlockBegin
 62
2
  6
CONTINUOUS
  2
*D2
 70
65
 10
0.0
 20
0.0
  3
*D2
  1

  0
TEXT
  5
3F1
100
AcDbEntity
  8
SCHEME_DIMS
100
AcDbText
 62
2
  6
CONTINUOUS
 10
4.2880351961
 20
5.2780332459
  7
STANDARD
 40
0.1
  1
51,9
 41
1.0
 72
0
100
AcDbText
  0
TEXT
  5
3F2
100
AcDbEntity
  8
SCHEME_DIMS
100
AcDbText
 62
2
  6
CONTINUOUS
 10
4.3880351961
 20
5.1280332459
  7
STANDARD
 40
0.1
  1
2.05
 41
1.0
 72
0
100
AcDbText
  0
TEXT
  5
3F3
100
AcDbEntity
  8
SCHEME_DIMS
100
AcDbText
 62
2
  6
CONTINUOUS
 10
4.2880351961
 20
5.1280332459
  7
STANDARD
 40
0.1
  1
[
 41
1.0
 72
0
100
AcDbText
  0
TEXT
  5
3F4
100
AcDbEntity
  8
SCHEME_DIMS
100
AcDbText
 62
2
  6
CONTINUOUS
 10
4.7880351961
 20
5.1280332459
  7
STANDARD
 40
0.1
  1
]
 41
1.0
 72
0
100
AcDbText
  0
LINE
  5
3F5
100
AcDbEntity
  8
SCHEME_DIMS
100
AcDbLine
 62
2
  6
CONTINUOUS
 10
5.6105351961
 20
5.7655332459
 11
5.6105351961
 21
5.2030332459
  0
LINE
  5
3F6
100
AcDbEntity
  8
SCHEME_DIMS
100
AcDbLine
 62
2
  6
CONTINUOUS
 10
3.5655351961
 20
5.7655332459
 11
3.5655351961
 21
5.2030332459
  0
LINE
  5
3F7
100
AcDbEntity
  8
SCHEME_DIMS
100
AcDbLine
 62
2
  6
CONTINUOUS
 10
5.6105351961
 20
5.3280332459
 11
4.9880351961
 21
5.3280332459
  0
LINE
  5
3F8
100
AcDbEntity
  8
SCHEME_DIMS
100
AcDbLine
 62
2
  6
CONTINUOUS
 10
3.5655351961
 20
5.3280332459
 11
4.1880351961
 21
5.3280332459
  0
INSERT
  5
3F9
100
AcDbEntity
  8
SCHEME_DIMS
100
AcDbBlockReference
 62
2
  6
CONTINUOUS
  2
_FILLED
 10
5.6105351961
 20
5.3280332459
 41
0.1875
 42
0.1875
 43
0.1875
  0
INSERT
  5
3FA
100
AcDbEntity
  8
SCHEME_DIMS
100
AcDbBlockReference
 62
2
  6
CONTINUOUS
  2
_FILLED
 10
3.5655351961
 20
5.3280332459
 41
0.1875
 42
0.1875
 43
0.1875
 50
180.0
  0
ENDBLK
  5
3FB
100
AcDbEntity
  8
0
  6
BYBLOCK
 62
0
100
AcDbBlockEnd
  0
BLOCK
  5
3FC
100
AcDbEntity
  8
SCHEME_DIMS
100
AcDbBlockBegin
 62
2
  6
CONTINUOUS
  2
*D3
 70
65
 10
0.0
 20
0.0
  3
*D3
  1

  0
TEXT
  5
3FD
100
AcDbEntity
  8
SCHEME_DIMS
100
AcDbText
 62
2
  6
CONTINUOUS
 10
4.2880351961
 20
4.3289184506
  7
STANDARD
 40
0.1
  1
40
 41
1.0
 72
0
100
AcDbText
  0
TEXT
  5
3FE
100
AcDbEntity
  8
SCHEME_DIMS
100
AcDbText
 62
2
  6
CONTINUOUS
 10
4.3880351961
 20
4.1789184506
  7
STANDARD
 40
0.1
  1
1.58
 41
1.0
 72
0
100
AcDbText
  0
TEXT
  5
3FF
100
AcDbEntity
  8
SCHEME_DIMS
100
AcDbText
 62
2
  6
CONTINUOUS
 10
4.2880351961
 20
4.1789184506
  7
STANDARD
 40
0.1
  1
[
 41
1.0
 72
0
100
AcDbText
  0
TEXT
  5
400
100
AcDbEntity
  8
SCHEME_DIMS
100
AcDbText
 62
2
  6
CONTINUOUS
 10
4.7880351961
 20
4.1789184506
  7
STANDARD
 40
0.1
  1
]
 41
1.0
 72
0
100
AcDbText
  0
LINE
  5
401
100
AcDbEntity
  8
SCHEME_DIMS
100
AcDbLine
 62
2
  6
CONTINUOUS
 10
5.3755351961
 20
3.9004184506
 11
5.3755351961
 21
4.5039184506
  0
LINE
  5
402
100
AcDbEntity
  8
SCHEME_DIMS
100
AcDbLine
 62
2
  6
CONTINUOUS
 10
3.8005351961
 20
3.9004184506
 11
3.8005351961
 21
4.5039184506
  0
LINE
  5
403
100
AcDbEntity
  8
SCHEME_DIMS
100
AcDbLine
 62
2
  6
CONTINUOUS
 10
5.3755351961
 20
4.3789184506
 11
4.9880351961
 21
4.3789184506
  0
LINE
  5
404
100
AcDbEntity
  8
SCHEME_DIMS
100
AcDbLine
 62
2
  6
CONTINUOUS
 10
3.8005351961
 20
4.3789184506
 11
4.1880351961
 21
4.3789184506
  0
INSERT
  5
405
100
AcDbEntity
  8
SCHEME_DIMS
100
AcDbBlockReference
 62
2
  6
CONTINUOUS
  2
_FILLED
 10
5.3755351961
 20
4.3789184506
 41
0.1875
 42
0.1875
 43
0.1875
  0
INSERT
  5
406
100
AcDbEntity
  8
SCHEME_DIMS
100
AcDbBlockReference
 62
2
  6
CONTINUOUS
  2
_FILLED
 10
3.8005351961
 20
4.3789184506
 41
0.1875
 42
0.1875
 43
0.1875
 50
180.0
  0
ENDBLK
  5
407
100
AcDbEntity
  8
0
  6
BYBLOCK
 62
0
100
AcDbBlockEnd
  0
BLOCK
  5
408
100
AcDbEntity
  8
SCHEME_DIMS
100
AcDbBlockBegin
 62
2
  6
CONTINUOUS
  2
*D4
 70
65
 10
0.0
 20
0.0
  3
*D4
  1

  0
TEXT
  5
409
100
AcDbEntity
  8
SCHEME_DIMS
100
AcDbText
 62
2
  6
CONTINUOUS
 10
6.1975877294
 20
4.2357095441
  7
STANDARD
 40
0.1
  1
%%c
 41
1.3333333333
 72
0
100
AcDbText
  0
TEXT
  5
40A
100
AcDbEntity
  8
SCHEME_DIMS
100
AcDbText
 62
2
  6
CONTINUOUS
 10
6.3309210627
 20
4.2357095441
  7
STANDARD
 40
0.1
  1
5,5
 41
1.0
 72
0
100
AcDbText
  0
TEXT
  5
40B
100
AcDbEntity
  8
SCHEME_DIMS
100
AcDbText
 62
2
  6
CONTINUOUS
 10
6.4309210627
 20
4.0857095441
  7
STANDARD
 40
0.1
  1
.22
 41
1.0
 72
0
100
AcDbText
  0
TEXT
  5
40C
100
AcDbEntity
  8
SCHEME_DIMS
100
AcDbText
 62
2
  6
CONTINUOUS
 10
6.3309210627
 20
4.0857095441
  7
STANDARD
 40
0.1
  1
[
 41
1.0
 72
0
100
AcDbText
  0
TEXT
  5
40D
100
AcDbEntity
  8
SCHEME_DIMS
100
AcDbText
 62
2
  6
CONTINUOUS
 10
6.7309210627
 20
4.0857095441
  7
STANDARD
 40
0.1
  1
]
 41
1.0
 72
0
100
AcDbText
  0
LINE
  5
40E
100
AcDbEntity
  8
SCHEME_DIMS
100
AcDbLine
 62
2
  6
CONTINUOUS
 10
5.4471249148
 20
3.7111128067
 11
5.9475877294
 21
4.2857095441
  0
LINE
  5
40F
100
AcDbEntity
  8
SCHEME_DIMS
100
AcDbLine
 62
2
  6
CONTINUOUS
 10
5.9475877294
 20
4.2857095441
 11
6.0975877294
 21
4.2857095441
  0
INSERT
  5
410
100
AcDbEntity
  8
SCHEME_DIMS
100
AcDbBlockReference
 62
2
  6
CONTINUOUS
  2
_FILLED
 10
5.4471249148
 20
3.7111128067
 41
0.1875
 42
0.1875
 43
0.1875
 50
228.9447557662
  0
ENDBLK
  5
411
100
AcDbEntity
  8
0
  6
BYBLOCK
 62
0
100
AcDbBlockEnd
  0
BLOCK
  5
412
100
AcDbEntity
  8
SCHEME_DIMS
100
AcDbBlockBegin
 62
2
  6
CONTINUOUS
  2
*D5
 70
65
 10
0.0
 20
0.0
  3
*D5
  1

  0
TEXT
  5
413
100
AcDbEntity
  8
SCHEME_DIMS
100
AcDbText
 62
2
  6
CONTINUOUS
 10
6.1575694398
 20
7.8583370802
  7
STANDARD
 40
0.1
  1
%%c
 41
1.3333333333
 72
0
100
AcDbText
  0
TEXT
  5
414
100
AcDbEntity
  8
SCHEME_DIMS
100
AcDbText
 62
2
  6
CONTINUOUS
 10
6.2909027731
 20
7.8583370802
  7
STANDARD
 40
0.1
  1
5,5
 41
1.0
 72
0
100
AcDbText
  0
TEXT
  5
415
100
AcDbEntity
  8
SCHEME_DIMS
100
AcDbText
 62
2
  6
CONTINUOUS
 10
6.3909027731
 20
7.7083370802
  7
STANDARD
 40
0.1
  1
.22
 41
1.0
 72
0
100
AcDbText
  0
TEXT
  5
416
100
AcDbEntity
  8
SCHEME_DIMS
100
AcDbText
 62
2
  6
CONTINUOUS
 10
6.2909027731
 20
7.7083370802
  7
STANDARD
 40
0.1
  1
[
 41
1.0
 72
0
100
AcDbText
  0
TEXT
  5
417
100
AcDbEntity
  8
SCHEME_DIMS
100
AcDbText
 62
2
  6
CONTINUOUS
 10
6.6909027731
 20
7.7083370802
  7
STANDARD
 40
0.1
  1
]
 41
1.0
 72
0
100
AcDbText
  0
LINE
  5
418
100
AcDbEntity
  8
SCHEME_DIMS
100
AcDbLine
 62
2
  6
CONTINUOUS
 10
5.4382498201
 20
7.2411841064
 11
5.9075694398
 21
7.9083370802
  0
LINE
  5
419
100
AcDbEntity
  8
SCHEME_DIMS
100
AcDbLine
 62
2
  6
CONTINUOUS
 10
5.9075694398
 20
7.9083370802
 11
6.0575694398
 21
7.9083370802
  0
INSERT
  5
41A
100
AcDbEntity
  8
SCHEME_DIMS
100
AcDbBlockReference
 62
2
  6
CONTINUOUS
  2
_FILLED
 10
5.4382498201
 20
7.2411841064
 41
0.1875
 42
0.1875
 43
0.1875
 50
234.8749060544
  0
ENDBLK
  5
41B
100
AcDbEntity
  8
0
  6
BYBLOCK
 62
0
100
AcDbBlockEnd
  0
BLOCK
  5
41C
100
AcDbEntity
  8
SCHEME_DIMS
100
AcDbBlockBegin
 62
2
  6
CONTINUOUS
  2
*D6
 70
65
 10
0.0
 20
0.0
  3
*D6
  1

  0
TEXT
  5
41D
100
AcDbEntity
  8
SCHEME_DIMS
100
AcDbText
 62
2
  6
CONTINUOUS
 10
8.9652015219
 20
5.2780332459
  7
STANDARD
 40
0.1
  1
19,1
 41
1.0
 72
0
100
AcDbText
  0
TEXT
  5
41E
100
AcDbEntity
  8
SCHEME_DIMS
100
AcDbText
 62
2
  6
CONTINUOUS
 10
9.0652015219
 20
5.1280332459
  7
STANDARD
 40
0.1
  1
.75
 41
1.0
 72
0
100
AcDbText
  0
TEXT
  5
41F
100
AcDbEntity
  8
SCHEME_DIMS
100
AcDbText
 62
2
  6
CONTINUOUS
 10
8.9652015219
 20
5.1280332459
  7
STANDARD
 40
0.1
  1
[
 41
1.0
 72
0
100
AcDbText
  0
TEXT
  5
420
100
AcDbEntity
  8
SCHEME_DIMS
100
AcDbText
 62
2
  6
CONTINUOUS
 10
9.3652015219
 20
5.1280332459
  7
STANDARD
 40
0.1
  1
]
 41
1.0
 72
0
100
AcDbText
  0
LINE
  5
421
100
AcDbEntity
  8
SCHEME_DIMS
100
AcDbLine
 62
2
  6
CONTINUOUS
 10
8.8402015219
 20
5.7655332459
 11
8.8402015219
 21
5.2030332459
  0
LINE
  5
422
100
AcDbEntity
  8
SCHEME_DIMS
100
AcDbLine
 62
2
  6
CONTINUOUS
 10
9.5902015219
 20
5.8511284434
 11
9.5902015219
 21
5.2030332459
  0
LINE
  5
423
100
AcDbEntity
  8
SCHEME_DIMS
100
AcDbLine
 62
2
  6
CONTINUOUS
 10
8.8402015219
 20
5.3280332459
 11
8.4402015219
 21
5.3280332459
  0
LINE
  5
424
100
AcDbEntity
  8
SCHEME_DIMS
100
AcDbLine
 62
2
  6
CONTINUOUS
 10
9.5902015219
 20
5.3280332459
 11
9.9902015219
 21
5.3280332459
  0
INSERT
  5
425
100
AcDbEntity
  8
SCHEME_DIMS
100
AcDbBlockReference
 62
2
  6
CONTINUOUS
  2
_FILLED
 10
8.8402015219
 20
5.3280332459
 41
0.1875
 42
0.1875
 43
0.1875
  0
INSERT
  5
426
100
AcDbEntity
  8
SCHEME_DIMS
100
AcDbBlockReference
 62
2
  6
CONTINUOUS
  2
_FILLED
 10
9.5902015219
 20
5.3280332459
 41
0.1875
 42
0.1875
 43
0.1875
 50
180.0
  0
ENDBLK
  5
427
100
AcDbEntity
  8
0
  6
BYBLOCK
 62
0
100
AcDbBlockEnd
  0
BLOCK
  5
428
100
AcDbEntity
  8
SCHEME_DIMS
100
AcDbBlockBegin
 62
2
  6
CONTINUOUS
  2
*D7
 70
65
 10
0.0
 20
0.0
  3
*D7
  1

  0
TEXT
  5
429
100
AcDbEntity
  8
SCHEME_DIMS
100
AcDbText
 62
2
  6
CONTINUOUS
 10
8.0402015219
 20
6.6650332459
  7
STANDARD
 40
0.1
  1
41,2
 41
1.0
 72
0
100
AcDbText
  0
TEXT
  5
42A
100
AcDbEntity
  8
SCHEME_DIMS
100
AcDbText
 62
2
  6
CONTINUOUS
 10
8.1402015219
 20
6.5150332459
  7
STANDARD
 40
0.1
  1
1.62
 41
1.0
 72
0
100
AcDbText
  0
TEXT
  5
42B
100
AcDbEntity
  8
SCHEME_DIMS
100
AcDbText
 62
2
  6
CONTINUOUS
 10
8.0402015219
 20
6.5150332459
  7
STANDARD
 40
0.1
  1
[
 41
1.0
 72
0
100
AcDbText
  0
TEXT
  5
42C
100
AcDbEntity
  8
SCHEME_DIMS
100
AcDbText
 62
2
  6
CONTINUOUS
 10
8.5402015219
 20
6.5150332459
  7
STANDARD
 40
0.1
  1
]
 41
1.0
 72
0
100
AcDbText
  0
LINE
  5
42D
100
AcDbEntity
  8
SCHEME_DIMS
100
AcDbLine
 62
2
  6
CONTINUOUS
 10
9.4537015219
 20
7.4520332459
 11
8.2152015219
 21
7.4520332459
  0
LINE
  5
42E
100
AcDbEntity
  8
SCHEME_DIMS
100
AcDbLine
 62
2
  6
CONTINUOUS
 10
8.8056389441
 20
5.8280332459
 11
8.2152015219
 21
5.8280332459
  0
LINE
  5
42F
100
AcDbEntity
  8
SCHEME_DIMS
100
AcDbLine
 62
2
  6
CONTINUOUS
 10
8.3402015219
 20
7.4520332459
 11
8.3402015219
 21
6.8650332459
  0
LINE
  5
430
100
AcDbEntity
  8
SCHEME_DIMS
100
AcDbLine
 62
2
  6
CONTINUOUS
 10
8.3402015219
 20
5.8280332459
 11
8.3402015219
 21
6.4150332459
  0
INSERT
  5
431
100
AcDbEntity
  8
SCHEME_DIMS
100
AcDbBlockReference
 62
2
  6
CONTINUOUS
  2
_FILLED
 10
8.3402015219
 20
7.4520332459
 41
0.1875
 42
0.1875
 43
0.1875
 50
90.0
  0
INSERT
  5
432
100
AcDbEntity
  8
SCHEME_DIMS
100
AcDbBlockReference
 62
2
  6
CONTINUOUS
  2
_FILLED
 10
8.3402015219
 20
5.8280332459
 41
0.1875
 42
0.1875
 43
0.1875
 50
270.0
  0
ENDBLK
  5
433
100
AcDbEntity
  8
0
  6
BYBLOCK
 62
0
100
AcDbBlockEnd
  0
BLOCK
  5
434
100
AcDbEntity
  8
0
100
AcDbBlockBegin
  2
_FILLED
 70
64
 10
0.0
 20
0.0
  3
_FILLED
  1

  0
SOLID
  5
435
100
AcDbEntity
  8
0
  6
BYBLOCK
 62
0
100
AcDbTrace
 10
0.0
 20
0.0
 11
-1.0
 21
0.1666666667
 12
-1.0
 22
-0.1666666667
 13
-1.0
 23
-0.1666666667
  0
ENDBLK
  5
436
100
AcDbEntity
  8
0
  6
BYBLOCK
 62
0
100
AcDbBlockEnd
  0
ENDSEC
  0
SECTION
  2
ENTITIES
  0
TEXT
  5
437
100
AcDbEntity
  8
0
100
AcDbText
 62
2
  6
CONTINUOUS
 10
10.1487658475
 20
1.694867839
  7
STANDARD
 40
0.1
  1
%%uTHIRD ANGLE PROJECTION
 41
0.8
 72
1
 11
11.0287658475
 21
1.694867839
100
AcDbText
  0
TEXT
  5
438
100
AcDbEntity
  8
0
100
AcDbText
 62
2
  6
CONTINUOUS
 10
12.88
 20
1.377
  7
STANDARD
 40
0.08
  1
DRAWING NO.
 41
1.0
 72
0
100
AcDbText
  0
TEXT
  5
439
100
AcDbEntity
  8
0
100
AcDbText
 62
2
  6
CONTINUOUS
 10
10.044
 20
2.436432
  7
STANDARD
 40
0.08
  1
and is proprietary in general
 41
0.85
 72
1
 11
11.03
 21
2.436432
100
AcDbText
  0
TEXT
  5
43A
100
AcDbEntity
  8
0
100
AcDbText
 62
2
  6
CONTINUOUS
 10
10.078
 20
2.316432
  7
STANDARD
 40
0.08
  1
and in detail.  Its contents
 41
0.85
 72
1
 11
11.03
 21
2.316432
100
AcDbText
  0
TEXT
  5
43B
100
AcDbEntity
  8
0
100
AcDbText
 62
2
  6
CONTINUOUS
 10
10.214
 20
2.196432
  7
STANDARD
 40
0.08
  1
shall not be revealed to
 41
0.85
 72
1
 11
11.03
 21
2.196432
100
AcDbText
  0
TEXT
  5
43C
100
AcDbEntity
  8
0
100
AcDbText
 62
2
  6
CONTINUOUS
 10
10.248
 20
2.076432
  7
STANDARD
 40
0.08
  1
outside parties without
 41
0.85
 72
1
 11
11.03
 21
2.076432
100
AcDbText
  0
TEXT
  5
43D
100
AcDbEntity
  8
0
100
AcDbText
 62
2
  6
CONTINUOUS
 10
10.146
 20
1.956432
  7
STANDARD
 40
0.08
  1
written consent of BANNER.
 41
0.85
 72
1
 11
11.03
 21
1.956432
100
AcDbText
  0
TEXT
  5
43E
100
AcDbEntity
  8
0
100
AcDbText
 62
2
  6
CONTINUOUS
 10
12.08
 20
2.117
  7
STANDARD
 40
0.1
  1
TITLE
 41
0.8
 72
0
100
AcDbText
  0
TEXT
  5
43F
100
AcDbEntity
  8
0
100
AcDbText
 62
2
  6
CONTINUOUS
 10
12.08
 20
1.377
  7
STANDARD
 40
0.08
  1
SIZE
 41
1.0
 72
0
100
AcDbText
  0
TEXT
  5
440
100
AcDbEntity
  8
0
100
AcDbText
 62
2
  6
CONTINUOUS
 10
12.08
 20
1.007
  7
STANDARD
 40
0.08
  1
SCALE
 41
1.0
 72
0
100
AcDbText
  0
TEXT
  5
441
100
AcDbEntity
  8
0
100
AcDbText
 62
2
  6
CONTINUOUS
 10
12.46
 20
1.237
  7
STANDARD
 40
0.1
  1
B
 41
0.8
 72
1
 11
12.5
 21
1.237
100
AcDbText
  0
TEXT
  5
442
100
AcDbEntity
  8
0
100
AcDbText
 62
2
  6
CONTINUOUS
 10
10.112
 20
2.556432
  7
STANDARD
 40
0.08
  1
of BANNER ENGINEERING CORP.
 41
0.85
 72
1
 11
11.03
 21
2.556432
100
AcDbText
  0
TEXT
  5
443
100
AcDbEntity
  8
0
100
AcDbText
 62
2
  6
CONTINUOUS
 10
10.078
 20
2.676432
  7
STANDARD
 40
0.08
  1
This drawing is the property
 41
0.85
 72
1
 11
11.03
 21
2.676432
100
AcDbText
  0
TEXT
  5
444
100
AcDbEntity
  8
0
100
AcDbText
 62
2
  6
CONTINUOUS
 10
14.19
 20
2.3134
  7
STANDARD
 40
0.1
  1
MINNEAPOLIS, MN 55440
 41
0.8
 72
1
 11
15.03
 21
2.3134
100
AcDbText
  0
TEXT
  5
445
100
AcDbEntity
  8
0
100
AcDbText
 62
2
  6
CONTINUOUS
 10
14.255
 20
1.007
  7
STANDARD
 40
0.08
  1
SHEET
 41
1.0
 72
0
100
AcDbText
  0
TEXT
  5
446
100
AcDbEntity
  8
0
100
AcDbText
 62
2
  6
CONTINUOUS
 10
15.63
 20
1.377
  7
STANDARD
 40
0.08
  1
REV.
 41
1.0
 72
0
100
AcDbText
  0
TEXT
  5
447
100
AcDbEntity
  8
0
100
AcDbText
 62
2
  6
CONTINUOUS
 10
16.03
 20
0.765443
  7
STANDARD
 40
0.07
  1
PRO/E
 41
1.0
 72
2
 11
16.38
 21
0.765443
100
AcDbText
  0
TEXT
  5
448
100
AcDbEntity
  8
0
100
AcDbText
 62
2
  6
CONTINUOUS
 10
13.7052
 20
2.631049
  7
STANDARD
 40
0.12
  1
BANNER ENGINEERING CORP.
 41
0.92
 72
1
 11
15.03
 21
2.631049
100
AcDbText
  0
TEXT
  5
449
100
AcDbEntity
  8
0
100
AcDbText
 62
2
  6
CONTINUOUS
 10
14.51
 20
2.4724
  7
STANDARD
 40
0.1
  1
P.O. BOX 9414
 41
0.8
 72
1
 11
15.03
 21
2.4724
100
AcDbText
  0
TEXT
  5
44A
100
AcDbEntity
  8
0
100
AcDbText
 62
2
  6
CONTINUOUS
 10
9.445
 20
10.212
  7
STANDARD
 40
0.1
  1
4
 41
0.8
 72
1
 11
9.485
 21
10.212
100
AcDbText
  0
TEXT
  5
44B
100
AcDbEntity
  8
0
100
AcDbText
 62
2
  6
CONTINUOUS
 10
11.415
 20
10.212
  7
STANDARD
 40
0.1
  1
3
 41
0.8
 72
1
 11
11.455
 21
10.212
100
AcDbText
  0
TEXT
  5
44C
100
AcDbEntity
  8
0
100
AcDbText
 62
2
  6
CONTINUOUS
 10
13.385
 20
10.212
  7
STANDARD
 40
0.1
  1
2
 41
0.8
 72
1
 11
13.425
 21
10.212
100
AcDbText
  0
TEXT
  5
44D
100
AcDbEntity
  8
0
100
AcDbText
 62
2
  6
CONTINUOUS
 10
15.355
 20
10.212
  7
STANDARD
 40
0.1
  1
1
 41
0.8
 72
1
 11
15.395
 21
10.212
100
AcDbText
  0
TEXT
  5
44E
100
AcDbEntity
  8
0
100
AcDbText
 62
2
  6
CONTINUOUS
 10
3.535
 20
10.212
  7
STANDARD
 40
0.1
  1
7
 41
0.8
 72
1
 11
3.575
 21
10.212
100
AcDbText
  0
TEXT
  5
44F
100
AcDbEntity
  8
0
100
AcDbText
 62
2
  6
CONTINUOUS
 10
5.505
 20
10.212
  7
STANDARD
 40
0.1
  1
6
 41
0.8
 72
1
 11
5.545
 21
10.212
100
AcDbText
  0
TEXT
  5
450
100
AcDbEntity
  8
0
100
AcDbText
 62
2
  6
CONTINUOUS
 10
7.475
 20
10.212
  7
STANDARD
 40
0.1
  1
5
 41
0.8
 72
1
 11
7.515
 21
10.212
100
AcDbText
  0
TEXT
  5
451
100
AcDbEntity
  8
0
100
AcDbText
 62
2
  6
CONTINUOUS
 10
1.565
 20
10.212
  7
STANDARD
 40
0.1
  1
8
 41
0.8
 72
1
 11
1.605
 21
10.212
100
AcDbText
  0
TEXT
  5
452
100
AcDbEntity
  8
0
100
AcDbText
 62
2
  6
CONTINUOUS
 10
1.565
 20
0.687
  7
STANDARD
 40
0.1
  1
8
 41
0.8
 72
1
 11
1.605
 21
0.687
100
AcDbText
  0
TEXT
  5
453
100
AcDbEntity
  8
0
100
AcDbText
 62
2
  6
CONTINUOUS
 10
3.535
 20
0.687
  7
STANDARD
 40
0.1
  1
7
 41
0.8
 72
1
 11
3.575
 21
0.687
100
AcDbText
  0
TEXT
  5
454
100
AcDbEntity
  8
0
100
AcDbText
 62
2
  6
CONTINUOUS
 10
5.505
 20
0.687
  7
STANDARD
 40
0.1
  1
6
 41
0.8
 72
1
 11
5.545
 21
0.687
100
AcDbText
  0
TEXT
  5
455
100
AcDbEntity
  8
0
100
AcDbText
 62
2
  6
CONTINUOUS
 10
7.475
 20
0.687
  7
STANDARD
 40
0.1
  1
5
 41
0.8
 72
1
 11
7.515
 21
0.687
100
AcDbText
  0
TEXT
  5
456
100
AcDbEntity
  8
0
100
AcDbText
 62
2
  6
CONTINUOUS
 10
9.445
 20
0.687
  7
STANDARD
 40
0.1
  1
4
 41
0.8
 72
1
 11
9.485
 21
0.687
100
AcDbText
  0
TEXT
  5
457
100
AcDbEntity
  8
0
100
AcDbText
 62
2
  6
CONTINUOUS
 10
11.415
 20
0.687
  7
STANDARD
 40
0.1
  1
3
 41
0.8
 72
1
 11
11.455
 21
0.687
100
AcDbText
  0
TEXT
  5
458
100
AcDbEntity
  8
0
100
AcDbText
 62
2
  6
CONTINUOUS
 10
13.385
 20
0.687
  7
STANDARD
 40
0.1
  1
2
 41
0.8
 72
1
 11
13.425
 21
0.687
100
AcDbText
  0
TEXT
  5
459
100
AcDbEntity
  8
0
100
AcDbText
 62
2
  6
CONTINUOUS
 10
15.355
 20
0.687
  7
STANDARD
 40
0.1
  1
1
 41
0.8
 72
1
 11
15.395
 21
0.687
100
AcDbText
  0
TEXT
  5
45A
100
AcDbEntity
  8
0
100
AcDbText
 62
2
  6
CONTINUOUS
 10
0.44
 20
4.2995
  7
STANDARD
 40
0.1
  1
B
 41
0.8
 72
2
 11
0.52
 21
4.2995
100
AcDbText
  0
TEXT
  5
45B
100
AcDbEntity
  8
0
100
AcDbText
 62
2
  6
CONTINUOUS
 10
0.44
 20
1.9995
  7
STANDARD
 40
0.1
  1
A
 41
0.8
 72
2
 11
0.52
 21
1.9995
100
AcDbText
  0
TEXT
  5
45C
100
AcDbEntity
  8
0
100
AcDbText
 62
2
  6
CONTINUOUS
 10
0.44
 20
8.8995
  7
STANDARD
 40
0.1
  1
D
 41
0.8
 72
2
 11
0.52
 21
8.8995
100
AcDbText
  0
TEXT
  5
45D
100
AcDbEntity
  8
0
100
AcDbText
 62
2
  6
CONTINUOUS
 10
0.44
 20
6.5995
  7
STANDARD
 40
0.1
  1
C
 41
0.8
 72
2
 11
0.52
 21
6.5995
100
AcDbText
  0
TEXT
  5
45E
100
AcDbEntity
  8
0
100
AcDbText
 62
2
  6
CONTINUOUS
 10
16.48
 20
8.8995
  7
STANDARD
 40
0.1
  1
D
 41
0.8
 72
0
100
AcDbText
  0
TEXT
  5
45F
100
AcDbEntity
  8
0
100
AcDbText
 62
2
  6
CONTINUOUS
 10
16.48
 20
6.5995
  7
STANDARD
 40
0.1
  1
C
 41
0.8
 72
0
100
AcDbText
  0
TEXT
  5
460
100
AcDbEntity
  8
0
100
AcDbText
 62
2
  6
CONTINUOUS
 10
16.48
 20
4.2995
  7
STANDARD
 40
0.1
  1
B
 41
0.8
 72
0
100
AcDbText
  0
TEXT
  5
461
100
AcDbEntity
  8
0
100
AcDbText
 62
2
  6
CONTINUOUS
 10
16.48
 20
1.9995
  7
STANDARD
 40
0.1
  1
A
 41
0.8
 72
0
100
AcDbText
  0
MTEXT
  5
462
100
AcDbEntity
  8
0
100
AcDbMText
 62
2
  6
CONTINUOUS
  7
STANDARD
 71
1
 72
1
 10
14.819264911
 20
1.0627941725
 30
0.0
 11
1.0
 21
0.0
 31
0.0
  1
1 OF 1
 40
0.1
 41
0.6
  0
TEXT
  5
463
100
AcDbEntity
  8
0
100
AcDbText
 62
7
  6
CONTINUOUS
 10
13.8911999818
 20
1.2547321586
  7
STANDARD
 40
0.12
  1
141860
 41
1.0
 72
0
100
AcDbText
  0
TEXT
  5
464
100
AcDbEntity
  8
0
100
AcDbText
 62
2
  6
CONTINUOUS
 10
12.644264911
 20
0.9627941725
  7
STANDARD
 40
0.1
  1
1:1
 41
1.0
 72
0
100
AcDbText
  0
MTEXT
  5
465
100
AcDbEntity
  8
0
100
AcDbMText
 62
2
  6
CONTINUOUS
  7
STANDARD
 71
1
 72
1
 10
1.0597007627
 20
1.6202922458
 30
0.0
 11
1.0
 21
0.0
 31
0.0
  1
NOTES:\P1. ALL DIMENSIONS ARE MILLIMETERS [INCHES] UNLESS OTHERWISE NOTED.
 40
0.1
 41
6.6
  0
INSERT
  5
466
100
AcDbEntity
  8
0
100
AcDbBlockReference
 62
2
  6
CONTINUOUS
  2
BANNER_LOGO_TITLEBLOCK_BL0
 10
12.9046655056
 20
2.5403783448
  0
DIMENSION
  5
467
100
AcDbEntity
  8
SCHEME_DIMS
100
AcDbDimension
 62
2
  6
CONTINUOUS
  2
*D0
 10
5.3755351961
 20
7.9520332459
 11
4.5880351961
 21
7.8770332459
 70
160
 42
40.005
  3
DIMSTYLE_1
100
AcDbAlignedDimension
 13
3.8005351961
 23
7.4235332459
 14
5.3755351961
 24
7.4235332459
100
AcDbRotatedDimension
  0
DIMENSION
  5
468
100
AcDbEntity
  8
SCHEME_DIMS
100
AcDbDimension
 62
2
  6
CONTINUOUS
  2
*D1
 10
6.1105351961
 20
7.1520332459
 11
6.1105351961
 21
6.7270332459
 70
160
 42
21.59
  3
DIMSTYLE_1
100
AcDbAlignedDimension
 13
5.6470351961
 23
6.3020332459
 14
5.6470351961
 24
7.1520332459
 50
90.0
100
AcDbRotatedDimension
  0
DIMENSION
  5
469
100
AcDbEntity
  8
SCHEME_DIMS
100
AcDbDimension
 62
2
  6
CONTINUOUS
  2
*D2
 10
3.5655351961
 20
5.3280332459
 11
4.5880351961
 21
5.2530332459
 70
160
 42
51.943
  3
DIMSTYLE_1
100
AcDbAlignedDimension
 13
5.6105351961
 23
5.7655332459
 14
3.5655351961
 24
5.7655332459
 50
180.0
100
AcDbRotatedDimension
  0
DIMENSION
  5
46A
100
AcDbEntity
  8
SCHEME_DIMS
100
AcDbDimension
 62
2
  6
CONTINUOUS
  2
*D3
 10
3.8005351961
 20
4.3789184506
 11
4.5880351961
 21
4.3039184506
 70
160
 42
40.005
  3
DIMSTYLE_1
100
AcDbAlignedDimension
 13
5.3755351961
 23
3.9004184506
 14
3.8005351961
 24
3.9004184506
 50
180.0
100
AcDbRotatedDimension
  0
DIMENSION
  5
46B
100
AcDbEntity
  8
SCHEME_DIMS
100
AcDbDimension
 62
2
  6
CONTINUOUS
  2
*D4
 10
5.4471249148
 20
3.7111128067
 11
6.514254396
 21
4.2107095441
 70
163
 42
5.5372
  1
<>
  3
DIMSTYLE_2
100
AcDbDiametricDimension
 15
5.3039454774
 25
3.5467240945
  0
DIMENSION
  5
46C
100
AcDbEntity
  8
SCHEME_DIMS
100
AcDbDimension
 62
2
  6
CONTINUOUS
  2
*D5
 10
5.4382498201
 20
7.2411841064
 11
6.4742361065
 21
7.8333370802
 70
163
 42
5.5372
  1
<>
  3
DIMSTYLE_2
100
AcDbDiametricDimension
 15
5.312820572
 25
7.0628823854
  0
DIMENSION
  5
46D
100
AcDbEntity
  8
SCHEME_DIMS
100
AcDbDimension
 62
2
  6
CONTINUOUS
  2
*D6
 10
9.5902015219
 20
5.3280332459
 11
9.2152015219
 21
5.2530332459
 70
160
 42
19.05
  3
DIMSTYLE_1
100
AcDbAlignedDimension
 13
8.8402015219
 23
5.7655332459
 14
9.5902015219
 24
5.8511284434
100
AcDbRotatedDimension
  0
DIMENSION
  5
46E
100
AcDbEntity
  8
SCHEME_DIMS
100
AcDbDimension
 62
2
  6
CONTINUOUS
  2
*D7
 10
8.3402015219
 20
5.8280332459
 11
8.3402015219
 21
6.6400332459
 70
160
 42
41.2496
  3
DIMSTYLE_1
100
AcDbAlignedDimension
 13
9.4537015219
 23
7.4520332459
 14
8.8056389441
 24
5.8280332459
 50
270.0
100
AcDbRotatedDimension
  0
LINE
  5
46F
100
AcDbEntity
  8
0
100
AcDbLine
 62
2
  6
CONTINUOUS
 10
16.38
 20
0.887
 11
12.03
 21
0.887
  0
LINE
  5
470
100
AcDbEntity
  8
0
100
AcDbLine
 62
2
  6
CONTINUOUS
 10
16.38
 20
0.887
 11
16.38
 21
2.807
  0
LINE
  5
471
100
AcDbEntity
  8
0
100
AcDbLine
 62
2
  6
CONTINUOUS
 10
16.38
 20
2.807
 11
12.03
 21
2.807
  0
LINE
  5
472
100
AcDbEntity
  8
0
100
AcDbLine
 62
2
  6
CONTINUOUS
 10
12.03
 20
0.887
 11
12.03
 21
2.807
  0
TEXT
  5
473
100
AcDbEntity
  8
0
100
AcDbText
 62
7
  6
CONTINUOUS
 10
16.105
 20
1.267
  7
STANDARD
 40
0.1
  1
-
 41
1.0
 72
1
 11
16.155
 21
1.267
100
AcDbText
  0
MTEXT
  5
474
100
AcDbEntity
  8
0
100
AcDbMText
 62
7
  6
CONTINUOUS
  7
STANDARD
 71
2
 72
1
 10
14.205
 20
1.967
 30
0.0
 11
1.0
 21
0.0
 31
0.0
  1
SMBSL\PWEB CAD DRAWINGS 2D/3D
 40
0.1
 41
2.2
  0
MTEXT
  5
475
100
AcDbEntity
  8
NOTES
100
AcDbMText
 62
2
  6
CONTINUOUS
  7
STANDARD
 71
2
 72
1
 10
14.2473962597
 20
3.2520950827
 30
0.0
 11
1.0
 21
0.0
 31
0.0
  1
ISOMETRIC VIEW\P\H0.1;SCALE  1:1
 40
0.125
 41
1.75
  0
LINE
  5
476
100
AcDbEntity
  8
0
100
AcDbLine
 62
2
  6
CONTINUOUS
 10
0.47
 20
5.586103
 11
0.47
 21
5.412897
  0
LINE
  5
477
100
AcDbEntity
  8
0
100
AcDbLine
 62
2
  6
CONTINUOUS
 10
0.62
 20
10.112
 11
0.62
 21
0.887
  0
LINE
  5
478
100
AcDbEntity
  8
0
100
AcDbLine
 62
2
  6
CONTINUOUS
 10
2.59
 20
0.887
 11
2.59
 21
0.637
  0
LINE
  5
479
100
AcDbEntity
  8
0
100
AcDbLine
 62
2
  6
CONTINUOUS
 10
2.59
 20
10.112
 11
2.59
 21
10.362
  0
LINE
  5
47A
100
AcDbEntity
  8
0
100
AcDbLine
 62
2
  6
CONTINUOUS
 10
8.413397
 20
0.737
 11
8.586603
 21
0.737
  0
LINE
  5
47B
100
AcDbEntity
  8
0
100
AcDbLine
 62
7
  6
CONTINUOUS
 10
11.1389508475
 20
1.425992839
 11
11.7453418475
 21
1.495385839
  0
LINE
  5
47C
100
AcDbEntity
  8
0
100
AcDbLine
 62
2
  6
CONTINUOUS
 10
0.62
 20
0.887
 11
16.38
 21
0.887
  0
LINE
  5
47D
100
AcDbEntity
  8
0
100
AcDbLine
 62
2
  6
CONTINUOUS
 10
12.03
 20
1.137
 11
16.38
 21
1.137
  0
LINE
  5
47E
100
AcDbEntity
  8
0
100
AcDbLine
 62
7
  6
CONTINUOUS
 10
10.2121898475
 20
1.243294839
 11
10.4342808475
 21
1.243294839
  0
LINE
  5
47F
100
AcDbEntity
  8
0
100
AcDbLine
 62
7
  6
CONTINUOUS
 10
10.4842808475
 20
1.243294839
 11
10.5842808475
 21
1.243294839
  0
LINE
  5
480
100
AcDbEntity
  8
0
100
AcDbLine
 62
7
  6
CONTINUOUS
 10
10.6342808475
 20
1.243294839
 11
10.8563718475
 21
1.243294839
  0
LINE
  5
481
100
AcDbEntity
  8
0
100
AcDbLine
 62
7
  6
CONTINUOUS
 10
11.0389508475
 20
1.243294839
 11
11.3171028475
 21
1.243294839
  0
LINE
  5
482
100
AcDbEntity
  8
0
100
AcDbLine
 62
7
  6
CONTINUOUS
 10
11.3671028475
 20
1.243294839
 11
11.5171888475
 21
1.243294839
  0
LINE
  5
483
100
AcDbEntity
  8
0
100
AcDbLine
 62
7
  6
CONTINUOUS
 10
11.5671888475
 20
1.243294839
 11
11.8453418475
 21
1.243294839
  0
LINE
  5
484
100
AcDbEntity
  8
0
100
AcDbLine
 62
7
  6
CONTINUOUS
 10
11.7453418475
 20
0.991203839
 11
11.1389508475
 21
1.060596839
  0
LINE
  5
485
100
AcDbEntity
  8
0
100
AcDbLine
 62
2
  6
CONTINUOUS
 10
4.56
 20
0.887
 11
4.56
 21
0.637
  0
LINE
  5
486
100
AcDbEntity
  8
0
100
AcDbLine
 62
2
  6
CONTINUOUS
 10
4.56
 20
10.112
 11
4.56
 21
10.362
  0
LINE
  5
487
100
AcDbEntity
  8
0
100
AcDbLine
 62
2
  6
CONTINUOUS
 10
0.47
 20
5.412897
 11
0.62
 21
5.4995
  0
LINE
  5
488
100
AcDbEntity
  8
0
100
AcDbLine
 62
2
  6
CONTINUOUS
 10
12.03
 20
1.507
 11
16.38
 21
1.507
  0
LINE
  5
489
100
AcDbEntity
  8
0
100
AcDbLine
 62
2
  6
CONTINUOUS
 10
10.03
 20
1.907
 11
12.03
 21
1.907
  0
LINE
  5
48A
100
AcDbEntity
  8
0
100
AcDbLine
 62
2
  6
CONTINUOUS
 10
0.62
 20
5.4995
 11
0.47
 21
5.586103
  0
LINE
  5
48B
100
AcDbEntity
  8
0
100
AcDbLine
 62
2
  6
CONTINUOUS
 10
12.03
 20
2.267
 11
16.38
 21
2.267
  0
LINE
  5
48C
100
AcDbEntity
  8
0
100
AcDbLine
 62
2
  6
CONTINUOUS
 10
8.5
 20
10.112
 11
8.586603
 21
10.262
  0
LINE
  5
48D
100
AcDbEntity
  8
0
100
AcDbLine
 62
2
  6
CONTINUOUS
 10
16.38
 20
2.807
 11
10.03
 21
2.807
  0
LINE
  5
48E
100
AcDbEntity
  8
0
100
AcDbLine
 62
2
  6
CONTINUOUS
 10
0.62
 20
3.1995
 11
0.37
 21
3.1995
  0
LINE
  5
48F
100
AcDbEntity
  8
0
100
AcDbLine
 62
2
  6
CONTINUOUS
 10
16.38
 20
3.1995
 11
16.63
 21
3.1995
  0
LINE
  5
490
100
AcDbEntity
  8
0
100
AcDbLine
 62
2
  6
CONTINUOUS
 10
8.586603
 20
0.737
 11
8.5
 21
0.887
  0
LINE
  5
491
100
AcDbEntity
  8
0
100
AcDbLine
 62
2
  6
CONTINUOUS
 10
6.53
 20
0.887
 11
6.53
 21
0.637
  0
LINE
  5
492
100
AcDbEntity
  8
0
100
AcDbLine
 62
2
  6
CONTINUOUS
 10
6.53
 20
10.112
 11
6.53
 21
10.362
  0
LINE
  5
493
100
AcDbEntity
  8
0
100
AcDbLine
 62
2
  6
CONTINUOUS
 10
8.5
 20
0.887
 11
8.5
 21
0.637
  0
LINE
  5
494
100
AcDbEntity
  8
0
100
AcDbLine
 62
2
  6
CONTINUOUS
 10
8.5
 20
10.112
 11
8.5
 21
10.362
  0
LINE
  5
495
100
AcDbEntity
  8
0
100
AcDbLine
 62
2
  6
CONTINUOUS
 10
0.62
 20
5.4995
 11
0.37
 21
5.4995
  0
LINE
  5
496
100
AcDbEntity
  8
0
100
AcDbLine
 62
2
  6
CONTINUOUS
 10
16.38
 20
5.4995
 11
16.63
 21
5.4995
  0
LINE
  5
497
100
AcDbEntity
  8
0
100
AcDbLine
 62
2
  6
CONTINUOUS
 10
10.03
 20
2.807
 11
10.03
 21
0.887
  0
LINE
  5
498
100
AcDbEntity
  8
0
100
AcDbLine
 62
2
  6
CONTINUOUS
 10
10.47
 20
0.887
 11
10.47
 21
0.637
  0
LINE
  5
499
100
AcDbEntity
  8
0
100
AcDbLine
 62
2
  6
CONTINUOUS
 10
10.47
 20
10.112
 11
10.47
 21
10.362
  0
LINE
  5
49A
100
AcDbEntity
  8
0
100
AcDbLine
 62
7
  6
CONTINUOUS
 10
10.5342808475
 20
1.143294839
 11
10.5342808475
 21
0.921203839
  0
LINE
  5
49B
100
AcDbEntity
  8
0
100
AcDbLine
 62
7
  6
CONTINUOUS
 10
10.5342808475
 20
1.193294839
 11
10.5342808475
 21
1.293294839
  0
LINE
  5
49C
100
AcDbEntity
  8
0
100
AcDbLine
 62
7
  6
CONTINUOUS
 10
10.5342808475
 20
1.343294839
 11
10.5342808475
 21
1.565385839
  0
LINE
  5
49D
100
AcDbEntity
  8
0
100
AcDbLine
 62
2
  6
CONTINUOUS
 10
8.5
 20
0.887
 11
8.413397
 21
0.737
  0
LINE
  5
49E
100
AcDbEntity
  8
0
100
AcDbLine
 62
2
  6
CONTINUOUS
 10
0.62
 20
7.7995
 11
0.37
 21
7.7995
  0
LINE
  5
49F
100
AcDbEntity
  8
0
100
AcDbLine
 62
2
  6
CONTINUOUS
 10
16.38
 20
7.7995
 11
16.63
 21
7.7995
  0
LINE
  5
4A0
100
AcDbEntity
  8
0
100
AcDbLine
 62
2
  6
CONTINUOUS
 10
8.413397
 20
10.262
 11
8.5
 21
10.112
  0
LINE
  5
4A1
100
AcDbEntity
  8
0
100
AcDbLine
 62
7
  6
CONTINUOUS
 10
11.1389508475
 20
1.060596839
 11
11.1389508475
 21
1.425992839
  0
LINE
  5
4A2
100
AcDbEntity
  8
0
100
AcDbLine
 62
7
  6
CONTINUOUS
 10
11.7453418475
 20
1.495385839
 11
11.7453418475
 21
0.991203839
  0
LINE
  5
4A3
100
AcDbEntity
  8
0
100
AcDbLine
 62
1
  6
CONTINUOUS
 10
12.03
 20
2.807
 11
12.03
 21
0.887
  0
LINE
  5
4A4
100
AcDbEntity
  8
0
100
AcDbLine
 62
2
  6
CONTINUOUS
 10
12.44
 20
0.887
 11
12.44
 21
0.637
  0
LINE
  5
4A5
100
AcDbEntity
  8
0
100
AcDbLine
 62
2
  6
CONTINUOUS
 10
12.44
 20
10.112
 11
12.44
 21
10.362
  0
LINE
  5
4A6
100
AcDbEntity
  8
0
100
AcDbLine
 62
2
  6
CONTINUOUS
 10
16.53
 20
5.586103
 11
16.38
 21
5.4995
  0
LINE
  5
4A7
100
AcDbEntity
  8
0
100
AcDbLine
 62
2
  6
CONTINUOUS
 10
16.38
 20
5.4995
 11
16.53
 21
5.412897
  0
LINE
  5
4A8
100
AcDbEntity
  8
0
100
AcDbLine
 62
2
  6
CONTINUOUS
 10
12.83
 20
1.507
 11
12.83
 21
1.137
  0
LINE
  5
4A9
100
AcDbEntity
  8
0
100
AcDbLine
 62
2
  6
CONTINUOUS
 10
16.38
 20
10.112
 11
0.62
 21
10.112
  0
LINE
  5
4AA
100
AcDbEntity
  8
0
100
AcDbLine
 62
2
  6
CONTINUOUS
 10
8.586603
 20
10.262
 11
8.413397
 21
10.262
  0
LINE
  5
4AB
100
AcDbEntity
  8
0
100
AcDbLine
 62
2
  6
CONTINUOUS
 10
14.205
 20
1.137
 11
14.205
 21
0.887
  0
LINE
  5
4AC
100
AcDbEntity
  8
0
100
AcDbLine
 62
2
  6
CONTINUOUS
 10
14.41
 20
0.887
 11
14.41
 21
0.637
  0
LINE
  5
4AD
100
AcDbEntity
  8
0
100
AcDbLine
 62
2
  6
CONTINUOUS
 10
14.41
 20
10.112
 11
14.41
 21
10.362
  0
LINE
  5
4AE
100
AcDbEntity
  8
0
100
AcDbLine
 62
2
  6
CONTINUOUS
 10
15.58
 20
1.507
 11
15.58
 21
1.137
  0
LINE
  5
4AF
100
AcDbEntity
  8
0
100
AcDbLine
 62
2
  6
CONTINUOUS
 10
16.38
 20
0.887
 11
16.38
 21
10.112
  0
LINE
  5
4B0
100
AcDbEntity
  8
0
100
AcDbLine
 62
2
  6
CONTINUOUS
 10
16.53
 20
5.412897
 11
16.53
 21
5.586103
  0
LWPOLYLINE
  5
4B1
100
AcDbEntity
  8
0
100
AcDbPolyline
 62
7
  6
CONTINUOUS
 90
8
 70
0
 10
13.720248843
 20
3.9660698429
 10
13.7377379071
 20
3.9580158847
 10
13.7579803523
 20
3.9523900107
 10
13.7797093118
 20
3.9495265638
 10
13.8022099691
 20
3.9495266179
 10
13.8239388873
 20
3.9523901692
 10
13.8441812513
 20
3.9580161406
 10
13.8616701992
 20
3.9660701828
  0
LINE
  5
4B2
100
AcDbEntity
  8
0
100
AcDbLine
 62
3
  6
CONTINUOUS
 10
13.3341669331
 20
4.128548116
 11
13.720248843
 21
3.905648664
  0
LINE
  5
4B3
100
AcDbEntity
  8
0
100
AcDbLine
 62
7
  6
CONTINUOUS
 10
13.3341669331
 20
4.1889692949
 11
13.720248843
 21
3.9660698429
  0
LWPOLYLINE
  5
4B4
100
AcDbEntity
  8
AXIS_COSMETIC_THREADS
100
AcDbPolyline
 62
7
  6
CONTINUOUS
 90
12
 70
0
 10
13.7032774677
 20
4.0787447195
 10
13.7223606739
 20
4.0699586022
 10
13.7443517966
 20
4.0638444037
 10
13.768148109
 20
4.0607087156
 10
13.7925563648
 20
4.0607087743
 10
13.8163526321
 20
4.0638445768
 10
13.8383436666
 20
4.069958881
 10
13.857426746
 20
4.07874509
 10
13.8726449651
 20
4.0897626267
 10
13.8832352189
 20
4.1024590258
 10
13.8886664677
 20
4.1161976368
 10
13.8893453353
 20
4.1232433311
  0
LINE
  5
4B5
100
AcDbEntity
  8
0
100
AcDbLine
 62
9
  6
CONTINUOUS
 10
13.2606275217
 20
4.2559214058
 11
13.3129536413
 21
4.22571159
  0
LWPOLYLINE
  5
4B6
100
AcDbEntity
  8
0
100
AcDbPolyline
 62
3
  6
CONTINUOUS
 90
8
 70
0
 10
13.2606275217
 20
4.2559214058
 10
13.2624713082
 20
4.2359612757
 10
13.2679102128
 20
4.2148730566
 10
13.276671506
 20
4.1937142
 10
13.28831586
 20
4.1735456992
 10
13.3022593783
 20
4.1553788871
 10
13.3178028746
 20
4.1401247236
 10
13.3341669331
 20
4.128548116
  0
LWPOLYLINE
  5
4B7
100
AcDbEntity
  8
AXIS_COSMETIC_THREADS
100
AcDbPolyline
 62
3
  6
CONTINUOUS
 90
10
 70
0
 10
13.8574261042
 20
4.1073207661
 10
13.8383428981
 20
4.1161068834
 10
13.8163517754
 20
4.1222210819
 10
13.7925554629
 20
4.12535677
 10
13.7681472071
 20
4.1253567113
 10
13.7443509399
 20
4.1222209088
 10
13.7223599054
 20
4.1161066046
 10
13.7032768259
 20
4.1073203956
 10
13.6880586068
 20
4.0963028589
 10
13.6853309821
 20
4.0930327756
  0
LWPOLYLINE
  5
4B8
100
AcDbEntity
  8
0
100
AcDbPolyline
 62
7
  6
CONTINUOUS
 90
8
 70
0
 10
13.3129536413
 20
4.22571159
 10
13.3134855028
 20
4.2199538602
 10
13.3150544176
 20
4.21387072
 10
13.3175817137
 20
4.2077672037
 10
13.320940662
 20
4.2019493669
 10
13.3249628307
 20
4.1967089404
 10
13.3294465316
 20
4.1923087009
 10
13.3341669331
 20
4.1889692949
  0
LINE
  5
4B9
100
AcDbEntity
  8
0
100
AcDbLine
 62
3
  6
CONTINUOUS
 10
13.2606275217
 20
5.4153548382
 11
13.2606275217
 21
4.2559214058
  0
LINE
  5
4BA
100
AcDbEntity
  8
0
100
AcDbLine
 62
7
  6
CONTINUOUS
 10
13.3129536413
 20
5.3851450223
 11
13.3129536413
 21
4.22571159
  0
LWPOLYLINE
  5
4BB
100
AcDbEntity
  8
0
100
AcDbPolyline
 62
3
  6
CONTINUOUS
 90
8
 70
0
 10
13.2606275217
 20
5.4153548382
 10
13.2623969488
 20
5.4345279387
 10
13.2676458676
 20
5.45487147
 10
13.2760304037
 20
5.4751211141
 10
13.2872806855
 20
5.494607282
 10
13.3006249978
 20
5.5119933161
 10
13.3156183993
 20
5.5267107068
 10
13.3313379054
 20
5.5378294953
  0
LWPOLYLINE
  5
4BC
100
AcDbEntity
  8
0
100
AcDbPolyline
 62
3
  6
CONTINUOUS
 90
5
 70
0
 10
14.635944485
 20
6.2910399592
 10
14.6516639911
 20
6.2980723845
 10
14.6666573926
 20
6.3006677792
 10
14.6800017049
 20
6.2986903377
 10
14.6859361875
 20
6.2959798548
  0
LWPOLYLINE
  5
4BD
100
AcDbEntity
  8
AXIS_COSMETIC_THREADS
100
AcDbPolyline
 62
7
  6
CONTINUOUS
 90
12
 70
0
 10
13.8574261042
 20
4.167741945
 10
13.8383428981
 20
4.1765280623
 10
13.8163517754
 20
4.1826422607
 10
13.7925554629
 20
4.1857779489
 10
13.7681472071
 20
4.1857778902
 10
13.7443509399
 20
4.1826420877
 10
13.7223599054
 20
4.1765277835
 10
13.7032768259
 20
4.1677415745
 10
13.6880586068
 20
4.1567240378
 10
13.6774683531
 20
4.1440276387
 10
13.6720371043
 20
4.1302890277
 10
13.6713582366
 20
4.1232433333
  0
LINE
  5
4BE
100
AcDbEntity
  8
0
100
AcDbLine
 62
7
  6
CONTINUOUS
 10
14.024303493
 20
4.1416148291
 11
13.882881548
 21
4.22326298
  0
LWPOLYLINE
  5
4BF
100
AcDbEntity
  8
AXIS_COSMETIC_THREADS
100
AcDbPolyline
 62
7
  6
CONTINUOUS
 90
5
 70
0
 10
13.4020487248
 20
4.5792562477
 10
13.4039811389
 20
4.5605678329
 10
13.4096814818
 20
4.5450478795
 10
13.4188639146
 20
4.5334746227
 10
13.424627196
 20
4.5293631424
  0
LINE
  5
4C0
100
AcDbEntity
  8
0
100
AcDbLine
 62
9
  6
CONTINUOUS
 10
13.3341669331
 20
4.128548116
 11
13.3341669331
 21
4.1889692949
  0
LWPOLYLINE
  5
4C1
100
AcDbEntity
  8
0
100
AcDbPolyline
 62
7
  6
CONTINUOUS
 90
8
 70
0
 10
13.383664025
 20
5.5076196794
 10
13.367944519
 20
5.496500891
 10
13.3529511175
 20
5.4817835003
 10
13.3396068052
 20
5.4643974661
 10
13.3283565234
 20
5.4449112983
 10
13.3199719873
 20
5.4246616541
 10
13.3147230685
 20
5.4043181229
 10
13.3129536413
 20
5.3851450223
  0
LINE
  5
4C2
100
AcDbEntity
  8
0
100
AcDbLine
 62
3
  6
CONTINUOUS
 10
13.3313379054
 20
5.5378294953
 11
13.4904362688
 21
5.6296844299
  0
LINE
  5
4C3
100
AcDbEntity
  8
0
100
AcDbLine
 62
3
  6
CONTINUOUS
 10
14.4768461217
 20
6.1991850245
 11
14.635944485
 21
6.2910399592
  0
LWPOLYLINE
  5
4C4
100
AcDbEntity
  8
AXIS_COSMETIC_THREADS
100
AcDbPolyline
 62
7
  6
CONTINUOUS
 90
12
 70
0
 10
13.424627196
 20
4.5293631424
 10
13.4310679916
 20
4.5264283941
 10
13.4456817497
 20
4.5242625208
 10
13.4619723938
 20
4.527085609
 10
13.4791230431
 20
4.534756097
 10
13.4962736923
 20
4.5468893547
 10
13.5125643365
 20
4.5628769698
 10
13.5271780945
 20
4.5819172566
 10
13.5393821716
 20
4.6030554555
 10
13.5485646043
 20
4.625231609
 10
13.5542649472
 20
4.6473337122
 10
13.5561973613
 20
4.6682534733
  0
LWPOLYLINE
  5
4C5
100
AcDbEntity
  8
0
100
AcDbPolyline
 62
7
  6
CONTINUOUS
 90
5
 70
0
 10
13.882881548
 20
4.22326298
 10
13.8689313381
 20
4.2333600844
 10
13.8591867306
 20
4.2450468517
 10
13.8542268433
 20
4.2575918691
 10
13.8536068218
 20
4.2640873969
  0
LWPOLYLINE
  5
4C6
100
AcDbEntity
  8
AXIS_COSMETIC_THREADS
100
AcDbPolyline
 62
3
  6
CONTINUOUS
 90
3
 70
0
 10
13.8753725899
 20
4.09303271
 10
13.8726444823
 20
4.0963033026
 10
13.8574261042
 20
4.1073207661
  0
LWPOLYLINE
  5
4C7
100
AcDbEntity
  8
AXIS_COSMETIC_THREADS
100
AcDbPolyline
 62
7
  6
CONTINUOUS
 90
5
 70
0
 10
13.4020487248
 20
5.2732833023
 10
13.4039811389
 20
5.2545948875
 10
13.4096814818
 20
5.239074934
 10
13.4188639146
 20
5.2275016773
 10
13.424627196
 20
5.2233901969
  0
LWPOLYLINE
  5
4C8
100
AcDbEntity
  8
AXIS_COSMETIC_THREADS
100
AcDbPolyline
 62
3
  6
CONTINUOUS
 90
3
 70
0
 10
13.5038712417
 20
4.6984632891
 10
13.5019388276
 20
4.717151704
 10
13.5004698184
 20
4.7211512799
  0
LWPOLYLINE
  5
4C9
100
AcDbEntity
  8
AXIS_COSMETIC_THREADS
100
AcDbPolyline
 62
7
  6
CONTINUOUS
 90
5
 70
0
 10
13.5561973613
 20
4.6682534733
 10
13.5542649472
 20
4.6869418881
 10
13.5485646043
 20
4.7024618416
 10
13.5393821716
 20
4.7140350983
 10
13.5336188902
 20
4.7181465786
  0
LINE
  5
4CA
100
AcDbEntity
  8
0
100
AcDbLine
 62
7
  6
CONTINUOUS
 10
13.383664025
 20
5.5076196794
 11
13.5427623884
 21
5.5994746141
  0
LINE
  5
4CB
100
AcDbEntity
  8
0
100
AcDbLine
 62
7
  6
CONTINUOUS
 10
14.5291722413
 20
6.1689752087
 11
14.6882706047
 21
6.2608301433
  0
LWPOLYLINE
  5
4CC
100
AcDbEntity
  8
0
100
AcDbPolyline
 62
3
  6
CONTINUOUS
 90
5
 70
0
 10
13.4904362688
 20
5.6296844299
 10
13.5061557748
 20
5.6367168552
 10
13.5211491763
 20
5.63931225
 10
13.5344934886
 20
5.6373348085
 10
13.5404279712
 20
5.6346243255
  0
LWPOLYLINE
  5
4CD
100
AcDbEntity
  8
AXIS_COSMETIC_THREADS
100
AcDbPolyline
 62
3
  6
CONTINUOUS
 90
3
 70
0
 10
13.5038712417
 20
5.3924903437
 10
13.5019388276
 20
5.4111787585
 10
13.5004698184
 20
5.4151783345
  0
LWPOLYLINE
  5
4CE
100
AcDbEntity
  8
AXIS_COSMETIC_THREADS
100
AcDbPolyline
 62
7
  6
CONTINUOUS
 90
5
 70
0
 10
13.5561973613
 20
5.3622805278
 10
13.5542649472
 20
5.3809689427
 10
13.5485646043
 20
5.3964888961
 10
13.5393821716
 20
5.4080621529
 10
13.5336188902
 20
5.4121736332
  0
LWPOLYLINE
  5
4CF
100
AcDbEntity
  8
AXIS_COSMETIC_THREADS
100
AcDbPolyline
 62
7
  6
CONTINUOUS
 90
5
 70
0
 10
13.6713582366
 20
4.1232433333
 10
13.6720372059
 20
4.1161971161
 10
13.6774686529
 20
4.1024585312
 10
13.6880590897
 20
4.089762183
 10
13.7032774677
 20
4.0787447195
  0
LINE
  5
4D0
100
AcDbEntity
  8
0
100
AcDbLine
 62
7
  6
CONTINUOUS
 10
13.6134727721
 20
5.5586487877
 11
13.6134727721
 21
5.4361734252
  0
LWPOLYLINE
  5
4D1
100
AcDbEntity
  8
0
100
AcDbPolyline
 62
7
  6
CONTINUOUS
 90
8
 70
0
 10
14.5291722413
 20
6.1689752087
 10
14.5134527353
 20
6.1578564202
 10
14.4984593338
 20
6.1431390296
 10
14.4851150214
 20
6.1257529954
 10
14.4738647396
 20
6.1062668276
 10
14.4654802036
 20
6.0860171834
 10
14.4602312847
 20
6.0656736522
 10
14.4584618576
 20
6.0465005516
  0
LWPOLYLINE
  5
4D2
100
AcDbEntity
  8
AXIS_COSMETIC_THREADS
100
AcDbPolyline
 62
7
  6
CONTINUOUS
 90
12
 70
0
 10
13.5336188902
 20
4.7181465786
 10
13.5271780945
 20
4.7210813269
 10
13.5125643365
 20
4.7232472002
 10
13.4962736923
 20
4.720424112
 10
13.4791230431
 20
4.712753624
 10
13.4619723938
 20
4.7006203663
 10
13.4456817497
 20
4.6846327512
 10
13.4310679916
 20
4.6655924644
 10
13.4188639146
 20
4.6444542655
 10
13.4096814818
 20
4.622278112
 10
13.4039811389
 20
4.6001760088
 10
13.4020487248
 20
4.5792562477
  0
LINE
  5
4D3
100
AcDbEntity
  8
AXIS_COSMETIC_THREADS
100
AcDbLine
 62
9
  6
CONTINUOUS
 10
13.5561973613
 20
4.6682534733
 11
13.5038712417
 21
4.6984632891
  0
LWPOLYLINE
  5
4D4
100
AcDbEntity
  8
0
100
AcDbPolyline
 62
7
  6
CONTINUOUS
 90
5
 70
0
 10
13.6134727721
 20
5.5586487877
 10
13.611703345
 20
5.575778742
 10
13.6064544262
 20
5.59006138
 10
13.5980698901
 20
5.6006294537
 10
13.5927540909
 20
5.6044145096
  0
LINE
  5
4D5
100
AcDbEntity
  8
0
100
AcDbLine
 62
9
  6
CONTINUOUS
 10
13.720248843
 20
3.9660698429
 11
13.720248843
 21
3.905648664
  0
LWPOLYLINE
  5
4D6
100
AcDbEntity
  8
0
100
AcDbPolyline
 62
3
  6
CONTINUOUS
 90
8
 70
0
 10
14.3354253542
 20
5.8317603478
 10
14.3511448603
 20
5.8428791362
 10
14.3661382618
 20
5.8575965269
 10
14.3794825741
 20
5.8749825611
 10
14.3907328559
 20
5.8944687289
 10
14.399117392
 20
5.9147183731
 10
14.4043663108
 20
5.9350619043
 10
14.4061357379
 20
5.9542350049
  0
LINE
  5
4D7
100
AcDbEntity
  8
0
100
AcDbLine
 62
3
  6
CONTINUOUS
 10
14.3354253542
 20
5.8317603478
 11
13.6318570362
 21
5.4255574147
  0
LINE
  5
4D8
100
AcDbEntity
  8
0
100
AcDbLine
 62
7
  6
CONTINUOUS
 10
14.3877514739
 20
5.8015505319
 11
13.6841831559
 21
5.3953475988
  0
LWPOLYLINE
  5
4D9
100
AcDbEntity
  8
AXIS_COSMETIC_THREADS
100
AcDbPolyline
 62
7
  6
CONTINUOUS
 90
5
 70
0
 10
13.8893453353
 20
4.1232433311
 10
13.888666366
 20
4.1302895484
 10
13.8832349191
 20
4.1440281333
 10
13.8726444823
 20
4.1567244815
 10
13.8574261042
 20
4.167741945
  0
LINE
  5
4DA
100
AcDbEntity
  8
0
100
AcDbLine
 62
7
  6
CONTINUOUS
 10
13.8343322646
 20
5.1818755251
 11
13.8324908481
 21
5.1721261943
  0
LWPOLYLINE
  5
4DB
100
AcDbEntity
  8
0
100
AcDbPolyline
 62
7
  6
CONTINUOUS
 90
5
 70
0
 10
13.6841831559
 20
5.3953475988
 10
13.6684636498
 20
5.3883151735
 10
13.6534702483
 20
5.3857197788
 10
13.640125936
 20
5.3876972203
 10
13.6341914534
 20
5.3904077032
  0
LINE
  5
4DC
100
AcDbEntity
  8
0
100
AcDbLine
 62
7
  6
CONTINUOUS
 10
13.8324908481
 20
5.1721261943
 11
13.8324908481
 21
5.1634399933
  0
LINE
  5
4DD
100
AcDbEntity
  8
0
100
AcDbLine
 62
7
  6
CONTINUOUS
 10
13.8435393456
 20
5.1719903569
 11
13.8435393456
 21
5.1763334544
  0
LINE
  5
4DE
100
AcDbEntity
  8
AXIS_COSMETIC_THREADS
100
AcDbLine
 62
9
  6
CONTINUOUS
 10
13.8574261042
 20
4.167741945
 11
13.8574261042
 21
4.1073207661
  0
LINE
  5
4DF
100
AcDbEntity
  8
0
100
AcDbLine
 62
9
  6
CONTINUOUS
 10
13.8616701992
 20
3.9660701828
 11
13.8616701992
 21
3.905649004
  0
LINE
  5
4E0
100
AcDbEntity
  8
0
100
AcDbLine
 62
9
  6
CONTINUOUS
 10
13.8828809592
 20
4.3049114708
 11
13.8828809592
 21
4.2444902919
  0
LINE
  5
4E1
100
AcDbEntity
  8
0
100
AcDbLine
 62
7
  6
CONTINUOUS
 10
13.8840505012
 20
5.1562914638
 11
13.8840505012
 21
5.1497768177
  0
LINE
  5
4E2
100
AcDbEntity
  8
0
100
AcDbLine
 62
7
  6
CONTINUOUS
 10
13.8950989986
 20
5.1539840838
 11
13.8950989986
 21
5.1648418275
  0
LINE
  5
4E3
100
AcDbEntity
  8
0
100
AcDbLine
 62
7
  6
CONTINUOUS
 10
13.9098303303
 20
5.1386021324
 11
13.9098303303
 21
5.2406649345
  0
LINE
  5
4E4
100
AcDbEntity
  8
0
100
AcDbLine
 62
7
  6
CONTINUOUS
 10
13.9208788278
 20
5.2253282622
 11
13.9208788278
 21
5.1449809473
  0
LINE
  5
4E5
100
AcDbEntity
  8
0
100
AcDbLine
 62
7
  6
CONTINUOUS
 10
13.8435393456
 20
5.1763334544
 11
13.8453807614
 21
5.1839112422
  0
LINE
  5
4E6
100
AcDbEntity
  8
0
100
AcDbLine
 62
7
  6
CONTINUOUS
 10
13.8914161697
 20
5.1431716178
 11
13.8950989986
 21
5.1539840838
  0
LINE
  5
4E7
100
AcDbEntity
  8
0
100
AcDbLine
 62
7
  6
CONTINUOUS
 10
13.8840505012
 20
5.1497768177
 11
13.8803676722
 21
5.1411359019
  0
LINE
  5
4E8
100
AcDbEntity
  8
0
100
AcDbLine
 62
7
  6
CONTINUOUS
 10
13.8416979298
 20
5.1948142634
 11
13.8343322646
 21
5.1818755251
  0
LINE
  5
4E9
100
AcDbEntity
  8
0
100
AcDbLine
 62
7
  6
CONTINUOUS
 10
13.8840505012
 20
5.1302328769
 11
13.8914161697
 21
5.1431716178
  0
LINE
  5
4EA
100
AcDbEntity
  8
0
100
AcDbLine
 62
7
  6
CONTINUOUS
 10
13.8453807614
 20
5.1839112422
 11
13.8509050115
 21
5.1914437478
  0
LINE
  5
4EB
100
AcDbEntity
  8
0
100
AcDbLine
 62
7
  6
CONTINUOUS
 10
13.8803676722
 20
5.1411359019
 11
13.8748434235
 21
5.1336033955
  0
LINE
  5
4EC
100
AcDbEntity
  8
0
100
AcDbLine
 62
7
  6
CONTINUOUS
 10
13.8490635943
 20
5.2034099038
 11
13.8416979298
 21
5.1948142634
  0
LINE
  5
4ED
100
AcDbEntity
  8
0
100
AcDbLine
 62
7
  6
CONTINUOUS
 10
13.8509050115
 20
5.1914437478
 11
13.8564292602
 21
5.196804704
  0
LINE
  5
4EE
100
AcDbEntity
  8
0
100
AcDbLine
 62
7
  6
CONTINUOUS
 10
13.8564292602
 20
5.2098339963
 11
13.8490635943
 21
5.2034099038
  0
LWPOLYLINE
  5
4EF
100
AcDbEntity
  8
AXIS_COSMETIC_THREADS
100
AcDbPolyline
 62
3
  6
CONTINUOUS
 90
10
 70
0
 10
13.4054501481
 20
4.5565682569
 10
13.4096462741
 20
4.5572954248
 10
13.4267969234
 20
4.5649659129
 10
13.4439475727
 20
4.5770991706
 10
13.4602382168
 20
4.5930867857
 10
13.4748519748
 20
4.6121270724
 10
13.4870560519
 20
4.6332652713
 10
13.4962384847
 20
4.6554414248
 10
13.5019388276
 20
4.677543528
 10
13.5038712417
 20
4.6984632891
  0
LINE
  5
4F0
100
AcDbEntity
  8
0
100
AcDbLine
 62
7
  6
CONTINUOUS
 10
13.8288080157
 20
5.111368098
 11
13.8343322646
 21
5.1036997597
  0
LINE
  5
4F1
100
AcDbEntity
  8
0
100
AcDbLine
 62
7
  6
CONTINUOUS
 10
13.8398565127
 20
5.1199184614
 11
13.8380150969
 21
5.125369972
  0
LINE
  5
4F2
100
AcDbEntity
  8
0
100
AcDbLine
 62
7
  6
CONTINUOUS
 10
13.8453807614
 20
5.1665388463
 11
13.8435393456
 21
5.1719903569
  0
LINE
  5
4F3
100
AcDbEntity
  8
0
100
AcDbLine
 62
7
  6
CONTINUOUS
 10
13.8269665994
 20
5.1189911571
 11
13.8288080157
 21
5.111368098
  0
LINE
  5
4F4
100
AcDbEntity
  8
0
100
AcDbLine
 62
7
  6
CONTINUOUS
 10
13.8324908481
 20
5.1634399933
 11
13.8343322646
 21
5.1558169343
  0
LWPOLYLINE
  5
4F5
100
AcDbEntity
  8
0
100
AcDbPolyline
 62
7
  6
CONTINUOUS
 90
5
 70
0
 10
14.0535782192
 20
4.1007904121
 10
14.0529581977
 20
4.1072859399
 10
14.0479983104
 20
4.1198309574
 10
14.0382537028
 20
4.1315177246
 10
14.024303493
 20
4.1416148291
  0
LINE
  5
4F6
100
AcDbEntity
  8
0
100
AcDbLine
 62
7
  6
CONTINUOUS
 10
13.9871698125
 20
5.1832538367
 11
13.9871698125
 21
5.2636011516
  0
LINE
  5
4F7
100
AcDbEntity
  8
0
100
AcDbLine
 62
7
  6
CONTINUOUS
 10
13.99821831
 20
5.2916954538
 11
13.99821831
 21
5.1896326516
  0
LINE
  5
4F8
100
AcDbEntity
  8
0
100
AcDbLine
 62
7
  6
CONTINUOUS
 10
14.012949647
 20
5.1981377422
 11
14.012949647
 21
5.3002005444
  0
LINE
  5
4F9
100
AcDbEntity
  8
0
100
AcDbLine
 62
7
  6
CONTINUOUS
 10
14.0239981444
 20
5.2935500669
 11
14.0239981444
 21
5.2631483787
  0
LINE
  5
4FA
100
AcDbEntity
  8
0
100
AcDbLine
 62
7
  6
CONTINUOUS
 10
14.0239981444
 20
5.217545851
 11
14.0239981444
 21
5.2501190864
  0
LINE
  5
4FB
100
AcDbEntity
  8
0
100
AcDbLine
 62
9
  6
CONTINUOUS
 10
14.0243040818
 20
3.9995451594
 11
14.0243040818
 21
4.0599663382
  0
LWPOLYLINE
  5
4FC
100
AcDbEntity
  8
0
100
AcDbPolyline
 62
7
  6
CONTINUOUS
 90
5
 70
0
 10
13.8536068218
 20
4.2640873969
 10
13.8542267496
 20
4.2705824439
 10
13.859186456
 20
4.2831274852
 10
13.868930895
 20
4.2948142993
 10
13.8828809592
 20
4.3049114708
  0
LINE
  5
4FD
100
AcDbEntity
  8
0
100
AcDbLine
 62
7
  6
CONTINUOUS
 10
14.0681921342
 20
5.2951782845
 11
14.0700335435
 21
5.3027560624
  0
LINE
  5
4FE
100
AcDbEntity
  8
0
100
AcDbLine
 62
7
  6
CONTINUOUS
 10
14.0810820409
 20
5.3069633286
 11
14.0792406317
 21
5.2993855507
  0
LINE
  5
4FF
100
AcDbEntity
  8
0
100
AcDbLine
 62
7
  6
CONTINUOUS
 10
13.9540243202
 20
5.1749751372
 11
13.9816455638
 21
5.2821272314
  0
LINE
  5
500
100
AcDbEntity
  8
0
100
AcDbLine
 62
7
  6
CONTINUOUS
 10
13.9871698125
 20
5.2636011516
 11
13.9613899887
 21
5.1683699373
  0
LINE
  5
501
100
AcDbEntity
  8
0
100
AcDbLine
 62
7
  6
CONTINUOUS
 10
14.0792406317
 20
5.2993855507
 11
14.073716383
 21
5.2875099484
  0
LINE
  5
502
100
AcDbEntity
  8
0
100
AcDbLine
 62
7
  6
CONTINUOUS
 10
14.0792406317
 20
5.253783023
 11
14.073716383
 21
5.2419074199
  0
LINE
  5
503
100
AcDbEntity
  8
0
100
AcDbLine
 62
7
  6
CONTINUOUS
 10
14.0645092947
 20
5.2887089114
 11
14.0681921342
 21
5.2951782845
  0
LINE
  5
504
100
AcDbEntity
  8
0
100
AcDbLine
 62
7
  6
CONTINUOUS
 10
14.1105446938
 20
5.3500320884
 11
14.1031790358
 21
5.3370933543
  0
LINE
  5
505
100
AcDbEntity
  8
0
100
AcDbLine
 62
7
  6
CONTINUOUS
 10
14.0681921342
 20
5.2495757583
 11
14.0645092947
 21
5.2431063836
  0
LINE
  5
506
100
AcDbEntity
  8
0
100
AcDbLine
 62
7
  6
CONTINUOUS
 10
14.073716383
 20
5.2419074199
 11
14.066350704
 21
5.2311402217
  0
LINE
  5
507
100
AcDbEntity
  8
0
100
AcDbLine
 62
7
  6
CONTINUOUS
 10
14.1142275333
 20
5.3391290718
 11
14.119751782
 21
5.3466615767
  0
LINE
  5
508
100
AcDbEntity
  8
0
100
AcDbLine
 62
7
  6
CONTINUOUS
 10
13.876684838
 20
5.1216372366
 11
13.8840505012
 21
5.1302328769
  0
LINE
  5
509
100
AcDbEntity
  8
0
100
AcDbLine
 62
7
  6
CONTINUOUS
 10
14.1179103728
 20
5.3586277372
 11
14.1105446938
 21
5.3500320884
  0
LINE
  5
50A
100
AcDbEntity
  8
0
100
AcDbLine
 62
7
  6
CONTINUOUS
 10
14.073716383
 20
5.2875099484
 11
14.0700335435
 21
5.2832121239
  0
LINE
  5
50B
100
AcDbEntity
  8
0
100
AcDbLine
 62
7
  6
CONTINUOUS
 10
14.119751782
 20
5.3466615767
 11
14.1252760307
 21
5.3520225328
  0
LINE
  5
50C
100
AcDbEntity
  8
0
100
AcDbLine
 62
7
  6
CONTINUOUS
 10
14.058985046
 20
5.2833479552
 11
14.0645092947
 21
5.2887089114
  0
LINE
  5
50D
100
AcDbEntity
  8
0
100
AcDbLine
 62
7
  6
CONTINUOUS
 10
14.0645092947
 20
5.2431063836
 11
14.058985046
 21
5.2377454275
  0
LINE
  5
50E
100
AcDbEntity
  8
0
100
AcDbLine
 62
7
  6
CONTINUOUS
 10
14.1252760307
 20
5.3650518252
 11
14.1179103728
 21
5.3586277372
  0
LINE
  5
50F
100
AcDbEntity
  8
0
100
AcDbLine
 62
7
  6
CONTINUOUS
 10
13.8748434235
 20
5.1336033955
 11
13.8674777576
 21
5.127179303
  0
LINE
  5
510
100
AcDbEntity
  8
0
100
AcDbLine
 62
7
  6
CONTINUOUS
 10
14.1436901861
 20
5.2888212197
 11
14.1363245282
 21
5.2823971318
  0
LINE
  5
511
100
AcDbEntity
  8
0
100
AcDbLine
 62
7
  6
CONTINUOUS
 10
13.8674777576
 20
5.1141500091
 11
13.876684838
 21
5.1216372366
  0
LINE
  5
512
100
AcDbEntity
  8
0
100
AcDbLine
 62
7
  6
CONTINUOUS
 10
14.066350704
 20
5.2311402217
 11
14.0571436368
 21
5.2236530018
  0
LINE
  5
513
100
AcDbEntity
  8
0
100
AcDbLine
 62
7
  6
CONTINUOUS
 10
14.1363245282
 20
5.2693678379
 11
14.1455316164
 21
5.27685507
  0
LINE
  5
514
100
AcDbEntity
  8
0
100
AcDbLine
 62
7
  6
CONTINUOUS
 10
14.134483119
 20
5.3703675083
 11
14.1252760307
 21
5.3650518252
  0
LINE
  5
515
100
AcDbEntity
  8
0
100
AcDbLine
 62
7
  6
CONTINUOUS
 10
13.8656363405
 20
5.2151496749
 11
13.8564292602
 21
5.2098339963
  0
LINE
  5
516
100
AcDbEntity
  8
0
100
AcDbLine
 62
7
  6
CONTINUOUS
 10
13.9098303303
 20
5.2406649345
 11
13.9264030765
 21
5.2502331569
  0
LINE
  5
517
100
AcDbEntity
  8
0
100
AcDbLine
 62
7
  6
CONTINUOUS
 10
13.9816455638
 20
5.2821272314
 11
13.99821831
 21
5.2916954538
  0
LINE
  5
518
100
AcDbEntity
  8
0
100
AcDbLine
 62
7
  6
CONTINUOUS
 10
14.012949647
 20
5.3002005444
 11
14.0571436368
 21
5.325715804
  0
LINE
  5
519
100
AcDbEntity
  8
0
100
AcDbLine
 62
7
  6
CONTINUOUS
 10
14.1786771088
 20
5.3958827679
 11
14.1897255852
 21
5.4022615707
  0
LINE
  5
51A
100
AcDbEntity
  8
0
100
AcDbLine
 62
7
  6
CONTINUOUS
 10
14.058985046
 20
5.3137496434
 11
14.0239981444
 21
5.2935500669
  0
LINE
  5
51B
100
AcDbEntity
  8
0
100
AcDbLine
 62
7
  6
CONTINUOUS
 10
13.8564292602
 20
5.196804704
 11
13.8674777576
 21
5.2031835189
  0
LINE
  5
51C
100
AcDbEntity
  8
0
100
AcDbLine
 62
7
  6
CONTINUOUS
 10
14.1252760307
 20
5.3520225328
 11
14.1363245282
 21
5.3584013477
  0
LINE
  5
51D
100
AcDbEntity
  8
0
100
AcDbLine
 62
7
  6
CONTINUOUS
 10
13.8785262525
 20
5.1987045887
 11
13.8895747499
 21
5.2050834036
  0
LINE
  5
51E
100
AcDbEntity
  8
0
100
AcDbLine
 62
7
  6
CONTINUOUS
 10
14.1473730257
 20
5.353922419
 11
14.1584215231
 21
5.3603012339
  0
LINE
  5
51F
100
AcDbEntity
  8
0
100
AcDbLine
 62
7
  6
CONTINUOUS
 10
14.1363245282
 20
5.3279996595
 11
14.1252760307
 21
5.3216208446
  0
LINE
  5
520
100
AcDbEntity
  8
0
100
AcDbLine
 62
7
  6
CONTINUOUS
 10
13.8674777576
 20
5.1727818307
 11
13.8564292602
 21
5.1664030158
  0
LINE
  5
521
100
AcDbEntity
  8
0
100
AcDbLine
 62
7
  6
CONTINUOUS
 10
14.0239981444
 20
5.2631483787
 11
14.058985046
 21
5.2833479552
  0
LINE
  5
522
100
AcDbEntity
  8
0
100
AcDbLine
 62
7
  6
CONTINUOUS
 10
13.8564292602
 20
5.1533737235
 11
13.8674777576
 21
5.1597525384
  0
LINE
  5
523
100
AcDbEntity
  8
0
100
AcDbLine
 62
7
  6
CONTINUOUS
 10
14.0239981444
 20
5.2501190864
 11
14.058985046
 21
5.2703186629
  0
LINE
  5
524
100
AcDbEntity
  8
0
100
AcDbLine
 62
7
  6
CONTINUOUS
 10
14.1252760307
 20
5.3085915523
 11
14.1363245282
 21
5.3149703672
  0
LINE
  5
525
100
AcDbEntity
  8
0
100
AcDbLine
 62
7
  6
CONTINUOUS
 10
14.1068618753
 20
5.2805878054
 11
14.0958133779
 21
5.2742089904
  0
LINE
  5
526
100
AcDbEntity
  8
0
100
AcDbLine
 62
7
  6
CONTINUOUS
 10
13.8380150969
 20
5.125369972
 11
13.8269665994
 21
5.1189911571
  0
LINE
  5
527
100
AcDbEntity
  8
0
100
AcDbLine
 62
7
  6
CONTINUOUS
 10
14.1363245282
 20
5.2823971318
 11
14.1215931912
 21
5.2738920412
  0
LINE
  5
528
100
AcDbEntity
  8
0
100
AcDbLine
 62
7
  6
CONTINUOUS
 10
14.058985046
 20
5.2377454275
 11
14.0239981444
 21
5.217545851
  0
LINE
  5
529
100
AcDbEntity
  8
0
100
AcDbLine
 62
7
  6
CONTINUOUS
 10
13.8674777576
 20
5.127179303
 11
13.8527464259
 21
5.1186742154
  0
LINE
  5
52A
100
AcDbEntity
  8
0
100
AcDbLine
 62
7
  6
CONTINUOUS
 10
14.1897255852
 20
5.3132280624
 11
14.2449680725
 21
5.3451221369
  0
LINE
  5
52B
100
AcDbEntity
  8
0
100
AcDbLine
 62
7
  6
CONTINUOUS
 10
14.2449680725
 20
5.332092843
 11
14.1786771088
 21
5.2938199658
  0
LINE
  5
52C
100
AcDbEntity
  8
0
100
AcDbLine
 62
7
  6
CONTINUOUS
 10
14.0571436368
 20
5.2236530018
 11
14.012949647
 21
5.1981377422
  0
LINE
  5
52D
100
AcDbEntity
  8
0
100
AcDbLine
 62
7
  6
CONTINUOUS
 10
13.99821831
 20
5.1896326516
 11
13.9871698125
 21
5.1832538367
  0
LINE
  5
52E
100
AcDbEntity
  8
0
100
AcDbLine
 62
7
  6
CONTINUOUS
 10
13.9613899887
 20
5.1683699373
 11
13.9466586517
 21
5.1598648467
  0
LINE
  5
52F
100
AcDbEntity
  8
0
100
AcDbLine
 62
7
  6
CONTINUOUS
 10
13.9208788278
 20
5.1449809473
 11
13.9098303303
 21
5.1386021324
  0
LINE
  5
530
100
AcDbEntity
  8
0
100
AcDbLine
 62
7
  6
CONTINUOUS
 10
13.8527464259
 20
5.1056449216
 11
13.8674777576
 21
5.1141500091
  0
LINE
  5
531
100
AcDbEntity
  8
0
100
AcDbLine
 62
7
  6
CONTINUOUS
 10
14.1215931912
 20
5.2608627473
 11
14.1363245282
 21
5.2693678379
  0
LINE
  5
532
100
AcDbEntity
  8
0
100
AcDbLine
 62
7
  6
CONTINUOUS
 10
14.1436901861
 20
5.3735116306
 11
14.134483119
 21
5.3703675083
  0
LINE
  5
533
100
AcDbEntity
  8
0
100
AcDbLine
 62
7
  6
CONTINUOUS
 10
14.0571436368
 20
5.325715804
 11
14.066350704
 21
5.3288599262
  0
LINE
  5
534
100
AcDbEntity
  8
0
100
AcDbLine
 62
7
  6
CONTINUOUS
 10
14.1455316164
 20
5.331143794
 11
14.1363245282
 21
5.3279996595
  0
LINE
  5
535
100
AcDbEntity
  8
0
100
AcDbLine
 62
7
  6
CONTINUOUS
 10
13.8748434235
 20
5.2182938063
 11
13.8656363405
 21
5.2151496749
  0
LWPOLYLINE
  5
536
100
AcDbEntity
  8
AXIS_COSMETIC_THREADS
100
AcDbPolyline
 62
7
  6
CONTINUOUS
 90
12
 70
0
 10
13.424627196
 20
5.2233901969
 10
13.4310679916
 20
5.2204554486
 10
13.4456817497
 20
5.2182895754
 10
13.4619723938
 20
5.2211126635
 10
13.4791230431
 20
5.2287831516
 10
13.4962736923
 20
5.2409164093
 10
13.5125643365
 20
5.2569040244
 10
13.5271780945
 20
5.2759443111
 10
13.5393821716
 20
5.2970825101
 10
13.5485646043
 20
5.3192586636
 10
13.5542649472
 20
5.3413607667
 10
13.5561973613
 20
5.3622805278
  0
LWPOLYLINE
  5
537
100
AcDbEntity
  8
0
100
AcDbPolyline
 62
3
  6
CONTINUOUS
 90
8
 70
0
 10
14.7207995951
 20
4.6466111234
 10
14.703310531
 20
4.6546650816
 10
14.6830680858
 20
4.6602909556
 10
14.6613391263
 20
4.6631544025
 10
14.638838469
 20
4.6631543485
 10
14.6171095508
 20
4.6602907971
 10
14.5968671868
 20
4.6546648258
 10
14.5793782388
 20
4.6466107835
  0
LINE
  5
538
100
AcDbEntity
  8
0
100
AcDbLine
 62
9
  6
CONTINUOUS
 10
13.3129536413
 20
5.3851450223
 11
13.2606275217
 21
5.4153548382
  0
LINE
  5
539
100
AcDbEntity
  8
0
100
AcDbLine
 62
7
  6
CONTINUOUS
 10
13.8803676722
 20
5.1606798434
 11
13.8840505012
 21
5.1562914638
  0
LINE
  5
53A
100
AcDbEntity
  8
0
100
AcDbLine
 62
7
  6
CONTINUOUS
 10
13.8950989986
 20
5.1648418275
 11
13.8914161697
 21
5.1714017558
  0
LINE
  5
53B
100
AcDbEntity
  8
0
100
AcDbLine
 62
7
  6
CONTINUOUS
 10
13.876684838
 20
5.2019845513
 11
13.8785262525
 21
5.1987045887
  0
LINE
  5
53C
100
AcDbEntity
  8
0
100
AcDbLine
 62
7
  6
CONTINUOUS
 10
13.9466586517
 20
5.1598648467
 11
13.9208788278
 21
5.2253282622
  0
LINE
  5
53D
100
AcDbEntity
  8
0
100
AcDbLine
 62
7
  6
CONTINUOUS
 10
13.9264030765
 20
5.2502331569
 11
13.9540243202
 21
5.1749751372
  0
LINE
  5
53E
100
AcDbEntity
  8
0
100
AcDbLine
 62
7
  6
CONTINUOUS
 10
13.8895747499
 20
5.2050834036
 11
13.8877333354
 21
5.2105349149
  0
LINE
  5
53F
100
AcDbEntity
  8
0
100
AcDbLine
 62
7
  6
CONTINUOUS
 10
14.0535931093
 20
4.0403692348
 11
14.0535931093
 21
4.1007904137
  0
LINE
  5
540
100
AcDbEntity
  8
0
100
AcDbLine
 62
7
  6
CONTINUOUS
 10
14.0700335435
 20
5.2636681824
 11
14.0700335435
 21
5.2571535362
  0
LINE
  5
541
100
AcDbEntity
  8
0
100
AcDbLine
 62
7
  6
CONTINUOUS
 10
14.0700335435
 20
5.3027560624
 11
14.0700335435
 21
5.3070991599
  0
LINE
  5
542
100
AcDbEntity
  8
0
100
AcDbLine
 62
7
  6
CONTINUOUS
 10
14.0810820409
 20
5.3156495296
 11
14.0810820409
 21
5.3069633286
  0
LINE
  5
543
100
AcDbEntity
  8
0
100
AcDbLine
 62
7
  6
CONTINUOUS
 10
14.0810820409
 20
5.272218546
 11
14.0810820409
 21
5.2613608024
  0
LINE
  5
544
100
AcDbEntity
  8
0
100
AcDbLine
 62
7
  6
CONTINUOUS
 10
14.1013376266
 20
5.3273440277
 11
14.1013376266
 21
5.3186578267
  0
LINE
  5
545
100
AcDbEntity
  8
0
100
AcDbLine
 62
7
  6
CONTINUOUS
 10
14.1123861241
 20
5.3272081903
 11
14.1123861241
 21
5.3315512877
  0
LINE
  5
546
100
AcDbEntity
  8
0
100
AcDbLine
 62
7
  6
CONTINUOUS
 10
14.1031790358
 20
5.3370933543
 11
14.1013376266
 21
5.3273440277
  0
LINE
  5
547
100
AcDbEntity
  8
0
100
AcDbLine
 62
7
  6
CONTINUOUS
 10
14.0700335435
 20
5.2571535362
 11
14.0681921342
 21
5.2495757583
  0
LINE
  5
548
100
AcDbEntity
  8
0
100
AcDbLine
 62
7
  6
CONTINUOUS
 10
14.0810820409
 20
5.2613608024
 11
14.0792406317
 21
5.253783023
  0
LINE
  5
549
100
AcDbEntity
  8
0
100
AcDbLine
 62
7
  6
CONTINUOUS
 10
14.1123861241
 20
5.3315512877
 11
14.1142275333
 21
5.3391290718
  0
LINE
  5
54A
100
AcDbEntity
  8
0
100
AcDbLine
 62
7
  6
CONTINUOUS
 10
14.1602629323
 20
5.2983894421
 11
14.1639457718
 21
5.3092019142
  0
LINE
  5
54B
100
AcDbEntity
  8
0
100
AcDbLine
 62
7
  6
CONTINUOUS
 10
14.1528972744
 20
5.304994648
 11
14.1492144349
 21
5.2963537261
  0
LINE
  5
54C
100
AcDbEntity
  8
0
100
AcDbLine
 62
7
  6
CONTINUOUS
 10
14.1528972744
 20
5.2854507072
 11
14.1602629323
 21
5.2983894421
  0
LINE
  5
54D
100
AcDbEntity
  8
0
100
AcDbLine
 62
7
  6
CONTINUOUS
 10
14.1492144349
 20
5.2963537261
 11
14.1436901861
 21
5.2888212197
  0
LINE
  5
54E
100
AcDbEntity
  8
0
100
AcDbLine
 62
7
  6
CONTINUOUS
 10
14.1455316164
 20
5.27685507
 11
14.1528972744
 21
5.2854507072
  0
LINE
  5
54F
100
AcDbEntity
  8
0
100
AcDbLine
 62
7
  6
CONTINUOUS
 10
14.1123861241
 20
5.2577186253
 11
14.1215931912
 21
5.2608627473
  0
LINE
  5
550
100
AcDbEntity
  8
0
100
AcDbLine
 62
7
  6
CONTINUOUS
 10
13.876684838
 20
5.1759259606
 11
13.8674777576
 21
5.1727818307
  0
LINE
  5
551
100
AcDbEntity
  8
0
100
AcDbLine
 62
7
  6
CONTINUOUS
 10
13.8435393456
 20
5.1025007919
 11
13.8527464259
 21
5.1056449216
  0
LWPOLYLINE
  5
552
100
AcDbEntity
  8
AXIS_COSMETIC_THREADS
100
AcDbPolyline
 62
7
  6
CONTINUOUS
 90
12
 70
0
 10
14.8169660113
 20
4.7217292618
 10
14.8360492175
 20
4.7129431445
 10
14.8580403402
 20
4.7068289461
 10
14.8818366527
 20
4.7036932579
 10
14.9062449084
 20
4.7036933166
 10
14.9300411757
 20
4.7068291191
 10
14.9520322102
 20
4.7129434233
 10
14.9711152896
 20
4.7217296323
 10
14.9863335087
 20
4.732747169
 10
14.9969237625
 20
4.7454435681
 10
15.0023550113
 20
4.7591821791
 10
15.003033879
 20
4.7662278735
  0
LWPOLYLINE
  5
553
100
AcDbEntity
  8
0
100
AcDbPolyline
 62
7
  6
CONTINUOUS
 90
8
 70
0
 10
14.8622215401
 20
4.6253841514
 10
14.8797106042
 20
4.6173301932
 10
14.8999530494
 20
4.6117043192
 10
14.9216820089
 20
4.6088408723
 10
14.9441826662
 20
4.6088409264
 10
14.9659115844
 20
4.6117044777
 10
14.9861539484
 20
4.6173304491
 10
15.0036428963
 20
4.6253844913
  0
LINE
  5
554
100
AcDbEntity
  8
0
100
AcDbLine
 62
3
  6
CONTINUOUS
 10
14.8622215401
 20
4.5649629725
 11
14.7207995951
 21
4.6466111234
  0
LINE
  5
555
100
AcDbEntity
  8
AXIS_COSMETIC_THREADS
100
AcDbLine
 62
9
  6
CONTINUOUS
 10
13.5561973613
 20
5.3622805278
 11
13.5038712417
 21
5.3924903437
  0
LINE
  5
556
100
AcDbEntity
  8
0
100
AcDbLine
 62
7
  6
CONTINUOUS
 10
14.8622215401
 20
4.6253841514
 11
14.7207995951
 21
4.7070323023
  0
LINE
  5
557
100
AcDbEntity
  8
0
100
AcDbLine
 62
7
  6
CONTINUOUS
 10
13.8453807614
 20
5.1165932211
 11
13.8398565127
 21
5.1199184614
  0
LINE
  5
558
100
AcDbEntity
  8
0
100
AcDbLine
 62
7
  6
CONTINUOUS
 10
13.8343322646
 20
5.1558169343
 11
13.8416979298
 21
5.1513832828
  0
LINE
  5
559
100
AcDbEntity
  8
0
100
AcDbLine
 62
7
  6
CONTINUOUS
 10
13.8914161697
 20
5.1714017558
 11
13.8840505012
 21
5.1758354054
  0
LINE
  5
55A
100
AcDbEntity
  8
0
100
AcDbLine
 62
7
  6
CONTINUOUS
 10
13.8730020037
 20
5.2042013761
 11
13.876684838
 21
5.2019845513
  0
LWPOLYLINE
  5
55B
100
AcDbEntity
  8
0
100
AcDbPolyline
 62
7
  6
CONTINUOUS
 90
5
 70
0
 10
13.6341914534
 20
5.3904077032
 10
13.6288756542
 20
5.3941927592
 10
13.6204911181
 20
5.4047608328
 10
13.6152421993
 20
5.4190434709
 10
13.6134727721
 20
5.4361734252
  0
LINE
  5
55C
100
AcDbEntity
  8
0
100
AcDbLine
 62
7
  6
CONTINUOUS
 10
13.8877333354
 20
5.2105349149
 11
13.8822090867
 21
5.2160317024
  0
LINE
  5
55D
100
AcDbEntity
  8
0
100
AcDbLine
 62
7
  6
CONTINUOUS
 10
14.0681921342
 20
5.2691196998
 11
14.0700335435
 21
5.2636681824
  0
LINE
  5
55E
100
AcDbEntity
  8
0
100
AcDbLine
 62
7
  6
CONTINUOUS
 10
14.1528972744
 20
5.3115092942
 11
14.1528972744
 21
5.304994648
  0
LINE
  5
55F
100
AcDbEntity
  8
0
100
AcDbLine
 62
7
  6
CONTINUOUS
 10
14.1639457718
 20
5.3092019142
 11
14.1639457718
 21
5.3200596578
  0
LINE
  5
560
100
AcDbEntity
  8
0
100
AcDbLine
 62
7
  6
CONTINUOUS
 10
14.1786771088
 20
5.2938199658
 11
14.1786771088
 21
5.3958827679
  0
LINE
  5
561
100
AcDbEntity
  8
0
100
AcDbLine
 62
7
  6
CONTINUOUS
 10
14.1897255852
 20
5.4022615707
 11
14.1897255852
 21
5.3132280624
  0
LWPOLYLINE
  5
562
100
AcDbEntity
  8
0
100
AcDbPolyline
 62
3
  6
CONTINUOUS
 90
5
 70
0
 10
14.0535782192
 20
4.0403692332
 10
14.0529582914
 20
4.0338741862
 10
14.047998585
 20
4.021329145
 10
14.038254146
 20
4.0096423309
 10
14.0243040818
 20
3.9995451594
  0
LINE
  5
563
100
AcDbEntity
  8
0
100
AcDbLine
 62
7
  6
CONTINUOUS
 10
13.8343322646
 20
5.1036997597
 11
13.8435393456
 21
5.1025007919
  0
LINE
  5
564
100
AcDbEntity
  8
0
100
AcDbLine
 62
7
  6
CONTINUOUS
 10
13.8509050115
 20
5.1653851571
 11
13.8453807614
 21
5.1665388463
  0
LINE
  5
565
100
AcDbEntity
  8
0
100
AcDbLine
 62
7
  6
CONTINUOUS
 10
13.8748434235
 20
5.1618335334
 11
13.8803676722
 21
5.1606798434
  0
LWPOLYLINE
  5
566
100
AcDbEntity
  8
AXIS_COSMETIC_THREADS
100
AcDbPolyline
 62
7
  6
CONTINUOUS
 90
12
 70
0
 10
13.5336188902
 20
5.4121736332
 10
13.5271780945
 20
5.4151083815
 10
13.5125643365
 20
5.4172742547
 10
13.4962736923
 20
5.4144511666
 10
13.4791230431
 20
5.4067806785
 10
13.4619723938
 20
5.3946474208
 10
13.4456817497
 20
5.3786598057
 10
13.4310679916
 20
5.359619519
 10
13.4188639146
 20
5.3384813201
 10
13.4096814818
 20
5.3163051666
 10
13.4039811389
 20
5.2942030634
 10
13.4020487248
 20
5.2732833023
  0
LWPOLYLINE
  5
567
100
AcDbEntity
  8
AXIS_COSMETIC_THREADS
100
AcDbPolyline
 62
3
  6
CONTINUOUS
 90
10
 70
0
 10
14.9711146478
 20
4.7503053085
 10
14.9520314417
 20
4.7590914258
 10
14.930040319
 20
4.7652056242
 10
14.9062440065
 20
4.7683413123
 10
14.8818357507
 20
4.7683412537
 10
14.8580394835
 20
4.7652054511
 10
14.836048449
 20
4.759091147
 10
14.8169653695
 20
4.750304938
 10
14.8017471504
 20
4.7392874012
 10
14.7990195257
 20
4.7360173179
  0
LINE
  5
568
100
AcDbEntity
  8
0
100
AcDbLine
 62
9
  6
CONTINUOUS
 10
13.383664025
 20
5.5076196794
 11
13.3313379054
 21
5.5378294953
  0
LINE
  5
569
100
AcDbEntity
  8
0
100
AcDbLine
 62
9
  6
CONTINUOUS
 10
13.6841831559
 20
5.3953475988
 11
13.6318570362
 21
5.4255574147
  0
LINE
  5
56A
100
AcDbEntity
  8
0
100
AcDbLine
 62
7
  6
CONTINUOUS
 10
14.0976547871
 20
5.2665859273
 11
14.1031790358
 21
5.2589175889
  0
LINE
  5
56B
100
AcDbEntity
  8
0
100
AcDbLine
 62
7
  6
CONTINUOUS
 10
14.0792406317
 20
5.2776700635
 11
14.0810820409
 21
5.272218546
  0
LINE
  5
56C
100
AcDbEntity
  8
0
100
AcDbLine
 62
7
  6
CONTINUOUS
 10
14.0700335435
 20
5.3070991599
 11
14.0681921342
 21
5.3125506804
  0
LINE
  5
56D
100
AcDbEntity
  8
0
100
AcDbLine
 62
7
  6
CONTINUOUS
 10
14.0792406317
 20
5.321101044
 11
14.0810820409
 21
5.3156495296
  0
LINE
  5
56E
100
AcDbEntity
  8
0
100
AcDbLine
 62
7
  6
CONTINUOUS
 10
14.1087032846
 20
5.2751362909
 11
14.1068618753
 21
5.2805878054
  0
LINE
  5
56F
100
AcDbEntity
  8
0
100
AcDbLine
 62
7
  6
CONTINUOUS
 10
14.1142275333
 20
5.3217566759
 11
14.1123861241
 21
5.3272081903
  0
LINE
  5
570
100
AcDbEntity
  8
0
100
AcDbLine
 62
7
  6
CONTINUOUS
 10
14.0958133779
 20
5.2742089904
 11
14.0976547871
 21
5.2665859273
  0
LINE
  5
571
100
AcDbEntity
  8
0
100
AcDbLine
 62
7
  6
CONTINUOUS
 10
14.1013376266
 20
5.3186578267
 11
14.1031790358
 21
5.3110347635
  0
LINE
  5
572
100
AcDbEntity
  8
0
100
AcDbLine
 62
7
  6
CONTINUOUS
 10
14.2449680725
 20
5.3451221369
 11
14.2449680725
 21
5.332092843
  0
LWPOLYLINE
  5
573
100
AcDbEntity
  8
0
100
AcDbPolyline
 62
3
  6
CONTINUOUS
 90
8
 70
0
 10
14.4061357379
 20
6.0767103674
 10
14.4079051651
 20
6.095883468
 10
14.4131540839
 20
6.1162269992
 10
14.42153862
 20
6.1364766434
 10
14.4327889018
 20
6.1559628112
 10
14.4461332141
 20
6.1733488454
 10
14.4611266156
 20
6.1880662361
 10
14.4768461217
 20
6.1991850245
  0
LWPOLYLINE
  5
574
100
AcDbEntity
  8
AXIS_COSMETIC_THREADS
100
AcDbPolyline
 62
3
  6
CONTINUOUS
 90
10
 70
0
 10
14.5191386917
 20
5.1995527993
 10
14.5233348177
 20
5.2002799672
 10
14.540485467
 20
5.2079504552
 10
14.5576361163
 20
5.2200837129
 10
14.5739267604
 20
5.236071328
 10
14.5885405184
 20
5.2551116148
 10
14.6007445955
 20
5.2762498137
 10
14.6099270283
 20
5.2984259672
 10
14.6156273712
 20
5.3205280704
 10
14.6175597853
 20
5.3414478315
  0
LINE
  5
575
100
AcDbEntity
  8
0
100
AcDbLine
 62
7
  6
CONTINUOUS
 10
13.8416979298
 20
5.1513832828
 11
13.8490635943
 21
5.1512927284
  0
LINE
  5
576
100
AcDbEntity
  8
0
100
AcDbLine
 62
7
  6
CONTINUOUS
 10
13.8840505012
 20
5.1758354054
 11
13.876684838
 21
5.1759259606
  0
LINE
  5
577
100
AcDbEntity
  8
0
100
AcDbLine
 62
7
  6
CONTINUOUS
 10
13.8822090867
 20
5.2160317024
 11
13.8748434235
 21
5.2182938063
  0
LWPOLYLINE
  5
578
100
AcDbEntity
  8
AXIS_COSMETIC_THREADS
100
AcDbPolyline
 62
7
  6
CONTINUOUS
 90
12
 70
0
 10
14.9711146478
 20
4.8107264874
 10
14.9520314417
 20
4.8195126046
 10
14.930040319
 20
4.8256268031
 10
14.9062440065
 20
4.8287624912
 10
14.8818357507
 20
4.8287624325
 10
14.8580394835
 20
4.82562663
 10
14.836048449
 20
4.8195123259
 10
14.8169653695
 20
4.8107261168
 10
14.8017471504
 20
4.7997085801
 10
14.7911568967
 20
4.787012181
 10
14.7857256479
 20
4.77327357
 10
14.7850467802
 20
4.7662278757
  0
LINE
  5
579
100
AcDbEntity
  8
0
100
AcDbLine
 62
9
  6
CONTINUOUS
 10
13.4904362688
 20
5.6296844299
 11
13.5427623884
 21
5.5994746141
  0
LINE
  5
57A
100
AcDbEntity
  8
0
100
AcDbLine
 62
7
  6
CONTINUOUS
 10
14.0645092947
 20
5.2713365216
 11
14.0681921342
 21
5.2691196998
  0
LINE
  5
57B
100
AcDbEntity
  8
0
100
AcDbLine
 62
7
  6
CONTINUOUS
 10
14.1142275333
 20
5.2718110507
 11
14.1087032846
 21
5.2751362909
  0
LINE
  5
57C
100
AcDbEntity
  8
0
100
AcDbLine
 62
7
  6
CONTINUOUS
 10
14.0681921342
 20
5.3125506804
 11
14.0645092947
 21
5.3147675021
  0
LINE
  5
57D
100
AcDbEntity
  8
0
100
AcDbLine
 62
7
  6
CONTINUOUS
 10
14.073716383
 20
5.2831668509
 11
14.0792406317
 21
5.2776700635
  0
LINE
  5
57E
100
AcDbEntity
  8
0
100
AcDbLine
 62
7
  6
CONTINUOUS
 10
14.073716383
 20
5.3265978315
 11
14.0792406317
 21
5.321101044
  0
LINE
  5
57F
100
AcDbEntity
  8
0
100
AcDbLine
 62
7
  6
CONTINUOUS
 10
14.1492144349
 20
5.3158976677
 11
14.1528972744
 21
5.3115092942
  0
LINE
  5
580
100
AcDbEntity
  8
0
100
AcDbLine
 62
7
  6
CONTINUOUS
 10
14.1639457718
 20
5.3200596578
 11
14.1602629323
 21
5.32661958
  0
LINE
  5
581
100
AcDbEntity
  8
0
100
AcDbLine
 62
7
  6
CONTINUOUS
 10
14.1455316164
 20
5.3572023847
 11
14.1473730257
 21
5.353922419
  0
LINE
  5
582
100
AcDbEntity
  8
0
100
AcDbLine
 62
7
  6
CONTINUOUS
 10
14.1584215231
 20
5.3603012339
 11
14.1565801139
 21
5.3657527483
  0
LINE
  5
583
100
AcDbEntity
  8
0
100
AcDbLine
 62
3
  6
CONTINUOUS
 10
14.4061357379
 20
6.0767103674
 11
14.4061357379
 21
5.9542350049
  0
LWPOLYLINE
  5
584
100
AcDbEntity
  8
0
100
AcDbPolyline
 62
7
  6
CONTINUOUS
 90
8
 70
0
 10
14.4584618576
 20
5.924025189
 10
14.4566924305
 20
5.9048520885
 10
14.4514435117
 20
5.8845085572
 10
14.4430589756
 20
5.8642589131
 10
14.4318086938
 20
5.8447727452
 10
14.4184643815
 20
5.8273867111
 10
14.40347098
 20
5.8126693204
 10
14.3877514739
 20
5.8015505319
  0
LINE
  5
585
100
AcDbEntity
  8
0
100
AcDbLine
 62
7
  6
CONTINUOUS
 10
13.8527464259
 20
5.1186742154
 11
13.8453807614
 21
5.1165932211
  0
LINE
  5
586
100
AcDbEntity
  8
0
100
AcDbLine
 62
7
  6
CONTINUOUS
 10
13.8490635943
 20
5.1512927284
 11
13.8564292602
 21
5.1533737235
  0
LINE
  5
587
100
AcDbEntity
  8
0
100
AcDbLine
 62
7
  6
CONTINUOUS
 10
13.8674777576
 20
5.1597525384
 11
13.8748434235
 21
5.1618335334
  0
LINE
  5
588
100
AcDbEntity
  8
0
100
AcDbLine
 62
7
  6
CONTINUOUS
 10
14.1215931912
 20
5.2738920412
 11
14.1142275333
 21
5.2718110507
  0
LINE
  5
589
100
AcDbEntity
  8
0
100
AcDbLine
 62
7
  6
CONTINUOUS
 10
13.8564292602
 20
5.1664030158
 11
13.8509050115
 21
5.1653851571
  0
LINE
  5
58A
100
AcDbEntity
  8
0
100
AcDbLine
 62
7
  6
CONTINUOUS
 10
13.8674777576
 20
5.2031835189
 11
13.8730020037
 21
5.2042013761
  0
LINE
  5
58B
100
AcDbEntity
  8
0
100
AcDbLine
 62
7
  6
CONTINUOUS
 10
14.058985046
 20
5.2703186629
 11
14.0645092947
 21
5.2713365216
  0
LINE
  5
58C
100
AcDbEntity
  8
0
100
AcDbLine
 62
7
  6
CONTINUOUS
 10
14.0700335435
 20
5.2832121239
 11
14.073716383
 21
5.2831668509
  0
LINE
  5
58D
100
AcDbEntity
  8
0
100
AcDbLine
 62
7
  6
CONTINUOUS
 10
14.1105446938
 20
5.3066011079
 11
14.1179103728
 21
5.3065105618
  0
LINE
  5
58E
100
AcDbEntity
  8
0
100
AcDbLine
 62
7
  6
CONTINUOUS
 10
14.1031790358
 20
5.2589175889
 11
14.1123861241
 21
5.2577186253
  0
LINE
  5
58F
100
AcDbEntity
  8
0
100
AcDbLine
 62
7
  6
CONTINUOUS
 10
14.119751782
 20
5.3206029859
 11
14.1142275333
 21
5.3217566759
  0
LINE
  5
590
100
AcDbEntity
  8
0
100
AcDbLine
 62
7
  6
CONTINUOUS
 10
14.1436901861
 20
5.3170513577
 11
14.1492144349
 21
5.3158976677
  0
LINE
  5
591
100
AcDbEntity
  8
0
100
AcDbLine
 62
7
  6
CONTINUOUS
 10
14.066350704
 20
5.3288599262
 11
14.073716383
 21
5.3265978315
  0
LWPOLYLINE
  5
592
100
AcDbEntity
  8
AXIS_COSMETIC_THREADS
100
AcDbPolyline
 62
7
  6
CONTINUOUS
 90
12
 70
0
 10
14.5383157396
 20
5.1723476847
 10
14.5447565353
 20
5.1694129364
 10
14.5593702933
 20
5.1672470632
 10
14.5756609374
 20
5.1700701513
 10
14.5928115867
 20
5.1777406394
 10
14.609962236
 20
5.1898738971
 10
14.6262528801
 20
5.2058615122
 10
14.6408666381
 20
5.2249017989
 10
14.6530707152
 20
5.2460399978
 10
14.6622531479
 20
5.2682161514
 10
14.6679534909
 20
5.2903182545
 10
14.6698859049
 20
5.3112380156
  0
LWPOLYLINE
  5
593
100
AcDbEntity
  8
0
100
AcDbPolyline
 62
7
  6
CONTINUOUS
 90
5
 70
0
 10
13.5927540909
 20
5.6044145096
 10
13.5868196083
 20
5.6071249926
 10
13.573475296
 20
5.6091024341
 10
13.5584818945
 20
5.6065070394
 10
13.5427623884
 20
5.5994746141
  0
LINE
  5
594
100
AcDbEntity
  8
0
100
AcDbLine
 62
7
  6
CONTINUOUS
 10
13.5404354204
 20
5.6346372183
 11
13.5927615401
 21
5.6044274025
  0
LINE
  5
595
100
AcDbEntity
  8
0
100
AcDbLine
 62
7
  6
CONTINUOUS
 10
14.7801942802
 20
5.0238285895
 11
15.1662761901
 21
4.8009291376
  0
LINE
  5
596
100
AcDbEntity
  8
0
100
AcDbLine
 62
7
  6
CONTINUOUS
 10
14.1031790358
 20
5.3110347635
 11
14.1105446938
 21
5.3066011079
  0
LINE
  5
597
100
AcDbEntity
  8
0
100
AcDbLine
 62
7
  6
CONTINUOUS
 10
14.1602629323
 20
5.32661958
 11
14.1528972744
 21
5.3310532357
  0
LINE
  5
598
100
AcDbEntity
  8
0
100
AcDbLine
 62
7
  6
CONTINUOUS
 10
14.1418487769
 20
5.3594192065
 11
14.1455316164
 21
5.3572023847
  0
LINE
  5
599
100
AcDbEntity
  8
0
100
AcDbLine
 62
7
  6
CONTINUOUS
 10
14.1565801139
 20
5.3657527483
 11
14.1510558652
 21
5.3712495358
  0
LWPOLYLINE
  5
59A
100
AcDbEntity
  8
AXIS_COSMETIC_THREADS
100
AcDbPolyline
 62
7
  6
CONTINUOUS
 90
5
 70
0
 10
14.5157372684
 20
5.2222407901
 10
14.5176696825
 20
5.2035523752
 10
14.5233700254
 20
5.1880324218
 10
14.5325524582
 20
5.1764591651
 10
14.5383157396
 20
5.1723476847
  0
LINE
  5
59B
100
AcDbEntity
  8
0
100
AcDbLine
 62
7
  6
CONTINUOUS
 10
14.4584618576
 20
6.0465005516
 11
14.4584618576
 21
5.924025189
  0
LINE
  5
59C
100
AcDbEntity
  8
0
100
AcDbLine
 62
9
  6
CONTINUOUS
 10
13.3129536413
 20
4.22571159
 11
14.7589809884
 21
5.0605708847
  0
LINE
  5
59D
100
AcDbEntity
  8
0
100
AcDbLine
 62
7
  6
CONTINUOUS
 10
14.1179103728
 20
5.3065105618
 11
14.1252760307
 21
5.3085915523
  0
LINE
  5
59E
100
AcDbEntity
  8
0
100
AcDbLine
 62
7
  6
CONTINUOUS
 10
14.1363245282
 20
5.3149703672
 11
14.1436901861
 21
5.3170513577
  0
LINE
  5
59F
100
AcDbEntity
  8
0
100
AcDbLine
 62
7
  6
CONTINUOUS
 10
14.1252760307
 20
5.3216208446
 11
14.119751782
 21
5.3206029859
  0
LINE
  5
5A0
100
AcDbEntity
  8
0
100
AcDbLine
 62
7
  6
CONTINUOUS
 10
14.0645092947
 20
5.3147675021
 11
14.058985046
 21
5.3137496434
  0
LINE
  5
5A1
100
AcDbEntity
  8
0
100
AcDbLine
 62
7
  6
CONTINUOUS
 10
14.1363245282
 20
5.3584013477
 11
14.1418487769
 21
5.3594192065
  0
LWPOLYLINE
  5
5A2
100
AcDbEntity
  8
AXIS_COSMETIC_THREADS
100
AcDbPolyline
 62
3
  6
CONTINUOUS
 90
10
 70
0
 10
13.4054501481
 20
5.2505953115
 10
13.4096462741
 20
5.2513224794
 10
13.4267969234
 20
5.2589929674
 10
13.4439475727
 20
5.2711262251
 10
13.4602382168
 20
5.2871138402
 10
13.4748519748
 20
5.306154127
 10
13.4870560519
 20
5.3272923259
 10
13.4962384847
 20
5.3494684794
 10
13.5019388276
 20
5.3715705826
 10
13.5038712417
 20
5.3924903437
  0
LINE
  5
5A3
100
AcDbEntity
  8
0
100
AcDbLine
 62
7
  6
CONTINUOUS
 10
14.1528972744
 20
5.3310532357
 11
14.1455316164
 21
5.331143794
  0
LINE
  5
5A4
100
AcDbEntity
  8
0
100
AcDbLine
 62
7
  6
CONTINUOUS
 10
14.1510558652
 20
5.3712495358
 11
14.1436901861
 21
5.3735116306
  0
LWPOLYLINE
  5
5A5
100
AcDbEntity
  8
AXIS_COSMETIC_THREADS
100
AcDbPolyline
 62
7
  6
CONTINUOUS
 90
5
 70
0
 10
14.5157372684
 20
5.9162678446
 10
14.5176696825
 20
5.8975794298
 10
14.5233700254
 20
5.8820594764
 10
14.5325524582
 20
5.8704862196
 10
14.5383157396
 20
5.8663747393
  0
LWPOLYLINE
  5
5A6
100
AcDbEntity
  8
AXIS_COSMETIC_THREADS
100
AcDbPolyline
 62
3
  6
CONTINUOUS
 90
3
 70
0
 10
14.6175597853
 20
5.3414478315
 10
14.6156273712
 20
5.3601362463
 10
14.614158362
 20
5.3641358223
  0
LINE
  5
5A7
100
AcDbEntity
  8
0
100
AcDbLine
 62
9
  6
CONTINUOUS
 10
14.5793782388
 20
4.7070319624
 11
14.5793782388
 21
4.6466107835
  0
LINE
  5
5A8
100
AcDbEntity
  8
0
100
AcDbLine
 62
9
  6
CONTINUOUS
 10
13.3341669331
 20
4.1889692949
 11
14.7801942802
 21
5.0238285895
  0
LWPOLYLINE
  5
5A9
100
AcDbEntity
  8
0
100
AcDbPolyline
 62
3
  6
CONTINUOUS
 90
3
 70
0
 10
13.6154748969
 20
5.4184102859
 10
13.6161375301
 20
5.4185249894
 10
13.6318570362
 20
5.4255574147
  0
LWPOLYLINE
  5
5AA
100
AcDbEntity
  8
AXIS_COSMETIC_THREADS
100
AcDbPolyline
 62
7
  6
CONTINUOUS
 90
12
 70
0
 10
14.6473074338
 20
5.361131121
 10
14.6408666381
 20
5.3640658693
 10
14.6262528801
 20
5.3662317425
 10
14.609962236
 20
5.3634086544
 10
14.5928115867
 20
5.3557381663
 10
14.5756609374
 20
5.3436049086
 10
14.5593702933
 20
5.3276172935
 10
14.5447565353
 20
5.3085770068
 10
14.5325524582
 20
5.2874388079
 10
14.5233700254
 20
5.2652626544
 10
14.5176696825
 20
5.2431605512
 10
14.5157372684
 20
5.2222407901
  0
LINE
  5
5AB
100
AcDbEntity
  8
AXIS_COSMETIC_THREADS
100
AcDbLine
 62
9
  6
CONTINUOUS
 10
14.6698859049
 20
5.3112380156
 11
14.6175597853
 21
5.3414478315
  0
LWPOLYLINE
  5
5AC
100
AcDbEntity
  8
AXIS_COSMETIC_THREADS
100
AcDbPolyline
 62
3
  6
CONTINUOUS
 90
3
 70
0
 10
14.9890611335
 20
4.7360172524
 10
14.9863330259
 20
4.7392878449
 10
14.9711146478
 20
4.7503053085
  0
LWPOLYLINE
  5
5AD
100
AcDbEntity
  8
AXIS_COSMETIC_THREADS
100
AcDbPolyline
 62
7
  6
CONTINUOUS
 90
5
 70
0
 10
14.6698859049
 20
5.3112380156
 10
14.6679534909
 20
5.3299264305
 10
14.6622531479
 20
5.3454463839
 10
14.6530707152
 20
5.3570196406
 10
14.6473074338
 20
5.361131121
  0
LWPOLYLINE
  5
5AE
100
AcDbEntity
  8
AXIS_COSMETIC_THREADS
100
AcDbPolyline
 62
3
  6
CONTINUOUS
 90
3
 70
0
 10
14.6175597853
 20
6.035474886
 10
14.6156273712
 20
6.0541633009
 10
14.614158362
 20
6.0581628769
  0
LWPOLYLINE
  5
5AF
100
AcDbEntity
  8
AXIS_COSMETIC_THREADS
100
AcDbPolyline
 62
7
  6
CONTINUOUS
 90
5
 70
0
 10
14.7850467802
 20
4.7662278757
 10
14.7857257495
 20
4.7591816584
 10
14.7911571965
 20
4.7454430735
 10
14.8017476333
 20
4.7327467254
 10
14.8169660113
 20
4.7217292618
  0
LWPOLYLINE
  5
5B0
100
AcDbEntity
  8
0
100
AcDbPolyline
 62
7
  6
CONTINUOUS
 90
8
 70
0
 10
14.7589809884
 20
5.0605708847
 10
14.7595128499
 20
5.0548131548
 10
14.7610817647
 20
5.0487300147
 10
14.7636090608
 20
5.0426264984
 10
14.7669680091
 20
5.0368086616
 10
14.7709901778
 20
5.031568235
 10
14.7754738787
 20
5.0271679956
 10
14.7801942802
 20
5.0238285895
  0
LINE
  5
5B1
100
AcDbEntity
  8
0
100
AcDbLine
 62
9
  6
CONTINUOUS
 10
14.7207995951
 20
4.7070323023
 11
14.7207995951
 21
4.6466111234
  0
LWPOLYLINE
  5
5B2
100
AcDbEntity
  8
0
100
AcDbPolyline
 62
3
  6
CONTINUOUS
 90
3
 70
0
 10
13.8828809592
 20
4.2444902919
 10
13.868930895
 20
4.2343931204
 10
13.8685004404
 20
4.2338768627
  0
LINE
  5
5B3
100
AcDbEntity
  8
0
100
AcDbLine
 62
7
  6
CONTINUOUS
 10
13.8828809592
 20
4.3049114708
 11
14.5793782388
 21
4.7070319624
  0
LWPOLYLINE
  5
5B4
100
AcDbEntity
  8
0
100
AcDbPolyline
 62
7
  6
CONTINUOUS
 90
8
 70
0
 10
14.5793782388
 20
4.7070319624
 10
14.5968671868
 20
4.7150860046
 10
14.6171095508
 20
4.720711976
 10
14.638838469
 20
4.7235755273
 10
14.6613391263
 20
4.7235755814
 10
14.6830680858
 20
4.7207121345
 10
14.703310531
 20
4.7150862605
 10
14.7207995951
 20
4.7070323023
  0
LWPOLYLINE
  5
5B5
100
AcDbEntity
  8
AXIS_COSMETIC_THREADS
100
AcDbPolyline
 62
7
  6
CONTINUOUS
 90
5
 70
0
 10
14.6698859049
 20
6.0052650702
 10
14.6679534909
 20
6.023953485
 10
14.6622531479
 20
6.0394734385
 10
14.6530707152
 20
6.0510466952
 10
14.6473074338
 20
6.0551581756
  0
LINE
  5
5B6
100
AcDbEntity
  8
0
100
AcDbLine
 62
7
  6
CONTINUOUS
 10
14.7589809884
 20
6.220004317
 11
14.7589809884
 21
5.0605708847
  0
LINE
  5
5B7
100
AcDbEntity
  8
0
100
AcDbLine
 62
3
  6
CONTINUOUS
 10
13.8828809592
 20
4.2444902919
 11
14.5793782388
 21
4.6466107835
  0
LWPOLYLINE
  5
5B8
100
AcDbEntity
  8
0
100
AcDbPolyline
 62
7
  6
CONTINUOUS
 90
5
 70
0
 10
14.7589809884
 20
6.220004317
 10
14.7572115613
 20
6.2371342713
 10
14.7519626425
 20
6.2514169093
 10
14.7435781064
 20
6.261984983
 10
14.7382623072
 20
6.2657700389
  0
LINE
  5
5B9
100
AcDbEntity
  8
0
100
AcDbLine
 62
9
  6
CONTINUOUS
 10
14.8622215401
 20
4.5649629725
 11
14.8622215401
 21
4.6253841514
  0
LWPOLYLINE
  5
5BA
100
AcDbEntity
  8
0
100
AcDbPolyline
 62
7
  6
CONTINUOUS
 90
5
 70
0
 10
14.0243040818
 20
4.0599663382
 10
14.038254146
 20
4.0700635097
 10
14.047998585
 20
4.0817503238
 10
14.0529582914
 20
4.0942953651
 10
14.0535782192
 20
4.1007904121
  0
LINE
  5
5BB
100
AcDbEntity
  8
0
100
AcDbLine
 62
9
  6
CONTINUOUS
 10
14.3877514739
 20
5.8015505319
 11
14.3354253542
 21
5.8317603478
  0
LWPOLYLINE
  5
5BC
100
AcDbEntity
  8
AXIS_COSMETIC_THREADS
100
AcDbPolyline
 62
7
  6
CONTINUOUS
 90
5
 70
0
 10
15.003033879
 20
4.7662278735
 10
15.0023549097
 20
4.7732740907
 10
14.9969234627
 20
4.7870126756
 10
14.9863330259
 20
4.7997090238
 10
14.9711146478
 20
4.8107264874
  0
LINE
  5
5BD
100
AcDbEntity
  8
AXIS_COSMETIC_THREADS
100
AcDbLine
 62
9
  6
CONTINUOUS
 10
14.9711146478
 20
4.8107264874
 11
14.9711146478
 21
4.7503053085
  0
LINE
  5
5BE
100
AcDbEntity
  8
0
100
AcDbLine
 62
9
  6
CONTINUOUS
 10
15.0036428963
 20
4.5649633125
 11
15.0036428963
 21
4.6253844913
  0
LINE
  5
5BF
100
AcDbEntity
  8
0
100
AcDbLine
 62
7
  6
CONTINUOUS
 10
13.8616701992
 20
3.9660701828
 11
14.0243040818
 21
4.0599663382
  0
LINE
  5
5C0
100
AcDbEntity
  8
0
100
AcDbLine
 62
7
  6
CONTINUOUS
 10
15.0036428963
 20
4.6253844913
 11
15.1662767789
 21
4.7192806467
  0
LWPOLYLINE
  5
5C1
100
AcDbEntity
  8
0
100
AcDbPolyline
 62
3
  6
CONTINUOUS
 90
8
 70
0
 10
15.0036428963
 20
4.5649633125
 10
14.9861539484
 20
4.5569092702
 10
14.9659115844
 20
4.5512832989
 10
14.9441826662
 20
4.5484197475
 10
14.9216820089
 20
4.5484196934
 10
14.8999530494
 20
4.5512831403
 10
14.8797106042
 20
4.5569090143
 10
14.8622215401
 20
4.5649629725
  0
LWPOLYLINE
  5
5C2
100
AcDbEntity
  8
AXIS_COSMETIC_THREADS
100
AcDbPolyline
 62
3
  6
CONTINUOUS
 90
10
 70
0
 10
14.5191386917
 20
5.8935798538
 10
14.5233348177
 20
5.8943070217
 10
14.540485467
 20
5.9019775098
 10
14.5576361163
 20
5.9141107675
 10
14.5739267604
 20
5.9300983826
 10
14.5885405184
 20
5.9491386693
 10
14.6007445955
 20
5.9702768682
 10
14.6099270283
 20
5.9924530218
 10
14.6156273712
 20
6.0145551249
 10
14.6175597853
 20
6.035474886
  0
LWPOLYLINE
  5
5C3
100
AcDbEntity
  8
AXIS_COSMETIC_THREADS
100
AcDbPolyline
 62
7
  6
CONTINUOUS
 90
12
 70
0
 10
14.5383157396
 20
5.8663747393
 10
14.5447565353
 20
5.863439991
 10
14.5593702933
 20
5.8612741178
 10
14.5756609374
 20
5.8640972059
 10
14.5928115867
 20
5.8717676939
 10
14.609962236
 20
5.8839009516
 10
14.6262528801
 20
5.8998885667
 10
14.6408666381
 20
5.9189288535
 10
14.6530707152
 20
5.9400670524
 10
14.6622531479
 20
5.9622432059
 10
14.6679534909
 20
5.9843453091
 10
14.6698859049
 20
6.0052650702
  0
LINE
  5
5C4
100
AcDbEntity
  8
0
100
AcDbLine
 62
9
  6
CONTINUOUS
 10
14.4584618576
 20
5.924025189
 11
14.4061357379
 21
5.9542350049
  0
LWPOLYLINE
  5
5C5
100
AcDbEntity
  8
0
100
AcDbPolyline
 62
7
  6
CONTINUOUS
 90
5
 70
0
 10
15.1955509163
 20
4.7601047206
 10
15.1949308948
 20
4.7666002484
 10
15.1899710075
 20
4.7791452659
 10
15.1802263999
 20
4.7908320331
 10
15.1662761901
 20
4.8009291376
  0
LINE
  5
5C6
100
AcDbEntity
  8
0
100
AcDbLine
 62
9
  6
CONTINUOUS
 10
15.1662767789
 20
4.7192806467
 11
15.1662767789
 21
4.6588594679
  0
LWPOLYLINE
  5
5C7
100
AcDbEntity
  8
0
100
AcDbPolyline
 62
7
  6
CONTINUOUS
 90
5
 70
0
 10
15.1662767789
 20
4.7192806467
 10
15.1802268431
 20
4.7293778182
 10
15.1899712821
 20
4.7410646323
 10
15.1949309885
 20
4.7536096736
 10
15.1955509163
 20
4.7601047206
  0
LINE
  5
5C8
100
AcDbEntity
  8
0
100
AcDbLine
 62
3
  6
CONTINUOUS
 10
13.8616701992
 20
3.905649004
 11
14.0243040818
 21
3.9995451594
  0
LINE
  5
5C9
100
AcDbEntity
  8
0
100
AcDbLine
 62
3
  6
CONTINUOUS
 10
15.0036428963
 20
4.5649633125
 11
15.1662767789
 21
4.6588594679
  0
LWPOLYLINE
  5
5CA
100
AcDbEntity
  8
0
100
AcDbPolyline
 62
3
  6
CONTINUOUS
 90
8
 70
0
 10
13.8616701992
 20
3.905649004
 10
13.8441812513
 20
3.8975949617
 10
13.8239388873
 20
3.8919689904
 10
13.8022099691
 20
3.889105439
 10
13.7797093118
 20
3.8891053849
 10
13.7579803523
 20
3.8919688318
 10
13.7377379071
 20
3.8975947058
 10
13.720248843
 20
3.905648664
  0
LINE
  5
5CB
100
AcDbEntity
  8
0
100
AcDbLine
 62
9
  6
CONTINUOUS
 10
14.4061357379
 20
6.0767103674
 11
14.4584618576
 21
6.0465005516
  0
LINE
  5
5CC
100
AcDbEntity
  8
0
100
AcDbLine
 62
7
  6
CONTINUOUS
 10
15.1955658064
 20
4.7601047222
 11
15.1955658064
 21
4.6996835433
  0
LWPOLYLINE
  5
5CD
100
AcDbEntity
  8
0
100
AcDbPolyline
 62
3
  6
CONTINUOUS
 90
5
 70
0
 10
15.1955509163
 20
4.6996835417
 10
15.1949309885
 20
4.6931884947
 10
15.1899712821
 20
4.6806434535
 10
15.1802268431
 20
4.6689566394
 10
15.1662767789
 20
4.6588594679
  0
LINE
  5
5CE
100
AcDbEntity
  8
AXIS_COSMETIC_THREADS
100
AcDbLine
 62
9
  6
CONTINUOUS
 10
14.6698859049
 20
6.0052650702
 11
14.6175597853
 21
6.035474886
  0
LWPOLYLINE
  5
5CF
100
AcDbEntity
  8
AXIS_COSMETIC_THREADS
100
AcDbPolyline
 62
7
  6
CONTINUOUS
 90
12
 70
0
 10
14.6473074338
 20
6.0551581756
 10
14.6408666381
 20
6.0580929239
 10
14.6262528801
 20
6.0602587971
 10
14.609962236
 20
6.0574357089
 10
14.5928115867
 20
6.0497652209
 10
14.5756609374
 20
6.0376319632
 10
14.5593702933
 20
6.0216443481
 10
14.5447565353
 20
6.0026040613
 10
14.5325524582
 20
5.9814658624
 10
14.5233700254
 20
5.9592897089
 10
14.5176696825
 20
5.9371876057
 10
14.5157372684
 20
5.9162678446
  0
LINE
  5
5D0
100
AcDbEntity
  8
0
100
AcDbLine
 62
9
  6
CONTINUOUS
 10
14.4768461217
 20
6.1991850245
 11
14.5291722413
 21
6.1689752087
  0
LINE
  5
5D1
100
AcDbEntity
  8
0
100
AcDbLine
 62
9
  6
CONTINUOUS
 10
14.6882706047
 20
6.2608301433
 11
14.635944485
 21
6.2910399592
  0
LWPOLYLINE
  5
5D2
100
AcDbEntity
  8
0
100
AcDbPolyline
 62
7
  6
CONTINUOUS
 90
5
 70
0
 10
14.7382623072
 20
6.2657700389
 10
14.7323278246
 20
6.2684805219
 10
14.7189835123
 20
6.2704579634
 10
14.7039901108
 20
6.2678625686
 10
14.6882706047
 20
6.2608301433
  0
LINE
  5
5D3
100
AcDbEntity
  8
0
100
AcDbLine
 62
7
  6
CONTINUOUS
 10
14.7382697563
 20
6.2657829318
 11
14.6859436367
 21
6.2959927476
  0
LINE
  5
5D4
100
AcDbEntity
  8
0
100
AcDbLine
 62
7
  6
CONTINUOUS
 10
3.5655351961
 20
7.3520332459
 11
3.5655351961
 21
5.8280332459
  0
LINE
  5
5D5
100
AcDbEntity
  8
0
100
AcDbLine
 62
9
  6
CONTINUOUS
 10
3.6655351961
 20
5.9020332459
 11
3.6655351961
 21
5.8280332459
  0
LINE
  5
5D6
100
AcDbEntity
  8
AXIS_COSMETIC_THREADS
100
AcDbLine
 62
7
  6
CENTER
 10
3.8005351961
 20
7.1520332459
 11
3.8005351961
 21
6.490774961
  0
LINE
  5
5D7
100
AcDbEntity
  8
AXIS_COSMETIC_THREADS
100
AcDbLine
 62
7
  6
CENTER
 10
3.8005351961
 20
6.3020332459
 11
3.8005351961
 21
6.0930332459
  0
LINE
  5
5D8
100
AcDbEntity
  8
AXIS_COSMETIC_THREADS
100
AcDbLine
 62
7
  6
CENTER
 10
3.8005351961
 20
6.3020332459
 11
3.8005351961
 21
6.490774961
  0
LINE
  5
5D9
100
AcDbEntity
  8
AXIS_COSMETIC_THREADS
100
AcDbLine
 62
7
  6
CENTER
 10
3.8005351961
 20
7.1520332459
 11
3.8005351961
 21
7.3610332459
  0
LINE
  5
5DA
100
AcDbEntity
  8
0
100
AcDbLine
 62
3
  6
CONTINUOUS
 10
3.5655351961
 20
5.8280332459
 11
5.6105351961
 21
5.8280332459
  0
LINE
  5
5DB
100
AcDbEntity
  8
0
100
AcDbLine
 62
9
  6
CONTINUOUS
 10
3.8955351961
 20
5.8280332459
 11
3.8955351961
 21
5.9020332459
  0
LINE
  5
5DC
100
AcDbEntity
  8
0
100
AcDbLine
 62
7
  6
CONTINUOUS
 10
3.5655351961
 20
5.9020332459
 11
5.6105351961
 21
5.9020332459
  0
LINE
  5
5DD
100
AcDbEntity
  8
0
100
AcDbLine
 62
9
  6
CONTINUOUS
 10
3.5655351961
 20
5.9320332459
 11
5.6105351961
 21
5.9320332459
  0
LINE
  5
5DE
100
AcDbEntity
  8
0
100
AcDbLine
 62
7
  6
CONTINUOUS
 10
3.9905351961
 20
7.3520332459
 11
3.9905351961
 21
7.2020332459
  0
LINE
  5
5DF
100
AcDbEntity
  8
0
100
AcDbLine
 62
7
  6
CONTINUOUS
 10
3.9955351961
 20
5.8280332459
 11
3.9955351961
 21
5.9020332459
  0
LINE
  5
5E0
100
AcDbEntity
  8
0
100
AcDbLine
 62
9
  6
CONTINUOUS
 10
4.0955351961
 20
5.9020332459
 11
4.0955351961
 21
5.8280332459
  0
LINE
  5
5E1
100
AcDbEntity
  8
AXIS_COSMETIC_THREADS
100
AcDbLine
 62
7
  6
CENTER
 10
5.3755351961
 20
6.3020332459
 11
4.0347756209
 21
6.3020332459
  0
LINE
  5
5E2
100
AcDbEntity
  8
AXIS_COSMETIC_THREADS
100
AcDbLine
 62
7
  6
CENTER
 10
3.8005351961
 20
6.3020332459
 11
3.5915351961
 21
6.3020332459
  0
LINE
  5
5E3
100
AcDbEntity
  8
AXIS_COSMETIC_THREADS
100
AcDbLine
 62
7
  6
CENTER
 10
3.8005351961
 20
6.3020332459
 11
4.0095351961
 21
6.3020332459
  0
LINE
  5
5E4
100
AcDbEntity
  8
AXIS_COSMETIC_THREADS
100
AcDbLine
 62
7
  6
CENTER
 10
5.3755351961
 20
6.3020332459
 11
5.5845351961
 21
6.3020332459
  0
LINE
  5
5E5
100
AcDbEntity
  8
0
100
AcDbLine
 62
7
  6
CONTINUOUS
 10
4.3002748191
 20
6.7237779303
 11
4.3002748191
 21
6.7131396262
  0
LINE
  5
5E6
100
AcDbEntity
  8
0
100
AcDbLine
 62
7
  6
CONTINUOUS
 10
4.3158998191
 20
6.7157992004
 11
4.3158998191
 21
6.7211183487
  0
LINE
  5
5E7
100
AcDbEntity
  8
0
100
AcDbLine
 62
7
  6
CONTINUOUS
 10
4.3028789861
 20
6.7344162269
 11
4.3002748191
 21
6.7237779303
  0
LINE
  5
5E8
100
AcDbEntity
  8
0
100
AcDbLine
 62
7
  6
CONTINUOUS
 10
4.3158998191
 20
6.7211183487
 11
4.3185039852
 21
6.7290970786
  0
LINE
  5
5E9
100
AcDbEntity
  8
0
100
AcDbLine
 62
7
  6
CONTINUOUS
 10
4.3132956531
 20
6.7450545235
 11
4.3028789861
 21
6.7344162269
  0
LINE
  5
5EA
100
AcDbEntity
  8
0
100
AcDbLine
 62
7
  6
CONTINUOUS
 10
4.3106914852
 20
6.6546289912
 11
4.3080873191
 21
6.6626077136
  0
LINE
  5
5EB
100
AcDbEntity
  8
0
100
AcDbLine
 62
7
  6
CONTINUOUS
 10
4.2924623191
 20
6.6626077136
 11
4.2950664859
 21
6.651969417
  0
LINE
  5
5EC
100
AcDbEntity
  8
0
100
AcDbLine
 62
7
  6
CONTINUOUS
 10
4.3002748191
 20
6.7131396262
 11
4.3028789861
 21
6.7025013296
  0
LINE
  5
5ED
100
AcDbEntity
  8
0
100
AcDbLine
 62
7
  6
CONTINUOUS
 10
4.3731914833
 20
6.6679268619
 11
4.3731914833
 21
6.6599481395
  0
LINE
  5
5EE
100
AcDbEntity
  8
0
100
AcDbLine
 62
7
  6
CONTINUOUS
 10
4.3888164833
 20
6.6572885653
 11
4.3888164833
 21
6.6705864361
  0
LINE
  5
5EF
100
AcDbEntity
  8
0
100
AcDbLine
 62
7
  6
CONTINUOUS
 10
4.4096498191
 20
6.6280332459
 11
4.4096498191
 21
6.7530332459
  0
LINE
  5
5F0
100
AcDbEntity
  8
0
100
AcDbLine
 62
7
  6
CONTINUOUS
 10
4.4252748191
 20
6.7264375044
 11
4.4252748191
 21
6.6280332459
  0
LINE
  5
5F1
100
AcDbEntity
  8
0
100
AcDbLine
 62
7
  6
CONTINUOUS
 10
4.383608155
 20
6.6466502669
 11
4.3888164833
 21
6.6572885653
  0
LINE
  5
5F2
100
AcDbEntity
  8
0
100
AcDbLine
 62
7
  6
CONTINUOUS
 10
4.3731914833
 20
6.6599481395
 11
4.367983155
 21
6.651969417
  0
LINE
  5
5F3
100
AcDbEntity
  8
0
100
AcDbLine
 62
7
  6
CONTINUOUS
 10
4.3185039852
 20
6.7290970786
 11
4.326316487
 21
6.7344162269
  0
LINE
  5
5F4
100
AcDbEntity
  8
0
100
AcDbLine
 62
7
  6
CONTINUOUS
 10
4.3237123191
 20
6.7503736718
 11
4.3132956531
 21
6.7450545235
  0
LINE
  5
5F5
100
AcDbEntity
  8
0
100
AcDbLine
 62
7
  6
CONTINUOUS
 10
4.326316487
 20
6.7344162269
 11
4.334128987
 21
6.737075801
  0
LINE
  5
5F6
100
AcDbEntity
  8
0
100
AcDbLine
 62
7
  6
CONTINUOUS
 10
4.3185039852
 20
6.6466502669
 11
4.3106914852
 21
6.6546289912
  0
LINE
  5
5F7
100
AcDbEntity
  8
0
100
AcDbLine
 62
7
  6
CONTINUOUS
 10
4.367983155
 20
6.6759055881
 11
4.3731914833
 21
6.6679268619
  0
LINE
  5
5F8
100
AcDbEntity
  8
0
100
AcDbLine
 62
7
  6
CONTINUOUS
 10
4.2950664859
 20
6.651969417
 11
4.3028789861
 21
6.6386715435
  0
LINE
  5
5F9
100
AcDbEntity
  8
0
100
AcDbLine
 62
7
  6
CONTINUOUS
 10
4.3888164833
 20
6.6705864361
 11
4.383608155
 21
6.6812247364
  0
LINE
  5
5FA
100
AcDbEntity
  8
0
100
AcDbLine
 62
7
  6
CONTINUOUS
 10
4.3627748191
 20
6.7290970786
 11
4.3653789833
 21
6.7237779303
  0
LINE
  5
5FB
100
AcDbEntity
  8
0
100
AcDbLine
 62
7
  6
CONTINUOUS
 10
4.3185039852
 20
6.7078204779
 11
4.3158998191
 21
6.7157992004
  0
LINE
  5
5FC
100
AcDbEntity
  8
0
100
AcDbLine
 62
7
  6
CONTINUOUS
 10
4.3810039833
 20
6.7237779303
 11
4.3783998191
 21
6.7317566527
  0
LINE
  5
5FD
100
AcDbEntity
  8
0
100
AcDbLine
 62
7
  6
CONTINUOUS
 10
4.4721498191
 20
6.6413311185
 11
4.5112123191
 21
6.7530332459
  0
LINE
  5
5FE
100
AcDbEntity
  8
0
100
AcDbLine
 62
7
  6
CONTINUOUS
 10
4.5190248191
 20
6.7264375044
 11
4.4825664908
 21
6.6280332459
  0
LINE
  5
5FF
100
AcDbEntity
  8
0
100
AcDbLine
 62
7
  6
CONTINUOUS
 10
4.3731914833
 20
6.6360119693
 11
4.383608155
 21
6.6466502669
  0
LINE
  5
600
100
AcDbEntity
  8
0
100
AcDbLine
 62
7
  6
CONTINUOUS
 10
4.367983155
 20
6.651969417
 11
4.360170655
 21
6.6466502669
  0
LINE
  5
601
100
AcDbEntity
  8
0
100
AcDbLine
 62
7
  6
CONTINUOUS
 10
4.3627748191
 20
6.6306928203
 11
4.3731914833
 21
6.6360119693
  0
LINE
  5
602
100
AcDbEntity
  8
0
100
AcDbLine
 62
7
  6
CONTINUOUS
 10
4.3132956531
 20
6.691863033
 11
4.3237123191
 21
6.6865438847
  0
LINE
  5
603
100
AcDbEntity
  8
0
100
AcDbLine
 62
7
  6
CONTINUOUS
 10
4.3028789861
 20
6.6386715435
 11
4.3158998191
 21
6.6306928203
  0
LINE
  5
604
100
AcDbEntity
  8
0
100
AcDbLine
 62
7
  6
CONTINUOUS
 10
4.326316487
 20
6.7025013296
 11
4.3185039852
 21
6.7078204779
  0
LINE
  5
605
100
AcDbEntity
  8
0
100
AcDbLine
 62
7
  6
CONTINUOUS
 10
4.360170655
 20
6.6812247364
 11
4.367983155
 21
6.6759055881
  0
LINE
  5
606
100
AcDbEntity
  8
0
100
AcDbLine
 62
7
  6
CONTINUOUS
 10
4.3028789861
 20
6.7025013296
 11
4.3132956531
 21
6.691863033
  0
LINE
  5
607
100
AcDbEntity
  8
0
100
AcDbLine
 62
7
  6
CONTINUOUS
 10
4.383608155
 20
6.6812247364
 11
4.3731914833
 21
6.691863033
  0
LINE
  5
608
100
AcDbEntity
  8
0
100
AcDbLine
 62
7
  6
CONTINUOUS
 10
4.3575664833
 20
6.7344162269
 11
4.3627748191
 21
6.7290970786
  0
LINE
  5
609
100
AcDbEntity
  8
0
100
AcDbLine
 62
7
  6
CONTINUOUS
 10
4.3783998191
 20
6.7317566527
 11
4.3705873191
 21
6.7423949493
  0
LINE
  5
60A
100
AcDbEntity
  8
0
100
AcDbLine
 62
7
  6
CONTINUOUS
 10
4.4617331475
 20
6.6280332459
 11
4.4252748191
 21
6.7264375044
  0
LINE
  5
60B
100
AcDbEntity
  8
0
100
AcDbLine
 62
7
  6
CONTINUOUS
 10
4.4330873191
 20
6.7530332459
 11
4.4721498191
 21
6.6413311185
  0
LINE
  5
60C
100
AcDbEntity
  8
0
100
AcDbLine
 62
7
  6
CONTINUOUS
 10
4.5190248191
 20
6.6280332459
 11
4.5190248191
 21
6.7264375044
  0
LINE
  5
60D
100
AcDbEntity
  8
0
100
AcDbLine
 62
7
  6
CONTINUOUS
 10
4.5346498191
 20
6.7530332459
 11
4.5346498191
 21
6.6280332459
  0
LINE
  5
60E
100
AcDbEntity
  8
0
100
AcDbLine
 62
7
  6
CONTINUOUS
 10
4.5554831624
 20
6.6280332459
 11
4.5554831624
 21
6.7530332459
  0
LINE
  5
60F
100
AcDbEntity
  8
0
100
AcDbLine
 62
7
  6
CONTINUOUS
 10
4.5711081624
 20
6.737075801
 11
4.5711081624
 21
6.6998417555
  0
LINE
  5
610
100
AcDbEntity
  8
0
100
AcDbLine
 62
7
  6
CONTINUOUS
 10
4.5711081624
 20
6.6439906927
 11
4.5711081624
 21
6.6838843106
  0
LINE
  5
611
100
AcDbEntity
  8
0
100
AcDbLine
 62
7
  6
CONTINUOUS
 10
4.6492331624
 20
6.7051609038
 11
4.6414206624
 21
6.6945226072
  0
LINE
  5
612
100
AcDbEntity
  8
0
100
AcDbLine
 62
7
  6
CONTINUOUS
 10
4.6283998191
 20
6.7025013296
 11
4.6336081624
 21
6.7078204779
  0
LINE
  5
613
100
AcDbEntity
  8
0
100
AcDbLine
 62
7
  6
CONTINUOUS
 10
4.6935039759
 20
6.7450545235
 11
4.6830873191
 21
6.7344162269
  0
LINE
  5
614
100
AcDbEntity
  8
0
100
AcDbLine
 62
7
  6
CONTINUOUS
 10
4.6987123191
 20
6.7290970786
 11
4.7065248191
 21
6.7344162269
  0
LINE
  5
615
100
AcDbEntity
  8
0
100
AcDbLine
 62
7
  6
CONTINUOUS
 10
4.7039206624
 20
6.7503736718
 11
4.6935039759
 21
6.7450545235
  0
LINE
  5
616
100
AcDbEntity
  8
0
100
AcDbLine
 62
7
  6
CONTINUOUS
 10
4.6414206624
 20
6.6945226072
 11
4.6362123191
 21
6.691863033
  0
LINE
  5
617
100
AcDbEntity
  8
0
100
AcDbLine
 62
7
  6
CONTINUOUS
 10
4.7065248191
 20
6.7344162269
 11
4.7143373191
 21
6.737075801
  0
LINE
  5
618
100
AcDbEntity
  8
0
100
AcDbLine
 62
7
  6
CONTINUOUS
 10
4.6205873191
 20
6.6998417555
 11
4.6283998191
 21
6.7025013296
  0
LINE
  5
619
100
AcDbEntity
  8
0
100
AcDbLine
 62
7
  6
CONTINUOUS
 10
4.6283998191
 20
6.6466502669
 11
4.6205873191
 21
6.6439906927
  0
LINE
  5
61A
100
AcDbEntity
  8
0
100
AcDbLine
 62
7
  6
CONTINUOUS
 10
4.7403789759
 20
6.6466502669
 11
4.7299623191
 21
6.6439906927
  0
LINE
  5
61B
100
AcDbEntity
  8
0
100
AcDbLine
 62
7
  6
CONTINUOUS
 10
4.7299623191
 20
6.6280332459
 11
4.7429831624
 21
6.6306928203
  0
LINE
  5
61C
100
AcDbEntity
  8
0
100
AcDbLine
 62
7
  6
CONTINUOUS
 10
4.6310039759
 20
6.6306928203
 11
4.6179831624
 21
6.6280332459
  0
LINE
  5
61D
100
AcDbEntity
  8
0
100
AcDbLine
 62
7
  6
CONTINUOUS
 10
4.8836081326
 20
6.6280332459
 11
4.7898581624
 21
6.6280332459
  0
LINE
  5
61E
100
AcDbEntity
  8
0
100
AcDbLine
 62
7
  6
CONTINUOUS
 10
4.6179831624
 20
6.6280332459
 11
4.5554831624
 21
6.6280332459
  0
LINE
  5
61F
100
AcDbEntity
  8
0
100
AcDbLine
 62
7
  6
CONTINUOUS
 10
4.5346498191
 20
6.6280332459
 11
4.5190248191
 21
6.6280332459
  0
LINE
  5
620
100
AcDbEntity
  8
0
100
AcDbLine
 62
7
  6
CONTINUOUS
 10
4.4825664908
 20
6.6280332459
 11
4.4617331475
 21
6.6280332459
  0
LINE
  5
621
100
AcDbEntity
  8
0
100
AcDbLine
 62
7
  6
CONTINUOUS
 10
4.4252748191
 20
6.6280332459
 11
4.4096498191
 21
6.6280332459
  0
LINE
  5
622
100
AcDbEntity
  8
0
100
AcDbLine
 62
7
  6
CONTINUOUS
 10
4.3289206512
 20
6.6280332459
 11
4.349753987
 21
6.6280332459
  0
LINE
  5
623
100
AcDbEntity
  8
0
100
AcDbLine
 62
7
  6
CONTINUOUS
 10
4.7091289759
 20
6.6280332459
 11
4.7299623191
 21
6.6280332459
  0
LINE
  5
624
100
AcDbEntity
  8
0
100
AcDbLine
 62
7
  6
CONTINUOUS
 10
4.7299623191
 20
6.6439906927
 11
4.7091289759
 21
6.6439906927
  0
LINE
  5
625
100
AcDbEntity
  8
0
100
AcDbLine
 62
7
  6
CONTINUOUS
 10
4.6205873191
 20
6.6439906927
 11
4.5711081624
 21
6.6439906927
  0
LINE
  5
626
100
AcDbEntity
  8
0
100
AcDbLine
 62
7
  6
CONTINUOUS
 10
4.349753987
 20
6.6439906927
 11
4.3289206512
 21
6.6439906927
  0
LINE
  5
627
100
AcDbEntity
  8
0
100
AcDbLine
 62
7
  6
CONTINUOUS
 10
4.8054831326
 20
6.6439906927
 11
4.8836081326
 21
6.6439906927
  0
LINE
  5
628
100
AcDbEntity
  8
0
100
AcDbLine
 62
7
  6
CONTINUOUS
 10
4.3158998191
 20
6.6306928203
 11
4.3289206512
 21
6.6280332459
  0
LINE
  5
629
100
AcDbEntity
  8
0
100
AcDbLine
 62
7
  6
CONTINUOUS
 10
4.3627748191
 20
6.6971821813
 11
4.349753987
 21
6.6998417555
  0
LINE
  5
62A
100
AcDbEntity
  8
0
100
AcDbLine
 62
7
  6
CONTINUOUS
 10
4.3289206512
 20
6.6439906927
 11
4.3185039852
 21
6.6466502669
  0
LINE
  5
62B
100
AcDbEntity
  8
0
100
AcDbLine
 62
7
  6
CONTINUOUS
 10
4.3237123191
 20
6.6865438847
 11
4.334128987
 21
6.6838843106
  0
LINE
  5
62C
100
AcDbEntity
  8
0
100
AcDbLine
 62
7
  6
CONTINUOUS
 10
4.349753987
 20
6.6838843106
 11
4.360170655
 21
6.6812247364
  0
LINE
  5
62D
100
AcDbEntity
  8
0
100
AcDbLine
 62
7
  6
CONTINUOUS
 10
4.334128987
 20
6.6998417555
 11
4.326316487
 21
6.7025013296
  0
LINE
  5
62E
100
AcDbEntity
  8
0
100
AcDbLine
 62
7
  6
CONTINUOUS
 10
4.3731914833
 20
6.691863033
 11
4.3627748191
 21
6.6971821813
  0
LINE
  5
62F
100
AcDbEntity
  8
0
100
AcDbLine
 62
7
  6
CONTINUOUS
 10
4.3705873191
 20
6.7423949493
 11
4.360170655
 21
6.7503736718
  0
LINE
  5
630
100
AcDbEntity
  8
0
100
AcDbLine
 62
7
  6
CONTINUOUS
 10
4.6362123191
 20
6.6679268619
 11
4.6362123191
 21
6.6599481395
  0
LINE
  5
631
100
AcDbEntity
  8
0
100
AcDbLine
 62
7
  6
CONTINUOUS
 10
4.6362123191
 20
6.7157992004
 11
4.6362123191
 21
6.7211183487
  0
LINE
  5
632
100
AcDbEntity
  8
0
100
AcDbLine
 62
7
  6
CONTINUOUS
 10
4.6518373191
 20
6.7237779303
 11
4.6518373191
 21
6.7131396262
  0
LINE
  5
633
100
AcDbEntity
  8
0
100
AcDbLine
 62
7
  6
CONTINUOUS
 10
4.6518373191
 20
6.6705864361
 11
4.6518373191
 21
6.6572885653
  0
LINE
  5
634
100
AcDbEntity
  8
0
100
AcDbLine
 62
7
  6
CONTINUOUS
 10
4.6804831624
 20
6.7237779303
 11
4.6804831624
 21
6.7131396262
  0
LINE
  5
635
100
AcDbEntity
  8
0
100
AcDbLine
 62
7
  6
CONTINUOUS
 10
4.6830873191
 20
6.7344162269
 11
4.6804831624
 21
6.7237779303
  0
LINE
  5
636
100
AcDbEntity
  8
0
100
AcDbLine
 62
7
  6
CONTINUOUS
 10
4.6336081624
 20
6.7078204779
 11
4.6362123191
 21
6.7157992004
  0
LINE
  5
637
100
AcDbEntity
  8
0
100
AcDbLine
 62
7
  6
CONTINUOUS
 10
4.6518373191
 20
6.7131396262
 11
4.6492331624
 21
6.7051609038
  0
LINE
  5
638
100
AcDbEntity
  8
0
100
AcDbLine
 62
7
  6
CONTINUOUS
 10
4.6362123191
 20
6.6599481395
 11
4.6336081624
 21
6.651969417
  0
LINE
  5
639
100
AcDbEntity
  8
0
100
AcDbLine
 62
7
  6
CONTINUOUS
 10
4.6518373191
 20
6.6572885653
 11
4.6492331624
 21
6.649309841
  0
LINE
  5
63A
100
AcDbEntity
  8
0
100
AcDbLine
 62
7
  6
CONTINUOUS
 10
4.6961081624
 20
6.7211183487
 11
4.6987123191
 21
6.7290970786
  0
LINE
  5
63B
100
AcDbEntity
  8
0
100
AcDbLine
 62
7
  6
CONTINUOUS
 10
4.6492331624
 20
6.649309841
 11
4.6414206624
 21
6.6386715435
  0
LINE
  5
63C
100
AcDbEntity
  8
0
100
AcDbLine
 62
7
  6
CONTINUOUS
 10
4.6336081624
 20
6.651969417
 11
4.6283998191
 21
6.6466502669
  0
LINE
  5
63D
100
AcDbEntity
  8
0
100
AcDbLine
 62
7
  6
CONTINUOUS
 10
4.6414206624
 20
6.6386715435
 11
4.6310039759
 21
6.6306928203
  0
LINE
  5
63E
100
AcDbEntity
  8
0
100
AcDbLine
 62
7
  6
CONTINUOUS
 10
4.7481914759
 20
6.651969417
 11
4.7403789759
 21
6.6466502669
  0
LINE
  5
63F
100
AcDbEntity
  8
0
100
AcDbLine
 62
7
  6
CONTINUOUS
 10
4.7429831624
 20
6.6306928203
 11
4.7533998191
 21
6.6360119693
  0
LINE
  5
640
100
AcDbEntity
  8
0
100
AcDbLine
 62
7
  6
CONTINUOUS
 10
4.360170655
 20
6.6466502669
 11
4.349753987
 21
6.6439906927
  0
LINE
  5
641
100
AcDbEntity
  8
0
100
AcDbLine
 62
7
  6
CONTINUOUS
 10
4.7143373191
 20
6.7530332459
 11
4.7039206624
 21
6.7503736718
  0
LINE
  5
642
100
AcDbEntity
  8
0
100
AcDbLine
 62
7
  6
CONTINUOUS
 10
4.349753987
 20
6.6280332459
 11
4.3627748191
 21
6.6306928203
  0
LINE
  5
643
100
AcDbEntity
  8
0
100
AcDbLine
 62
7
  6
CONTINUOUS
 10
4.6882956624
 20
6.6626077136
 11
4.6726706624
 21
6.6626077136
  0
LINE
  5
644
100
AcDbEntity
  8
0
100
AcDbLine
 62
7
  6
CONTINUOUS
 10
4.3080873191
 20
6.6626077136
 11
4.2924623191
 21
6.6626077136
  0
LINE
  5
645
100
AcDbEntity
  8
0
100
AcDbLine
 62
7
  6
CONTINUOUS
 10
4.334128987
 20
6.6838843106
 11
4.349753987
 21
6.6838843106
  0
LINE
  5
646
100
AcDbEntity
  8
0
100
AcDbLine
 62
7
  6
CONTINUOUS
 10
4.5711081624
 20
6.6838843106
 11
4.6205873191
 21
6.6838843106
  0
LINE
  5
647
100
AcDbEntity
  8
0
100
AcDbLine
 62
7
  6
CONTINUOUS
 10
4.7143373191
 20
6.6838843106
 11
4.7299623191
 21
6.6838843106
  0
LINE
  5
648
100
AcDbEntity
  8
0
100
AcDbLine
 62
7
  6
CONTINUOUS
 10
4.7299623191
 20
6.6998417555
 11
4.7143373191
 21
6.6998417555
  0
LINE
  5
649
100
AcDbEntity
  8
0
100
AcDbLine
 62
7
  6
CONTINUOUS
 10
4.349753987
 20
6.6998417555
 11
4.334128987
 21
6.6998417555
  0
LINE
  5
64A
100
AcDbEntity
  8
0
100
AcDbLine
 62
7
  6
CONTINUOUS
 10
4.5711081624
 20
6.6998417555
 11
4.6205873191
 21
6.6998417555
  0
LINE
  5
64B
100
AcDbEntity
  8
0
100
AcDbLine
 62
7
  6
CONTINUOUS
 10
4.3653789833
 20
6.7237779303
 11
4.3810039833
 21
6.7237779303
  0
LINE
  5
64C
100
AcDbEntity
  8
0
100
AcDbLine
 62
7
  6
CONTINUOUS
 10
4.7455873191
 20
6.7237779303
 11
4.7612123191
 21
6.7237779303
  0
LINE
  5
64D
100
AcDbEntity
  8
0
100
AcDbLine
 62
7
  6
CONTINUOUS
 10
4.6205873191
 20
6.737075801
 11
4.5711081624
 21
6.737075801
  0
LINE
  5
64E
100
AcDbEntity
  8
0
100
AcDbLine
 62
7
  6
CONTINUOUS
 10
4.334128987
 20
6.737075801
 11
4.349753987
 21
6.737075801
  0
LINE
  5
64F
100
AcDbEntity
  8
0
100
AcDbLine
 62
7
  6
CONTINUOUS
 10
4.7143373191
 20
6.737075801
 11
4.7299623191
 21
6.737075801
  0
LINE
  5
650
100
AcDbEntity
  8
0
100
AcDbLine
 62
7
  6
CONTINUOUS
 10
4.6961081624
 20
6.6306928203
 11
4.7091289759
 21
6.6280332459
  0
LINE
  5
651
100
AcDbEntity
  8
0
100
AcDbLine
 62
7
  6
CONTINUOUS
 10
4.360170655
 20
6.7503736718
 11
4.3471498191
 21
6.7530332459
  0
LINE
  5
652
100
AcDbEntity
  8
0
100
AcDbLine
 62
7
  6
CONTINUOUS
 10
4.7429831624
 20
6.6971821813
 11
4.7299623191
 21
6.6998417555
  0
LINE
  5
653
100
AcDbEntity
  8
0
100
AcDbLine
 62
7
  6
CONTINUOUS
 10
4.7091289759
 20
6.6439906927
 11
4.6987123191
 21
6.6466502669
  0
LINE
  5
654
100
AcDbEntity
  8
0
100
AcDbLine
 62
7
  6
CONTINUOUS
 10
4.7039206624
 20
6.6865438847
 11
4.7143373191
 21
6.6838843106
  0
LINE
  5
655
100
AcDbEntity
  8
0
100
AcDbLine
 62
7
  6
CONTINUOUS
 10
4.7299623191
 20
6.6838843106
 11
4.7403789759
 21
6.6812247364
  0
LINE
  5
656
100
AcDbEntity
  8
0
100
AcDbLine
 62
7
  6
CONTINUOUS
 10
4.349753987
 20
6.737075801
 11
4.3575664833
 21
6.7344162269
  0
LINE
  5
657
100
AcDbEntity
  8
0
100
AcDbLine
 62
7
  6
CONTINUOUS
 10
4.6205873191
 20
6.6838843106
 11
4.6283998191
 21
6.6812247364
  0
LINE
  5
658
100
AcDbEntity
  8
0
100
AcDbLine
 62
7
  6
CONTINUOUS
 10
4.7143373191
 20
6.6998417555
 11
4.7065248191
 21
6.7025013296
  0
LINE
  5
659
100
AcDbEntity
  8
0
100
AcDbLine
 62
7
  6
CONTINUOUS
 10
4.6362123191
 20
6.691863033
 11
4.6414206624
 21
6.6892034589
  0
LINE
  5
65A
100
AcDbEntity
  8
0
100
AcDbLine
 62
7
  6
CONTINUOUS
 10
4.6935039759
 20
6.691863033
 11
4.7039206624
 21
6.6865438847
  0
LINE
  5
65B
100
AcDbEntity
  8
0
100
AcDbLine
 62
7
  6
CONTINUOUS
 10
4.6830873191
 20
6.6386715435
 11
4.6961081624
 21
6.6306928203
  0
LINE
  5
65C
100
AcDbEntity
  8
0
100
AcDbLine
 62
7
  6
CONTINUOUS
 10
4.6283998191
 20
6.6812247364
 11
4.6336081624
 21
6.6759055881
  0
LINE
  5
65D
100
AcDbEntity
  8
0
100
AcDbLine
 62
7
  6
CONTINUOUS
 10
4.6987123191
 20
6.6466502669
 11
4.6908998191
 21
6.6546289912
  0
LINE
  5
65E
100
AcDbEntity
  8
0
100
AcDbLine
 62
7
  6
CONTINUOUS
 10
4.6336081624
 20
6.7290970786
 11
4.6283998191
 21
6.7344162269
  0
LINE
  5
65F
100
AcDbEntity
  8
0
100
AcDbLine
 62
7
  6
CONTINUOUS
 10
4.6414206624
 20
6.6892034589
 11
4.6492331624
 21
6.6785651623
  0
LINE
  5
660
100
AcDbEntity
  8
0
100
AcDbLine
 62
7
  6
CONTINUOUS
 10
4.6752748191
 20
6.651969417
 11
4.6830873191
 21
6.6386715435
  0
LINE
  5
661
100
AcDbEntity
  8
0
100
AcDbLine
 62
7
  6
CONTINUOUS
 10
4.6336081624
 20
6.6759055881
 11
4.6362123191
 21
6.6679268619
  0
LINE
  5
662
100
AcDbEntity
  8
0
100
AcDbLine
 62
7
  6
CONTINUOUS
 10
4.6492331624
 20
6.6785651623
 11
4.6518373191
 21
6.6705864361
  0
LINE
  5
663
100
AcDbEntity
  8
0
100
AcDbLine
 62
7
  6
CONTINUOUS
 10
4.6362123191
 20
6.7211183487
 11
4.6336081624
 21
6.7290970786
  0
LINE
  5
664
100
AcDbEntity
  8
0
100
AcDbLine
 62
7
  6
CONTINUOUS
 10
4.6492331624
 20
6.7317566527
 11
4.6518373191
 21
6.7237779303
  0
LINE
  5
665
100
AcDbEntity
  8
0
100
AcDbLine
 62
7
  6
CONTINUOUS
 10
4.6726706624
 20
6.6626077136
 11
4.6752748191
 21
6.651969417
  0
LINE
  5
666
100
AcDbEntity
  8
0
100
AcDbLine
 62
7
  6
CONTINUOUS
 10
4.6961081624
 20
6.7157992004
 11
4.6961081624
 21
6.7211183487
  0
LINE
  5
667
100
AcDbEntity
  8
0
100
AcDbLine
 62
7
  6
CONTINUOUS
 10
4.7533998191
 20
6.6679268619
 11
4.7533998191
 21
6.6599481395
  0
LINE
  5
668
100
AcDbEntity
  8
0
100
AcDbLine
 62
7
  6
CONTINUOUS
 10
4.7690248191
 20
6.6572885653
 11
4.7690248191
 21
6.6705864361
  0
LINE
  5
669
100
AcDbEntity
  8
0
100
AcDbLine
 62
7
  6
CONTINUOUS
 10
4.7638164759
 20
6.6466502669
 11
4.7690248191
 21
6.6572885653
  0
LINE
  5
66A
100
AcDbEntity
  8
0
100
AcDbLine
 62
7
  6
CONTINUOUS
 10
4.7533998191
 20
6.6599481395
 11
4.7481914759
 21
6.651969417
  0
LINE
  5
66B
100
AcDbEntity
  8
0
100
AcDbLine
 62
7
  6
CONTINUOUS
 10
4.7533998191
 20
6.6360119693
 11
4.7638164759
 21
6.6466502669
  0
LINE
  5
66C
100
AcDbEntity
  8
0
100
AcDbLine
 62
7
  6
CONTINUOUS
 10
4.334128987
 20
6.7530332459
 11
4.3237123191
 21
6.7503736718
  0
LINE
  5
66D
100
AcDbEntity
  8
0
100
AcDbLine
 62
7
  6
CONTINUOUS
 10
4.7273581624
 20
6.7530332459
 11
4.7143373191
 21
6.7530332459
  0
LINE
  5
66E
100
AcDbEntity
  8
0
100
AcDbLine
 62
7
  6
CONTINUOUS
 10
4.3471498191
 20
6.7530332459
 11
4.334128987
 21
6.7530332459
  0
LINE
  5
66F
100
AcDbEntity
  8
0
100
AcDbLine
 62
7
  6
CONTINUOUS
 10
4.4096498191
 20
6.7530332459
 11
4.4330873191
 21
6.7530332459
  0
LINE
  5
670
100
AcDbEntity
  8
0
100
AcDbLine
 62
7
  6
CONTINUOUS
 10
4.5112123191
 20
6.7530332459
 11
4.5346498191
 21
6.7530332459
  0
LINE
  5
671
100
AcDbEntity
  8
0
100
AcDbLine
 62
7
  6
CONTINUOUS
 10
4.5554831624
 20
6.7530332459
 11
4.6179831624
 21
6.7530332459
  0
LINE
  5
672
100
AcDbEntity
  8
0
100
AcDbLine
 62
7
  6
CONTINUOUS
 10
4.7898581624
 20
6.7530332459
 11
4.8054831326
 21
6.7530332459
  0
LINE
  5
673
100
AcDbEntity
  8
0
100
AcDbLine
 62
7
  6
CONTINUOUS
 10
4.6179831624
 20
6.7530332459
 11
4.6310039759
 21
6.7503736718
  0
LINE
  5
674
100
AcDbEntity
  8
0
100
AcDbLine
 62
7
  6
CONTINUOUS
 10
4.7403789759
 20
6.7503736718
 11
4.7273581624
 21
6.7530332459
  0
LINE
  5
675
100
AcDbEntity
  8
0
100
AcDbLine
 62
7
  6
CONTINUOUS
 10
4.6283998191
 20
6.7344162269
 11
4.6205873191
 21
6.737075801
  0
LINE
  5
676
100
AcDbEntity
  8
0
100
AcDbLine
 62
7
  6
CONTINUOUS
 10
4.7299623191
 20
6.737075801
 11
4.7377748191
 21
6.7344162269
  0
LINE
  5
677
100
AcDbEntity
  8
0
100
AcDbLine
 62
7
  6
CONTINUOUS
 10
4.7533998191
 20
6.691863033
 11
4.7429831624
 21
6.6971821813
  0
LINE
  5
678
100
AcDbEntity
  8
0
100
AcDbLine
 62
7
  6
CONTINUOUS
 10
4.7065248191
 20
6.7025013296
 11
4.6987123191
 21
6.7078204779
  0
LINE
  5
679
100
AcDbEntity
  8
0
100
AcDbLine
 62
7
  6
CONTINUOUS
 10
4.7403789759
 20
6.6812247364
 11
4.7481914759
 21
6.6759055881
  0
LINE
  5
67A
100
AcDbEntity
  8
0
100
AcDbLine
 62
7
  6
CONTINUOUS
 10
4.6310039759
 20
6.7503736718
 11
4.6414206624
 21
6.7423949493
  0
LINE
  5
67B
100
AcDbEntity
  8
0
100
AcDbLine
 62
7
  6
CONTINUOUS
 10
4.7507956624
 20
6.7423949493
 11
4.7403789759
 21
6.7503736718
  0
LINE
  5
67C
100
AcDbEntity
  8
0
100
AcDbLine
 62
7
  6
CONTINUOUS
 10
4.6830873191
 20
6.7025013296
 11
4.6935039759
 21
6.691863033
  0
LINE
  5
67D
100
AcDbEntity
  8
0
100
AcDbLine
 62
7
  6
CONTINUOUS
 10
4.7638164759
 20
6.6812247364
 11
4.7533998191
 21
6.691863033
  0
LINE
  5
67E
100
AcDbEntity
  8
0
100
AcDbLine
 62
7
  6
CONTINUOUS
 10
4.7377748191
 20
6.7344162269
 11
4.7429831624
 21
6.7290970786
  0
LINE
  5
67F
100
AcDbEntity
  8
0
100
AcDbLine
 62
7
  6
CONTINUOUS
 10
4.6414206624
 20
6.7423949493
 11
4.6492331624
 21
6.7317566527
  0
LINE
  5
680
100
AcDbEntity
  8
0
100
AcDbLine
 62
7
  6
CONTINUOUS
 10
4.7481914759
 20
6.6759055881
 11
4.7533998191
 21
6.6679268619
  0
LINE
  5
681
100
AcDbEntity
  8
0
100
AcDbLine
 62
7
  6
CONTINUOUS
 10
4.7690248191
 20
6.6705864361
 11
4.7638164759
 21
6.6812247364
  0
LINE
  5
682
100
AcDbEntity
  8
0
100
AcDbLine
 62
7
  6
CONTINUOUS
 10
4.7429831624
 20
6.7290970786
 11
4.7455873191
 21
6.7237779303
  0
LINE
  5
683
100
AcDbEntity
  8
0
100
AcDbLine
 62
7
  6
CONTINUOUS
 10
4.6908998191
 20
6.6546289912
 11
4.6882956624
 21
6.6626077136
  0
LINE
  5
684
100
AcDbEntity
  8
0
100
AcDbLine
 62
7
  6
CONTINUOUS
 10
4.6987123191
 20
6.7078204779
 11
4.6961081624
 21
6.7157992004
  0
LINE
  5
685
100
AcDbEntity
  8
0
100
AcDbLine
 62
7
  6
CONTINUOUS
 10
4.6804831624
 20
6.7131396262
 11
4.6830873191
 21
6.7025013296
  0
LINE
  5
686
100
AcDbEntity
  8
0
100
AcDbLine
 62
7
  6
CONTINUOUS
 10
4.7898581624
 20
6.6280332459
 11
4.7898581624
 21
6.7530332459
  0
LINE
  5
687
100
AcDbEntity
  8
0
100
AcDbLine
 62
7
  6
CONTINUOUS
 10
4.8054831326
 20
6.7530332459
 11
4.8054831326
 21
6.6439906927
  0
LINE
  5
688
100
AcDbEntity
  8
0
100
AcDbLine
 62
7
  6
CONTINUOUS
 10
4.7586081624
 20
6.7317566527
 11
4.7507956624
 21
6.7423949493
  0
LINE
  5
689
100
AcDbEntity
  8
0
100
AcDbLine
 62
7
  6
CONTINUOUS
 10
4.7612123191
 20
6.7237779303
 11
4.7586081624
 21
6.7317566527
  0
LINE
  5
68A
100
AcDbEntity
  8
0
100
AcDbLine
 62
7
  6
CONTINUOUS
 10
4.8836081326
 20
6.6439906927
 11
4.8836081326
 21
6.6280332459
  0
LINE
  5
68B
100
AcDbEntity
  8
0
100
AcDbLine
 62
9
  6
CONTINUOUS
 10
5.0805351961
 20
5.9020332459
 11
5.0805351961
 21
5.8280332459
  0
LINE
  5
68C
100
AcDbEntity
  8
0
100
AcDbLine
 62
7
  6
CONTINUOUS
 10
5.0855351961
 20
7.1020332459
 11
4.0905351961
 21
7.1020332459
  0
LINE
  5
68D
100
AcDbEntity
  8
AXIS_COSMETIC_THREADS
100
AcDbLine
 62
7
  6
CENTER
 10
5.3755351961
 20
7.1520332459
 11
5.1665351961
 21
7.1520332459
  0
LINE
  5
68E
100
AcDbEntity
  8
AXIS_COSMETIC_THREADS
100
AcDbLine
 62
7
  6
CENTER
 10
3.8005351961
 20
7.1520332459
 11
3.5915351961
 21
7.1520332459
  0
LINE
  5
68F
100
AcDbEntity
  8
AXIS_COSMETIC_THREADS
100
AcDbLine
 62
7
  6
CENTER
 10
3.8005351961
 20
7.1520332459
 11
5.1342381878
 21
7.1520332459
  0
LINE
  5
690
100
AcDbEntity
  8
AXIS_COSMETIC_THREADS
100
AcDbLine
 62
7
  6
CENTER
 10
5.3755351961
 20
7.1520332459
 11
5.5845351961
 21
7.1520332459
  0
LINE
  5
691
100
AcDbEntity
  8
0
100
AcDbLine
 62
7
  6
CONTINUOUS
 10
5.1805351961
 20
5.8280332459
 11
5.1805351961
 21
5.9020332459
  0
LINE
  5
692
100
AcDbEntity
  8
0
100
AcDbLine
 62
7
  6
CONTINUOUS
 10
5.1855351961
 20
7.3520332459
 11
5.1855351961
 21
7.2020332459
  0
LINE
  5
693
100
AcDbEntity
  8
0
100
AcDbLine
 62
9
  6
CONTINUOUS
 10
5.2805351961
 20
5.8280332459
 11
5.2805351961
 21
5.9020332459
  0
LINE
  5
694
100
AcDbEntity
  8
AXIS_COSMETIC_THREADS
100
AcDbLine
 62
7
  6
CENTER
 10
5.3755351961
 20
7.1520332459
 11
5.3755351961
 21
6.9430332459
  0
LINE
  5
695
100
AcDbEntity
  8
AXIS_COSMETIC_THREADS
100
AcDbLine
 62
7
  6
CENTER
 10
5.3755351961
 20
6.3020332459
 11
5.3755351961
 21
6.0930332459
  0
LINE
  5
696
100
AcDbEntity
  8
AXIS_COSMETIC_THREADS
100
AcDbLine
 62
7
  6
CENTER
 10
5.3755351961
 20
6.3020332459
 11
5.3755351961
 21
6.9376788101
  0
LINE
  5
697
100
AcDbEntity
  8
AXIS_COSMETIC_THREADS
100
AcDbLine
 62
7
  6
CENTER
 10
5.3755351961
 20
7.1520332459
 11
5.3755351961
 21
7.3610332459
  0
LINE
  5
698
100
AcDbEntity
  8
0
100
AcDbLine
 62
7
  6
CONTINUOUS
 10
3.6655351961
 20
7.4520332459
 11
3.8905351961
 21
7.4520332459
  0
LINE
  5
699
100
AcDbEntity
  8
0
100
AcDbLine
 62
7
  6
CONTINUOUS
 10
5.2855351961
 20
7.4520332459
 11
5.5105351961
 21
7.4520332459
  0
LINE
  5
69A
100
AcDbEntity
  8
0
100
AcDbLine
 62
9
  6
CONTINUOUS
 10
5.5105351961
 20
5.9020332459
 11
5.5105351961
 21
5.8280332459
  0
LINE
  5
69B
100
AcDbEntity
  8
0
100
AcDbLine
 62
7
  6
CONTINUOUS
 10
5.6105351961
 20
7.3520332459
 11
5.6105351961
 21
5.8280332459
  0
LINE
  5
69C
100
AcDbEntity
  8
0
100
AcDbLine
 62
3
  6
CONTINUOUS
 10
9.4862015219
 20
5.8280332459
 11
8.8402015219
 21
5.8280332459
  0
LINE
  5
69D
100
AcDbEntity
  8
0
100
AcDbLine
 62
7
  6
CONTINUOUS
 10
8.8402015219
 20
5.9020332459
 11
9.4862015219
 21
5.9020332459
  0
LINE
  5
69E
100
AcDbEntity
  8
0
100
AcDbLine
 62
9
  6
CONTINUOUS
 10
9.5902015219
 20
5.9320332459
 11
9.5162015219
 21
5.9320332459
  0
LINE
  5
69F
100
AcDbEntity
  8
0
100
AcDbLine
 62
7
  6
CONTINUOUS
 10
8.8402015219
 20
5.9020332459
 11
8.8402015219
 21
5.8280332459
  0
LINE
  5
6A0
100
AcDbEntity
  8
0
100
AcDbLine
 62
9
  6
CONTINUOUS
 10
8.9402015219
 20
5.9020332459
 11
8.9402015219
 21
5.8280332459
  0
LINE
  5
6A1
100
AcDbEntity
  8
0
100
AcDbLine
 62
9
  6
CONTINUOUS
 10
9.4862015219
 20
5.8280332459
 11
9.4862015219
 21
5.9020332459
  0
LINE
  5
6A2
100
AcDbEntity
  8
0
100
AcDbLine
 62
7
  6
CONTINUOUS
 10
9.5162015219
 20
5.9320332459
 11
9.5162015219
 21
7.4520332459
  0
LINE
  5
6A3
100
AcDbEntity
  8
0
100
AcDbLine
 62
3
  6
CONTINUOUS
 10
9.5902015219
 20
7.4520332459
 11
9.5902015219
 21
5.9320332459
  0
LINE
  5
6A4
100
AcDbEntity
  8
0
100
AcDbLine
 62
9
  6
CONTINUOUS
 10
9.5162015219
 20
7.3520332459
 11
9.5902015219
 21
7.3520332459
  0
LINE
  5
6A5
100
AcDbEntity
  8
0
100
AcDbLine
 62
7
  6
CONTINUOUS
 10
9.5162015219
 20
7.4520332459
 11
9.5902015219
 21
7.4520332459
  0
LINE
  5
6A6
100
AcDbEntity
  8
0
100
AcDbLine
 62
3
  6
CONTINUOUS
 10
3.5655351961
 20
3.1289184506
 11
3.5655351961
 21
3.7789184506
  0
LINE
  5
6A7
100
AcDbEntity
  8
AXIS_COSMETIC_THREADS
100
AcDbLine
 62
7
  6
CENTER
 10
3.8005351961
 20
3.6289184506
 11
3.8005351961
 21
3.4199184506
  0
LINE
  5
6A8
100
AcDbEntity
  8
AXIS_COSMETIC_THREADS
100
AcDbLine
 62
7
  6
CENTER
 10
3.8005351961
 20
3.6289184506
 11
3.8005351961
 21
3.8379184506
  0
LINE
  5
6A9
100
AcDbEntity
  8
0
100
AcDbLine
 62
3
  6
CONTINUOUS
 10
3.9955351961
 20
3.7789184506
 11
3.9955351961
 21
3.5789184506
  0
LINE
  5
6AA
100
AcDbEntity
  8
0
100
AcDbLine
 62
3
  6
CONTINUOUS
 10
5.6105351961
 20
3.1289184506
 11
3.5655351961
 21
3.1289184506
  0
LINE
  5
6AB
100
AcDbEntity
  8
0
100
AcDbLine
 62
7
  6
CONTINUOUS
 10
4.3380351961
 20
3.3839184506
 11
4.3380351961
 21
3.3039184506
  0
LINE
  5
6AC
100
AcDbEntity
  8
0
100
AcDbLine
 62
9
  6
CONTINUOUS
 10
3.5655351961
 20
3.2329184506
 11
5.6105351961
 21
3.2329184506
  0
LINE
  5
6AD
100
AcDbEntity
  8
0
100
AcDbLine
 62
7
  6
CONTINUOUS
 10
4.3380351961
 20
3.3039184506
 11
4.8380351961
 21
3.3039184506
  0
LINE
  5
6AE
100
AcDbEntity
  8
0
100
AcDbLine
 62
7
  6
CONTINUOUS
 10
4.8380351961
 20
3.3839184506
 11
4.3380351961
 21
3.3839184506
  0
LINE
  5
6AF
100
AcDbEntity
  8
0
100
AcDbLine
 62
3
  6
CONTINUOUS
 10
4.0955351961
 20
3.4789184506
 11
5.0805351961
 21
3.4789184506
  0
LINE
  5
6B0
100
AcDbEntity
  8
AXIS_COSMETIC_THREADS
100
AcDbLine
 62
7
  6
CENTER
 10
5.3755351961
 20
3.6289184506
 11
5.1665351961
 21
3.6289184506
  0
LINE
  5
6B1
100
AcDbEntity
  8
AXIS_COSMETIC_THREADS
100
AcDbLine
 62
7
  6
CENTER
 10
3.8005351961
 20
3.6289184506
 11
3.5915351961
 21
3.6289184506
  0
LINE
  5
6B2
100
AcDbEntity
  8
AXIS_COSMETIC_THREADS
100
AcDbLine
 62
7
  6
CENTER
 10
3.8005351961
 20
3.6289184506
 11
4.0095351961
 21
3.6289184506
  0
LINE
  5
6B3
100
AcDbEntity
  8
AXIS_COSMETIC_THREADS
100
AcDbLine
 62
7
  6
CENTER
 10
5.3755351961
 20
3.6289184506
 11
5.5845351961
 21
3.6289184506
  0
LINE
  5
6B4
100
AcDbEntity
  8
0
100
AcDbLine
 62
7
  6
CONTINUOUS
 10
4.8380351961
 20
3.3039184506
 11
4.8380351961
 21
3.3839184506
  0
LINE
  5
6B5
100
AcDbEntity
  8
0
100
AcDbLine
 62
3
  6
CONTINUOUS
 10
3.6655351961
 20
3.8789184506
 11
3.8955351961
 21
3.8789184506
  0
LINE
  5
6B6
100
AcDbEntity
  8
0
100
AcDbLine
 62
3
  6
CONTINUOUS
 10
5.2805351961
 20
3.8789184506
 11
5.5105351961
 21
3.8789184506
  0
LINE
  5
6B7
100
AcDbEntity
  8
0
100
AcDbLine
 62
3
  6
CONTINUOUS
 10
5.1805351961
 20
3.7789184506
 11
5.1805351961
 21
3.5789184506
  0
LINE
  5
6B8
100
AcDbEntity
  8
AXIS_COSMETIC_THREADS
100
AcDbLine
 62
7
  6
CENTER
 10
5.3755351961
 20
3.6289184506
 11
5.3755351961
 21
3.4199184506
  0
LINE
  5
6B9
100
AcDbEntity
  8
AXIS_COSMETIC_THREADS
100
AcDbLine
 62
7
  6
CENTER
 10
5.3755351961
 20
3.6289184506
 11
5.3755351961
 21
3.8379184506
  0
LINE
  5
6BA
100
AcDbEntity
  8
0
100
AcDbLine
 62
3
  6
CONTINUOUS
 10
5.6105351961
 20
3.1289184506
 11
5.6105351961
 21
3.7789184506
  0
CIRCLE
  5
6BB
100
AcDbEntity
  8
0
100
AcDbCircle
 62
7
  6
CONTINUOUS
 10
10.5342808475
 20
1.243294839
 40
0.252091
  0
CIRCLE
  5
6BC
100
AcDbEntity
  8
0
100
AcDbCircle
 62
7
  6
CONTINUOUS
 10
10.5342808475
 20
1.243294839
 40
0.182698
  0
CIRCLE
  5
6BD
100
AcDbEntity
  8
AXIS_COSMETIC_THREADS
100
AcDbCircle
 62
7
  6
CONTINUOUS
 10
5.3755351961
 20
7.1520332459
 40
0.109
  0
CIRCLE
  5
6BE
100
AcDbEntity
  8
AXIS_COSMETIC_THREADS
100
AcDbCircle
 62
7
  6
CONTINUOUS
 10
3.8005351961
 20
7.1520332459
 40
0.109
  0
CIRCLE
  5
6BF
100
AcDbEntity
  8
AXIS_COSMETIC_THREADS
100
AcDbCircle
 62
7
  6
CONTINUOUS
 10
3.8005351961
 20
6.3020332459
 40
0.109
  0
CIRCLE
  5
6C0
100
AcDbEntity
  8
AXIS_COSMETIC_THREADS
100
AcDbCircle
 62
7
  6
CONTINUOUS
 10
5.3755351961
 20
6.3020332459
 40
0.109
  0
ARC
  5
6C1
100
AcDbEntity
  8
0
100
AcDbCircle
 62
7
  6
CONTINUOUS
 10
3.8905351961
 20
7.3520332459
 40
0.1
100
AcDbArc
 50
0.0
 51
90.0
  0
ARC
  5
6C2
100
AcDbEntity
  8
0
100
AcDbCircle
 62
7
  6
CONTINUOUS
 10
4.0905351961
 20
7.2020332459
 40
0.1
100
AcDbArc
 50
180.0
 51
270.0
  0
ARC
  5
6C3
100
AcDbEntity
  8
0
100
AcDbCircle
 62
7
  6
CONTINUOUS
 10
5.0855351961
 20
7.2020332459
 40
0.1
100
AcDbArc
 50
270.0
 51
360.0
  0
ARC
  5
6C4
100
AcDbEntity
  8
0
100
AcDbCircle
 62
7
  6
CONTINUOUS
 10
5.2855351961
 20
7.3520332459
 40
0.1
100
AcDbArc
 50
90.0
 51
180.0
  0
ARC
  5
6C5
100
AcDbEntity
  8
0
100
AcDbCircle
 62
7
  6
CONTINUOUS
 10
5.5105351961
 20
7.3520332459
 40
0.1
100
AcDbArc
 50
0.0
 51
90.0
  0
ARC
  5
6C6
100
AcDbEntity
  8
0
100
AcDbCircle
 62
7
  6
CONTINUOUS
 10
3.6655351961
 20
7.3520332459
 40
0.1
100
AcDbArc
 50
90.0
 51
180.0
  0
ARC
  5
6C7
100
AcDbEntity
  8
0
100
AcDbCircle
 62
3
  6
CONTINUOUS
 10
9.4862015219
 20
5.9320332459
 40
0.104
100
AcDbArc
 50
270.0
 51
360.0
  0
ARC
  5
6C8
100
AcDbEntity
  8
0
100
AcDbCircle
 62
7
  6
CONTINUOUS
 10
9.4862015219
 20
5.9320332459
 40
0.03
100
AcDbArc
 50
270.0
 51
360.0
  0
CIRCLE
  5
6C9
100
AcDbEntity
  8
AXIS_COSMETIC_THREADS
100
AcDbCircle
 62
3
  6
CONTINUOUS
 10
5.3755351961
 20
3.6289184506
 40
0.109
  0
CIRCLE
  5
6CA
100
AcDbEntity
  8
AXIS_COSMETIC_THREADS
100
AcDbCircle
 62
3
  6
CONTINUOUS
 10
3.8005351961
 20
3.6289184506
 40
0.109
  0
ARC
  5
6CB
100
AcDbEntity
  8
0
100
AcDbCircle
 62
3
  6
CONTINUOUS
 10
5.5105351961
 20
3.7789184506
 40
0.1
100
AcDbArc
 50
0.0
 51
90.0
  0
ARC
  5
6CC
100
AcDbEntity
  8
0
100
AcDbCircle
 62
3
  6
CONTINUOUS
 10
3.6655351961
 20
3.7789184506
 40
0.1
100
AcDbArc
 50
90.0
 51
180.0
  0
ARC
  5
6CD
100
AcDbEntity
  8
0
100
AcDbCircle
 62
3
  6
CONTINUOUS
 10
3.8955351961
 20
3.7789184506
 40
0.1
100
AcDbArc
 50
0.0
 51
90.0
  0
ARC
  5
6CE
100
AcDbEntity
  8
0
100
AcDbCircle
 62
3
  6
CONTINUOUS
 10
4.0955351961
 20
3.5789184506
 40
0.1
100
AcDbArc
 50
180.0
 51
270.0
  0
ARC
  5
6CF
100
AcDbEntity
  8
0
100
AcDbCircle
 62
3
  6
CONTINUOUS
 10
5.0805351961
 20
3.5789184506
 40
0.1
100
AcDbArc
 50
270.0
 51
360.0
  0
ARC
  5
6D0
100
AcDbEntity
  8
0
100
AcDbCircle
 62
3
  6
CONTINUOUS
 10
5.2805351961
 20
3.7789184506
 40
0.1
100
AcDbArc
 50
90.0
 51
180.0
  0
ENDSEC
  0
SECTION
  2
OBJECTS
  0
DICTIONARY
  5
C
100
AcDbDictionary
280
0
281
1
  3
ACAD_GROUP
350
D
  3
ACAD_MLINESTYLE
350
17
  3
ACAD_LAYOUT
350
1A
  3
ACAD_PLOTSETTINGS
350
19
  3
ACAD_PLOTSTYLENAME
350
E
  0
DICTIONARY
  5
D
102
{ACAD_REACTORS
330
C
102
}
100
AcDbDictionary
280
0
281
1
  0
ACDBDICTIONARYWDFLT
  5
E
102
{ACAD_REACTORS
330
C
102
}
100
AcDbDictionary
281
1
  3
Normal
350
F
100
AcDbDictionaryWithDefault
340
F
  0
DICTIONARY
  5
17
102
{ACAD_REACTORS
330
C
102
}
100
AcDbDictionary
280
0
281
1
  3
Standard
350
18
  0
DICTIONARY
  5
19
102
{ACAD_REACTORS
330
C
102
}
100
AcDbDictionary
281
1
  0
DICTIONARY
  5
1A
102
{ACAD_REACTORS
330
C
102
}
100
AcDbDictionary
281
1
  3
Layout1
350
1E
  3
Model
350
22
  0
ACDBPLACEHOLDER
  5
F
102
{ACAD_REACTORS
330
E
102
}
  0
MLINESTYLE
  5
18
102
{ACAD_REACTORS
330
17
102
}
100
AcDbMlineStyle
  2
STANDARD
 70
0
  3

 62
256
 51
90.0
 52
90.0
 71
2
 49
0.5
 62
256
  6
BYLAYER
 49
-0.5
 62
256
  6
BYLAYER
  0
LAYOUT
  5
1E
102
{ACAD_REACTORS
330
1A
102
}
100
AcDbPlotSettings
  1

  2

  4

  6

 40
0.0
 41
0.0
 42
0.0
 43
0.0
 44
0.0
 45
0.0
 46
0.0
 47
0.0
 48
0.0
 49
0.0
140
0.0
141
0.0
142
1.0
143
1.0
 70
0
 72
0
 73
0
 74
0
  7

 75
0
147
1.0
148
0.0
149
0.0
100
AcDbLayout
  1
Layout1
 70
0
 71
0
 10
0.0
 20
0.0
 11
0.0
 21
0.0
 12
0.0
 22
0.0
 32
0.0
 14
0.0
 24
0.0
 34
0.0
 15
0.0
 25
0.0
 35
0.0
146
0.0
 13
0.0
 23
0.0
 33
0.0
 16
0.0
 26
0.0
 36
0.0
 17
0.0
 27
0.0
 37
0.0
 76
0
330
1B
331
0
345
0
346
0
  0
LAYOUT
  5
22
102
{ACAD_REACTORS
330
1A
102
}
100
AcDbPlotSettings
  1

  2

  4

  6

 40
0.0
 41
0.0
 42
0.0
 43
0.0
 44
0.0
 45
0.0
 46
0.0
 47
0.0
 48
0.0
 49
0.0
140
0.0
141
0.0
142
1.0
143
1.0
 70
0
 72
0
 73
0
 74
0
  7

 75
0
147
1.0
148
0.0
149
0.0
100
AcDbLayout
  1
Model
 70
0
 71
0
 10
0.0
 20
0.0
 11
0.0
 21
0.0
 12
0.0
 22
0.0
 32
0.0
 14
0.0
 24
0.0
 34
0.0
 15
0.0
 25
0.0
 35
0.0
146
0.0
 13
0.0
 23
0.0
 33
0.0
 16
0.0
 26
0.0
 36
0.0
 17
0.0
 27
0.0
 37
0.0
 76
0
330
1F
331
0
345
0
346
0
  0
ENDSEC
  0
EOF
