999
DXF file: 141830_1.dxf
999
Pro/ENGINEER 2006170 by Parametric Technology Corporation
  0
SECTION
  2
HEADER
  9
$ACADVER
  1
AC1015
  9
$DWGCODEPAGE
  3
ANSI_1252
  9
$EXTMAX
 10
17.0
 20
11.0
 30
0.0
  9
$EXTMIN
 10
0.0
 20
0.0
 30
0.0
  9
$LIMMIN
 10
0.0
 20
0.0
  9
$LIMMAX
 10
17.0
 20
11.0
  9
$VIEWCTR
 10
8.5
 20
5.5
  9
$VIEWSIZE
 40
11.0
  9
$CLAYER
  8
0
  9
$LTSCALE
 40
0.935
  9
$CELTYPE
  6
BYLAYER
  9
$DIMSCALE
 40
1.0
  9
$DIMASZ
 40
0.1875
  9
$DIMEXO
 40
0.10625
  9
$DIMDLI
 40
0.646
  9
$DIMEXE
 40
0.306
  9
$DIMCEN
 40
0.153
  9
$DIMLFAC
 40
1.0
  9
$DIMBLK
  1
_FILLED
  9
$DIMTXT
 40
0.1
  9
$DIMTOL
 70
1
  9
$DIMLIM
 70
0
  9
$DIMTFAC
 40
1.0
  9
$DIMTP
 40
0.005
  9
$DIMTM
 40
0.005
  9
$PDMODE
 70
3
  9
$PDSIZE
 40
0.3125
  9
$HANDSEED
  5
612
  9
$MEASUREMENT
 70
0
  9
$INSUNITS
 70
1
  0
ENDSEC
  0
SECTION
  2
CLASSES
  0
CLASS
  1
ACDBDICTIONARYWDFLT
  2
AcDbDictionaryWithDefault
  3
AutoCAD 2000
 90
0
280
0
281
0
  0
CLASS
  1
ACDBPLACEHOLDER
  2
AcDbPlaceHolder
  3
AutoCAD 2000
 90
0
280
0
281
0
  0
CLASS
  1
LAYOUT
  2
AcDbLayout
  3
AutoCAD 2000
 90
0
280
0
281
0
  0
ENDSEC
  0
SECTION
  2
TABLES
  0
TABLE
  2
VPORT
  5
8
100
AcDbSymbolTable
 70
2
  0
VPORT
  5
1F4
100
AcDbSymbolTableRecord
100
AcDbViewportTableRecord
  2
*ACTIVE
 70
0
 10
0.0
 20
0.0
 11
1.0
 21
1.0
 12
8.5
 22
5.5
 13
0.0
 23
0.0
 14
1.0
 24
1.0
 15
0.0
 25
0.0
 16
0.0
 26
0.0
 36
1.0
 17
0.0
 27
0.0
 37
0.0
 40
11.0
 41
1.5454545455
 42
50.0
 43
0.0
 44
0.0
 50
0.0
 51
0.0
 71
0
 72
100
 73
1
 74
1
 75
0
 76
0
 77
0
 78
0
  0
ENDTAB
  0
TABLE
  2
LTYPE
  5
5
100
AcDbSymbolTable
 70
6
  0
LTYPE
  5
14
100
AcDbSymbolTableRecord
100
AcDbLinetypeTableRecord
  2
BYBLOCK
 70
0
  3

 72
65
 73
0
 40
0.0
  0
LTYPE
  5
15
100
AcDbSymbolTableRecord
100
AcDbLinetypeTableRecord
  2
BYLAYER
 70
0
  3

 72
65
 73
0
 40
0.0
  0
LTYPE
  5
16
100
AcDbSymbolTableRecord
100
AcDbLinetypeTableRecord
  2
CONTINUOUS
 70
64
  3
Solid line
 72
65
 73
0
 40
0.0
  0
LTYPE
  5
1F5
100
AcDbSymbolTableRecord
100
AcDbLinetypeTableRecord
  2
CENTER
 70
64
  3
____ _ ____ _ ____ _ ____ _ ____ _ ____ _ ____
 72
65
 73
4
 40
0.6
 49
0.375
 74
0
 49
-0.075
 74
0
 49
0.075
 74
0
 49
-0.075
 74
0
  0
LTYPE
  5
1F6
100
AcDbSymbolTableRecord
100
AcDbLinetypeTableRecord
  2
HIDDEN
 70
64
  3
- - - - - - - - - - - - - - - - - - - -
 72
65
 73
2
 40
0.2
 49
0.1
 74
0
 49
-0.1
 74
0
  0
LTYPE
  5
1F7
100
AcDbSymbolTableRecord
100
AcDbLinetypeTableRecord
  2
PHANTOM
 70
64
  3
_____ _ _ _____ _ _ _____ _ _ _____
 72
65
 73
6
 40
0.8
 49
0.45
 74
0
 49
-0.05
 74
0
 49
0.1
 74
0
 49
-0.05
 74
0
 49
0.1
 74
0
 49
-0.05
 74
0
  0
LTYPE
  5
1F8
100
AcDbSymbolTableRecord
100
AcDbLinetypeTableRecord
  2
DOT
 70
64
  3
. . . . . . . . . . . . . . . . . . . .
 72
65
 73
2
 40
0.2
 49
0.1
 74
0
 49
-0.1
 74
0
  0
LTYPE
  5
1F9
100
AcDbSymbolTableRecord
100
AcDbLinetypeTableRecord
  2
DASHED
 70
64
  3
- - - - - - - - - - - - - - - - - - - -
 72
65
 73
2
 40
0.2
 49
0.1
 74
0
 49
-0.1
 74
0
  0
ENDTAB
  0
TABLE
  2
LAYER
  5
2
100
AcDbSymbolTable
 70
36
  0
LAYER
  5
10
100
AcDbSymbolTableRecord
100
AcDbLayerTableRecord
  2
0
 70
0
 62
7
  6
CONTINUOUS
370
-3
390
F
  0
LAYER
  5
1FA
100
AcDbSymbolTableRecord
100
AcDbLayerTableRecord
  2
DEFAULT_1
 70
0
 62
7
  6
CENTER
370
-3
390
F
  0
LAYER
  5
1FB
100
AcDbSymbolTableRecord
100
AcDbLayerTableRecord
  2
DEFAULT_2
 70
0
 62
8
  6
HIDDEN
370
-3
390
F
  0
LAYER
  5
1FC
100
AcDbSymbolTableRecord
100
AcDbLayerTableRecord
  2
DEFAULT_3
 70
0
 62
7
  6
PHANTOM
370
-3
390
F
  0
LAYER
  5
1FD
100
AcDbSymbolTableRecord
100
AcDbLayerTableRecord
  2
_2D_DELETED_OBJS
 70
0
 62
7
  6
CONTINUOUS
370
-3
390
F
  0
LAYER
  5
1FE
100
AcDbSymbolTableRecord
100
AcDbLayerTableRecord
  2
AXIS
 70
0
 62
7
  6
CONTINUOUS
370
-3
390
F
  0
LAYER
  5
1FF
100
AcDbSymbolTableRecord
100
AcDbLayerTableRecord
  2
AXIS_COSMETIC_THREADS
 70
0
 62
7
  6
CONTINUOUS
370
-3
390
F
  0
LAYER
  5
200
100
AcDbSymbolTableRecord
100
AcDbLayerTableRecord
  2
CONSTRUCTION
 70
0
 62
7
  6
CONTINUOUS
370
-3
390
F
  0
LAYER
  5
201
100
AcDbSymbolTableRecord
100
AcDbLayerTableRecord
  2
CURVES
 70
0
 62
7
  6
CONTINUOUS
370
-3
390
F
  0
LAYER
  5
202
100
AcDbSymbolTableRecord
100
AcDbLayerTableRecord
  2
DATUM_PLANES
 70
0
 62
7
  6
CONTINUOUS
370
-3
390
F
  0
LAYER
  5
203
100
AcDbSymbolTableRecord
100
AcDbLayerTableRecord
  2
DEF_CSY
 70
0
 62
7
  6
CONTINUOUS
370
-3
390
F
  0
LAYER
  5
204
100
AcDbSymbolTableRecord
100
AcDbLayerTableRecord
  2
DRIVEN_DIMS
 70
0
 62
7
  6
CONTINUOUS
370
-3
390
F
  0
LAYER
  5
205
100
AcDbSymbolTableRecord
100
AcDbLayerTableRecord
  2
GEOMTOL
 70
0
 62
7
  6
CONTINUOUS
370
-3
390
F
  0
LAYER
  5
206
100
AcDbSymbolTableRecord
100
AcDbLayerTableRecord
  2
NOTES
 70
0
 62
7
  6
CONTINUOUS
370
-3
390
F
  0
LAYER
  5
207
100
AcDbSymbolTableRecord
100
AcDbLayerTableRecord
  2
PNTS
 70
0
 62
7
  6
CONTINUOUS
370
-3
390
F
  0
LAYER
  5
208
100
AcDbSymbolTableRecord
100
AcDbLayerTableRecord
  2
QUILTS
 70
0
 62
7
  6
CONTINUOUS
370
-3
390
F
  0
LAYER
  5
209
100
AcDbSymbolTableRecord
100
AcDbLayerTableRecord
  2
SCHEME_DIMS
 70
0
 62
7
  6
CONTINUOUS
370
-3
390
F
  0
LAYER
  5
20A
100
AcDbSymbolTableRecord
100
AcDbLayerTableRecord
  2
SKETCHED_ENT
 70
0
 62
7
  6
CONTINUOUS
370
-3
390
F
  0
LAYER
  5
20B
100
AcDbSymbolTableRecord
100
AcDbLayerTableRecord
  2
SURFACES
 70
0
 62
7
  6
CONTINUOUS
370
-3
390
F
  0
LAYER
  5
20C
100
AcDbSymbolTableRecord
100
AcDbLayerTableRecord
  2
SYMBOLS
 70
0
 62
7
  6
CONTINUOUS
370
-3
390
F
  0
ENDTAB
  0
TABLE
  2
STYLE
  5
3
100
AcDbSymbolTable
 70
1
  0
STYLE
  5
11
100
AcDbSymbolTableRecord
100
AcDbTextStyleTableRecord
  2
STANDARD
 70
0
 40
0.0
 41
1.0
 50
0.0
 71
0
 42
0.2
  3
txt
  4

  0
ENDTAB
  0
TABLE
  2
VIEW
  5
6
100
AcDbSymbolTable
 70
0
  0
ENDTAB
  0
TABLE
  2
UCS
  5
7
100
AcDbSymbolTable
 70
0
  0
ENDTAB
  0
TABLE
  2
APPID
  5
9
100
AcDbSymbolTable
 70
1
  0
APPID
  5
20D
100
AcDbSymbolTableRecord
100
AcDbRegAppTableRecord
  2
ACAD
 70
0
  0
ENDTAB
  0
TABLE
  2
BLOCK_RECORD
  5
1
100
AcDbSymbolTable
 70
0
  0
BLOCK_RECORD
  5
1F
100
AcDbSymbolTableRecord
100
AcDbBlockTableRecord
  2
*MODEL_SPACE
  0
BLOCK_RECORD
  5
1B
100
AcDbSymbolTableRecord
100
AcDbBlockTableRecord
  2
*PAPER_SPACE
  0
BLOCK_RECORD
  5
20E
100
AcDbSymbolTableRecord
100
AcDbBlockTableRecord
  2
_FILLED
  0
BLOCK_RECORD
  5
20F
100
AcDbSymbolTableRecord
100
AcDbBlockTableRecord
  2
BANNER_LOGO_TITLEBLOCK_BL0
  0
BLOCK_RECORD
  5
210
100
AcDbSymbolTableRecord
100
AcDbBlockTableRecord
  2
*D0
  0
BLOCK_RECORD
  5
211
100
AcDbSymbolTableRecord
100
AcDbBlockTableRecord
  2
*D1
  0
BLOCK_RECORD
  5
212
100
AcDbSymbolTableRecord
100
AcDbBlockTableRecord
  2
*D2
  0
BLOCK_RECORD
  5
213
100
AcDbSymbolTableRecord
100
AcDbBlockTableRecord
  2
*D3
  0
BLOCK_RECORD
  5
214
100
AcDbSymbolTableRecord
100
AcDbBlockTableRecord
  2
*D4
  0
BLOCK_RECORD
  5
215
100
AcDbSymbolTableRecord
100
AcDbBlockTableRecord
  2
*D5
  0
BLOCK_RECORD
  5
216
100
AcDbSymbolTableRecord
100
AcDbBlockTableRecord
  2
*D6
  0
BLOCK_RECORD
  5
217
100
AcDbSymbolTableRecord
100
AcDbBlockTableRecord
  2
*D7
  0
BLOCK_RECORD
  5
218
100
AcDbSymbolTableRecord
100
AcDbBlockTableRecord
  2
*D8
  0
BLOCK_RECORD
  5
219
100
AcDbSymbolTableRecord
100
AcDbBlockTableRecord
  2
*D9
  0
ENDTAB
  0
TABLE
  2
DIMSTYLE
  5
A
100
AcDbSymbolTable
 70
1
100
AcDbDimStyleTable
 71
0
  0
DIMSTYLE
105
21A
100
AcDbSymbolTableRecord
100
AcDbDimStyleTableRecord
  2
STANDARD
 70
0
  3

  4

 40
1.0
 41
0.1875
 42
0.0625
 43
0.38
 44
0.18
 45
0.0
 46
0.0
 47
0.005
 48
0.005
140
0.1
141
0.09
142
0.0
143
25.4
144
1.0
145
0.0
146
1.0
147
0.09
 71
1.0
 72
0.0
 73
1
 74
1
 75
0
 76
0
 77
0
 78
4
170
0
171
2
172
0
173
0
174
0
175
0
176
0
177
0
178
0
270
2
271
3
272
3
273
2
274
2
275
0
280
0
281
0
282
0
283
1
284
4
285
0
286
0
287
3
288
0
340
11
341
20E
342
20E
343
20E
344
20E
  0
DIMSTYLE
105
21B
100
AcDbSymbolTableRecord
100
AcDbDimStyleTableRecord
  2
DIMSTYLE_1
 70
0
  3

  4

 40
1.0
 41
0.1875
 42
0.0625
 43
0.38
 44
0.18
 45
0.0
 46
0.0
 47
0.1
 48
0.1
140
0.1
141
0.09
142
0.0
143
25.4
144
1.0
145
0.0
146
1.0
147
0.09
 71
0.0
 72
0.0
 73
1
 74
1
 75
0
 76
0
 77
0
 78
4
170
0
171
2
172
0
173
0
174
0
175
0
176
0
177
0
178
0
270
2
271
1
272
1
273
2
274
2
275
0
280
0
281
0
282
0
283
1
284
4
285
0
286
0
287
3
288
0
340
11
341
20E
342
20E
343
20E
344
20E
  0
DIMSTYLE
105
21C
100
AcDbSymbolTableRecord
100
AcDbDimStyleTableRecord
  2
DIMSTYLE_2
 70
0
  3

  4

 40
1.0
 41
0.1875
 42
0.0625
 43
0.38
 44
0.18
 45
0.0
 46
0.0
 47
0.1
 48
0.1
140
0.1
141
0.09
142
0.0
143
25.4
144
1.0
145
0.0
146
1.0
147
0.09
 71
0.0
 72
0.0
 73
1
 74
1
 75
0
 76
0
 77
0
 78
4
170
0
171
2
172
0
173
0
174
0
175
0
176
0
177
0
178
0
270
2
271
1
272
1
273
2
274
2
275
0
280
0
281
0
282
0
283
1
284
4
285
0
286
0
287
3
288
0
340
11
341
20E
342
20E
343
20E
344
20E
  0
ENDTAB
  0
ENDSEC
  0
SECTION
  2
BLOCKS
  0
BLOCK
  5
20
100
AcDbEntity
  8
0
100
AcDbBlockBegin
  2
*MODEL_SPACE
 70
0
 10
0.0
 20
0.0
 30
0.0
  3
*MODEL_SPACE
  1

  0
ENDBLK
  5
21
100
AcDbEntity
  8
0
100
AcDbBlockEnd
  0
BLOCK
  5
1C
100
AcDbEntity
  8
0
100
AcDbBlockBegin
  2
*PAPER_SPACE
 70
0
 10
0.0
 20
0.0
 30
0.0
  3
*PAPER_SPACE
  1

  0
ENDBLK
  5
1D
100
AcDbEntity
  8
0
100
AcDbBlockEnd
  0
BLOCK
  5
21D
100
AcDbEntity
  8
0
100
AcDbBlockBegin
 62
2
  6
CONTINUOUS
  2
BANNER_LOGO_TITLEBLOCK_BL0
 70
64
 10
12.9046655056
 20
2.5403783448
  3
BANNER_LOGO_TITLEBLOCK_BL0
  1

  0
LWPOLYLINE
  5
21E
100
AcDbEntity
  8
0
100
AcDbPolyline
 62
2
  6
CONTINUOUS
 90
29
 70
0
 10
12.0796650004
 20
2.5403783448
 10
12.1000078385
 20
2.5005819703
 10
12.1615890075
 20
2.4620382478
 10
12.2590135686
 20
2.4281250935
 10
12.3910903821
 20
2.3992568791
 10
12.5462480343
 20
2.3779627503
 10
12.7225901426
 20
2.3645025835
 10
12.9046652672
 20
2.3600565514
 10
13.0867408686
 20
2.3645025835
 10
13.2630829769
 20
2.3779627503
 10
13.4182401522
 20
2.3992568791
 10
13.5503174426
 20
2.4281250935
 10
13.6477415269
 20
2.4620382478
 10
13.7093231727
 20
2.5005819703
 10
13.7296660108
 20
2.5403783448
 10
13.7093231727
 20
2.5801747193
 10
13.6477415269
 20
2.6187184418
 10
13.5503174426
 20
2.6526315961
 10
13.4182401522
 20
2.6814998105
 10
13.2630829769
 20
2.7027939393
 10
13.0867408686
 20
2.7162541061
 10
12.9046652672
 20
2.7207001382
 10
12.7225901426
 20
2.7162541061
 10
12.5462480343
 20
2.7027939393
 10
12.3910903821
 20
2.6814998105
 10
12.2590135686
 20
2.6526315961
 10
12.1615890075
 20
2.6187184418
 10
12.1000078385
 20
2.5801747193
 10
12.0796650004
 20
2.5403783448
  0
ARC
  5
21F
100
AcDbEntity
  8
0
100
AcDbCircle
 62
2
  6
CONTINUOUS
 10
12.400005721
 20
2.5168763464
 40
0.0153945295
100
AcDbArc
 50
354.0454548824
 51
5.1878013979
  0
ARC
  5
220
100
AcDbEntity
  8
0
100
AcDbCircle
 62
2
  6
CONTINUOUS
 10
12.3931760319
 20
2.5166878286
 40
0.0222174455
100
AcDbArc
 50
4.0793399388
 51
69.834329283
  0
LINE
  5
221
100
AcDbEntity
  8
0
100
AcDbLine
 62
2
  6
CONTINUOUS
 10
12.4008351814
 20
2.5375433389
 11
12.3907841758
 21
2.5410923409
  0
LINE
  5
222
100
AcDbEntity
  8
0
100
AcDbLine
 62
2
  6
CONTINUOUS
 10
12.3907841758
 20
2.5410923409
 11
12.3990241804
 21
2.5458683435
  0
ARC
  5
223
100
AcDbEntity
  8
0
100
AcDbCircle
 62
2
  6
CONTINUOUS
 10
12.3771587979
 20
2.5826952352
 40
0.0428289026
100
AcDbArc
 50
300.6990502959
 51
319.0591802498
  0
ARC
  5
224
100
AcDbEntity
  8
0
100
AcDbCircle
 62
2
  6
CONTINUOUS
 10
12.3971873948
 20
2.5665668817
 40
0.0171568255
100
AcDbArc
 50
315.9145124245
 51
16.0049121282
  0
ARC
  5
225
100
AcDbEntity
  8
0
100
AcDbCircle
 62
2
  6
CONTINUOUS
 10
12.3922357827
 20
2.5632132173
 40
0.0229166529
100
AcDbArc
 50
20.6563876465
 51
62.3316896973
  0
ARC
  5
226
100
AcDbEntity
  8
0
100
AcDbCircle
 62
2
  6
CONTINUOUS
 10
12.371573659
 20
2.5302846524
 40
0.061747717
100
AcDbArc
 50
59.5385584989
 51
90.0050977555
  0
LINE
  5
227
100
AcDbEntity
  8
0
100
AcDbLine
 62
2
  6
CONTINUOUS
 10
12.3715681652
 20
2.5920323691
 11
12.2055050731
 21
2.5920323691
  0
ARC
  5
228
100
AcDbEntity
  8
0
100
AcDbCircle
 62
2
  6
CONTINUOUS
 10
12.2055050712
 20
2.5895573696
 40
0.0024749995
100
AcDbArc
 50
89.9999571957
 51
180.0000428043
  0
LINE
  5
229
100
AcDbEntity
  8
0
100
AcDbLine
 62
2
  6
CONTINUOUS
 10
12.2030300717
 20
2.5895573678
 11
12.2030300717
 21
2.5697573568
  0
ARC
  5
22A
100
AcDbEntity
  8
0
100
AcDbCircle
 62
2
  6
CONTINUOUS
 10
12.2055050712
 20
2.5697573549
 40
0.0024749995
100
AcDbArc
 50
179.9999571957
 51
270.0000428043
  0
LINE
  5
22B
100
AcDbEntity
  8
0
100
AcDbLine
 62
2
  6
CONTINUOUS
 10
12.2055050731
 20
2.5672823554
 11
12.2294470864
 21
2.5672823554
  0
ARC
  5
22C
100
AcDbEntity
  8
0
100
AcDbCircle
 62
2
  6
CONTINUOUS
 10
12.2294470882
 20
2.5648073559
 40
0.0024749995
100
AcDbArc
 50
359.9999571957
 51
90.0000428043
  0
LINE
  5
22D
100
AcDbEntity
  8
0
100
AcDbLine
 62
2
  6
CONTINUOUS
 10
12.2319220877
 20
2.564807354
 11
12.2319220877
 21
2.5184523283
  0
ARC
  5
22E
100
AcDbEntity
  8
0
100
AcDbCircle
 62
2
  6
CONTINUOUS
 10
12.2294470882
 20
2.5184523265
 40
0.0024749995
100
AcDbArc
 50
269.9999571957
 51
0.0000428043
  0
LINE
  5
22F
100
AcDbEntity
  8
0
100
AcDbLine
 62
2
  6
CONTINUOUS
 10
12.2294470864
 20
2.515977327
 11
12.2055050731
 21
2.515977327
  0
ARC
  5
230
100
AcDbEntity
  8
0
100
AcDbCircle
 62
2
  6
CONTINUOUS
 10
12.2055050712
 20
2.5135023274
 40
0.0024749995
100
AcDbArc
 50
89.9999571957
 51
180.0000428043
  0
LINE
  5
231
100
AcDbEntity
  8
0
100
AcDbLine
 62
2
  6
CONTINUOUS
 10
12.2030300717
 20
2.5135023256
 11
12.2030300717
 21
2.4937023146
  0
ARC
  5
232
100
AcDbEntity
  8
0
100
AcDbCircle
 62
2
  6
CONTINUOUS
 10
12.2055050712
 20
2.4937023128
 40
0.0024749995
100
AcDbArc
 50
179.9999571957
 51
270.0000428043
  0
LINE
  5
233
100
AcDbEntity
  8
0
100
AcDbLine
 62
2
  6
CONTINUOUS
 10
12.2055050731
 20
2.4912273132
 11
12.3819511709
 21
2.4912273132
  0
ARC
  5
234
100
AcDbEntity
  8
0
100
AcDbCircle
 62
2
  6
CONTINUOUS
 10
12.3792298263
 20
2.539634765
 40
0.048483885
100
AcDbArc
 50
273.21763719
 51
303.0749121182
  0
ARC
  5
235
100
AcDbEntity
  8
0
100
AcDbCircle
 62
2
  6
CONTINUOUS
 10
12.3940692204
 20
2.5168671561
 40
0.0213072145
100
AcDbArc
 50
303.0488228549
 51
355.7263138674
  0
LINE
  5
236
100
AcDbEntity
  8
0
100
AcDbLine
 62
2
  6
CONTINUOUS
 10
12.2949101227
 20
2.5499573458
 11
12.3362731456
 21
2.5499573458
  0
ARC
  5
237
100
AcDbEntity
  8
0
100
AcDbCircle
 62
2
  6
CONTINUOUS
 10
12.3362731456
 20
2.5586198506
 40
0.0086625048
100
AcDbArc
 50
270.0
 51
90.0
  0
LINE
  5
238
100
AcDbEntity
  8
0
100
AcDbLine
 62
2
  6
CONTINUOUS
 10
12.3362731456
 20
2.5672823554
 11
12.2949101227
 21
2.5672823554
  0
ARC
  5
239
100
AcDbEntity
  8
0
100
AcDbCircle
 62
2
  6
CONTINUOUS
 10
12.2949101208
 20
2.5648073559
 40
0.0024749995
100
AcDbArc
 50
89.9999571957
 51
180.0000428043
  0
LINE
  5
23A
100
AcDbEntity
  8
0
100
AcDbLine
 62
2
  6
CONTINUOUS
 10
12.2924351213
 20
2.564807354
 11
12.2924351213
 21
2.5524323472
  0
ARC
  5
23B
100
AcDbEntity
  8
0
100
AcDbCircle
 62
2
  6
CONTINUOUS
 10
12.2949101208
 20
2.5524323453
 40
0.0024749995
100
AcDbArc
 50
179.9999571957
 51
270.0000428043
  0
LINE
  5
23C
100
AcDbEntity
  8
0
100
AcDbLine
 62
2
  6
CONTINUOUS
 10
12.2924351213
 20
2.5184523283
 11
12.2924351213
 21
2.5308273352
  0
ARC
  5
23D
100
AcDbEntity
  8
0
100
AcDbCircle
 62
2
  6
CONTINUOUS
 10
12.2949101208
 20
2.530827337
 40
0.0024749995
100
AcDbArc
 50
89.9999571957
 51
180.0000428043
  0
LINE
  5
23E
100
AcDbEntity
  8
0
100
AcDbLine
 62
2
  6
CONTINUOUS
 10
12.2949101227
 20
2.5333023366
 11
12.3362731456
 21
2.5333023366
  0
ARC
  5
23F
100
AcDbEntity
  8
0
100
AcDbCircle
 62
2
  6
CONTINUOUS
 10
12.3362731456
 20
2.5246398318
 40
0.0086625048
100
AcDbArc
 50
270.0
 51
90.0
  0
LINE
  5
240
100
AcDbEntity
  8
0
100
AcDbLine
 62
2
  6
CONTINUOUS
 10
12.3362731456
 20
2.515977327
 11
12.2949101227
 21
2.515977327
  0
ARC
  5
241
100
AcDbEntity
  8
0
100
AcDbCircle
 62
2
  6
CONTINUOUS
 10
12.2949101208
 20
2.5184523265
 40
0.0024749995
100
AcDbArc
 50
179.9999571957
 51
270.0000428043
  0
ARC
  5
242
100
AcDbEntity
  8
0
100
AcDbCircle
 62
2
  6
CONTINUOUS
 10
13.5806801742
 20
2.5212486481
 40
0.044722495
100
AcDbArc
 50
195.531588407
 51
204.7624440448
  0
LINE
  5
243
100
AcDbEntity
  8
0
100
AcDbLine
 62
2
  6
CONTINUOUS
 10
13.5375908118
 20
2.5092733232
 11
13.5357868108
 21
2.5153423266
  0
ARC
  5
244
100
AcDbEntity
  8
0
100
AcDbCircle
 62
2
  6
CONTINUOUS
 10
13.4974076135
 20
2.5055452462
 40
0.0396099176
100
AcDbArc
 50
14.3201081283
 51
22.4984722084
  0
ARC
  5
245
100
AcDbEntity
  8
0
100
AcDbCircle
 62
2
  6
CONTINUOUS
 10
13.5201739219
 20
2.5145168728
 40
0.0151491919
100
AcDbArc
 50
24.098260853
 51
63.0369451818
  0
ARC
  5
246
100
AcDbEntity
  8
0
100
AcDbCircle
 62
2
  6
CONTINUOUS
 10
13.5161192671
 20
2.5062372524
 40
0.0243676582
100
AcDbArc
 50
63.3666028271
 51
90.3937697637
  0
LINE
  5
247
100
AcDbEntity
  8
0
100
AcDbLine
 62
2
  6
CONTINUOUS
 10
13.5159517998
 20
2.5306043351
 11
13.4883447845
 21
2.5306043351
  0
ARC
  5
248
100
AcDbEntity
  8
0
100
AcDbCircle
 62
2
  6
CONTINUOUS
 10
13.4883447827
 20
2.5281293355
 40
0.0024749995
100
AcDbArc
 50
89.9999571957
 51
180.0000428043
  0
LINE
  5
249
100
AcDbEntity
  8
0
100
AcDbLine
 62
2
  6
CONTINUOUS
 10
13.4858697831
 20
2.5281293337
 11
13.4858697831
 21
2.5184303283
  0
ARC
  5
24A
100
AcDbEntity
  8
0
100
AcDbCircle
 62
2
  6
CONTINUOUS
 10
13.4883447827
 20
2.5184303265
 40
0.0024749995
100
AcDbArc
 50
179.9999571957
 51
270.0000428043
  0
LINE
  5
24B
100
AcDbEntity
  8
0
100
AcDbLine
 62
2
  6
CONTINUOUS
 10
13.4883447845
 20
2.5159553269
 11
13.5130037982
 21
2.5159553269
  0
ARC
  5
24C
100
AcDbEntity
  8
0
100
AcDbCircle
 62
2
  6
CONTINUOUS
 10
13.5130038
 20
2.5134803274
 40
0.0024749995
100
AcDbArc
 50
359.9999571957
 51
90.0000428043
  0
LINE
  5
24D
100
AcDbEntity
  8
0
100
AcDbLine
 62
2
  6
CONTINUOUS
 10
13.5154787995
 20
2.5134803256
 11
13.5154787995
 21
2.4937023146
  0
ARC
  5
24E
100
AcDbEntity
  8
0
100
AcDbCircle
 62
2
  6
CONTINUOUS
 10
13.5130038
 20
2.4937023128
 40
0.0024749995
100
AcDbArc
 50
269.9999571957
 51
0.0000428043
  0
LINE
  5
24F
100
AcDbEntity
  8
0
100
AcDbLine
 62
2
  6
CONTINUOUS
 10
13.5130037982
 20
2.4912273132
 11
13.3994327352
 21
2.4912273132
  0
ARC
  5
250
100
AcDbEntity
  8
0
100
AcDbCircle
 62
2
  6
CONTINUOUS
 10
13.3994327333
 20
2.4937023128
 40
0.0024749995
100
AcDbArc
 50
179.9999571957
 51
270.0000428043
  0
LINE
  5
251
100
AcDbEntity
  8
0
100
AcDbLine
 62
2
  6
CONTINUOUS
 10
13.3969577338
 20
2.4937023146
 11
13.3969577338
 21
2.5135023256
  0
ARC
  5
252
100
AcDbEntity
  8
0
100
AcDbCircle
 62
2
  6
CONTINUOUS
 10
13.3994327333
 20
2.5135023274
 40
0.0024749995
100
AcDbArc
 50
89.9999571957
 51
180.0000428043
  0
LINE
  5
253
100
AcDbEntity
  8
0
100
AcDbLine
 62
2
  6
CONTINUOUS
 10
13.3994327352
 20
2.515977327
 11
13.4221787478
 21
2.515977327
  0
ARC
  5
254
100
AcDbEntity
  8
0
100
AcDbCircle
 62
2
  6
CONTINUOUS
 10
13.4221787497
 20
2.5184523265
 40
0.0024749995
100
AcDbArc
 50
269.9999571957
 51
0.0000428042
  0
LINE
  5
255
100
AcDbEntity
  8
0
100
AcDbLine
 62
2
  6
CONTINUOUS
 10
13.4246537492
 20
2.5184523283
 11
13.4246537492
 21
2.564807354
  0
ARC
  5
256
100
AcDbEntity
  8
0
100
AcDbCircle
 62
2
  6
CONTINUOUS
 10
13.4221787497
 20
2.5648073559
 40
0.0024749995
100
AcDbArc
 50
359.9999571957
 51
90.0000428043
  0
LINE
  5
257
100
AcDbEntity
  8
0
100
AcDbLine
 62
2
  6
CONTINUOUS
 10
13.4221787478
 20
2.5672823554
 11
13.3994327352
 21
2.5672823554
  0
ARC
  5
258
100
AcDbEntity
  8
0
100
AcDbCircle
 62
2
  6
CONTINUOUS
 10
13.3994327333
 20
2.5697573549
 40
0.0024749995
100
AcDbArc
 50
179.9999571957
 51
270.0000428043
  0
LINE
  5
259
100
AcDbEntity
  8
0
100
AcDbLine
 62
2
  6
CONTINUOUS
 10
13.3969577338
 20
2.5697573568
 11
13.3969577338
 21
2.5895573678
  0
ARC
  5
25A
100
AcDbEntity
  8
0
100
AcDbCircle
 62
2
  6
CONTINUOUS
 10
13.3994327333
 20
2.5895573696
 40
0.0024749995
100
AcDbArc
 50
89.9999571957
 51
180.0000428043
  0
LINE
  5
25B
100
AcDbEntity
  8
0
100
AcDbLine
 62
2
  6
CONTINUOUS
 10
13.3994327352
 20
2.5920323691
 11
13.5490138181
 21
2.5920323691
  0
ARC
  5
25C
100
AcDbEntity
  8
0
100
AcDbCircle
 62
2
  6
CONTINUOUS
 10
13.5463505148
 20
2.4094934586
 40
0.1825583387
100
AcDbArc
 50
79.8618509324
 51
89.1640948679
  0
ARC
  5
25D
100
AcDbEntity
  8
0
100
AcDbCircle
 62
2
  6
CONTINUOUS
 10
13.5726548052
 20
2.5503169747
 40
0.039319019
100
AcDbArc
 50
59.1202086415
 51
81.4730239328
  0
ARC
  5
25E
100
AcDbEntity
  8
0
100
AcDbCircle
 62
2
  6
CONTINUOUS
 10
13.5783142014
 20
2.5566516438
 40
0.0310192946
100
AcDbArc
 50
34.7540871
 51
62.0879016178
  0
ARC
  5
25F
100
AcDbEntity
  8
0
100
AcDbCircle
 62
2
  6
CONTINUOUS
 10
13.5900029525
 20
2.565201245
 40
0.0165459396
100
AcDbArc
 50
1.548452892
 51
33.5033152417
  0
ARC
  5
260
100
AcDbEntity
  8
0
100
AcDbCircle
 62
2
  6
CONTINUOUS
 10
13.5932995477
 20
2.5653696972
 40
0.0132462337
100
AcDbArc
 50
331.1510006998
 51
1.205404301
  0
ARC
  5
261
100
AcDbEntity
  8
0
100
AcDbCircle
 62
2
  6
CONTINUOUS
 10
13.5822888914
 20
2.5720482849
 40
0.0261183659
100
AcDbArc
 50
305.6373831893
 51
329.9727629745
  0
ARC
  5
262
100
AcDbEntity
  8
0
100
AcDbCircle
 62
2
  6
CONTINUOUS
 10
13.5519569538
 20
2.6152551345
 40
0.0789082104
100
AcDbArc
 50
292.906155071
 51
305.2574666259
  0
ARC
  5
263
100
AcDbEntity
  8
0
100
AcDbCircle
 62
2
  6
CONTINUOUS
 10
13.5282557878
 20
2.4386010294
 40
0.117346916
100
AcDbArc
 50
58.614769177
 51
62.3737227606
  0
ARC
  5
264
100
AcDbEntity
  8
0
100
AcDbCircle
 62
2
  6
CONTINUOUS
 10
13.5761387404
 20
2.5167282896
 40
0.0257145923
100
AcDbArc
 50
39.3804255939
 51
59.0361096173
  0
ARC
  5
265
100
AcDbEntity
  8
0
100
AcDbCircle
 62
2
  6
CONTINUOUS
 10
13.5750183849
 20
2.5166552064
 40
0.0266349791
100
AcDbArc
 50
20.3630922153
 51
37.9727053099
  0
ARC
  5
266
100
AcDbEntity
  8
0
100
AcDbCircle
 62
2
  6
CONTINUOUS
 10
13.5571178432
 20
2.509473798
 40
0.0459185159
100
AcDbArc
 50
15.6740290068
 51
20.9917271228
  0
ARC
  5
267
100
AcDbEntity
  8
0
100
AcDbCircle
 62
2
  6
CONTINUOUS
 10
13.6156881783
 20
2.525116781
 40
0.0147197649
100
AcDbArc
 50
192.7054516565
 51
206.0594861022
  0
ARC
  5
268
100
AcDbEntity
  8
0
100
AcDbCircle
 62
2
  6
CONTINUOUS
 10
13.6071938412
 20
2.5209082945
 40
0.0052403997
100
AcDbArc
 50
205.5232099488
 51
227.5054868079
  0
ARC
  5
269
100
AcDbEntity
  8
0
100
AcDbCircle
 62
2
  6
CONTINUOUS
 10
13.6054655419
 20
2.5190929218
 40
0.0027347709
100
AcDbArc
 50
228.5117626737
 51
266.1485845754
  0
LINE
  5
26A
100
AcDbEntity
  8
0
100
AcDbLine
 62
2
  6
CONTINUOUS
 10
13.6052818493
 20
2.5163643272
 11
13.60639085
 21
2.5163643272
  0
ARC
  5
26B
100
AcDbEntity
  8
0
100
AcDbCircle
 62
2
  6
CONTINUOUS
 10
13.6063292954
 20
2.5296129864
 40
0.0132488022
100
AcDbArc
 50
270.266200055
 51
281.2404888597
  0
ARC
  5
26C
100
AcDbEntity
  8
0
100
AcDbCircle
 62
2
  6
CONTINUOUS
 10
13.6075235364
 20
2.5238762928
 40
0.0073895522
100
AcDbArc
 50
280.8288201977
 51
305.0837508495
  0
ARC
  5
26D
100
AcDbEntity
  8
0
100
AcDbCircle
 62
2
  6
CONTINUOUS
 10
13.607924718
 20
2.5230254464
 40
0.0064647042
100
AcDbArc
 50
306.5086174083
 51
340.2162360092
  0
ARC
  5
26E
100
AcDbEntity
  8
0
100
AcDbCircle
 62
2
  6
CONTINUOUS
 10
13.6027235414
 20
2.524769508
 40
0.0119498009
100
AcDbArc
 50
340.7883861657
 51
1.1691452593
  0
LINE
  5
26F
100
AcDbEntity
  8
0
100
AcDbLine
 62
2
  6
CONTINUOUS
 10
13.6146708546
 20
2.525013332
 11
13.6146708546
 21
2.5276393334
  0
ARC
  5
270
100
AcDbEntity
  8
0
100
AcDbCircle
 62
2
  6
CONTINUOUS
 10
13.6171458541
 20
2.5276393353
 40
0.0024749995
100
AcDbArc
 50
89.9999571957
 51
180.0000428043
  0
LINE
  5
271
100
AcDbEntity
  8
0
100
AcDbLine
 62
2
  6
CONTINUOUS
 10
13.6171458559
 20
2.5301143348
 11
13.6292558626
 21
2.5301143348
  0
ARC
  5
272
100
AcDbEntity
  8
0
100
AcDbCircle
 62
2
  6
CONTINUOUS
 10
13.6292558645
 20
2.5276393353
 40
0.0024749995
100
AcDbArc
 50
359.9999571957
 51
90.0000428043
  0
LINE
  5
273
100
AcDbEntity
  8
0
100
AcDbLine
 62
2
  6
CONTINUOUS
 10
13.631730864
 20
2.5276393334
 11
13.631730864
 21
2.516087327
  0
ARC
  5
274
100
AcDbEntity
  8
0
100
AcDbCircle
 62
2
  6
CONTINUOUS
 10
13.6141751675
 20
2.5161916447
 40
0.0175560065
100
AcDbArc
 50
332.2279060967
 51
359.6595469939
  0
ARC
  5
275
100
AcDbEntity
  8
0
100
AcDbCircle
 62
2
  6
CONTINUOUS
 10
13.6048681567
 20
2.5210861501
 40
0.0280715479
100
AcDbArc
 50
308.5071794988
 51
332.2400656899
  0
ARC
  5
276
100
AcDbEntity
  8
0
100
AcDbCircle
 62
2
  6
CONTINUOUS
 10
13.5978759713
 20
2.5286873679
 40
0.0383802683
100
AcDbArc
 50
288.7656836787
 51
309.6104317088
  0
ARC
  5
277
100
AcDbEntity
  8
0
100
AcDbCircle
 62
2
  6
CONTINUOUS
 10
13.6036139387
 20
2.5111006186
 40
0.0198837666
100
AcDbArc
 50
271.8586572978
 51
289.4131338543
  0
LINE
  5
278
100
AcDbEntity
  8
0
100
AcDbLine
 62
2
  6
CONTINUOUS
 10
13.6042588488
 20
2.4912273132
 11
13.5568948225
 21
2.4912273132
  0
ARC
  5
279
100
AcDbEntity
  8
0
100
AcDbCircle
 62
2
  6
CONTINUOUS
 10
13.5577001432
 20
2.5085494649
 40
0.0173408616
100
AcDbArc
 50
232.4713476722
 51
267.338189944
  0
ARC
  5
27A
100
AcDbEntity
  8
0
100
AcDbCircle
 62
2
  6
CONTINUOUS
 10
13.5607987082
 20
2.5143997688
 40
0.0238935861
100
AcDbArc
 50
209.8247607259
 51
235.1255079367
  0
ARC
  5
27B
100
AcDbEntity
  8
0
100
AcDbCircle
 62
2
  6
CONTINUOUS
 10
13.5295131508
 20
2.5629115009
 40
0.0110815393
100
AcDbArc
 50
306.758405961
 51
320.4502234234
  0
ARC
  5
27C
100
AcDbEntity
  8
0
100
AcDbCircle
 62
2
  6
CONTINUOUS
 10
13.5238839599
 20
2.5706523294
 40
0.0206523367
100
AcDbArc
 50
289.6883413472
 51
306.4184925496
  0
ARC
  5
27D
100
AcDbEntity
  8
0
100
AcDbCircle
 62
2
  6
CONTINUOUS
 10
13.5219564542
 20
2.5750459767
 40
0.0254407115
100
AcDbArc
 50
270.7327484175
 51
290.441894219
  0
LINE
  5
27E
100
AcDbEntity
  8
0
100
AcDbLine
 62
2
  6
CONTINUOUS
 10
13.5222818033
 20
2.5496073456
 11
13.4883447845
 21
2.5496073456
  0
ARC
  5
27F
100
AcDbEntity
  8
0
100
AcDbCircle
 62
2
  6
CONTINUOUS
 10
13.4883447827
 20
2.5520823451
 40
0.0024749995
100
AcDbArc
 50
179.9999571957
 51
270.0000428043
  0
LINE
  5
280
100
AcDbEntity
  8
0
100
AcDbLine
 62
2
  6
CONTINUOUS
 10
13.4858697831
 20
2.552082347
 11
13.4858697831
 21
2.564807354
  0
ARC
  5
281
100
AcDbEntity
  8
0
100
AcDbCircle
 62
2
  6
CONTINUOUS
 10
13.4883447827
 20
2.5648073559
 40
0.0024749995
100
AcDbArc
 50
89.9999571957
 51
180.0000428043
  0
LINE
  5
282
100
AcDbEntity
  8
0
100
AcDbLine
 62
2
  6
CONTINUOUS
 10
13.4883447845
 20
2.5672823554
 11
13.5251458049
 21
2.5672823554
  0
ARC
  5
283
100
AcDbEntity
  8
0
100
AcDbCircle
 62
2
  6
CONTINUOUS
 10
13.5236009174
 20
2.5388278764
 40
0.0284963867
100
AcDbArc
 50
70.3834917948
 51
86.8922743861
  0
ARC
  5
284
100
AcDbEntity
  8
0
100
AcDbCircle
 62
2
  6
CONTINUOUS
 10
13.5284605274
 20
2.5518696094
 40
0.0145814632
100
AcDbArc
 50
54.6746025112
 51
71.1660573124
  0
ARC
  5
285
100
AcDbEntity
  8
0
100
AcDbCircle
 62
2
  6
CONTINUOUS
 10
13.5335900184
 20
2.5587235346
 40
0.0060275915
100
AcDbArc
 50
20.9055592135
 51
56.7851676243
  0
ARC
  5
286
100
AcDbEntity
  8
0
100
AcDbCircle
 62
2
  6
CONTINUOUS
 10
13.5348905773
 20
2.5593838168
 40
0.0045795888
100
AcDbArc
 50
355.6235353944
 51
18.9942678268
  0
ARC
  5
287
100
AcDbEntity
  8
0
100
AcDbCircle
 62
2
  6
CONTINUOUS
 10
13.533683767
 20
2.559677593
 40
0.0058087709
100
AcDbArc
 50
318.8515287446
 51
353.6422345323
  0
LINE
  5
288
100
AcDbEntity
  8
0
100
AcDbLine
 62
2
  6
CONTINUOUS
 10
12.672340332
 20
2.5920323691
 11
12.7727983877
 21
2.5920323691
  0
ARC
  5
289
100
AcDbEntity
  8
0
100
AcDbCircle
 62
2
  6
CONTINUOUS
 10
12.7727985224
 20
2.5895582013
 40
0.0024741678
100
AcDbArc
 50
46.3477981899
 51
90.0031206038
  0
LINE
  5
28A
100
AcDbEntity
  8
0
100
AcDbLine
 62
2
  6
CONTINUOUS
 10
12.7745063886
 20
2.5913483688
 11
12.8345394219
 21
2.534068337
  0
ARC
  5
28B
100
AcDbEntity
  8
0
100
AcDbCircle
 62
2
  6
CONTINUOUS
 10
12.8362481229
 20
2.5358592748
 40
0.0024753014
100
AcDbArc
 50
226.3461263059
 51
0.0014637321
  0
LINE
  5
28C
100
AcDbEntity
  8
0
100
AcDbLine
 62
2
  6
CONTINUOUS
 10
12.8387234242
 20
2.535859338
 11
12.8387234242
 21
2.564807354
  0
ARC
  5
28D
100
AcDbEntity
  8
0
100
AcDbCircle
 62
2
  6
CONTINUOUS
 10
12.8362484247
 20
2.5648073559
 40
0.0024749995
100
AcDbArc
 50
359.9999571957
 51
90.0000428043
  0
LINE
  5
28E
100
AcDbEntity
  8
0
100
AcDbLine
 62
2
  6
CONTINUOUS
 10
12.8362484229
 20
2.5672823554
 11
12.8174724125
 21
2.5672823554
  0
ARC
  5
28F
100
AcDbEntity
  8
0
100
AcDbCircle
 62
2
  6
CONTINUOUS
 10
12.8174724106
 20
2.5697573549
 40
0.0024749995
100
AcDbArc
 50
179.9999571957
 51
270.0000428043
  0
LINE
  5
290
100
AcDbEntity
  8
0
100
AcDbLine
 62
2
  6
CONTINUOUS
 10
12.8149974111
 20
2.5697573568
 11
12.8149974111
 21
2.5895573678
  0
ARC
  5
291
100
AcDbEntity
  8
0
100
AcDbCircle
 62
2
  6
CONTINUOUS
 10
12.8174724106
 20
2.5895573696
 40
0.0024749995
100
AcDbArc
 50
89.9999571957
 51
180.0000428043
  0
LINE
  5
292
100
AcDbEntity
  8
0
100
AcDbLine
 62
2
  6
CONTINUOUS
 10
12.8174724125
 20
2.5920323691
 11
12.8914734535
 21
2.5920323691
  0
ARC
  5
293
100
AcDbEntity
  8
0
100
AcDbCircle
 62
2
  6
CONTINUOUS
 10
12.8914734553
 20
2.5895573696
 40
0.0024749995
100
AcDbArc
 50
359.9999571957
 51
90.0000428043
  0
LINE
  5
294
100
AcDbEntity
  8
0
100
AcDbLine
 62
2
  6
CONTINUOUS
 10
12.8939484549
 20
2.5895573678
 11
12.8939484549
 21
2.5697573568
  0
ARC
  5
295
100
AcDbEntity
  8
0
100
AcDbCircle
 62
2
  6
CONTINUOUS
 10
12.8914734553
 20
2.5697573549
 40
0.0024749995
100
AcDbArc
 50
269.9999571957
 51
0.0000428043
  0
LINE
  5
296
100
AcDbEntity
  8
0
100
AcDbLine
 62
2
  6
CONTINUOUS
 10
12.8914734535
 20
2.5672823554
 11
12.8735404436
 21
2.5672823554
  0
ARC
  5
297
100
AcDbEntity
  8
0
100
AcDbCircle
 62
2
  6
CONTINUOUS
 10
12.8735404417
 20
2.5648073559
 40
0.0024749995
100
AcDbArc
 50
89.9999571957
 51
180.0000428043
  0
LINE
  5
298
100
AcDbEntity
  8
0
100
AcDbLine
 62
2
  6
CONTINUOUS
 10
12.8710654422
 20
2.564807354
 11
12.8710654422
 21
2.4937023146
  0
ARC
  5
299
100
AcDbEntity
  8
0
100
AcDbCircle
 62
2
  6
CONTINUOUS
 10
12.8685904427
 20
2.4937023128
 40
0.0024749995
100
AcDbArc
 50
269.9999571957
 51
0.0000428043
  0
LINE
  5
29A
100
AcDbEntity
  8
0
100
AcDbLine
 62
2
  6
CONTINUOUS
 10
12.8685904408
 20
2.4912273132
 11
12.7943853997
 21
2.4912273132
  0
ARC
  5
29B
100
AcDbEntity
  8
0
100
AcDbCircle
 62
2
  6
CONTINUOUS
 10
12.7943847649
 20
2.4937027294
 40
0.0024754162
100
AcDbArc
 50
226.3593695813
 51
270.0146919953
  0
LINE
  5
29C
100
AcDbEntity
  8
0
100
AcDbLine
 62
2
  6
CONTINUOUS
 10
12.7926763987
 20
2.4919113136
 11
12.7293963636
 21
2.5522893471
  0
ARC
  5
29D
100
AcDbEntity
  8
0
100
AcDbCircle
 62
2
  6
CONTINUOUS
 10
12.7276876627
 20
2.5504984093
 40
0.0024753014
100
AcDbArc
 50
46.3461263059
 51
180.0014637321
  0
LINE
  5
29E
100
AcDbEntity
  8
0
100
AcDbLine
 62
2
  6
CONTINUOUS
 10
12.7252123613
 20
2.5504983461
 11
12.7252123613
 21
2.5184523283
  0
ARC
  5
29F
100
AcDbEntity
  8
0
100
AcDbCircle
 62
2
  6
CONTINUOUS
 10
12.7276873608
 20
2.5184523265
 40
0.0024749995
100
AcDbArc
 50
179.9999571957
 51
270.0000428043
  0
LINE
  5
2A0
100
AcDbEntity
  8
0
100
AcDbLine
 62
2
  6
CONTINUOUS
 10
12.7276873627
 20
2.515977327
 11
12.7480043739
 21
2.515977327
  0
ARC
  5
2A1
100
AcDbEntity
  8
0
100
AcDbCircle
 62
2
  6
CONTINUOUS
 10
12.7480043758
 20
2.5135023274
 40
0.0024749995
100
AcDbArc
 50
359.9999571957
 51
90.0000428043
  0
LINE
  5
2A2
100
AcDbEntity
  8
0
100
AcDbLine
 62
2
  6
CONTINUOUS
 10
12.7504793753
 20
2.5135023256
 11
12.7504793753
 21
2.4937023146
  0
ARC
  5
2A3
100
AcDbEntity
  8
0
100
AcDbCircle
 62
2
  6
CONTINUOUS
 10
12.7480043758
 20
2.4937023128
 40
0.0024749995
100
AcDbArc
 50
269.9999571957
 51
0.0000428043
  0
LINE
  5
2A4
100
AcDbEntity
  8
0
100
AcDbLine
 62
2
  6
CONTINUOUS
 10
12.7480043739
 20
2.4912273132
 11
12.672340332
 21
2.4912273132
  0
ARC
  5
2A5
100
AcDbEntity
  8
0
100
AcDbCircle
 62
2
  6
CONTINUOUS
 10
12.6723403301
 20
2.4937023128
 40
0.0024749995
100
AcDbArc
 50
179.9999571957
 51
270.0000428043
  0
LINE
  5
2A6
100
AcDbEntity
  8
0
100
AcDbLine
 62
2
  6
CONTINUOUS
 10
12.6698653306
 20
2.4937023146
 11
12.6698653306
 21
2.5135023256
  0
ARC
  5
2A7
100
AcDbEntity
  8
0
100
AcDbCircle
 62
2
  6
CONTINUOUS
 10
12.6723403301
 20
2.5135023274
 40
0.0024749995
100
AcDbArc
 50
89.9999571957
 51
180.0000428043
  0
LINE
  5
2A8
100
AcDbEntity
  8
0
100
AcDbLine
 62
2
  6
CONTINUOUS
 10
12.672340332
 20
2.515977327
 11
12.6909873423
 21
2.515977327
  0
ARC
  5
2A9
100
AcDbEntity
  8
0
100
AcDbCircle
 62
2
  6
CONTINUOUS
 10
12.6909873442
 20
2.5184523265
 40
0.0024749995
100
AcDbArc
 50
269.9999571957
 51
0.0000428043
  0
LINE
  5
2AA
100
AcDbEntity
  8
0
100
AcDbLine
 62
2
  6
CONTINUOUS
 10
12.6934623437
 20
2.5184523283
 11
12.6934623437
 21
2.564807354
  0
ARC
  5
2AB
100
AcDbEntity
  8
0
100
AcDbCircle
 62
2
  6
CONTINUOUS
 10
12.6909873442
 20
2.5648073559
 40
0.0024749995
100
AcDbArc
 50
359.9999571957
 51
90.0000428043
  0
LINE
  5
2AC
100
AcDbEntity
  8
0
100
AcDbLine
 62
2
  6
CONTINUOUS
 10
12.6909873423
 20
2.5672823554
 11
12.672340332
 21
2.5672823554
  0
ARC
  5
2AD
100
AcDbEntity
  8
0
100
AcDbCircle
 62
2
  6
CONTINUOUS
 10
12.6723403301
 20
2.5697573549
 40
0.0024749995
100
AcDbArc
 50
179.9999571957
 51
270.0000428043
  0
LINE
  5
2AE
100
AcDbEntity
  8
0
100
AcDbLine
 62
2
  6
CONTINUOUS
 10
12.6698653306
 20
2.5697573568
 11
12.6698653306
 21
2.5895573678
  0
ARC
  5
2AF
100
AcDbEntity
  8
0
100
AcDbCircle
 62
2
  6
CONTINUOUS
 10
12.6723403301
 20
2.5895573696
 40
0.0024749995
100
AcDbArc
 50
89.9999571957
 51
180.0000428043
  0
LINE
  5
2B0
100
AcDbEntity
  8
0
100
AcDbLine
 62
2
  6
CONTINUOUS
 10
12.5246402501
 20
2.5655893545
 11
12.5175232461
 21
2.5543723483
  0
ARC
  5
2B1
100
AcDbEntity
  8
0
100
AcDbCircle
 62
2
  6
CONTINUOUS
 10
12.519613138
 20
2.5530463862
 40
0.0024750401
100
AcDbArc
 50
147.6063258012
 51
270.0025305754
  0
LINE
  5
2B2
100
AcDbEntity
  8
0
100
AcDbLine
 62
2
  6
CONTINUOUS
 10
12.5196132473
 20
2.5505713461
 11
12.5401702587
 21
2.5505713461
  0
ARC
  5
2B3
100
AcDbEntity
  8
0
100
AcDbCircle
 62
2
  6
CONTINUOUS
 10
12.5401702375
 20
2.5530465533
 40
0.0024752071
100
AcDbArc
 50
270.0004896793
 51
32.9089806818
  0
LINE
  5
2B4
100
AcDbEntity
  8
0
100
AcDbLine
 62
2
  6
CONTINUOUS
 10
12.5422482598
 20
2.5543913483
 11
12.5349892558
 21
2.5656073545
  0
ARC
  5
2B5
100
AcDbEntity
  8
0
100
AcDbCircle
 62
2
  6
CONTINUOUS
 10
12.532910715
 20
2.564262895
 40
0.0024754602
100
AcDbArc
 50
32.8959418573
 51
89.9875097202
  0
LINE
  5
2B6
100
AcDbEntity
  8
0
100
AcDbLine
 62
2
  6
CONTINUOUS
 10
12.5329112547
 20
2.5667383551
 11
12.5267302512
 21
2.5667383551
  0
ARC
  5
2B7
100
AcDbEntity
  8
0
100
AcDbCircle
 62
2
  6
CONTINUOUS
 10
12.5267301809
 20
2.5642631548
 40
0.0024752003
100
AcDbArc
 50
89.998372645
 51
147.602165307
  0
LINE
  5
2B8
100
AcDbEntity
  8
0
100
AcDbLine
 62
2
  6
CONTINUOUS
 10
12.548053263
 20
2.5284903339
 11
12.5536792662
 21
2.5197973291
  0
ARC
  5
2B9
100
AcDbEntity
  8
0
100
AcDbCircle
 62
2
  6
CONTINUOUS
 10
12.5516012439
 20
2.5184525341
 40
0.0024752071
100
AcDbArc
 50
270.0004896794
 51
32.9089806818
  0
LINE
  5
2BA
100
AcDbEntity
  8
0
100
AcDbLine
 62
2
  6
CONTINUOUS
 10
12.551601265
 20
2.515977327
 11
12.537150257
 21
2.515977327
  0
ARC
  5
2BB
100
AcDbEntity
  8
0
100
AcDbCircle
 62
2
  6
CONTINUOUS
 10
12.5371502552
 20
2.5135023274
 40
0.0024749995
100
AcDbArc
 50
89.9999571957
 51
180.0000428043
  0
LINE
  5
2BC
100
AcDbEntity
  8
0
100
AcDbLine
 62
2
  6
CONTINUOUS
 10
12.5346752556
 20
2.5135023256
 11
12.5346752556
 21
2.4937023146
  0
ARC
  5
2BD
100
AcDbEntity
  8
0
100
AcDbCircle
 62
2
  6
CONTINUOUS
 10
12.5371502552
 20
2.4937023128
 40
0.0024749995
100
AcDbArc
 50
179.9999571957
 51
270.0000428043
  0
LINE
  5
2BE
100
AcDbEntity
  8
0
100
AcDbLine
 62
2
  6
CONTINUOUS
 10
12.537150257
 20
2.4912273132
 11
12.6424313154
 21
2.4912273132
  0
ARC
  5
2BF
100
AcDbEntity
  8
0
100
AcDbCircle
 62
2
  6
CONTINUOUS
 10
12.6424313172
 20
2.4937023128
 40
0.0024749995
100
AcDbArc
 50
269.9999571957
 51
0.0000428043
  0
LINE
  5
2C0
100
AcDbEntity
  8
0
100
AcDbLine
 62
2
  6
CONTINUOUS
 10
12.6449063168
 20
2.4937023146
 11
12.6449063168
 21
2.5135023256
  0
ARC
  5
2C1
100
AcDbEntity
  8
0
100
AcDbCircle
 62
2
  6
CONTINUOUS
 10
12.6424313172
 20
2.5135023274
 40
0.0024749995
100
AcDbArc
 50
359.9999571957
 51
90.0000428043
  0
LINE
  5
2C2
100
AcDbEntity
  8
0
100
AcDbLine
 62
2
  6
CONTINUOUS
 10
12.6424313154
 20
2.515977327
 11
12.6224153043
 21
2.515977327
  0
ARC
  5
2C3
100
AcDbEntity
  8
0
100
AcDbCircle
 62
2
  6
CONTINUOUS
 10
12.6224154248
 20
2.518451368
 40
0.002474041
100
AcDbArc
 50
212.9056413127
 51
269.9972091756
  0
LINE
  5
2C4
100
AcDbEntity
  8
0
100
AcDbLine
 62
2
  6
CONTINUOUS
 10
12.6203383031
 20
2.5171073276
 11
12.5725822767
 21
2.5909023685
  0
ARC
  5
2C5
100
AcDbEntity
  8
0
100
AcDbCircle
 62
2
  6
CONTINUOUS
 10
12.570504655
 20
2.589557409
 40
0.0024749602
100
AcDbArc
 50
32.9172174468
 51
90.0087853097
  0
LINE
  5
2C6
100
AcDbEntity
  8
0
100
AcDbLine
 62
2
  6
CONTINUOUS
 10
12.5705042755
 20
2.5920323691
 11
12.5133292438
 21
2.5920323691
  0
ARC
  5
2C7
100
AcDbEntity
  8
0
100
AcDbCircle
 62
2
  6
CONTINUOUS
 10
12.5133291735
 20
2.5895571688
 40
0.0024752003
100
AcDbArc
 50
89.9983726451
 51
147.602165307
  0
LINE
  5
2C8
100
AcDbEntity
  8
0
100
AcDbLine
 62
2
  6
CONTINUOUS
 10
12.5112392426
 20
2.5908833685
 11
12.4644392167
 21
2.5171263276
  0
ARC
  5
2C9
100
AcDbEntity
  8
0
100
AcDbCircle
 62
2
  6
CONTINUOUS
 10
12.4623492858
 20
2.5184525273
 40
0.0024752003
100
AcDbArc
 50
269.9983726451
 51
327.602165307
  0
LINE
  5
2CA
100
AcDbEntity
  8
0
100
AcDbLine
 62
2
  6
CONTINUOUS
 10
12.4623492155
 20
2.515977327
 11
12.4394882028
 21
2.515977327
  0
ARC
  5
2CB
100
AcDbEntity
  8
0
100
AcDbCircle
 62
2
  6
CONTINUOUS
 10
12.439488201
 20
2.5135023274
 40
0.0024749995
100
AcDbArc
 50
89.9999571957
 51
180.0000428043
  0
LINE
  5
2CC
100
AcDbEntity
  8
0
100
AcDbLine
 62
2
  6
CONTINUOUS
 10
12.4370132015
 20
2.5135023256
 11
12.4370132015
 21
2.4937023146
  0
ARC
  5
2CD
100
AcDbEntity
  8
0
100
AcDbCircle
 62
2
  6
CONTINUOUS
 10
12.439488201
 20
2.4937023128
 40
0.0024749995
100
AcDbArc
 50
179.9999571957
 51
270.0000428043
  0
LINE
  5
2CE
100
AcDbEntity
  8
0
100
AcDbLine
 62
2
  6
CONTINUOUS
 10
12.4394882028
 20
2.4912273132
 11
12.5168642458
 21
2.4912273132
  0
ARC
  5
2CF
100
AcDbEntity
  8
0
100
AcDbCircle
 62
2
  6
CONTINUOUS
 10
12.5168642476
 20
2.4937023128
 40
0.0024749995
100
AcDbArc
 50
269.9999571957
 51
0.0000428043
  0
LINE
  5
2D0
100
AcDbEntity
  8
0
100
AcDbLine
 62
2
  6
CONTINUOUS
 10
12.5193392471
 20
2.4937023146
 11
12.5193392471
 21
2.5135023256
  0
ARC
  5
2D1
100
AcDbEntity
  8
0
100
AcDbCircle
 62
2
  6
CONTINUOUS
 10
12.5168642476
 20
2.5135023274
 40
0.0024749995
100
AcDbArc
 50
359.9999571957
 51
90.0000428043
  0
LINE
  5
2D2
100
AcDbEntity
  8
0
100
AcDbLine
 62
2
  6
CONTINUOUS
 10
12.5168642458
 20
2.515977327
 11
12.5055812395
 21
2.515977327
  0
ARC
  5
2D3
100
AcDbEntity
  8
0
100
AcDbCircle
 62
2
  6
CONTINUOUS
 10
12.5055811302
 20
2.518452367
 40
0.0024750401
100
AcDbArc
 50
147.6063258011
 51
270.0025305754
  0
LINE
  5
2D4
100
AcDbEntity
  8
0
100
AcDbLine
 62
2
  6
CONTINUOUS
 10
12.5034912383
 20
2.5197783291
 11
12.5090072414
 21
2.5284723339
  0
ARC
  5
2D5
100
AcDbEntity
  8
0
100
AcDbCircle
 62
2
  6
CONTINUOUS
 10
12.5110971723
 20
2.5271461342
 40
0.0024752003
100
AcDbArc
 50
89.998372645
 51
147.602165307
  0
LINE
  5
2D6
100
AcDbEntity
  8
0
100
AcDbLine
 62
2
  6
CONTINUOUS
 10
12.5110972426
 20
2.5296213345
 11
12.5459752619
 21
2.5296213345
  0
ARC
  5
2D7
100
AcDbEntity
  8
0
100
AcDbCircle
 62
2
  6
CONTINUOUS
 10
12.5459747223
 20
2.5271458744
 40
0.0024754602
100
AcDbArc
 50
32.8959418573
 51
89.9875097202
  0
LINE
  5
2D8
100
AcDbEntity
  8
0
100
AcDbLine
 62
2
  6
CONTINUOUS
 10
12.9205934696
 20
2.5920323691
 11
13.0210515254
 21
2.5920323691
  0
ARC
  5
2D9
100
AcDbEntity
  8
0
100
AcDbCircle
 62
2
  6
CONTINUOUS
 10
13.0210516601
 20
2.5895582013
 40
0.0024741678
100
AcDbArc
 50
46.3477981899
 51
90.0031206038
  0
LINE
  5
2DA
100
AcDbEntity
  8
0
100
AcDbLine
 62
2
  6
CONTINUOUS
 10
13.0227595263
 20
2.5913483688
 11
13.0827925596
 21
2.534068337
  0
ARC
  5
2DB
100
AcDbEntity
  8
0
100
AcDbCircle
 62
2
  6
CONTINUOUS
 10
13.0845012605
 20
2.5358592748
 40
0.0024753014
100
AcDbArc
 50
226.3461263059
 51
0.0014637321
  0
LINE
  5
2DC
100
AcDbEntity
  8
0
100
AcDbLine
 62
2
  6
CONTINUOUS
 10
13.0869765619
 20
2.535859338
 11
13.0869765619
 21
2.564807354
  0
ARC
  5
2DD
100
AcDbEntity
  8
0
100
AcDbCircle
 62
2
  6
CONTINUOUS
 10
13.0845015624
 20
2.5648073559
 40
0.0024749995
100
AcDbArc
 50
359.9999571957
 51
90.0000428043
  0
LINE
  5
2DE
100
AcDbEntity
  8
0
100
AcDbLine
 62
2
  6
CONTINUOUS
 10
13.0845015605
 20
2.5672823554
 11
13.0657255501
 21
2.5672823554
  0
ARC
  5
2DF
100
AcDbEntity
  8
0
100
AcDbCircle
 62
2
  6
CONTINUOUS
 10
13.0657255483
 20
2.5697573549
 40
0.0024749995
100
AcDbArc
 50
179.9999571957
 51
270.0000428043
  0
LINE
  5
2E0
100
AcDbEntity
  8
0
100
AcDbLine
 62
2
  6
CONTINUOUS
 10
13.0632505488
 20
2.5697573568
 11
13.0632505488
 21
2.5895573678
  0
ARC
  5
2E1
100
AcDbEntity
  8
0
100
AcDbCircle
 62
2
  6
CONTINUOUS
 10
13.0657255483
 20
2.5895573696
 40
0.0024749995
100
AcDbArc
 50
89.9999571957
 51
180.0000428043
  0
LINE
  5
2E2
100
AcDbEntity
  8
0
100
AcDbLine
 62
2
  6
CONTINUOUS
 10
13.0657255501
 20
2.5920323691
 11
13.1397265912
 21
2.5920323691
  0
ARC
  5
2E3
100
AcDbEntity
  8
0
100
AcDbCircle
 62
2
  6
CONTINUOUS
 10
13.139726593
 20
2.5895573696
 40
0.0024749995
100
AcDbArc
 50
359.9999571957
 51
90.0000428043
  0
LINE
  5
2E4
100
AcDbEntity
  8
0
100
AcDbLine
 62
2
  6
CONTINUOUS
 10
13.1422015925
 20
2.5895573678
 11
13.1422015925
 21
2.5697573568
  0
ARC
  5
2E5
100
AcDbEntity
  8
0
100
AcDbCircle
 62
2
  6
CONTINUOUS
 10
13.139726593
 20
2.5697573549
 40
0.0024749995
100
AcDbArc
 50
269.9999571957
 51
0.0000428042
  0
LINE
  5
2E6
100
AcDbEntity
  8
0
100
AcDbLine
 62
2
  6
CONTINUOUS
 10
13.1397265912
 20
2.5672823554
 11
13.1217935812
 21
2.5672823554
  0
ARC
  5
2E7
100
AcDbEntity
  8
0
100
AcDbCircle
 62
2
  6
CONTINUOUS
 10
13.1217935794
 20
2.5648073559
 40
0.0024749995
100
AcDbArc
 50
89.9999571957
 51
180.0000428042
  0
LINE
  5
2E8
100
AcDbEntity
  8
0
100
AcDbLine
 62
2
  6
CONTINUOUS
 10
13.1193185799
 20
2.564807354
 11
13.1193185799
 21
2.4937023146
  0
ARC
  5
2E9
100
AcDbEntity
  8
0
100
AcDbCircle
 62
2
  6
CONTINUOUS
 10
13.1168435803
 20
2.4937023128
 40
0.0024749995
100
AcDbArc
 50
269.9999571957
 51
0.0000428043
  0
LINE
  5
2EA
100
AcDbEntity
  8
0
100
AcDbLine
 62
2
  6
CONTINUOUS
 10
13.1168435785
 20
2.4912273132
 11
13.0426375373
 21
2.4912273132
  0
ARC
  5
2EB
100
AcDbEntity
  8
0
100
AcDbCircle
 62
2
  6
CONTINUOUS
 10
13.0426374026
 20
2.493701481
 40
0.0024741678
100
AcDbArc
 50
226.3477981898
 51
270.0031206038
  0
LINE
  5
2EC
100
AcDbEntity
  8
0
100
AcDbLine
 62
2
  6
CONTINUOUS
 10
13.0409295364
 20
2.4919113136
 11
12.9776495013
 21
2.5522893471
  0
ARC
  5
2ED
100
AcDbEntity
  8
0
100
AcDbCircle
 62
2
  6
CONTINUOUS
 10
12.9759408003
 20
2.5504984093
 40
0.0024753014
100
AcDbArc
 50
46.3461263059
 51
180.0014637321
  0
LINE
  5
2EE
100
AcDbEntity
  8
0
100
AcDbLine
 62
2
  6
CONTINUOUS
 10
12.973465499
 20
2.5504983461
 11
12.973465499
 21
2.5184523283
  0
ARC
  5
2EF
100
AcDbEntity
  8
0
100
AcDbCircle
 62
2
  6
CONTINUOUS
 10
12.9759404985
 20
2.5184523265
 40
0.0024749995
100
AcDbArc
 50
179.9999571957
 51
270.0000428043
  0
LINE
  5
2F0
100
AcDbEntity
  8
0
100
AcDbLine
 62
2
  6
CONTINUOUS
 10
12.9759405003
 20
2.515977327
 11
12.9962575116
 21
2.515977327
  0
ARC
  5
2F1
100
AcDbEntity
  8
0
100
AcDbCircle
 62
2
  6
CONTINUOUS
 10
12.9962575135
 20
2.5135023274
 40
0.0024749995
100
AcDbArc
 50
359.9999571957
 51
90.0000428043
  0
LINE
  5
2F2
100
AcDbEntity
  8
0
100
AcDbLine
 62
2
  6
CONTINUOUS
 10
12.998732513
 20
2.5135023256
 11
12.998732513
 21
2.4937023146
  0
ARC
  5
2F3
100
AcDbEntity
  8
0
100
AcDbCircle
 62
2
  6
CONTINUOUS
 10
12.9962575135
 20
2.4937023128
 40
0.0024749995
100
AcDbArc
 50
269.9999571957
 51
0.0000428043
  0
LINE
  5
2F4
100
AcDbEntity
  8
0
100
AcDbLine
 62
2
  6
CONTINUOUS
 10
12.9962575116
 20
2.4912273132
 11
12.9205934696
 21
2.4912273132
  0
ARC
  5
2F5
100
AcDbEntity
  8
0
100
AcDbCircle
 62
2
  6
CONTINUOUS
 10
12.9205934678
 20
2.4937023128
 40
0.0024749995
100
AcDbArc
 50
179.9999571957
 51
270.0000428043
  0
LINE
  5
2F6
100
AcDbEntity
  8
0
100
AcDbLine
 62
2
  6
CONTINUOUS
 10
12.9181184683
 20
2.4937023146
 11
12.9181184683
 21
2.5135023256
  0
ARC
  5
2F7
100
AcDbEntity
  8
0
100
AcDbCircle
 62
2
  6
CONTINUOUS
 10
12.9205934678
 20
2.5135023274
 40
0.0024749995
100
AcDbArc
 50
89.9999571957
 51
180.0000428042
  0
LINE
  5
2F8
100
AcDbEntity
  8
0
100
AcDbLine
 62
2
  6
CONTINUOUS
 10
12.9205934696
 20
2.515977327
 11
12.93923948
 21
2.515977327
  0
ARC
  5
2F9
100
AcDbEntity
  8
0
100
AcDbCircle
 62
2
  6
CONTINUOUS
 10
12.9392394818
 20
2.5184523265
 40
0.0024749995
100
AcDbArc
 50
269.9999571957
 51
0.0000428043
  0
LINE
  5
2FA
100
AcDbEntity
  8
0
100
AcDbLine
 62
2
  6
CONTINUOUS
 10
12.9417144814
 20
2.5184523283
 11
12.9417144814
 21
2.564807354
  0
ARC
  5
2FB
100
AcDbEntity
  8
0
100
AcDbCircle
 62
2
  6
CONTINUOUS
 10
12.9392394818
 20
2.5648073559
 40
0.0024749995
100
AcDbArc
 50
359.9999571957
 51
90.0000428043
  0
LINE
  5
2FC
100
AcDbEntity
  8
0
100
AcDbLine
 62
2
  6
CONTINUOUS
 10
12.93923948
 20
2.5672823554
 11
12.9205934696
 21
2.5672823554
  0
ARC
  5
2FD
100
AcDbEntity
  8
0
100
AcDbCircle
 62
2
  6
CONTINUOUS
 10
12.9205934678
 20
2.5697573549
 40
0.0024749995
100
AcDbArc
 50
179.9999571957
 51
270.0000428043
  0
LINE
  5
2FE
100
AcDbEntity
  8
0
100
AcDbLine
 62
2
  6
CONTINUOUS
 10
12.9181184683
 20
2.5697573568
 11
12.9181184683
 21
2.5895573678
  0
ARC
  5
2FF
100
AcDbEntity
  8
0
100
AcDbCircle
 62
2
  6
CONTINUOUS
 10
12.9205934678
 20
2.5895573696
 40
0.0024749995
100
AcDbArc
 50
89.9999571957
 51
180.0000428042
  0
LINE
  5
300
100
AcDbEntity
  8
0
100
AcDbLine
 62
2
  6
CONTINUOUS
 10
13.2934226764
 20
2.5324773361
 11
13.2582556569
 21
2.5324773361
  0
ARC
  5
301
100
AcDbEntity
  8
0
100
AcDbCircle
 62
2
  6
CONTINUOUS
 10
13.2582556551
 20
2.5300023366
 40
0.0024749995
100
AcDbArc
 50
89.9999571957
 51
180.0000428043
  0
LINE
  5
302
100
AcDbEntity
  8
0
100
AcDbLine
 62
2
  6
CONTINUOUS
 10
13.2557806555
 20
2.5300023347
 11
13.2557806555
 21
2.5184523283
  0
ARC
  5
303
100
AcDbEntity
  8
0
100
AcDbCircle
 62
2
  6
CONTINUOUS
 10
13.2582556551
 20
2.5184523265
 40
0.0024749995
100
AcDbArc
 50
179.9999571957
 51
270.0000428043
  0
LINE
  5
304
100
AcDbEntity
  8
0
100
AcDbLine
 62
2
  6
CONTINUOUS
 10
13.2582556569
 20
2.515977327
 11
13.3232596929
 21
2.515977327
  0
ARC
  5
305
100
AcDbEntity
  8
0
100
AcDbCircle
 62
2
  6
CONTINUOUS
 10
13.3232596948
 20
2.5184523265
 40
0.0024749995
100
AcDbArc
 50
269.9999571957
 51
0.0000428043
  0
LINE
  5
306
100
AcDbEntity
  8
0
100
AcDbLine
 62
2
  6
CONTINUOUS
 10
13.3257346943
 20
2.5184523283
 11
13.3257346943
 21
2.5267023329
  0
ARC
  5
307
100
AcDbEntity
  8
0
100
AcDbCircle
 62
2
  6
CONTINUOUS
 10
13.3282096938
 20
2.5267023348
 40
0.0024749995
100
AcDbArc
 50
89.9999571957
 51
180.0000428043
  0
LINE
  5
308
100
AcDbEntity
  8
0
100
AcDbLine
 62
2
  6
CONTINUOUS
 10
13.3282096957
 20
2.5291773343
 11
13.3705287192
 21
2.5291773343
  0
ARC
  5
309
100
AcDbEntity
  8
0
100
AcDbCircle
 62
2
  6
CONTINUOUS
 10
13.370528721
 20
2.5267023348
 40
0.0024749995
100
AcDbArc
 50
359.9999571957
 51
90.0000428043
  0
LINE
  5
30A
100
AcDbEntity
  8
0
100
AcDbLine
 62
2
  6
CONTINUOUS
 10
13.3730037205
 20
2.5267023329
 11
13.3730037205
 21
2.4937023146
  0
ARC
  5
30B
100
AcDbEntity
  8
0
100
AcDbCircle
 62
2
  6
CONTINUOUS
 10
13.370528721
 20
2.4937023128
 40
0.0024749995
100
AcDbArc
 50
269.9999571957
 51
0.0000428043
  0
LINE
  5
30C
100
AcDbEntity
  8
0
100
AcDbLine
 62
2
  6
CONTINUOUS
 10
13.3705287192
 20
2.4912273132
 11
13.1673166065
 21
2.4912273132
  0
ARC
  5
30D
100
AcDbEntity
  8
0
100
AcDbCircle
 62
2
  6
CONTINUOUS
 10
13.1673166046
 20
2.4937023128
 40
0.0024749995
100
AcDbArc
 50
179.9999571957
 51
270.0000428043
  0
LINE
  5
30E
100
AcDbEntity
  8
0
100
AcDbLine
 62
2
  6
CONTINUOUS
 10
13.1648416051
 20
2.4937023146
 11
13.1648416051
 21
2.5135023256
  0
ARC
  5
30F
100
AcDbEntity
  8
0
100
AcDbCircle
 62
2
  6
CONTINUOUS
 10
13.1673166046
 20
2.5135023274
 40
0.0024749995
100
AcDbArc
 50
89.9999571957
 51
180.0000428043
  0
LINE
  5
310
100
AcDbEntity
  8
0
100
AcDbLine
 62
2
  6
CONTINUOUS
 10
13.1673166065
 20
2.515977327
 11
13.1912396197
 21
2.515977327
  0
ARC
  5
311
100
AcDbEntity
  8
0
100
AcDbCircle
 62
2
  6
CONTINUOUS
 10
13.1912396216
 20
2.5184523265
 40
0.0024749995
100
AcDbArc
 50
269.9999571957
 51
0.0000428042
  0
LINE
  5
312
100
AcDbEntity
  8
0
100
AcDbLine
 62
2
  6
CONTINUOUS
 10
13.1937146211
 20
2.5184523283
 11
13.1937146211
 21
2.564807354
  0
ARC
  5
313
100
AcDbEntity
  8
0
100
AcDbCircle
 62
2
  6
CONTINUOUS
 10
13.1912396216
 20
2.5648073559
 40
0.0024749995
100
AcDbArc
 50
359.9999571957
 51
90.0000428043
  0
LINE
  5
314
100
AcDbEntity
  8
0
100
AcDbLine
 62
2
  6
CONTINUOUS
 10
13.1912396197
 20
2.5672823554
 11
13.1673166065
 21
2.5672823554
  0
ARC
  5
315
100
AcDbEntity
  8
0
100
AcDbCircle
 62
2
  6
CONTINUOUS
 10
13.1673166046
 20
2.5697573549
 40
0.0024749995
100
AcDbArc
 50
179.9999571957
 51
270.0000428043
  0
LINE
  5
316
100
AcDbEntity
  8
0
100
AcDbLine
 62
2
  6
CONTINUOUS
 10
13.1648416051
 20
2.5697573568
 11
13.1648416051
 21
2.5895573678
  0
ARC
  5
317
100
AcDbEntity
  8
0
100
AcDbCircle
 62
2
  6
CONTINUOUS
 10
13.1673166046
 20
2.5895573696
 40
0.0024749995
100
AcDbArc
 50
89.9999571957
 51
180.0000428043
  0
LINE
  5
318
100
AcDbEntity
  8
0
100
AcDbLine
 62
2
  6
CONTINUOUS
 10
13.1673166065
 20
2.5920323691
 11
13.3691097184
 21
2.5920323691
  0
ARC
  5
319
100
AcDbEntity
  8
0
100
AcDbCircle
 62
2
  6
CONTINUOUS
 10
13.3691097202
 20
2.5895573696
 40
0.0024749995
100
AcDbArc
 50
359.9999571957
 51
90.0000428043
  0
LINE
  5
31A
100
AcDbEntity
  8
0
100
AcDbLine
 62
2
  6
CONTINUOUS
 10
13.3715847197
 20
2.5895573678
 11
13.3715847197
 21
2.5565573495
  0
ARC
  5
31B
100
AcDbEntity
  8
0
100
AcDbCircle
 62
2
  6
CONTINUOUS
 10
13.3691097202
 20
2.5565573476
 40
0.0024749995
100
AcDbArc
 50
269.9999571957
 51
0.0000428042
  0
LINE
  5
31C
100
AcDbEntity
  8
0
100
AcDbLine
 62
2
  6
CONTINUOUS
 10
13.3691097184
 20
2.5540823481
 11
13.3272456952
 21
2.5540823481
  0
ARC
  5
31D
100
AcDbEntity
  8
0
100
AcDbCircle
 62
2
  6
CONTINUOUS
 10
13.3272456933
 20
2.5565573476
 40
0.0024749995
100
AcDbArc
 50
179.9999571957
 51
270.0000428043
  0
LINE
  5
31E
100
AcDbEntity
  8
0
100
AcDbLine
 62
2
  6
CONTINUOUS
 10
13.3247706938
 20
2.5565573495
 11
13.3247706938
 21
2.564807354
  0
ARC
  5
31F
100
AcDbEntity
  8
0
100
AcDbCircle
 62
2
  6
CONTINUOUS
 10
13.3222956943
 20
2.5648073559
 40
0.0024749995
100
AcDbArc
 50
359.9999571957
 51
90.0000428043
  0
LINE
  5
320
100
AcDbEntity
  8
0
100
AcDbLine
 62
2
  6
CONTINUOUS
 10
13.3222956924
 20
2.5672823554
 11
13.2582556569
 21
2.5672823554
  0
ARC
  5
321
100
AcDbEntity
  8
0
100
AcDbCircle
 62
2
  6
CONTINUOUS
 10
13.2582556551
 20
2.5648073559
 40
0.0024749995
100
AcDbArc
 50
89.9999571957
 51
180.0000428043
  0
LINE
  5
322
100
AcDbEntity
  8
0
100
AcDbLine
 62
2
  6
CONTINUOUS
 10
13.2557806555
 20
2.564807354
 11
13.2557806555
 21
2.5532573476
  0
ARC
  5
323
100
AcDbEntity
  8
0
100
AcDbCircle
 62
2
  6
CONTINUOUS
 10
13.2582556551
 20
2.5532573458
 40
0.0024749995
100
AcDbArc
 50
179.9999571957
 51
270.0000428043
  0
LINE
  5
324
100
AcDbEntity
  8
0
100
AcDbLine
 62
2
  6
CONTINUOUS
 10
13.2582556569
 20
2.5507823463
 11
13.2934226764
 21
2.5507823463
  0
ARC
  5
325
100
AcDbEntity
  8
0
100
AcDbCircle
 62
2
  6
CONTINUOUS
 10
13.2934226783
 20
2.5483073467
 40
0.0024749995
100
AcDbArc
 50
359.9999571957
 51
90.0000428043
  0
LINE
  5
326
100
AcDbEntity
  8
0
100
AcDbLine
 62
2
  6
CONTINUOUS
 10
13.2958976778
 20
2.5483073449
 11
13.2958976778
 21
2.5349523375
  0
ARC
  5
327
100
AcDbEntity
  8
0
100
AcDbCircle
 62
2
  6
CONTINUOUS
 10
13.2934226783
 20
2.5349523356
 40
0.0024749995
100
AcDbArc
 50
269.9999571957
 51
0.0000428042
  0
LINE
  5
328
100
AcDbEntity
  8
0
100
AcDbLine
 62
2
  6
CONTINUOUS
 10
13.7286871589
 20
2.5350697372
 11
13.7286871589
 21
2.5456869438
  0
LINE
  5
329
100
AcDbEntity
  8
0
100
AcDbLine
 62
2
  6
CONTINUOUS
 10
13.7086871478
 20
2.5004302075
 11
13.7086871478
 21
2.5803264735
  0
LINE
  5
32A
100
AcDbEntity
  8
0
100
AcDbLine
 62
2
  6
CONTINUOUS
 10
13.6886871368
 20
2.4843919416
 11
13.6886871368
 21
2.5963647394
  0
LINE
  5
32B
100
AcDbEntity
  8
0
100
AcDbLine
 62
2
  6
CONTINUOUS
 10
13.6686871257
 20
2.4726017898
 11
13.6686871257
 21
2.6081548911
  0
LINE
  5
32C
100
AcDbEntity
  8
0
100
AcDbLine
 62
2
  6
CONTINUOUS
 10
13.6486871146
 20
2.4628062688
 11
13.6486871146
 21
2.6179504122
  0
LINE
  5
32D
100
AcDbEntity
  8
0
100
AcDbLine
 62
2
  6
CONTINUOUS
 10
13.6286871035
 20
2.4541253507
 11
13.6286871035
 21
2.5062483056
  0
LINE
  5
32E
100
AcDbEntity
  8
0
100
AcDbLine
 62
2
  6
CONTINUOUS
 10
13.6286871035
 20
2.5301143348
 11
13.6286871035
 21
2.6266313303
  0
LINE
  5
32F
100
AcDbEntity
  8
0
100
AcDbLine
 62
2
  6
CONTINUOUS
 10
13.6086870924
 20
2.4465537903
 11
13.6086870924
 21
2.4918774918
  0
LINE
  5
330
100
AcDbEntity
  8
0
100
AcDbLine
 62
2
  6
CONTINUOUS
 10
13.6086870924
 20
2.5165781173
 11
13.6086870924
 21
2.6342028907
  0
LINE
  5
331
100
AcDbEntity
  8
0
100
AcDbLine
 62
2
  6
CONTINUOUS
 10
13.5886870813
 20
2.4398033466
 11
13.5886870813
 21
2.4912273132
  0
LINE
  5
332
100
AcDbEntity
  8
0
100
AcDbLine
 62
2
  6
CONTINUOUS
 10
13.5886870813
 20
2.5391840845
 11
13.5886870813
 21
2.5454298327
  0
LINE
  5
333
100
AcDbEntity
  8
0
100
AcDbLine
 62
2
  6
CONTINUOUS
 10
13.5886870813
 20
2.5862063472
 11
13.5886870813
 21
2.6409533343
  0
LINE
  5
334
100
AcDbEntity
  8
0
100
AcDbLine
 62
2
  6
CONTINUOUS
 10
13.5686870702
 20
2.4334702189
 11
13.5686870702
 21
2.4912273132
  0
LINE
  5
335
100
AcDbEntity
  8
0
100
AcDbLine
 62
2
  6
CONTINUOUS
 10
13.5686870702
 20
2.5906587765
 11
13.5686870702
 21
2.647286462
  0
LINE
  5
336
100
AcDbEntity
  8
0
100
AcDbLine
 62
2
  6
CONTINUOUS
 10
13.5486870591
 20
2.4278968124
 11
13.5486870591
 21
2.4937461006
  0
LINE
  5
337
100
AcDbEntity
  8
0
100
AcDbLine
 62
2
  6
CONTINUOUS
 10
13.5486870591
 20
2.5920323691
 11
13.5486870591
 21
2.6528598686
  0
LINE
  5
338
100
AcDbEntity
  8
0
100
AcDbLine
 62
2
  6
CONTINUOUS
 10
13.528687048
 20
2.4225427674
 11
13.528687048
 21
2.5270426993
  0
LINE
  5
339
100
AcDbEntity
  8
0
100
AcDbLine
 62
2
  6
CONTINUOUS
 10
13.528687048
 20
2.5505166259
 11
13.528687048
 21
2.5668657091
  0
LINE
  5
33A
100
AcDbEntity
  8
0
100
AcDbLine
 62
2
  6
CONTINUOUS
 10
13.528687048
 20
2.5920323691
 11
13.528687048
 21
2.6582139136
  0
LINE
  5
33B
100
AcDbEntity
  8
0
100
AcDbLine
 62
2
  6
CONTINUOUS
 10
13.5086870369
 20
2.4177306791
 11
13.5086870369
 21
2.4912273132
  0
LINE
  5
33C
100
AcDbEntity
  8
0
100
AcDbLine
 62
2
  6
CONTINUOUS
 10
13.5086870369
 20
2.5159553269
 11
13.5086870369
 21
2.5306043351
  0
LINE
  5
33D
100
AcDbEntity
  8
0
100
AcDbLine
 62
2
  6
CONTINUOUS
 10
13.5086870369
 20
2.5496073456
 11
13.5086870369
 21
2.5672823554
  0
LINE
  5
33E
100
AcDbEntity
  8
0
100
AcDbLine
 62
2
  6
CONTINUOUS
 10
13.5086870369
 20
2.5920323691
 11
13.5086870369
 21
2.6630260019
  0
LINE
  5
33F
100
AcDbEntity
  8
0
100
AcDbLine
 62
2
  6
CONTINUOUS
 10
13.4886870258
 20
2.4131795254
 11
13.4886870258
 21
2.4912273132
  0
LINE
  5
340
100
AcDbEntity
  8
0
100
AcDbLine
 62
2
  6
CONTINUOUS
 10
13.4886870258
 20
2.5159553269
 11
13.4886870258
 21
2.5306043351
  0
LINE
  5
341
100
AcDbEntity
  8
0
100
AcDbLine
 62
2
  6
CONTINUOUS
 10
13.4886870258
 20
2.5496073456
 11
13.4886870258
 21
2.5672823554
  0
LINE
  5
342
100
AcDbEntity
  8
0
100
AcDbLine
 62
2
  6
CONTINUOUS
 10
13.4886870258
 20
2.5920323691
 11
13.4886870258
 21
2.6675771555
  0
LINE
  5
343
100
AcDbEntity
  8
0
100
AcDbLine
 62
2
  6
CONTINUOUS
 10
13.4686870147
 20
2.4088819672
 11
13.4686870147
 21
2.4912273132
  0
LINE
  5
344
100
AcDbEntity
  8
0
100
AcDbLine
 62
2
  6
CONTINUOUS
 10
13.4686870147
 20
2.5920323691
 11
13.4686870147
 21
2.6718747138
  0
LINE
  5
345
100
AcDbEntity
  8
0
100
AcDbLine
 62
2
  6
CONTINUOUS
 10
13.4486870037
 20
2.4050092072
 11
13.4486870037
 21
2.4912273132
  0
LINE
  5
346
100
AcDbEntity
  8
0
100
AcDbLine
 62
2
  6
CONTINUOUS
 10
13.4486870037
 20
2.5920323691
 11
13.4486870037
 21
2.6757474738
  0
LINE
  5
347
100
AcDbEntity
  8
0
100
AcDbLine
 62
2
  6
CONTINUOUS
 10
13.4286869926
 20
2.4011364471
 11
13.4286869926
 21
2.4912273132
  0
LINE
  5
348
100
AcDbEntity
  8
0
100
AcDbLine
 62
2
  6
CONTINUOUS
 10
13.4286869926
 20
2.5920323691
 11
13.4286869926
 21
2.6796202339
  0
LINE
  5
349
100
AcDbEntity
  8
0
100
AcDbLine
 62
2
  6
CONTINUOUS
 10
13.4086869815
 20
2.3980226662
 11
13.4086869815
 21
2.4912273132
  0
LINE
  5
34A
100
AcDbEntity
  8
0
100
AcDbLine
 62
2
  6
CONTINUOUS
 10
13.4086869815
 20
2.515977327
 11
13.4086869815
 21
2.5672823554
  0
LINE
  5
34B
100
AcDbEntity
  8
0
100
AcDbLine
 62
2
  6
CONTINUOUS
 10
13.4086869815
 20
2.5920323691
 11
13.4086869815
 21
2.6827340148
  0
LINE
  5
34C
100
AcDbEntity
  8
0
100
AcDbLine
 62
2
  6
CONTINUOUS
 10
13.3886869704
 20
2.3950052774
 11
13.3886869704
 21
2.6857514036
  0
LINE
  5
34D
100
AcDbEntity
  8
0
100
AcDbLine
 62
2
  6
CONTINUOUS
 10
13.3686869593
 20
2.3919878885
 11
13.3686869593
 21
2.4912273132
  0
LINE
  5
34E
100
AcDbEntity
  8
0
100
AcDbLine
 62
2
  6
CONTINUOUS
 10
13.3686869593
 20
2.5291773343
 11
13.3686869593
 21
2.5540823481
  0
LINE
  5
34F
100
AcDbEntity
  8
0
100
AcDbLine
 62
2
  6
CONTINUOUS
 10
13.3686869593
 20
2.5920323691
 11
13.3686869593
 21
2.6887687924
  0
LINE
  5
350
100
AcDbEntity
  8
0
100
AcDbLine
 62
2
  6
CONTINUOUS
 10
13.3486869482
 20
2.3889704997
 11
13.3486869482
 21
2.4912273132
  0
LINE
  5
351
100
AcDbEntity
  8
0
100
AcDbLine
 62
2
  6
CONTINUOUS
 10
13.3486869482
 20
2.5291773343
 11
13.3486869482
 21
2.5540823481
  0
LINE
  5
352
100
AcDbEntity
  8
0
100
AcDbLine
 62
2
  6
CONTINUOUS
 10
13.3486869482
 20
2.5920323691
 11
13.3486869482
 21
2.6917861813
  0
LINE
  5
353
100
AcDbEntity
  8
0
100
AcDbLine
 62
2
  6
CONTINUOUS
 10
13.3286869371
 20
2.3859531109
 11
13.3286869371
 21
2.4912273132
  0
LINE
  5
354
100
AcDbEntity
  8
0
100
AcDbLine
 62
2
  6
CONTINUOUS
 10
13.3286869371
 20
2.5291773343
 11
13.3286869371
 21
2.5540823481
  0
LINE
  5
355
100
AcDbEntity
  8
0
100
AcDbLine
 62
2
  6
CONTINUOUS
 10
13.3286869371
 20
2.5920323691
 11
13.3286869371
 21
2.6948035701
  0
LINE
  5
356
100
AcDbEntity
  8
0
100
AcDbLine
 62
2
  6
CONTINUOUS
 10
13.308686926
 20
2.3833355437
 11
13.308686926
 21
2.4912273132
  0
LINE
  5
357
100
AcDbEntity
  8
0
100
AcDbLine
 62
2
  6
CONTINUOUS
 10
13.308686926
 20
2.515977327
 11
13.308686926
 21
2.5672823554
  0
LINE
  5
358
100
AcDbEntity
  8
0
100
AcDbLine
 62
2
  6
CONTINUOUS
 10
13.308686926
 20
2.5920323691
 11
13.308686926
 21
2.6974211373
  0
LINE
  5
359
100
AcDbEntity
  8
0
100
AcDbLine
 62
2
  6
CONTINUOUS
 10
13.2886869149
 20
2.3812612684
 11
13.2886869149
 21
2.4912273132
  0
LINE
  5
35A
100
AcDbEntity
  8
0
100
AcDbLine
 62
2
  6
CONTINUOUS
 10
13.2886869149
 20
2.515977327
 11
13.2886869149
 21
2.5324773361
  0
LINE
  5
35B
100
AcDbEntity
  8
0
100
AcDbLine
 62
2
  6
CONTINUOUS
 10
13.2886869149
 20
2.5507823463
 11
13.2886869149
 21
2.5672823554
  0
LINE
  5
35C
100
AcDbEntity
  8
0
100
AcDbLine
 62
2
  6
CONTINUOUS
 10
13.2886869149
 20
2.5920323691
 11
13.2886869149
 21
2.6994954125
  0
LINE
  5
35D
100
AcDbEntity
  8
0
100
AcDbLine
 62
2
  6
CONTINUOUS
 10
13.2686869038
 20
2.3791869932
 11
13.2686869038
 21
2.4912273132
  0
LINE
  5
35E
100
AcDbEntity
  8
0
100
AcDbLine
 62
2
  6
CONTINUOUS
 10
13.2686869038
 20
2.515977327
 11
13.2686869038
 21
2.5324773361
  0
LINE
  5
35F
100
AcDbEntity
  8
0
100
AcDbLine
 62
2
  6
CONTINUOUS
 10
13.2686869038
 20
2.5507823463
 11
13.2686869038
 21
2.5672823554
  0
LINE
  5
360
100
AcDbEntity
  8
0
100
AcDbLine
 62
2
  6
CONTINUOUS
 10
13.2686869038
 20
2.5920323691
 11
13.2686869038
 21
2.7015696878
  0
LINE
  5
361
100
AcDbEntity
  8
0
100
AcDbLine
 62
2
  6
CONTINUOUS
 10
13.2486868927
 20
2.377112718
 11
13.2486868927
 21
2.4912273132
  0
LINE
  5
362
100
AcDbEntity
  8
0
100
AcDbLine
 62
2
  6
CONTINUOUS
 10
13.2486868927
 20
2.5920323691
 11
13.2486868927
 21
2.703643963
  0
LINE
  5
363
100
AcDbEntity
  8
0
100
AcDbLine
 62
2
  6
CONTINUOUS
 10
13.2286868817
 20
2.3750384428
 11
13.2286868817
 21
2.4912273132
  0
LINE
  5
364
100
AcDbEntity
  8
0
100
AcDbLine
 62
2
  6
CONTINUOUS
 10
13.2286868817
 20
2.5920323691
 11
13.2286868817
 21
2.7057182382
  0
LINE
  5
365
100
AcDbEntity
  8
0
100
AcDbLine
 62
2
  6
CONTINUOUS
 10
13.2086868706
 20
2.3729641676
 11
13.2086868706
 21
2.4912273132
  0
LINE
  5
366
100
AcDbEntity
  8
0
100
AcDbLine
 62
2
  6
CONTINUOUS
 10
13.2086868706
 20
2.5920323691
 11
13.2086868706
 21
2.7077925134
  0
LINE
  5
367
100
AcDbEntity
  8
0
100
AcDbLine
 62
2
  6
CONTINUOUS
 10
13.1886868595
 20
2.3712344456
 11
13.1886868595
 21
2.4912273132
  0
LINE
  5
368
100
AcDbEntity
  8
0
100
AcDbLine
 62
2
  6
CONTINUOUS
 10
13.1886868595
 20
2.515977327
 11
13.1886868595
 21
2.5672823554
  0
LINE
  5
369
100
AcDbEntity
  8
0
100
AcDbLine
 62
2
  6
CONTINUOUS
 10
13.1886868595
 20
2.5920323691
 11
13.1886868595
 21
2.7095222354
  0
LINE
  5
36A
100
AcDbEntity
  8
0
100
AcDbLine
 62
2
  6
CONTINUOUS
 10
13.1686868484
 20
2.3699682418
 11
13.1686868484
 21
2.4912273132
  0
LINE
  5
36B
100
AcDbEntity
  8
0
100
AcDbLine
 62
2
  6
CONTINUOUS
 10
13.1686868484
 20
2.515977327
 11
13.1686868484
 21
2.5672823554
  0
LINE
  5
36C
100
AcDbEntity
  8
0
100
AcDbLine
 62
2
  6
CONTINUOUS
 10
13.1686868484
 20
2.5920323691
 11
13.1686868484
 21
2.7107884392
  0
LINE
  5
36D
100
AcDbEntity
  8
0
100
AcDbLine
 62
2
  6
CONTINUOUS
 10
13.1486868373
 20
2.3687020381
 11
13.1486868373
 21
2.7120546429
  0
LINE
  5
36E
100
AcDbEntity
  8
0
100
AcDbLine
 62
2
  6
CONTINUOUS
 10
13.1286868262
 20
2.3674358343
 11
13.1286868262
 21
2.5672823554
  0
LINE
  5
36F
100
AcDbEntity
  8
0
100
AcDbLine
 62
2
  6
CONTINUOUS
 10
13.1286868262
 20
2.5920323691
 11
13.1286868262
 21
2.7133208466
  0
LINE
  5
370
100
AcDbEntity
  8
0
100
AcDbLine
 62
2
  6
CONTINUOUS
 10
13.1086868151
 20
2.3661696306
 11
13.1086868151
 21
2.4912273132
  0
LINE
  5
371
100
AcDbEntity
  8
0
100
AcDbLine
 62
2
  6
CONTINUOUS
 10
13.1086868151
 20
2.5920323691
 11
13.1086868151
 21
2.7145870504
  0
LINE
  5
372
100
AcDbEntity
  8
0
100
AcDbLine
 62
2
  6
CONTINUOUS
 10
13.088686804
 20
2.3649034269
 11
13.088686804
 21
2.4912273132
  0
LINE
  5
373
100
AcDbEntity
  8
0
100
AcDbLine
 62
2
  6
CONTINUOUS
 10
13.088686804
 20
2.5920323691
 11
13.088686804
 21
2.7158532541
  0
LINE
  5
374
100
AcDbEntity
  8
0
100
AcDbLine
 62
2
  6
CONTINUOUS
 10
13.0686867929
 20
2.3636739922
 11
13.0686867929
 21
2.4912273132
  0
LINE
  5
375
100
AcDbEntity
  8
0
100
AcDbLine
 62
2
  6
CONTINUOUS
 10
13.0686867929
 20
2.5475272398
 11
13.0686867929
 21
2.5672823554
  0
LINE
  5
376
100
AcDbEntity
  8
0
100
AcDbLine
 62
2
  6
CONTINUOUS
 10
13.0686867929
 20
2.5920323691
 11
13.0686867929
 21
2.7170826887
  0
LINE
  5
377
100
AcDbEntity
  8
0
100
AcDbLine
 62
2
  6
CONTINUOUS
 10
13.0486867818
 20
2.363143203
 11
13.0486867818
 21
2.4912273132
  0
LINE
  5
378
100
AcDbEntity
  8
0
100
AcDbLine
 62
2
  6
CONTINUOUS
 10
13.0486867818
 20
2.5666100882
 11
13.0486867818
 21
2.717613478
  0
LINE
  5
379
100
AcDbEntity
  8
0
100
AcDbLine
 62
2
  6
CONTINUOUS
 10
13.0286867707
 20
2.3626124138
 11
13.0286867707
 21
2.50359263
  0
LINE
  5
37A
100
AcDbEntity
  8
0
100
AcDbLine
 62
2
  6
CONTINUOUS
 10
13.0286867707
 20
2.5856929366
 11
13.0286867707
 21
2.7181442672
  0
LINE
  5
37B
100
AcDbEntity
  8
0
100
AcDbLine
 62
2
  6
CONTINUOUS
 10
13.0086867596
 20
2.3620816246
 11
13.0086867596
 21
2.5226754472
  0
LINE
  5
37C
100
AcDbEntity
  8
0
100
AcDbLine
 62
2
  6
CONTINUOUS
 10
13.0086867596
 20
2.5920323691
 11
13.0086867596
 21
2.7186750564
  0
LINE
  5
37D
100
AcDbEntity
  8
0
100
AcDbLine
 62
2
  6
CONTINUOUS
 10
12.9886867486
 20
2.3615508354
 11
12.9886867486
 21
2.4912273132
  0
LINE
  5
37E
100
AcDbEntity
  8
0
100
AcDbLine
 62
2
  6
CONTINUOUS
 10
12.9886867486
 20
2.515977327
 11
12.9886867486
 21
2.5417582644
  0
LINE
  5
37F
100
AcDbEntity
  8
0
100
AcDbLine
 62
2
  6
CONTINUOUS
 10
12.9886867486
 20
2.5920323691
 11
12.9886867486
 21
2.7192058456
  0
LINE
  5
380
100
AcDbEntity
  8
0
100
AcDbLine
 62
2
  6
CONTINUOUS
 10
12.9686867375
 20
2.3610200462
 11
12.9686867375
 21
2.4912273132
  0
LINE
  5
381
100
AcDbEntity
  8
0
100
AcDbLine
 62
2
  6
CONTINUOUS
 10
12.9686867375
 20
2.5920323691
 11
12.9686867375
 21
2.7197366348
  0
LINE
  5
382
100
AcDbEntity
  8
0
100
AcDbLine
 62
2
  6
CONTINUOUS
 10
12.9486867264
 20
2.360489257
 11
12.9486867264
 21
2.4912273132
  0
LINE
  5
383
100
AcDbEntity
  8
0
100
AcDbLine
 62
2
  6
CONTINUOUS
 10
12.9486867264
 20
2.5920323691
 11
12.9486867264
 21
2.720267424
  0
LINE
  5
384
100
AcDbEntity
  8
0
100
AcDbLine
 62
2
  6
CONTINUOUS
 10
12.9286867153
 20
2.3602836008
 11
12.9286867153
 21
2.4912273132
  0
LINE
  5
385
100
AcDbEntity
  8
0
100
AcDbLine
 62
2
  6
CONTINUOUS
 10
12.9286867153
 20
2.515977327
 11
12.9286867153
 21
2.5672823554
  0
LINE
  5
386
100
AcDbEntity
  8
0
100
AcDbLine
 62
2
  6
CONTINUOUS
 10
12.9286867153
 20
2.5920323691
 11
12.9286867153
 21
2.7204730802
  0
LINE
  5
387
100
AcDbEntity
  8
0
100
AcDbLine
 62
2
  6
CONTINUOUS
 10
12.9086867042
 20
2.3604597639
 11
12.9086867042
 21
2.7202969171
  0
LINE
  5
388
100
AcDbEntity
  8
0
100
AcDbLine
 62
2
  6
CONTINUOUS
 10
12.8886866931
 20
2.360635927
 11
12.8886866931
 21
2.5672823554
  0
LINE
  5
389
100
AcDbEntity
  8
0
100
AcDbLine
 62
2
  6
CONTINUOUS
 10
12.8886866931
 20
2.5920323691
 11
12.8886866931
 21
2.720120754
  0
LINE
  5
38A
100
AcDbEntity
  8
0
100
AcDbLine
 62
2
  6
CONTINUOUS
 10
12.868686682
 20
2.3608120901
 11
12.868686682
 21
2.491232357
  0
LINE
  5
38B
100
AcDbEntity
  8
0
100
AcDbLine
 62
2
  6
CONTINUOUS
 10
12.868686682
 20
2.5920323691
 11
12.868686682
 21
2.7199445909
  0
LINE
  5
38C
100
AcDbEntity
  8
0
100
AcDbLine
 62
2
  6
CONTINUOUS
 10
12.8486866709
 20
2.3609882532
 11
12.8486866709
 21
2.4912273132
  0
LINE
  5
38D
100
AcDbEntity
  8
0
100
AcDbLine
 62
2
  6
CONTINUOUS
 10
12.8486866709
 20
2.5920323691
 11
12.8486866709
 21
2.7197684278
  0
LINE
  5
38E
100
AcDbEntity
  8
0
100
AcDbLine
 62
2
  6
CONTINUOUS
 10
12.8286866598
 20
2.3611644163
 11
12.8286866598
 21
2.4912273132
  0
LINE
  5
38F
100
AcDbEntity
  8
0
100
AcDbLine
 62
2
  6
CONTINUOUS
 10
12.8286866598
 20
2.5396527025
 11
12.8286866598
 21
2.5672823554
  0
LINE
  5
390
100
AcDbEntity
  8
0
100
AcDbLine
 62
2
  6
CONTINUOUS
 10
12.8286866598
 20
2.5920323691
 11
12.8286866598
 21
2.7195922647
  0
LINE
  5
391
100
AcDbEntity
  8
0
100
AcDbLine
 62
2
  6
CONTINUOUS
 10
12.8086866487
 20
2.3613405794
 11
12.8086866487
 21
2.4912273132
  0
LINE
  5
392
100
AcDbEntity
  8
0
100
AcDbLine
 62
2
  6
CONTINUOUS
 10
12.8086866487
 20
2.5587355508
 11
12.8086866487
 21
2.7194161016
  0
LINE
  5
393
100
AcDbEntity
  8
0
100
AcDbLine
 62
2
  6
CONTINUOUS
 10
12.7886866376
 20
2.3621089572
 11
12.7886866376
 21
2.4957181055
  0
LINE
  5
394
100
AcDbEntity
  8
0
100
AcDbLine
 62
2
  6
CONTINUOUS
 10
12.7886866376
 20
2.5778183992
 11
12.7886866376
 21
2.7186477238
  0
LINE
  5
395
100
AcDbEntity
  8
0
100
AcDbLine
 62
2
  6
CONTINUOUS
 10
12.7686866266
 20
2.3630013935
 11
12.7686866266
 21
2.5148009227
  0
LINE
  5
396
100
AcDbEntity
  8
0
100
AcDbLine
 62
2
  6
CONTINUOUS
 10
12.7686866266
 20
2.5920323691
 11
12.7686866266
 21
2.7177552874
  0
LINE
  5
397
100
AcDbEntity
  8
0
100
AcDbLine
 62
2
  6
CONTINUOUS
 10
12.7486866155
 20
2.3638938299
 11
12.7486866155
 21
2.4913263218
  0
LINE
  5
398
100
AcDbEntity
  8
0
100
AcDbLine
 62
2
  6
CONTINUOUS
 10
12.7486866155
 20
2.5158783184
 11
12.7486866155
 21
2.5338837399
  0
LINE
  5
399
100
AcDbEntity
  8
0
100
AcDbLine
 62
2
  6
CONTINUOUS
 10
12.7486866155
 20
2.5920323691
 11
12.7486866155
 21
2.7168628511
  0
LINE
  5
39A
100
AcDbEntity
  8
0
100
AcDbLine
 62
2
  6
CONTINUOUS
 10
12.7286866044
 20
2.3647862663
 11
12.7286866044
 21
2.4912273132
  0
LINE
  5
39B
100
AcDbEntity
  8
0
100
AcDbLine
 62
2
  6
CONTINUOUS
 10
12.7286866044
 20
2.515977327
 11
12.7286866044
 21
2.5527601554
  0
LINE
  5
39C
100
AcDbEntity
  8
0
100
AcDbLine
 62
2
  6
CONTINUOUS
 10
12.7286866044
 20
2.5920323691
 11
12.7286866044
 21
2.7159704147
  0
LINE
  5
39D
100
AcDbEntity
  8
0
100
AcDbLine
 62
2
  6
CONTINUOUS
 10
12.7086865933
 20
2.3656787026
 11
12.7086865933
 21
2.4912273132
  0
LINE
  5
39E
100
AcDbEntity
  8
0
100
AcDbLine
 62
2
  6
CONTINUOUS
 10
12.7086865933
 20
2.5920323691
 11
12.7086865933
 21
2.7150779784
  0
LINE
  5
39F
100
AcDbEntity
  8
0
100
AcDbLine
 62
2
  6
CONTINUOUS
 10
12.6886865822
 20
2.366571139
 11
12.6886865822
 21
2.4912273132
  0
LINE
  5
3A0
100
AcDbEntity
  8
0
100
AcDbLine
 62
2
  6
CONTINUOUS
 10
12.6886865822
 20
2.515977327
 11
12.6886865822
 21
2.5672823554
  0
LINE
  5
3A1
100
AcDbEntity
  8
0
100
AcDbLine
 62
2
  6
CONTINUOUS
 10
12.6886865822
 20
2.5920323691
 11
12.6886865822
 21
2.714185542
  0
LINE
  5
3A2
100
AcDbEntity
  8
0
100
AcDbLine
 62
2
  6
CONTINUOUS
 10
12.6686865711
 20
2.3677104027
 11
12.6686865711
 21
2.7130462783
  0
LINE
  5
3A3
100
AcDbEntity
  8
0
100
AcDbLine
 62
2
  6
CONTINUOUS
 10
12.64868656
 20
2.3693682721
 11
12.64868656
 21
2.7113884089
  0
LINE
  5
3A4
100
AcDbEntity
  8
0
100
AcDbLine
 62
2
  6
CONTINUOUS
 10
12.6286865489
 20
2.3710261415
 11
12.6286865489
 21
2.4912273132
  0
LINE
  5
3A5
100
AcDbEntity
  8
0
100
AcDbLine
 62
2
  6
CONTINUOUS
 10
12.6286865489
 20
2.515977327
 11
12.6286865489
 21
2.7097305395
  0
LINE
  5
3A6
100
AcDbEntity
  8
0
100
AcDbLine
 62
2
  6
CONTINUOUS
 10
12.6086865378
 20
2.372684011
 11
12.6086865378
 21
2.4912273132
  0
LINE
  5
3A7
100
AcDbEntity
  8
0
100
AcDbLine
 62
2
  6
CONTINUOUS
 10
12.6086865378
 20
2.5351122279
 11
12.6086865378
 21
2.70807267
  0
LINE
  5
3A8
100
AcDbEntity
  8
0
100
AcDbLine
 62
2
  6
CONTINUOUS
 10
12.5886865267
 20
2.3743418804
 11
12.5886865267
 21
2.4912273132
  0
LINE
  5
3A9
100
AcDbEntity
  8
0
100
AcDbLine
 62
2
  6
CONTINUOUS
 10
12.5886865267
 20
2.5660172622
 11
12.5886865267
 21
2.7064148006
  0
LINE
  5
3AA
100
AcDbEntity
  8
0
100
AcDbLine
 62
2
  6
CONTINUOUS
 10
12.5686865156
 20
2.3759997498
 11
12.5686865156
 21
2.4912273132
  0
LINE
  5
3AB
100
AcDbEntity
  8
0
100
AcDbLine
 62
2
  6
CONTINUOUS
 10
12.5686865156
 20
2.5920323691
 11
12.5686865156
 21
2.7047569312
  0
LINE
  5
3AC
100
AcDbEntity
  8
0
100
AcDbLine
 62
2
  6
CONTINUOUS
 10
12.5486865045
 20
2.3777575277
 11
12.5486865045
 21
2.4912273132
  0
LINE
  5
3AD
100
AcDbEntity
  8
0
100
AcDbLine
 62
2
  6
CONTINUOUS
 10
12.5486865045
 20
2.515977327
 11
12.5486865045
 21
2.5275118824
  0
LINE
  5
3AE
100
AcDbEntity
  8
0
100
AcDbLine
 62
2
  6
CONTINUOUS
 10
12.5486865045
 20
2.5920323691
 11
12.5486865045
 21
2.7029991533
  0
LINE
  5
3AF
100
AcDbEntity
  8
0
100
AcDbLine
 62
2
  6
CONTINUOUS
 10
12.5286864935
 20
2.3802813811
 11
12.5286864935
 21
2.5296213345
  0
LINE
  5
3B0
100
AcDbEntity
  8
0
100
AcDbLine
 62
2
  6
CONTINUOUS
 10
12.5286864935
 20
2.5505713461
 11
12.5286864935
 21
2.5667383551
  0
LINE
  5
3B1
100
AcDbEntity
  8
0
100
AcDbLine
 62
2
  6
CONTINUOUS
 10
12.5286864935
 20
2.5920323691
 11
12.5286864935
 21
2.7004752999
  0
LINE
  5
3B2
100
AcDbEntity
  8
0
100
AcDbLine
 62
2
  6
CONTINUOUS
 10
12.5086864824
 20
2.3828052346
 11
12.5086864824
 21
2.4912273132
  0
LINE
  5
3B3
100
AcDbEntity
  8
0
100
AcDbLine
 62
2
  6
CONTINUOUS
 10
12.5086864824
 20
2.515977327
 11
12.5086864824
 21
2.5279667721
  0
LINE
  5
3B4
100
AcDbEntity
  8
0
100
AcDbLine
 62
2
  6
CONTINUOUS
 10
12.5086864824
 20
2.5868602074
 11
12.5086864824
 21
2.6979514464
  0
LINE
  5
3B5
100
AcDbEntity
  8
0
100
AcDbLine
 62
2
  6
CONTINUOUS
 10
12.4886864713
 20
2.385329088
 11
12.4886864713
 21
2.4912273132
  0
LINE
  5
3B6
100
AcDbEntity
  8
0
100
AcDbLine
 62
2
  6
CONTINUOUS
 10
12.4886864713
 20
2.5553401045
 11
12.4886864713
 21
2.695427593
  0
LINE
  5
3B7
100
AcDbEntity
  8
0
100
AcDbLine
 62
2
  6
CONTINUOUS
 10
12.4686864602
 20
2.3878529415
 11
12.4686864602
 21
2.4912273132
  0
LINE
  5
3B8
100
AcDbEntity
  8
0
100
AcDbLine
 62
2
  6
CONTINUOUS
 10
12.4686864602
 20
2.5238200015
 11
12.4686864602
 21
2.6929037395
  0
LINE
  5
3B9
100
AcDbEntity
  8
0
100
AcDbLine
 62
2
  6
CONTINUOUS
 10
12.4486864491
 20
2.390376795
 11
12.4486864491
 21
2.4912273132
  0
LINE
  5
3BA
100
AcDbEntity
  8
0
100
AcDbLine
 62
2
  6
CONTINUOUS
 10
12.4486864491
 20
2.515977327
 11
12.4486864491
 21
2.690379886
  0
LINE
  5
3BB
100
AcDbEntity
  8
0
100
AcDbLine
 62
2
  6
CONTINUOUS
 10
12.428686438
 20
2.3931794042
 11
12.428686438
 21
2.6875772768
  0
LINE
  5
3BC
100
AcDbEntity
  8
0
100
AcDbLine
 62
2
  6
CONTINUOUS
 10
12.4086864269
 20
2.3964643301
 11
12.4086864269
 21
2.5013773986
  0
LINE
  5
3BD
100
AcDbEntity
  8
0
100
AcDbLine
 62
2
  6
CONTINUOUS
 10
12.4086864269
 20
2.5325739971
 11
12.4086864269
 21
2.5537224311
  0
LINE
  5
3BE
100
AcDbEntity
  8
0
100
AcDbLine
 62
2
  6
CONTINUOUS
 10
12.4086864269
 20
2.5791473398
 11
12.4086864269
 21
2.6842923509
  0
LINE
  5
3BF
100
AcDbEntity
  8
0
100
AcDbLine
 62
2
  6
CONTINUOUS
 10
12.3886864158
 20
2.399749256
 11
12.3886864158
 21
2.4921022658
  0
LINE
  5
3C0
100
AcDbEntity
  8
0
100
AcDbLine
 62
2
  6
CONTINUOUS
 10
12.3886864158
 20
2.5895929958
 11
12.3886864158
 21
2.681007425
  0
LINE
  5
3C1
100
AcDbEntity
  8
0
100
AcDbLine
 62
2
  6
CONTINUOUS
 10
12.3686864047
 20
2.403451877
 11
12.3686864047
 21
2.4912273132
  0
LINE
  5
3C2
100
AcDbEntity
  8
0
100
AcDbLine
 62
2
  6
CONTINUOUS
 10
12.3686864047
 20
2.5920323691
 11
12.3686864047
 21
2.677304804
  0
LINE
  5
3C3
100
AcDbEntity
  8
0
100
AcDbLine
 62
2
  6
CONTINUOUS
 10
12.3486863936
 20
2.407324637
 11
12.3486863936
 21
2.4912273132
  0
LINE
  5
3C4
100
AcDbEntity
  8
0
100
AcDbLine
 62
2
  6
CONTINUOUS
 10
12.3486863936
 20
2.5920323691
 11
12.3486863936
 21
2.673432044
  0
LINE
  5
3C5
100
AcDbEntity
  8
0
100
AcDbLine
 62
2
  6
CONTINUOUS
 10
12.3286863825
 20
2.4113493968
 11
12.3286863825
 21
2.4912273132
  0
LINE
  5
3C6
100
AcDbEntity
  8
0
100
AcDbLine
 62
2
  6
CONTINUOUS
 10
12.3286863825
 20
2.515977327
 11
12.3286863825
 21
2.5333023366
  0
LINE
  5
3C7
100
AcDbEntity
  8
0
100
AcDbLine
 62
2
  6
CONTINUOUS
 10
12.3286863825
 20
2.5499573458
 11
12.3286863825
 21
2.5672823554
  0
LINE
  5
3C8
100
AcDbEntity
  8
0
100
AcDbLine
 62
2
  6
CONTINUOUS
 10
12.3286863825
 20
2.5920323691
 11
12.3286863825
 21
2.6694072842
  0
LINE
  5
3C9
100
AcDbEntity
  8
0
100
AcDbLine
 62
2
  6
CONTINUOUS
 10
12.3086863715
 20
2.4159005505
 11
12.3086863715
 21
2.4912273132
  0
LINE
  5
3CA
100
AcDbEntity
  8
0
100
AcDbLine
 62
2
  6
CONTINUOUS
 10
12.3086863715
 20
2.515977327
 11
12.3086863715
 21
2.5333023366
  0
LINE
  5
3CB
100
AcDbEntity
  8
0
100
AcDbLine
 62
2
  6
CONTINUOUS
 10
12.3086863715
 20
2.5499573458
 11
12.3086863715
 21
2.5672823554
  0
LINE
  5
3CC
100
AcDbEntity
  8
0
100
AcDbLine
 62
2
  6
CONTINUOUS
 10
12.3086863715
 20
2.5920323691
 11
12.3086863715
 21
2.6648561305
  0
LINE
  5
3CD
100
AcDbEntity
  8
0
100
AcDbLine
 62
2
  6
CONTINUOUS
 10
12.2886863604
 20
2.4204517041
 11
12.2886863604
 21
2.4912273132
  0
LINE
  5
3CE
100
AcDbEntity
  8
0
100
AcDbLine
 62
2
  6
CONTINUOUS
 10
12.2886863604
 20
2.5920323691
 11
12.2886863604
 21
2.6603049769
  0
LINE
  5
3CF
100
AcDbEntity
  8
0
100
AcDbLine
 62
2
  6
CONTINUOUS
 10
12.2686863493
 20
2.4257438218
 11
12.2686863493
 21
2.4912273132
  0
LINE
  5
3D0
100
AcDbEntity
  8
0
100
AcDbLine
 62
2
  6
CONTINUOUS
 10
12.2686863493
 20
2.5920323691
 11
12.2686863493
 21
2.6550128592
  0
LINE
  5
3D1
100
AcDbEntity
  8
0
100
AcDbLine
 62
2
  6
CONTINUOUS
 10
12.2486863382
 20
2.4310978667
 11
12.2486863382
 21
2.4912273132
  0
LINE
  5
3D2
100
AcDbEntity
  8
0
100
AcDbLine
 62
2
  6
CONTINUOUS
 10
12.2486863382
 20
2.5920323691
 11
12.2486863382
 21
2.6496588142
  0
LINE
  5
3D3
100
AcDbEntity
  8
0
100
AcDbLine
 62
2
  6
CONTINUOUS
 10
12.2286863271
 20
2.4372566433
 11
12.2286863271
 21
2.4912273132
  0
LINE
  5
3D4
100
AcDbEntity
  8
0
100
AcDbLine
 62
2
  6
CONTINUOUS
 10
12.2286863271
 20
2.515977327
 11
12.2286863271
 21
2.5672823554
  0
LINE
  5
3D5
100
AcDbEntity
  8
0
100
AcDbLine
 62
2
  6
CONTINUOUS
 10
12.2286863271
 20
2.5920323691
 11
12.2286863271
 21
2.6435000377
  0
LINE
  5
3D6
100
AcDbEntity
  8
0
100
AcDbLine
 62
2
  6
CONTINUOUS
 10
12.208686316
 20
2.443589771
 11
12.208686316
 21
2.4912273132
  0
LINE
  5
3D7
100
AcDbEntity
  8
0
100
AcDbLine
 62
2
  6
CONTINUOUS
 10
12.208686316
 20
2.515977327
 11
12.208686316
 21
2.5672823554
  0
LINE
  5
3D8
100
AcDbEntity
  8
0
100
AcDbLine
 62
2
  6
CONTINUOUS
 10
12.208686316
 20
2.5920323691
 11
12.208686316
 21
2.63716691
  0
LINE
  5
3D9
100
AcDbEntity
  8
0
100
AcDbLine
 62
2
  6
CONTINUOUS
 10
12.1886863049
 20
2.4510806436
 11
12.1886863049
 21
2.6296760373
  0
LINE
  5
3DA
100
AcDbEntity
  8
0
100
AcDbLine
 62
2
  6
CONTINUOUS
 10
12.1686862938
 20
2.4591016523
 11
12.1686862938
 21
2.6216550287
  0
LINE
  5
3DB
100
AcDbEntity
  8
0
100
AcDbLine
 62
2
  6
CONTINUOUS
 10
12.1486862827
 20
2.468314272
 11
12.1486862827
 21
2.612442409
  0
LINE
  5
3DC
100
AcDbEntity
  8
0
100
AcDbLine
 62
2
  6
CONTINUOUS
 10
12.1286862716
 20
2.4794932339
 11
12.1286862716
 21
2.601263447
  0
LINE
  5
3DD
100
AcDbEntity
  8
0
100
AcDbLine
 62
2
  6
CONTINUOUS
 10
12.1086862605
 20
2.4934150665
 11
12.1086862605
 21
2.5873416144
  0
LINE
  5
3DE
100
AcDbEntity
  8
0
100
AcDbLine
 62
2
  6
CONTINUOUS
 10
12.0886862494
 20
2.5144449553
 11
12.0886862494
 21
2.5663117257
  0
ENDBLK
  5
3DF
100
AcDbEntity
  8
0
  6
BYBLOCK
 62
0
100
AcDbBlockEnd
  0
BLOCK
  5
3E0
100
AcDbEntity
  8
SCHEME_DIMS
100
AcDbBlockBegin
 62
2
  6
CONTINUOUS
  2
*D0
 70
65
 10
0.0
 20
0.0
  3
*D0
  1

  0
TEXT
  5
3E1
100
AcDbEntity
  8
SCHEME_DIMS
100
AcDbText
 62
2
  6
CONTINUOUS
 10
8.1506568508
 20
9.2421877653
  7
STANDARD
 40
0.1
  1
32,1
 41
1.0
 72
0
100
AcDbText
  0
TEXT
  5
3E2
100
AcDbEntity
  8
SCHEME_DIMS
100
AcDbText
 62
2
  6
CONTINUOUS
 10
8.2506568508
 20
9.0921877653
  7
STANDARD
 40
0.1
  1
1.26
 41
1.0
 72
0
100
AcDbText
  0
TEXT
  5
3E3
100
AcDbEntity
  8
SCHEME_DIMS
100
AcDbText
 62
2
  6
CONTINUOUS
 10
8.1506568508
 20
9.0921877653
  7
STANDARD
 40
0.1
  1
[
 41
1.0
 72
0
100
AcDbText
  0
TEXT
  5
3E4
100
AcDbEntity
  8
SCHEME_DIMS
100
AcDbText
 62
2
  6
CONTINUOUS
 10
8.6506568508
 20
9.0921877653
  7
STANDARD
 40
0.1
  1
]
 41
1.0
 72
0
100
AcDbText
  0
LINE
  5
3E5
100
AcDbEntity
  8
SCHEME_DIMS
100
AcDbLine
 62
2
  6
CONTINUOUS
 10
7.8186568508
 20
8.8546877653
 11
7.8186568508
 21
9.4171877653
  0
LINE
  5
3E6
100
AcDbEntity
  8
SCHEME_DIMS
100
AcDbLine
 62
2
  6
CONTINUOUS
 10
9.0826568508
 20
8.8546877653
 11
9.0826568508
 21
9.4171877653
  0
LINE
  5
3E7
100
AcDbEntity
  8
SCHEME_DIMS
100
AcDbLine
 62
2
  6
CONTINUOUS
 10
7.8186568508
 20
9.2921877653
 11
7.4186568508
 21
9.2921877653
  0
LINE
  5
3E8
100
AcDbEntity
  8
SCHEME_DIMS
100
AcDbLine
 62
2
  6
CONTINUOUS
 10
9.0826568508
 20
9.2921877653
 11
9.4826568508
 21
9.2921877653
  0
INSERT
  5
3E9
100
AcDbEntity
  8
SCHEME_DIMS
100
AcDbBlockReference
 62
2
  6
CONTINUOUS
  2
_FILLED
 10
7.8186568508
 20
9.2921877653
 41
0.1875
 42
0.1875
 43
0.1875
  0
INSERT
  5
3EA
100
AcDbEntity
  8
SCHEME_DIMS
100
AcDbBlockReference
 62
2
  6
CONTINUOUS
  2
_FILLED
 10
9.0826568508
 20
9.2921877653
 41
0.1875
 42
0.1875
 43
0.1875
 50
180.0
  0
ENDBLK
  5
3EB
100
AcDbEntity
  8
0
  6
BYBLOCK
 62
0
100
AcDbBlockEnd
  0
BLOCK
  5
3EC
100
AcDbEntity
  8
SCHEME_DIMS
100
AcDbBlockBegin
 62
2
  6
CONTINUOUS
  2
*D1
 70
65
 10
0.0
 20
0.0
  3
*D1
  1

  0
TEXT
  5
3ED
100
AcDbEntity
  8
SCHEME_DIMS
100
AcDbText
 62
2
  6
CONTINUOUS
 10
7.0186568508
 20
8.0074687415
  7
STANDARD
 40
0.1
  1
41,1
 41
1.0
 72
0
100
AcDbText
  0
TEXT
  5
3EE
100
AcDbEntity
  8
SCHEME_DIMS
100
AcDbText
 62
2
  6
CONTINUOUS
 10
7.1186568508
 20
7.8574687415
  7
STANDARD
 40
0.1
  1
1.62
 41
1.0
 72
0
100
AcDbText
  0
TEXT
  5
3EF
100
AcDbEntity
  8
SCHEME_DIMS
100
AcDbText
 62
2
  6
CONTINUOUS
 10
7.0186568508
 20
7.8574687415
  7
STANDARD
 40
0.1
  1
[
 41
1.0
 72
0
100
AcDbText
  0
TEXT
  5
3F0
100
AcDbEntity
  8
SCHEME_DIMS
100
AcDbText
 62
2
  6
CONTINUOUS
 10
7.5186568508
 20
7.8574687415
  7
STANDARD
 40
0.1
  1
]
 41
1.0
 72
0
100
AcDbText
  0
LINE
  5
3F1
100
AcDbEntity
  8
SCHEME_DIMS
100
AcDbLine
 62
2
  6
CONTINUOUS
 10
7.7561568508
 20
8.7921877653
 11
7.1936568508
 21
8.7921877653
  0
LINE
  5
3F2
100
AcDbEntity
  8
SCHEME_DIMS
100
AcDbLine
 62
2
  6
CONTINUOUS
 10
8.9714032989
 20
7.1727497176
 11
7.1936568508
 21
7.1727497176
  0
LINE
  5
3F3
100
AcDbEntity
  8
SCHEME_DIMS
100
AcDbLine
 62
2
  6
CONTINUOUS
 10
7.3186568508
 20
8.7921877653
 11
7.3186568508
 21
8.2074687415
  0
LINE
  5
3F4
100
AcDbEntity
  8
SCHEME_DIMS
100
AcDbLine
 62
2
  6
CONTINUOUS
 10
7.3186568508
 20
7.1727497176
 11
7.3186568508
 21
7.7574687415
  0
INSERT
  5
3F5
100
AcDbEntity
  8
SCHEME_DIMS
100
AcDbBlockReference
 62
2
  6
CONTINUOUS
  2
_FILLED
 10
7.3186568508
 20
8.7921877653
 41
0.1875
 42
0.1875
 43
0.1875
 50
90.0
  0
INSERT
  5
3F6
100
AcDbEntity
  8
SCHEME_DIMS
100
AcDbBlockReference
 62
2
  6
CONTINUOUS
  2
_FILLED
 10
7.3186568508
 20
7.1727497176
 41
0.1875
 42
0.1875
 43
0.1875
 50
270.0
  0
ENDBLK
  5
3F7
100
AcDbEntity
  8
0
  6
BYBLOCK
 62
0
100
AcDbBlockEnd
  0
BLOCK
  5
3F8
100
AcDbEntity
  8
SCHEME_DIMS
100
AcDbBlockBegin
 62
2
  6
CONTINUOUS
  2
*D2
 70
65
 10
0.0
 20
0.0
  3
*D2
  1

  0
TEXT
  5
3F9
100
AcDbEntity
  8
SCHEME_DIMS
100
AcDbText
 62
2
  6
CONTINUOUS
 10
7.1756568508
 20
6.0255301125
  7
STANDARD
 40
0.1
  1
17,8
 41
1.0
 72
0
100
AcDbText
  0
TEXT
  5
3FA
100
AcDbEntity
  8
SCHEME_DIMS
100
AcDbText
 62
2
  6
CONTINUOUS
 10
7.2756568508
 20
5.8755301125
  7
STANDARD
 40
0.1
  1
.70
 41
1.0
 72
0
100
AcDbText
  0
TEXT
  5
3FB
100
AcDbEntity
  8
SCHEME_DIMS
100
AcDbText
 62
2
  6
CONTINUOUS
 10
7.1756568508
 20
5.8755301125
  7
STANDARD
 40
0.1
  1
[
 41
1.0
 72
0
100
AcDbText
  0
TEXT
  5
3FC
100
AcDbEntity
  8
SCHEME_DIMS
100
AcDbText
 62
2
  6
CONTINUOUS
 10
7.5756568508
 20
5.8755301125
  7
STANDARD
 40
0.1
  1
]
 41
1.0
 72
0
100
AcDbText
  0
LINE
  5
3FD
100
AcDbEntity
  8
SCHEME_DIMS
100
AcDbLine
 62
2
  6
CONTINUOUS
 10
8.1006568508
 20
5.4830301125
 11
8.1006568508
 21
6.2005301125
  0
LINE
  5
3FE
100
AcDbEntity
  8
SCHEME_DIMS
100
AcDbLine
 62
2
  6
CONTINUOUS
 10
8.8006568508
 20
5.4830301125
 11
8.8006568508
 21
6.2005301125
  0
LINE
  5
3FF
100
AcDbEntity
  8
SCHEME_DIMS
100
AcDbLine
 62
2
  6
CONTINUOUS
 10
8.1006568508
 20
6.0755301125
 11
8.4506568508
 21
6.0755301125
  0
LINE
  5
400
100
AcDbEntity
  8
SCHEME_DIMS
100
AcDbLine
 62
2
  6
CONTINUOUS
 10
8.4506568508
 20
6.0755301125
 11
7.7756568508
 21
6.0755301125
  0
LINE
  5
401
100
AcDbEntity
  8
SCHEME_DIMS
100
AcDbLine
 62
2
  6
CONTINUOUS
 10
8.8006568508
 20
6.0755301125
 11
8.4506568508
 21
6.0755301125
  0
INSERT
  5
402
100
AcDbEntity
  8
SCHEME_DIMS
100
AcDbBlockReference
 62
2
  6
CONTINUOUS
  2
_FILLED
 10
8.1006568508
 20
6.0755301125
 41
0.1875
 42
0.1875
 43
0.1875
 50
180.0
  0
INSERT
  5
403
100
AcDbEntity
  8
SCHEME_DIMS
100
AcDbBlockReference
 62
2
  6
CONTINUOUS
  2
_FILLED
 10
8.8006568508
 20
6.0755301125
 41
0.1875
 42
0.1875
 43
0.1875
  0
ENDBLK
  5
404
100
AcDbEntity
  8
0
  6
BYBLOCK
 62
0
100
AcDbBlockEnd
  0
BLOCK
  5
405
100
AcDbEntity
  8
SCHEME_DIMS
100
AcDbBlockBegin
 62
2
  6
CONTINUOUS
  2
*D3
 70
65
 10
0.0
 20
0.0
  3
*D3
  1

  0
TEXT
  5
406
100
AcDbEntity
  8
SCHEME_DIMS
100
AcDbText
 62
2
  6
CONTINUOUS
 10
7.0186568508
 20
4.6005301125
  7
STANDARD
 40
0.1
  1
31,8
 41
1.0
 72
0
100
AcDbText
  0
TEXT
  5
407
100
AcDbEntity
  8
SCHEME_DIMS
100
AcDbText
 62
2
  6
CONTINUOUS
 10
7.1186568508
 20
4.4505301125
  7
STANDARD
 40
0.1
  1
1.25
 41
1.0
 72
0
100
AcDbText
  0
TEXT
  5
408
100
AcDbEntity
  8
SCHEME_DIMS
100
AcDbText
 62
2
  6
CONTINUOUS
 10
7.0186568508
 20
4.4505301125
  7
STANDARD
 40
0.1
  1
[
 41
1.0
 72
0
100
AcDbText
  0
TEXT
  5
409
100
AcDbEntity
  8
SCHEME_DIMS
100
AcDbText
 62
2
  6
CONTINUOUS
 10
7.5186568508
 20
4.4505301125
  7
STANDARD
 40
0.1
  1
]
 41
1.0
 72
0
100
AcDbText
  0
LINE
  5
40A
100
AcDbEntity
  8
SCHEME_DIMS
100
AcDbLine
 62
2
  6
CONTINUOUS
 10
7.8181568508
 20
5.2005301125
 11
7.1936568508
 21
5.2005301125
  0
LINE
  5
40B
100
AcDbEntity
  8
SCHEME_DIMS
100
AcDbLine
 62
2
  6
CONTINUOUS
 10
7.9181568508
 20
3.9505301125
 11
7.1936568508
 21
3.9505301125
  0
LINE
  5
40C
100
AcDbEntity
  8
SCHEME_DIMS
100
AcDbLine
 62
2
  6
CONTINUOUS
 10
7.3186568508
 20
5.2005301125
 11
7.3186568508
 21
4.8005301125
  0
LINE
  5
40D
100
AcDbEntity
  8
SCHEME_DIMS
100
AcDbLine
 62
2
  6
CONTINUOUS
 10
7.3186568508
 20
3.9505301125
 11
7.3186568508
 21
4.3505301125
  0
INSERT
  5
40E
100
AcDbEntity
  8
SCHEME_DIMS
100
AcDbBlockReference
 62
2
  6
CONTINUOUS
  2
_FILLED
 10
7.3186568508
 20
5.2005301125
 41
0.1875
 42
0.1875
 43
0.1875
 50
90.0
  0
INSERT
  5
40F
100
AcDbEntity
  8
SCHEME_DIMS
100
AcDbBlockReference
 62
2
  6
CONTINUOUS
  2
_FILLED
 10
7.3186568508
 20
3.9505301125
 41
0.1875
 42
0.1875
 43
0.1875
 50
270.0
  0
ENDBLK
  5
410
100
AcDbEntity
  8
0
  6
BYBLOCK
 62
0
100
AcDbBlockEnd
  0
BLOCK
  5
411
100
AcDbEntity
  8
SCHEME_DIMS
100
AcDbBlockBegin
 62
2
  6
CONTINUOUS
  2
*D4
 70
65
 10
0.0
 20
0.0
  3
*D4
  1

  0
TEXT
  5
412
100
AcDbEntity
  8
SCHEME_DIMS
100
AcDbText
 62
2
  6
CONTINUOUS
 10
4.7528492277
 20
4.1005301125
  7
STANDARD
 40
0.1
  1
25,4
 41
1.0
 72
0
100
AcDbText
  0
TEXT
  5
413
100
AcDbEntity
  8
SCHEME_DIMS
100
AcDbText
 62
2
  6
CONTINUOUS
 10
4.8528492277
 20
3.9505301125
  7
STANDARD
 40
0.1
  1
1.00
 41
1.0
 72
0
100
AcDbText
  0
TEXT
  5
414
100
AcDbEntity
  8
SCHEME_DIMS
100
AcDbText
 62
2
  6
CONTINUOUS
 10
4.7528492277
 20
3.9505301125
  7
STANDARD
 40
0.1
  1
[
 41
1.0
 72
0
100
AcDbText
  0
TEXT
  5
415
100
AcDbEntity
  8
SCHEME_DIMS
100
AcDbText
 62
2
  6
CONTINUOUS
 10
5.2528492277
 20
3.9505301125
  7
STANDARD
 40
0.1
  1
]
 41
1.0
 72
0
100
AcDbText
  0
LINE
  5
416
100
AcDbEntity
  8
SCHEME_DIMS
100
AcDbLine
 62
2
  6
CONTINUOUS
 10
4.5943492277
 20
3.5755301125
 11
5.1778492277
 21
3.5755301125
  0
LINE
  5
417
100
AcDbEntity
  8
SCHEME_DIMS
100
AcDbLine
 62
2
  6
CONTINUOUS
 10
4.4480230557
 20
4.5755301125
 11
5.1778492277
 21
4.5755301125
  0
LINE
  5
418
100
AcDbEntity
  8
SCHEME_DIMS
100
AcDbLine
 62
2
  6
CONTINUOUS
 10
5.0528492277
 20
3.5755301125
 11
5.0528492277
 21
3.8505301125
  0
LINE
  5
419
100
AcDbEntity
  8
SCHEME_DIMS
100
AcDbLine
 62
2
  6
CONTINUOUS
 10
5.0528492277
 20
4.5755301125
 11
5.0528492277
 21
4.3005301125
  0
INSERT
  5
41A
100
AcDbEntity
  8
SCHEME_DIMS
100
AcDbBlockReference
 62
2
  6
CONTINUOUS
  2
_FILLED
 10
5.0528492277
 20
3.5755301125
 41
0.1875
 42
0.1875
 43
0.1875
 50
270.0
  0
INSERT
  5
41B
100
AcDbEntity
  8
SCHEME_DIMS
100
AcDbBlockReference
 62
2
  6
CONTINUOUS
  2
_FILLED
 10
5.0528492277
 20
4.5755301125
 41
0.1875
 42
0.1875
 43
0.1875
 50
90.0
  0
ENDBLK
  5
41C
100
AcDbEntity
  8
0
  6
BYBLOCK
 62
0
100
AcDbBlockEnd
  0
BLOCK
  5
41D
100
AcDbEntity
  8
SCHEME_DIMS
100
AcDbBlockBegin
 62
2
  6
CONTINUOUS
  2
*D5
 70
65
 10
0.0
 20
0.0
  3
*D5
  1

  0
TEXT
  5
41E
100
AcDbEntity
  8
SCHEME_DIMS
100
AcDbText
 62
2
  6
CONTINUOUS
 10
2.705873081
 20
6.0255301125
  7
STANDARD
 40
0.1
  1
14
 41
1.0
 72
0
100
AcDbText
  0
TEXT
  5
41F
100
AcDbEntity
  8
SCHEME_DIMS
100
AcDbText
 62
2
  6
CONTINUOUS
 10
2.805873081
 20
5.8755301125
  7
STANDARD
 40
0.1
  1
.55
 41
1.0
 72
0
100
AcDbText
  0
TEXT
  5
420
100
AcDbEntity
  8
SCHEME_DIMS
100
AcDbText
 62
2
  6
CONTINUOUS
 10
2.705873081
 20
5.8755301125
  7
STANDARD
 40
0.1
  1
[
 41
1.0
 72
0
100
AcDbText
  0
TEXT
  5
421
100
AcDbEntity
  8
SCHEME_DIMS
100
AcDbText
 62
2
  6
CONTINUOUS
 10
3.105873081
 20
5.8755301125
  7
STANDARD
 40
0.1
  1
]
 41
1.0
 72
0
100
AcDbText
  0
LINE
  5
422
100
AcDbEntity
  8
SCHEME_DIMS
100
AcDbLine
 62
2
  6
CONTINUOUS
 10
4.1830230557
 20
4.8405301125
 11
4.1830230557
 21
6.2005301125
  0
LINE
  5
423
100
AcDbEntity
  8
SCHEME_DIMS
100
AcDbLine
 62
2
  6
CONTINUOUS
 10
3.630873081
 20
4.8205301125
 11
3.630873081
 21
6.2005301125
  0
LINE
  5
424
100
AcDbEntity
  8
SCHEME_DIMS
100
AcDbLine
 62
2
  6
CONTINUOUS
 10
4.1830230557
 20
6.0755301125
 11
3.9069480684
 21
6.0755301125
  0
LINE
  5
425
100
AcDbEntity
  8
SCHEME_DIMS
100
AcDbLine
 62
2
  6
CONTINUOUS
 10
3.630873081
 20
6.0755301125
 11
3.9069480684
 21
6.0755301125
  0
LINE
  5
426
100
AcDbEntity
  8
SCHEME_DIMS
100
AcDbLine
 62
2
  6
CONTINUOUS
 10
3.9069480684
 20
6.0755301125
 11
3.305873081
 21
6.0755301125
  0
INSERT
  5
427
100
AcDbEntity
  8
SCHEME_DIMS
100
AcDbBlockReference
 62
2
  6
CONTINUOUS
  2
_FILLED
 10
4.1830230557
 20
6.0755301125
 41
0.1875
 42
0.1875
 43
0.1875
  0
INSERT
  5
428
100
AcDbEntity
  8
SCHEME_DIMS
100
AcDbBlockReference
 62
2
  6
CONTINUOUS
  2
_FILLED
 10
3.630873081
 20
6.0755301125
 41
0.1875
 42
0.1875
 43
0.1875
 50
180.0
  0
ENDBLK
  5
429
100
AcDbEntity
  8
0
  6
BYBLOCK
 62
0
100
AcDbBlockEnd
  0
BLOCK
  5
42A
100
AcDbEntity
  8
SCHEME_DIMS
100
AcDbBlockBegin
 62
2
  6
CONTINUOUS
  2
*D6
 70
65
 10
0.0
 20
0.0
  3
*D6
  1

  0
TEXT
  5
42B
100
AcDbEntity
  8
SCHEME_DIMS
100
AcDbText
 62
2
  6
CONTINUOUS
 10
9.2826568508
 20
4.6005301125
  7
STANDARD
 40
0.1
  1
50,8
 41
1.0
 72
0
100
AcDbText
  0
TEXT
  5
42C
100
AcDbEntity
  8
SCHEME_DIMS
100
AcDbText
 62
2
  6
CONTINUOUS
 10
9.3826568508
 20
4.4505301125
  7
STANDARD
 40
0.1
  1
2.00
 41
1.0
 72
0
100
AcDbText
  0
TEXT
  5
42D
100
AcDbEntity
  8
SCHEME_DIMS
100
AcDbText
 62
2
  6
CONTINUOUS
 10
9.2826568508
 20
4.4505301125
  7
STANDARD
 40
0.1
  1
[
 41
1.0
 72
0
100
AcDbText
  0
TEXT
  5
42E
100
AcDbEntity
  8
SCHEME_DIMS
100
AcDbText
 62
2
  6
CONTINUOUS
 10
9.7826568508
 20
4.4505301125
  7
STANDARD
 40
0.1
  1
]
 41
1.0
 72
0
100
AcDbText
  0
LINE
  5
42F
100
AcDbEntity
  8
SCHEME_DIMS
100
AcDbLine
 62
2
  6
CONTINUOUS
 10
9.1451568508
 20
3.5755301125
 11
9.7076568508
 21
3.5755301125
  0
LINE
  5
430
100
AcDbEntity
  8
SCHEME_DIMS
100
AcDbLine
 62
2
  6
CONTINUOUS
 10
9.1451568508
 20
5.5755301125
 11
9.7076568508
 21
5.5755301125
  0
LINE
  5
431
100
AcDbEntity
  8
SCHEME_DIMS
100
AcDbLine
 62
2
  6
CONTINUOUS
 10
9.5826568508
 20
3.5755301125
 11
9.5826568508
 21
4.3505301125
  0
LINE
  5
432
100
AcDbEntity
  8
SCHEME_DIMS
100
AcDbLine
 62
2
  6
CONTINUOUS
 10
9.5826568508
 20
5.5755301125
 11
9.5826568508
 21
4.8005301125
  0
INSERT
  5
433
100
AcDbEntity
  8
SCHEME_DIMS
100
AcDbBlockReference
 62
2
  6
CONTINUOUS
  2
_FILLED
 10
9.5826568508
 20
3.5755301125
 41
0.1875
 42
0.1875
 43
0.1875
 50
270.0
  0
INSERT
  5
434
100
AcDbEntity
  8
SCHEME_DIMS
100
AcDbBlockReference
 62
2
  6
CONTINUOUS
  2
_FILLED
 10
9.5826568508
 20
5.5755301125
 41
0.1875
 42
0.1875
 43
0.1875
 50
90.0
  0
ENDBLK
  5
435
100
AcDbEntity
  8
0
  6
BYBLOCK
 62
0
100
AcDbBlockEnd
  0
BLOCK
  5
436
100
AcDbEntity
  8
SCHEME_DIMS
100
AcDbBlockBegin
 62
2
  6
CONTINUOUS
  2
*D7
 70
65
 10
0.0
 20
0.0
  3
*D7
  1

  0
TEXT
  5
437
100
AcDbEntity
  8
SCHEME_DIMS
100
AcDbText
 62
2
  6
CONTINUOUS
 10
5.1626579974
 20
5.2242899231
  7
STANDARD
 40
0.1
  1
%%c
 41
1.3333333333
 72
0
100
AcDbText
  0
TEXT
  5
438
100
AcDbEntity
  8
SCHEME_DIMS
100
AcDbText
 62
2
  6
CONTINUOUS
 10
5.2959913307
 20
5.2242899231
  7
STANDARD
 40
0.1
  1
5,2
 41
1.0
 72
0
100
AcDbText
  0
TEXT
  5
439
100
AcDbEntity
  8
SCHEME_DIMS
100
AcDbText
 62
2
  6
CONTINUOUS
 10
5.3959913307
 20
5.0742899231
  7
STANDARD
 40
0.1
  1
.21
 41
1.0
 72
0
100
AcDbText
  0
TEXT
  5
43A
100
AcDbEntity
  8
SCHEME_DIMS
100
AcDbText
 62
2
  6
CONTINUOUS
 10
5.2959913307
 20
5.0742899231
  7
STANDARD
 40
0.1
  1
[
 41
1.0
 72
0
100
AcDbText
  0
TEXT
  5
43B
100
AcDbEntity
  8
SCHEME_DIMS
100
AcDbText
 62
2
  6
CONTINUOUS
 10
5.6959913307
 20
5.0742899231
  7
STANDARD
 40
0.1
  1
]
 41
1.0
 72
0
100
AcDbText
  0
LINE
  5
43C
100
AcDbEntity
  8
SCHEME_DIMS
100
AcDbLine
 62
2
  6
CONTINUOUS
 10
4.25705085
 20
4.6464253569
 11
4.9126579974
 21
5.2742899231
  0
LINE
  5
43D
100
AcDbEntity
  8
SCHEME_DIMS
100
AcDbLine
 62
2
  6
CONTINUOUS
 10
4.9126579974
 20
5.2742899231
 11
5.0626579974
 21
5.2742899231
  0
INSERT
  5
43E
100
AcDbEntity
  8
SCHEME_DIMS
100
AcDbBlockReference
 62
2
  6
CONTINUOUS
  2
_FILLED
 10
4.25705085
 20
4.6464253569
 41
0.1875
 42
0.1875
 43
0.1875
 50
223.7617293679
  0
ENDBLK
  5
43F
100
AcDbEntity
  8
0
  6
BYBLOCK
 62
0
100
AcDbBlockEnd
  0
BLOCK
  5
440
100
AcDbEntity
  8
SCHEME_DIMS
100
AcDbBlockBegin
 62
2
  6
CONTINUOUS
  2
*D8
 70
65
 10
0.0
 20
0.0
  3
*D8
  1

  0
TEXT
  5
441
100
AcDbEntity
  8
SCHEME_DIMS
100
AcDbText
 62
2
  6
CONTINUOUS
 10
1.8372506215
 20
5.2262655194
  7
STANDARD
 40
0.1
  1
%%c
 41
1.3333333333
 72
0
100
AcDbText
  0
TEXT
  5
442
100
AcDbEntity
  8
SCHEME_DIMS
100
AcDbText
 62
2
  6
CONTINUOUS
 10
1.9705839548
 20
5.2262655194
  7
STANDARD
 40
0.1
  1
4,2
 41
1.0
 72
0
100
AcDbText
  0
TEXT
  5
443
100
AcDbEntity
  8
SCHEME_DIMS
100
AcDbText
 62
2
  6
CONTINUOUS
 10
2.0705839548
 20
5.0762655194
  7
STANDARD
 40
0.1
  1
.17
 41
1.0
 72
0
100
AcDbText
  0
TEXT
  5
444
100
AcDbEntity
  8
SCHEME_DIMS
100
AcDbText
 62
2
  6
CONTINUOUS
 10
1.9705839548
 20
5.0762655194
  7
STANDARD
 40
0.1
  1
[
 41
1.0
 72
0
100
AcDbText
  0
TEXT
  5
445
100
AcDbEntity
  8
SCHEME_DIMS
100
AcDbText
 62
2
  6
CONTINUOUS
 10
2.3705839548
 20
5.0762655194
  7
STANDARD
 40
0.1
  1
]
 41
1.0
 72
0
100
AcDbText
  0
LINE
  5
446
100
AcDbEntity
  8
SCHEME_DIMS
100
AcDbLine
 62
2
  6
CONTINUOUS
 10
3.5654994107
 20
4.6258543932
 11
2.7205839548
 21
5.2762655194
  0
LINE
  5
447
100
AcDbEntity
  8
SCHEME_DIMS
100
AcDbLine
 62
2
  6
CONTINUOUS
 10
2.7205839548
 20
5.2762655194
 11
2.5705839548
 21
5.2762655194
  0
INSERT
  5
448
100
AcDbEntity
  8
SCHEME_DIMS
100
AcDbBlockReference
 62
2
  6
CONTINUOUS
  2
_FILLED
 10
3.5654994107
 20
4.6258543932
 41
0.1875
 42
0.1875
 43
0.1875
 50
322.4111274762
  0
ENDBLK
  5
449
100
AcDbEntity
  8
0
  6
BYBLOCK
 62
0
100
AcDbBlockEnd
  0
BLOCK
  5
44A
100
AcDbEntity
  8
SCHEME_DIMS
100
AcDbBlockBegin
 62
2
  6
CONTINUOUS
  2
*D9
 70
65
 10
0.0
 20
0.0
  3
*D9
  1

  0
TEXT
  5
44B
100
AcDbEntity
  8
SCHEME_DIMS
100
AcDbText
 62
2
  6
CONTINUOUS
 10
7.2756568508
 20
3.0255301125
  7
STANDARD
 40
0.1
  1
12,7
 41
1.0
 72
0
100
AcDbText
  0
TEXT
  5
44C
100
AcDbEntity
  8
SCHEME_DIMS
100
AcDbText
 62
2
  6
CONTINUOUS
 10
7.3756568508
 20
2.8755301125
  7
STANDARD
 40
0.1
  1
.50
 41
1.0
 72
0
100
AcDbText
  0
TEXT
  5
44D
100
AcDbEntity
  8
SCHEME_DIMS
100
AcDbText
 62
2
  6
CONTINUOUS
 10
7.2756568508
 20
2.8755301125
  7
STANDARD
 40
0.1
  1
[
 41
1.0
 72
0
100
AcDbText
  0
TEXT
  5
44E
100
AcDbEntity
  8
SCHEME_DIMS
100
AcDbText
 62
2
  6
CONTINUOUS
 10
7.6756568508
 20
2.8755301125
  7
STANDARD
 40
0.1
  1
]
 41
1.0
 72
0
100
AcDbText
  0
LINE
  5
44F
100
AcDbEntity
  8
SCHEME_DIMS
100
AcDbLine
 62
2
  6
CONTINUOUS
 10
8.2006568508
 20
3.6680301125
 11
8.2006568508
 21
2.9505301125
  0
LINE
  5
450
100
AcDbEntity
  8
SCHEME_DIMS
100
AcDbLine
 62
2
  6
CONTINUOUS
 10
8.7006568508
 20
3.6680301125
 11
8.7006568508
 21
2.9505301125
  0
LINE
  5
451
100
AcDbEntity
  8
SCHEME_DIMS
100
AcDbLine
 62
2
  6
CONTINUOUS
 10
8.2006568508
 20
3.0755301125
 11
8.4506568508
 21
3.0755301125
  0
LINE
  5
452
100
AcDbEntity
  8
SCHEME_DIMS
100
AcDbLine
 62
2
  6
CONTINUOUS
 10
8.4506568508
 20
3.0755301125
 11
7.8756568508
 21
3.0755301125
  0
LINE
  5
453
100
AcDbEntity
  8
SCHEME_DIMS
100
AcDbLine
 62
2
  6
CONTINUOUS
 10
8.7006568508
 20
3.0755301125
 11
8.4506568508
 21
3.0755301125
  0
INSERT
  5
454
100
AcDbEntity
  8
SCHEME_DIMS
100
AcDbBlockReference
 62
2
  6
CONTINUOUS
  2
_FILLED
 10
8.2006568508
 20
3.0755301125
 41
0.1875
 42
0.1875
 43
0.1875
 50
180.0
  0
INSERT
  5
455
100
AcDbEntity
  8
SCHEME_DIMS
100
AcDbBlockReference
 62
2
  6
CONTINUOUS
  2
_FILLED
 10
8.7006568508
 20
3.0755301125
 41
0.1875
 42
0.1875
 43
0.1875
  0
ENDBLK
  5
456
100
AcDbEntity
  8
0
  6
BYBLOCK
 62
0
100
AcDbBlockEnd
  0
BLOCK
  5
457
100
AcDbEntity
  8
0
100
AcDbBlockBegin
  2
_FILLED
 70
64
 10
0.0
 20
0.0
  3
_FILLED
  1

  0
SOLID
  5
458
100
AcDbEntity
  8
0
  6
BYBLOCK
 62
0
100
AcDbTrace
 10
0.0
 20
0.0
 11
-1.0
 21
0.1666666667
 12
-1.0
 22
-0.1666666667
 13
-1.0
 23
-0.1666666667
  0
ENDBLK
  5
459
100
AcDbEntity
  8
0
  6
BYBLOCK
 62
0
100
AcDbBlockEnd
  0
ENDSEC
  0
SECTION
  2
ENTITIES
  0
TEXT
  5
45A
100
AcDbEntity
  8
0
100
AcDbText
 62
2
  6
CONTINUOUS
 10
10.1487658475
 20
1.694867839
  7
STANDARD
 40
0.1
  1
%%uTHIRD ANGLE PROJECTION
 41
0.8
 72
1
 11
11.0287658475
 21
1.694867839
100
AcDbText
  0
TEXT
  5
45B
100
AcDbEntity
  8
0
100
AcDbText
 62
2
  6
CONTINUOUS
 10
12.88
 20
1.377
  7
STANDARD
 40
0.08
  1
DRAWING NO.
 41
1.0
 72
0
100
AcDbText
  0
TEXT
  5
45C
100
AcDbEntity
  8
0
100
AcDbText
 62
2
  6
CONTINUOUS
 10
10.044
 20
2.436432
  7
STANDARD
 40
0.08
  1
and is proprietary in general
 41
0.85
 72
1
 11
11.03
 21
2.436432
100
AcDbText
  0
TEXT
  5
45D
100
AcDbEntity
  8
0
100
AcDbText
 62
2
  6
CONTINUOUS
 10
10.078
 20
2.316432
  7
STANDARD
 40
0.08
  1
and in detail.  Its contents
 41
0.85
 72
1
 11
11.03
 21
2.316432
100
AcDbText
  0
TEXT
  5
45E
100
AcDbEntity
  8
0
100
AcDbText
 62
2
  6
CONTINUOUS
 10
10.214
 20
2.196432
  7
STANDARD
 40
0.08
  1
shall not be revealed to
 41
0.85
 72
1
 11
11.03
 21
2.196432
100
AcDbText
  0
TEXT
  5
45F
100
AcDbEntity
  8
0
100
AcDbText
 62
2
  6
CONTINUOUS
 10
10.248
 20
2.076432
  7
STANDARD
 40
0.08
  1
outside parties without
 41
0.85
 72
1
 11
11.03
 21
2.076432
100
AcDbText
  0
TEXT
  5
460
100
AcDbEntity
  8
0
100
AcDbText
 62
2
  6
CONTINUOUS
 10
10.146
 20
1.956432
  7
STANDARD
 40
0.08
  1
written consent of BANNER.
 41
0.85
 72
1
 11
11.03
 21
1.956432
100
AcDbText
  0
TEXT
  5
461
100
AcDbEntity
  8
0
100
AcDbText
 62
2
  6
CONTINUOUS
 10
12.08
 20
2.117
  7
STANDARD
 40
0.1
  1
TITLE
 41
0.8
 72
0
100
AcDbText
  0
TEXT
  5
462
100
AcDbEntity
  8
0
100
AcDbText
 62
2
  6
CONTINUOUS
 10
12.08
 20
1.377
  7
STANDARD
 40
0.08
  1
SIZE
 41
1.0
 72
0
100
AcDbText
  0
TEXT
  5
463
100
AcDbEntity
  8
0
100
AcDbText
 62
2
  6
CONTINUOUS
 10
12.08
 20
1.007
  7
STANDARD
 40
0.08
  1
SCALE
 41
1.0
 72
0
100
AcDbText
  0
TEXT
  5
464
100
AcDbEntity
  8
0
100
AcDbText
 62
2
  6
CONTINUOUS
 10
12.46
 20
1.237
  7
STANDARD
 40
0.1
  1
B
 41
0.8
 72
1
 11
12.5
 21
1.237
100
AcDbText
  0
TEXT
  5
465
100
AcDbEntity
  8
0
100
AcDbText
 62
2
  6
CONTINUOUS
 10
10.112
 20
2.556432
  7
STANDARD
 40
0.08
  1
of BANNER ENGINEERING CORP.
 41
0.85
 72
1
 11
11.03
 21
2.556432
100
AcDbText
  0
TEXT
  5
466
100
AcDbEntity
  8
0
100
AcDbText
 62
2
  6
CONTINUOUS
 10
10.078
 20
2.676432
  7
STANDARD
 40
0.08
  1
This drawing is the property
 41
0.85
 72
1
 11
11.03
 21
2.676432
100
AcDbText
  0
TEXT
  5
467
100
AcDbEntity
  8
0
100
AcDbText
 62
2
  6
CONTINUOUS
 10
14.19
 20
2.3134
  7
STANDARD
 40
0.1
  1
MINNEAPOLIS, MN 55440
 41
0.8
 72
1
 11
15.03
 21
2.3134
100
AcDbText
  0
TEXT
  5
468
100
AcDbEntity
  8
0
100
AcDbText
 62
2
  6
CONTINUOUS
 10
14.255
 20
1.007
  7
STANDARD
 40
0.08
  1
SHEET
 41
1.0
 72
0
100
AcDbText
  0
TEXT
  5
469
100
AcDbEntity
  8
0
100
AcDbText
 62
2
  6
CONTINUOUS
 10
15.63
 20
1.377
  7
STANDARD
 40
0.08
  1
REV.
 41
1.0
 72
0
100
AcDbText
  0
TEXT
  5
46A
100
AcDbEntity
  8
0
100
AcDbText
 62
2
  6
CONTINUOUS
 10
16.03
 20
0.765443
  7
STANDARD
 40
0.07
  1
PRO/E
 41
1.0
 72
2
 11
16.38
 21
0.765443
100
AcDbText
  0
TEXT
  5
46B
100
AcDbEntity
  8
0
100
AcDbText
 62
2
  6
CONTINUOUS
 10
13.7052
 20
2.631049
  7
STANDARD
 40
0.12
  1
BANNER ENGINEERING CORP.
 41
0.92
 72
1
 11
15.03
 21
2.631049
100
AcDbText
  0
TEXT
  5
46C
100
AcDbEntity
  8
0
100
AcDbText
 62
2
  6
CONTINUOUS
 10
14.51
 20
2.4724
  7
STANDARD
 40
0.1
  1
P.O. BOX 9414
 41
0.8
 72
1
 11
15.03
 21
2.4724
100
AcDbText
  0
TEXT
  5
46D
100
AcDbEntity
  8
0
100
AcDbText
 62
2
  6
CONTINUOUS
 10
9.445
 20
10.212
  7
STANDARD
 40
0.1
  1
4
 41
0.8
 72
1
 11
9.485
 21
10.212
100
AcDbText
  0
TEXT
  5
46E
100
AcDbEntity
  8
0
100
AcDbText
 62
2
  6
CONTINUOUS
 10
11.415
 20
10.212
  7
STANDARD
 40
0.1
  1
3
 41
0.8
 72
1
 11
11.455
 21
10.212
100
AcDbText
  0
TEXT
  5
46F
100
AcDbEntity
  8
0
100
AcDbText
 62
2
  6
CONTINUOUS
 10
13.385
 20
10.212
  7
STANDARD
 40
0.1
  1
2
 41
0.8
 72
1
 11
13.425
 21
10.212
100
AcDbText
  0
TEXT
  5
470
100
AcDbEntity
  8
0
100
AcDbText
 62
2
  6
CONTINUOUS
 10
15.355
 20
10.212
  7
STANDARD
 40
0.1
  1
1
 41
0.8
 72
1
 11
15.395
 21
10.212
100
AcDbText
  0
TEXT
  5
471
100
AcDbEntity
  8
0
100
AcDbText
 62
2
  6
CONTINUOUS
 10
3.535
 20
10.212
  7
STANDARD
 40
0.1
  1
7
 41
0.8
 72
1
 11
3.575
 21
10.212
100
AcDbText
  0
TEXT
  5
472
100
AcDbEntity
  8
0
100
AcDbText
 62
2
  6
CONTINUOUS
 10
5.505
 20
10.212
  7
STANDARD
 40
0.1
  1
6
 41
0.8
 72
1
 11
5.545
 21
10.212
100
AcDbText
  0
TEXT
  5
473
100
AcDbEntity
  8
0
100
AcDbText
 62
2
  6
CONTINUOUS
 10
7.475
 20
10.212
  7
STANDARD
 40
0.1
  1
5
 41
0.8
 72
1
 11
7.515
 21
10.212
100
AcDbText
  0
TEXT
  5
474
100
AcDbEntity
  8
0
100
AcDbText
 62
2
  6
CONTINUOUS
 10
1.565
 20
10.212
  7
STANDARD
 40
0.1
  1
8
 41
0.8
 72
1
 11
1.605
 21
10.212
100
AcDbText
  0
TEXT
  5
475
100
AcDbEntity
  8
0
100
AcDbText
 62
2
  6
CONTINUOUS
 10
1.565
 20
0.687
  7
STANDARD
 40
0.1
  1
8
 41
0.8
 72
1
 11
1.605
 21
0.687
100
AcDbText
  0
TEXT
  5
476
100
AcDbEntity
  8
0
100
AcDbText
 62
2
  6
CONTINUOUS
 10
3.535
 20
0.687
  7
STANDARD
 40
0.1
  1
7
 41
0.8
 72
1
 11
3.575
 21
0.687
100
AcDbText
  0
TEXT
  5
477
100
AcDbEntity
  8
0
100
AcDbText
 62
2
  6
CONTINUOUS
 10
5.505
 20
0.687
  7
STANDARD
 40
0.1
  1
6
 41
0.8
 72
1
 11
5.545
 21
0.687
100
AcDbText
  0
TEXT
  5
478
100
AcDbEntity
  8
0
100
AcDbText
 62
2
  6
CONTINUOUS
 10
7.475
 20
0.687
  7
STANDARD
 40
0.1
  1
5
 41
0.8
 72
1
 11
7.515
 21
0.687
100
AcDbText
  0
TEXT
  5
479
100
AcDbEntity
  8
0
100
AcDbText
 62
2
  6
CONTINUOUS
 10
9.445
 20
0.687
  7
STANDARD
 40
0.1
  1
4
 41
0.8
 72
1
 11
9.485
 21
0.687
100
AcDbText
  0
TEXT
  5
47A
100
AcDbEntity
  8
0
100
AcDbText
 62
2
  6
CONTINUOUS
 10
11.415
 20
0.687
  7
STANDARD
 40
0.1
  1
3
 41
0.8
 72
1
 11
11.455
 21
0.687
100
AcDbText
  0
TEXT
  5
47B
100
AcDbEntity
  8
0
100
AcDbText
 62
2
  6
CONTINUOUS
 10
13.385
 20
0.687
  7
STANDARD
 40
0.1
  1
2
 41
0.8
 72
1
 11
13.425
 21
0.687
100
AcDbText
  0
TEXT
  5
47C
100
AcDbEntity
  8
0
100
AcDbText
 62
2
  6
CONTINUOUS
 10
15.355
 20
0.687
  7
STANDARD
 40
0.1
  1
1
 41
0.8
 72
1
 11
15.395
 21
0.687
100
AcDbText
  0
TEXT
  5
47D
100
AcDbEntity
  8
0
100
AcDbText
 62
2
  6
CONTINUOUS
 10
0.44
 20
4.2995
  7
STANDARD
 40
0.1
  1
B
 41
0.8
 72
2
 11
0.52
 21
4.2995
100
AcDbText
  0
TEXT
  5
47E
100
AcDbEntity
  8
0
100
AcDbText
 62
2
  6
CONTINUOUS
 10
0.44
 20
1.9995
  7
STANDARD
 40
0.1
  1
A
 41
0.8
 72
2
 11
0.52
 21
1.9995
100
AcDbText
  0
TEXT
  5
47F
100
AcDbEntity
  8
0
100
AcDbText
 62
2
  6
CONTINUOUS
 10
0.44
 20
8.8995
  7
STANDARD
 40
0.1
  1
D
 41
0.8
 72
2
 11
0.52
 21
8.8995
100
AcDbText
  0
TEXT
  5
480
100
AcDbEntity
  8
0
100
AcDbText
 62
2
  6
CONTINUOUS
 10
0.44
 20
6.5995
  7
STANDARD
 40
0.1
  1
C
 41
0.8
 72
2
 11
0.52
 21
6.5995
100
AcDbText
  0
TEXT
  5
481
100
AcDbEntity
  8
0
100
AcDbText
 62
2
  6
CONTINUOUS
 10
16.48
 20
8.8995
  7
STANDARD
 40
0.1
  1
D
 41
0.8
 72
0
100
AcDbText
  0
TEXT
  5
482
100
AcDbEntity
  8
0
100
AcDbText
 62
2
  6
CONTINUOUS
 10
16.48
 20
6.5995
  7
STANDARD
 40
0.1
  1
C
 41
0.8
 72
0
100
AcDbText
  0
TEXT
  5
483
100
AcDbEntity
  8
0
100
AcDbText
 62
2
  6
CONTINUOUS
 10
16.48
 20
4.2995
  7
STANDARD
 40
0.1
  1
B
 41
0.8
 72
0
100
AcDbText
  0
TEXT
  5
484
100
AcDbEntity
  8
0
100
AcDbText
 62
2
  6
CONTINUOUS
 10
16.48
 20
1.9995
  7
STANDARD
 40
0.1
  1
A
 41
0.8
 72
0
100
AcDbText
  0
MTEXT
  5
485
100
AcDbEntity
  8
0
100
AcDbMText
 62
2
  6
CONTINUOUS
  7
STANDARD
 71
1
 72
1
 10
14.819264911
 20
1.0627941725
 30
0.0
 11
1.0
 21
0.0
 31
0.0
  1
1 OF 1
 40
0.1
 41
0.6
  0
TEXT
  5
486
100
AcDbEntity
  8
0
100
AcDbText
 62
7
  6
CONTINUOUS
 10
13.8911999818
 20
1.2547321586
  7
STANDARD
 40
0.12
  1
141830
 41
1.0
 72
0
100
AcDbText
  0
TEXT
  5
487
100
AcDbEntity
  8
0
100
AcDbText
 62
2
  6
CONTINUOUS
 10
12.644264911
 20
0.9627941725
  7
STANDARD
 40
0.1
  1
1:1
 41
1.0
 72
0
100
AcDbText
  0
MTEXT
  5
488
100
AcDbEntity
  8
0
100
AcDbMText
 62
2
  6
CONTINUOUS
  7
STANDARD
 71
1
 72
1
 10
1.0597007627
 20
1.6202922458
 30
0.0
 11
1.0
 21
0.0
 31
0.0
  1
NOTES:\P1. ALL DIMENSIONS ARE MILLIMETERS [INCHES] UNLESS OTHERWISE NOTED.
 40
0.1
 41
6.6
  0
INSERT
  5
489
100
AcDbEntity
  8
0
100
AcDbBlockReference
 62
2
  6
CONTINUOUS
  2
BANNER_LOGO_TITLEBLOCK_BL0
 10
12.9046655056
 20
2.5403783448
  0
DIMENSION
  5
48A
100
AcDbEntity
  8
SCHEME_DIMS
100
AcDbDimension
 62
2
  6
CONTINUOUS
  2
*D0
 10
9.0826568508
 20
9.2921877653
 11
8.4506568508
 21
9.2171877653
 70
160
 42
32.1056
  3
DIMSTYLE_1
100
AcDbAlignedDimension
 13
7.8186568508
 23
8.8546877653
 14
9.0826568508
 24
8.8546877653
100
AcDbRotatedDimension
  0
DIMENSION
  5
48B
100
AcDbEntity
  8
SCHEME_DIMS
100
AcDbDimension
 62
2
  6
CONTINUOUS
  2
*D1
 10
7.3186568508
 20
7.1727497176
 11
7.3186568508
 21
7.9824687415
 70
160
 42
41.1337264122
  3
DIMSTYLE_1
100
AcDbAlignedDimension
 13
7.7561568508
 23
8.7921877653
 14
8.9714032989
 24
7.1727497176
 50
270.0
100
AcDbRotatedDimension
  0
DIMENSION
  5
48C
100
AcDbEntity
  8
SCHEME_DIMS
100
AcDbDimension
 62
2
  6
CONTINUOUS
  2
*D2
 10
8.8006568508
 20
6.0755301125
 11
7.4256568508
 21
6.0005301125
 70
160
 42
17.78
  3
DIMSTYLE_1
100
AcDbAlignedDimension
 13
8.1006568508
 23
5.4830301125
 14
8.8006568508
 24
5.4830301125
100
AcDbRotatedDimension
  0
DIMENSION
  5
48D
100
AcDbEntity
  8
SCHEME_DIMS
100
AcDbDimension
 62
2
  6
CONTINUOUS
  2
*D3
 10
7.3186568508
 20
3.9505301125
 11
7.3186568508
 21
4.5755301125
 70
160
 42
31.75
  3
DIMSTYLE_1
100
AcDbAlignedDimension
 13
7.8181568508
 23
5.2005301125
 14
7.9181568508
 24
3.9505301125
 50
270.0
100
AcDbRotatedDimension
  0
DIMENSION
  5
48E
100
AcDbEntity
  8
SCHEME_DIMS
100
AcDbDimension
 62
2
  6
CONTINUOUS
  2
*D4
 10
5.0528492277
 20
4.5755301125
 11
5.0528492277
 21
4.0755301125
 70
160
 42
25.4
  3
DIMSTYLE_1
100
AcDbAlignedDimension
 13
4.5943492277
 23
3.5755301125
 14
4.4480230557
 24
4.5755301125
 50
90.0
100
AcDbRotatedDimension
  0
DIMENSION
  5
48F
100
AcDbEntity
  8
SCHEME_DIMS
100
AcDbDimension
 62
2
  6
CONTINUOUS
  2
*D5
 10
3.630873081
 20
6.0755301125
 11
2.955873081
 21
6.0005301125
 70
160
 42
14.024609356
  3
DIMSTYLE_1
100
AcDbAlignedDimension
 13
4.1830230557
 23
4.8405301125
 14
3.630873081
 24
4.8205301125
 50
180.0
100
AcDbRotatedDimension
  0
DIMENSION
  5
490
100
AcDbEntity
  8
SCHEME_DIMS
100
AcDbDimension
 62
2
  6
CONTINUOUS
  2
*D6
 10
9.5826568508
 20
5.5755301125
 11
9.5826568508
 21
4.5755301125
 70
160
 42
50.8
  3
DIMSTYLE_1
100
AcDbAlignedDimension
 13
9.1451568508
 23
3.5755301125
 14
9.1451568508
 24
5.5755301125
 50
90.0
100
AcDbRotatedDimension
  0
DIMENSION
  5
491
100
AcDbEntity
  8
SCHEME_DIMS
100
AcDbDimension
 62
2
  6
CONTINUOUS
  2
*D7
 10
4.25705085
 20
4.6464253569
 11
5.4793246641
 21
5.1992899231
 70
163
 42
5.207
  1
<>
  3
DIMSTYLE_2
100
AcDbDiametricDimension
 15
4.1089952614
 25
4.5046348681
  0
DIMENSION
  5
492
100
AcDbEntity
  8
SCHEME_DIMS
100
AcDbDimension
 62
2
  6
CONTINUOUS
  2
*D8
 10
3.5654994107
 20
4.6258543932
 11
2.1539172881
 21
5.2012655194
 70
163
 42
4.191
  1
<>
  3
DIMSTYLE_2
100
AcDbDiametricDimension
 15
3.6962467514
 25
4.5252058318
  0
DIMENSION
  5
493
100
AcDbEntity
  8
SCHEME_DIMS
100
AcDbDimension
 62
2
  6
CONTINUOUS
  2
*D9
 10
8.7006568508
 20
3.0755301125
 11
7.5256568508
 21
3.0005301125
 70
160
 42
12.7
  3
DIMSTYLE_1
100
AcDbAlignedDimension
 13
8.2006568508
 23
3.6680301125
 14
8.7006568508
 24
3.6680301125
100
AcDbRotatedDimension
  0
LINE
  5
494
100
AcDbEntity
  8
0
100
AcDbLine
 62
2
  6
CONTINUOUS
 10
16.38
 20
0.887
 11
12.03
 21
0.887
  0
LINE
  5
495
100
AcDbEntity
  8
0
100
AcDbLine
 62
2
  6
CONTINUOUS
 10
16.38
 20
0.887
 11
16.38
 21
2.807
  0
LINE
  5
496
100
AcDbEntity
  8
0
100
AcDbLine
 62
2
  6
CONTINUOUS
 10
16.38
 20
2.807
 11
12.03
 21
2.807
  0
LINE
  5
497
100
AcDbEntity
  8
0
100
AcDbLine
 62
2
  6
CONTINUOUS
 10
12.03
 20
0.887
 11
12.03
 21
2.807
  0
TEXT
  5
498
100
AcDbEntity
  8
0
100
AcDbText
 62
7
  6
CONTINUOUS
 10
16.105
 20
1.267
  7
STANDARD
 40
0.1
  1
-
 41
1.0
 72
1
 11
16.155
 21
1.267
100
AcDbText
  0
MTEXT
  5
499
100
AcDbEntity
  8
0
100
AcDbMText
 62
7
  6
CONTINUOUS
  7
STANDARD
 71
2
 72
1
 10
14.205
 20
1.967
 30
0.0
 11
1.0
 21
0.0
 31
0.0
  1
SMBPVA7\PWEB CAD DRAWINGS 2D/3D
 40
0.1
 41
2.2
  0
MTEXT
  5
49A
100
AcDbEntity
  8
NOTES
100
AcDbMText
 62
2
  6
CONTINUOUS
  7
STANDARD
 71
2
 72
1
 10
14.5151951772
 20
3.4174624056
 30
0.0
 11
1.0
 21
0.0
 31
0.0
  1
ISOMETRIC VIEW\P\H0.1;SCALE  1:1
 40
0.125
 41
1.75
  0
TEXT
  5
49B
100
AcDbEntity
  8
NOTES
100
AcDbText
 62
2
  6
CONTINUOUS
 10
5.6369305021
 20
3.3818987527
  7
STANDARD
 40
0.1
  1
4X M4x0.5 ISO - H
 41
1.0
 72
0
100
AcDbText
  0
LINE
  5
49C
100
AcDbEntity
  8
NOTES
100
AcDbLine
 62
2
  6
CONTINUOUS
 10
8.1434264514
 20
3.9121772287
 11
7.5869305021
 21
3.4318987527
  0
LINE
  5
49D
100
AcDbEntity
  8
NOTES
100
AcDbLine
 62
2
  6
CONTINUOUS
 10
7.5869305021
 20
3.4318987527
 11
7.3369305021
 21
3.4318987527
  0
SOLID
  5
49E
100
AcDbEntity
  8
NOTES
100
AcDbTrace
 62
2
  6
CONTINUOUS
 10
8.0218978413
 20
3.7660142737
 11
8.1434264514
 21
3.9121772287
 12
7.9810627538
 22
3.8133296583
 13
7.9810627538
 23
3.8133296583
  0
LINE
  5
49F
100
AcDbEntity
  8
0
100
AcDbLine
 62
2
  6
CONTINUOUS
 10
0.47
 20
5.586103
 11
0.47
 21
5.412897
  0
LINE
  5
4A0
100
AcDbEntity
  8
0
100
AcDbLine
 62
2
  6
CONTINUOUS
 10
0.62
 20
10.112
 11
0.62
 21
0.887
  0
LINE
  5
4A1
100
AcDbEntity
  8
0
100
AcDbLine
 62
2
  6
CONTINUOUS
 10
2.59
 20
0.887
 11
2.59
 21
0.637
  0
LINE
  5
4A2
100
AcDbEntity
  8
0
100
AcDbLine
 62
2
  6
CONTINUOUS
 10
2.59
 20
10.112
 11
2.59
 21
10.362
  0
LINE
  5
4A3
100
AcDbEntity
  8
0
100
AcDbLine
 62
2
  6
CONTINUOUS
 10
8.413397
 20
0.737
 11
8.586603
 21
0.737
  0
LINE
  5
4A4
100
AcDbEntity
  8
0
100
AcDbLine
 62
7
  6
CONTINUOUS
 10
11.1389508475
 20
1.425992839
 11
11.7453418475
 21
1.495385839
  0
LINE
  5
4A5
100
AcDbEntity
  8
0
100
AcDbLine
 62
2
  6
CONTINUOUS
 10
0.62
 20
0.887
 11
16.38
 21
0.887
  0
LINE
  5
4A6
100
AcDbEntity
  8
0
100
AcDbLine
 62
2
  6
CONTINUOUS
 10
12.03
 20
1.137
 11
16.38
 21
1.137
  0
LINE
  5
4A7
100
AcDbEntity
  8
0
100
AcDbLine
 62
7
  6
CONTINUOUS
 10
10.2121898475
 20
1.243294839
 11
10.4342808475
 21
1.243294839
  0
LINE
  5
4A8
100
AcDbEntity
  8
0
100
AcDbLine
 62
7
  6
CONTINUOUS
 10
10.4842808475
 20
1.243294839
 11
10.5842808475
 21
1.243294839
  0
LINE
  5
4A9
100
AcDbEntity
  8
0
100
AcDbLine
 62
7
  6
CONTINUOUS
 10
10.6342808475
 20
1.243294839
 11
10.8563718475
 21
1.243294839
  0
LINE
  5
4AA
100
AcDbEntity
  8
0
100
AcDbLine
 62
7
  6
CONTINUOUS
 10
11.0389508475
 20
1.243294839
 11
11.3171028475
 21
1.243294839
  0
LINE
  5
4AB
100
AcDbEntity
  8
0
100
AcDbLine
 62
7
  6
CONTINUOUS
 10
11.3671028475
 20
1.243294839
 11
11.5171888475
 21
1.243294839
  0
LINE
  5
4AC
100
AcDbEntity
  8
0
100
AcDbLine
 62
7
  6
CONTINUOUS
 10
11.5671888475
 20
1.243294839
 11
11.8453418475
 21
1.243294839
  0
LINE
  5
4AD
100
AcDbEntity
  8
0
100
AcDbLine
 62
7
  6
CONTINUOUS
 10
11.7453418475
 20
0.991203839
 11
11.1389508475
 21
1.060596839
  0
LINE
  5
4AE
100
AcDbEntity
  8
0
100
AcDbLine
 62
2
  6
CONTINUOUS
 10
4.56
 20
0.887
 11
4.56
 21
0.637
  0
LINE
  5
4AF
100
AcDbEntity
  8
0
100
AcDbLine
 62
2
  6
CONTINUOUS
 10
4.56
 20
10.112
 11
4.56
 21
10.362
  0
LINE
  5
4B0
100
AcDbEntity
  8
0
100
AcDbLine
 62
2
  6
CONTINUOUS
 10
0.47
 20
5.412897
 11
0.62
 21
5.4995
  0
LINE
  5
4B1
100
AcDbEntity
  8
0
100
AcDbLine
 62
2
  6
CONTINUOUS
 10
12.03
 20
1.507
 11
16.38
 21
1.507
  0
LINE
  5
4B2
100
AcDbEntity
  8
0
100
AcDbLine
 62
2
  6
CONTINUOUS
 10
10.03
 20
1.907
 11
12.03
 21
1.907
  0
LINE
  5
4B3
100
AcDbEntity
  8
0
100
AcDbLine
 62
2
  6
CONTINUOUS
 10
0.62
 20
5.4995
 11
0.47
 21
5.586103
  0
LINE
  5
4B4
100
AcDbEntity
  8
0
100
AcDbLine
 62
2
  6
CONTINUOUS
 10
12.03
 20
2.267
 11
16.38
 21
2.267
  0
LINE
  5
4B5
100
AcDbEntity
  8
0
100
AcDbLine
 62
2
  6
CONTINUOUS
 10
8.5
 20
10.112
 11
8.586603
 21
10.262
  0
LINE
  5
4B6
100
AcDbEntity
  8
0
100
AcDbLine
 62
2
  6
CONTINUOUS
 10
16.38
 20
2.807
 11
10.03
 21
2.807
  0
LINE
  5
4B7
100
AcDbEntity
  8
0
100
AcDbLine
 62
2
  6
CONTINUOUS
 10
0.62
 20
3.1995
 11
0.37
 21
3.1995
  0
LINE
  5
4B8
100
AcDbEntity
  8
0
100
AcDbLine
 62
2
  6
CONTINUOUS
 10
16.38
 20
3.1995
 11
16.63
 21
3.1995
  0
LINE
  5
4B9
100
AcDbEntity
  8
0
100
AcDbLine
 62
2
  6
CONTINUOUS
 10
8.586603
 20
0.737
 11
8.5
 21
0.887
  0
LINE
  5
4BA
100
AcDbEntity
  8
0
100
AcDbLine
 62
2
  6
CONTINUOUS
 10
6.53
 20
0.887
 11
6.53
 21
0.637
  0
LINE
  5
4BB
100
AcDbEntity
  8
0
100
AcDbLine
 62
2
  6
CONTINUOUS
 10
6.53
 20
10.112
 11
6.53
 21
10.362
  0
LINE
  5
4BC
100
AcDbEntity
  8
0
100
AcDbLine
 62
2
  6
CONTINUOUS
 10
8.5
 20
0.887
 11
8.5
 21
0.637
  0
LINE
  5
4BD
100
AcDbEntity
  8
0
100
AcDbLine
 62
2
  6
CONTINUOUS
 10
8.5
 20
10.112
 11
8.5
 21
10.362
  0
LINE
  5
4BE
100
AcDbEntity
  8
0
100
AcDbLine
 62
2
  6
CONTINUOUS
 10
0.62
 20
5.4995
 11
0.37
 21
5.4995
  0
LINE
  5
4BF
100
AcDbEntity
  8
0
100
AcDbLine
 62
2
  6
CONTINUOUS
 10
16.38
 20
5.4995
 11
16.63
 21
5.4995
  0
LINE
  5
4C0
100
AcDbEntity
  8
0
100
AcDbLine
 62
2
  6
CONTINUOUS
 10
10.03
 20
2.807
 11
10.03
 21
0.887
  0
LINE
  5
4C1
100
AcDbEntity
  8
0
100
AcDbLine
 62
2
  6
CONTINUOUS
 10
10.47
 20
0.887
 11
10.47
 21
0.637
  0
LINE
  5
4C2
100
AcDbEntity
  8
0
100
AcDbLine
 62
2
  6
CONTINUOUS
 10
10.47
 20
10.112
 11
10.47
 21
10.362
  0
LINE
  5
4C3
100
AcDbEntity
  8
0
100
AcDbLine
 62
7
  6
CONTINUOUS
 10
10.5342808475
 20
1.143294839
 11
10.5342808475
 21
0.921203839
  0
LINE
  5
4C4
100
AcDbEntity
  8
0
100
AcDbLine
 62
7
  6
CONTINUOUS
 10
10.5342808475
 20
1.193294839
 11
10.5342808475
 21
1.293294839
  0
LINE
  5
4C5
100
AcDbEntity
  8
0
100
AcDbLine
 62
7
  6
CONTINUOUS
 10
10.5342808475
 20
1.343294839
 11
10.5342808475
 21
1.565385839
  0
LINE
  5
4C6
100
AcDbEntity
  8
0
100
AcDbLine
 62
2
  6
CONTINUOUS
 10
8.5
 20
0.887
 11
8.413397
 21
0.737
  0
LINE
  5
4C7
100
AcDbEntity
  8
0
100
AcDbLine
 62
2
  6
CONTINUOUS
 10
0.62
 20
7.7995
 11
0.37
 21
7.7995
  0
LINE
  5
4C8
100
AcDbEntity
  8
0
100
AcDbLine
 62
2
  6
CONTINUOUS
 10
16.38
 20
7.7995
 11
16.63
 21
7.7995
  0
LINE
  5
4C9
100
AcDbEntity
  8
0
100
AcDbLine
 62
2
  6
CONTINUOUS
 10
8.413397
 20
10.262
 11
8.5
 21
10.112
  0
LINE
  5
4CA
100
AcDbEntity
  8
0
100
AcDbLine
 62
7
  6
CONTINUOUS
 10
11.1389508475
 20
1.060596839
 11
11.1389508475
 21
1.425992839
  0
LINE
  5
4CB
100
AcDbEntity
  8
0
100
AcDbLine
 62
7
  6
CONTINUOUS
 10
11.7453418475
 20
1.495385839
 11
11.7453418475
 21
0.991203839
  0
LINE
  5
4CC
100
AcDbEntity
  8
0
100
AcDbLine
 62
1
  6
CONTINUOUS
 10
12.03
 20
2.807
 11
12.03
 21
0.887
  0
LINE
  5
4CD
100
AcDbEntity
  8
0
100
AcDbLine
 62
2
  6
CONTINUOUS
 10
12.44
 20
0.887
 11
12.44
 21
0.637
  0
LINE
  5
4CE
100
AcDbEntity
  8
0
100
AcDbLine
 62
2
  6
CONTINUOUS
 10
12.44
 20
10.112
 11
12.44
 21
10.362
  0
LINE
  5
4CF
100
AcDbEntity
  8
0
100
AcDbLine
 62
2
  6
CONTINUOUS
 10
16.53
 20
5.586103
 11
16.38
 21
5.4995
  0
LINE
  5
4D0
100
AcDbEntity
  8
0
100
AcDbLine
 62
2
  6
CONTINUOUS
 10
16.38
 20
5.4995
 11
16.53
 21
5.412897
  0
LINE
  5
4D1
100
AcDbEntity
  8
0
100
AcDbLine
 62
2
  6
CONTINUOUS
 10
12.83
 20
1.507
 11
12.83
 21
1.137
  0
LINE
  5
4D2
100
AcDbEntity
  8
0
100
AcDbLine
 62
2
  6
CONTINUOUS
 10
16.38
 20
10.112
 11
0.62
 21
10.112
  0
LINE
  5
4D3
100
AcDbEntity
  8
0
100
AcDbLine
 62
2
  6
CONTINUOUS
 10
8.586603
 20
10.262
 11
8.413397
 21
10.262
  0
LINE
  5
4D4
100
AcDbEntity
  8
0
100
AcDbLine
 62
2
  6
CONTINUOUS
 10
14.205
 20
1.137
 11
14.205
 21
0.887
  0
LINE
  5
4D5
100
AcDbEntity
  8
0
100
AcDbLine
 62
2
  6
CONTINUOUS
 10
14.41
 20
0.887
 11
14.41
 21
0.637
  0
LINE
  5
4D6
100
AcDbEntity
  8
0
100
AcDbLine
 62
2
  6
CONTINUOUS
 10
14.41
 20
10.112
 11
14.41
 21
10.362
  0
LINE
  5
4D7
100
AcDbEntity
  8
0
100
AcDbLine
 62
2
  6
CONTINUOUS
 10
15.58
 20
1.507
 11
15.58
 21
1.137
  0
LINE
  5
4D8
100
AcDbEntity
  8
0
100
AcDbLine
 62
2
  6
CONTINUOUS
 10
16.38
 20
0.887
 11
16.38
 21
10.112
  0
LINE
  5
4D9
100
AcDbEntity
  8
0
100
AcDbLine
 62
2
  6
CONTINUOUS
 10
16.53
 20
5.412897
 11
16.53
 21
5.586103
  0
LINE
  5
4DA
100
AcDbEntity
  8
0
100
AcDbLine
 62
7
  6
CONTINUOUS
 10
14.1775783362
 20
3.7657036573
 11
14.2181472661
 21
3.7594278162
  0
LINE
  5
4DB
100
AcDbEntity
  8
0
100
AcDbLine
 62
7
  6
CONTINUOUS
 10
13.3676838599
 20
4.233285873
 11
13.3568132911
 21
4.2567079685
  0
LINE
  5
4DC
100
AcDbEntity
  8
0
100
AcDbLine
 62
7
  6
CONTINUOUS
 10
14.4708486094
 20
6.5516338718
 11
14.4411502483
 21
6.5344876173
  0
LINE
  5
4DD
100
AcDbEntity
  8
0
100
AcDbLine
 62
7
  6
CONTINUOUS
 10
14.3053863115
 20
6.4561047398
 11
14.4114518871
 21
6.5173413629
  0
LWPOLYLINE
  5
4DE
100
AcDbEntity
  8
0
100
AcDbPolyline
 62
7
  6
CONTINUOUS
 90
3
 70
0
 10
14.2517325664
 20
6.364715109
 10
14.2436601227
 20
6.3609412166
 10
14.2343772537
 20
6.3584537259
  0
LWPOLYLINE
  5
4DF
100
AcDbEntity
  8
0
100
AcDbPolyline
 62
7
  6
CONTINUOUS
 90
3
 70
0
 10
14.5989515629
 20
4.0268513526
 10
14.593966781
 20
4.0258469936
 10
14.5892112135
 20
4.0244800156
  0
LWPOLYLINE
  5
4E0
100
AcDbEntity
  8
0
100
AcDbPolyline
 62
7
  6
CONTINUOUS
 90
3
 70
0
 10
13.8159006405
 20
6.1039458171
 10
13.812850512
 20
6.1013185585
 10
13.8092604438
 20
6.0989580847
  0
LWPOLYLINE
  5
4E1
100
AcDbEntity
  8
0
100
AcDbPolyline
 62
7
  6
CONTINUOUS
 90
4
 70
0
 10
14.3053863115
 20
6.4561047398
 10
14.3006804338
 20
6.452866836
 10
14.297019919
 20
6.4492063383
 10
14.29451599
 20
6.4452344692
  0
LWPOLYLINE
  5
4E2
100
AcDbEntity
  8
0
100
AcDbPolyline
 62
7
  6
CONTINUOUS
 90
3
 70
0
 10
13.8389590523
 20
6.081811973
 10
13.8462755382
 20
6.0866355273
 10
13.8524353543
 20
6.0919836634
  0
LINE
  5
4E3
100
AcDbEntity
  8
0
100
AcDbLine
 62
3
  6
CONTINUOUS
 10
14.3510002238
 20
6.4481472782
 11
14.4411504956
 21
6.5001952512
  0
LINE
  5
4E4
100
AcDbEntity
  8
0
100
AcDbLine
 62
9
  6
CONTINUOUS
 10
14.4411504956
 20
6.5001952512
 11
14.4708488567
 21
6.5173415056
  0
LINE
  5
4E5
100
AcDbEntity
  8
0
100
AcDbLine
 62
7
  6
CONTINUOUS
 10
13.4877430145
 20
5.9133310184
 11
13.8092604438
 21
6.0989580847
  0
LINE
  5
4E6
100
AcDbEntity
  8
0
100
AcDbLine
 62
3
  6
CONTINUOUS
 10
13.517441623
 20
5.8961849067
 11
13.8389590523
 21
6.081811973
  0
LWPOLYLINE
  5
4E7
100
AcDbEntity
  8
0
100
AcDbPolyline
 62
7
  6
CONTINUOUS
 90
3
 70
0
 10
13.4877430145
 20
5.9133310184
 10
13.4836306855
 20
5.9112477204
 10
13.4790445575
 20
5.9094774807
  0
LINE
  5
4E8
100
AcDbEntity
  8
0
100
AcDbLine
 62
7
  6
CONTINUOUS
 10
13.3568132911
 20
5.8897128028
 11
13.3568132911
 21
4.2567079685
  0
LINE
  5
4E9
100
AcDbEntity
  8
0
100
AcDbLine
 62
3
  6
CONTINUOUS
 10
13.3676838599
 20
5.8662907073
 11
13.3676838599
 21
4.233285873
  0
LWPOLYLINE
  5
4EA
100
AcDbEntity
  8
0
100
AcDbPolyline
 62
7
  6
CONTINUOUS
 90
12
 70
0
 10
13.8200078942
 20
6.1095693497
 10
13.8376789438
 20
6.1406000471
 10
13.8600955188
 20
6.1706053734
 10
13.8870870009
 20
6.199346958
 10
13.9184043134
 20
6.226560879
 10
13.9538430391
 20
6.252068275
 10
13.993059207
 20
6.2756219496
 10
14.0358019724
 20
6.2970718039
 10
14.0816658797
 20
6.3162139056
 10
14.1303347224
 20
6.3329175907
 10
14.1813826743
 20
6.347035839
 10
14.2343772537
 20
6.3584537259
  0
LWPOLYLINE
  5
4EB
100
AcDbEntity
  8
0
100
AcDbPolyline
 62
7
  6
CONTINUOUS
 90
3
 70
0
 10
13.8200078942
 20
6.1095693497
 10
13.8182701097
 20
6.1066938846
 10
13.8159006405
 20
6.1039458171
  0
LWPOLYLINE
  5
4EC
100
AcDbEntity
  8
0
100
AcDbPolyline
 62
3
  6
CONTINUOUS
 90
8
 70
0
 10
13.860453953
 20
6.1030345031
 10
13.8883423578
 20
6.1480970737
 10
13.9269836873
 20
6.190542891
 10
13.9755719277
 20
6.2294395226
 10
14.0331266978
 20
6.2640039957
 10
14.0985047478
 20
6.2935555739
 10
14.1704115756
 20
6.3175130619
 10
14.2472861083
 20
6.3353790948
  0
LWPOLYLINE
  5
4ED
100
AcDbEntity
  8
0
100
AcDbPolyline
 62
7
  6
CONTINUOUS
 90
3
 70
0
 10
13.8524353543
 20
6.0919836634
 10
13.8570409389
 20
6.0973695724
 10
13.860453953
 20
6.1030345031
  0
LWPOLYLINE
  5
4EE
100
AcDbEntity
  8
0
100
AcDbPolyline
 62
7
  6
CONTINUOUS
 90
3
 70
0
 10
13.5000447089
 20
5.8884778314
 10
13.5091891586
 20
5.8920059836
 10
13.517441623
 20
5.8961849067
  0
LWPOLYLINE
  5
4EF
100
AcDbEntity
  8
0
100
AcDbPolyline
 62
7
  6
CONTINUOUS
 90
3
 70
0
 10
13.4790445575
 20
5.9094774807
 10
13.4741006298
 20
5.9080706234
 10
13.4689149749
 20
5.9070550345
  0
LWPOLYLINE
  5
4F0
100
AcDbEntity
  8
0
100
AcDbPolyline
 62
7
  6
CONTINUOUS
 90
3
 70
0
 10
15.0591312035
 20
4.2820557297
 10
15.0493974635
 20
4.2797635826
 10
15.040879704
 20
4.2761062695
  0
LINE
  5
4F1
100
AcDbEntity
  8
0
100
AcDbLine
 62
7
  6
CONTINUOUS
 10
15.1803449644
 20
4.300807608
 11
15.0591312035
 21
4.2820557297
  0
LINE
  5
4F2
100
AcDbEntity
  8
0
100
AcDbLine
 62
9
  6
CONTINUOUS
 10
13.4797855437
 20
5.883632939
 11
13.4797855437
 21
4.2506281047
  0
LINE
  5
4F3
100
AcDbEntity
  8
0
100
AcDbLine
 62
9
  6
CONTINUOUS
 10
13.517441623
 20
5.8961849067
 11
13.517441623
 21
4.2631800724
  0
LWPOLYLINE
  5
4F4
100
AcDbEntity
  8
0
100
AcDbPolyline
 62
7
  6
CONTINUOUS
 90
4
 70
0
 10
14.302606259
 20
6.3689766749
 10
14.2976733982
 20
6.3611260499
 10
14.2905449158
 20
6.3539338556
 10
14.2813637558
 20
6.3475261655
  0
LWPOLYLINE
  5
4F5
100
AcDbEntity
  8
0
100
AcDbPolyline
 62
7
  6
CONTINUOUS
 90
4
 70
0
 10
14.3292595807
 20
6.4264067369
 10
14.334238876
 20
6.4343150737
 10
14.3416291644
 20
6.4417049959
 10
14.3510002238
 20
6.4481472782
  0
LWPOLYLINE
  5
4F6
100
AcDbEntity
  8
0
100
AcDbPolyline
 62
7
  6
CONTINUOUS
 90
3
 70
0
 10
14.2620373291
 20
6.375252516
 10
14.2580794175
 20
6.3696452988
 10
14.2517325664
 20
6.364715109
  0
LWPOLYLINE
  5
4F7
100
AcDbEntity
  8
AXIS
100
AcDbPolyline
 62
3
  6
CONTINUOUS
 90
5
 70
0
 10
14.5508606512
 20
6.1999461183
 10
14.5445159522
 20
6.1954198322
 10
14.5344067678
 20
6.1826785835
 10
14.5281311086
 20
6.1655923661
 10
14.5260036626
 20
6.1450179542
  0
LINE
  5
4F8
100
AcDbEntity
  8
0
100
AcDbLine
 62
3
  6
CONTINUOUS
 10
13.3676838599
 20
4.233285873
 11
13.4797855437
 21
4.2506281047
  0
LINE
  5
4F9
100
AcDbEntity
  8
0
100
AcDbLine
 62
7
  6
CONTINUOUS
 10
14.2620373291
 20
6.375252516
 11
14.29451599
 21
6.4452344692
  0
LINE
  5
4FA
100
AcDbEntity
  8
0
100
AcDbLine
 62
3
  6
CONTINUOUS
 10
14.302606259
 20
6.3689766749
 11
14.3292595807
 21
6.4264067369
  0
LWPOLYLINE
  5
4FB
100
AcDbEntity
  8
AXIS
100
AcDbPolyline
 62
7
  6
CONTINUOUS
 90
4
 70
0
 10
14.6061065916
 20
6.1728423905
 10
14.5983640852
 20
6.1656613009
 10
14.5934971272
 20
6.1549035481
 10
14.5918370985
 20
6.1413020855
  0
LINE
  5
4FC
100
AcDbEntity
  8
0
100
AcDbLine
 62
7
  6
CONTINUOUS
 10
13.3676838599
 20
5.8662907073
 11
13.3568132911
 21
5.8897128028
  0
LINE
  5
4FD
100
AcDbEntity
  8
0
100
AcDbLine
 62
9
  6
CONTINUOUS
 10
13.8389590523
 20
6.081811973
 11
13.8389590523
 21
4.4488071387
  0
LINE
  5
4FE
100
AcDbEntity
  8
0
100
AcDbLine
 62
9
  6
CONTINUOUS
 10
13.860453953
 20
6.1030345031
 11
13.860453953
 21
4.4700296689
  0
LWPOLYLINE
  5
4FF
100
AcDbEntity
  8
AXIS
100
AcDbPolyline
 62
7
  6
CONTINUOUS
 90
4
 70
0
 10
14.5679394747
 20
6.204657508
 10
14.5641051289
 20
6.199824838
 10
14.5578294698
 20
6.1827386206
 10
14.5557020237
 20
6.1621642087
  0
LWPOLYLINE
  5
500
100
AcDbEntity
  8
AXIS
100
AcDbPolyline
 62
7
  6
CONTINUOUS
 90
4
 70
0
 10
14.6750037899
 20
6.0535082458
 10
14.6827462963
 20
6.0606893354
 10
14.6876132543
 20
6.0714470881
 10
14.689273283
 20
6.0850485507
  0
LWPOLYLINE
  5
501
100
AcDbEntity
  8
AXIS
100
AcDbPolyline
 62
3
  6
CONTINUOUS
 90
5
 70
0
 10
14.670853008
 20
5.9921120091
 10
14.677197707
 20
5.9966382951
 10
14.6873068914
 20
6.0093795438
 10
14.6935825506
 20
6.0264657612
 10
14.6957099966
 20
6.0470401731
  0
LWPOLYLINE
  5
502
100
AcDbEntity
  8
AXIS
100
AcDbPolyline
 62
3
  6
CONTINUOUS
 90
5
 70
0
 10
14.0073889953
 20
5.5006006383
 10
14.0211713473
 20
5.5065708936
 10
14.034926275
 20
5.5081907064
 10
14.047330946
 20
5.5052475885
 10
14.0502728566
 20
5.5037493598
  0
LWPOLYLINE
  5
503
100
AcDbEntity
  8
AXIS
100
AcDbPolyline
 62
3
  6
CONTINUOUS
 90
11
 70
0
 10
13.6269438678
 20
5.0837132271
 10
13.6185310215
 20
5.0905039431
 10
13.6104111228
 20
5.1036807208
 10
13.606229668
 20
5.12085609
 10
13.606229668
 20
5.1410318806
 10
13.6104111228
 20
5.163035549
 10
13.6185310215
 20
5.1855883221
 10
13.630117465
 20
5.2073795146
 10
13.6444970914
 20
5.2271427016
 10
13.6608342091
 20
5.2437293185
 10
13.6781793641
 20
5.2561754114
  0
LWPOLYLINE
  5
504
100
AcDbEntity
  8
AXIS
100
AcDbPolyline
 62
7
  6
CONTINUOUS
 90
10
 70
0
 10
13.7115878387
 20
5.2659972344
 10
13.7162489968
 20
5.2584332182
 10
13.7204304517
 20
5.2412578491
 10
13.7204304517
 20
5.2210820585
 10
13.7162489968
 20
5.19907839
 10
13.7081290982
 20
5.176525617
 10
13.6965426547
 20
5.1547344245
 10
13.6821630283
 20
5.1349712375
 10
13.6658259106
 20
5.1183846206
 10
13.6484807556
 20
5.1059385276
  0
LWPOLYLINE
  5
505
100
AcDbEntity
  8
AXIS
100
AcDbPolyline
 62
7
  6
CONTINUOUS
 90
10
 70
0
 10
13.9776890734
 20
5.3830246094
 10
13.991540251
 20
5.3928230909
 10
14.0052919991
 20
5.4059680706
 10
14.0175968328
 20
5.4213888825
 10
14.0276778645
 20
5.4382630135
 10
14.035050392
 20
5.4562665004
 10
14.0388441512
 20
5.4738897063
 10
14.0388578394
 20
5.4899071513
 10
14.0350806998
 20
5.5041138086
 10
14.0325726499
 20
5.507913538
  0
LWPOLYLINE
  5
506
100
AcDbEntity
  8
0
100
AcDbPolyline
 62
7
  6
CONTINUOUS
 90
3
 70
0
 10
14.2293561016
 20
5.4851701892
 10
14.2221150882
 20
5.4804034999
 10
14.2160070097
 20
5.4751261556
  0
LINE
  5
507
100
AcDbEntity
  8
0
100
AcDbLine
 62
3
  6
CONTINUOUS
 10
14.5508735309
 20
5.6707972555
 11
14.2293561016
 21
5.4851701892
  0
LWPOLYLINE
  5
508
100
AcDbEntity
  8
0
100
AcDbPolyline
 62
7
  6
CONTINUOUS
 90
3
 70
0
 10
14.5805721394
 20
5.6536511438
 10
14.5846568854
 20
5.6557221979
 10
14.5892112135
 20
5.6574848499
  0
LWPOLYLINE
  5
509
100
AcDbEntity
  8
0
100
AcDbPolyline
 62
7
  6
CONTINUOUS
 90
4
 70
0
 10
15.1853896994
 20
5.9664231878
 10
15.1742285848
 20
5.9610117455
 10
15.1614284554
 20
5.9567452471
 10
15.1477336201
 20
5.9538712202
  0
LWPOLYLINE
  5
50A
100
AcDbEntity
  8
AXIS
100
AcDbPolyline
 62
3
  6
CONTINUOUS
 90
5
 70
0
 10
14.0073889953
 20
5.3658777394
 10
13.9953624814
 20
5.3601067444
 10
13.9841953934
 20
5.3574402862
 10
13.9743481603
 20
5.3580574853
 10
13.9685845628
 20
5.3603802129
  0
LWPOLYLINE
  5
50B
100
AcDbEntity
  8
AXIS
100
AcDbPolyline
 62
3
  6
CONTINUOUS
 90
5
 70
0
 10
13.6781793641
 20
5.2561754114
 10
13.6955245191
 20
5.2637576588
 10
13.7118616367
 20
5.2660354078
 10
13.7262412631
 20
5.262876284
 10
13.7294148604
 20
5.2612546003
  0
LWPOLYLINE
  5
50C
100
AcDbEntity
  8
0
100
AcDbPolyline
 62
7
  6
CONTINUOUS
 90
3
 70
0
 10
15.040879704
 20
5.9091111037
 10
15.0493974635
 20
5.9127684168
 10
15.0591312035
 20
5.9150605639
  0
LWPOLYLINE
  5
50D
100
AcDbEntity
  8
0
100
AcDbPolyline
 62
7
  6
CONTINUOUS
 90
3
 70
0
 10
14.5684915551
 20
5.6785777756
 10
14.5592244972
 20
5.6750197612
 10
14.5508735309
 20
5.6707972555
  0
LWPOLYLINE
  5
50E
100
AcDbEntity
  8
0
100
AcDbPolyline
 62
7
  6
CONTINUOUS
 90
3
 70
0
 10
14.5892112135
 20
5.6574848499
 10
14.593966781
 20
5.6588518278
 10
14.5989515629
 20
5.6598561868
  0
LWPOLYLINE
  5
50F
100
AcDbEntity
  8
AXIS
100
AcDbPolyline
 62
7
  6
CONTINUOUS
 90
11
 70
0
 10
14.3685569548
 20
4.6555523979
 10
14.3601441086
 20
4.662343114
 10
14.3520242099
 20
4.6755198916
 10
14.3478427551
 20
4.6926952608
 10
14.3478427551
 20
4.7128710514
 10
14.3520242099
 20
4.7348747198
 10
14.3601441086
 20
4.7574274929
 10
14.3717305521
 20
4.7792186854
 10
14.3861101785
 20
4.7989818724
 10
14.4024472961
 20
4.8155684893
 10
14.4197924511
 20
4.8280145823
  0
LINE
  5
510
100
AcDbEntity
  8
0
100
AcDbLine
 62
3
  6
CONTINUOUS
 10
14.2076154586
 20
5.4634296479
 11
14.1775783362
 21
5.3987084915
  0
LINE
  5
511
100
AcDbEntity
  8
0
100
AcDbLine
 62
7
  6
CONTINUOUS
 10
14.2481843886
 20
5.4571538069
 11
14.2181472661
 21
5.3924326504
  0
LWPOLYLINE
  5
512
100
AcDbEntity
  8
0
100
AcDbPolyline
 62
7
  6
CONTINUOUS
 90
3
 70
0
 10
14.2481843886
 20
5.4571538069
 10
14.2499415552
 20
5.460145106
 10
14.2523801641
 20
5.4630020607
  0
LWPOLYLINE
  5
513
100
AcDbEntity
  8
0
100
AcDbPolyline
 62
7
  6
CONTINUOUS
 90
3
 70
0
 10
14.2160070097
 20
5.4751261556
 10
14.2111431971
 20
5.4694309487
 10
14.2076154586
 20
5.4634296479
  0
LWPOLYLINE
  5
514
100
AcDbEntity
  8
0
100
AcDbPolyline
 62
7
  6
CONTINUOUS
 90
3
 70
0
 10
14.2523801641
 20
5.4630020607
 10
14.2554433395
 20
5.4656476035
 10
14.2590547101
 20
5.4680240775
  0
LWPOLYLINE
  5
515
100
AcDbEntity
  8
0
100
AcDbPolyline
 62
7
  6
CONTINUOUS
 90
4
 70
0
 10
15.0111069084
 20
5.9262182912
 10
15.002304815
 20
5.9203499717
 10
14.9951881191
 20
5.9136904947
 10
14.9900675477
 20
5.9065437324
  0
LINE
  5
516
100
AcDbEntity
  8
0
100
AcDbLine
 62
7
  6
CONTINUOUS
 10
14.5805721394
 20
5.6536511438
 11
14.2590547101
 21
5.4680240775
  0
LINE
  5
517
100
AcDbEntity
  8
0
100
AcDbLine
 62
3
  6
CONTINUOUS
 10
15.2755399712
 20
6.0184711608
 11
15.1853896994
 21
5.9664231878
  0
LINE
  5
518
100
AcDbEntity
  8
0
100
AcDbLine
 62
9
  6
CONTINUOUS
 10
15.2755399712
 20
6.0184711608
 11
15.3052383324
 21
6.0356174153
  0
LINE
  5
519
100
AcDbEntity
  8
0
100
AcDbLine
 62
7
  6
CONTINUOUS
 10
15.364635302
 20
6.0356175581
 11
15.3349369408
 21
6.0184713036
  0
LINE
  5
51A
100
AcDbEntity
  8
0
100
AcDbLine
 62
7
  6
CONTINUOUS
 10
15.3052385797
 20
6.0013250492
 11
15.1991730041
 21
5.9400884261
  0
LWPOLYLINE
  5
51B
100
AcDbEntity
  8
AXIS
100
AcDbPolyline
 62
7
  6
CONTINUOUS
 90
3
 70
0
 10
13.6484807556
 20
5.1059385276
 10
13.6311356006
 20
5.0983562803
 10
13.615072281
 20
5.0961167047
  0
LWPOLYLINE
  5
51C
100
AcDbEntity
  8
AXIS
100
AcDbPolyline
 62
3
  6
CONTINUOUS
 90
11
 70
0
 10
13.7294148604
 20
5.2612546003
 10
13.7378277066
 20
5.2544638842
 10
13.7459476053
 20
5.2412871066
 10
13.7501290601
 20
5.2241117374
 10
13.7501290601
 20
5.2039359468
 10
13.7459476053
 20
5.1819322783
 10
13.7378277066
 20
5.1593795053
 10
13.7262412631
 20
5.1375883128
 10
13.7118616367
 20
5.1178251258
 10
13.6955245191
 20
5.1012385089
 10
13.6781793641
 20
5.0887924159
  0
LINE
  5
51D
100
AcDbEntity
  8
0
100
AcDbLine
 62
3
  6
CONTINUOUS
 10
14.1775783362
 20
5.3987084915
 11
14.1775783362
 21
3.7657036573
  0
LINE
  5
51E
100
AcDbEntity
  8
0
100
AcDbLine
 62
7
  6
CONTINUOUS
 10
14.2181472661
 20
5.3924326504
 11
14.2181472661
 21
3.7594278162
  0
LINE
  5
51F
100
AcDbEntity
  8
0
100
AcDbLine
 62
9
  6
CONTINUOUS
 10
14.2472861083
 20
6.3353790948
 11
14.2472861083
 21
5.4955220216
  0
LINE
  5
520
100
AcDbEntity
  8
0
100
AcDbLine
 62
9
  6
CONTINUOUS
 10
14.2481843886
 20
5.4571538069
 11
14.2481843886
 21
3.8241489726
  0
LINE
  5
521
100
AcDbEntity
  8
0
100
AcDbLine
 62
9
  6
CONTINUOUS
 10
14.2590547101
 20
5.4680240775
 11
14.2590547101
 21
3.8350192432
  0
LWPOLYLINE
  5
522
100
AcDbEntity
  8
AXIS
100
AcDbPolyline
 62
3
  6
CONTINUOUS
 90
3
 70
0
 10
14.6245871437
 20
6.1751258685
 10
14.6231954884
 20
6.1720498026
 10
14.6215354596
 20
6.15844834
  0
LWPOLYLINE
  5
523
100
AcDbEntity
  8
0
100
AcDbPolyline
 62
7
  6
CONTINUOUS
 90
4
 70
0
 10
15.3052385797
 20
6.0013250492
 10
15.3119131256
 20
6.0063470659
 10
15.3161089012
 20
6.0121953198
 10
15.3175399712
 20
6.018471162
  0
LWPOLYLINE
  5
524
100
AcDbEntity
  8
AXIS
100
AcDbPolyline
 62
3
  6
CONTINUOUS
 90
5
 70
0
 10
13.6781793641
 20
5.0887924159
 10
13.6608342091
 20
5.0812101686
 10
13.6444970914
 20
5.0789324196
 10
13.630117465
 20
5.0820915434
 10
13.6269438678
 20
5.0837132271
  0
LWPOLYLINE
  5
525
100
AcDbEntity
  8
AXIS
100
AcDbPolyline
 62
3
  6
CONTINUOUS
 90
4
 70
0
 10
14.8159281917
 20
4.8769212844
 10
14.8166751633
 20
4.8768169969
 10
14.8291064062
 20
4.8787541182
 10
14.841738943
 20
4.88417647
  0
LINE
  5
526
100
AcDbEntity
  8
0
100
AcDbLine
 62
7
  6
CONTINUOUS
 10
15.3349369408
 20
4.3854664694
 11
15.3175399712
 21
4.3955103872
  0
LWPOLYLINE
  5
527
100
AcDbEntity
  8
AXIS
100
AcDbPolyline
 62
7
  6
CONTINUOUS
 90
11
 70
0
 10
14.4710279475
 20
4.8330937711
 10
14.4794407937
 20
4.8263030551
 10
14.4875606924
 20
4.8131262774
 10
14.4917421472
 20
4.7959509082
 10
14.4917421472
 20
4.7757751176
 10
14.4875606924
 20
4.7537714492
 10
14.4794407937
 20
4.7312186761
 10
14.4678543502
 20
4.7094274836
 10
14.4534747238
 20
4.6896642966
 10
14.4371376062
 20
4.6730776797
 10
14.4197924511
 20
4.6606315868
  0
LINE
  5
528
100
AcDbEntity
  8
0
100
AcDbLine
 62
9
  6
CONTINUOUS
 10
14.302606259
 20
6.3689766749
 11
14.302606259
 21
5.5274609349
  0
LINE
  5
529
100
AcDbEntity
  8
0
100
AcDbLine
 62
9
  6
CONTINUOUS
 10
14.3292595807
 20
5.5428491455
 11
14.3292595807
 21
6.4264067369
  0
LINE
  5
52A
100
AcDbEntity
  8
0
100
AcDbLine
 62
9
  6
CONTINUOUS
 10
14.3510002238
 20
5.5554010366
 11
14.3510002238
 21
6.4481472782
  0
LWPOLYLINE
  5
52B
100
AcDbEntity
  8
0
100
AcDbPolyline
 62
7
  6
CONTINUOUS
 90
3
 70
0
 10
13.860453953
 20
4.4700296689
 10
13.8570409389
 20
4.4643647382
 10
13.8524353543
 20
4.4589788291
  0
LWPOLYLINE
  5
52C
100
AcDbEntity
  8
0
100
AcDbPolyline
 62
3
  6
CONTINUOUS
 90
8
 70
0
 10
13.860453953
 20
4.4700296689
 10
13.8883423578
 20
4.5150922395
 10
13.9269836873
 20
4.5575380567
 10
13.9755719277
 20
4.5964346883
 10
14.0331266978
 20
4.6309991614
 10
14.0985047478
 20
4.6605507396
 10
14.1704115756
 20
4.6845082277
 10
14.1775783362
 20
4.6861738193
  0
LWPOLYLINE
  5
52D
100
AcDbEntity
  8
AXIS
100
AcDbPolyline
 62
3
  6
CONTINUOUS
 90
12
 70
0
 10
13.9685845628
 20
5.3603802129
 10
13.9662093796
 20
5.3619669898
 10
13.9599578979
 20
5.3690963084
 10
13.9558125485
 20
5.3791689135
 10
13.9538695848
 20
5.3918438728
 10
13.9541786485
 20
5.4063020546
 10
13.9567714046
 20
5.4224274914
 10
13.9617999899
 20
5.4396772954
 10
13.9693284608
 20
5.4571146333
 10
13.9797396709
 20
5.4742798037
 10
13.9929376847
 20
5.4895619272
 10
14.0073889953
 20
5.5006006383
  0
LINE
  5
52E
100
AcDbEntity
  8
0
100
AcDbLine
 62
9
  6
CONTINUOUS
 10
13.5000447089
 20
5.8884778314
 11
13.4790445575
 21
5.9094774807
  0
LWPOLYLINE
  5
52F
100
AcDbEntity
  8
AXIS
100
AcDbPolyline
 62
3
  6
CONTINUOUS
 90
10
 70
0
 10
14.4532009258
 20
4.8378364052
 10
14.4578620839
 20
4.8302723891
 10
14.4620435387
 20
4.8130970199
 10
14.4620435387
 20
4.7929212293
 10
14.4578620839
 20
4.7709175609
 10
14.4497421853
 20
4.7483647878
 10
14.4381557418
 20
4.7265735953
 10
14.4237761154
 20
4.7068104083
 10
14.4074389977
 20
4.6902237914
 10
14.3900938427
 20
4.6777776984
  0
LINE
  5
530
100
AcDbEntity
  8
0
100
AcDbLine
 62
7
  6
CONTINUOUS
 10
14.4411502483
 20
6.5344876173
 11
14.4411502483
 21
6.5244436103
  0
LINE
  5
531
100
AcDbEntity
  8
0
100
AcDbLine
 62
3
  6
CONTINUOUS
 10
14.4411504956
 20
6.5001952512
 11
14.4411504956
 21
5.6074490096
  0
LWPOLYLINE
  5
532
100
AcDbEntity
  8
0
100
AcDbPolyline
 62
3
  6
CONTINUOUS
 90
8
 70
0
 10
14.9900675477
 20
5.9065437324
 10
14.9591228687
 20
5.862160686
 10
14.9176272878
 20
5.8206456536
 10
14.8664422654
 20
5.7828999124
 10
14.8065744653
 20
5.7496708376
 10
14.7392029646
 20
5.721618481
 10
14.6656839233
 20
5.6993088646
 10
14.5876323779
 20
5.6832073416
  0
LWPOLYLINE
  5
533
100
AcDbEntity
  8
0
100
AcDbPolyline
 62
7
  6
CONTINUOUS
 90
3
 70
0
 10
15.03003466
 20
5.8990911004
 10
15.0343551132
 20
5.9044616453
 10
15.040879704
 20
5.9091111037
  0
LWPOLYLINE
  5
534
100
AcDbEntity
  8
AXIS
100
AcDbPolyline
 62
3
  6
CONTINUOUS
 90
11
 70
0
 10
14.0502728566
 20
5.5037493598
 10
14.0574968882
 20
5.4981051593
 10
14.0649499941
 20
5.4869270309
 10
14.0687852899
 20
5.4726667844
 10
14.0687751132
 20
5.4565962283
 10
14.0649305293
 20
5.4389283708
 10
14.0574647039
 20
5.420899016
 10
14.0472717508
 20
5.4040176933
 10
14.0348920462
 20
5.388644637
 10
14.0211760037
 20
5.3756146395
 10
14.0073889953
 20
5.3658777394
  0
LWPOLYLINE
  5
535
100
AcDbEntity
  8
AXIS
100
AcDbPolyline
 62
7
  6
CONTINUOUS
 90
11
 70
0
 10
14.8279091277
 20
4.8642529187
 10
14.8205425855
 20
4.8700101517
 10
14.8130556943
 20
4.8812235202
 10
14.8092095601
 20
4.8954728624
 10
14.809222115
 20
4.9114993013
 10
14.8130823255
 20
4.929096825
 10
14.8205861148
 20
4.9470401562
 10
14.8308498633
 20
4.963826636
 10
14.8433739704
 20
4.9791253878
 10
14.8573549093
 20
4.992112556
 10
14.871438865
 20
5.0017524989
  0
LINE
  5
536
100
AcDbEntity
  8
0
100
AcDbLine
 62
9
  6
CONTINUOUS
 10
14.5805721394
 20
5.6536511438
 11
14.5805721394
 21
4.0206463096
  0
LINE
  5
537
100
AcDbEntity
  8
0
100
AcDbLine
 62
9
  6
CONTINUOUS
 10
14.5989515629
 20
5.6598561868
 11
14.5989515629
 21
4.0268513526
  0
LWPOLYLINE
  5
538
100
AcDbEntity
  8
0
100
AcDbPolyline
 62
7
  6
CONTINUOUS
 90
12
 70
0
 10
15.03003466
 20
5.8990911004
 10
15.0102584583
 20
5.868495008
 10
14.9858050104
 20
5.8390227631
 10
14.9568733708
 20
5.8109240562
 10
14.9237181859
 20
5.7844447361
 10
14.8865657734
 20
5.7597673633
 10
14.8457693554
 20
5.7371260257
 10
14.8015889131
 20
5.716665548
 10
14.7544526063
 20
5.698584521
 10
14.7046702345
 20
5.6830009651
 10
14.6526989285
 20
5.6700586846
 10
14.5989515629
 20
5.6598561868
  0
LWPOLYLINE
  5
539
100
AcDbEntity
  8
0
100
AcDbPolyline
 62
7
  6
CONTINUOUS
 90
3
 70
0
 10
13.8524353543
 20
4.4589788291
 10
13.8462755382
 20
4.4536306931
 10
13.8389590523
 20
4.4488071387
  0
LINE
  5
53A
100
AcDbEntity
  8
0
100
AcDbLine
 62
7
  6
CONTINUOUS
 10
14.1775783362
 20
5.3987084915
 11
14.2181472661
 21
5.3924326504
  0
LWPOLYLINE
  5
53B
100
AcDbEntity
  8
AXIS
100
AcDbPolyline
 62
7
  6
CONTINUOUS
 90
11
 70
0
 10
14.9111538489
 20
5.0067319105
 10
14.9172072461
 20
5.0017220121
 10
14.9231469028
 20
4.9913961917
 10
14.9261277762
 20
4.9776505565
 10
14.9261168397
 20
4.9616348916
 10
14.9231221282
 20
4.9435553082
 10
14.9171657618
 20
4.924739591
 10
14.9087182845
 20
4.9069271634
 10
14.8979058177
 20
4.8906447581
 10
14.8851215319
 20
4.8769331574
 10
14.871438865
 20
4.8670296
  0
LWPOLYLINE
  5
53C
100
AcDbEntity
  8
AXIS
100
AcDbPolyline
 62
7
  6
CONTINUOUS
 90
10
 70
0
 10
14.5918370985
 20
6.1413020855
 10
14.5934971272
 20
6.1257838302
 10
14.5983640852
 20
6.1094063256
 10
14.6061062973
 20
6.0932856716
 10
14.6161961446
 20
6.0785204641
 10
14.6279460206
 20
6.0661169277
 10
14.6405551908
 20
6.0569203428
 10
14.6531643609
 20
6.0515574416
 10
14.6649142369
 20
6.0503936968
 10
14.6750037899
 20
6.0535082458
  0
LWPOLYLINE
  5
53D
100
AcDbEntity
  8
AXIS
100
AcDbPolyline
 62
3
  6
CONTINUOUS
 90
12
 70
0
 10
14.5260036626
 20
6.1450179542
 10
14.5281311086
 20
6.1219870348
 10
14.5344067678
 20
6.0976544743
 10
14.5445159522
 20
6.073240409
 10
14.5579517453
 20
6.0499690619
 10
14.5740404202
 20
6.0290073557
 10
14.5919752236
 20
6.0114063977
 10
14.6108568296
 20
5.9980487736
 10
14.6297384356
 20
5.9896042904
 10
14.647673239
 20
5.9864963897
 10
14.6637619139
 20
5.9888809146
 10
14.670853008
 20
5.9921120091
  0
LWPOLYLINE
  5
53E
100
AcDbEntity
  8
AXIS
100
AcDbPolyline
 62
7
  6
CONTINUOUS
 90
11
 70
0
 10
14.5557020237
 20
6.1621642087
 10
14.5578294698
 20
6.1391332893
 10
14.5641051289
 20
6.1148007288
 10
14.5742143134
 20
6.0903866634
 10
14.5876501065
 20
6.0671153164
 10
14.6037387814
 20
6.0461536101
 10
14.6216735848
 20
6.0285526522
 10
14.6405551908
 20
6.0151950281
 10
14.6594367967
 20
6.0067505448
 10
14.6773716001
 20
6.0036426441
 10
14.6834725456
 20
6.0045468738
  0
LWPOLYLINE
  5
53F
100
AcDbEntity
  8
DEFAULT_2
100
AcDbPolyline
 62
8
  6
HIDDEN
 90
15
 70
0
 10
14.584877371
 20
6.1453201951
 10
14.5860145766
 20
6.1317360629
 10
14.5894566141
 20
6.1171432337
 10
14.5949465909
 20
6.1026308276
 10
14.6024411004
 20
6.0883135868
 10
14.6113807979
 20
6.0752600633
 10
14.6216950019
 20
6.0635734647
 10
14.6328063359
 20
6.0539832995
 10
14.64405123
 20
6.0469923887
 10
14.6553407764
 20
6.0426560058
 10
14.665832392
 20
6.0412977922
 10
14.6754431248
 20
6.0429284866
 10
14.6835793114
 20
6.0475281789
 10
14.6898067309
 20
6.0547559213
 10
14.6940958203
 20
6.0646226277
  0
LINE
  5
540
100
AcDbEntity
  8
0
100
AcDbLine
 62
3
  6
CONTINUOUS
 10
13.517441623
 20
4.2631800724
 11
13.8389590523
 21
4.4488071387
  0
LWPOLYLINE
  5
541
100
AcDbEntity
  8
AXIS
100
AcDbPolyline
 62
7
  6
CONTINUOUS
 90
5
 70
0
 10
14.871438865
 20
5.0017524989
 10
14.8851319066
 20
5.0078524895
 10
14.8979557154
 20
5.010021323
 10
14.9087877911
 20
5.0079151892
 10
14.9111538489
 20
5.0067319105
  0
LWPOLYLINE
  5
542
100
AcDbEntity
  8
AXIS
100
AcDbPolyline
 62
7
  6
CONTINUOUS
 90
5
 70
0
 10
14.4197924511
 20
4.8280145823
 10
14.4371376062
 20
4.8355968296
 10
14.4534747238
 20
4.8378745786
 10
14.4678543502
 20
4.8347154548
 10
14.4710279475
 20
4.8330937711
  0
LWPOLYLINE
  5
543
100
AcDbEntity
  8
AXIS
100
AcDbPolyline
 62
7
  6
CONTINUOUS
 90
3
 70
0
 10
13.9573196012
 20
5.3755069915
 10
13.9642682471
 20
5.3767871683
 10
13.9776890734
 20
5.3830246094
  0
LINE
  5
544
100
AcDbEntity
  8
0
100
AcDbLine
 62
9
  6
CONTINUOUS
 10
14.2160070097
 20
5.4751261556
 11
14.2523801641
 21
5.4630020607
  0
LWPOLYLINE
  5
545
100
AcDbEntity
  8
AXIS
100
AcDbPolyline
 62
3
  6
CONTINUOUS
 90
9
 70
0
 10
14.6215354596
 20
6.15844834
 10
14.6231954884
 20
6.1429300846
 10
14.6280624464
 20
6.12655258
 10
14.6358046585
 20
6.110431926
 10
14.6458945058
 20
6.0956667186
 10
14.6576443818
 20
6.0832631822
 10
14.6702535519
 20
6.0740665973
 10
14.682862722
 20
6.068703696
 10
14.686221599
 20
6.0683710223
  0
LINE
  5
546
100
AcDbEntity
  8
AXIS
100
AcDbLine
 62
7
  6
CONTINUOUS
 10
14.689273283
 20
6.0850485507
 11
14.6889569127
 21
6.0880060395
  0
LINE
  5
547
100
AcDbEntity
  8
AXIS
100
AcDbLine
 62
3
  6
CONTINUOUS
 10
14.6957099966
 20
6.0470401731
 11
14.6935825506
 21
6.0700710925
  0
LINE
  5
548
100
AcDbEntity
  8
0
100
AcDbLine
 62
7
  6
CONTINUOUS
 10
14.2481843886
 20
3.8241489726
 11
14.2181472661
 21
3.7594278162
  0
LWPOLYLINE
  5
549
100
AcDbEntity
  8
0
100
AcDbPolyline
 62
7
  6
CONTINUOUS
 90
3
 70
0
 10
13.517441623
 20
4.2631800724
 10
13.5091891586
 20
4.2590011493
 10
13.5000447089
 20
4.2554729972
  0
LWPOLYLINE
  5
54A
100
AcDbEntity
  8
AXIS
100
AcDbPolyline
 62
3
  6
CONTINUOUS
 90
3
 70
0
 10
14.3900938427
 20
4.6777776984
 10
14.3727486877
 20
4.6701954511
 10
14.356685368
 20
4.6679558755
  0
LWPOLYLINE
  5
54B
100
AcDbEntity
  8
AXIS
100
AcDbPolyline
 62
7
  6
CONTINUOUS
 90
5
 70
0
 10
14.871438865
 20
4.8670296
 10
14.8573500643
 20
4.8611827521
 10
14.843326385
 20
4.8597069409
 10
14.8307765688
 20
4.8627847025
 10
14.8279091277
 20
4.8642529187
  0
LWPOLYLINE
  5
54C
100
AcDbEntity
  8
0
100
AcDbPolyline
 62
7
  6
CONTINUOUS
 90
3
 70
0
 10
14.5876323779
 20
5.6832073416
 10
14.5778163263
 20
5.6812358526
 10
14.5684915551
 20
5.6785777756
  0
LWPOLYLINE
  5
54D
100
AcDbEntity
  8
AXIS
100
AcDbPolyline
 62
3
  6
CONTINUOUS
 90
10
 70
0
 10
14.841738943
 20
4.88417647
 10
14.8553456704
 20
4.8940214565
 10
14.8680373207
 20
4.9076514727
 10
14.8788223005
 20
4.9239459616
 10
14.8872594342
 20
4.9418369186
 10
14.8932001188
 20
4.9607423321
 10
14.8961834135
 20
4.9789033755
 10
14.8961913925
 20
4.9949724259
 10
14.8932158096
 20
5.008735224
 10
14.8929616481
 20
5.0091766987
  0
LWPOLYLINE
  5
54E
100
AcDbEntity
  8
AXIS
100
AcDbPolyline
 62
7
  6
CONTINUOUS
 90
5
 70
0
 10
14.4197924511
 20
4.6606315868
 10
14.4024472961
 20
4.6530493394
 10
14.3861101785
 20
4.6507715904
 10
14.3717305521
 20
4.6539307142
 10
14.3685569548
 20
4.6555523979
  0
LINE
  5
54F
100
AcDbEntity
  8
0
100
AcDbLine
 62
9
  6
CONTINUOUS
 10
14.5684915551
 20
5.6785777756
 11
14.5892112135
 21
5.6574848499
  0
LWPOLYLINE
  5
550
100
AcDbEntity
  8
AXIS
100
AcDbPolyline
 62
3
  6
CONTINUOUS
 90
11
 70
0
 10
14.6935825506
 20
6.0700710925
 10
14.6873068914
 20
6.094403653
 10
14.677197707
 20
6.1188177184
 10
14.6637619139
 20
6.1420890654
 10
14.647673239
 20
6.1630507717
 10
14.6297384356
 20
6.1806517296
 10
14.6108568296
 20
6.1940093537
 10
14.5919752236
 20
6.202453837
 10
14.5740404202
 20
6.2055617377
 10
14.5579517453
 20
6.2031772128
 10
14.5508606512
 20
6.1999461183
  0
LINE
  5
551
100
AcDbEntity
  8
0
100
AcDbLine
 62
9
  6
CONTINUOUS
 10
15.03003466
 20
5.8990911004
 11
15.03003466
 21
4.2660862661
  0
LINE
  5
552
100
AcDbEntity
  8
0
100
AcDbLine
 62
9
  6
CONTINUOUS
 10
15.0591312035
 20
5.9150605639
 11
15.0591312035
 21
4.2820557297
  0
LWPOLYLINE
  5
553
100
AcDbEntity
  8
0
100
AcDbPolyline
 62
7
  6
CONTINUOUS
 90
3
 70
0
 10
13.5000447089
 20
4.2554729972
 10
13.4901845783
 20
4.2526659081
 10
13.4797855437
 20
4.2506281047
  0
LWPOLYLINE
  5
554
100
AcDbEntity
  8
0
100
AcDbPolyline
 62
7
  6
CONTINUOUS
 90
4
 70
0
 10
15.1803449644
 20
5.9338124422
 10
15.1872245211
 20
5.9352580987
 10
15.1935647492
 20
5.9373714982
 10
15.1991730041
 20
5.9400884261
  0
LWPOLYLINE
  5
555
100
AcDbEntity
  8
0
100
AcDbPolyline
 62
7
  6
CONTINUOUS
 90
4
 70
0
 10
15.0482606347
 20
5.9384826595
 10
15.0347823289
 20
5.9356665827
 10
15.0221780155
 20
5.9315080556
 10
15.0111069084
 20
5.9262182912
  0
LINE
  5
556
100
AcDbEntity
  8
0
100
AcDbLine
 62
7
  6
CONTINUOUS
 10
15.1803449644
 20
5.9338124422
 11
15.0591312035
 21
5.9150605639
  0
LINE
  5
557
100
AcDbEntity
  8
0
100
AcDbLine
 62
3
  6
CONTINUOUS
 10
15.1477336201
 20
5.9538712202
 11
15.0482606347
 21
5.9384826595
  0
LWPOLYLINE
  5
558
100
AcDbEntity
  8
0
100
AcDbPolyline
 62
7
  6
CONTINUOUS
 90
3
 70
0
 10
14.2523801641
 20
3.8299972264
 10
14.2499415552
 20
3.8271402718
 10
14.2481843886
 20
3.8241489726
  0
LINE
  5
559
100
AcDbEntity
  8
0
100
AcDbLine
 62
9
  6
CONTINUOUS
 10
13.8524353543
 20
6.0919836634
 11
13.8159006405
 21
6.1039458171
  0
LINE
  5
55A
100
AcDbEntity
  8
0
100
AcDbLine
 62
9
  6
CONTINUOUS
 10
15.1803449644
 20
5.9338124422
 11
15.1803449644
 21
4.300807608
  0
LINE
  5
55B
100
AcDbEntity
  8
0
100
AcDbLine
 62
9
  6
CONTINUOUS
 10
15.1991730041
 20
5.9400884261
 11
15.1991730041
 21
4.3070835918
  0
LWPOLYLINE
  5
55C
100
AcDbEntity
  8
0
100
AcDbPolyline
 62
7
  6
CONTINUOUS
 90
3
 70
0
 10
13.4797855437
 20
5.883632939
 10
13.4901845783
 20
5.8856707424
 10
13.5000447089
 20
5.8884778314
  0
LINE
  5
55D
100
AcDbEntity
  8
0
100
AcDbLine
 62
3
  6
CONTINUOUS
 10
13.3676838599
 20
5.8662907073
 11
13.4797855437
 21
5.883632939
  0
LINE
  5
55E
100
AcDbEntity
  8
0
100
AcDbLine
 62
7
  6
CONTINUOUS
 10
13.3568132911
 20
5.8897128028
 11
13.4689149749
 21
5.9070550345
  0
LINE
  5
55F
100
AcDbEntity
  8
0
100
AcDbLine
 62
9
  6
CONTINUOUS
 10
15.3052385797
 20
6.0013250492
 11
15.3052385797
 21
4.3683202149
  0
LINE
  5
560
100
AcDbEntity
  8
0
100
AcDbLine
 62
7
  6
CONTINUOUS
 10
15.3175399712
 20
6.0184711608
 11
15.3175399712
 21
4.3854663266
  0
LINE
  5
561
100
AcDbEntity
  8
0
100
AcDbLine
 62
7
  6
CONTINUOUS
 10
15.3349369408
 20
6.0184713036
 11
15.3349369408
 21
4.3854664694
  0
LINE
  5
562
100
AcDbEntity
  8
0
100
AcDbLine
 62
3
  6
CONTINUOUS
 10
15.364635302
 20
6.0356175581
 11
15.364635302
 21
4.4026127238
  0
LWPOLYLINE
  5
563
100
AcDbEntity
  8
0
100
AcDbPolyline
 62
7
  6
CONTINUOUS
 90
12
 70
0
 10
15.03003466
 20
4.2660862661
 10
15.0102584583
 20
4.2354901738
 10
14.9858050104
 20
4.2060179288
 10
14.9568733708
 20
4.177919222
 10
14.9237181859
 20
4.1514399019
 10
14.8865657734
 20
4.126762529
 10
14.8457693554
 20
4.1041211914
 10
14.8015889131
 20
4.0836607137
 10
14.7544526063
 20
4.0655796868
 10
14.7046702345
 20
4.0499961308
 10
14.6526989285
 20
4.0370538503
 10
14.5989515629
 20
4.0268513526
  0
LINE
  5
564
100
AcDbEntity
  8
0
100
AcDbLine
 62
9
  6
CONTINUOUS
 10
15.0111069084
 20
5.9262182912
 11
15.040879704
 21
5.9091111037
  0
LINE
  5
565
100
AcDbEntity
  8
0
100
AcDbLine
 62
9
  6
CONTINUOUS
 10
14.2813637558
 20
6.3475261655
 11
14.2517325664
 21
6.364715109
  0
LWPOLYLINE
  5
566
100
AcDbEntity
  8
AXIS
100
AcDbPolyline
 62
7
  6
CONTINUOUS
 90
5
 70
0
 10
14.6429597909
 20
6.1676764818
 10
14.6405551908
 20
6.1694302934
 10
14.6279460206
 20
6.1747931947
 10
14.6161961446
 20
6.1759569395
 10
14.6061065916
 20
6.1728423905
  0
LWPOLYLINE
  5
567
100
AcDbEntity
  8
0
100
AcDbPolyline
 62
7
  6
CONTINUOUS
 90
4
 70
0
 10
15.3175399712
 20
4.3854663277
 10
15.3161089012
 20
4.3791904855
 10
15.3119131256
 20
4.3733422317
 10
15.3052385797
 20
4.3683202149
  0
LWPOLYLINE
  5
568
100
AcDbEntity
  8
0
100
AcDbPolyline
 62
7
  6
CONTINUOUS
 90
3
 70
0
 10
15.040879704
 20
4.2761062695
 10
15.0343551132
 20
4.271456811
 10
15.03003466
 20
4.2660862661
  0
LWPOLYLINE
  5
569
100
AcDbEntity
  8
0
100
AcDbPolyline
 62
7
  6
CONTINUOUS
 90
3
 70
0
 10
14.2590547101
 20
3.8350192432
 10
14.2554433395
 20
3.8326427692
 10
14.2523801641
 20
3.8299972264
  0
LINE
  5
56A
100
AcDbEntity
  8
0
100
AcDbLine
 62
7
  6
CONTINUOUS
 10
14.5805721394
 20
4.0206463096
 11
14.2590547101
 21
3.8350192432
  0
LINE
  5
56B
100
AcDbEntity
  8
0
100
AcDbLine
 62
7
  6
CONTINUOUS
 10
15.364635302
 20
4.4026127238
 11
15.3349369408
 21
4.3854664694
  0
LINE
  5
56C
100
AcDbEntity
  8
0
100
AcDbLine
 62
7
  6
CONTINUOUS
 10
15.3052385797
 20
4.3683202149
 11
15.1991730041
 21
4.3070835918
  0
LWPOLYLINE
  5
56D
100
AcDbEntity
  8
0
100
AcDbPolyline
 62
7
  6
CONTINUOUS
 90
4
 70
0
 10
15.1991730041
 20
4.3070835918
 10
15.1935647492
 20
4.3043666639
 10
15.1872245211
 20
4.3022532645
 10
15.1803449644
 20
4.300807608
  0
LWPOLYLINE
  5
56E
100
AcDbEntity
  8
0
100
AcDbPolyline
 62
7
  6
CONTINUOUS
 90
3
 70
0
 10
14.5892112135
 20
4.0244800156
 10
14.5846568854
 20
4.0227173636
 10
14.5805721394
 20
4.0206463096
  0
LWPOLYLINE
  5
56F
100
AcDbEntity
  8
DEFAULT_2
100
AcDbPolyline
 62
8
  6
HIDDEN
 90
7
 70
0
 10
14.6252655394
 20
6.1838223761
 10
14.6142970762
 20
6.1850277899
 10
14.6043667237
 20
6.1829275906
 10
14.5961247601
 20
6.177573068
 10
14.5900371201
 20
6.1693708298
 10
14.5861890226
 20
6.1584356963
 10
14.584877371
 20
6.1453201938
  0
LINE
  5
570
100
AcDbEntity
  8
0
100
AcDbLine
 62
9
  6
CONTINUOUS
 10
14.33508492
 20
6.4389586281
 11
14.3053863115
 21
6.4561047398
  0
LINE
  5
571
100
AcDbEntity
  8
0
100
AcDbLine
 62
9
  6
CONTINUOUS
 10
15.1694743956
 20
5.9572345378
 11
15.1991730041
 21
5.9400884261
  0
LINE
  5
572
100
AcDbEntity
  8
0
100
AcDbLine
 62
9
  6
CONTINUOUS
 10
15.1694743956
 20
5.9572345378
 11
15.1803449644
 21
5.9338124422
  0
LWPOLYLINE
  5
573
100
AcDbEntity
  8
0
100
AcDbPolyline
 62
7
  6
CONTINUOUS
 90
4
 70
0
 10
15.3175399712
 20
6.018471162
 10
15.3161088107
 20
6.0247471969
 10
15.3119129508
 20
6.0305954306
 10
15.3052383324
 20
6.0356174153
  0
LWPOLYLINE
  5
574
100
AcDbEntity
  8
0
100
AcDbPolyline
 62
7
  6
CONTINUOUS
 90
4
 70
0
 10
14.2472861083
 20
6.3353790948
 10
14.2596703537
 20
6.3383371131
 10
14.271198581
 20
6.3424439272
 10
14.2813637558
 20
6.3475261655
  0
LINE
  5
575
100
AcDbEntity
  8
0
100
AcDbLine
 62
9
  6
CONTINUOUS
 10
14.33508492
 20
6.4389586281
 11
14.29451599
 21
6.4452344692
  0
LINE
  5
576
100
AcDbEntity
  8
0
100
AcDbLine
 62
9
  6
CONTINUOUS
 10
14.4411504956
 20
6.5001952512
 11
14.4114518871
 21
6.5173413629
  0
LINE
  5
577
100
AcDbEntity
  8
0
100
AcDbLine
 62
3
  6
CONTINUOUS
 10
14.4411504956
 20
6.5001952512
 11
15.2755399712
 21
6.0184711608
  0
LINE
  5
578
100
AcDbEntity
  8
0
100
AcDbLine
 62
9
  6
CONTINUOUS
 10
15.2755399712
 20
6.0184711608
 11
15.3052385797
 21
6.0013250492
  0
LINE
  5
579
100
AcDbEntity
  8
0
100
AcDbLine
 62
7
  6
CONTINUOUS
 10
15.3349369408
 20
6.0184713036
 11
14.4411502483
 21
6.5344876173
  0
LINE
  5
57A
100
AcDbEntity
  8
0
100
AcDbLine
 62
3
  6
CONTINUOUS
 10
15.364635302
 20
6.0356175581
 11
14.4708486094
 21
6.5516338718
  0
LWPOLYLINE
  5
57B
100
AcDbEntity
  8
0
100
AcDbPolyline
 62
7
  6
CONTINUOUS
 90
7
 70
0
 10
14.4708488567
 20
6.5173415056
 10
14.4621503441
 20
6.5211950014
 10
14.4520207265
 20
6.523617399
 10
14.4411503207
 20
6.5244436158
 10
14.4302799268
 20
6.5236173467
 10
14.4201503441
 20
6.5211949005
 10
14.4114518871
 20
6.5173413629
  0
LINE
  5
57C
100
AcDbEntity
  8
0
100
AcDbLine
 62
7
  6
CONTINUOUS
 10
8.9653081765
 20
3.5755301125
 11
8.9540543104
 21
3.5755301125
  0
LINE
  5
57D
100
AcDbEntity
  8
0
100
AcDbLine
 62
7
  6
CONTINUOUS
 10
7.9472593911
 20
3.5755301125
 11
7.9360055251
 21
3.5755301125
  0
LINE
  5
57E
100
AcDbEntity
  8
0
100
AcDbLine
 62
7
  6
CONTINUOUS
 10
7.8779773588
 20
3.5755301125
 11
7.8186568905
 21
3.5755301125
  0
LINE
  5
57F
100
AcDbEntity
  8
0
100
AcDbLine
 62
3
  6
CONTINUOUS
 10
7.8779773588
 20
3.5755301125
 11
7.9360055251
 21
3.5755301125
  0
LINE
  5
580
100
AcDbEntity
  8
0
100
AcDbLine
 62
3
  6
CONTINUOUS
 10
7.9472593911
 20
3.5755301125
 11
8.9540543104
 21
3.5755301125
  0
LINE
  5
581
100
AcDbEntity
  8
0
100
AcDbLine
 62
3
  6
CONTINUOUS
 10
8.9653081765
 20
3.5755301125
 11
9.0233363427
 21
3.5755301125
  0
LINE
  5
582
100
AcDbEntity
  8
0
100
AcDbLine
 62
7
  6
CONTINUOUS
 10
9.0233363427
 20
3.5755301125
 11
9.082656811
 21
3.5755301125
  0
LINE
  5
583
100
AcDbEntity
  8
0
100
AcDbLine
 62
7
  6
CONTINUOUS
 10
7.8186568508
 20
4.6573424473
 11
7.8186568508
 21
4.4937172922
  0
LINE
  5
584
100
AcDbEntity
  8
0
100
AcDbLine
 62
7
  6
CONTINUOUS
 10
7.8186568508
 20
3.5755301125
 11
7.8186568508
 21
4.4930301125
  0
LINE
  5
585
100
AcDbEntity
  8
0
100
AcDbLine
 62
7
  6
CONTINUOUS
 10
7.8186568508
 20
4.6580301125
 11
7.8186568508
 21
5.5755301125
  0
LWPOLYLINE
  5
586
100
AcDbEntity
  8
AXIS
100
AcDbPolyline
 62
7
  6
CONTINUOUS
 90
14
 70
0
 10
7.8186568549
 20
4.4932251747
 10
7.8188058523
 20
4.4953594401
 10
7.8194922423
 20
4.5024211228
 10
7.8205462104
 20
4.5136607807
 10
7.8216990479
 20
4.5283516837
 10
7.8226987658
 20
4.5461878091
 10
7.8232629698
 20
4.5656532225
 10
7.8232650657
 20
4.5852627827
 10
7.8227031407
 20
4.6047710798
 10
7.8217052976
 20
4.6226174149
 10
7.8205543219
 20
4.6373070582
 10
7.819495971
 20
4.648601217
 10
7.8188061427
 20
4.6556975387
 10
7.8186568543
 20
4.6578376315
  0
LINE
  5
587
100
AcDbEntity
  8
AXIS
100
AcDbLine
 62
7
  6
CENTER
 10
8.7006568508
 20
3.9505301125
 11
8.4806568508
 21
3.9505301125
  0
LINE
  5
588
100
AcDbEntity
  8
AXIS
100
AcDbLine
 62
7
  6
CENTER
 10
8.2006568508
 20
3.9505301125
 11
7.9806568508
 21
3.9505301125
  0
LINE
  5
589
100
AcDbEntity
  8
AXIS
100
AcDbLine
 62
7
  6
CENTER
 10
8.2006568508
 20
3.9505301125
 11
8.4206568508
 21
3.9505301125
  0
LINE
  5
58A
100
AcDbEntity
  8
AXIS
100
AcDbLine
 62
7
  6
CENTER
 10
8.7006568508
 20
3.9505301125
 11
8.9206568508
 21
3.9505301125
  0
LINE
  5
58B
100
AcDbEntity
  8
0
100
AcDbLine
 62
7
  6
CONTINUOUS
 10
7.8416042919
 20
5.5755301125
 11
7.8416042919
 21
3.5755301125
  0
LINE
  5
58C
100
AcDbEntity
  8
0
100
AcDbLine
 62
3
  6
CONTINUOUS
 10
7.8779773588
 20
5.5755301125
 11
7.8779773588
 21
3.5755301125
  0
LINE
  5
58D
100
AcDbEntity
  8
AXIS
100
AcDbLine
 62
7
  6
CONTINUOUS
 10
7.8191594302
 20
4.4953572042
 11
7.8186829436
 21
4.4930301125
  0
LINE
  5
58E
100
AcDbEntity
  8
AXIS
100
AcDbLine
 62
7
  6
CONTINUOUS
 10
7.8186829436
 20
4.6580301125
 11
7.819159112
 21
4.655704956
  0
LWPOLYLINE
  5
58F
100
AcDbEntity
  8
AXIS
100
AcDbPolyline
 62
7
  6
CONTINUOUS
 90
12
 70
0
 10
7.819159112
 20
4.655704956
 10
7.82018632
 20
4.6486537604
 10
7.8215399123
 20
4.6374168022
 10
7.8229351875
 20
4.6227208224
 10
7.8241103784
 20
4.6048780969
 10
7.8247642698
 20
4.5854051127
 10
7.824766494
 20
4.5657877407
 10
7.8241149018
 20
4.5462721418
 10
7.8229418092
 20
4.5284206652
 10
7.8215491586
 20
4.5137285299
 10
7.8201908324
 20
4.5024402973
 10
7.8191594302
 20
4.4953572042
  0
LINE
  5
590
100
AcDbEntity
  8
0
100
AcDbLine
 62
9
  6
CONTINUOUS
 10
7.9360055251
 20
5.5755301125
 11
7.9360055251
 21
3.5755301125
  0
LINE
  5
591
100
AcDbEntity
  8
0
100
AcDbLine
 62
3
  6
CONTINUOUS
 10
7.9472593911
 20
5.5755301125
 11
7.9472593911
 21
3.5755301125
  0
LINE
  5
592
100
AcDbEntity
  8
AXIS
100
AcDbLine
 62
7
  6
CENTER
 10
8.1006568508
 20
5.2005301125
 11
8.1006568508
 21
4.9805301125
  0
LINE
  5
593
100
AcDbEntity
  8
AXIS
100
AcDbLine
 62
7
  6
CENTER
 10
8.1006568508
 20
5.2005301125
 11
8.1006568508
 21
5.4205301125
  0
LINE
  5
594
100
AcDbEntity
  8
AXIS
100
AcDbLine
 62
7
  6
CENTER
 10
8.2006568508
 20
3.9505301125
 11
8.2006568508
 21
3.7305301125
  0
LINE
  5
595
100
AcDbEntity
  8
AXIS
100
AcDbLine
 62
7
  6
CENTER
 10
8.2006568508
 20
3.9505301125
 11
8.2006568508
 21
4.1705301125
  0
LINE
  5
596
100
AcDbEntity
  8
AXIS
100
AcDbLine
 62
7
  6
CENTER
 10
8.7006568508
 20
3.9505301125
 11
8.7006568508
 21
3.7305301125
  0
LINE
  5
597
100
AcDbEntity
  8
AXIS
100
AcDbLine
 62
7
  6
CENTER
 10
8.7006568508
 20
3.9505301125
 11
8.7006568508
 21
4.1705301125
  0
LINE
  5
598
100
AcDbEntity
  8
AXIS
100
AcDbLine
 62
7
  6
CENTER
 10
8.8006568508
 20
5.2005301125
 11
8.8006568508
 21
4.9713442741
  0
LINE
  5
599
100
AcDbEntity
  8
AXIS
100
AcDbLine
 62
7
  6
CENTER
 10
8.8006568508
 20
5.2005301125
 11
8.8006568508
 21
5.4205301125
  0
LINE
  5
59A
100
AcDbEntity
  8
0
100
AcDbLine
 62
3
  6
CONTINUOUS
 10
8.9540543104
 20
5.5755301125
 11
8.9540543104
 21
3.5755301125
  0
LINE
  5
59B
100
AcDbEntity
  8
0
100
AcDbLine
 62
9
  6
CONTINUOUS
 10
8.9653081765
 20
5.5755301125
 11
8.9653081765
 21
3.5755301125
  0
LINE
  5
59C
100
AcDbEntity
  8
0
100
AcDbLine
 62
3
  6
CONTINUOUS
 10
9.0233363427
 20
5.5755301125
 11
9.0233363427
 21
3.5755301125
  0
LINE
  5
59D
100
AcDbEntity
  8
0
100
AcDbLine
 62
7
  6
CONTINUOUS
 10
9.0597094097
 20
5.5755301125
 11
9.0597094097
 21
3.5755301125
  0
LINE
  5
59E
100
AcDbEntity
  8
0
100
AcDbLine
 62
7
  6
CONTINUOUS
 10
9.0826568508
 20
4.6573421092
 11
9.0826568508
 21
4.493717571
  0
LINE
  5
59F
100
AcDbEntity
  8
0
100
AcDbLine
 62
7
  6
CONTINUOUS
 10
9.0826568508
 20
3.5755301125
 11
9.0826568508
 21
4.4930301125
  0
LINE
  5
5A0
100
AcDbEntity
  8
0
100
AcDbLine
 62
7
  6
CONTINUOUS
 10
9.0826568508
 20
4.6580301125
 11
9.0826568508
 21
5.5755301125
  0
LWPOLYLINE
  5
5A1
100
AcDbEntity
  8
AXIS
100
AcDbPolyline
 62
7
  6
CONTINUOUS
 90
14
 70
0
 10
9.0826568472
 20
4.6578374911
 10
9.0825073564
 20
4.6556952764
 10
9.0818169676
 20
4.648593465
 10
9.0807584222
 20
4.637296146
 10
9.0796076941
 20
4.6226070546
 10
9.0786102248
 20
4.6047632807
 10
9.0780485828
 20
4.5852591045
 10
9.0780507201
 20
4.5656540117
 10
9.0786147185
 20
4.5461928345
 10
9.0796141069
 20
4.528359649
 10
9.0807666917
 20
4.5136698808
 10
9.0818208028
 20
4.5024277921
 10
9.0825076825
 20
4.495361304
 10
9.0826568466
 20
4.4932252605
  0
LINE
  5
5A2
100
AcDbEntity
  8
AXIS
100
AcDbLine
 62
7
  6
CONTINUOUS
 10
9.0821548533
 20
4.6557065598
 11
9.082630758
 21
4.6580301125
  0
LINE
  5
5A3
100
AcDbEntity
  8
AXIS
100
AcDbLine
 62
7
  6
CENTER
 10
8.8006568508
 20
5.2005301125
 11
8.5806568508
 21
5.2005301125
  0
LINE
  5
5A4
100
AcDbEntity
  8
AXIS
100
AcDbLine
 62
7
  6
CENTER
 10
8.1006568508
 20
5.2005301125
 11
7.8806568508
 21
5.2005301125
  0
LINE
  5
5A5
100
AcDbEntity
  8
AXIS
100
AcDbLine
 62
7
  6
CENTER
 10
8.1006568508
 20
5.2005301125
 11
8.567101684
 21
5.2005301125
  0
LINE
  5
5A6
100
AcDbEntity
  8
AXIS
100
AcDbLine
 62
7
  6
CENTER
 10
8.8006568508
 20
5.2005301125
 11
9.0206568508
 21
5.2005301125
  0
LINE
  5
5A7
100
AcDbEntity
  8
AXIS
100
AcDbLine
 62
7
  6
CONTINUOUS
 10
9.082630758
 20
4.4930301125
 11
9.0821545905
 21
4.4953552632
  0
LWPOLYLINE
  5
5A8
100
AcDbEntity
  8
AXIS
100
AcDbPolyline
 62
7
  6
CONTINUOUS
 90
12
 70
0
 10
9.0821545905
 20
4.4953552632
 10
9.081123823
 20
4.5024331429
 10
9.0797656451
 20
4.513718378
 10
9.0783726696
 20
4.5284111193
 10
9.0771991577
 20
4.5462650072
 10
9.0765472632
 20
4.5657843998
 10
9.0765494444
 20
4.5854058619
 10
9.0772035568
 20
4.6048827408
 10
9.0783791171
 20
4.6227282157
 10
9.0797747162
 20
4.6374253279
 10
9.0811282096
 20
4.648659967
 10
9.0821548533
 20
4.6557065598
  0
LINE
  5
5A9
100
AcDbEntity
  8
0
100
AcDbLine
 62
7
  6
CONTINUOUS
 10
7.8779773588
 20
5.5755301125
 11
7.8186568905
 21
5.5755301125
  0
LINE
  5
5AA
100
AcDbEntity
  8
0
100
AcDbLine
 62
3
  6
CONTINUOUS
 10
7.8779773588
 20
5.5755301125
 11
7.9360055251
 21
5.5755301125
  0
LINE
  5
5AB
100
AcDbEntity
  8
0
100
AcDbLine
 62
7
  6
CONTINUOUS
 10
7.9360055251
 20
5.5755301125
 11
7.9472593911
 21
5.5755301125
  0
LINE
  5
5AC
100
AcDbEntity
  8
0
100
AcDbLine
 62
3
  6
CONTINUOUS
 10
7.9472593911
 20
5.5755301125
 11
8.9540543104
 21
5.5755301125
  0
LINE
  5
5AD
100
AcDbEntity
  8
0
100
AcDbLine
 62
7
  6
CONTINUOUS
 10
8.9540543104
 20
5.5755301125
 11
8.9653081765
 21
5.5755301125
  0
LINE
  5
5AE
100
AcDbEntity
  8
0
100
AcDbLine
 62
3
  6
CONTINUOUS
 10
8.9653081765
 20
5.5755301125
 11
9.0233363427
 21
5.5755301125
  0
LINE
  5
5AF
100
AcDbEntity
  8
0
100
AcDbLine
 62
7
  6
CONTINUOUS
 10
9.0233363427
 20
5.5755301125
 11
9.082656811
 21
5.5755301125
  0
LINE
  5
5B0
100
AcDbEntity
  8
0
100
AcDbLine
 62
7
  6
CONTINUOUS
 10
7.8779773588
 20
7.1727497176
 11
7.8416042919
 21
7.1937497176
  0
LINE
  5
5B1
100
AcDbEntity
  8
0
100
AcDbLine
 62
9
  6
CONTINUOUS
 10
7.8606568508
 20
8.5581877653
 11
7.8242837838
 21
8.5371877653
  0
LINE
  5
5B2
100
AcDbEntity
  8
0
100
AcDbLine
 62
9
  6
CONTINUOUS
 10
8.956916541
 20
7.29351665
 11
8.9974854257
 21
7.3043870499
  0
LINE
  5
5B3
100
AcDbEntity
  8
0
100
AcDbLine
 62
9
  6
CONTINUOUS
 10
7.9443971606
 20
7.29351665
 11
7.9038282759
 21
7.3043870499
  0
LINE
  5
5B4
100
AcDbEntity
  8
0
100
AcDbLine
 62
7
  6
CONTINUOUS
 10
7.8186568508
 20
8.7921877653
 11
7.8186568508
 21
8.7501877653
  0
LINE
  5
5B5
100
AcDbEntity
  8
0
100
AcDbLine
 62
7
  6
CONTINUOUS
 10
7.8186568508
 20
8.5581877653
 11
7.8186568508
 21
8.7081877653
  0
LINE
  5
5B6
100
AcDbEntity
  8
0
100
AcDbLine
 62
3
  6
CONTINUOUS
 10
7.8606568508
 20
8.5806954975
 11
7.8606568508
 21
8.7081877653
  0
LINE
  5
5B7
100
AcDbEntity
  8
0
100
AcDbLine
 62
9
  6
CONTINUOUS
 10
7.8606568508
 20
8.7081877653
 11
7.8606568508
 21
8.7501877653
  0
LINE
  5
5B8
100
AcDbEntity
  8
0
100
AcDbLine
 62
7
  6
CONTINUOUS
 10
7.9052593911
 20
7.3152574498
 11
7.9052593911
 21
7.7699536519
  0
LINE
  5
5B9
100
AcDbEntity
  8
0
100
AcDbLine
 62
3
  6
CONTINUOUS
 10
7.9472593911
 20
7.3152574498
 11
7.9472593911
 21
7.7699536519
  0
LINE
  5
5BA
100
AcDbEntity
  8
0
100
AcDbLine
 62
7
  6
CONTINUOUS
 10
7.8870287135
 20
8.4285103591
 11
7.8242837838
 21
8.5371877653
  0
LINE
  5
5BB
100
AcDbEntity
  8
0
100
AcDbLine
 62
3
  6
CONTINUOUS
 10
7.9234017805
 20
8.4495103591
 11
7.8719107169
 21
8.5386954975
  0
LINE
  5
5BC
100
AcDbEntity
  8
0
100
AcDbLine
 62
7
  6
CONTINUOUS
 10
7.8416042919
 20
7.1937497176
 11
7.8996324581
 21
7.2942574498
  0
LINE
  5
5BD
100
AcDbEntity
  8
0
100
AcDbLine
 62
3
  6
CONTINUOUS
 10
7.8779773588
 20
7.1727497176
 11
7.9360055251
 21
7.2732574498
  0
LINE
  5
5BE
100
AcDbEntity
  8
0
100
AcDbLine
 62
9
  6
CONTINUOUS
 10
7.9443307635
 20
7.7919407524
 11
7.9038459772
 21
7.7807577729
  0
LINE
  5
5BF
100
AcDbEntity
  8
0
100
AcDbLine
 62
9
  6
CONTINUOUS
 10
8.9569829381
 20
7.7919407524
 11
8.9974677243
 21
7.7807577729
  0
LINE
  5
5C0
100
AcDbEntity
  8
0
100
AcDbLine
 62
3
  6
CONTINUOUS
 10
8.9653081765
 20
7.2732574498
 11
9.0233363427
 21
7.1727497176
  0
LINE
  5
5C1
100
AcDbEntity
  8
0
100
AcDbLine
 62
7
  6
CONTINUOUS
 10
9.0016812434
 20
7.2942574498
 11
9.0597094097
 21
7.1937497176
  0
LINE
  5
5C2
100
AcDbEntity
  8
0
100
AcDbLine
 62
3
  6
CONTINUOUS
 10
9.0294029847
 20
8.5386954975
 11
8.977911921
 21
8.4495103591
  0
LINE
  5
5C3
100
AcDbEntity
  8
0
100
AcDbLine
 62
7
  6
CONTINUOUS
 10
9.0770299177
 20
8.5371877653
 11
9.014284988
 21
8.4285103591
  0
LINE
  5
5C4
100
AcDbEntity
  8
0
100
AcDbLine
 62
9
  6
CONTINUOUS
 10
8.9666610342
 20
8.4082178173
 11
9.00866582
 21
8.4083179484
  0
LINE
  5
5C5
100
AcDbEntity
  8
0
100
AcDbLine
 62
9
  6
CONTINUOUS
 10
7.9346526674
 20
8.4082178173
 11
7.8926478816
 21
8.4083179484
  0
LINE
  5
5C6
100
AcDbEntity
  8
0
100
AcDbLine
 62
3
  6
CONTINUOUS
 10
8.9540543104
 20
7.7699536519
 11
8.9540543104
 21
7.3152574498
  0
LINE
  5
5C7
100
AcDbEntity
  8
0
100
AcDbLine
 62
7
  6
CONTINUOUS
 10
8.9960543104
 20
7.7699536519
 11
8.9960543104
 21
7.3152574498
  0
LINE
  5
5C8
100
AcDbEntity
  8
0
100
AcDbLine
 62
3
  6
CONTINUOUS
 10
9.0406568508
 20
8.7081877653
 11
9.0406568508
 21
8.5806954975
  0
LINE
  5
5C9
100
AcDbEntity
  8
0
100
AcDbLine
 62
9
  6
CONTINUOUS
 10
9.0406568508
 20
8.7081877653
 11
9.0406568508
 21
8.7501877653
  0
LINE
  5
5CA
100
AcDbEntity
  8
0
100
AcDbLine
 62
9
  6
CONTINUOUS
 10
7.8606568508
 20
8.5581877653
 11
7.8186568508
 21
8.5581877653
  0
LINE
  5
5CB
100
AcDbEntity
  8
0
100
AcDbLine
 62
9
  6
CONTINUOUS
 10
9.0406568508
 20
8.5581877653
 11
9.0826568508
 21
8.5581877653
  0
LINE
  5
5CC
100
AcDbEntity
  8
0
100
AcDbLine
 62
7
  6
CONTINUOUS
 10
9.0826568508
 20
8.7921877653
 11
9.0826568508
 21
8.7501877653
  0
LINE
  5
5CD
100
AcDbEntity
  8
0
100
AcDbLine
 62
7
  6
CONTINUOUS
 10
9.0826568508
 20
8.7081877653
 11
9.0826568508
 21
8.5581877653
  0
LINE
  5
5CE
100
AcDbEntity
  8
0
100
AcDbLine
 62
9
  6
CONTINUOUS
 10
7.8606568508
 20
8.7081877653
 11
7.8186568508
 21
8.7081877653
  0
LINE
  5
5CF
100
AcDbEntity
  8
0
100
AcDbLine
 62
3
  6
CONTINUOUS
 10
7.8606568508
 20
8.7081877653
 11
9.0406568508
 21
8.7081877653
  0
LINE
  5
5D0
100
AcDbEntity
  8
0
100
AcDbLine
 62
9
  6
CONTINUOUS
 10
9.0406568508
 20
8.7081877653
 11
9.0826568508
 21
8.7081877653
  0
LINE
  5
5D1
100
AcDbEntity
  8
0
100
AcDbLine
 62
7
  6
CONTINUOUS
 10
9.0826568508
 20
8.7501877653
 11
7.8186568508
 21
8.7501877653
  0
LINE
  5
5D2
100
AcDbEntity
  8
0
100
AcDbLine
 62
3
  6
CONTINUOUS
 10
9.0826568508
 20
8.7921877653
 11
7.8186568508
 21
8.7921877653
  0
LINE
  5
5D3
100
AcDbEntity
  8
0
100
AcDbLine
 62
9
  6
CONTINUOUS
 10
9.0406568508
 20
8.5581877653
 11
9.0770299177
 21
8.5371877653
  0
LINE
  5
5D4
100
AcDbEntity
  8
0
100
AcDbLine
 62
7
  6
CONTINUOUS
 10
9.0233363427
 20
7.1727497176
 11
9.0597094097
 21
7.1937497176
  0
LINE
  5
5D5
100
AcDbEntity
  8
0
100
AcDbLine
 62
7
  6
CONTINUOUS
 10
2.93341118
 20
3.5755301125
 11
4.5528492277
 21
3.5755301125
  0
LINE
  5
5D6
100
AcDbEntity
  8
0
100
AcDbLine
 62
3
  6
CONTINUOUS
 10
2.93341118
 20
5.5755301125
 11
2.93341118
 21
3.5755301125
  0
LINE
  5
5D7
100
AcDbEntity
  8
0
100
AcDbLine
 62
7
  6
CONTINUOUS
 10
2.97541118
 20
5.5755301125
 11
2.97541118
 21
3.5755301125
  0
LINE
  5
5D8
100
AcDbEntity
  8
0
100
AcDbLine
 62
9
  6
CONTINUOUS
 10
3.01741118
 20
5.5755301125
 11
3.01741118
 21
3.5755301125
  0
LINE
  5
5D9
100
AcDbEntity
  8
0
100
AcDbLine
 62
9
  6
CONTINUOUS
 10
3.16741118
 20
5.5755301125
 11
3.16741118
 21
3.5755301125
  0
LINE
  5
5DA
100
AcDbEntity
  8
0
100
AcDbLine
 62
9
  6
CONTINUOUS
 10
3.18841118
 20
5.5755301125
 11
3.18841118
 21
3.5755301125
  0
LINE
  5
5DB
100
AcDbEntity
  8
0
100
AcDbLine
 62
9
  6
CONTINUOUS
 10
3.2970885862
 20
5.5755301125
 11
3.2970885862
 21
3.5755301125
  0
LINE
  5
5DC
100
AcDbEntity
  8
0
100
AcDbLine
 62
9
  6
CONTINUOUS
 10
3.3372217434
 20
5.5755301125
 11
3.3372217434
 21
3.5755301125
  0
LINE
  5
5DD
100
AcDbEntity
  8
AXIS
100
AcDbLine
 62
7
  6
CENTER
 10
3.630873081
 20
4.5755301125
 11
3.630873081
 21
4.3930301125
  0
LINE
  5
5DE
100
AcDbEntity
  8
AXIS
100
AcDbLine
 62
7
  6
CENTER
 10
3.630873081
 20
4.5755301125
 11
3.630873081
 21
4.7580301125
  0
LINE
  5
5DF
100
AcDbEntity
  8
AXIS
100
AcDbLine
 62
7
  6
CENTER
 10
4.1830230557
 20
4.5755301125
 11
3.9805230557
 21
4.5755301125
  0
LINE
  5
5E0
100
AcDbEntity
  8
AXIS
100
AcDbLine
 62
7
  6
CENTER
 10
3.630873081
 20
4.5755301125
 11
3.448373081
 21
4.5755301125
  0
LINE
  5
5E1
100
AcDbEntity
  8
AXIS
100
AcDbLine
 62
7
  6
CENTER
 10
3.630873081
 20
4.5755301125
 11
3.813373081
 21
4.5755301125
  0
LINE
  5
5E2
100
AcDbEntity
  8
AXIS
100
AcDbLine
 62
7
  6
CENTER
 10
4.1830230557
 20
4.5755301125
 11
4.3855230557
 21
4.5755301125
  0
LINE
  5
5E3
100
AcDbEntity
  8
0
100
AcDbLine
 62
9
  6
CONTINUOUS
 10
3.9350493976
 20
5.5755301125
 11
3.9350493976
 21
3.5755301125
  0
LINE
  5
5E4
100
AcDbEntity
  8
0
100
AcDbLine
 62
9
  6
CONTINUOUS
 10
3.9556452934
 20
5.5755301125
 11
3.9556452934
 21
3.5755301125
  0
LINE
  5
5E5
100
AcDbEntity
  8
AXIS
100
AcDbLine
 62
7
  6
CENTER
 10
4.1830230557
 20
4.5755301125
 11
4.1830230557
 21
4.3730301125
  0
LINE
  5
5E6
100
AcDbEntity
  8
AXIS
100
AcDbLine
 62
7
  6
CENTER
 10
4.1830230557
 20
4.5755301125
 11
4.1830230557
 21
4.7780301125
  0
LINE
  5
5E7
100
AcDbEntity
  8
0
100
AcDbLine
 62
9
  6
CONTINUOUS
 10
4.4103414955
 20
5.5755301125
 11
4.4103414955
 21
3.5755301125
  0
LINE
  5
5E8
100
AcDbEntity
  8
0
100
AcDbLine
 62
9
  6
CONTINUOUS
 10
4.4313414955
 20
5.5755301125
 11
4.4313414955
 21
3.5755301125
  0
LINE
  5
5E9
100
AcDbEntity
  8
0
100
AcDbLine
 62
7
  6
CONTINUOUS
 10
4.5318492277
 20
5.5755301125
 11
4.5318492277
 21
3.5755301125
  0
LINE
  5
5EA
100
AcDbEntity
  8
0
100
AcDbLine
 62
3
  6
CONTINUOUS
 10
4.5528492277
 20
5.5755301125
 11
4.5528492277
 21
3.5755301125
  0
LINE
  5
5EB
100
AcDbEntity
  8
0
100
AcDbLine
 62
7
  6
CONTINUOUS
 10
2.93341118
 20
5.5755301125
 11
4.5528492277
 21
5.5755301125
  0
CIRCLE
  5
5EC
100
AcDbEntity
  8
0
100
AcDbCircle
 62
7
  6
CONTINUOUS
 10
10.5342808475
 20
1.243294839
 40
0.252091
  0
CIRCLE
  5
5ED
100
AcDbEntity
  8
0
100
AcDbCircle
 62
7
  6
CONTINUOUS
 10
10.5342808475
 20
1.243294839
 40
0.182698
  0
CIRCLE
  5
5EE
100
AcDbEntity
  8
AXIS
100
AcDbCircle
 62
3
  6
CONTINUOUS
 10
8.8006568508
 20
5.2005301125
 40
0.12
  0
CIRCLE
  5
5EF
100
AcDbEntity
  8
AXIS
100
AcDbCircle
 62
3
  6
CONTINUOUS
 10
8.1006568508
 20
5.2005301125
 40
0.12
  0
CIRCLE
  5
5F0
100
AcDbEntity
  8
AXIS
100
AcDbCircle
 62
3
  6
CONTINUOUS
 10
8.7006568508
 20
3.9505301125
 40
0.12
  0
CIRCLE
  5
5F1
100
AcDbEntity
  8
AXIS
100
AcDbCircle
 62
3
  6
CONTINUOUS
 10
8.2006568508
 20
3.9505301125
 40
0.12
  0
CIRCLE
  5
5F2
100
AcDbEntity
  8
DEFAULT_2
100
AcDbCircle
 62
8
  6
HIDDEN
 10
8.2006568508
 20
3.9505301125
 40
0.07874
  0
CIRCLE
  5
5F3
100
AcDbEntity
  8
DEFAULT_2
100
AcDbCircle
 62
8
  6
HIDDEN
 10
8.7006568508
 20
3.9505301125
 40
0.07874
  0
CIRCLE
  5
5F4
100
AcDbEntity
  8
DEFAULT_2
100
AcDbCircle
 62
8
  6
HIDDEN
 10
8.1006568508
 20
5.2005301125
 40
0.07874
  0
CIRCLE
  5
5F5
100
AcDbEntity
  8
DEFAULT_2
100
AcDbCircle
 62
8
  6
HIDDEN
 10
8.8006568508
 20
5.2005301125
 40
0.07874
  0
CIRCLE
  5
5F6
100
AcDbEntity
  8
AXIS
100
AcDbCircle
 62
7
  6
CONTINUOUS
 10
8.2006568508
 20
3.9505301125
 40
0.0688975
  0
CIRCLE
  5
5F7
100
AcDbEntity
  8
AXIS
100
AcDbCircle
 62
7
  6
CONTINUOUS
 10
8.7006568508
 20
3.9505301125
 40
0.0688975
  0
CIRCLE
  5
5F8
100
AcDbEntity
  8
AXIS
100
AcDbCircle
 62
7
  6
CONTINUOUS
 10
8.1006568508
 20
5.2005301125
 40
0.0688975
  0
CIRCLE
  5
5F9
100
AcDbEntity
  8
AXIS
100
AcDbCircle
 62
7
  6
CONTINUOUS
 10
8.8006568508
 20
5.2005301125
 40
0.0688975
  0
ARC
  5
5FA
100
AcDbEntity
  8
0
100
AcDbCircle
 62
7
  6
CONTINUOUS
 10
8.4506568508
 20
8.1004687415
 40
0.632
100
AcDbArc
 50
330.6345395794
 51
27.1004154099
  0
ARC
  5
5FB
100
AcDbEntity
  8
0
100
AcDbCircle
 62
7
  6
CONTINUOUS
 10
8.4506568508
 20
8.1004687415
 40
0.632
100
AcDbArc
 50
152.8995845901
 51
209.3654604206
  0
ARC
  5
5FC
100
AcDbEntity
  8
0
100
AcDbCircle
 62
3
  6
CONTINUOUS
 10
8.4506568508
 20
8.1004687415
 40
0.59
100
AcDbArc
 50
330.6345395794
 51
27.1004154099
  0
ARC
  5
5FD
100
AcDbEntity
  8
0
100
AcDbCircle
 62
3
  6
CONTINUOUS
 10
8.4506568508
 20
8.1004687415
 40
0.59
100
AcDbArc
 50
152.8995845901
 51
209.3654604206
  0
ARC
  5
5FE
100
AcDbEntity
  8
0
100
AcDbCircle
 62
7
  6
CONTINUOUS
 10
9.0380543104
 20
7.3152574498
 40
0.084
100
AcDbArc
 50
180.0
 51
210.0
  0
ARC
  5
5FF
100
AcDbEntity
  8
0
100
AcDbCircle
 62
7
  6
CONTINUOUS
 10
7.8632593911
 20
7.3152574498
 40
0.084
100
AcDbArc
 50
330.0
 51
360.0
  0
ARC
  5
600
100
AcDbEntity
  8
0
100
AcDbCircle
 62
7
  6
CONTINUOUS
 10
7.8632593911
 20
7.7699536519
 40
0.084
100
AcDbArc
 50
0.0
 51
29.3654604206
  0
ARC
  5
601
100
AcDbEntity
  8
0
100
AcDbCircle
 62
7
  6
CONTINUOUS
 10
9.0380543104
 20
7.7699536519
 40
0.084
100
AcDbArc
 50
150.6345395794
 51
180.0
  0
ARC
  5
602
100
AcDbEntity
  8
0
100
AcDbCircle
 62
7
  6
CONTINUOUS
 10
9.050658055
 20
8.4075103591
 40
0.084
100
AcDbArc
 50
150.0
 51
207.1004154099
  0
ARC
  5
603
100
AcDbEntity
  8
0
100
AcDbCircle
 62
7
  6
CONTINUOUS
 10
7.8506556466
 20
8.4075103591
 40
0.084
100
AcDbArc
 50
332.8995845901
 51
30.0
  0
ARC
  5
604
100
AcDbEntity
  8
0
100
AcDbCircle
 62
7
  6
CONTINUOUS
 10
8.9566568508
 20
8.5806954975
 40
0.084
100
AcDbArc
 50
330.0
 51
360.0
  0
ARC
  5
605
100
AcDbEntity
  8
0
100
AcDbCircle
 62
7
  6
CONTINUOUS
 10
7.9446568508
 20
8.5806954975
 40
0.084
100
AcDbArc
 50
180.0
 51
210.0
  0
ARC
  5
606
100
AcDbEntity
  8
0
100
AcDbCircle
 62
7
  6
CONTINUOUS
 10
9.0406568508
 20
8.5581877653
 40
0.042
100
AcDbArc
 50
330.0
 51
360.0
  0
ARC
  5
607
100
AcDbEntity
  8
0
100
AcDbCircle
 62
7
  6
CONTINUOUS
 10
9.0406568508
 20
8.7081877653
 40
0.042
100
AcDbArc
 50
0.0
 51
90.0
  0
ARC
  5
608
100
AcDbEntity
  8
0
100
AcDbCircle
 62
7
  6
CONTINUOUS
 10
7.8606568508
 20
8.7081877653
 40
0.042
100
AcDbArc
 50
90.0
 51
180.0
  0
ARC
  5
609
100
AcDbEntity
  8
0
100
AcDbCircle
 62
7
  6
CONTINUOUS
 10
7.8606568508
 20
8.5581877653
 40
0.042
100
AcDbArc
 50
180.0
 51
210.0
  0
ARC
  5
60A
100
AcDbEntity
  8
0
100
AcDbCircle
 62
7
  6
CONTINUOUS
 10
9.0380543104
 20
7.3152574498
 40
0.042
100
AcDbArc
 50
180.0
 51
210.0
  0
ARC
  5
60B
100
AcDbEntity
  8
0
100
AcDbCircle
 62
7
  6
CONTINUOUS
 10
7.8632593911
 20
7.3152574498
 40
0.042
100
AcDbArc
 50
330.0
 51
360.0
  0
ARC
  5
60C
100
AcDbEntity
  8
0
100
AcDbCircle
 62
7
  6
CONTINUOUS
 10
9.0380543104
 20
7.7699536519
 40
0.042
100
AcDbArc
 50
150.6345395794
 51
180.0
  0
ARC
  5
60D
100
AcDbEntity
  8
0
100
AcDbCircle
 62
7
  6
CONTINUOUS
 10
7.8506556466
 20
8.4075103591
 40
0.042
100
AcDbArc
 50
332.8995845901
 51
30.0
  0
ARC
  5
60E
100
AcDbEntity
  8
0
100
AcDbCircle
 62
7
  6
CONTINUOUS
 10
9.050658055
 20
8.4075103591
 40
0.042
100
AcDbArc
 50
150.0
 51
207.1004154099
  0
ARC
  5
60F
100
AcDbEntity
  8
0
100
AcDbCircle
 62
7
  6
CONTINUOUS
 10
7.8632593911
 20
7.7699536519
 40
0.042
100
AcDbArc
 50
0.0
 51
29.3654604206
  0
CIRCLE
  5
610
100
AcDbEntity
  8
AXIS
100
AcDbCircle
 62
7
  6
CONTINUOUS
 10
4.1830230557
 20
4.5755301125
 40
0.1025
  0
CIRCLE
  5
611
100
AcDbEntity
  8
AXIS
100
AcDbCircle
 62
7
  6
CONTINUOUS
 10
3.630873081
 20
4.5755301125
 40
0.0825
  0
ENDSEC
  0
SECTION
  2
OBJECTS
  0
DICTIONARY
  5
C
100
AcDbDictionary
280
0
281
1
  3
ACAD_GROUP
350
D
  3
ACAD_MLINESTYLE
350
17
  3
ACAD_LAYOUT
350
1A
  3
ACAD_PLOTSETTINGS
350
19
  3
ACAD_PLOTSTYLENAME
350
E
  0
DICTIONARY
  5
D
102
{ACAD_REACTORS
330
C
102
}
100
AcDbDictionary
280
0
281
1
  0
ACDBDICTIONARYWDFLT
  5
E
102
{ACAD_REACTORS
330
C
102
}
100
AcDbDictionary
281
1
  3
Normal
350
F
100
AcDbDictionaryWithDefault
340
F
  0
DICTIONARY
  5
17
102
{ACAD_REACTORS
330
C
102
}
100
AcDbDictionary
280
0
281
1
  3
Standard
350
18
  0
DICTIONARY
  5
19
102
{ACAD_REACTORS
330
C
102
}
100
AcDbDictionary
281
1
  0
DICTIONARY
  5
1A
102
{ACAD_REACTORS
330
C
102
}
100
AcDbDictionary
281
1
  3
Layout1
350
1E
  3
Model
350
22
  0
ACDBPLACEHOLDER
  5
F
102
{ACAD_REACTORS
330
E
102
}
  0
MLINESTYLE
  5
18
102
{ACAD_REACTORS
330
17
102
}
100
AcDbMlineStyle
  2
STANDARD
 70
0
  3

 62
256
 51
90.0
 52
90.0
 71
2
 49
0.5
 62
256
  6
BYLAYER
 49
-0.5
 62
256
  6
BYLAYER
  0
LAYOUT
  5
1E
102
{ACAD_REACTORS
330
1A
102
}
100
AcDbPlotSettings
  1

  2

  4

  6

 40
0.0
 41
0.0
 42
0.0
 43
0.0
 44
0.0
 45
0.0
 46
0.0
 47
0.0
 48
0.0
 49
0.0
140
0.0
141
0.0
142
1.0
143
1.0
 70
0
 72
0
 73
0
 74
0
  7

 75
0
147
1.0
148
0.0
149
0.0
100
AcDbLayout
  1
Layout1
 70
0
 71
0
 10
0.0
 20
0.0
 11
0.0
 21
0.0
 12
0.0
 22
0.0
 32
0.0
 14
0.0
 24
0.0
 34
0.0
 15
0.0
 25
0.0
 35
0.0
146
0.0
 13
0.0
 23
0.0
 33
0.0
 16
0.0
 26
0.0
 36
0.0
 17
0.0
 27
0.0
 37
0.0
 76
0
330
1B
331
0
345
0
346
0
  0
LAYOUT
  5
22
102
{ACAD_REACTORS
330
1A
102
}
100
AcDbPlotSettings
  1

  2

  4

  6

 40
0.0
 41
0.0
 42
0.0
 43
0.0
 44
0.0
 45
0.0
 46
0.0
 47
0.0
 48
0.0
 49
0.0
140
0.0
141
0.0
142
1.0
143
1.0
 70
0
 72
0
 73
0
 74
0
  7

 75
0
147
1.0
148
0.0
149
0.0
100
AcDbLayout
  1
Model
 70
0
 71
0
 10
0.0
 20
0.0
 11
0.0
 21
0.0
 12
0.0
 22
0.0
 32
0.0
 14
0.0
 24
0.0
 34
0.0
 15
0.0
 25
0.0
 35
0.0
146
0.0
 13
0.0
 23
0.0
 33
0.0
 16
0.0
 26
0.0
 36
0.0
 17
0.0
 27
0.0
 37
0.0
 76
0
330
1F
331
0
345
0
346
0
  0
ENDSEC
  0
EOF
