999
DXF file: 141789_1.dxf
999
Pro/ENGINEER 2006170 by Parametric Technology Corporation
  0
SECTION
  2
HEADER
  9
$ACADVER
  1
AC1015
  9
$DWGCODEPAGE
  3
ANSI_1252
  9
$EXTMAX
 10
17.0
 20
11.0
 30
0.0
  9
$EXTMIN
 10
0.0
 20
0.0
 30
0.0
  9
$LIMMIN
 10
0.0
 20
0.0
  9
$LIMMAX
 10
17.0
 20
11.0
  9
$VIEWCTR
 10
8.5
 20
5.5
  9
$VIEWSIZE
 40
11.0
  9
$CLAYER
  8
0
  9
$LTSCALE
 40
0.935
  9
$CELTYPE
  6
BYLAYER
  9
$DIMSCALE
 40
1.0
  9
$DIMASZ
 40
0.1875
  9
$DIMEXO
 40
0.10625
  9
$DIMDLI
 40
0.646
  9
$DIMEXE
 40
0.306
  9
$DIMCEN
 40
0.153
  9
$DIMLFAC
 40
1.0
  9
$DIMBLK
  1
_FILLED
  9
$DIMTXT
 40
0.1
  9
$DIMTOL
 70
1
  9
$DIMLIM
 70
0
  9
$DIMTFAC
 40
1.0
  9
$DIMTP
 40
0.005
  9
$DIMTM
 40
0.005
  9
$PDMODE
 70
3
  9
$PDSIZE
 40
0.3125
  9
$HANDSEED
  5
960
  9
$MEASUREMENT
 70
0
  9
$INSUNITS
 70
1
  0
ENDSEC
  0
SECTION
  2
CLASSES
  0
CLASS
  1
ACDBDICTIONARYWDFLT
  2
AcDbDictionaryWithDefault
  3
AutoCAD 2000
 90
0
280
0
281
0
  0
CLASS
  1
ACDBPLACEHOLDER
  2
AcDbPlaceHolder
  3
AutoCAD 2000
 90
0
280
0
281
0
  0
CLASS
  1
LAYOUT
  2
AcDbLayout
  3
AutoCAD 2000
 90
0
280
0
281
0
  0
ENDSEC
  0
SECTION
  2
TABLES
  0
TABLE
  2
VPORT
  5
8
100
AcDbSymbolTable
 70
2
  0
VPORT
  5
1F4
100
AcDbSymbolTableRecord
100
AcDbViewportTableRecord
  2
*ACTIVE
 70
0
 10
0.0
 20
0.0
 11
1.0
 21
1.0
 12
8.5
 22
5.5
 13
0.0
 23
0.0
 14
1.0
 24
1.0
 15
0.0
 25
0.0
 16
0.0
 26
0.0
 36
1.0
 17
0.0
 27
0.0
 37
0.0
 40
11.0
 41
1.5454545455
 42
50.0
 43
0.0
 44
0.0
 50
0.0
 51
0.0
 71
0
 72
100
 73
1
 74
1
 75
0
 76
0
 77
0
 78
0
  0
ENDTAB
  0
TABLE
  2
LTYPE
  5
5
100
AcDbSymbolTable
 70
6
  0
LTYPE
  5
14
100
AcDbSymbolTableRecord
100
AcDbLinetypeTableRecord
  2
BYBLOCK
 70
0
  3

 72
65
 73
0
 40
0.0
  0
LTYPE
  5
15
100
AcDbSymbolTableRecord
100
AcDbLinetypeTableRecord
  2
BYLAYER
 70
0
  3

 72
65
 73
0
 40
0.0
  0
LTYPE
  5
16
100
AcDbSymbolTableRecord
100
AcDbLinetypeTableRecord
  2
CONTINUOUS
 70
64
  3
Solid line
 72
65
 73
0
 40
0.0
  0
LTYPE
  5
1F5
100
AcDbSymbolTableRecord
100
AcDbLinetypeTableRecord
  2
CENTER
 70
64
  3
____ _ ____ _ ____ _ ____ _ ____ _ ____ _ ____
 72
65
 73
4
 40
0.6
 49
0.375
 74
0
 49
-0.075
 74
0
 49
0.075
 74
0
 49
-0.075
 74
0
  0
LTYPE
  5
1F6
100
AcDbSymbolTableRecord
100
AcDbLinetypeTableRecord
  2
HIDDEN
 70
64
  3
- - - - - - - - - - - - - - - - - - - -
 72
65
 73
2
 40
0.2
 49
0.1
 74
0
 49
-0.1
 74
0
  0
LTYPE
  5
1F7
100
AcDbSymbolTableRecord
100
AcDbLinetypeTableRecord
  2
PHANTOM
 70
64
  3
_____ _ _ _____ _ _ _____ _ _ _____
 72
65
 73
6
 40
0.8
 49
0.45
 74
0
 49
-0.05
 74
0
 49
0.1
 74
0
 49
-0.05
 74
0
 49
0.1
 74
0
 49
-0.05
 74
0
  0
LTYPE
  5
1F8
100
AcDbSymbolTableRecord
100
AcDbLinetypeTableRecord
  2
DOT
 70
64
  3
. . . . . . . . . . . . . . . . . . . .
 72
65
 73
2
 40
0.2
 49
0.1
 74
0
 49
-0.1
 74
0
  0
LTYPE
  5
1F9
100
AcDbSymbolTableRecord
100
AcDbLinetypeTableRecord
  2
DASHED
 70
64
  3
- - - - - - - - - - - - - - - - - - - -
 72
65
 73
2
 40
0.2
 49
0.1
 74
0
 49
-0.1
 74
0
  0
ENDTAB
  0
TABLE
  2
LAYER
  5
2
100
AcDbSymbolTable
 70
36
  0
LAYER
  5
10
100
AcDbSymbolTableRecord
100
AcDbLayerTableRecord
  2
0
 70
0
 62
7
  6
CONTINUOUS
370
-3
390
F
  0
LAYER
  5
1FA
100
AcDbSymbolTableRecord
100
AcDbLayerTableRecord
  2
DEFAULT_1
 70
0
 62
7
  6
CENTER
370
-3
390
F
  0
LAYER
  5
1FB
100
AcDbSymbolTableRecord
100
AcDbLayerTableRecord
  2
DEFAULT_2
 70
0
 62
8
  6
HIDDEN
370
-3
390
F
  0
LAYER
  5
1FC
100
AcDbSymbolTableRecord
100
AcDbLayerTableRecord
  2
DEFAULT_3
 70
0
 62
7
  6
PHANTOM
370
-3
390
F
  0
LAYER
  5
1FD
100
AcDbSymbolTableRecord
100
AcDbLayerTableRecord
  2
_2D_DELETED_OBJS
 70
0
 62
7
  6
CONTINUOUS
370
-3
390
F
  0
LAYER
  5
1FE
100
AcDbSymbolTableRecord
100
AcDbLayerTableRecord
  2
_BLACK_HOLE
 70
0
 62
7
  6
CONTINUOUS
370
-3
390
F
  0
LAYER
  5
1FF
100
AcDbSymbolTableRecord
100
AcDbLayerTableRecord
  2
01___PRT_ALL_DTM_PLN
 70
0
 62
7
  6
CONTINUOUS
370
-3
390
F
  0
LAYER
  5
200
100
AcDbSymbolTableRecord
100
AcDbLayerTableRecord
  2
01___PRT_DEF_DTM_PLN
 70
0
 62
7
  6
CONTINUOUS
370
-3
390
F
  0
LAYER
  5
201
100
AcDbSymbolTableRecord
100
AcDbLayerTableRecord
  2
02___PRT_ALL_AXES
 70
0
 62
7
  6
CONTINUOUS
370
-3
390
F
  0
LAYER
  5
202
100
AcDbSymbolTableRecord
100
AcDbLayerTableRecord
  2
03___PRT_ALL_CURVES
 70
0
 62
7
  6
CONTINUOUS
370
-3
390
F
  0
LAYER
  5
203
100
AcDbSymbolTableRecord
100
AcDbLayerTableRecord
  2
04___PRT_ALL_DTM_PNT
 70
0
 62
7
  6
CONTINUOUS
370
-3
390
F
  0
LAYER
  5
204
100
AcDbSymbolTableRecord
100
AcDbLayerTableRecord
  2
05___PRT_ALL_DTM_CSYS
 70
0
 62
7
  6
CONTINUOUS
370
-3
390
F
  0
LAYER
  5
205
100
AcDbSymbolTableRecord
100
AcDbLayerTableRecord
  2
05___PRT_DEF_DTM_CSYS
 70
0
 62
7
  6
CONTINUOUS
370
-3
390
F
  0
LAYER
  5
206
100
AcDbSymbolTableRecord
100
AcDbLayerTableRecord
  2
06___PRT_ALL_SURFS
 70
0
 62
7
  6
CONTINUOUS
370
-3
390
F
  0
LAYER
  5
207
100
AcDbSymbolTableRecord
100
AcDbLayerTableRecord
  2
AXIS_COSMETIC_THREADS
 70
0
 62
7
  6
CONTINUOUS
370
-3
390
F
  0
LAYER
  5
208
100
AcDbSymbolTableRecord
100
AcDbLayerTableRecord
  2
CONSTRUCTION
 70
0
 62
7
  6
CONTINUOUS
370
-3
390
F
  0
LAYER
  5
209
100
AcDbSymbolTableRecord
100
AcDbLayerTableRecord
  2
DATUM_PLANES
 70
0
 62
7
  6
CONTINUOUS
370
-3
390
F
  0
LAYER
  5
20A
100
AcDbSymbolTableRecord
100
AcDbLayerTableRecord
  2
DRIVEN_DIMS
 70
0
 62
7
  6
CONTINUOUS
370
-3
390
F
  0
LAYER
  5
20B
100
AcDbSymbolTableRecord
100
AcDbLayerTableRecord
  2
NOTES
 70
0
 62
7
  6
CONTINUOUS
370
-3
390
F
  0
LAYER
  5
20C
100
AcDbSymbolTableRecord
100
AcDbLayerTableRecord
  2
QUILTS
 70
0
 62
7
  6
CONTINUOUS
370
-3
390
F
  0
LAYER
  5
20D
100
AcDbSymbolTableRecord
100
AcDbLayerTableRecord
  2
SCHEME_DIMS
 70
0
 62
7
  6
CONTINUOUS
370
-3
390
F
  0
LAYER
  5
20E
100
AcDbSymbolTableRecord
100
AcDbLayerTableRecord
  2
SKETCHED_ENT
 70
0
 62
7
  6
CONTINUOUS
370
-3
390
F
  0
LAYER
  5
20F
100
AcDbSymbolTableRecord
100
AcDbLayerTableRecord
  2
SYMBOLS
 70
0
 62
7
  6
CONTINUOUS
370
-3
390
F
  0
ENDTAB
  0
TABLE
  2
STYLE
  5
3
100
AcDbSymbolTable
 70
1
  0
STYLE
  5
11
100
AcDbSymbolTableRecord
100
AcDbTextStyleTableRecord
  2
STANDARD
 70
0
 40
0.0
 41
1.0
 50
0.0
 71
0
 42
0.2
  3
txt
  4

  0
ENDTAB
  0
TABLE
  2
VIEW
  5
6
100
AcDbSymbolTable
 70
0
  0
ENDTAB
  0
TABLE
  2
UCS
  5
7
100
AcDbSymbolTable
 70
0
  0
ENDTAB
  0
TABLE
  2
APPID
  5
9
100
AcDbSymbolTable
 70
1
  0
APPID
  5
210
100
AcDbSymbolTableRecord
100
AcDbRegAppTableRecord
  2
ACAD
 70
0
  0
ENDTAB
  0
TABLE
  2
BLOCK_RECORD
  5
1
100
AcDbSymbolTable
 70
0
  0
BLOCK_RECORD
  5
1F
100
AcDbSymbolTableRecord
100
AcDbBlockTableRecord
  2
*MODEL_SPACE
  0
BLOCK_RECORD
  5
1B
100
AcDbSymbolTableRecord
100
AcDbBlockTableRecord
  2
*PAPER_SPACE
  0
BLOCK_RECORD
  5
211
100
AcDbSymbolTableRecord
100
AcDbBlockTableRecord
  2
_FILLED
  0
BLOCK_RECORD
  5
212
100
AcDbSymbolTableRecord
100
AcDbBlockTableRecord
  2
BANNER_LOGO_TITLEBLOCK_BL0
  0
BLOCK_RECORD
  5
213
100
AcDbSymbolTableRecord
100
AcDbBlockTableRecord
  2
*D0
  0
BLOCK_RECORD
  5
214
100
AcDbSymbolTableRecord
100
AcDbBlockTableRecord
  2
*D1
  0
BLOCK_RECORD
  5
215
100
AcDbSymbolTableRecord
100
AcDbBlockTableRecord
  2
*D2
  0
BLOCK_RECORD
  5
216
100
AcDbSymbolTableRecord
100
AcDbBlockTableRecord
  2
*D3
  0
BLOCK_RECORD
  5
217
100
AcDbSymbolTableRecord
100
AcDbBlockTableRecord
  2
*D4
  0
BLOCK_RECORD
  5
218
100
AcDbSymbolTableRecord
100
AcDbBlockTableRecord
  2
*D5
  0
BLOCK_RECORD
  5
219
100
AcDbSymbolTableRecord
100
AcDbBlockTableRecord
  2
*D6
  0
BLOCK_RECORD
  5
21A
100
AcDbSymbolTableRecord
100
AcDbBlockTableRecord
  2
*D7
  0
BLOCK_RECORD
  5
21B
100
AcDbSymbolTableRecord
100
AcDbBlockTableRecord
  2
*D8
  0
BLOCK_RECORD
  5
21C
100
AcDbSymbolTableRecord
100
AcDbBlockTableRecord
  2
*D9
  0
ENDTAB
  0
TABLE
  2
DIMSTYLE
  5
A
100
AcDbSymbolTable
 70
1
100
AcDbDimStyleTable
 71
0
  0
DIMSTYLE
105
21D
100
AcDbSymbolTableRecord
100
AcDbDimStyleTableRecord
  2
STANDARD
 70
0
  3

  4

 40
1.0
 41
0.1875
 42
0.0625
 43
0.38
 44
0.18
 45
0.0
 46
0.0
 47
0.005
 48
0.005
140
0.1
141
0.09
142
0.0
143
25.4
144
1.0
145
0.0
146
1.0
147
0.09
 71
1.0
 72
0.0
 73
1
 74
1
 75
0
 76
0
 77
0
 78
4
170
0
171
2
172
0
173
0
174
0
175
0
176
0
177
0
178
0
270
2
271
3
272
3
273
2
274
2
275
0
280
0
281
0
282
0
283
1
284
4
285
0
286
0
287
3
288
0
340
11
341
211
342
211
343
211
344
211
  0
DIMSTYLE
105
21E
100
AcDbSymbolTableRecord
100
AcDbDimStyleTableRecord
  2
DIMSTYLE_1
 70
0
  3

  4

 40
1.0
 41
0.1875
 42
0.0625
 43
0.38
 44
0.18
 45
0.0
 46
0.0
 47
0.02
 48
0.02
140
0.1
141
0.09
142
0.0
143
25.4
144
1.0
145
0.0
146
1.0
147
0.09
 71
0.0
 72
0.0
 73
1
 74
1
 75
0
 76
0
 77
0
 78
4
170
0
171
2
172
0
173
0
174
0
175
0
176
0
177
0
178
0
270
2
271
1
272
1
273
2
274
2
275
0
280
0
281
0
282
0
283
1
284
4
285
0
286
0
287
3
288
0
340
11
341
211
342
211
343
211
344
211
  0
DIMSTYLE
105
21F
100
AcDbSymbolTableRecord
100
AcDbDimStyleTableRecord
  2
DIMSTYLE_2
 70
0
  3

  4

 40
1.0
 41
0.1875
 42
0.0625
 43
0.38
 44
0.18
 45
0.0
 46
0.0
 47
0.1
 48
0.1
140
0.1
141
0.09
142
0.0
143
25.4
144
1.0
145
0.0
146
1.0
147
0.09
 71
0.0
 72
0.0
 73
1
 74
1
 75
0
 76
0
 77
0
 78
4
170
0
171
2
172
0
173
0
174
0
175
0
176
0
177
0
178
0
270
2
271
1
272
1
273
2
274
2
275
0
280
0
281
0
282
0
283
1
284
4
285
0
286
0
287
3
288
0
340
11
341
211
342
211
343
211
344
211
  0
DIMSTYLE
105
220
100
AcDbSymbolTableRecord
100
AcDbDimStyleTableRecord
  2
DIMSTYLE_3
 70
0
  3

  4

 40
1.0
 41
0.1875
 42
0.0625
 43
0.38
 44
0.18
 45
0.0
 46
0.0
 47
0.1
 48
0.1
140
0.1
141
0.09
142
0.0
143
25.4
144
1.0
145
0.0
146
1.0
147
0.09
 71
0.0
 72
0.0
 73
1
 74
1
 75
0
 76
0
 77
0
 78
4
170
0
171
2
172
0
173
0
174
0
175
0
176
0
177
0
178
0
270
2
271
1
272
1
273
2
274
2
275
0
280
0
281
0
282
0
283
1
284
4
285
0
286
0
287
3
288
0
340
11
341
211
342
211
343
211
344
211
  0
DIMSTYLE
105
221
100
AcDbSymbolTableRecord
100
AcDbDimStyleTableRecord
  2
DIMSTYLE_4
 70
0
  3

  4

 40
1.0
 41
0.1875
 42
0.0625
 43
0.38
 44
0.18
 45
0.0
 46
0.0
 47
0.1
 48
0.1
140
0.1
141
0.09
142
0.0
143
25.4
144
1.0
145
0.0
146
1.0
147
0.09
 71
0.0
 72
0.0
 73
1
 74
1
 75
0
 76
0
 77
0
 78
4
170
0
171
2
172
0
173
0
174
0
175
0
176
0
177
0
178
0
270
2
271
1
272
1
273
2
274
2
275
0
280
0
281
0
282
0
283
1
284
4
285
0
286
0
287
3
288
0
340
11
341
211
342
211
343
211
344
211
  0
ENDTAB
  0
ENDSEC
  0
SECTION
  2
BLOCKS
  0
BLOCK
  5
20
100
AcDbEntity
  8
0
100
AcDbBlockBegin
  2
*MODEL_SPACE
 70
0
 10
0.0
 20
0.0
 30
0.0
  3
*MODEL_SPACE
  1

  0
ENDBLK
  5
21
100
AcDbEntity
  8
0
100
AcDbBlockEnd
  0
BLOCK
  5
1C
100
AcDbEntity
  8
0
100
AcDbBlockBegin
  2
*PAPER_SPACE
 70
0
 10
0.0
 20
0.0
 30
0.0
  3
*PAPER_SPACE
  1

  0
ENDBLK
  5
1D
100
AcDbEntity
  8
0
100
AcDbBlockEnd
  0
BLOCK
  5
222
100
AcDbEntity
  8
0
100
AcDbBlockBegin
 62
2
  6
CONTINUOUS
  2
BANNER_LOGO_TITLEBLOCK_BL0
 70
64
 10
12.9046655056
 20
2.5403783448
  3
BANNER_LOGO_TITLEBLOCK_BL0
  1

  0
LWPOLYLINE
  5
223
100
AcDbEntity
  8
0
100
AcDbPolyline
 62
2
  6
CONTINUOUS
 90
29
 70
0
 10
12.0796650004
 20
2.5403783448
 10
12.1000078385
 20
2.5005819703
 10
12.1615890075
 20
2.4620382478
 10
12.2590135686
 20
2.4281250935
 10
12.3910903821
 20
2.3992568791
 10
12.5462480343
 20
2.3779627503
 10
12.7225901426
 20
2.3645025835
 10
12.9046652672
 20
2.3600565514
 10
13.0867408686
 20
2.3645025835
 10
13.2630829769
 20
2.3779627503
 10
13.4182401522
 20
2.3992568791
 10
13.5503174426
 20
2.4281250935
 10
13.6477415269
 20
2.4620382478
 10
13.7093231727
 20
2.5005819703
 10
13.7296660108
 20
2.5403783448
 10
13.7093231727
 20
2.5801747193
 10
13.6477415269
 20
2.6187184418
 10
13.5503174426
 20
2.6526315961
 10
13.4182401522
 20
2.6814998105
 10
13.2630829769
 20
2.7027939393
 10
13.0867408686
 20
2.7162541061
 10
12.9046652672
 20
2.7207001382
 10
12.7225901426
 20
2.7162541061
 10
12.5462480343
 20
2.7027939393
 10
12.3910903821
 20
2.6814998105
 10
12.2590135686
 20
2.6526315961
 10
12.1615890075
 20
2.6187184418
 10
12.1000078385
 20
2.5801747193
 10
12.0796650004
 20
2.5403783448
  0
ARC
  5
224
100
AcDbEntity
  8
0
100
AcDbCircle
 62
2
  6
CONTINUOUS
 10
12.400005721
 20
2.5168763464
 40
0.0153945295
100
AcDbArc
 50
354.0454548824
 51
5.1878013979
  0
ARC
  5
225
100
AcDbEntity
  8
0
100
AcDbCircle
 62
2
  6
CONTINUOUS
 10
12.3931760319
 20
2.5166878286
 40
0.0222174455
100
AcDbArc
 50
4.0793399388
 51
69.834329283
  0
LINE
  5
226
100
AcDbEntity
  8
0
100
AcDbLine
 62
2
  6
CONTINUOUS
 10
12.4008351814
 20
2.5375433389
 11
12.3907841758
 21
2.5410923409
  0
LINE
  5
227
100
AcDbEntity
  8
0
100
AcDbLine
 62
2
  6
CONTINUOUS
 10
12.3907841758
 20
2.5410923409
 11
12.3990241804
 21
2.5458683435
  0
ARC
  5
228
100
AcDbEntity
  8
0
100
AcDbCircle
 62
2
  6
CONTINUOUS
 10
12.3771587979
 20
2.5826952352
 40
0.0428289026
100
AcDbArc
 50
300.6990502959
 51
319.0591802498
  0
ARC
  5
229
100
AcDbEntity
  8
0
100
AcDbCircle
 62
2
  6
CONTINUOUS
 10
12.3971873948
 20
2.5665668817
 40
0.0171568255
100
AcDbArc
 50
315.9145124245
 51
16.0049121282
  0
ARC
  5
22A
100
AcDbEntity
  8
0
100
AcDbCircle
 62
2
  6
CONTINUOUS
 10
12.3922357827
 20
2.5632132173
 40
0.0229166529
100
AcDbArc
 50
20.6563876465
 51
62.3316896973
  0
ARC
  5
22B
100
AcDbEntity
  8
0
100
AcDbCircle
 62
2
  6
CONTINUOUS
 10
12.371573659
 20
2.5302846524
 40
0.061747717
100
AcDbArc
 50
59.5385584989
 51
90.0050977555
  0
LINE
  5
22C
100
AcDbEntity
  8
0
100
AcDbLine
 62
2
  6
CONTINUOUS
 10
12.3715681652
 20
2.5920323691
 11
12.2055050731
 21
2.5920323691
  0
ARC
  5
22D
100
AcDbEntity
  8
0
100
AcDbCircle
 62
2
  6
CONTINUOUS
 10
12.2055050712
 20
2.5895573696
 40
0.0024749995
100
AcDbArc
 50
89.9999571957
 51
180.0000428043
  0
LINE
  5
22E
100
AcDbEntity
  8
0
100
AcDbLine
 62
2
  6
CONTINUOUS
 10
12.2030300717
 20
2.5895573678
 11
12.2030300717
 21
2.5697573568
  0
ARC
  5
22F
100
AcDbEntity
  8
0
100
AcDbCircle
 62
2
  6
CONTINUOUS
 10
12.2055050712
 20
2.5697573549
 40
0.0024749995
100
AcDbArc
 50
179.9999571957
 51
270.0000428043
  0
LINE
  5
230
100
AcDbEntity
  8
0
100
AcDbLine
 62
2
  6
CONTINUOUS
 10
12.2055050731
 20
2.5672823554
 11
12.2294470864
 21
2.5672823554
  0
ARC
  5
231
100
AcDbEntity
  8
0
100
AcDbCircle
 62
2
  6
CONTINUOUS
 10
12.2294470882
 20
2.5648073559
 40
0.0024749995
100
AcDbArc
 50
359.9999571957
 51
90.0000428043
  0
LINE
  5
232
100
AcDbEntity
  8
0
100
AcDbLine
 62
2
  6
CONTINUOUS
 10
12.2319220877
 20
2.564807354
 11
12.2319220877
 21
2.5184523283
  0
ARC
  5
233
100
AcDbEntity
  8
0
100
AcDbCircle
 62
2
  6
CONTINUOUS
 10
12.2294470882
 20
2.5184523265
 40
0.0024749995
100
AcDbArc
 50
269.9999571957
 51
0.0000428043
  0
LINE
  5
234
100
AcDbEntity
  8
0
100
AcDbLine
 62
2
  6
CONTINUOUS
 10
12.2294470864
 20
2.515977327
 11
12.2055050731
 21
2.515977327
  0
ARC
  5
235
100
AcDbEntity
  8
0
100
AcDbCircle
 62
2
  6
CONTINUOUS
 10
12.2055050712
 20
2.5135023274
 40
0.0024749995
100
AcDbArc
 50
89.9999571957
 51
180.0000428043
  0
LINE
  5
236
100
AcDbEntity
  8
0
100
AcDbLine
 62
2
  6
CONTINUOUS
 10
12.2030300717
 20
2.5135023256
 11
12.2030300717
 21
2.4937023146
  0
ARC
  5
237
100
AcDbEntity
  8
0
100
AcDbCircle
 62
2
  6
CONTINUOUS
 10
12.2055050712
 20
2.4937023128
 40
0.0024749995
100
AcDbArc
 50
179.9999571957
 51
270.0000428043
  0
LINE
  5
238
100
AcDbEntity
  8
0
100
AcDbLine
 62
2
  6
CONTINUOUS
 10
12.2055050731
 20
2.4912273132
 11
12.3819511709
 21
2.4912273132
  0
ARC
  5
239
100
AcDbEntity
  8
0
100
AcDbCircle
 62
2
  6
CONTINUOUS
 10
12.3792298263
 20
2.539634765
 40
0.048483885
100
AcDbArc
 50
273.21763719
 51
303.0749121182
  0
ARC
  5
23A
100
AcDbEntity
  8
0
100
AcDbCircle
 62
2
  6
CONTINUOUS
 10
12.3940692204
 20
2.5168671561
 40
0.0213072145
100
AcDbArc
 50
303.0488228549
 51
355.7263138674
  0
LINE
  5
23B
100
AcDbEntity
  8
0
100
AcDbLine
 62
2
  6
CONTINUOUS
 10
12.2949101227
 20
2.5499573458
 11
12.3362731456
 21
2.5499573458
  0
ARC
  5
23C
100
AcDbEntity
  8
0
100
AcDbCircle
 62
2
  6
CONTINUOUS
 10
12.3362731456
 20
2.5586198506
 40
0.0086625048
100
AcDbArc
 50
270.0
 51
90.0
  0
LINE
  5
23D
100
AcDbEntity
  8
0
100
AcDbLine
 62
2
  6
CONTINUOUS
 10
12.3362731456
 20
2.5672823554
 11
12.2949101227
 21
2.5672823554
  0
ARC
  5
23E
100
AcDbEntity
  8
0
100
AcDbCircle
 62
2
  6
CONTINUOUS
 10
12.2949101208
 20
2.5648073559
 40
0.0024749995
100
AcDbArc
 50
89.9999571957
 51
180.0000428043
  0
LINE
  5
23F
100
AcDbEntity
  8
0
100
AcDbLine
 62
2
  6
CONTINUOUS
 10
12.2924351213
 20
2.564807354
 11
12.2924351213
 21
2.5524323472
  0
ARC
  5
240
100
AcDbEntity
  8
0
100
AcDbCircle
 62
2
  6
CONTINUOUS
 10
12.2949101208
 20
2.5524323453
 40
0.0024749995
100
AcDbArc
 50
179.9999571957
 51
270.0000428043
  0
LINE
  5
241
100
AcDbEntity
  8
0
100
AcDbLine
 62
2
  6
CONTINUOUS
 10
12.2924351213
 20
2.5184523283
 11
12.2924351213
 21
2.5308273352
  0
ARC
  5
242
100
AcDbEntity
  8
0
100
AcDbCircle
 62
2
  6
CONTINUOUS
 10
12.2949101208
 20
2.530827337
 40
0.0024749995
100
AcDbArc
 50
89.9999571957
 51
180.0000428043
  0
LINE
  5
243
100
AcDbEntity
  8
0
100
AcDbLine
 62
2
  6
CONTINUOUS
 10
12.2949101227
 20
2.5333023366
 11
12.3362731456
 21
2.5333023366
  0
ARC
  5
244
100
AcDbEntity
  8
0
100
AcDbCircle
 62
2
  6
CONTINUOUS
 10
12.3362731456
 20
2.5246398318
 40
0.0086625048
100
AcDbArc
 50
270.0
 51
90.0
  0
LINE
  5
245
100
AcDbEntity
  8
0
100
AcDbLine
 62
2
  6
CONTINUOUS
 10
12.3362731456
 20
2.515977327
 11
12.2949101227
 21
2.515977327
  0
ARC
  5
246
100
AcDbEntity
  8
0
100
AcDbCircle
 62
2
  6
CONTINUOUS
 10
12.2949101208
 20
2.5184523265
 40
0.0024749995
100
AcDbArc
 50
179.9999571957
 51
270.0000428043
  0
ARC
  5
247
100
AcDbEntity
  8
0
100
AcDbCircle
 62
2
  6
CONTINUOUS
 10
13.5806801742
 20
2.5212486481
 40
0.044722495
100
AcDbArc
 50
195.531588407
 51
204.7624440448
  0
LINE
  5
248
100
AcDbEntity
  8
0
100
AcDbLine
 62
2
  6
CONTINUOUS
 10
13.5375908118
 20
2.5092733232
 11
13.5357868108
 21
2.5153423266
  0
ARC
  5
249
100
AcDbEntity
  8
0
100
AcDbCircle
 62
2
  6
CONTINUOUS
 10
13.4974076135
 20
2.5055452462
 40
0.0396099176
100
AcDbArc
 50
14.3201081283
 51
22.4984722084
  0
ARC
  5
24A
100
AcDbEntity
  8
0
100
AcDbCircle
 62
2
  6
CONTINUOUS
 10
13.5201739219
 20
2.5145168728
 40
0.0151491919
100
AcDbArc
 50
24.098260853
 51
63.0369451818
  0
ARC
  5
24B
100
AcDbEntity
  8
0
100
AcDbCircle
 62
2
  6
CONTINUOUS
 10
13.5161192671
 20
2.5062372524
 40
0.0243676582
100
AcDbArc
 50
63.3666028271
 51
90.3937697637
  0
LINE
  5
24C
100
AcDbEntity
  8
0
100
AcDbLine
 62
2
  6
CONTINUOUS
 10
13.5159517998
 20
2.5306043351
 11
13.4883447845
 21
2.5306043351
  0
ARC
  5
24D
100
AcDbEntity
  8
0
100
AcDbCircle
 62
2
  6
CONTINUOUS
 10
13.4883447827
 20
2.5281293355
 40
0.0024749995
100
AcDbArc
 50
89.9999571957
 51
180.0000428043
  0
LINE
  5
24E
100
AcDbEntity
  8
0
100
AcDbLine
 62
2
  6
CONTINUOUS
 10
13.4858697831
 20
2.5281293337
 11
13.4858697831
 21
2.5184303283
  0
ARC
  5
24F
100
AcDbEntity
  8
0
100
AcDbCircle
 62
2
  6
CONTINUOUS
 10
13.4883447827
 20
2.5184303265
 40
0.0024749995
100
AcDbArc
 50
179.9999571957
 51
270.0000428043
  0
LINE
  5
250
100
AcDbEntity
  8
0
100
AcDbLine
 62
2
  6
CONTINUOUS
 10
13.4883447845
 20
2.5159553269
 11
13.5130037982
 21
2.5159553269
  0
ARC
  5
251
100
AcDbEntity
  8
0
100
AcDbCircle
 62
2
  6
CONTINUOUS
 10
13.5130038
 20
2.5134803274
 40
0.0024749995
100
AcDbArc
 50
359.9999571957
 51
90.0000428043
  0
LINE
  5
252
100
AcDbEntity
  8
0
100
AcDbLine
 62
2
  6
CONTINUOUS
 10
13.5154787995
 20
2.5134803256
 11
13.5154787995
 21
2.4937023146
  0
ARC
  5
253
100
AcDbEntity
  8
0
100
AcDbCircle
 62
2
  6
CONTINUOUS
 10
13.5130038
 20
2.4937023128
 40
0.0024749995
100
AcDbArc
 50
269.9999571957
 51
0.0000428043
  0
LINE
  5
254
100
AcDbEntity
  8
0
100
AcDbLine
 62
2
  6
CONTINUOUS
 10
13.5130037982
 20
2.4912273132
 11
13.3994327352
 21
2.4912273132
  0
ARC
  5
255
100
AcDbEntity
  8
0
100
AcDbCircle
 62
2
  6
CONTINUOUS
 10
13.3994327333
 20
2.4937023128
 40
0.0024749995
100
AcDbArc
 50
179.9999571957
 51
270.0000428043
  0
LINE
  5
256
100
AcDbEntity
  8
0
100
AcDbLine
 62
2
  6
CONTINUOUS
 10
13.3969577338
 20
2.4937023146
 11
13.3969577338
 21
2.5135023256
  0
ARC
  5
257
100
AcDbEntity
  8
0
100
AcDbCircle
 62
2
  6
CONTINUOUS
 10
13.3994327333
 20
2.5135023274
 40
0.0024749995
100
AcDbArc
 50
89.9999571957
 51
180.0000428043
  0
LINE
  5
258
100
AcDbEntity
  8
0
100
AcDbLine
 62
2
  6
CONTINUOUS
 10
13.3994327352
 20
2.515977327
 11
13.4221787478
 21
2.515977327
  0
ARC
  5
259
100
AcDbEntity
  8
0
100
AcDbCircle
 62
2
  6
CONTINUOUS
 10
13.4221787497
 20
2.5184523265
 40
0.0024749995
100
AcDbArc
 50
269.9999571957
 51
0.0000428042
  0
LINE
  5
25A
100
AcDbEntity
  8
0
100
AcDbLine
 62
2
  6
CONTINUOUS
 10
13.4246537492
 20
2.5184523283
 11
13.4246537492
 21
2.564807354
  0
ARC
  5
25B
100
AcDbEntity
  8
0
100
AcDbCircle
 62
2
  6
CONTINUOUS
 10
13.4221787497
 20
2.5648073559
 40
0.0024749995
100
AcDbArc
 50
359.9999571957
 51
90.0000428043
  0
LINE
  5
25C
100
AcDbEntity
  8
0
100
AcDbLine
 62
2
  6
CONTINUOUS
 10
13.4221787478
 20
2.5672823554
 11
13.3994327352
 21
2.5672823554
  0
ARC
  5
25D
100
AcDbEntity
  8
0
100
AcDbCircle
 62
2
  6
CONTINUOUS
 10
13.3994327333
 20
2.5697573549
 40
0.0024749995
100
AcDbArc
 50
179.9999571957
 51
270.0000428043
  0
LINE
  5
25E
100
AcDbEntity
  8
0
100
AcDbLine
 62
2
  6
CONTINUOUS
 10
13.3969577338
 20
2.5697573568
 11
13.3969577338
 21
2.5895573678
  0
ARC
  5
25F
100
AcDbEntity
  8
0
100
AcDbCircle
 62
2
  6
CONTINUOUS
 10
13.3994327333
 20
2.5895573696
 40
0.0024749995
100
AcDbArc
 50
89.9999571957
 51
180.0000428043
  0
LINE
  5
260
100
AcDbEntity
  8
0
100
AcDbLine
 62
2
  6
CONTINUOUS
 10
13.3994327352
 20
2.5920323691
 11
13.5490138181
 21
2.5920323691
  0
ARC
  5
261
100
AcDbEntity
  8
0
100
AcDbCircle
 62
2
  6
CONTINUOUS
 10
13.5463505148
 20
2.4094934586
 40
0.1825583387
100
AcDbArc
 50
79.8618509324
 51
89.1640948679
  0
ARC
  5
262
100
AcDbEntity
  8
0
100
AcDbCircle
 62
2
  6
CONTINUOUS
 10
13.5726548052
 20
2.5503169747
 40
0.039319019
100
AcDbArc
 50
59.1202086415
 51
81.4730239328
  0
ARC
  5
263
100
AcDbEntity
  8
0
100
AcDbCircle
 62
2
  6
CONTINUOUS
 10
13.5783142014
 20
2.5566516438
 40
0.0310192946
100
AcDbArc
 50
34.7540871
 51
62.0879016178
  0
ARC
  5
264
100
AcDbEntity
  8
0
100
AcDbCircle
 62
2
  6
CONTINUOUS
 10
13.5900029525
 20
2.565201245
 40
0.0165459396
100
AcDbArc
 50
1.548452892
 51
33.5033152417
  0
ARC
  5
265
100
AcDbEntity
  8
0
100
AcDbCircle
 62
2
  6
CONTINUOUS
 10
13.5932995477
 20
2.5653696972
 40
0.0132462337
100
AcDbArc
 50
331.1510006998
 51
1.205404301
  0
ARC
  5
266
100
AcDbEntity
  8
0
100
AcDbCircle
 62
2
  6
CONTINUOUS
 10
13.5822888914
 20
2.5720482849
 40
0.0261183659
100
AcDbArc
 50
305.6373831893
 51
329.9727629745
  0
ARC
  5
267
100
AcDbEntity
  8
0
100
AcDbCircle
 62
2
  6
CONTINUOUS
 10
13.5519569538
 20
2.6152551345
 40
0.0789082104
100
AcDbArc
 50
292.906155071
 51
305.2574666259
  0
ARC
  5
268
100
AcDbEntity
  8
0
100
AcDbCircle
 62
2
  6
CONTINUOUS
 10
13.5282557878
 20
2.4386010294
 40
0.117346916
100
AcDbArc
 50
58.614769177
 51
62.3737227606
  0
ARC
  5
269
100
AcDbEntity
  8
0
100
AcDbCircle
 62
2
  6
CONTINUOUS
 10
13.5761387404
 20
2.5167282896
 40
0.0257145923
100
AcDbArc
 50
39.3804255939
 51
59.0361096173
  0
ARC
  5
26A
100
AcDbEntity
  8
0
100
AcDbCircle
 62
2
  6
CONTINUOUS
 10
13.5750183849
 20
2.5166552064
 40
0.0266349791
100
AcDbArc
 50
20.3630922153
 51
37.9727053099
  0
ARC
  5
26B
100
AcDbEntity
  8
0
100
AcDbCircle
 62
2
  6
CONTINUOUS
 10
13.5571178432
 20
2.509473798
 40
0.0459185159
100
AcDbArc
 50
15.6740290068
 51
20.9917271228
  0
ARC
  5
26C
100
AcDbEntity
  8
0
100
AcDbCircle
 62
2
  6
CONTINUOUS
 10
13.6156881783
 20
2.525116781
 40
0.0147197649
100
AcDbArc
 50
192.7054516565
 51
206.0594861022
  0
ARC
  5
26D
100
AcDbEntity
  8
0
100
AcDbCircle
 62
2
  6
CONTINUOUS
 10
13.6071938412
 20
2.5209082945
 40
0.0052403997
100
AcDbArc
 50
205.5232099488
 51
227.5054868079
  0
ARC
  5
26E
100
AcDbEntity
  8
0
100
AcDbCircle
 62
2
  6
CONTINUOUS
 10
13.6054655419
 20
2.5190929218
 40
0.0027347709
100
AcDbArc
 50
228.5117626737
 51
266.1485845754
  0
LINE
  5
26F
100
AcDbEntity
  8
0
100
AcDbLine
 62
2
  6
CONTINUOUS
 10
13.6052818493
 20
2.5163643272
 11
13.60639085
 21
2.5163643272
  0
ARC
  5
270
100
AcDbEntity
  8
0
100
AcDbCircle
 62
2
  6
CONTINUOUS
 10
13.6063292954
 20
2.5296129864
 40
0.0132488022
100
AcDbArc
 50
270.266200055
 51
281.2404888597
  0
ARC
  5
271
100
AcDbEntity
  8
0
100
AcDbCircle
 62
2
  6
CONTINUOUS
 10
13.6075235364
 20
2.5238762928
 40
0.0073895522
100
AcDbArc
 50
280.8288201977
 51
305.0837508495
  0
ARC
  5
272
100
AcDbEntity
  8
0
100
AcDbCircle
 62
2
  6
CONTINUOUS
 10
13.607924718
 20
2.5230254464
 40
0.0064647042
100
AcDbArc
 50
306.5086174083
 51
340.2162360092
  0
ARC
  5
273
100
AcDbEntity
  8
0
100
AcDbCircle
 62
2
  6
CONTINUOUS
 10
13.6027235414
 20
2.524769508
 40
0.0119498009
100
AcDbArc
 50
340.7883861657
 51
1.1691452593
  0
LINE
  5
274
100
AcDbEntity
  8
0
100
AcDbLine
 62
2
  6
CONTINUOUS
 10
13.6146708546
 20
2.525013332
 11
13.6146708546
 21
2.5276393334
  0
ARC
  5
275
100
AcDbEntity
  8
0
100
AcDbCircle
 62
2
  6
CONTINUOUS
 10
13.6171458541
 20
2.5276393353
 40
0.0024749995
100
AcDbArc
 50
89.9999571957
 51
180.0000428043
  0
LINE
  5
276
100
AcDbEntity
  8
0
100
AcDbLine
 62
2
  6
CONTINUOUS
 10
13.6171458559
 20
2.5301143348
 11
13.6292558626
 21
2.5301143348
  0
ARC
  5
277
100
AcDbEntity
  8
0
100
AcDbCircle
 62
2
  6
CONTINUOUS
 10
13.6292558645
 20
2.5276393353
 40
0.0024749995
100
AcDbArc
 50
359.9999571957
 51
90.0000428043
  0
LINE
  5
278
100
AcDbEntity
  8
0
100
AcDbLine
 62
2
  6
CONTINUOUS
 10
13.631730864
 20
2.5276393334
 11
13.631730864
 21
2.516087327
  0
ARC
  5
279
100
AcDbEntity
  8
0
100
AcDbCircle
 62
2
  6
CONTINUOUS
 10
13.6141751675
 20
2.5161916447
 40
0.0175560065
100
AcDbArc
 50
332.2279060967
 51
359.6595469939
  0
ARC
  5
27A
100
AcDbEntity
  8
0
100
AcDbCircle
 62
2
  6
CONTINUOUS
 10
13.6048681567
 20
2.5210861501
 40
0.0280715479
100
AcDbArc
 50
308.5071794988
 51
332.2400656899
  0
ARC
  5
27B
100
AcDbEntity
  8
0
100
AcDbCircle
 62
2
  6
CONTINUOUS
 10
13.5978759713
 20
2.5286873679
 40
0.0383802683
100
AcDbArc
 50
288.7656836787
 51
309.6104317088
  0
ARC
  5
27C
100
AcDbEntity
  8
0
100
AcDbCircle
 62
2
  6
CONTINUOUS
 10
13.6036139387
 20
2.5111006186
 40
0.0198837666
100
AcDbArc
 50
271.8586572978
 51
289.4131338543
  0
LINE
  5
27D
100
AcDbEntity
  8
0
100
AcDbLine
 62
2
  6
CONTINUOUS
 10
13.6042588488
 20
2.4912273132
 11
13.5568948225
 21
2.4912273132
  0
ARC
  5
27E
100
AcDbEntity
  8
0
100
AcDbCircle
 62
2
  6
CONTINUOUS
 10
13.5577001432
 20
2.5085494649
 40
0.0173408616
100
AcDbArc
 50
232.4713476722
 51
267.338189944
  0
ARC
  5
27F
100
AcDbEntity
  8
0
100
AcDbCircle
 62
2
  6
CONTINUOUS
 10
13.5607987082
 20
2.5143997688
 40
0.0238935861
100
AcDbArc
 50
209.8247607259
 51
235.1255079367
  0
ARC
  5
280
100
AcDbEntity
  8
0
100
AcDbCircle
 62
2
  6
CONTINUOUS
 10
13.5295131508
 20
2.5629115009
 40
0.0110815393
100
AcDbArc
 50
306.758405961
 51
320.4502234234
  0
ARC
  5
281
100
AcDbEntity
  8
0
100
AcDbCircle
 62
2
  6
CONTINUOUS
 10
13.5238839599
 20
2.5706523294
 40
0.0206523367
100
AcDbArc
 50
289.6883413472
 51
306.4184925496
  0
ARC
  5
282
100
AcDbEntity
  8
0
100
AcDbCircle
 62
2
  6
CONTINUOUS
 10
13.5219564542
 20
2.5750459767
 40
0.0254407115
100
AcDbArc
 50
270.7327484175
 51
290.441894219
  0
LINE
  5
283
100
AcDbEntity
  8
0
100
AcDbLine
 62
2
  6
CONTINUOUS
 10
13.5222818033
 20
2.5496073456
 11
13.4883447845
 21
2.5496073456
  0
ARC
  5
284
100
AcDbEntity
  8
0
100
AcDbCircle
 62
2
  6
CONTINUOUS
 10
13.4883447827
 20
2.5520823451
 40
0.0024749995
100
AcDbArc
 50
179.9999571957
 51
270.0000428043
  0
LINE
  5
285
100
AcDbEntity
  8
0
100
AcDbLine
 62
2
  6
CONTINUOUS
 10
13.4858697831
 20
2.552082347
 11
13.4858697831
 21
2.564807354
  0
ARC
  5
286
100
AcDbEntity
  8
0
100
AcDbCircle
 62
2
  6
CONTINUOUS
 10
13.4883447827
 20
2.5648073559
 40
0.0024749995
100
AcDbArc
 50
89.9999571957
 51
180.0000428043
  0
LINE
  5
287
100
AcDbEntity
  8
0
100
AcDbLine
 62
2
  6
CONTINUOUS
 10
13.4883447845
 20
2.5672823554
 11
13.5251458049
 21
2.5672823554
  0
ARC
  5
288
100
AcDbEntity
  8
0
100
AcDbCircle
 62
2
  6
CONTINUOUS
 10
13.5236009174
 20
2.5388278764
 40
0.0284963867
100
AcDbArc
 50
70.3834917948
 51
86.8922743861
  0
ARC
  5
289
100
AcDbEntity
  8
0
100
AcDbCircle
 62
2
  6
CONTINUOUS
 10
13.5284605274
 20
2.5518696094
 40
0.0145814632
100
AcDbArc
 50
54.6746025112
 51
71.1660573124
  0
ARC
  5
28A
100
AcDbEntity
  8
0
100
AcDbCircle
 62
2
  6
CONTINUOUS
 10
13.5335900184
 20
2.5587235346
 40
0.0060275915
100
AcDbArc
 50
20.9055592135
 51
56.7851676243
  0
ARC
  5
28B
100
AcDbEntity
  8
0
100
AcDbCircle
 62
2
  6
CONTINUOUS
 10
13.5348905773
 20
2.5593838168
 40
0.0045795888
100
AcDbArc
 50
355.6235353944
 51
18.9942678268
  0
ARC
  5
28C
100
AcDbEntity
  8
0
100
AcDbCircle
 62
2
  6
CONTINUOUS
 10
13.533683767
 20
2.559677593
 40
0.0058087709
100
AcDbArc
 50
318.8515287446
 51
353.6422345323
  0
LINE
  5
28D
100
AcDbEntity
  8
0
100
AcDbLine
 62
2
  6
CONTINUOUS
 10
12.672340332
 20
2.5920323691
 11
12.7727983877
 21
2.5920323691
  0
ARC
  5
28E
100
AcDbEntity
  8
0
100
AcDbCircle
 62
2
  6
CONTINUOUS
 10
12.7727985224
 20
2.5895582013
 40
0.0024741678
100
AcDbArc
 50
46.3477981899
 51
90.0031206038
  0
LINE
  5
28F
100
AcDbEntity
  8
0
100
AcDbLine
 62
2
  6
CONTINUOUS
 10
12.7745063886
 20
2.5913483688
 11
12.8345394219
 21
2.534068337
  0
ARC
  5
290
100
AcDbEntity
  8
0
100
AcDbCircle
 62
2
  6
CONTINUOUS
 10
12.8362481229
 20
2.5358592748
 40
0.0024753014
100
AcDbArc
 50
226.3461263059
 51
0.0014637321
  0
LINE
  5
291
100
AcDbEntity
  8
0
100
AcDbLine
 62
2
  6
CONTINUOUS
 10
12.8387234242
 20
2.535859338
 11
12.8387234242
 21
2.564807354
  0
ARC
  5
292
100
AcDbEntity
  8
0
100
AcDbCircle
 62
2
  6
CONTINUOUS
 10
12.8362484247
 20
2.5648073559
 40
0.0024749995
100
AcDbArc
 50
359.9999571957
 51
90.0000428043
  0
LINE
  5
293
100
AcDbEntity
  8
0
100
AcDbLine
 62
2
  6
CONTINUOUS
 10
12.8362484229
 20
2.5672823554
 11
12.8174724125
 21
2.5672823554
  0
ARC
  5
294
100
AcDbEntity
  8
0
100
AcDbCircle
 62
2
  6
CONTINUOUS
 10
12.8174724106
 20
2.5697573549
 40
0.0024749995
100
AcDbArc
 50
179.9999571957
 51
270.0000428043
  0
LINE
  5
295
100
AcDbEntity
  8
0
100
AcDbLine
 62
2
  6
CONTINUOUS
 10
12.8149974111
 20
2.5697573568
 11
12.8149974111
 21
2.5895573678
  0
ARC
  5
296
100
AcDbEntity
  8
0
100
AcDbCircle
 62
2
  6
CONTINUOUS
 10
12.8174724106
 20
2.5895573696
 40
0.0024749995
100
AcDbArc
 50
89.9999571957
 51
180.0000428043
  0
LINE
  5
297
100
AcDbEntity
  8
0
100
AcDbLine
 62
2
  6
CONTINUOUS
 10
12.8174724125
 20
2.5920323691
 11
12.8914734535
 21
2.5920323691
  0
ARC
  5
298
100
AcDbEntity
  8
0
100
AcDbCircle
 62
2
  6
CONTINUOUS
 10
12.8914734553
 20
2.5895573696
 40
0.0024749995
100
AcDbArc
 50
359.9999571957
 51
90.0000428043
  0
LINE
  5
299
100
AcDbEntity
  8
0
100
AcDbLine
 62
2
  6
CONTINUOUS
 10
12.8939484549
 20
2.5895573678
 11
12.8939484549
 21
2.5697573568
  0
ARC
  5
29A
100
AcDbEntity
  8
0
100
AcDbCircle
 62
2
  6
CONTINUOUS
 10
12.8914734553
 20
2.5697573549
 40
0.0024749995
100
AcDbArc
 50
269.9999571957
 51
0.0000428043
  0
LINE
  5
29B
100
AcDbEntity
  8
0
100
AcDbLine
 62
2
  6
CONTINUOUS
 10
12.8914734535
 20
2.5672823554
 11
12.8735404436
 21
2.5672823554
  0
ARC
  5
29C
100
AcDbEntity
  8
0
100
AcDbCircle
 62
2
  6
CONTINUOUS
 10
12.8735404417
 20
2.5648073559
 40
0.0024749995
100
AcDbArc
 50
89.9999571957
 51
180.0000428043
  0
LINE
  5
29D
100
AcDbEntity
  8
0
100
AcDbLine
 62
2
  6
CONTINUOUS
 10
12.8710654422
 20
2.564807354
 11
12.8710654422
 21
2.4937023146
  0
ARC
  5
29E
100
AcDbEntity
  8
0
100
AcDbCircle
 62
2
  6
CONTINUOUS
 10
12.8685904427
 20
2.4937023128
 40
0.0024749995
100
AcDbArc
 50
269.9999571957
 51
0.0000428043
  0
LINE
  5
29F
100
AcDbEntity
  8
0
100
AcDbLine
 62
2
  6
CONTINUOUS
 10
12.8685904408
 20
2.4912273132
 11
12.7943853997
 21
2.4912273132
  0
ARC
  5
2A0
100
AcDbEntity
  8
0
100
AcDbCircle
 62
2
  6
CONTINUOUS
 10
12.7943847649
 20
2.4937027294
 40
0.0024754162
100
AcDbArc
 50
226.3593695813
 51
270.0146919953
  0
LINE
  5
2A1
100
AcDbEntity
  8
0
100
AcDbLine
 62
2
  6
CONTINUOUS
 10
12.7926763987
 20
2.4919113136
 11
12.7293963636
 21
2.5522893471
  0
ARC
  5
2A2
100
AcDbEntity
  8
0
100
AcDbCircle
 62
2
  6
CONTINUOUS
 10
12.7276876627
 20
2.5504984093
 40
0.0024753014
100
AcDbArc
 50
46.3461263059
 51
180.0014637321
  0
LINE
  5
2A3
100
AcDbEntity
  8
0
100
AcDbLine
 62
2
  6
CONTINUOUS
 10
12.7252123613
 20
2.5504983461
 11
12.7252123613
 21
2.5184523283
  0
ARC
  5
2A4
100
AcDbEntity
  8
0
100
AcDbCircle
 62
2
  6
CONTINUOUS
 10
12.7276873608
 20
2.5184523265
 40
0.0024749995
100
AcDbArc
 50
179.9999571957
 51
270.0000428043
  0
LINE
  5
2A5
100
AcDbEntity
  8
0
100
AcDbLine
 62
2
  6
CONTINUOUS
 10
12.7276873627
 20
2.515977327
 11
12.7480043739
 21
2.515977327
  0
ARC
  5
2A6
100
AcDbEntity
  8
0
100
AcDbCircle
 62
2
  6
CONTINUOUS
 10
12.7480043758
 20
2.5135023274
 40
0.0024749995
100
AcDbArc
 50
359.9999571957
 51
90.0000428043
  0
LINE
  5
2A7
100
AcDbEntity
  8
0
100
AcDbLine
 62
2
  6
CONTINUOUS
 10
12.7504793753
 20
2.5135023256
 11
12.7504793753
 21
2.4937023146
  0
ARC
  5
2A8
100
AcDbEntity
  8
0
100
AcDbCircle
 62
2
  6
CONTINUOUS
 10
12.7480043758
 20
2.4937023128
 40
0.0024749995
100
AcDbArc
 50
269.9999571957
 51
0.0000428043
  0
LINE
  5
2A9
100
AcDbEntity
  8
0
100
AcDbLine
 62
2
  6
CONTINUOUS
 10
12.7480043739
 20
2.4912273132
 11
12.672340332
 21
2.4912273132
  0
ARC
  5
2AA
100
AcDbEntity
  8
0
100
AcDbCircle
 62
2
  6
CONTINUOUS
 10
12.6723403301
 20
2.4937023128
 40
0.0024749995
100
AcDbArc
 50
179.9999571957
 51
270.0000428043
  0
LINE
  5
2AB
100
AcDbEntity
  8
0
100
AcDbLine
 62
2
  6
CONTINUOUS
 10
12.6698653306
 20
2.4937023146
 11
12.6698653306
 21
2.5135023256
  0
ARC
  5
2AC
100
AcDbEntity
  8
0
100
AcDbCircle
 62
2
  6
CONTINUOUS
 10
12.6723403301
 20
2.5135023274
 40
0.0024749995
100
AcDbArc
 50
89.9999571957
 51
180.0000428043
  0
LINE
  5
2AD
100
AcDbEntity
  8
0
100
AcDbLine
 62
2
  6
CONTINUOUS
 10
12.672340332
 20
2.515977327
 11
12.6909873423
 21
2.515977327
  0
ARC
  5
2AE
100
AcDbEntity
  8
0
100
AcDbCircle
 62
2
  6
CONTINUOUS
 10
12.6909873442
 20
2.5184523265
 40
0.0024749995
100
AcDbArc
 50
269.9999571957
 51
0.0000428043
  0
LINE
  5
2AF
100
AcDbEntity
  8
0
100
AcDbLine
 62
2
  6
CONTINUOUS
 10
12.6934623437
 20
2.5184523283
 11
12.6934623437
 21
2.564807354
  0
ARC
  5
2B0
100
AcDbEntity
  8
0
100
AcDbCircle
 62
2
  6
CONTINUOUS
 10
12.6909873442
 20
2.5648073559
 40
0.0024749995
100
AcDbArc
 50
359.9999571957
 51
90.0000428043
  0
LINE
  5
2B1
100
AcDbEntity
  8
0
100
AcDbLine
 62
2
  6
CONTINUOUS
 10
12.6909873423
 20
2.5672823554
 11
12.672340332
 21
2.5672823554
  0
ARC
  5
2B2
100
AcDbEntity
  8
0
100
AcDbCircle
 62
2
  6
CONTINUOUS
 10
12.6723403301
 20
2.5697573549
 40
0.0024749995
100
AcDbArc
 50
179.9999571957
 51
270.0000428043
  0
LINE
  5
2B3
100
AcDbEntity
  8
0
100
AcDbLine
 62
2
  6
CONTINUOUS
 10
12.6698653306
 20
2.5697573568
 11
12.6698653306
 21
2.5895573678
  0
ARC
  5
2B4
100
AcDbEntity
  8
0
100
AcDbCircle
 62
2
  6
CONTINUOUS
 10
12.6723403301
 20
2.5895573696
 40
0.0024749995
100
AcDbArc
 50
89.9999571957
 51
180.0000428043
  0
LINE
  5
2B5
100
AcDbEntity
  8
0
100
AcDbLine
 62
2
  6
CONTINUOUS
 10
12.5246402501
 20
2.5655893545
 11
12.5175232461
 21
2.5543723483
  0
ARC
  5
2B6
100
AcDbEntity
  8
0
100
AcDbCircle
 62
2
  6
CONTINUOUS
 10
12.519613138
 20
2.5530463862
 40
0.0024750401
100
AcDbArc
 50
147.6063258012
 51
270.0025305754
  0
LINE
  5
2B7
100
AcDbEntity
  8
0
100
AcDbLine
 62
2
  6
CONTINUOUS
 10
12.5196132473
 20
2.5505713461
 11
12.5401702587
 21
2.5505713461
  0
ARC
  5
2B8
100
AcDbEntity
  8
0
100
AcDbCircle
 62
2
  6
CONTINUOUS
 10
12.5401702375
 20
2.5530465533
 40
0.0024752071
100
AcDbArc
 50
270.0004896793
 51
32.9089806818
  0
LINE
  5
2B9
100
AcDbEntity
  8
0
100
AcDbLine
 62
2
  6
CONTINUOUS
 10
12.5422482598
 20
2.5543913483
 11
12.5349892558
 21
2.5656073545
  0
ARC
  5
2BA
100
AcDbEntity
  8
0
100
AcDbCircle
 62
2
  6
CONTINUOUS
 10
12.532910715
 20
2.564262895
 40
0.0024754602
100
AcDbArc
 50
32.8959418573
 51
89.9875097202
  0
LINE
  5
2BB
100
AcDbEntity
  8
0
100
AcDbLine
 62
2
  6
CONTINUOUS
 10
12.5329112547
 20
2.5667383551
 11
12.5267302512
 21
2.5667383551
  0
ARC
  5
2BC
100
AcDbEntity
  8
0
100
AcDbCircle
 62
2
  6
CONTINUOUS
 10
12.5267301809
 20
2.5642631548
 40
0.0024752003
100
AcDbArc
 50
89.998372645
 51
147.602165307
  0
LINE
  5
2BD
100
AcDbEntity
  8
0
100
AcDbLine
 62
2
  6
CONTINUOUS
 10
12.548053263
 20
2.5284903339
 11
12.5536792662
 21
2.5197973291
  0
ARC
  5
2BE
100
AcDbEntity
  8
0
100
AcDbCircle
 62
2
  6
CONTINUOUS
 10
12.5516012439
 20
2.5184525341
 40
0.0024752071
100
AcDbArc
 50
270.0004896794
 51
32.9089806818
  0
LINE
  5
2BF
100
AcDbEntity
  8
0
100
AcDbLine
 62
2
  6
CONTINUOUS
 10
12.551601265
 20
2.515977327
 11
12.537150257
 21
2.515977327
  0
ARC
  5
2C0
100
AcDbEntity
  8
0
100
AcDbCircle
 62
2
  6
CONTINUOUS
 10
12.5371502552
 20
2.5135023274
 40
0.0024749995
100
AcDbArc
 50
89.9999571957
 51
180.0000428043
  0
LINE
  5
2C1
100
AcDbEntity
  8
0
100
AcDbLine
 62
2
  6
CONTINUOUS
 10
12.5346752556
 20
2.5135023256
 11
12.5346752556
 21
2.4937023146
  0
ARC
  5
2C2
100
AcDbEntity
  8
0
100
AcDbCircle
 62
2
  6
CONTINUOUS
 10
12.5371502552
 20
2.4937023128
 40
0.0024749995
100
AcDbArc
 50
179.9999571957
 51
270.0000428043
  0
LINE
  5
2C3
100
AcDbEntity
  8
0
100
AcDbLine
 62
2
  6
CONTINUOUS
 10
12.537150257
 20
2.4912273132
 11
12.6424313154
 21
2.4912273132
  0
ARC
  5
2C4
100
AcDbEntity
  8
0
100
AcDbCircle
 62
2
  6
CONTINUOUS
 10
12.6424313172
 20
2.4937023128
 40
0.0024749995
100
AcDbArc
 50
269.9999571957
 51
0.0000428043
  0
LINE
  5
2C5
100
AcDbEntity
  8
0
100
AcDbLine
 62
2
  6
CONTINUOUS
 10
12.6449063168
 20
2.4937023146
 11
12.6449063168
 21
2.5135023256
  0
ARC
  5
2C6
100
AcDbEntity
  8
0
100
AcDbCircle
 62
2
  6
CONTINUOUS
 10
12.6424313172
 20
2.5135023274
 40
0.0024749995
100
AcDbArc
 50
359.9999571957
 51
90.0000428043
  0
LINE
  5
2C7
100
AcDbEntity
  8
0
100
AcDbLine
 62
2
  6
CONTINUOUS
 10
12.6424313154
 20
2.515977327
 11
12.6224153043
 21
2.515977327
  0
ARC
  5
2C8
100
AcDbEntity
  8
0
100
AcDbCircle
 62
2
  6
CONTINUOUS
 10
12.6224154248
 20
2.518451368
 40
0.002474041
100
AcDbArc
 50
212.9056413127
 51
269.9972091756
  0
LINE
  5
2C9
100
AcDbEntity
  8
0
100
AcDbLine
 62
2
  6
CONTINUOUS
 10
12.6203383031
 20
2.5171073276
 11
12.5725822767
 21
2.5909023685
  0
ARC
  5
2CA
100
AcDbEntity
  8
0
100
AcDbCircle
 62
2
  6
CONTINUOUS
 10
12.570504655
 20
2.589557409
 40
0.0024749602
100
AcDbArc
 50
32.9172174468
 51
90.0087853097
  0
LINE
  5
2CB
100
AcDbEntity
  8
0
100
AcDbLine
 62
2
  6
CONTINUOUS
 10
12.5705042755
 20
2.5920323691
 11
12.5133292438
 21
2.5920323691
  0
ARC
  5
2CC
100
AcDbEntity
  8
0
100
AcDbCircle
 62
2
  6
CONTINUOUS
 10
12.5133291735
 20
2.5895571688
 40
0.0024752003
100
AcDbArc
 50
89.9983726451
 51
147.602165307
  0
LINE
  5
2CD
100
AcDbEntity
  8
0
100
AcDbLine
 62
2
  6
CONTINUOUS
 10
12.5112392426
 20
2.5908833685
 11
12.4644392167
 21
2.5171263276
  0
ARC
  5
2CE
100
AcDbEntity
  8
0
100
AcDbCircle
 62
2
  6
CONTINUOUS
 10
12.4623492858
 20
2.5184525273
 40
0.0024752003
100
AcDbArc
 50
269.9983726451
 51
327.602165307
  0
LINE
  5
2CF
100
AcDbEntity
  8
0
100
AcDbLine
 62
2
  6
CONTINUOUS
 10
12.4623492155
 20
2.515977327
 11
12.4394882028
 21
2.515977327
  0
ARC
  5
2D0
100
AcDbEntity
  8
0
100
AcDbCircle
 62
2
  6
CONTINUOUS
 10
12.439488201
 20
2.5135023274
 40
0.0024749995
100
AcDbArc
 50
89.9999571957
 51
180.0000428043
  0
LINE
  5
2D1
100
AcDbEntity
  8
0
100
AcDbLine
 62
2
  6
CONTINUOUS
 10
12.4370132015
 20
2.5135023256
 11
12.4370132015
 21
2.4937023146
  0
ARC
  5
2D2
100
AcDbEntity
  8
0
100
AcDbCircle
 62
2
  6
CONTINUOUS
 10
12.439488201
 20
2.4937023128
 40
0.0024749995
100
AcDbArc
 50
179.9999571957
 51
270.0000428043
  0
LINE
  5
2D3
100
AcDbEntity
  8
0
100
AcDbLine
 62
2
  6
CONTINUOUS
 10
12.4394882028
 20
2.4912273132
 11
12.5168642458
 21
2.4912273132
  0
ARC
  5
2D4
100
AcDbEntity
  8
0
100
AcDbCircle
 62
2
  6
CONTINUOUS
 10
12.5168642476
 20
2.4937023128
 40
0.0024749995
100
AcDbArc
 50
269.9999571957
 51
0.0000428043
  0
LINE
  5
2D5
100
AcDbEntity
  8
0
100
AcDbLine
 62
2
  6
CONTINUOUS
 10
12.5193392471
 20
2.4937023146
 11
12.5193392471
 21
2.5135023256
  0
ARC
  5
2D6
100
AcDbEntity
  8
0
100
AcDbCircle
 62
2
  6
CONTINUOUS
 10
12.5168642476
 20
2.5135023274
 40
0.0024749995
100
AcDbArc
 50
359.9999571957
 51
90.0000428043
  0
LINE
  5
2D7
100
AcDbEntity
  8
0
100
AcDbLine
 62
2
  6
CONTINUOUS
 10
12.5168642458
 20
2.515977327
 11
12.5055812395
 21
2.515977327
  0
ARC
  5
2D8
100
AcDbEntity
  8
0
100
AcDbCircle
 62
2
  6
CONTINUOUS
 10
12.5055811302
 20
2.518452367
 40
0.0024750401
100
AcDbArc
 50
147.6063258011
 51
270.0025305754
  0
LINE
  5
2D9
100
AcDbEntity
  8
0
100
AcDbLine
 62
2
  6
CONTINUOUS
 10
12.5034912383
 20
2.5197783291
 11
12.5090072414
 21
2.5284723339
  0
ARC
  5
2DA
100
AcDbEntity
  8
0
100
AcDbCircle
 62
2
  6
CONTINUOUS
 10
12.5110971723
 20
2.5271461342
 40
0.0024752003
100
AcDbArc
 50
89.998372645
 51
147.602165307
  0
LINE
  5
2DB
100
AcDbEntity
  8
0
100
AcDbLine
 62
2
  6
CONTINUOUS
 10
12.5110972426
 20
2.5296213345
 11
12.5459752619
 21
2.5296213345
  0
ARC
  5
2DC
100
AcDbEntity
  8
0
100
AcDbCircle
 62
2
  6
CONTINUOUS
 10
12.5459747223
 20
2.5271458744
 40
0.0024754602
100
AcDbArc
 50
32.8959418573
 51
89.9875097202
  0
LINE
  5
2DD
100
AcDbEntity
  8
0
100
AcDbLine
 62
2
  6
CONTINUOUS
 10
12.9205934696
 20
2.5920323691
 11
13.0210515254
 21
2.5920323691
  0
ARC
  5
2DE
100
AcDbEntity
  8
0
100
AcDbCircle
 62
2
  6
CONTINUOUS
 10
13.0210516601
 20
2.5895582013
 40
0.0024741678
100
AcDbArc
 50
46.3477981899
 51
90.0031206038
  0
LINE
  5
2DF
100
AcDbEntity
  8
0
100
AcDbLine
 62
2
  6
CONTINUOUS
 10
13.0227595263
 20
2.5913483688
 11
13.0827925596
 21
2.534068337
  0
ARC
  5
2E0
100
AcDbEntity
  8
0
100
AcDbCircle
 62
2
  6
CONTINUOUS
 10
13.0845012605
 20
2.5358592748
 40
0.0024753014
100
AcDbArc
 50
226.3461263059
 51
0.0014637321
  0
LINE
  5
2E1
100
AcDbEntity
  8
0
100
AcDbLine
 62
2
  6
CONTINUOUS
 10
13.0869765619
 20
2.535859338
 11
13.0869765619
 21
2.564807354
  0
ARC
  5
2E2
100
AcDbEntity
  8
0
100
AcDbCircle
 62
2
  6
CONTINUOUS
 10
13.0845015624
 20
2.5648073559
 40
0.0024749995
100
AcDbArc
 50
359.9999571957
 51
90.0000428043
  0
LINE
  5
2E3
100
AcDbEntity
  8
0
100
AcDbLine
 62
2
  6
CONTINUOUS
 10
13.0845015605
 20
2.5672823554
 11
13.0657255501
 21
2.5672823554
  0
ARC
  5
2E4
100
AcDbEntity
  8
0
100
AcDbCircle
 62
2
  6
CONTINUOUS
 10
13.0657255483
 20
2.5697573549
 40
0.0024749995
100
AcDbArc
 50
179.9999571957
 51
270.0000428043
  0
LINE
  5
2E5
100
AcDbEntity
  8
0
100
AcDbLine
 62
2
  6
CONTINUOUS
 10
13.0632505488
 20
2.5697573568
 11
13.0632505488
 21
2.5895573678
  0
ARC
  5
2E6
100
AcDbEntity
  8
0
100
AcDbCircle
 62
2
  6
CONTINUOUS
 10
13.0657255483
 20
2.5895573696
 40
0.0024749995
100
AcDbArc
 50
89.9999571957
 51
180.0000428043
  0
LINE
  5
2E7
100
AcDbEntity
  8
0
100
AcDbLine
 62
2
  6
CONTINUOUS
 10
13.0657255501
 20
2.5920323691
 11
13.1397265912
 21
2.5920323691
  0
ARC
  5
2E8
100
AcDbEntity
  8
0
100
AcDbCircle
 62
2
  6
CONTINUOUS
 10
13.139726593
 20
2.5895573696
 40
0.0024749995
100
AcDbArc
 50
359.9999571957
 51
90.0000428043
  0
LINE
  5
2E9
100
AcDbEntity
  8
0
100
AcDbLine
 62
2
  6
CONTINUOUS
 10
13.1422015925
 20
2.5895573678
 11
13.1422015925
 21
2.5697573568
  0
ARC
  5
2EA
100
AcDbEntity
  8
0
100
AcDbCircle
 62
2
  6
CONTINUOUS
 10
13.139726593
 20
2.5697573549
 40
0.0024749995
100
AcDbArc
 50
269.9999571957
 51
0.0000428042
  0
LINE
  5
2EB
100
AcDbEntity
  8
0
100
AcDbLine
 62
2
  6
CONTINUOUS
 10
13.1397265912
 20
2.5672823554
 11
13.1217935812
 21
2.5672823554
  0
ARC
  5
2EC
100
AcDbEntity
  8
0
100
AcDbCircle
 62
2
  6
CONTINUOUS
 10
13.1217935794
 20
2.5648073559
 40
0.0024749995
100
AcDbArc
 50
89.9999571957
 51
180.0000428042
  0
LINE
  5
2ED
100
AcDbEntity
  8
0
100
AcDbLine
 62
2
  6
CONTINUOUS
 10
13.1193185799
 20
2.564807354
 11
13.1193185799
 21
2.4937023146
  0
ARC
  5
2EE
100
AcDbEntity
  8
0
100
AcDbCircle
 62
2
  6
CONTINUOUS
 10
13.1168435803
 20
2.4937023128
 40
0.0024749995
100
AcDbArc
 50
269.9999571957
 51
0.0000428043
  0
LINE
  5
2EF
100
AcDbEntity
  8
0
100
AcDbLine
 62
2
  6
CONTINUOUS
 10
13.1168435785
 20
2.4912273132
 11
13.0426375373
 21
2.4912273132
  0
ARC
  5
2F0
100
AcDbEntity
  8
0
100
AcDbCircle
 62
2
  6
CONTINUOUS
 10
13.0426374026
 20
2.493701481
 40
0.0024741678
100
AcDbArc
 50
226.3477981898
 51
270.0031206038
  0
LINE
  5
2F1
100
AcDbEntity
  8
0
100
AcDbLine
 62
2
  6
CONTINUOUS
 10
13.0409295364
 20
2.4919113136
 11
12.9776495013
 21
2.5522893471
  0
ARC
  5
2F2
100
AcDbEntity
  8
0
100
AcDbCircle
 62
2
  6
CONTINUOUS
 10
12.9759408003
 20
2.5504984093
 40
0.0024753014
100
AcDbArc
 50
46.3461263059
 51
180.0014637321
  0
LINE
  5
2F3
100
AcDbEntity
  8
0
100
AcDbLine
 62
2
  6
CONTINUOUS
 10
12.973465499
 20
2.5504983461
 11
12.973465499
 21
2.5184523283
  0
ARC
  5
2F4
100
AcDbEntity
  8
0
100
AcDbCircle
 62
2
  6
CONTINUOUS
 10
12.9759404985
 20
2.5184523265
 40
0.0024749995
100
AcDbArc
 50
179.9999571957
 51
270.0000428043
  0
LINE
  5
2F5
100
AcDbEntity
  8
0
100
AcDbLine
 62
2
  6
CONTINUOUS
 10
12.9759405003
 20
2.515977327
 11
12.9962575116
 21
2.515977327
  0
ARC
  5
2F6
100
AcDbEntity
  8
0
100
AcDbCircle
 62
2
  6
CONTINUOUS
 10
12.9962575135
 20
2.5135023274
 40
0.0024749995
100
AcDbArc
 50
359.9999571957
 51
90.0000428043
  0
LINE
  5
2F7
100
AcDbEntity
  8
0
100
AcDbLine
 62
2
  6
CONTINUOUS
 10
12.998732513
 20
2.5135023256
 11
12.998732513
 21
2.4937023146
  0
ARC
  5
2F8
100
AcDbEntity
  8
0
100
AcDbCircle
 62
2
  6
CONTINUOUS
 10
12.9962575135
 20
2.4937023128
 40
0.0024749995
100
AcDbArc
 50
269.9999571957
 51
0.0000428043
  0
LINE
  5
2F9
100
AcDbEntity
  8
0
100
AcDbLine
 62
2
  6
CONTINUOUS
 10
12.9962575116
 20
2.4912273132
 11
12.9205934696
 21
2.4912273132
  0
ARC
  5
2FA
100
AcDbEntity
  8
0
100
AcDbCircle
 62
2
  6
CONTINUOUS
 10
12.9205934678
 20
2.4937023128
 40
0.0024749995
100
AcDbArc
 50
179.9999571957
 51
270.0000428043
  0
LINE
  5
2FB
100
AcDbEntity
  8
0
100
AcDbLine
 62
2
  6
CONTINUOUS
 10
12.9181184683
 20
2.4937023146
 11
12.9181184683
 21
2.5135023256
  0
ARC
  5
2FC
100
AcDbEntity
  8
0
100
AcDbCircle
 62
2
  6
CONTINUOUS
 10
12.9205934678
 20
2.5135023274
 40
0.0024749995
100
AcDbArc
 50
89.9999571957
 51
180.0000428042
  0
LINE
  5
2FD
100
AcDbEntity
  8
0
100
AcDbLine
 62
2
  6
CONTINUOUS
 10
12.9205934696
 20
2.515977327
 11
12.93923948
 21
2.515977327
  0
ARC
  5
2FE
100
AcDbEntity
  8
0
100
AcDbCircle
 62
2
  6
CONTINUOUS
 10
12.9392394818
 20
2.5184523265
 40
0.0024749995
100
AcDbArc
 50
269.9999571957
 51
0.0000428043
  0
LINE
  5
2FF
100
AcDbEntity
  8
0
100
AcDbLine
 62
2
  6
CONTINUOUS
 10
12.9417144814
 20
2.5184523283
 11
12.9417144814
 21
2.564807354
  0
ARC
  5
300
100
AcDbEntity
  8
0
100
AcDbCircle
 62
2
  6
CONTINUOUS
 10
12.9392394818
 20
2.5648073559
 40
0.0024749995
100
AcDbArc
 50
359.9999571957
 51
90.0000428043
  0
LINE
  5
301
100
AcDbEntity
  8
0
100
AcDbLine
 62
2
  6
CONTINUOUS
 10
12.93923948
 20
2.5672823554
 11
12.9205934696
 21
2.5672823554
  0
ARC
  5
302
100
AcDbEntity
  8
0
100
AcDbCircle
 62
2
  6
CONTINUOUS
 10
12.9205934678
 20
2.5697573549
 40
0.0024749995
100
AcDbArc
 50
179.9999571957
 51
270.0000428043
  0
LINE
  5
303
100
AcDbEntity
  8
0
100
AcDbLine
 62
2
  6
CONTINUOUS
 10
12.9181184683
 20
2.5697573568
 11
12.9181184683
 21
2.5895573678
  0
ARC
  5
304
100
AcDbEntity
  8
0
100
AcDbCircle
 62
2
  6
CONTINUOUS
 10
12.9205934678
 20
2.5895573696
 40
0.0024749995
100
AcDbArc
 50
89.9999571957
 51
180.0000428042
  0
LINE
  5
305
100
AcDbEntity
  8
0
100
AcDbLine
 62
2
  6
CONTINUOUS
 10
13.2934226764
 20
2.5324773361
 11
13.2582556569
 21
2.5324773361
  0
ARC
  5
306
100
AcDbEntity
  8
0
100
AcDbCircle
 62
2
  6
CONTINUOUS
 10
13.2582556551
 20
2.5300023366
 40
0.0024749995
100
AcDbArc
 50
89.9999571957
 51
180.0000428043
  0
LINE
  5
307
100
AcDbEntity
  8
0
100
AcDbLine
 62
2
  6
CONTINUOUS
 10
13.2557806555
 20
2.5300023347
 11
13.2557806555
 21
2.5184523283
  0
ARC
  5
308
100
AcDbEntity
  8
0
100
AcDbCircle
 62
2
  6
CONTINUOUS
 10
13.2582556551
 20
2.5184523265
 40
0.0024749995
100
AcDbArc
 50
179.9999571957
 51
270.0000428043
  0
LINE
  5
309
100
AcDbEntity
  8
0
100
AcDbLine
 62
2
  6
CONTINUOUS
 10
13.2582556569
 20
2.515977327
 11
13.3232596929
 21
2.515977327
  0
ARC
  5
30A
100
AcDbEntity
  8
0
100
AcDbCircle
 62
2
  6
CONTINUOUS
 10
13.3232596948
 20
2.5184523265
 40
0.0024749995
100
AcDbArc
 50
269.9999571957
 51
0.0000428043
  0
LINE
  5
30B
100
AcDbEntity
  8
0
100
AcDbLine
 62
2
  6
CONTINUOUS
 10
13.3257346943
 20
2.5184523283
 11
13.3257346943
 21
2.5267023329
  0
ARC
  5
30C
100
AcDbEntity
  8
0
100
AcDbCircle
 62
2
  6
CONTINUOUS
 10
13.3282096938
 20
2.5267023348
 40
0.0024749995
100
AcDbArc
 50
89.9999571957
 51
180.0000428043
  0
LINE
  5
30D
100
AcDbEntity
  8
0
100
AcDbLine
 62
2
  6
CONTINUOUS
 10
13.3282096957
 20
2.5291773343
 11
13.3705287192
 21
2.5291773343
  0
ARC
  5
30E
100
AcDbEntity
  8
0
100
AcDbCircle
 62
2
  6
CONTINUOUS
 10
13.370528721
 20
2.5267023348
 40
0.0024749995
100
AcDbArc
 50
359.9999571957
 51
90.0000428043
  0
LINE
  5
30F
100
AcDbEntity
  8
0
100
AcDbLine
 62
2
  6
CONTINUOUS
 10
13.3730037205
 20
2.5267023329
 11
13.3730037205
 21
2.4937023146
  0
ARC
  5
310
100
AcDbEntity
  8
0
100
AcDbCircle
 62
2
  6
CONTINUOUS
 10
13.370528721
 20
2.4937023128
 40
0.0024749995
100
AcDbArc
 50
269.9999571957
 51
0.0000428043
  0
LINE
  5
311
100
AcDbEntity
  8
0
100
AcDbLine
 62
2
  6
CONTINUOUS
 10
13.3705287192
 20
2.4912273132
 11
13.1673166065
 21
2.4912273132
  0
ARC
  5
312
100
AcDbEntity
  8
0
100
AcDbCircle
 62
2
  6
CONTINUOUS
 10
13.1673166046
 20
2.4937023128
 40
0.0024749995
100
AcDbArc
 50
179.9999571957
 51
270.0000428043
  0
LINE
  5
313
100
AcDbEntity
  8
0
100
AcDbLine
 62
2
  6
CONTINUOUS
 10
13.1648416051
 20
2.4937023146
 11
13.1648416051
 21
2.5135023256
  0
ARC
  5
314
100
AcDbEntity
  8
0
100
AcDbCircle
 62
2
  6
CONTINUOUS
 10
13.1673166046
 20
2.5135023274
 40
0.0024749995
100
AcDbArc
 50
89.9999571957
 51
180.0000428043
  0
LINE
  5
315
100
AcDbEntity
  8
0
100
AcDbLine
 62
2
  6
CONTINUOUS
 10
13.1673166065
 20
2.515977327
 11
13.1912396197
 21
2.515977327
  0
ARC
  5
316
100
AcDbEntity
  8
0
100
AcDbCircle
 62
2
  6
CONTINUOUS
 10
13.1912396216
 20
2.5184523265
 40
0.0024749995
100
AcDbArc
 50
269.9999571957
 51
0.0000428042
  0
LINE
  5
317
100
AcDbEntity
  8
0
100
AcDbLine
 62
2
  6
CONTINUOUS
 10
13.1937146211
 20
2.5184523283
 11
13.1937146211
 21
2.564807354
  0
ARC
  5
318
100
AcDbEntity
  8
0
100
AcDbCircle
 62
2
  6
CONTINUOUS
 10
13.1912396216
 20
2.5648073559
 40
0.0024749995
100
AcDbArc
 50
359.9999571957
 51
90.0000428043
  0
LINE
  5
319
100
AcDbEntity
  8
0
100
AcDbLine
 62
2
  6
CONTINUOUS
 10
13.1912396197
 20
2.5672823554
 11
13.1673166065
 21
2.5672823554
  0
ARC
  5
31A
100
AcDbEntity
  8
0
100
AcDbCircle
 62
2
  6
CONTINUOUS
 10
13.1673166046
 20
2.5697573549
 40
0.0024749995
100
AcDbArc
 50
179.9999571957
 51
270.0000428043
  0
LINE
  5
31B
100
AcDbEntity
  8
0
100
AcDbLine
 62
2
  6
CONTINUOUS
 10
13.1648416051
 20
2.5697573568
 11
13.1648416051
 21
2.5895573678
  0
ARC
  5
31C
100
AcDbEntity
  8
0
100
AcDbCircle
 62
2
  6
CONTINUOUS
 10
13.1673166046
 20
2.5895573696
 40
0.0024749995
100
AcDbArc
 50
89.9999571957
 51
180.0000428043
  0
LINE
  5
31D
100
AcDbEntity
  8
0
100
AcDbLine
 62
2
  6
CONTINUOUS
 10
13.1673166065
 20
2.5920323691
 11
13.3691097184
 21
2.5920323691
  0
ARC
  5
31E
100
AcDbEntity
  8
0
100
AcDbCircle
 62
2
  6
CONTINUOUS
 10
13.3691097202
 20
2.5895573696
 40
0.0024749995
100
AcDbArc
 50
359.9999571957
 51
90.0000428043
  0
LINE
  5
31F
100
AcDbEntity
  8
0
100
AcDbLine
 62
2
  6
CONTINUOUS
 10
13.3715847197
 20
2.5895573678
 11
13.3715847197
 21
2.5565573495
  0
ARC
  5
320
100
AcDbEntity
  8
0
100
AcDbCircle
 62
2
  6
CONTINUOUS
 10
13.3691097202
 20
2.5565573476
 40
0.0024749995
100
AcDbArc
 50
269.9999571957
 51
0.0000428042
  0
LINE
  5
321
100
AcDbEntity
  8
0
100
AcDbLine
 62
2
  6
CONTINUOUS
 10
13.3691097184
 20
2.5540823481
 11
13.3272456952
 21
2.5540823481
  0
ARC
  5
322
100
AcDbEntity
  8
0
100
AcDbCircle
 62
2
  6
CONTINUOUS
 10
13.3272456933
 20
2.5565573476
 40
0.0024749995
100
AcDbArc
 50
179.9999571957
 51
270.0000428043
  0
LINE
  5
323
100
AcDbEntity
  8
0
100
AcDbLine
 62
2
  6
CONTINUOUS
 10
13.3247706938
 20
2.5565573495
 11
13.3247706938
 21
2.564807354
  0
ARC
  5
324
100
AcDbEntity
  8
0
100
AcDbCircle
 62
2
  6
CONTINUOUS
 10
13.3222956943
 20
2.5648073559
 40
0.0024749995
100
AcDbArc
 50
359.9999571957
 51
90.0000428043
  0
LINE
  5
325
100
AcDbEntity
  8
0
100
AcDbLine
 62
2
  6
CONTINUOUS
 10
13.3222956924
 20
2.5672823554
 11
13.2582556569
 21
2.5672823554
  0
ARC
  5
326
100
AcDbEntity
  8
0
100
AcDbCircle
 62
2
  6
CONTINUOUS
 10
13.2582556551
 20
2.5648073559
 40
0.0024749995
100
AcDbArc
 50
89.9999571957
 51
180.0000428043
  0
LINE
  5
327
100
AcDbEntity
  8
0
100
AcDbLine
 62
2
  6
CONTINUOUS
 10
13.2557806555
 20
2.564807354
 11
13.2557806555
 21
2.5532573476
  0
ARC
  5
328
100
AcDbEntity
  8
0
100
AcDbCircle
 62
2
  6
CONTINUOUS
 10
13.2582556551
 20
2.5532573458
 40
0.0024749995
100
AcDbArc
 50
179.9999571957
 51
270.0000428043
  0
LINE
  5
329
100
AcDbEntity
  8
0
100
AcDbLine
 62
2
  6
CONTINUOUS
 10
13.2582556569
 20
2.5507823463
 11
13.2934226764
 21
2.5507823463
  0
ARC
  5
32A
100
AcDbEntity
  8
0
100
AcDbCircle
 62
2
  6
CONTINUOUS
 10
13.2934226783
 20
2.5483073467
 40
0.0024749995
100
AcDbArc
 50
359.9999571957
 51
90.0000428043
  0
LINE
  5
32B
100
AcDbEntity
  8
0
100
AcDbLine
 62
2
  6
CONTINUOUS
 10
13.2958976778
 20
2.5483073449
 11
13.2958976778
 21
2.5349523375
  0
ARC
  5
32C
100
AcDbEntity
  8
0
100
AcDbCircle
 62
2
  6
CONTINUOUS
 10
13.2934226783
 20
2.5349523356
 40
0.0024749995
100
AcDbArc
 50
269.9999571957
 51
0.0000428042
  0
LINE
  5
32D
100
AcDbEntity
  8
0
100
AcDbLine
 62
2
  6
CONTINUOUS
 10
13.7286871589
 20
2.5350697372
 11
13.7286871589
 21
2.5456869438
  0
LINE
  5
32E
100
AcDbEntity
  8
0
100
AcDbLine
 62
2
  6
CONTINUOUS
 10
13.7086871478
 20
2.5004302075
 11
13.7086871478
 21
2.5803264735
  0
LINE
  5
32F
100
AcDbEntity
  8
0
100
AcDbLine
 62
2
  6
CONTINUOUS
 10
13.6886871368
 20
2.4843919416
 11
13.6886871368
 21
2.5963647394
  0
LINE
  5
330
100
AcDbEntity
  8
0
100
AcDbLine
 62
2
  6
CONTINUOUS
 10
13.6686871257
 20
2.4726017898
 11
13.6686871257
 21
2.6081548911
  0
LINE
  5
331
100
AcDbEntity
  8
0
100
AcDbLine
 62
2
  6
CONTINUOUS
 10
13.6486871146
 20
2.4628062688
 11
13.6486871146
 21
2.6179504122
  0
LINE
  5
332
100
AcDbEntity
  8
0
100
AcDbLine
 62
2
  6
CONTINUOUS
 10
13.6286871035
 20
2.4541253507
 11
13.6286871035
 21
2.5062483056
  0
LINE
  5
333
100
AcDbEntity
  8
0
100
AcDbLine
 62
2
  6
CONTINUOUS
 10
13.6286871035
 20
2.5301143348
 11
13.6286871035
 21
2.6266313303
  0
LINE
  5
334
100
AcDbEntity
  8
0
100
AcDbLine
 62
2
  6
CONTINUOUS
 10
13.6086870924
 20
2.4465537903
 11
13.6086870924
 21
2.4918774918
  0
LINE
  5
335
100
AcDbEntity
  8
0
100
AcDbLine
 62
2
  6
CONTINUOUS
 10
13.6086870924
 20
2.5165781173
 11
13.6086870924
 21
2.6342028907
  0
LINE
  5
336
100
AcDbEntity
  8
0
100
AcDbLine
 62
2
  6
CONTINUOUS
 10
13.5886870813
 20
2.4398033466
 11
13.5886870813
 21
2.4912273132
  0
LINE
  5
337
100
AcDbEntity
  8
0
100
AcDbLine
 62
2
  6
CONTINUOUS
 10
13.5886870813
 20
2.5391840845
 11
13.5886870813
 21
2.5454298327
  0
LINE
  5
338
100
AcDbEntity
  8
0
100
AcDbLine
 62
2
  6
CONTINUOUS
 10
13.5886870813
 20
2.5862063472
 11
13.5886870813
 21
2.6409533343
  0
LINE
  5
339
100
AcDbEntity
  8
0
100
AcDbLine
 62
2
  6
CONTINUOUS
 10
13.5686870702
 20
2.4334702189
 11
13.5686870702
 21
2.4912273132
  0
LINE
  5
33A
100
AcDbEntity
  8
0
100
AcDbLine
 62
2
  6
CONTINUOUS
 10
13.5686870702
 20
2.5906587765
 11
13.5686870702
 21
2.647286462
  0
LINE
  5
33B
100
AcDbEntity
  8
0
100
AcDbLine
 62
2
  6
CONTINUOUS
 10
13.5486870591
 20
2.4278968124
 11
13.5486870591
 21
2.4937461006
  0
LINE
  5
33C
100
AcDbEntity
  8
0
100
AcDbLine
 62
2
  6
CONTINUOUS
 10
13.5486870591
 20
2.5920323691
 11
13.5486870591
 21
2.6528598686
  0
LINE
  5
33D
100
AcDbEntity
  8
0
100
AcDbLine
 62
2
  6
CONTINUOUS
 10
13.528687048
 20
2.4225427674
 11
13.528687048
 21
2.5270426993
  0
LINE
  5
33E
100
AcDbEntity
  8
0
100
AcDbLine
 62
2
  6
CONTINUOUS
 10
13.528687048
 20
2.5505166259
 11
13.528687048
 21
2.5668657091
  0
LINE
  5
33F
100
AcDbEntity
  8
0
100
AcDbLine
 62
2
  6
CONTINUOUS
 10
13.528687048
 20
2.5920323691
 11
13.528687048
 21
2.6582139136
  0
LINE
  5
340
100
AcDbEntity
  8
0
100
AcDbLine
 62
2
  6
CONTINUOUS
 10
13.5086870369
 20
2.4177306791
 11
13.5086870369
 21
2.4912273132
  0
LINE
  5
341
100
AcDbEntity
  8
0
100
AcDbLine
 62
2
  6
CONTINUOUS
 10
13.5086870369
 20
2.5159553269
 11
13.5086870369
 21
2.5306043351
  0
LINE
  5
342
100
AcDbEntity
  8
0
100
AcDbLine
 62
2
  6
CONTINUOUS
 10
13.5086870369
 20
2.5496073456
 11
13.5086870369
 21
2.5672823554
  0
LINE
  5
343
100
AcDbEntity
  8
0
100
AcDbLine
 62
2
  6
CONTINUOUS
 10
13.5086870369
 20
2.5920323691
 11
13.5086870369
 21
2.6630260019
  0
LINE
  5
344
100
AcDbEntity
  8
0
100
AcDbLine
 62
2
  6
CONTINUOUS
 10
13.4886870258
 20
2.4131795254
 11
13.4886870258
 21
2.4912273132
  0
LINE
  5
345
100
AcDbEntity
  8
0
100
AcDbLine
 62
2
  6
CONTINUOUS
 10
13.4886870258
 20
2.5159553269
 11
13.4886870258
 21
2.5306043351
  0
LINE
  5
346
100
AcDbEntity
  8
0
100
AcDbLine
 62
2
  6
CONTINUOUS
 10
13.4886870258
 20
2.5496073456
 11
13.4886870258
 21
2.5672823554
  0
LINE
  5
347
100
AcDbEntity
  8
0
100
AcDbLine
 62
2
  6
CONTINUOUS
 10
13.4886870258
 20
2.5920323691
 11
13.4886870258
 21
2.6675771555
  0
LINE
  5
348
100
AcDbEntity
  8
0
100
AcDbLine
 62
2
  6
CONTINUOUS
 10
13.4686870147
 20
2.4088819672
 11
13.4686870147
 21
2.4912273132
  0
LINE
  5
349
100
AcDbEntity
  8
0
100
AcDbLine
 62
2
  6
CONTINUOUS
 10
13.4686870147
 20
2.5920323691
 11
13.4686870147
 21
2.6718747138
  0
LINE
  5
34A
100
AcDbEntity
  8
0
100
AcDbLine
 62
2
  6
CONTINUOUS
 10
13.4486870037
 20
2.4050092072
 11
13.4486870037
 21
2.4912273132
  0
LINE
  5
34B
100
AcDbEntity
  8
0
100
AcDbLine
 62
2
  6
CONTINUOUS
 10
13.4486870037
 20
2.5920323691
 11
13.4486870037
 21
2.6757474738
  0
LINE
  5
34C
100
AcDbEntity
  8
0
100
AcDbLine
 62
2
  6
CONTINUOUS
 10
13.4286869926
 20
2.4011364471
 11
13.4286869926
 21
2.4912273132
  0
LINE
  5
34D
100
AcDbEntity
  8
0
100
AcDbLine
 62
2
  6
CONTINUOUS
 10
13.4286869926
 20
2.5920323691
 11
13.4286869926
 21
2.6796202339
  0
LINE
  5
34E
100
AcDbEntity
  8
0
100
AcDbLine
 62
2
  6
CONTINUOUS
 10
13.4086869815
 20
2.3980226662
 11
13.4086869815
 21
2.4912273132
  0
LINE
  5
34F
100
AcDbEntity
  8
0
100
AcDbLine
 62
2
  6
CONTINUOUS
 10
13.4086869815
 20
2.515977327
 11
13.4086869815
 21
2.5672823554
  0
LINE
  5
350
100
AcDbEntity
  8
0
100
AcDbLine
 62
2
  6
CONTINUOUS
 10
13.4086869815
 20
2.5920323691
 11
13.4086869815
 21
2.6827340148
  0
LINE
  5
351
100
AcDbEntity
  8
0
100
AcDbLine
 62
2
  6
CONTINUOUS
 10
13.3886869704
 20
2.3950052774
 11
13.3886869704
 21
2.6857514036
  0
LINE
  5
352
100
AcDbEntity
  8
0
100
AcDbLine
 62
2
  6
CONTINUOUS
 10
13.3686869593
 20
2.3919878885
 11
13.3686869593
 21
2.4912273132
  0
LINE
  5
353
100
AcDbEntity
  8
0
100
AcDbLine
 62
2
  6
CONTINUOUS
 10
13.3686869593
 20
2.5291773343
 11
13.3686869593
 21
2.5540823481
  0
LINE
  5
354
100
AcDbEntity
  8
0
100
AcDbLine
 62
2
  6
CONTINUOUS
 10
13.3686869593
 20
2.5920323691
 11
13.3686869593
 21
2.6887687924
  0
LINE
  5
355
100
AcDbEntity
  8
0
100
AcDbLine
 62
2
  6
CONTINUOUS
 10
13.3486869482
 20
2.3889704997
 11
13.3486869482
 21
2.4912273132
  0
LINE
  5
356
100
AcDbEntity
  8
0
100
AcDbLine
 62
2
  6
CONTINUOUS
 10
13.3486869482
 20
2.5291773343
 11
13.3486869482
 21
2.5540823481
  0
LINE
  5
357
100
AcDbEntity
  8
0
100
AcDbLine
 62
2
  6
CONTINUOUS
 10
13.3486869482
 20
2.5920323691
 11
13.3486869482
 21
2.6917861813
  0
LINE
  5
358
100
AcDbEntity
  8
0
100
AcDbLine
 62
2
  6
CONTINUOUS
 10
13.3286869371
 20
2.3859531109
 11
13.3286869371
 21
2.4912273132
  0
LINE
  5
359
100
AcDbEntity
  8
0
100
AcDbLine
 62
2
  6
CONTINUOUS
 10
13.3286869371
 20
2.5291773343
 11
13.3286869371
 21
2.5540823481
  0
LINE
  5
35A
100
AcDbEntity
  8
0
100
AcDbLine
 62
2
  6
CONTINUOUS
 10
13.3286869371
 20
2.5920323691
 11
13.3286869371
 21
2.6948035701
  0
LINE
  5
35B
100
AcDbEntity
  8
0
100
AcDbLine
 62
2
  6
CONTINUOUS
 10
13.308686926
 20
2.3833355437
 11
13.308686926
 21
2.4912273132
  0
LINE
  5
35C
100
AcDbEntity
  8
0
100
AcDbLine
 62
2
  6
CONTINUOUS
 10
13.308686926
 20
2.515977327
 11
13.308686926
 21
2.5672823554
  0
LINE
  5
35D
100
AcDbEntity
  8
0
100
AcDbLine
 62
2
  6
CONTINUOUS
 10
13.308686926
 20
2.5920323691
 11
13.308686926
 21
2.6974211373
  0
LINE
  5
35E
100
AcDbEntity
  8
0
100
AcDbLine
 62
2
  6
CONTINUOUS
 10
13.2886869149
 20
2.3812612684
 11
13.2886869149
 21
2.4912273132
  0
LINE
  5
35F
100
AcDbEntity
  8
0
100
AcDbLine
 62
2
  6
CONTINUOUS
 10
13.2886869149
 20
2.515977327
 11
13.2886869149
 21
2.5324773361
  0
LINE
  5
360
100
AcDbEntity
  8
0
100
AcDbLine
 62
2
  6
CONTINUOUS
 10
13.2886869149
 20
2.5507823463
 11
13.2886869149
 21
2.5672823554
  0
LINE
  5
361
100
AcDbEntity
  8
0
100
AcDbLine
 62
2
  6
CONTINUOUS
 10
13.2886869149
 20
2.5920323691
 11
13.2886869149
 21
2.6994954125
  0
LINE
  5
362
100
AcDbEntity
  8
0
100
AcDbLine
 62
2
  6
CONTINUOUS
 10
13.2686869038
 20
2.3791869932
 11
13.2686869038
 21
2.4912273132
  0
LINE
  5
363
100
AcDbEntity
  8
0
100
AcDbLine
 62
2
  6
CONTINUOUS
 10
13.2686869038
 20
2.515977327
 11
13.2686869038
 21
2.5324773361
  0
LINE
  5
364
100
AcDbEntity
  8
0
100
AcDbLine
 62
2
  6
CONTINUOUS
 10
13.2686869038
 20
2.5507823463
 11
13.2686869038
 21
2.5672823554
  0
LINE
  5
365
100
AcDbEntity
  8
0
100
AcDbLine
 62
2
  6
CONTINUOUS
 10
13.2686869038
 20
2.5920323691
 11
13.2686869038
 21
2.7015696878
  0
LINE
  5
366
100
AcDbEntity
  8
0
100
AcDbLine
 62
2
  6
CONTINUOUS
 10
13.2486868927
 20
2.377112718
 11
13.2486868927
 21
2.4912273132
  0
LINE
  5
367
100
AcDbEntity
  8
0
100
AcDbLine
 62
2
  6
CONTINUOUS
 10
13.2486868927
 20
2.5920323691
 11
13.2486868927
 21
2.703643963
  0
LINE
  5
368
100
AcDbEntity
  8
0
100
AcDbLine
 62
2
  6
CONTINUOUS
 10
13.2286868817
 20
2.3750384428
 11
13.2286868817
 21
2.4912273132
  0
LINE
  5
369
100
AcDbEntity
  8
0
100
AcDbLine
 62
2
  6
CONTINUOUS
 10
13.2286868817
 20
2.5920323691
 11
13.2286868817
 21
2.7057182382
  0
LINE
  5
36A
100
AcDbEntity
  8
0
100
AcDbLine
 62
2
  6
CONTINUOUS
 10
13.2086868706
 20
2.3729641676
 11
13.2086868706
 21
2.4912273132
  0
LINE
  5
36B
100
AcDbEntity
  8
0
100
AcDbLine
 62
2
  6
CONTINUOUS
 10
13.2086868706
 20
2.5920323691
 11
13.2086868706
 21
2.7077925134
  0
LINE
  5
36C
100
AcDbEntity
  8
0
100
AcDbLine
 62
2
  6
CONTINUOUS
 10
13.1886868595
 20
2.3712344456
 11
13.1886868595
 21
2.4912273132
  0
LINE
  5
36D
100
AcDbEntity
  8
0
100
AcDbLine
 62
2
  6
CONTINUOUS
 10
13.1886868595
 20
2.515977327
 11
13.1886868595
 21
2.5672823554
  0
LINE
  5
36E
100
AcDbEntity
  8
0
100
AcDbLine
 62
2
  6
CONTINUOUS
 10
13.1886868595
 20
2.5920323691
 11
13.1886868595
 21
2.7095222354
  0
LINE
  5
36F
100
AcDbEntity
  8
0
100
AcDbLine
 62
2
  6
CONTINUOUS
 10
13.1686868484
 20
2.3699682418
 11
13.1686868484
 21
2.4912273132
  0
LINE
  5
370
100
AcDbEntity
  8
0
100
AcDbLine
 62
2
  6
CONTINUOUS
 10
13.1686868484
 20
2.515977327
 11
13.1686868484
 21
2.5672823554
  0
LINE
  5
371
100
AcDbEntity
  8
0
100
AcDbLine
 62
2
  6
CONTINUOUS
 10
13.1686868484
 20
2.5920323691
 11
13.1686868484
 21
2.7107884392
  0
LINE
  5
372
100
AcDbEntity
  8
0
100
AcDbLine
 62
2
  6
CONTINUOUS
 10
13.1486868373
 20
2.3687020381
 11
13.1486868373
 21
2.7120546429
  0
LINE
  5
373
100
AcDbEntity
  8
0
100
AcDbLine
 62
2
  6
CONTINUOUS
 10
13.1286868262
 20
2.3674358343
 11
13.1286868262
 21
2.5672823554
  0
LINE
  5
374
100
AcDbEntity
  8
0
100
AcDbLine
 62
2
  6
CONTINUOUS
 10
13.1286868262
 20
2.5920323691
 11
13.1286868262
 21
2.7133208466
  0
LINE
  5
375
100
AcDbEntity
  8
0
100
AcDbLine
 62
2
  6
CONTINUOUS
 10
13.1086868151
 20
2.3661696306
 11
13.1086868151
 21
2.4912273132
  0
LINE
  5
376
100
AcDbEntity
  8
0
100
AcDbLine
 62
2
  6
CONTINUOUS
 10
13.1086868151
 20
2.5920323691
 11
13.1086868151
 21
2.7145870504
  0
LINE
  5
377
100
AcDbEntity
  8
0
100
AcDbLine
 62
2
  6
CONTINUOUS
 10
13.088686804
 20
2.3649034269
 11
13.088686804
 21
2.4912273132
  0
LINE
  5
378
100
AcDbEntity
  8
0
100
AcDbLine
 62
2
  6
CONTINUOUS
 10
13.088686804
 20
2.5920323691
 11
13.088686804
 21
2.7158532541
  0
LINE
  5
379
100
AcDbEntity
  8
0
100
AcDbLine
 62
2
  6
CONTINUOUS
 10
13.0686867929
 20
2.3636739922
 11
13.0686867929
 21
2.4912273132
  0
LINE
  5
37A
100
AcDbEntity
  8
0
100
AcDbLine
 62
2
  6
CONTINUOUS
 10
13.0686867929
 20
2.5475272398
 11
13.0686867929
 21
2.5672823554
  0
LINE
  5
37B
100
AcDbEntity
  8
0
100
AcDbLine
 62
2
  6
CONTINUOUS
 10
13.0686867929
 20
2.5920323691
 11
13.0686867929
 21
2.7170826887
  0
LINE
  5
37C
100
AcDbEntity
  8
0
100
AcDbLine
 62
2
  6
CONTINUOUS
 10
13.0486867818
 20
2.363143203
 11
13.0486867818
 21
2.4912273132
  0
LINE
  5
37D
100
AcDbEntity
  8
0
100
AcDbLine
 62
2
  6
CONTINUOUS
 10
13.0486867818
 20
2.5666100882
 11
13.0486867818
 21
2.717613478
  0
LINE
  5
37E
100
AcDbEntity
  8
0
100
AcDbLine
 62
2
  6
CONTINUOUS
 10
13.0286867707
 20
2.3626124138
 11
13.0286867707
 21
2.50359263
  0
LINE
  5
37F
100
AcDbEntity
  8
0
100
AcDbLine
 62
2
  6
CONTINUOUS
 10
13.0286867707
 20
2.5856929366
 11
13.0286867707
 21
2.7181442672
  0
LINE
  5
380
100
AcDbEntity
  8
0
100
AcDbLine
 62
2
  6
CONTINUOUS
 10
13.0086867596
 20
2.3620816246
 11
13.0086867596
 21
2.5226754472
  0
LINE
  5
381
100
AcDbEntity
  8
0
100
AcDbLine
 62
2
  6
CONTINUOUS
 10
13.0086867596
 20
2.5920323691
 11
13.0086867596
 21
2.7186750564
  0
LINE
  5
382
100
AcDbEntity
  8
0
100
AcDbLine
 62
2
  6
CONTINUOUS
 10
12.9886867486
 20
2.3615508354
 11
12.9886867486
 21
2.4912273132
  0
LINE
  5
383
100
AcDbEntity
  8
0
100
AcDbLine
 62
2
  6
CONTINUOUS
 10
12.9886867486
 20
2.515977327
 11
12.9886867486
 21
2.5417582644
  0
LINE
  5
384
100
AcDbEntity
  8
0
100
AcDbLine
 62
2
  6
CONTINUOUS
 10
12.9886867486
 20
2.5920323691
 11
12.9886867486
 21
2.7192058456
  0
LINE
  5
385
100
AcDbEntity
  8
0
100
AcDbLine
 62
2
  6
CONTINUOUS
 10
12.9686867375
 20
2.3610200462
 11
12.9686867375
 21
2.4912273132
  0
LINE
  5
386
100
AcDbEntity
  8
0
100
AcDbLine
 62
2
  6
CONTINUOUS
 10
12.9686867375
 20
2.5920323691
 11
12.9686867375
 21
2.7197366348
  0
LINE
  5
387
100
AcDbEntity
  8
0
100
AcDbLine
 62
2
  6
CONTINUOUS
 10
12.9486867264
 20
2.360489257
 11
12.9486867264
 21
2.4912273132
  0
LINE
  5
388
100
AcDbEntity
  8
0
100
AcDbLine
 62
2
  6
CONTINUOUS
 10
12.9486867264
 20
2.5920323691
 11
12.9486867264
 21
2.720267424
  0
LINE
  5
389
100
AcDbEntity
  8
0
100
AcDbLine
 62
2
  6
CONTINUOUS
 10
12.9286867153
 20
2.3602836008
 11
12.9286867153
 21
2.4912273132
  0
LINE
  5
38A
100
AcDbEntity
  8
0
100
AcDbLine
 62
2
  6
CONTINUOUS
 10
12.9286867153
 20
2.515977327
 11
12.9286867153
 21
2.5672823554
  0
LINE
  5
38B
100
AcDbEntity
  8
0
100
AcDbLine
 62
2
  6
CONTINUOUS
 10
12.9286867153
 20
2.5920323691
 11
12.9286867153
 21
2.7204730802
  0
LINE
  5
38C
100
AcDbEntity
  8
0
100
AcDbLine
 62
2
  6
CONTINUOUS
 10
12.9086867042
 20
2.3604597639
 11
12.9086867042
 21
2.7202969171
  0
LINE
  5
38D
100
AcDbEntity
  8
0
100
AcDbLine
 62
2
  6
CONTINUOUS
 10
12.8886866931
 20
2.360635927
 11
12.8886866931
 21
2.5672823554
  0
LINE
  5
38E
100
AcDbEntity
  8
0
100
AcDbLine
 62
2
  6
CONTINUOUS
 10
12.8886866931
 20
2.5920323691
 11
12.8886866931
 21
2.720120754
  0
LINE
  5
38F
100
AcDbEntity
  8
0
100
AcDbLine
 62
2
  6
CONTINUOUS
 10
12.868686682
 20
2.3608120901
 11
12.868686682
 21
2.491232357
  0
LINE
  5
390
100
AcDbEntity
  8
0
100
AcDbLine
 62
2
  6
CONTINUOUS
 10
12.868686682
 20
2.5920323691
 11
12.868686682
 21
2.7199445909
  0
LINE
  5
391
100
AcDbEntity
  8
0
100
AcDbLine
 62
2
  6
CONTINUOUS
 10
12.8486866709
 20
2.3609882532
 11
12.8486866709
 21
2.4912273132
  0
LINE
  5
392
100
AcDbEntity
  8
0
100
AcDbLine
 62
2
  6
CONTINUOUS
 10
12.8486866709
 20
2.5920323691
 11
12.8486866709
 21
2.7197684278
  0
LINE
  5
393
100
AcDbEntity
  8
0
100
AcDbLine
 62
2
  6
CONTINUOUS
 10
12.8286866598
 20
2.3611644163
 11
12.8286866598
 21
2.4912273132
  0
LINE
  5
394
100
AcDbEntity
  8
0
100
AcDbLine
 62
2
  6
CONTINUOUS
 10
12.8286866598
 20
2.5396527025
 11
12.8286866598
 21
2.5672823554
  0
LINE
  5
395
100
AcDbEntity
  8
0
100
AcDbLine
 62
2
  6
CONTINUOUS
 10
12.8286866598
 20
2.5920323691
 11
12.8286866598
 21
2.7195922647
  0
LINE
  5
396
100
AcDbEntity
  8
0
100
AcDbLine
 62
2
  6
CONTINUOUS
 10
12.8086866487
 20
2.3613405794
 11
12.8086866487
 21
2.4912273132
  0
LINE
  5
397
100
AcDbEntity
  8
0
100
AcDbLine
 62
2
  6
CONTINUOUS
 10
12.8086866487
 20
2.5587355508
 11
12.8086866487
 21
2.7194161016
  0
LINE
  5
398
100
AcDbEntity
  8
0
100
AcDbLine
 62
2
  6
CONTINUOUS
 10
12.7886866376
 20
2.3621089572
 11
12.7886866376
 21
2.4957181055
  0
LINE
  5
399
100
AcDbEntity
  8
0
100
AcDbLine
 62
2
  6
CONTINUOUS
 10
12.7886866376
 20
2.5778183992
 11
12.7886866376
 21
2.7186477238
  0
LINE
  5
39A
100
AcDbEntity
  8
0
100
AcDbLine
 62
2
  6
CONTINUOUS
 10
12.7686866266
 20
2.3630013935
 11
12.7686866266
 21
2.5148009227
  0
LINE
  5
39B
100
AcDbEntity
  8
0
100
AcDbLine
 62
2
  6
CONTINUOUS
 10
12.7686866266
 20
2.5920323691
 11
12.7686866266
 21
2.7177552874
  0
LINE
  5
39C
100
AcDbEntity
  8
0
100
AcDbLine
 62
2
  6
CONTINUOUS
 10
12.7486866155
 20
2.3638938299
 11
12.7486866155
 21
2.4913263218
  0
LINE
  5
39D
100
AcDbEntity
  8
0
100
AcDbLine
 62
2
  6
CONTINUOUS
 10
12.7486866155
 20
2.5158783184
 11
12.7486866155
 21
2.5338837399
  0
LINE
  5
39E
100
AcDbEntity
  8
0
100
AcDbLine
 62
2
  6
CONTINUOUS
 10
12.7486866155
 20
2.5920323691
 11
12.7486866155
 21
2.7168628511
  0
LINE
  5
39F
100
AcDbEntity
  8
0
100
AcDbLine
 62
2
  6
CONTINUOUS
 10
12.7286866044
 20
2.3647862663
 11
12.7286866044
 21
2.4912273132
  0
LINE
  5
3A0
100
AcDbEntity
  8
0
100
AcDbLine
 62
2
  6
CONTINUOUS
 10
12.7286866044
 20
2.515977327
 11
12.7286866044
 21
2.5527601554
  0
LINE
  5
3A1
100
AcDbEntity
  8
0
100
AcDbLine
 62
2
  6
CONTINUOUS
 10
12.7286866044
 20
2.5920323691
 11
12.7286866044
 21
2.7159704147
  0
LINE
  5
3A2
100
AcDbEntity
  8
0
100
AcDbLine
 62
2
  6
CONTINUOUS
 10
12.7086865933
 20
2.3656787026
 11
12.7086865933
 21
2.4912273132
  0
LINE
  5
3A3
100
AcDbEntity
  8
0
100
AcDbLine
 62
2
  6
CONTINUOUS
 10
12.7086865933
 20
2.5920323691
 11
12.7086865933
 21
2.7150779784
  0
LINE
  5
3A4
100
AcDbEntity
  8
0
100
AcDbLine
 62
2
  6
CONTINUOUS
 10
12.6886865822
 20
2.366571139
 11
12.6886865822
 21
2.4912273132
  0
LINE
  5
3A5
100
AcDbEntity
  8
0
100
AcDbLine
 62
2
  6
CONTINUOUS
 10
12.6886865822
 20
2.515977327
 11
12.6886865822
 21
2.5672823554
  0
LINE
  5
3A6
100
AcDbEntity
  8
0
100
AcDbLine
 62
2
  6
CONTINUOUS
 10
12.6886865822
 20
2.5920323691
 11
12.6886865822
 21
2.714185542
  0
LINE
  5
3A7
100
AcDbEntity
  8
0
100
AcDbLine
 62
2
  6
CONTINUOUS
 10
12.6686865711
 20
2.3677104027
 11
12.6686865711
 21
2.7130462783
  0
LINE
  5
3A8
100
AcDbEntity
  8
0
100
AcDbLine
 62
2
  6
CONTINUOUS
 10
12.64868656
 20
2.3693682721
 11
12.64868656
 21
2.7113884089
  0
LINE
  5
3A9
100
AcDbEntity
  8
0
100
AcDbLine
 62
2
  6
CONTINUOUS
 10
12.6286865489
 20
2.3710261415
 11
12.6286865489
 21
2.4912273132
  0
LINE
  5
3AA
100
AcDbEntity
  8
0
100
AcDbLine
 62
2
  6
CONTINUOUS
 10
12.6286865489
 20
2.515977327
 11
12.6286865489
 21
2.7097305395
  0
LINE
  5
3AB
100
AcDbEntity
  8
0
100
AcDbLine
 62
2
  6
CONTINUOUS
 10
12.6086865378
 20
2.372684011
 11
12.6086865378
 21
2.4912273132
  0
LINE
  5
3AC
100
AcDbEntity
  8
0
100
AcDbLine
 62
2
  6
CONTINUOUS
 10
12.6086865378
 20
2.5351122279
 11
12.6086865378
 21
2.70807267
  0
LINE
  5
3AD
100
AcDbEntity
  8
0
100
AcDbLine
 62
2
  6
CONTINUOUS
 10
12.5886865267
 20
2.3743418804
 11
12.5886865267
 21
2.4912273132
  0
LINE
  5
3AE
100
AcDbEntity
  8
0
100
AcDbLine
 62
2
  6
CONTINUOUS
 10
12.5886865267
 20
2.5660172622
 11
12.5886865267
 21
2.7064148006
  0
LINE
  5
3AF
100
AcDbEntity
  8
0
100
AcDbLine
 62
2
  6
CONTINUOUS
 10
12.5686865156
 20
2.3759997498
 11
12.5686865156
 21
2.4912273132
  0
LINE
  5
3B0
100
AcDbEntity
  8
0
100
AcDbLine
 62
2
  6
CONTINUOUS
 10
12.5686865156
 20
2.5920323691
 11
12.5686865156
 21
2.7047569312
  0
LINE
  5
3B1
100
AcDbEntity
  8
0
100
AcDbLine
 62
2
  6
CONTINUOUS
 10
12.5486865045
 20
2.3777575277
 11
12.5486865045
 21
2.4912273132
  0
LINE
  5
3B2
100
AcDbEntity
  8
0
100
AcDbLine
 62
2
  6
CONTINUOUS
 10
12.5486865045
 20
2.515977327
 11
12.5486865045
 21
2.5275118824
  0
LINE
  5
3B3
100
AcDbEntity
  8
0
100
AcDbLine
 62
2
  6
CONTINUOUS
 10
12.5486865045
 20
2.5920323691
 11
12.5486865045
 21
2.7029991533
  0
LINE
  5
3B4
100
AcDbEntity
  8
0
100
AcDbLine
 62
2
  6
CONTINUOUS
 10
12.5286864935
 20
2.3802813811
 11
12.5286864935
 21
2.5296213345
  0
LINE
  5
3B5
100
AcDbEntity
  8
0
100
AcDbLine
 62
2
  6
CONTINUOUS
 10
12.5286864935
 20
2.5505713461
 11
12.5286864935
 21
2.5667383551
  0
LINE
  5
3B6
100
AcDbEntity
  8
0
100
AcDbLine
 62
2
  6
CONTINUOUS
 10
12.5286864935
 20
2.5920323691
 11
12.5286864935
 21
2.7004752999
  0
LINE
  5
3B7
100
AcDbEntity
  8
0
100
AcDbLine
 62
2
  6
CONTINUOUS
 10
12.5086864824
 20
2.3828052346
 11
12.5086864824
 21
2.4912273132
  0
LINE
  5
3B8
100
AcDbEntity
  8
0
100
AcDbLine
 62
2
  6
CONTINUOUS
 10
12.5086864824
 20
2.515977327
 11
12.5086864824
 21
2.5279667721
  0
LINE
  5
3B9
100
AcDbEntity
  8
0
100
AcDbLine
 62
2
  6
CONTINUOUS
 10
12.5086864824
 20
2.5868602074
 11
12.5086864824
 21
2.6979514464
  0
LINE
  5
3BA
100
AcDbEntity
  8
0
100
AcDbLine
 62
2
  6
CONTINUOUS
 10
12.4886864713
 20
2.385329088
 11
12.4886864713
 21
2.4912273132
  0
LINE
  5
3BB
100
AcDbEntity
  8
0
100
AcDbLine
 62
2
  6
CONTINUOUS
 10
12.4886864713
 20
2.5553401045
 11
12.4886864713
 21
2.695427593
  0
LINE
  5
3BC
100
AcDbEntity
  8
0
100
AcDbLine
 62
2
  6
CONTINUOUS
 10
12.4686864602
 20
2.3878529415
 11
12.4686864602
 21
2.4912273132
  0
LINE
  5
3BD
100
AcDbEntity
  8
0
100
AcDbLine
 62
2
  6
CONTINUOUS
 10
12.4686864602
 20
2.5238200015
 11
12.4686864602
 21
2.6929037395
  0
LINE
  5
3BE
100
AcDbEntity
  8
0
100
AcDbLine
 62
2
  6
CONTINUOUS
 10
12.4486864491
 20
2.390376795
 11
12.4486864491
 21
2.4912273132
  0
LINE
  5
3BF
100
AcDbEntity
  8
0
100
AcDbLine
 62
2
  6
CONTINUOUS
 10
12.4486864491
 20
2.515977327
 11
12.4486864491
 21
2.690379886
  0
LINE
  5
3C0
100
AcDbEntity
  8
0
100
AcDbLine
 62
2
  6
CONTINUOUS
 10
12.428686438
 20
2.3931794042
 11
12.428686438
 21
2.6875772768
  0
LINE
  5
3C1
100
AcDbEntity
  8
0
100
AcDbLine
 62
2
  6
CONTINUOUS
 10
12.4086864269
 20
2.3964643301
 11
12.4086864269
 21
2.5013773986
  0
LINE
  5
3C2
100
AcDbEntity
  8
0
100
AcDbLine
 62
2
  6
CONTINUOUS
 10
12.4086864269
 20
2.5325739971
 11
12.4086864269
 21
2.5537224311
  0
LINE
  5
3C3
100
AcDbEntity
  8
0
100
AcDbLine
 62
2
  6
CONTINUOUS
 10
12.4086864269
 20
2.5791473398
 11
12.4086864269
 21
2.6842923509
  0
LINE
  5
3C4
100
AcDbEntity
  8
0
100
AcDbLine
 62
2
  6
CONTINUOUS
 10
12.3886864158
 20
2.399749256
 11
12.3886864158
 21
2.4921022658
  0
LINE
  5
3C5
100
AcDbEntity
  8
0
100
AcDbLine
 62
2
  6
CONTINUOUS
 10
12.3886864158
 20
2.5895929958
 11
12.3886864158
 21
2.681007425
  0
LINE
  5
3C6
100
AcDbEntity
  8
0
100
AcDbLine
 62
2
  6
CONTINUOUS
 10
12.3686864047
 20
2.403451877
 11
12.3686864047
 21
2.4912273132
  0
LINE
  5
3C7
100
AcDbEntity
  8
0
100
AcDbLine
 62
2
  6
CONTINUOUS
 10
12.3686864047
 20
2.5920323691
 11
12.3686864047
 21
2.677304804
  0
LINE
  5
3C8
100
AcDbEntity
  8
0
100
AcDbLine
 62
2
  6
CONTINUOUS
 10
12.3486863936
 20
2.407324637
 11
12.3486863936
 21
2.4912273132
  0
LINE
  5
3C9
100
AcDbEntity
  8
0
100
AcDbLine
 62
2
  6
CONTINUOUS
 10
12.3486863936
 20
2.5920323691
 11
12.3486863936
 21
2.673432044
  0
LINE
  5
3CA
100
AcDbEntity
  8
0
100
AcDbLine
 62
2
  6
CONTINUOUS
 10
12.3286863825
 20
2.4113493968
 11
12.3286863825
 21
2.4912273132
  0
LINE
  5
3CB
100
AcDbEntity
  8
0
100
AcDbLine
 62
2
  6
CONTINUOUS
 10
12.3286863825
 20
2.515977327
 11
12.3286863825
 21
2.5333023366
  0
LINE
  5
3CC
100
AcDbEntity
  8
0
100
AcDbLine
 62
2
  6
CONTINUOUS
 10
12.3286863825
 20
2.5499573458
 11
12.3286863825
 21
2.5672823554
  0
LINE
  5
3CD
100
AcDbEntity
  8
0
100
AcDbLine
 62
2
  6
CONTINUOUS
 10
12.3286863825
 20
2.5920323691
 11
12.3286863825
 21
2.6694072842
  0
LINE
  5
3CE
100
AcDbEntity
  8
0
100
AcDbLine
 62
2
  6
CONTINUOUS
 10
12.3086863715
 20
2.4159005505
 11
12.3086863715
 21
2.4912273132
  0
LINE
  5
3CF
100
AcDbEntity
  8
0
100
AcDbLine
 62
2
  6
CONTINUOUS
 10
12.3086863715
 20
2.515977327
 11
12.3086863715
 21
2.5333023366
  0
LINE
  5
3D0
100
AcDbEntity
  8
0
100
AcDbLine
 62
2
  6
CONTINUOUS
 10
12.3086863715
 20
2.5499573458
 11
12.3086863715
 21
2.5672823554
  0
LINE
  5
3D1
100
AcDbEntity
  8
0
100
AcDbLine
 62
2
  6
CONTINUOUS
 10
12.3086863715
 20
2.5920323691
 11
12.3086863715
 21
2.6648561305
  0
LINE
  5
3D2
100
AcDbEntity
  8
0
100
AcDbLine
 62
2
  6
CONTINUOUS
 10
12.2886863604
 20
2.4204517041
 11
12.2886863604
 21
2.4912273132
  0
LINE
  5
3D3
100
AcDbEntity
  8
0
100
AcDbLine
 62
2
  6
CONTINUOUS
 10
12.2886863604
 20
2.5920323691
 11
12.2886863604
 21
2.6603049769
  0
LINE
  5
3D4
100
AcDbEntity
  8
0
100
AcDbLine
 62
2
  6
CONTINUOUS
 10
12.2686863493
 20
2.4257438218
 11
12.2686863493
 21
2.4912273132
  0
LINE
  5
3D5
100
AcDbEntity
  8
0
100
AcDbLine
 62
2
  6
CONTINUOUS
 10
12.2686863493
 20
2.5920323691
 11
12.2686863493
 21
2.6550128592
  0
LINE
  5
3D6
100
AcDbEntity
  8
0
100
AcDbLine
 62
2
  6
CONTINUOUS
 10
12.2486863382
 20
2.4310978667
 11
12.2486863382
 21
2.4912273132
  0
LINE
  5
3D7
100
AcDbEntity
  8
0
100
AcDbLine
 62
2
  6
CONTINUOUS
 10
12.2486863382
 20
2.5920323691
 11
12.2486863382
 21
2.6496588142
  0
LINE
  5
3D8
100
AcDbEntity
  8
0
100
AcDbLine
 62
2
  6
CONTINUOUS
 10
12.2286863271
 20
2.4372566433
 11
12.2286863271
 21
2.4912273132
  0
LINE
  5
3D9
100
AcDbEntity
  8
0
100
AcDbLine
 62
2
  6
CONTINUOUS
 10
12.2286863271
 20
2.515977327
 11
12.2286863271
 21
2.5672823554
  0
LINE
  5
3DA
100
AcDbEntity
  8
0
100
AcDbLine
 62
2
  6
CONTINUOUS
 10
12.2286863271
 20
2.5920323691
 11
12.2286863271
 21
2.6435000377
  0
LINE
  5
3DB
100
AcDbEntity
  8
0
100
AcDbLine
 62
2
  6
CONTINUOUS
 10
12.208686316
 20
2.443589771
 11
12.208686316
 21
2.4912273132
  0
LINE
  5
3DC
100
AcDbEntity
  8
0
100
AcDbLine
 62
2
  6
CONTINUOUS
 10
12.208686316
 20
2.515977327
 11
12.208686316
 21
2.5672823554
  0
LINE
  5
3DD
100
AcDbEntity
  8
0
100
AcDbLine
 62
2
  6
CONTINUOUS
 10
12.208686316
 20
2.5920323691
 11
12.208686316
 21
2.63716691
  0
LINE
  5
3DE
100
AcDbEntity
  8
0
100
AcDbLine
 62
2
  6
CONTINUOUS
 10
12.1886863049
 20
2.4510806436
 11
12.1886863049
 21
2.6296760373
  0
LINE
  5
3DF
100
AcDbEntity
  8
0
100
AcDbLine
 62
2
  6
CONTINUOUS
 10
12.1686862938
 20
2.4591016523
 11
12.1686862938
 21
2.6216550287
  0
LINE
  5
3E0
100
AcDbEntity
  8
0
100
AcDbLine
 62
2
  6
CONTINUOUS
 10
12.1486862827
 20
2.468314272
 11
12.1486862827
 21
2.612442409
  0
LINE
  5
3E1
100
AcDbEntity
  8
0
100
AcDbLine
 62
2
  6
CONTINUOUS
 10
12.1286862716
 20
2.4794932339
 11
12.1286862716
 21
2.601263447
  0
LINE
  5
3E2
100
AcDbEntity
  8
0
100
AcDbLine
 62
2
  6
CONTINUOUS
 10
12.1086862605
 20
2.4934150665
 11
12.1086862605
 21
2.5873416144
  0
LINE
  5
3E3
100
AcDbEntity
  8
0
100
AcDbLine
 62
2
  6
CONTINUOUS
 10
12.0886862494
 20
2.5144449553
 11
12.0886862494
 21
2.5663117257
  0
ENDBLK
  5
3E4
100
AcDbEntity
  8
0
  6
BYBLOCK
 62
0
100
AcDbBlockEnd
  0
BLOCK
  5
3E5
100
AcDbEntity
  8
DRIVEN_DIMS
100
AcDbBlockBegin
 62
2
  6
CONTINUOUS
  2
*D0
 70
65
 10
0.0
 20
0.0
  3
*D0
  1

  0
TEXT
  5
3E6
100
AcDbEntity
  8
DRIVEN_DIMS
100
AcDbText
 62
2
  6
CONTINUOUS
 10
9.6111330872
 20
7.4844039472
  7
STANDARD
 40
0.1
  1
R
 41
1.0
 72
0
100
AcDbText
  0
TEXT
  5
3E7
100
AcDbEntity
  8
DRIVEN_DIMS
100
AcDbText
 62
2
  6
CONTINUOUS
 10
9.7111330872
 20
7.4844039472
  7
STANDARD
 40
0.1
  1
12,5
 41
1.0
 72
0
100
AcDbText
  0
TEXT
  5
3E8
100
AcDbEntity
  8
DRIVEN_DIMS
100
AcDbText
 62
2
  6
CONTINUOUS
 10
9.8111330872
 20
7.3344039472
  7
STANDARD
 40
0.1
  1
.49
 41
1.0
 72
0
100
AcDbText
  0
TEXT
  5
3E9
100
AcDbEntity
  8
DRIVEN_DIMS
100
AcDbText
 62
2
  6
CONTINUOUS
 10
9.7111330872
 20
7.3344039472
  7
STANDARD
 40
0.1
  1
[
 41
1.0
 72
0
100
AcDbText
  0
TEXT
  5
3EA
100
AcDbEntity
  8
DRIVEN_DIMS
100
AcDbText
 62
2
  6
CONTINUOUS
 10
10.1111330872
 20
7.3344039472
  7
STANDARD
 40
0.1
  1
]
 41
1.0
 72
0
100
AcDbText
  0
LINE
  5
3EB
100
AcDbEntity
  8
DRIVEN_DIMS
100
AcDbLine
 62
2
  6
CONTINUOUS
 10
8.4302621089
 20
7.8716081989
 11
9.3611330872
 21
7.5344039472
  0
LINE
  5
3EC
100
AcDbEntity
  8
DRIVEN_DIMS
100
AcDbLine
 62
2
  6
CONTINUOUS
 10
9.3611330872
 20
7.5344039472
 11
9.5111330872
 21
7.5344039472
  0
INSERT
  5
3ED
100
AcDbEntity
  8
DRIVEN_DIMS
100
AcDbBlockReference
 62
2
  6
CONTINUOUS
  2
_FILLED
 10
8.4302621089
 20
7.8716081989
 41
0.1875
 42
0.1875
 43
0.1875
 50
160.0872852524
  0
ENDBLK
  5
3EE
100
AcDbEntity
  8
0
  6
BYBLOCK
 62
0
100
AcDbBlockEnd
  0
BLOCK
  5
3EF
100
AcDbEntity
  8
SCHEME_DIMS
100
AcDbBlockBegin
 62
2
  6
CONTINUOUS
  2
*D1
 70
65
 10
0.0
 20
0.0
  3
*D1
  1

  0
TEXT
  5
3F0
100
AcDbEntity
  8
SCHEME_DIMS
100
AcDbText
 62
2
  6
CONTINUOUS
 10
4.5462885594
 20
4.5060454517
  7
STANDARD
 40
0.1
  1
85
 41
1.0
 72
0
100
AcDbText
  0
TEXT
  5
3F1
100
AcDbEntity
  8
SCHEME_DIMS
100
AcDbText
 62
2
  6
CONTINUOUS
 10
4.6462885594
 20
4.3560454517
  7
STANDARD
 40
0.1
  1
3.35
 41
1.0
 72
0
100
AcDbText
  0
TEXT
  5
3F2
100
AcDbEntity
  8
SCHEME_DIMS
100
AcDbText
 62
2
  6
CONTINUOUS
 10
4.5462885594
 20
4.3560454517
  7
STANDARD
 40
0.1
  1
[
 41
1.0
 72
0
100
AcDbText
  0
TEXT
  5
3F3
100
AcDbEntity
  8
SCHEME_DIMS
100
AcDbText
 62
2
  6
CONTINUOUS
 10
5.0462885594
 20
4.3560454517
  7
STANDARD
 40
0.1
  1
]
 41
1.0
 72
0
100
AcDbText
  0
LINE
  5
3F4
100
AcDbEntity
  8
SCHEME_DIMS
100
AcDbLine
 62
2
  6
CONTINUOUS
 10
4.4087885594
 20
2.8078079562
 11
4.9712885594
 21
2.8078079562
  0
LINE
  5
3F5
100
AcDbEntity
  8
SCHEME_DIMS
100
AcDbLine
 62
2
  6
CONTINUOUS
 10
2.6213686864
 20
6.1542829473
 11
4.2804395379
 21
6.1542829473
  0
LINE
  5
3F6
100
AcDbEntity
  8
SCHEME_DIMS
100
AcDbLine
 62
2
  6
CONTINUOUS
 10
4.393731759
 20
6.1542829473
 11
4.9712885594
 21
6.1542829473
  0
LINE
  5
3F7
100
AcDbEntity
  8
SCHEME_DIMS
100
AcDbLine
 62
2
  6
CONTINUOUS
 10
4.8462885594
 20
2.8078079562
 11
4.8462885594
 21
4.2560454517
  0
LINE
  5
3F8
100
AcDbEntity
  8
SCHEME_DIMS
100
AcDbLine
 62
2
  6
CONTINUOUS
 10
4.8462885594
 20
6.1542829473
 11
4.8462885594
 21
4.7060454517
  0
INSERT
  5
3F9
100
AcDbEntity
  8
SCHEME_DIMS
100
AcDbBlockReference
 62
2
  6
CONTINUOUS
  2
_FILLED
 10
4.8462885594
 20
2.8078079562
 41
0.1875
 42
0.1875
 43
0.1875
 50
270.0
  0
INSERT
  5
3FA
100
AcDbEntity
  8
SCHEME_DIMS
100
AcDbBlockReference
 62
2
  6
CONTINUOUS
  2
_FILLED
 10
4.8462885594
 20
6.1542829473
 41
0.1875
 42
0.1875
 43
0.1875
 50
90.0
  0
ENDBLK
  5
3FB
100
AcDbEntity
  8
0
  6
BYBLOCK
 62
0
100
AcDbBlockEnd
  0
BLOCK
  5
3FC
100
AcDbEntity
  8
SCHEME_DIMS
100
AcDbBlockBegin
 62
2
  6
CONTINUOUS
  2
*D2
 70
65
 10
0.0
 20
0.0
  3
*D2
  1

  0
TEXT
  5
3FD
100
AcDbEntity
  8
SCHEME_DIMS
100
AcDbText
 62
2
  6
CONTINUOUS
 10
3.1013975205
 20
6.6042829473
  7
STANDARD
 40
0.1
  1
48
 41
1.0
 72
0
100
AcDbText
  0
TEXT
  5
3FE
100
AcDbEntity
  8
SCHEME_DIMS
100
AcDbText
 62
2
  6
CONTINUOUS
 10
3.2013975205
 20
6.4542829473
  7
STANDARD
 40
0.1
  1
1.89
 41
1.0
 72
0
100
AcDbText
  0
TEXT
  5
3FF
100
AcDbEntity
  8
SCHEME_DIMS
100
AcDbText
 62
2
  6
CONTINUOUS
 10
3.1013975205
 20
6.4542829473
  7
STANDARD
 40
0.1
  1
[
 41
1.0
 72
0
100
AcDbText
  0
TEXT
  5
400
100
AcDbEntity
  8
SCHEME_DIMS
100
AcDbText
 62
2
  6
CONTINUOUS
 10
3.6013975205
 20
6.4542829473
  7
STANDARD
 40
0.1
  1
]
 41
1.0
 72
0
100
AcDbText
  0
LINE
  5
401
100
AcDbEntity
  8
SCHEME_DIMS
100
AcDbLine
 62
2
  6
CONTINUOUS
 10
4.3462885594
 20
2.9726701609
 11
4.3462885594
 21
6.7792829473
  0
LINE
  5
402
100
AcDbEntity
  8
SCHEME_DIMS
100
AcDbLine
 62
2
  6
CONTINUOUS
 10
2.4565064816
 20
6.2167829473
 11
2.4565064816
 21
6.7792829473
  0
LINE
  5
403
100
AcDbEntity
  8
SCHEME_DIMS
100
AcDbLine
 62
2
  6
CONTINUOUS
 10
4.3462885594
 20
6.6542829473
 11
3.8013975205
 21
6.6542829473
  0
LINE
  5
404
100
AcDbEntity
  8
SCHEME_DIMS
100
AcDbLine
 62
2
  6
CONTINUOUS
 10
2.4565064816
 20
6.6542829473
 11
3.0013975205
 21
6.6542829473
  0
INSERT
  5
405
100
AcDbEntity
  8
SCHEME_DIMS
100
AcDbBlockReference
 62
2
  6
CONTINUOUS
  2
_FILLED
 10
4.3462885594
 20
6.6542829473
 41
0.1875
 42
0.1875
 43
0.1875
  0
INSERT
  5
406
100
AcDbEntity
  8
SCHEME_DIMS
100
AcDbBlockReference
 62
2
  6
CONTINUOUS
  2
_FILLED
 10
2.4565064816
 20
6.6542829473
 41
0.1875
 42
0.1875
 43
0.1875
 50
180.0
  0
ENDBLK
  5
407
100
AcDbEntity
  8
0
  6
BYBLOCK
 62
0
100
AcDbBlockEnd
  0
BLOCK
  5
408
100
AcDbEntity
  8
SCHEME_DIMS
100
AcDbBlockBegin
 62
2
  6
CONTINUOUS
  2
*D3
 70
65
 10
0.0
 20
0.0
  3
*D3
  1

  0
TEXT
  5
409
100
AcDbEntity
  8
SCHEME_DIMS
100
AcDbText
 62
2
  6
CONTINUOUS
 10
7.6675590731
 20
2.2578079562
  7
STANDARD
 40
0.1
  1
72
 41
1.0
 72
0
100
AcDbText
  0
TEXT
  5
40A
100
AcDbEntity
  8
SCHEME_DIMS
100
AcDbText
 62
2
  6
CONTINUOUS
 10
7.7675590731
 20
2.1078079562
  7
STANDARD
 40
0.1
  1
2.83
 41
1.0
 72
0
100
AcDbText
  0
TEXT
  5
40B
100
AcDbEntity
  8
SCHEME_DIMS
100
AcDbText
 62
2
  6
CONTINUOUS
 10
7.6675590731
 20
2.1078079562
  7
STANDARD
 40
0.1
  1
[
 41
1.0
 72
0
100
AcDbText
  0
TEXT
  5
40C
100
AcDbEntity
  8
SCHEME_DIMS
100
AcDbText
 62
2
  6
CONTINUOUS
 10
8.1675590731
 20
2.1078079562
  7
STANDARD
 40
0.1
  1
]
 41
1.0
 72
0
100
AcDbText
  0
LINE
  5
40D
100
AcDbEntity
  8
SCHEME_DIMS
100
AcDbLine
 62
2
  6
CONTINUOUS
 10
6.5502362384
 20
2.8862371683
 11
6.5502362384
 21
2.1828079562
  0
LINE
  5
40E
100
AcDbEntity
  8
SCHEME_DIMS
100
AcDbLine
 62
2
  6
CONTINUOUS
 10
9.3848819077
 20
2.8761897193
 11
9.3848819077
 21
2.1828079562
  0
LINE
  5
40F
100
AcDbEntity
  8
SCHEME_DIMS
100
AcDbLine
 62
2
  6
CONTINUOUS
 10
6.5502362384
 20
2.3078079562
 11
7.5675590731
 21
2.3078079562
  0
LINE
  5
410
100
AcDbEntity
  8
SCHEME_DIMS
100
AcDbLine
 62
2
  6
CONTINUOUS
 10
9.3848819077
 20
2.3078079562
 11
8.3675590731
 21
2.3078079562
  0
INSERT
  5
411
100
AcDbEntity
  8
SCHEME_DIMS
100
AcDbBlockReference
 62
2
  6
CONTINUOUS
  2
_FILLED
 10
6.5502362384
 20
2.3078079562
 41
0.1875
 42
0.1875
 43
0.1875
 50
180.0
  0
INSERT
  5
412
100
AcDbEntity
  8
SCHEME_DIMS
100
AcDbBlockReference
 62
2
  6
CONTINUOUS
  2
_FILLED
 10
9.3848819077
 20
2.3078079562
 41
0.1875
 42
0.1875
 43
0.1875
  0
ENDBLK
  5
413
100
AcDbEntity
  8
0
  6
BYBLOCK
 62
0
100
AcDbBlockEnd
  0
BLOCK
  5
414
100
AcDbEntity
  8
SCHEME_DIMS
100
AcDbBlockBegin
 62
2
  6
CONTINUOUS
  2
*D4
 70
65
 10
0.0
 20
0.0
  3
*D4
  1

  0
TEXT
  5
415
100
AcDbEntity
  8
SCHEME_DIMS
100
AcDbText
 62
2
  6
CONTINUOUS
 10
6.7429717556
 20
6.603393733
  7
STANDARD
 40
0.1
  1
15,2
 41
1.0
 72
0
100
AcDbText
  0
TEXT
  5
416
100
AcDbEntity
  8
SCHEME_DIMS
100
AcDbText
 62
2
  6
CONTINUOUS
 10
6.8429717556
 20
6.453393733
  7
STANDARD
 40
0.1
  1
.60
 41
1.0
 72
0
100
AcDbText
  0
TEXT
  5
417
100
AcDbEntity
  8
SCHEME_DIMS
100
AcDbText
 62
2
  6
CONTINUOUS
 10
6.7429717556
 20
6.453393733
  7
STANDARD
 40
0.1
  1
[
 41
1.0
 72
0
100
AcDbText
  0
TEXT
  5
418
100
AcDbEntity
  8
SCHEME_DIMS
100
AcDbText
 62
2
  6
CONTINUOUS
 10
7.1429717556
 20
6.453393733
  7
STANDARD
 40
0.1
  1
]
 41
1.0
 72
0
100
AcDbText
  0
LINE
  5
419
100
AcDbEntity
  8
SCHEME_DIMS
100
AcDbLine
 62
2
  6
CONTINUOUS
 10
7.6679717556
 20
7.3484954356
 11
7.6679717556
 21
6.528393733
  0
LINE
  5
41A
100
AcDbEntity
  8
SCHEME_DIMS
100
AcDbLine
 62
2
  6
CONTINUOUS
 10
8.2671463905
 20
7.3484954356
 11
8.2671463905
 21
6.528393733
  0
LINE
  5
41B
100
AcDbEntity
  8
SCHEME_DIMS
100
AcDbLine
 62
2
  6
CONTINUOUS
 10
7.6679717556
 20
6.653393733
 11
7.9675590731
 21
6.653393733
  0
LINE
  5
41C
100
AcDbEntity
  8
SCHEME_DIMS
100
AcDbLine
 62
2
  6
CONTINUOUS
 10
7.9675590731
 20
6.653393733
 11
7.3429717556
 21
6.653393733
  0
LINE
  5
41D
100
AcDbEntity
  8
SCHEME_DIMS
100
AcDbLine
 62
2
  6
CONTINUOUS
 10
8.2671463905
 20
6.653393733
 11
7.9675590731
 21
6.653393733
  0
INSERT
  5
41E
100
AcDbEntity
  8
SCHEME_DIMS
100
AcDbBlockReference
 62
2
  6
CONTINUOUS
  2
_FILLED
 10
7.6679717556
 20
6.653393733
 41
0.1875
 42
0.1875
 43
0.1875
 50
180.0
  0
INSERT
  5
41F
100
AcDbEntity
  8
SCHEME_DIMS
100
AcDbBlockReference
 62
2
  6
CONTINUOUS
  2
_FILLED
 10
8.2671463905
 20
6.653393733
 41
0.1875
 42
0.1875
 43
0.1875
  0
ENDBLK
  5
420
100
AcDbEntity
  8
0
  6
BYBLOCK
 62
0
100
AcDbBlockEnd
  0
BLOCK
  5
421
100
AcDbEntity
  8
SCHEME_DIMS
100
AcDbBlockBegin
 62
2
  6
CONTINUOUS
  2
*D5
 70
65
 10
0.0
 20
0.0
  3
*D5
  1

  0
TEXT
  5
422
100
AcDbEntity
  8
SCHEME_DIMS
100
AcDbText
 62
2
  6
CONTINUOUS
 10
5.8002362384
 20
7.6213071188
  7
STANDARD
 40
0.1
  1
22,5
 41
1.0
 72
0
100
AcDbText
  0
TEXT
  5
423
100
AcDbEntity
  8
SCHEME_DIMS
100
AcDbText
 62
2
  6
CONTINUOUS
 10
5.9002362384
 20
7.4713071188
  7
STANDARD
 40
0.1
  1
.89
 41
1.0
 72
0
100
AcDbText
  0
TEXT
  5
424
100
AcDbEntity
  8
SCHEME_DIMS
100
AcDbText
 62
2
  6
CONTINUOUS
 10
5.8002362384
 20
7.4713071188
  7
STANDARD
 40
0.1
  1
[
 41
1.0
 72
0
100
AcDbText
  0
TEXT
  5
425
100
AcDbEntity
  8
SCHEME_DIMS
100
AcDbText
 62
2
  6
CONTINUOUS
 10
6.2002362384
 20
7.4713071188
  7
STANDARD
 40
0.1
  1
]
 41
1.0
 72
0
100
AcDbText
  0
LINE
  5
426
100
AcDbEntity
  8
SCHEME_DIMS
100
AcDbLine
 62
2
  6
CONTINUOUS
 10
7.2554527738
 20
7.153393733
 11
5.9252362384
 21
7.153393733
  0
LINE
  5
427
100
AcDbEntity
  8
SCHEME_DIMS
100
AcDbLine
 62
2
  6
CONTINUOUS
 10
7.1751378132
 20
8.0392205046
 11
5.9252362384
 21
8.0392205046
  0
LINE
  5
428
100
AcDbEntity
  8
SCHEME_DIMS
100
AcDbLine
 62
2
  6
CONTINUOUS
 10
6.0502362384
 20
7.153393733
 11
6.0502362384
 21
7.3713071188
  0
LINE
  5
429
100
AcDbEntity
  8
SCHEME_DIMS
100
AcDbLine
 62
2
  6
CONTINUOUS
 10
6.0502362384
 20
8.0392205046
 11
6.0502362384
 21
7.8213071188
  0
INSERT
  5
42A
100
AcDbEntity
  8
SCHEME_DIMS
100
AcDbBlockReference
 62
2
  6
CONTINUOUS
  2
_FILLED
 10
6.0502362384
 20
7.153393733
 41
0.1875
 42
0.1875
 43
0.1875
 50
270.0
  0
INSERT
  5
42B
100
AcDbEntity
  8
SCHEME_DIMS
100
AcDbBlockReference
 62
2
  6
CONTINUOUS
  2
_FILLED
 10
6.0502362384
 20
8.0392205046
 41
0.1875
 42
0.1875
 43
0.1875
 50
90.0
  0
ENDBLK
  5
42C
100
AcDbEntity
  8
0
  6
BYBLOCK
 62
0
100
AcDbBlockEnd
  0
BLOCK
  5
42D
100
AcDbEntity
  8
SCHEME_DIMS
100
AcDbBlockBegin
 62
2
  6
CONTINUOUS
  2
*D6
 70
65
 10
0.0
 20
0.0
  3
*D6
  1

  0
TEXT
  5
42E
100
AcDbEntity
  8
SCHEME_DIMS
100
AcDbText
 62
2
  6
CONTINUOUS
 10
8.6478269541
 20
9.4812259285
  7
STANDARD
 40
0.1
  1
4X 
 41
1.0
 72
0
100
AcDbText
  0
TEXT
  5
42F
100
AcDbEntity
  8
SCHEME_DIMS
100
AcDbText
 62
2
  6
CONTINUOUS
 10
8.9478269541
 20
9.4812259285
  7
STANDARD
 40
0.1
  1
R
 41
1.0
 72
0
100
AcDbText
  0
TEXT
  5
430
100
AcDbEntity
  8
SCHEME_DIMS
100
AcDbText
 62
2
  6
CONTINUOUS
 10
9.0478269541
 20
9.4812259285
  7
STANDARD
 40
0.1
  1
3,5
 41
1.0
 72
0
100
AcDbText
  0
TEXT
  5
431
100
AcDbEntity
  8
SCHEME_DIMS
100
AcDbText
 62
2
  6
CONTINUOUS
 10
9.1478269541
 20
9.3312259285
  7
STANDARD
 40
0.1
  1
.14
 41
1.0
 72
0
100
AcDbText
  0
TEXT
  5
432
100
AcDbEntity
  8
SCHEME_DIMS
100
AcDbText
 62
2
  6
CONTINUOUS
 10
9.0478269541
 20
9.3312259285
  7
STANDARD
 40
0.1
  1
[
 41
1.0
 72
0
100
AcDbText
  0
TEXT
  5
433
100
AcDbEntity
  8
SCHEME_DIMS
100
AcDbText
 62
2
  6
CONTINUOUS
 10
9.4478269541
 20
9.3312259285
  7
STANDARD
 40
0.1
  1
]
 41
1.0
 72
0
100
AcDbText
  0
LINE
  5
434
100
AcDbEntity
  8
SCHEME_DIMS
100
AcDbLine
 62
2
  6
CONTINUOUS
 10
7.7440795838
 20
8.5445203832
 11
8.3978269541
 21
9.5312259285
  0
LINE
  5
435
100
AcDbEntity
  8
SCHEME_DIMS
100
AcDbLine
 62
2
  6
CONTINUOUS
 10
8.3978269541
 20
9.5312259285
 11
8.5478269541
 21
9.5312259285
  0
INSERT
  5
436
100
AcDbEntity
  8
SCHEME_DIMS
100
AcDbBlockReference
 62
2
  6
CONTINUOUS
  2
_FILLED
 10
7.7440795838
 20
8.5445203832
 41
0.1875
 42
0.1875
 43
0.1875
 50
236.4733094148
  0
ENDBLK
  5
437
100
AcDbEntity
  8
0
  6
BYBLOCK
 62
0
100
AcDbBlockEnd
  0
BLOCK
  5
438
100
AcDbEntity
  8
SCHEME_DIMS
100
AcDbBlockBegin
 62
2
  6
CONTINUOUS
  2
*D7
 70
65
 10
0.0
 20
0.0
  3
*D7
  1

  0
TEXT
  5
439
100
AcDbEntity
  8
SCHEME_DIMS
100
AcDbText
 62
2
  6
CONTINUOUS
 10
9.7054779607
 20
8.5877218454
  7
STANDARD
 40
0.1
  1
%%c
 41
1.3333333333
 72
0
100
AcDbText
  0
TEXT
  5
43A
100
AcDbEntity
  8
SCHEME_DIMS
100
AcDbText
 62
2
  6
CONTINUOUS
 10
9.838811294
 20
8.5877218454
  7
STANDARD
 40
0.1
  1
6,5
 41
1.0
 72
0
100
AcDbText
  0
TEXT
  5
43B
100
AcDbEntity
  8
SCHEME_DIMS
100
AcDbText
 62
2
  6
CONTINUOUS
 10
9.938811294
 20
8.4377218454
  7
STANDARD
 40
0.1
  1
.26
 41
1.0
 72
0
100
AcDbText
  0
TEXT
  5
43C
100
AcDbEntity
  8
SCHEME_DIMS
100
AcDbText
 62
2
  6
CONTINUOUS
 10
9.838811294
 20
8.4377218454
  7
STANDARD
 40
0.1
  1
[
 41
1.0
 72
0
100
AcDbText
  0
TEXT
  5
43D
100
AcDbEntity
  8
SCHEME_DIMS
100
AcDbText
 62
2
  6
CONTINUOUS
 10
10.238811294
 20
8.4377218454
  7
STANDARD
 40
0.1
  1
]
 41
1.0
 72
0
100
AcDbText
  0
LINE
  5
43E
100
AcDbEntity
  8
SCHEME_DIMS
100
AcDbLine
 62
2
  6
CONTINUOUS
 10
8.0868161759
 20
8.0871905496
 11
9.4554779607
 21
8.6377218454
  0
LINE
  5
43F
100
AcDbEntity
  8
SCHEME_DIMS
100
AcDbLine
 62
2
  6
CONTINUOUS
 10
9.4554779607
 20
8.6377218454
 11
9.6054779607
 21
8.6377218454
  0
INSERT
  5
440
100
AcDbEntity
  8
SCHEME_DIMS
100
AcDbBlockReference
 62
2
  6
CONTINUOUS
  2
_FILLED
 10
8.0868161759
 20
8.0871905496
 41
0.1875
 42
0.1875
 43
0.1875
 50
201.9119921687
  0
ENDBLK
  5
441
100
AcDbEntity
  8
0
  6
BYBLOCK
 62
0
100
AcDbBlockEnd
  0
BLOCK
  5
442
100
AcDbEntity
  8
SCHEME_DIMS
100
AcDbBlockBegin
 62
2
  6
CONTINUOUS
  2
*D8
 70
65
 10
0.0
 20
0.0
  3
*D8
  1

  0
TEXT
  5
443
100
AcDbEntity
  8
SCHEME_DIMS
100
AcDbText
 62
2
  6
CONTINUOUS
 10
9.8663086867
 20
4.7473694047
  7
STANDARD
 40
0.1
  1
%%c
 41
1.3333333333
 72
0
100
AcDbText
  0
TEXT
  5
444
100
AcDbEntity
  8
SCHEME_DIMS
100
AcDbText
 62
2
  6
CONTINUOUS
 10
9.99964202
 20
4.7473694047
  7
STANDARD
 40
0.1
  1
31
 41
1.0
 72
0
100
AcDbText
  0
TEXT
  5
445
100
AcDbEntity
  8
SCHEME_DIMS
100
AcDbText
 62
2
  6
CONTINUOUS
 10
10.09964202
 20
4.5973694047
  7
STANDARD
 40
0.1
  1
1.22
 41
1.0
 72
0
100
AcDbText
  0
TEXT
  5
446
100
AcDbEntity
  8
SCHEME_DIMS
100
AcDbText
 62
2
  6
CONTINUOUS
 10
9.99964202
 20
4.5973694047
  7
STANDARD
 40
0.1
  1
[
 41
1.0
 72
0
100
AcDbText
  0
TEXT
  5
447
100
AcDbEntity
  8
SCHEME_DIMS
100
AcDbText
 62
2
  6
CONTINUOUS
 10
10.49964202
 20
4.5973694047
  7
STANDARD
 40
0.1
  1
]
 41
1.0
 72
0
100
AcDbText
  0
LINE
  5
448
100
AcDbEntity
  8
SCHEME_DIMS
100
AcDbLine
 62
2
  6
CONTINUOUS
 10
8.4995460286
 20
4.1697801236
 11
7.9675590731
 21
3.8708183804
  0
LINE
  5
449
100
AcDbEntity
  8
SCHEME_DIMS
100
AcDbLine
 62
2
  6
CONTINUOUS
 10
7.9675590731
 20
3.8708183804
 11
9.6163086867
 21
4.7973694047
  0
LINE
  5
44A
100
AcDbEntity
  8
SCHEME_DIMS
100
AcDbLine
 62
2
  6
CONTINUOUS
 10
9.6163086867
 20
4.7973694047
 11
9.7663086867
 21
4.7973694047
  0
LINE
  5
44B
100
AcDbEntity
  8
SCHEME_DIMS
100
AcDbLine
 62
2
  6
CONTINUOUS
 10
7.4355721175
 20
3.5718566372
 11
7.9675590731
 21
3.8708183804
  0
INSERT
  5
44C
100
AcDbEntity
  8
SCHEME_DIMS
100
AcDbBlockReference
 62
2
  6
CONTINUOUS
  2
_FILLED
 10
8.4995460286
 20
4.1697801236
 41
0.1875
 42
0.1875
 43
0.1875
 50
29.3347650081
  0
INSERT
  5
44D
100
AcDbEntity
  8
SCHEME_DIMS
100
AcDbBlockReference
 62
2
  6
CONTINUOUS
  2
_FILLED
 10
7.4355721175
 20
3.5718566372
 41
0.1875
 42
0.1875
 43
0.1875
 50
209.3347650081
  0
ENDBLK
  5
44E
100
AcDbEntity
  8
0
  6
BYBLOCK
 62
0
100
AcDbBlockEnd
  0
BLOCK
  5
44F
100
AcDbEntity
  8
SCHEME_DIMS
100
AcDbBlockBegin
 62
2
  6
CONTINUOUS
  2
*D9
 70
65
 10
0.0
 20
0.0
  3
*D9
  1

  0
TEXT
  5
450
100
AcDbEntity
  8
SCHEME_DIMS
100
AcDbText
 62
2
  6
CONTINUOUS
 10
5.7502362384
 20
3.3643131683
  7
STANDARD
 40
0.1
  1
27
 41
1.0
 72
0
100
AcDbText
  0
TEXT
  5
451
100
AcDbEntity
  8
SCHEME_DIMS
100
AcDbText
 62
2
  6
CONTINUOUS
 10
5.8502362384
 20
3.2143131683
  7
STANDARD
 40
0.1
  1
1.06
 41
1.0
 72
0
100
AcDbText
  0
TEXT
  5
452
100
AcDbEntity
  8
SCHEME_DIMS
100
AcDbText
 62
2
  6
CONTINUOUS
 10
5.7502362384
 20
3.2143131683
  7
STANDARD
 40
0.1
  1
[
 41
1.0
 72
0
100
AcDbText
  0
TEXT
  5
453
100
AcDbEntity
  8
SCHEME_DIMS
100
AcDbText
 62
2
  6
CONTINUOUS
 10
6.2502362384
 20
3.2143131683
  7
STANDARD
 40
0.1
  1
]
 41
1.0
 72
0
100
AcDbText
  0
LINE
  5
454
100
AcDbEntity
  8
SCHEME_DIMS
100
AcDbLine
 62
2
  6
CONTINUOUS
 10
6.9739380764
 20
2.8078079562
 11
6.5975157646
 21
2.8078079562
  0
LINE
  5
455
100
AcDbEntity
  8
SCHEME_DIMS
100
AcDbLine
 62
2
  6
CONTINUOUS
 10
6.5034101867
 20
2.8078079562
 11
5.9252362384
 21
2.8078079562
  0
LINE
  5
456
100
AcDbEntity
  8
SCHEME_DIMS
100
AcDbLine
 62
2
  6
CONTINUOUS
 10
7.1948228526
 20
3.8708183804
 11
5.9252362384
 21
3.8708183804
  0
LINE
  5
457
100
AcDbEntity
  8
SCHEME_DIMS
100
AcDbLine
 62
2
  6
CONTINUOUS
 10
6.0502362384
 20
2.8078079562
 11
6.0502362384
 21
3.1143131683
  0
LINE
  5
458
100
AcDbEntity
  8
SCHEME_DIMS
100
AcDbLine
 62
2
  6
CONTINUOUS
 10
6.0502362384
 20
3.8708183804
 11
6.0502362384
 21
3.5643131683
  0
INSERT
  5
459
100
AcDbEntity
  8
SCHEME_DIMS
100
AcDbBlockReference
 62
2
  6
CONTINUOUS
  2
_FILLED
 10
6.0502362384
 20
2.8078079562
 41
0.1875
 42
0.1875
 43
0.1875
 50
270.0
  0
INSERT
  5
45A
100
AcDbEntity
  8
SCHEME_DIMS
100
AcDbBlockReference
 62
2
  6
CONTINUOUS
  2
_FILLED
 10
6.0502362384
 20
3.8708183804
 41
0.1875
 42
0.1875
 43
0.1875
 50
90.0
  0
ENDBLK
  5
45B
100
AcDbEntity
  8
0
  6
BYBLOCK
 62
0
100
AcDbBlockEnd
  0
BLOCK
  5
45C
100
AcDbEntity
  8
0
100
AcDbBlockBegin
  2
_FILLED
 70
64
 10
0.0
 20
0.0
  3
_FILLED
  1

  0
SOLID
  5
45D
100
AcDbEntity
  8
0
  6
BYBLOCK
 62
0
100
AcDbTrace
 10
0.0
 20
0.0
 11
-1.0
 21
0.1666666667
 12
-1.0
 22
-0.1666666667
 13
-1.0
 23
-0.1666666667
  0
ENDBLK
  5
45E
100
AcDbEntity
  8
0
  6
BYBLOCK
 62
0
100
AcDbBlockEnd
  0
ENDSEC
  0
SECTION
  2
ENTITIES
  0
TEXT
  5
45F
100
AcDbEntity
  8
0
100
AcDbText
 62
2
  6
CONTINUOUS
 10
10.1487658475
 20
1.694867839
  7
STANDARD
 40
0.1
  1
%%uTHIRD ANGLE PROJECTION
 41
0.8
 72
1
 11
11.0287658475
 21
1.694867839
100
AcDbText
  0
TEXT
  5
460
100
AcDbEntity
  8
0
100
AcDbText
 62
2
  6
CONTINUOUS
 10
12.88
 20
1.377
  7
STANDARD
 40
0.08
  1
DRAWING NO.
 41
1.0
 72
0
100
AcDbText
  0
TEXT
  5
461
100
AcDbEntity
  8
0
100
AcDbText
 62
2
  6
CONTINUOUS
 10
10.044
 20
2.436432
  7
STANDARD
 40
0.08
  1
and is proprietary in general
 41
0.85
 72
1
 11
11.03
 21
2.436432
100
AcDbText
  0
TEXT
  5
462
100
AcDbEntity
  8
0
100
AcDbText
 62
2
  6
CONTINUOUS
 10
10.078
 20
2.316432
  7
STANDARD
 40
0.08
  1
and in detail.  Its contents
 41
0.85
 72
1
 11
11.03
 21
2.316432
100
AcDbText
  0
TEXT
  5
463
100
AcDbEntity
  8
0
100
AcDbText
 62
2
  6
CONTINUOUS
 10
10.214
 20
2.196432
  7
STANDARD
 40
0.08
  1
shall not be revealed to
 41
0.85
 72
1
 11
11.03
 21
2.196432
100
AcDbText
  0
TEXT
  5
464
100
AcDbEntity
  8
0
100
AcDbText
 62
2
  6
CONTINUOUS
 10
10.248
 20
2.076432
  7
STANDARD
 40
0.08
  1
outside parties without
 41
0.85
 72
1
 11
11.03
 21
2.076432
100
AcDbText
  0
TEXT
  5
465
100
AcDbEntity
  8
0
100
AcDbText
 62
2
  6
CONTINUOUS
 10
10.146
 20
1.956432
  7
STANDARD
 40
0.08
  1
written consent of BANNER.
 41
0.85
 72
1
 11
11.03
 21
1.956432
100
AcDbText
  0
TEXT
  5
466
100
AcDbEntity
  8
0
100
AcDbText
 62
2
  6
CONTINUOUS
 10
12.08
 20
2.117
  7
STANDARD
 40
0.1
  1
TITLE
 41
0.8
 72
0
100
AcDbText
  0
TEXT
  5
467
100
AcDbEntity
  8
0
100
AcDbText
 62
2
  6
CONTINUOUS
 10
12.08
 20
1.377
  7
STANDARD
 40
0.08
  1
SIZE
 41
1.0
 72
0
100
AcDbText
  0
TEXT
  5
468
100
AcDbEntity
  8
0
100
AcDbText
 62
2
  6
CONTINUOUS
 10
12.08
 20
1.007
  7
STANDARD
 40
0.08
  1
SCALE
 41
1.0
 72
0
100
AcDbText
  0
TEXT
  5
469
100
AcDbEntity
  8
0
100
AcDbText
 62
2
  6
CONTINUOUS
 10
12.46
 20
1.237
  7
STANDARD
 40
0.1
  1
B
 41
0.8
 72
1
 11
12.5
 21
1.237
100
AcDbText
  0
TEXT
  5
46A
100
AcDbEntity
  8
0
100
AcDbText
 62
2
  6
CONTINUOUS
 10
10.112
 20
2.556432
  7
STANDARD
 40
0.08
  1
of BANNER ENGINEERING CORP.
 41
0.85
 72
1
 11
11.03
 21
2.556432
100
AcDbText
  0
TEXT
  5
46B
100
AcDbEntity
  8
0
100
AcDbText
 62
2
  6
CONTINUOUS
 10
10.078
 20
2.676432
  7
STANDARD
 40
0.08
  1
This drawing is the property
 41
0.85
 72
1
 11
11.03
 21
2.676432
100
AcDbText
  0
TEXT
  5
46C
100
AcDbEntity
  8
0
100
AcDbText
 62
2
  6
CONTINUOUS
 10
14.19
 20
2.3134
  7
STANDARD
 40
0.1
  1
MINNEAPOLIS, MN 55440
 41
0.8
 72
1
 11
15.03
 21
2.3134
100
AcDbText
  0
TEXT
  5
46D
100
AcDbEntity
  8
0
100
AcDbText
 62
2
  6
CONTINUOUS
 10
14.255
 20
1.007
  7
STANDARD
 40
0.08
  1
SHEET
 41
1.0
 72
0
100
AcDbText
  0
TEXT
  5
46E
100
AcDbEntity
  8
0
100
AcDbText
 62
2
  6
CONTINUOUS
 10
15.63
 20
1.377
  7
STANDARD
 40
0.08
  1
REV.
 41
1.0
 72
0
100
AcDbText
  0
TEXT
  5
46F
100
AcDbEntity
  8
0
100
AcDbText
 62
2
  6
CONTINUOUS
 10
16.03
 20
0.765443
  7
STANDARD
 40
0.07
  1
PRO/E
 41
1.0
 72
2
 11
16.38
 21
0.765443
100
AcDbText
  0
TEXT
  5
470
100
AcDbEntity
  8
0
100
AcDbText
 62
2
  6
CONTINUOUS
 10
13.7052
 20
2.631049
  7
STANDARD
 40
0.12
  1
BANNER ENGINEERING CORP.
 41
0.92
 72
1
 11
15.03
 21
2.631049
100
AcDbText
  0
TEXT
  5
471
100
AcDbEntity
  8
0
100
AcDbText
 62
2
  6
CONTINUOUS
 10
14.51
 20
2.4724
  7
STANDARD
 40
0.1
  1
P.O. BOX 9414
 41
0.8
 72
1
 11
15.03
 21
2.4724
100
AcDbText
  0
TEXT
  5
472
100
AcDbEntity
  8
0
100
AcDbText
 62
2
  6
CONTINUOUS
 10
9.445
 20
10.212
  7
STANDARD
 40
0.1
  1
4
 41
0.8
 72
1
 11
9.485
 21
10.212
100
AcDbText
  0
TEXT
  5
473
100
AcDbEntity
  8
0
100
AcDbText
 62
2
  6
CONTINUOUS
 10
11.415
 20
10.212
  7
STANDARD
 40
0.1
  1
3
 41
0.8
 72
1
 11
11.455
 21
10.212
100
AcDbText
  0
TEXT
  5
474
100
AcDbEntity
  8
0
100
AcDbText
 62
2
  6
CONTINUOUS
 10
13.385
 20
10.212
  7
STANDARD
 40
0.1
  1
2
 41
0.8
 72
1
 11
13.425
 21
10.212
100
AcDbText
  0
TEXT
  5
475
100
AcDbEntity
  8
0
100
AcDbText
 62
2
  6
CONTINUOUS
 10
15.355
 20
10.212
  7
STANDARD
 40
0.1
  1
1
 41
0.8
 72
1
 11
15.395
 21
10.212
100
AcDbText
  0
TEXT
  5
476
100
AcDbEntity
  8
0
100
AcDbText
 62
2
  6
CONTINUOUS
 10
3.535
 20
10.212
  7
STANDARD
 40
0.1
  1
7
 41
0.8
 72
1
 11
3.575
 21
10.212
100
AcDbText
  0
TEXT
  5
477
100
AcDbEntity
  8
0
100
AcDbText
 62
2
  6
CONTINUOUS
 10
5.505
 20
10.212
  7
STANDARD
 40
0.1
  1
6
 41
0.8
 72
1
 11
5.545
 21
10.212
100
AcDbText
  0
TEXT
  5
478
100
AcDbEntity
  8
0
100
AcDbText
 62
2
  6
CONTINUOUS
 10
7.475
 20
10.212
  7
STANDARD
 40
0.1
  1
5
 41
0.8
 72
1
 11
7.515
 21
10.212
100
AcDbText
  0
TEXT
  5
479
100
AcDbEntity
  8
0
100
AcDbText
 62
2
  6
CONTINUOUS
 10
1.565
 20
10.212
  7
STANDARD
 40
0.1
  1
8
 41
0.8
 72
1
 11
1.605
 21
10.212
100
AcDbText
  0
TEXT
  5
47A
100
AcDbEntity
  8
0
100
AcDbText
 62
2
  6
CONTINUOUS
 10
1.565
 20
0.687
  7
STANDARD
 40
0.1
  1
8
 41
0.8
 72
1
 11
1.605
 21
0.687
100
AcDbText
  0
TEXT
  5
47B
100
AcDbEntity
  8
0
100
AcDbText
 62
2
  6
CONTINUOUS
 10
3.535
 20
0.687
  7
STANDARD
 40
0.1
  1
7
 41
0.8
 72
1
 11
3.575
 21
0.687
100
AcDbText
  0
TEXT
  5
47C
100
AcDbEntity
  8
0
100
AcDbText
 62
2
  6
CONTINUOUS
 10
5.505
 20
0.687
  7
STANDARD
 40
0.1
  1
6
 41
0.8
 72
1
 11
5.545
 21
0.687
100
AcDbText
  0
TEXT
  5
47D
100
AcDbEntity
  8
0
100
AcDbText
 62
2
  6
CONTINUOUS
 10
7.475
 20
0.687
  7
STANDARD
 40
0.1
  1
5
 41
0.8
 72
1
 11
7.515
 21
0.687
100
AcDbText
  0
TEXT
  5
47E
100
AcDbEntity
  8
0
100
AcDbText
 62
2
  6
CONTINUOUS
 10
9.445
 20
0.687
  7
STANDARD
 40
0.1
  1
4
 41
0.8
 72
1
 11
9.485
 21
0.687
100
AcDbText
  0
TEXT
  5
47F
100
AcDbEntity
  8
0
100
AcDbText
 62
2
  6
CONTINUOUS
 10
11.415
 20
0.687
  7
STANDARD
 40
0.1
  1
3
 41
0.8
 72
1
 11
11.455
 21
0.687
100
AcDbText
  0
TEXT
  5
480
100
AcDbEntity
  8
0
100
AcDbText
 62
2
  6
CONTINUOUS
 10
13.385
 20
0.687
  7
STANDARD
 40
0.1
  1
2
 41
0.8
 72
1
 11
13.425
 21
0.687
100
AcDbText
  0
TEXT
  5
481
100
AcDbEntity
  8
0
100
AcDbText
 62
2
  6
CONTINUOUS
 10
15.355
 20
0.687
  7
STANDARD
 40
0.1
  1
1
 41
0.8
 72
1
 11
15.395
 21
0.687
100
AcDbText
  0
TEXT
  5
482
100
AcDbEntity
  8
0
100
AcDbText
 62
2
  6
CONTINUOUS
 10
0.44
 20
4.2995
  7
STANDARD
 40
0.1
  1
B
 41
0.8
 72
2
 11
0.52
 21
4.2995
100
AcDbText
  0
TEXT
  5
483
100
AcDbEntity
  8
0
100
AcDbText
 62
2
  6
CONTINUOUS
 10
0.44
 20
1.9995
  7
STANDARD
 40
0.1
  1
A
 41
0.8
 72
2
 11
0.52
 21
1.9995
100
AcDbText
  0
TEXT
  5
484
100
AcDbEntity
  8
0
100
AcDbText
 62
2
  6
CONTINUOUS
 10
0.44
 20
8.8995
  7
STANDARD
 40
0.1
  1
D
 41
0.8
 72
2
 11
0.52
 21
8.8995
100
AcDbText
  0
TEXT
  5
485
100
AcDbEntity
  8
0
100
AcDbText
 62
2
  6
CONTINUOUS
 10
0.44
 20
6.5995
  7
STANDARD
 40
0.1
  1
C
 41
0.8
 72
2
 11
0.52
 21
6.5995
100
AcDbText
  0
TEXT
  5
486
100
AcDbEntity
  8
0
100
AcDbText
 62
2
  6
CONTINUOUS
 10
16.48
 20
8.8995
  7
STANDARD
 40
0.1
  1
D
 41
0.8
 72
0
100
AcDbText
  0
TEXT
  5
487
100
AcDbEntity
  8
0
100
AcDbText
 62
2
  6
CONTINUOUS
 10
16.48
 20
6.5995
  7
STANDARD
 40
0.1
  1
C
 41
0.8
 72
0
100
AcDbText
  0
TEXT
  5
488
100
AcDbEntity
  8
0
100
AcDbText
 62
2
  6
CONTINUOUS
 10
16.48
 20
4.2995
  7
STANDARD
 40
0.1
  1
B
 41
0.8
 72
0
100
AcDbText
  0
TEXT
  5
489
100
AcDbEntity
  8
0
100
AcDbText
 62
2
  6
CONTINUOUS
 10
16.48
 20
1.9995
  7
STANDARD
 40
0.1
  1
A
 41
0.8
 72
0
100
AcDbText
  0
MTEXT
  5
48A
100
AcDbEntity
  8
0
100
AcDbMText
 62
2
  6
CONTINUOUS
  7
STANDARD
 71
1
 72
1
 10
14.819264911
 20
1.0627941725
 30
0.0
 11
1.0
 21
0.0
 31
0.0
  1
1 OF 1
 40
0.1
 41
0.6
  0
TEXT
  5
48B
100
AcDbEntity
  8
0
100
AcDbText
 62
7
  6
CONTINUOUS
 10
13.8911999818
 20
1.2547321586
  7
STANDARD
 40
0.12
  1
141789
 41
1.0
 72
0
100
AcDbText
  0
TEXT
  5
48C
100
AcDbEntity
  8
0
100
AcDbText
 62
2
  6
CONTINUOUS
 10
12.644264911
 20
0.9627941725
  7
STANDARD
 40
0.1
  1
1:1
 41
1.0
 72
0
100
AcDbText
  0
MTEXT
  5
48D
100
AcDbEntity
  8
0
100
AcDbMText
 62
2
  6
CONTINUOUS
  7
STANDARD
 71
1
 72
1
 10
1.0597007627
 20
1.6202922458
 30
0.0
 11
1.0
 21
0.0
 31
0.0
  1
NOTES:\P1. ALL DIMENSIONS ARE MILLIMETERS [INCHES] UNLESS OTHERWISE NOTED.
 40
0.1
 41
6.6
  0
INSERT
  5
48E
100
AcDbEntity
  8
0
100
AcDbBlockReference
 62
2
  6
CONTINUOUS
  2
BANNER_LOGO_TITLEBLOCK_BL0
 10
12.9046655056
 20
2.5403783448
  0
DIMENSION
  5
48F
100
AcDbEntity
  8
DRIVEN_DIMS
100
AcDbDimension
 62
2
  6
CONTINUOUS
  2
*D0
 10
7.9675590731
 20
8.0392205046
 11
9.9111330872
 21
7.4594039472
 70
164
 42
12.5
  1
<>
  3
DIMSTYLE_1
100
AcDbRadialDimension
 15
8.4302621089
 25
7.8716081989
  0
DIMENSION
  5
490
100
AcDbEntity
  8
SCHEME_DIMS
100
AcDbDimension
 62
2
  6
CONTINUOUS
  2
*D1
 10
4.8462885594
 20
6.1542829473
 11
4.8462885594
 21
4.4810454517
 70
160
 42
85.0004647752
  3
DIMSTYLE_2
100
AcDbAlignedDimension
 13
4.4087885594
 23
2.8078079562
 14
2.6213686864
 24
6.1542829473
 50
90.0
100
AcDbRotatedDimension
  0
DIMENSION
  5
491
100
AcDbEntity
  8
SCHEME_DIMS
100
AcDbDimension
 62
2
  6
CONTINUOUS
  2
*D2
 10
2.4565064816
 20
6.6542829473
 11
3.4013975205
 21
6.5792829473
 70
160
 42
48.0004647752
  3
DIMSTYLE_2
100
AcDbAlignedDimension
 13
4.3462885594
 23
2.9726701609
 14
2.4565064816
 24
6.2167829473
 50
180.0
100
AcDbRotatedDimension
  0
DIMENSION
  5
492
100
AcDbEntity
  8
SCHEME_DIMS
100
AcDbDimension
 62
2
  6
CONTINUOUS
  2
*D3
 10
9.3848819077
 20
2.3078079562
 11
7.9675590731
 21
2.2328079562
 70
160
 42
72.0
  3
DIMSTYLE_2
100
AcDbAlignedDimension
 13
6.5502362384
 23
2.8862371683
 14
9.3848819077
 24
2.8761897193
100
AcDbRotatedDimension
  0
DIMENSION
  5
493
100
AcDbEntity
  8
SCHEME_DIMS
100
AcDbDimension
 62
2
  6
CONTINUOUS
  2
*D4
 10
8.2671463905
 20
6.653393733
 11
6.9929717556
 21
6.578393733
 70
160
 42
15.2190357252
  3
DIMSTYLE_2
100
AcDbAlignedDimension
 13
7.6679717556
 23
7.3484954356
 14
8.2671463905
 24
7.3484954356
100
AcDbRotatedDimension
  0
DIMENSION
  5
494
100
AcDbEntity
  8
SCHEME_DIMS
100
AcDbDimension
 62
2
  6
CONTINUOUS
  2
*D5
 10
6.0502362384
 20
8.0392205046
 11
6.0502362384
 21
7.5963071188
 70
160
 42
22.5
  3
DIMSTYLE_2
100
AcDbAlignedDimension
 13
7.2554527738
 23
7.153393733
 14
7.1751378132
 24
8.0392205046
 50
90.0
100
AcDbRotatedDimension
  0
DIMENSION
  5
495
100
AcDbEntity
  8
SCHEME_DIMS
100
AcDbDimension
 62
2
  6
CONTINUOUS
  2
*D6
 10
7.6679717556
 20
8.4296502981
 11
9.0978269541
 21
9.4562259285
 70
164
 42
3.5
  1
4X <>
  3
DIMSTYLE_3
100
AcDbRadialDimension
 15
7.7440795838
 25
8.5445203832
  0
DIMENSION
  5
496
100
AcDbEntity
  8
SCHEME_DIMS
100
AcDbDimension
 62
2
  6
CONTINUOUS
  2
*D7
 10
8.0868161759
 20
8.0871905496
 11
10.0221446274
 21
8.5627218454
 70
163
 42
6.53
  1
<>
  3
DIMSTYLE_4
100
AcDbDiametricDimension
 15
7.8483019702
 25
7.9912504596
  0
DIMENSION
  5
497
100
AcDbEntity
  8
SCHEME_DIMS
100
AcDbDimension
 62
2
  6
CONTINUOUS
  2
*D8
 10
8.4995460286
 20
4.1697801236
 11
10.2329753534
 21
4.7223694047
 70
163
 42
31.0
  1
<>
  3
DIMSTYLE_4
100
AcDbDiametricDimension
 15
7.4355721175
 25
3.5718566372
  0
DIMENSION
  5
498
100
AcDbEntity
  8
SCHEME_DIMS
100
AcDbDimension
 62
2
  6
CONTINUOUS
  2
*D9
 10
6.0502362384
 20
3.8708183804
 11
6.0502362384
 21
3.3393131683
 70
160
 42
27.0004647752
  3
DIMSTYLE_2
100
AcDbAlignedDimension
 13
6.9739380764
 23
2.8078079562
 14
7.1948228526
 24
3.8708183804
 50
90.0
100
AcDbRotatedDimension
  0
LINE
  5
499
100
AcDbEntity
  8
0
100
AcDbLine
 62
2
  6
CONTINUOUS
 10
16.38
 20
0.887
 11
12.03
 21
0.887
  0
LINE
  5
49A
100
AcDbEntity
  8
0
100
AcDbLine
 62
2
  6
CONTINUOUS
 10
16.38
 20
0.887
 11
16.38
 21
2.807
  0
LINE
  5
49B
100
AcDbEntity
  8
0
100
AcDbLine
 62
2
  6
CONTINUOUS
 10
16.38
 20
2.807
 11
12.03
 21
2.807
  0
LINE
  5
49C
100
AcDbEntity
  8
0
100
AcDbLine
 62
2
  6
CONTINUOUS
 10
12.03
 20
0.887
 11
12.03
 21
2.807
  0
TEXT
  5
49D
100
AcDbEntity
  8
0
100
AcDbText
 62
7
  6
CONTINUOUS
 10
16.105
 20
1.267
  7
STANDARD
 40
0.1
  1
1
 41
1.0
 72
1
 11
16.155
 21
1.267
100
AcDbText
  0
MTEXT
  5
49E
100
AcDbEntity
  8
0
100
AcDbMText
 62
7
  6
CONTINUOUS
  7
STANDARD
 71
2
 72
1
 10
14.205
 20
1.967
 30
0.0
 11
1.0
 21
0.0
 31
0.0
  1
SMBAMS30RLJ\PWEB CAD DRAWINGS 2D/3D
 40
0.1
 41
2.2
  0
MTEXT
  5
49F
100
AcDbEntity
  8
NOTES
100
AcDbMText
 62
2
  6
CONTINUOUS
  7
STANDARD
 71
2
 72
1
 10
14.4858925108
 20
3.3693009292
 30
0.0
 11
1.0
 21
0.0
 31
0.0
  1
ISOMETRIC VIEW\P\H0.1;SCALE  1:1
 40
0.125
 41
1.75
  0
LINE
  5
4A0
100
AcDbEntity
  8
0
100
AcDbLine
 62
2
  6
CONTINUOUS
 10
0.47
 20
5.586103
 11
0.47
 21
5.412897
  0
LINE
  5
4A1
100
AcDbEntity
  8
0
100
AcDbLine
 62
2
  6
CONTINUOUS
 10
0.62
 20
10.112
 11
0.62
 21
0.887
  0
LINE
  5
4A2
100
AcDbEntity
  8
0
100
AcDbLine
 62
2
  6
CONTINUOUS
 10
2.59
 20
0.887
 11
2.59
 21
0.637
  0
LINE
  5
4A3
100
AcDbEntity
  8
0
100
AcDbLine
 62
2
  6
CONTINUOUS
 10
2.59
 20
10.112
 11
2.59
 21
10.362
  0
LINE
  5
4A4
100
AcDbEntity
  8
0
100
AcDbLine
 62
2
  6
CONTINUOUS
 10
8.413397
 20
0.737
 11
8.586603
 21
0.737
  0
LINE
  5
4A5
100
AcDbEntity
  8
0
100
AcDbLine
 62
7
  6
CONTINUOUS
 10
11.1389508475
 20
1.425992839
 11
11.7453418475
 21
1.495385839
  0
LINE
  5
4A6
100
AcDbEntity
  8
0
100
AcDbLine
 62
2
  6
CONTINUOUS
 10
0.62
 20
0.887
 11
16.38
 21
0.887
  0
LINE
  5
4A7
100
AcDbEntity
  8
0
100
AcDbLine
 62
2
  6
CONTINUOUS
 10
12.03
 20
1.137
 11
16.38
 21
1.137
  0
LINE
  5
4A8
100
AcDbEntity
  8
0
100
AcDbLine
 62
7
  6
CONTINUOUS
 10
10.2121898475
 20
1.243294839
 11
10.4342808475
 21
1.243294839
  0
LINE
  5
4A9
100
AcDbEntity
  8
0
100
AcDbLine
 62
7
  6
CONTINUOUS
 10
10.4842808475
 20
1.243294839
 11
10.5842808475
 21
1.243294839
  0
LINE
  5
4AA
100
AcDbEntity
  8
0
100
AcDbLine
 62
7
  6
CONTINUOUS
 10
10.6342808475
 20
1.243294839
 11
10.8563718475
 21
1.243294839
  0
LINE
  5
4AB
100
AcDbEntity
  8
0
100
AcDbLine
 62
7
  6
CONTINUOUS
 10
11.0389508475
 20
1.243294839
 11
11.3171028475
 21
1.243294839
  0
LINE
  5
4AC
100
AcDbEntity
  8
0
100
AcDbLine
 62
7
  6
CONTINUOUS
 10
11.3671028475
 20
1.243294839
 11
11.5171888475
 21
1.243294839
  0
LINE
  5
4AD
100
AcDbEntity
  8
0
100
AcDbLine
 62
7
  6
CONTINUOUS
 10
11.5671888475
 20
1.243294839
 11
11.8453418475
 21
1.243294839
  0
LINE
  5
4AE
100
AcDbEntity
  8
0
100
AcDbLine
 62
7
  6
CONTINUOUS
 10
11.7453418475
 20
0.991203839
 11
11.1389508475
 21
1.060596839
  0
LINE
  5
4AF
100
AcDbEntity
  8
0
100
AcDbLine
 62
2
  6
CONTINUOUS
 10
4.56
 20
0.887
 11
4.56
 21
0.637
  0
LINE
  5
4B0
100
AcDbEntity
  8
0
100
AcDbLine
 62
2
  6
CONTINUOUS
 10
4.56
 20
10.112
 11
4.56
 21
10.362
  0
LINE
  5
4B1
100
AcDbEntity
  8
0
100
AcDbLine
 62
2
  6
CONTINUOUS
 10
0.47
 20
5.412897
 11
0.62
 21
5.4995
  0
LINE
  5
4B2
100
AcDbEntity
  8
0
100
AcDbLine
 62
2
  6
CONTINUOUS
 10
12.03
 20
1.507
 11
16.38
 21
1.507
  0
LINE
  5
4B3
100
AcDbEntity
  8
0
100
AcDbLine
 62
2
  6
CONTINUOUS
 10
10.03
 20
1.907
 11
12.03
 21
1.907
  0
LINE
  5
4B4
100
AcDbEntity
  8
0
100
AcDbLine
 62
2
  6
CONTINUOUS
 10
0.62
 20
5.4995
 11
0.47
 21
5.586103
  0
LINE
  5
4B5
100
AcDbEntity
  8
0
100
AcDbLine
 62
2
  6
CONTINUOUS
 10
12.03
 20
2.267
 11
16.38
 21
2.267
  0
LINE
  5
4B6
100
AcDbEntity
  8
0
100
AcDbLine
 62
2
  6
CONTINUOUS
 10
8.5
 20
10.112
 11
8.586603
 21
10.262
  0
LINE
  5
4B7
100
AcDbEntity
  8
0
100
AcDbLine
 62
2
  6
CONTINUOUS
 10
16.38
 20
2.807
 11
10.03
 21
2.807
  0
LINE
  5
4B8
100
AcDbEntity
  8
0
100
AcDbLine
 62
2
  6
CONTINUOUS
 10
0.62
 20
3.1995
 11
0.37
 21
3.1995
  0
LINE
  5
4B9
100
AcDbEntity
  8
0
100
AcDbLine
 62
2
  6
CONTINUOUS
 10
16.38
 20
3.1995
 11
16.63
 21
3.1995
  0
LINE
  5
4BA
100
AcDbEntity
  8
0
100
AcDbLine
 62
2
  6
CONTINUOUS
 10
8.586603
 20
0.737
 11
8.5
 21
0.887
  0
LINE
  5
4BB
100
AcDbEntity
  8
0
100
AcDbLine
 62
2
  6
CONTINUOUS
 10
6.53
 20
0.887
 11
6.53
 21
0.637
  0
LINE
  5
4BC
100
AcDbEntity
  8
0
100
AcDbLine
 62
2
  6
CONTINUOUS
 10
6.53
 20
10.112
 11
6.53
 21
10.362
  0
LINE
  5
4BD
100
AcDbEntity
  8
0
100
AcDbLine
 62
2
  6
CONTINUOUS
 10
8.5
 20
0.887
 11
8.5
 21
0.637
  0
LINE
  5
4BE
100
AcDbEntity
  8
0
100
AcDbLine
 62
2
  6
CONTINUOUS
 10
8.5
 20
10.112
 11
8.5
 21
10.362
  0
LINE
  5
4BF
100
AcDbEntity
  8
0
100
AcDbLine
 62
2
  6
CONTINUOUS
 10
0.62
 20
5.4995
 11
0.37
 21
5.4995
  0
LINE
  5
4C0
100
AcDbEntity
  8
0
100
AcDbLine
 62
2
  6
CONTINUOUS
 10
16.38
 20
5.4995
 11
16.63
 21
5.4995
  0
LINE
  5
4C1
100
AcDbEntity
  8
0
100
AcDbLine
 62
2
  6
CONTINUOUS
 10
10.03
 20
2.807
 11
10.03
 21
0.887
  0
LINE
  5
4C2
100
AcDbEntity
  8
0
100
AcDbLine
 62
2
  6
CONTINUOUS
 10
10.47
 20
0.887
 11
10.47
 21
0.637
  0
LINE
  5
4C3
100
AcDbEntity
  8
0
100
AcDbLine
 62
2
  6
CONTINUOUS
 10
10.47
 20
10.112
 11
10.47
 21
10.362
  0
LINE
  5
4C4
100
AcDbEntity
  8
0
100
AcDbLine
 62
7
  6
CONTINUOUS
 10
10.5342808475
 20
1.143294839
 11
10.5342808475
 21
0.921203839
  0
LINE
  5
4C5
100
AcDbEntity
  8
0
100
AcDbLine
 62
7
  6
CONTINUOUS
 10
10.5342808475
 20
1.193294839
 11
10.5342808475
 21
1.293294839
  0
LINE
  5
4C6
100
AcDbEntity
  8
0
100
AcDbLine
 62
7
  6
CONTINUOUS
 10
10.5342808475
 20
1.343294839
 11
10.5342808475
 21
1.565385839
  0
LINE
  5
4C7
100
AcDbEntity
  8
0
100
AcDbLine
 62
2
  6
CONTINUOUS
 10
8.5
 20
0.887
 11
8.413397
 21
0.737
  0
LINE
  5
4C8
100
AcDbEntity
  8
0
100
AcDbLine
 62
2
  6
CONTINUOUS
 10
0.62
 20
7.7995
 11
0.37
 21
7.7995
  0
LINE
  5
4C9
100
AcDbEntity
  8
0
100
AcDbLine
 62
2
  6
CONTINUOUS
 10
16.38
 20
7.7995
 11
16.63
 21
7.7995
  0
LINE
  5
4CA
100
AcDbEntity
  8
0
100
AcDbLine
 62
2
  6
CONTINUOUS
 10
8.413397
 20
10.262
 11
8.5
 21
10.112
  0
LINE
  5
4CB
100
AcDbEntity
  8
0
100
AcDbLine
 62
7
  6
CONTINUOUS
 10
11.1389508475
 20
1.060596839
 11
11.1389508475
 21
1.425992839
  0
LINE
  5
4CC
100
AcDbEntity
  8
0
100
AcDbLine
 62
7
  6
CONTINUOUS
 10
11.7453418475
 20
1.495385839
 11
11.7453418475
 21
0.991203839
  0
LINE
  5
4CD
100
AcDbEntity
  8
0
100
AcDbLine
 62
1
  6
CONTINUOUS
 10
12.03
 20
2.807
 11
12.03
 21
0.887
  0
LINE
  5
4CE
100
AcDbEntity
  8
0
100
AcDbLine
 62
2
  6
CONTINUOUS
 10
12.44
 20
0.887
 11
12.44
 21
0.637
  0
LINE
  5
4CF
100
AcDbEntity
  8
0
100
AcDbLine
 62
2
  6
CONTINUOUS
 10
12.44
 20
10.112
 11
12.44
 21
10.362
  0
LINE
  5
4D0
100
AcDbEntity
  8
0
100
AcDbLine
 62
2
  6
CONTINUOUS
 10
16.53
 20
5.586103
 11
16.38
 21
5.4995
  0
LINE
  5
4D1
100
AcDbEntity
  8
0
100
AcDbLine
 62
2
  6
CONTINUOUS
 10
16.38
 20
5.4995
 11
16.53
 21
5.412897
  0
LINE
  5
4D2
100
AcDbEntity
  8
0
100
AcDbLine
 62
2
  6
CONTINUOUS
 10
12.83
 20
1.507
 11
12.83
 21
1.137
  0
LINE
  5
4D3
100
AcDbEntity
  8
0
100
AcDbLine
 62
2
  6
CONTINUOUS
 10
16.38
 20
10.112
 11
0.62
 21
10.112
  0
LINE
  5
4D4
100
AcDbEntity
  8
0
100
AcDbLine
 62
2
  6
CONTINUOUS
 10
8.586603
 20
10.262
 11
8.413397
 21
10.262
  0
LINE
  5
4D5
100
AcDbEntity
  8
0
100
AcDbLine
 62
2
  6
CONTINUOUS
 10
14.205
 20
1.137
 11
14.205
 21
0.887
  0
LINE
  5
4D6
100
AcDbEntity
  8
0
100
AcDbLine
 62
2
  6
CONTINUOUS
 10
14.41
 20
0.887
 11
14.41
 21
0.637
  0
LINE
  5
4D7
100
AcDbEntity
  8
0
100
AcDbLine
 62
2
  6
CONTINUOUS
 10
14.41
 20
10.112
 11
14.41
 21
10.362
  0
LINE
  5
4D8
100
AcDbEntity
  8
0
100
AcDbLine
 62
2
  6
CONTINUOUS
 10
15.58
 20
1.507
 11
15.58
 21
1.137
  0
LINE
  5
4D9
100
AcDbEntity
  8
0
100
AcDbLine
 62
2
  6
CONTINUOUS
 10
16.38
 20
0.887
 11
16.38
 21
10.112
  0
LINE
  5
4DA
100
AcDbEntity
  8
0
100
AcDbLine
 62
2
  6
CONTINUOUS
 10
16.53
 20
5.412897
 11
16.53
 21
5.586103
  0
LINE
  5
4DB
100
AcDbEntity
  8
0
100
AcDbLine
 62
7
  6
CONTINUOUS
 10
13.6905962176
 20
7.9341410685
 11
13.6182155098
 21
7.8923522968
  0
LINE
  5
4DC
100
AcDbEntity
  8
0
100
AcDbLine
 62
9
  6
CONTINUOUS
 10
13.7363252173
 20
7.8806536482
 11
13.808705925
 21
7.9224424199
  0
LWPOLYLINE
  5
4DD
100
AcDbEntity
  8
0
100
AcDbPolyline
 62
7
  6
CONTINUOUS
 90
7
 70
0
 10
13.7669456647
 20
3.6711751302
 10
13.8158686827
 20
3.6495019254
 10
13.8728406601
 20
3.6358776424
 10
13.9339790507
 20
3.6312307534
 10
13.9951173743
 20
3.6358779363
 10
14.0520891552
 20
3.6495024932
 10
14.1010118606
 20
3.6711759332
  0
LINE
  5
4DE
100
AcDbEntity
  8
0
100
AcDbLine
 62
7
  6
CONTINUOUS
 10
12.8482598014
 20
4.2015666616
 11
13.7669456647
 21
3.6711751302
  0
LWPOLYLINE
  5
4DF
100
AcDbEntity
  8
0
100
AcDbPolyline
 62
3
  6
CONTINUOUS
 90
4
 70
0
 10
13.6182154982
 20
7.8923522901
 10
13.591669709
 20
7.8677313622
 10
13.5749829624
 20
7.8308475648
 10
13.5692914239
 20
7.7842138854
  0
LINE
  5
4E0
100
AcDbEntity
  8
0
100
AcDbLine
 62
7
  6
CONTINUOUS
 10
13.8432501851
 20
3.8307927871
 11
13.8344395468
 21
3.8297240828
  0
LINE
  5
4E1
100
AcDbEntity
  8
0
100
AcDbLine
 62
3
  6
CONTINUOUS
 10
13.8432501851
 20
3.83175716
 11
13.8344395468
 21
3.8306884558
  0
LINE
  5
4E2
100
AcDbEntity
  8
0
100
AcDbLine
 62
3
  6
CONTINUOUS
 10
13.8272577211
 20
3.8225239617
 11
13.8413252772
 21
3.8226094569
  0
LINE
  5
4E3
100
AcDbEntity
  8
0
100
AcDbLine
 62
7
  6
CONTINUOUS
 10
13.8344395468
 20
3.8297240828
 11
13.825665859
 21
3.8306858488
  0
LINE
  5
4E4
100
AcDbEntity
  8
0
100
AcDbLine
 62
3
  6
CONTINUOUS
 10
13.8344395468
 20
3.8306884558
 11
13.825665859
 21
3.8316502217
  0
LINE
  5
4E5
100
AcDbEntity
  8
0
100
AcDbLine
 62
7
  6
CONTINUOUS
 10
13.5977712936
 20
3.9643096654
 11
13.5889976071
 21
3.9652714321
  0
LINE
  5
4E6
100
AcDbEntity
  8
0
100
AcDbLine
 62
3
  6
CONTINUOUS
 10
13.5977712936
 20
3.9652740383
 11
13.5889976071
 21
3.966235805
  0
LINE
  5
4E7
100
AcDbEntity
  8
0
100
AcDbLine
 62
3
  6
CONTINUOUS
 10
13.5818528534
 20
3.9601017133
 11
13.5958833381
 21
3.9581568065
  0
LINE
  5
4E8
100
AcDbEntity
  8
0
100
AcDbLine
 62
3
  6
CONTINUOUS
 10
13.8167441253
 20
3.8244902422
 11
13.8272577211
 21
3.8225239617
  0
LINE
  5
4E9
100
AcDbEntity
  8
0
100
AcDbLine
 62
3
  6
CONTINUOUS
 10
13.706202349
 20
3.9334498277
 11
13.716716024
 21
3.9314835009
  0
LINE
  5
4EA
100
AcDbEntity
  8
0
100
AcDbLine
 62
3
  6
CONTINUOUS
 10
13.5087755688
 20
4.0022919487
 11
13.5192892044
 21
4.0003256453
  0
LINE
  5
4EB
100
AcDbEntity
  8
0
100
AcDbLine
 62
7
  6
CONTINUOUS
 10
13.5229170688
 20
4.0054739901
 11
13.5176602711
 21
4.0064571304
  0
LINE
  5
4EC
100
AcDbEntity
  8
0
100
AcDbLine
 62
3
  6
CONTINUOUS
 10
13.5229170688
 20
4.006438363
 11
13.5176602711
 21
4.0074215034
  0
LINE
  5
4ED
100
AcDbEntity
  8
0
100
AcDbLine
 62
7
  6
CONTINUOUS
 10
13.7133471414
 20
3.9386195228
 11
13.7063503951
 21
3.9406072003
  0
LINE
  5
4EE
100
AcDbEntity
  8
0
100
AcDbLine
 62
3
  6
CONTINUOUS
 10
13.7133471414
 20
3.9395838958
 11
13.7063503951
 21
3.9415715732
  0
LINE
  5
4EF
100
AcDbEntity
  8
0
100
AcDbLine
 62
7
  6
CONTINUOUS
 10
13.825665859
 20
3.8306858488
 11
13.8169291243
 21
3.8336780863
  0
LINE
  5
4F0
100
AcDbEntity
  8
0
100
AcDbLine
 62
3
  6
CONTINUOUS
 10
13.825665859
 20
3.8316502217
 11
13.8169291243
 21
3.8346424592
  0
LINE
  5
4F1
100
AcDbEntity
  8
0
100
AcDbLine
 62
3
  6
CONTINUOUS
 10
13.5000388738
 20
4.0052841632
 11
13.5087755688
 21
4.0022919487
  0
LINE
  5
4F2
100
AcDbEntity
  8
0
100
AcDbLine
 62
7
  6
CONTINUOUS
 10
13.4411401207
 20
4.0526868649
 11
13.4324034258
 21
4.0556790795
  0
LINE
  5
4F3
100
AcDbEntity
  8
0
100
AcDbLine
 62
3
  6
CONTINUOUS
 10
13.4411401207
 20
4.0536512379
 11
13.4324034258
 21
4.0566434524
  0
LINE
  5
4F4
100
AcDbEntity
  8
0
100
AcDbLine
 62
3
  6
CONTINUOUS
 10
13.8062674816
 20
3.8284869937
 11
13.8167441253
 21
3.8244902422
  0
LINE
  5
4F5
100
AcDbEntity
  8
0
100
AcDbLine
 62
7
  6
CONTINUOUS
 10
13.5889976071
 20
3.9652714321
 11
13.5785210034
 21
3.9692681607
  0
LINE
  5
4F6
100
AcDbEntity
  8
0
100
AcDbLine
 62
3
  6
CONTINUOUS
 10
13.5889976071
 20
3.966235805
 11
13.5785210034
 21
3.9702325336
  0
LINE
  5
4F7
100
AcDbEntity
  8
0
100
AcDbLine
 62
7
  6
CONTINUOUS
 10
13.5176602711
 20
4.0064571304
 11
13.5071836674
 21
4.010453859
  0
LINE
  5
4F8
100
AcDbEntity
  8
0
100
AcDbLine
 62
3
  6
CONTINUOUS
 10
13.5176602711
 20
4.0074215034
 11
13.5071836674
 21
4.011418232
  0
LINE
  5
4F9
100
AcDbEntity
  8
0
100
AcDbLine
 62
3
  6
CONTINUOUS
 10
13.4217417831
 20
4.0504879869
 11
13.4322184268
 21
4.0464912354
  0
LINE
  5
4FA
100
AcDbEntity
  8
0
100
AcDbLine
 62
3
  6
CONTINUOUS
 10
13.5696363009
 20
3.9651029789
 11
13.5818528534
 21
3.9601017133
  0
LWPOLYLINE
  5
4FB
100
AcDbEntity
  8
0
100
AcDbPolyline
 62
3
  6
CONTINUOUS
 90
7
 70
0
 10
13.7669456647
 20
3.7547541177
 10
13.8158686827
 20
3.733080913
 10
13.8728406601
 20
3.71945663
 10
13.9339790507
 20
3.714809741
 10
13.9951173743
 20
3.7194569239
 10
14.0520891552
 20
3.7330814808
 10
14.1010118606
 20
3.7547549207
  0
LINE
  5
4FC
100
AcDbEntity
  8
0
100
AcDbLine
 62
3
  6
CONTINUOUS
 10
12.8482598014
 20
4.2851456492
 11
13.7669456647
 21
3.7547541177
  0
LINE
  5
4FD
100
AcDbEntity
  8
0
100
AcDbLine
 62
3
  6
CONTINUOUS
 10
12.972838476
 20
4.3096565689
 11
12.9867579604
 21
4.3016203326
  0
LINE
  5
4FE
100
AcDbEntity
  8
0
100
AcDbLine
 62
3
  6
CONTINUOUS
 10
13.0267764726
 20
4.2785161566
 11
13.0372160847
 21
4.2724889801
  0
LINE
  5
4FF
100
AcDbEntity
  8
0
100
AcDbLine
 62
3
  6
CONTINUOUS
 10
13.0615751762
 20
4.2584255702
 11
13.0754946656
 21
4.250389331
  0
LINE
  5
500
100
AcDbEntity
  8
0
100
AcDbLine
 62
3
  6
CONTINUOUS
 10
13.0998537572
 20
4.2363259211
 11
13.1102933692
 21
4.2302987446
  0
LINE
  5
501
100
AcDbEntity
  8
0
100
AcDbLine
 62
3
  6
CONTINUOUS
 10
13.1242128587
 20
4.2222625054
 11
13.165971307
 21
4.1981537995
  0
LINE
  5
502
100
AcDbEntity
  8
0
100
AcDbLine
 62
3
  6
CONTINUOUS
 10
13.2025099493
 20
4.1770586817
 11
13.2129495614
 21
4.1710315052
  0
LINE
  5
503
100
AcDbEntity
  8
0
100
AcDbLine
 62
3
  6
CONTINUOUS
 10
13.2616677445
 20
4.1429046854
 11
13.2721073565
 21
4.1368775089
  0
LINE
  5
504
100
AcDbEntity
  8
0
100
AcDbLine
 62
3
  6
CONTINUOUS
 10
13.2860268261
 20
4.1288412813
 11
13.2964664381
 21
4.1228141048
  0
LINE
  5
505
100
AcDbEntity
  8
0
100
AcDbLine
 62
3
  6
CONTINUOUS
 10
13.3208255595
 20
4.1087506776
 11
13.3347450291
 21
4.10071445
  0
LINE
  5
506
100
AcDbEntity
  8
0
100
AcDbLine
 62
3
  6
CONTINUOUS
 10
13.3591041106
 20
4.0866510458
 11
13.3695437227
 21
4.0806238693
  0
LINE
  5
507
100
AcDbEntity
  8
0
100
AcDbLine
 62
3
  6
CONTINUOUS
 10
13.4078223136
 20
4.0585242145
 11
13.4217417831
 21
4.0504879869
  0
LINE
  5
508
100
AcDbEntity
  8
0
100
AcDbLine
 62
3
  6
CONTINUOUS
 10
13.4861194043
 20
4.0133203908
 11
13.5000388738
 21
4.0052841632
  0
LINE
  5
509
100
AcDbEntity
  8
0
100
AcDbLine
 62
3
  6
CONTINUOUS
 10
13.6148746067
 20
3.9389852217
 11
13.6253142586
 21
3.9329580222
  0
LINE
  5
50A
100
AcDbEntity
  8
0
100
AcDbLine
 62
3
  6
CONTINUOUS
 10
13.6688126157
 20
3.9078448022
 11
13.6809921366
 21
3.9008131116
  0
LINE
  5
50B
100
AcDbEntity
  8
0
100
AcDbLine
 62
3
  6
CONTINUOUS
 10
13.6949116459
 20
3.8927768609
 11
13.7575493184
 21
3.856613802
  0
LINE
  5
50C
100
AcDbEntity
  8
0
100
AcDbLine
 62
3
  6
CONTINUOUS
 10
13.7993077668
 20
3.832505096
 11
13.8062674816
 21
3.8284869937
  0
LINE
  5
50D
100
AcDbEntity
  8
0
100
AcDbLine
 62
7
  6
CONTINUOUS
 10
13.5071836674
 20
4.010453859
 11
13.4967440553
 21
4.0164810355
  0
LINE
  5
50E
100
AcDbEntity
  8
0
100
AcDbLine
 62
3
  6
CONTINUOUS
 10
13.5071836674
 20
4.011418232
 11
13.4967440553
 21
4.0174454085
  0
LINE
  5
50F
100
AcDbEntity
  8
0
100
AcDbLine
 62
7
  6
CONTINUOUS
 10
13.8169291243
 20
3.8336780863
 11
13.8099694095
 21
3.8376961886
  0
LINE
  5
510
100
AcDbEntity
  8
0
100
AcDbLine
 62
7
  6
CONTINUOUS
 10
13.7673757777
 20
3.862287077
 11
13.7160129007
 21
3.891940777
  0
LINE
  5
511
100
AcDbEntity
  8
0
100
AcDbLine
 62
7
  6
CONTINUOUS
 10
13.4324034258
 20
4.0556790795
 11
13.4184839563
 21
4.0637153071
  0
LINE
  5
512
100
AcDbEntity
  8
0
100
AcDbLine
 62
7
  6
CONTINUOUS
 10
13.1783728784
 20
4.2023403665
 11
13.1453141134
 21
4.2214264215
  0
LINE
  5
513
100
AcDbEntity
  8
0
100
AcDbLine
 62
7
  6
CONTINUOUS
 10
12.9974196031
 20
4.3068114252
 11
12.9835001187
 21
4.3148476615
  0
LINE
  5
514
100
AcDbEntity
  8
0
100
AcDbLine
 62
3
  6
CONTINUOUS
 10
13.8169291243
 20
3.8346424592
 11
13.8099694095
 21
3.8386605615
  0
LINE
  5
515
100
AcDbEntity
  8
0
100
AcDbLine
 62
3
  6
CONTINUOUS
 10
13.7682109611
 20
3.8627692675
 11
13.7160129007
 21
3.89290515
  0
LINE
  5
516
100
AcDbEntity
  8
0
100
AcDbLine
 62
3
  6
CONTINUOUS
 10
13.4324034258
 20
4.0566434524
 11
13.4184839563
 21
4.0646796801
  0
LINE
  5
517
100
AcDbEntity
  8
0
100
AcDbLine
 62
3
  6
CONTINUOUS
 10
13.1783728784
 20
4.2033047394
 11
13.1453141134
 21
4.2223907945
  0
LINE
  5
518
100
AcDbEntity
  8
0
100
AcDbLine
 62
3
  6
CONTINUOUS
 10
12.9974196031
 20
4.3077757982
 11
12.9835001187
 21
4.3158120344
  0
LINE
  5
519
100
AcDbEntity
  8
0
100
AcDbLine
 62
7
  6
CONTINUOUS
 10
13.4895517131
 20
4.0329442708
 11
13.4813066678
 21
4.0377044423
  0
LINE
  5
51A
100
AcDbEntity
  8
0
100
AcDbLine
 62
3
  6
CONTINUOUS
 10
13.4900063313
 20
4.0336461758
 11
13.4813066678
 21
4.0386688152
  0
LINE
  5
51B
100
AcDbEntity
  8
0
100
AcDbLine
 62
3
  6
CONTINUOUS
 10
13.2412325815
 20
4.1793243225
 11
13.2760312951
 21
4.1592337303
  0
LINE
  5
51C
100
AcDbEntity
  8
0
100
AcDbLine
 62
7
  6
CONTINUOUS
 10
13.4156599189
 20
4.0797083621
 11
13.4065634577
 21
4.0849600876
  0
LINE
  5
51D
100
AcDbEntity
  8
0
100
AcDbLine
 62
7
  6
CONTINUOUS
 10
12.980676095
 20
4.3308407086
 11
12.9715796076
 21
4.3360924492
  0
LINE
  5
51E
100
AcDbEntity
  8
0
100
AcDbLine
 62
3
  6
CONTINUOUS
 10
13.4170030697
 20
4.0798972841
 11
13.4065634577
 21
4.0859244605
  0
LINE
  5
51F
100
AcDbEntity
  8
0
100
AcDbLine
 62
3
  6
CONTINUOUS
 10
12.9820192196
 20
4.3310296456
 11
12.9715796076
 21
4.3370568221
  0
LINE
  5
520
100
AcDbEntity
  8
0
100
AcDbLine
 62
3
  6
CONTINUOUS
 10
12.9659157405
 20
4.3157051264
 11
12.972838476
 21
4.3096565689
  0
LINE
  5
521
100
AcDbEntity
  8
0
100
AcDbLine
 62
7
  6
CONTINUOUS
 10
12.9835001187
 20
4.3148476615
 11
12.9783173179
 21
4.3198916897
  0
LINE
  5
522
100
AcDbEntity
  8
0
100
AcDbLine
 62
3
  6
CONTINUOUS
 10
12.9835001187
 20
4.3158120344
 11
12.9783173179
 21
4.3208560627
  0
LINE
  5
523
100
AcDbEntity
  8
0
100
AcDbLine
 62
3
  6
CONTINUOUS
 10
13.0084512964
 20
4.3342356678
 11
13.0136340984
 21
4.3291916388
  0
LINE
  5
524
100
AcDbEntity
  8
0
100
AcDbLine
 62
3
  6
CONTINUOUS
 10
13.0240737104
 20
4.3231644624
 11
13.0292565124
 21
4.3181204334
  0
LINE
  5
525
100
AcDbEntity
  8
0
100
AcDbLine
 62
3
  6
CONTINUOUS
 10
13.8413252772
 20
3.8226094569
 11
13.851912857
 21
3.8247040727
  0
LINE
  5
526
100
AcDbEntity
  8
0
100
AcDbLine
 62
7
  6
CONTINUOUS
 10
13.615392691
 20
3.9664470056
 11
13.5977712936
 21
3.9643096654
  0
LINE
  5
527
100
AcDbEntity
  8
0
100
AcDbLine
 62
3
  6
CONTINUOUS
 10
13.615392691
 20
3.9674113785
 11
13.5977712936
 21
3.9652740383
  0
LINE
  5
528
100
AcDbEntity
  8
0
100
AcDbLine
 62
3
  6
CONTINUOUS
 10
13.716716024
 20
3.9314835009
 11
13.729043591
 21
3.9325735559
  0
LINE
  5
529
100
AcDbEntity
  8
0
100
AcDbLine
 62
7
  6
CONTINUOUS
 10
13.7203809191
 20
3.9386622703
 11
13.7133471414
 21
3.9386195228
  0
LINE
  5
52A
100
AcDbEntity
  8
0
100
AcDbLine
 62
3
  6
CONTINUOUS
 10
13.7203809191
 20
3.9396266432
 11
13.7133471414
 21
3.9395838958
  0
LINE
  5
52B
100
AcDbEntity
  8
0
100
AcDbLine
 62
3
  6
CONTINUOUS
 10
13.5958833381
 20
3.9581568065
 11
13.6064339655
 21
3.958220951
  0
LINE
  5
52C
100
AcDbEntity
  8
0
100
AcDbLine
 62
7
  6
CONTINUOUS
 10
13.5299508477
 20
4.0055167382
 11
13.5229170688
 21
4.0054739901
  0
LINE
  5
52D
100
AcDbEntity
  8
0
100
AcDbLine
 62
3
  6
CONTINUOUS
 10
13.5299508477
 20
4.0064811112
 11
13.5229170688
 21
4.006438363
  0
LINE
  5
52E
100
AcDbEntity
  8
0
100
AcDbLine
 62
7
  6
CONTINUOUS
 10
13.6269054657
 20
4.0193025921
 11
13.6163548389
 21
4.0192384479
  0
LINE
  5
52F
100
AcDbEntity
  8
0
100
AcDbLine
 62
3
  6
CONTINUOUS
 10
13.6269054657
 20
4.020266965
 11
13.6163548389
 21
4.0202028209
  0
LINE
  5
530
100
AcDbEntity
  8
0
100
AcDbLine
 62
7
  6
CONTINUOUS
 10
13.563786698
 20
4.0290699407
 11
13.5567529601
 21
4.0290271702
  0
LINE
  5
531
100
AcDbEntity
  8
0
100
AcDbLine
 62
3
  6
CONTINUOUS
 10
13.563786698
 20
4.0300343136
 11
13.5567529601
 21
4.0299915432
  0
LINE
  5
532
100
AcDbEntity
  8
0
100
AcDbLine
 62
3
  6
CONTINUOUS
 10
13.4427320226
 20
4.0445249549
 11
13.4567995389
 21
4.0446104731
  0
LINE
  5
533
100
AcDbEntity
  8
0
100
AcDbLine
 62
7
  6
CONTINUOUS
 10
13.5503853153
 20
4.0655323266
 11
13.5363177997
 21
4.0654468087
  0
LINE
  5
534
100
AcDbEntity
  8
0
100
AcDbLine
 62
3
  6
CONTINUOUS
 10
13.5503853153
 20
4.0664966995
 11
13.5363177997
 21
4.0664111816
  0
LWPOLYLINE
  5
535
100
AcDbEntity
  8
02___PRT_ALL_AXES
100
AcDbPolyline
 62
3
  6
CONTINUOUS
 90
12
 70
0
 10
13.8517556191
 20
4.0210146099
 10
13.9564602232
 20
4.0181352562
 10
14.0605421615
 20
4.0253202538
 10
14.1611192704
 20
4.0423706407
 10
14.25540644
 20
4.0688142697
 10
14.3407927365
 20
4.1039188825
 10
14.4149137031
 20
4.1467123871
 10
14.4757168343
 20
4.1960097759
 10
14.521518413
 20
4.2504459406
 10
14.5510501341
 20
4.3085134734
 10
14.5634942262
 20
4.3686044092
 10
14.5638928499
 20
4.3815262898
  0
LINE
  5
536
100
AcDbEntity
  8
0
100
AcDbLine
 62
3
  6
CONTINUOUS
 10
13.5531250566
 20
4.0238788488
 11
13.565415632
 21
4.0229384559
  0
LINE
  5
537
100
AcDbEntity
  8
0
100
AcDbLine
 62
3
  6
CONTINUOUS
 10
13.5192892044
 20
4.0003256453
 11
13.5280628916
 21
3.999363879
  0
LINE
  5
538
100
AcDbEntity
  8
0
100
AcDbLine
 62
3
  6
CONTINUOUS
 10
13.6250175108
 20
4.0131497336
 11
13.6337911973
 21
4.0121879669
  0
LINE
  5
539
100
AcDbEntity
  8
0
100
AcDbLine
 62
7
  6
CONTINUOUS
 10
13.4499138085
 20
4.051725099
 11
13.4411401207
 21
4.0526868649
  0
LINE
  5
53A
100
AcDbEntity
  8
0
100
AcDbLine
 62
3
  6
CONTINUOUS
 10
13.4499138085
 20
4.0526894719
 11
13.4411401207
 21
4.0536512379
  0
LINE
  5
53B
100
AcDbEntity
  8
0
100
AcDbLine
 62
3
  6
CONTINUOUS
 10
13.5449804715
 20
4.0593580943
 11
13.553754158
 21
4.0583963277
  0
LINE
  5
53C
100
AcDbEntity
  8
0
100
AcDbLine
 62
3
  6
CONTINUOUS
 10
13.4683862981
 20
4.1015269561
 11
13.4771599846
 21
4.1005651894
  0
LINE
  5
53D
100
AcDbEntity
  8
0
100
AcDbLine
 62
7
  6
CONTINUOUS
 10
13.6409359499
 20
4.0173576851
 11
13.6269054657
 21
4.0193025921
  0
LINE
  5
53E
100
AcDbEntity
  8
0
100
AcDbLine
 62
3
  6
CONTINUOUS
 10
13.6409359499
 20
4.018322058
 11
13.6269054657
 21
4.020266965
  0
LINE
  5
53F
100
AcDbEntity
  8
0
100
AcDbLine
 62
3
  6
CONTINUOUS
 10
13.4322184268
 20
4.0464912354
 11
13.4427320226
 21
4.0445249549
  0
LINE
  5
540
100
AcDbEntity
  8
0
100
AcDbLine
 62
7
  6
CONTINUOUS
 10
13.5608989106
 20
4.0635660459
 11
13.5503853153
 21
4.0655323266
  0
LINE
  5
541
100
AcDbEntity
  8
0
100
AcDbLine
 62
3
  6
CONTINUOUS
 10
13.5608989106
 20
4.0645304188
 11
13.5503853153
 21
4.0664966995
  0
LINE
  5
542
100
AcDbEntity
  8
0
100
AcDbLine
 62
7
  6
CONTINUOUS
 10
13.4860817172
 20
4.1067607954
 11
13.4755680821
 21
4.1087270991
  0
LINE
  5
543
100
AcDbEntity
  8
0
100
AcDbLine
 62
3
  6
CONTINUOUS
 10
13.4860817172
 20
4.1077251683
 11
13.4755680821
 21
4.1096914721
  0
LINE
  5
544
100
AcDbEntity
  8
0
100
AcDbLine
 62
3
  6
CONTINUOUS
 10
13.2207974185
 20
4.2157439595
 11
13.2260542361
 21
4.2147608077
  0
LINE
  5
545
100
AcDbEntity
  8
0
100
AcDbLine
 62
7
  6
CONTINUOUS
 10
13.5567529601
 20
4.0290271702
 11
13.5427594676
 21
4.0330025251
  0
LINE
  5
546
100
AcDbEntity
  8
0
100
AcDbLine
 62
3
  6
CONTINUOUS
 10
13.5567529601
 20
4.0299915432
 11
13.5427594676
 21
4.0339668981
  0
LINE
  5
547
100
AcDbEntity
  8
0
100
AcDbLine
 62
3
  6
CONTINUOUS
 10
13.4771599846
 20
4.1005651894
 11
13.4841567309
 21
4.098577512
  0
LINE
  5
548
100
AcDbEntity
  8
0
100
AcDbLine
 62
7
  6
CONTINUOUS
 10
13.1853696247
 20
4.200352689
 11
13.1783728784
 21
4.2023403665
  0
LINE
  5
549
100
AcDbEntity
  8
0
100
AcDbLine
 62
3
  6
CONTINUOUS
 10
13.1853696247
 20
4.201317062
 11
13.1783728784
 21
4.2033047394
  0
LINE
  5
54A
100
AcDbEntity
  8
0
100
AcDbLine
 62
7
  6
CONTINUOUS
 10
13.2226853735
 20
4.221896818
 11
13.2156886272
 21
4.2238844955
  0
LINE
  5
54B
100
AcDbEntity
  8
0
100
AcDbLine
 62
3
  6
CONTINUOUS
 10
13.2226853735
 20
4.222861191
 11
13.2156886272
 21
4.2248488684
  0
LINE
  5
54C
100
AcDbEntity
  8
0
100
AcDbLine
 62
7
  6
CONTINUOUS
 10
13.4948183723
 20
4.1037686039
 11
13.4860817172
 21
4.1067607954
  0
LINE
  5
54D
100
AcDbEntity
  8
0
100
AcDbLine
 62
3
  6
CONTINUOUS
 10
13.4948183723
 20
4.1047329768
 11
13.4860817172
 21
4.1077251683
  0
LINE
  5
54E
100
AcDbEntity
  8
0
100
AcDbLine
 62
7
  6
CONTINUOUS
 10
13.0061562856
 20
4.3038192179
 11
12.9974196031
 21
4.3068114252
  0
LINE
  5
54F
100
AcDbEntity
  8
0
100
AcDbLine
 62
3
  6
CONTINUOUS
 10
13.0061562856
 20
4.3047835908
 11
12.9974196031
 21
4.3077757982
  0
LINE
  5
550
100
AcDbEntity
  8
0
100
AcDbLine
 62
7
  6
CONTINUOUS
 10
13.0598345496
 20
4.3549009496
 11
13.0510978671
 21
4.357893157
  0
LINE
  5
551
100
AcDbEntity
  8
0
100
AcDbLine
 62
3
  6
CONTINUOUS
 10
13.0598345496
 20
4.3558653226
 11
13.0510978671
 21
4.3588575299
  0
LINE
  5
552
100
AcDbEntity
  8
0
100
AcDbLine
 62
3
  6
CONTINUOUS
 10
13.6337911973
 20
4.0121879669
 11
13.644267801
 21
4.0081912383
  0
LINE
  5
553
100
AcDbEntity
  8
0
100
AcDbLine
 62
3
  6
CONTINUOUS
 10
13.165971307
 20
4.1981537995
 11
13.1764479109
 21
4.1941570709
  0
LINE
  5
554
100
AcDbEntity
  8
0
100
AcDbLine
 62
3
  6
CONTINUOUS
 10
13.553754158
 20
4.0583963277
 11
13.5642307617
 21
4.0543995991
  0
LINE
  5
555
100
AcDbEntity
  8
0
100
AcDbLine
 62
3
  6
CONTINUOUS
 10
12.9867579604
 20
4.3016203326
 11
12.9972345767
 21
4.2976235969
  0
LINE
  5
556
100
AcDbEntity
  8
0
100
AcDbLine
 62
7
  6
CONTINUOUS
 10
13.6531525022
 20
4.0123564194
 11
13.6409359499
 21
4.0173576851
  0
LINE
  5
557
100
AcDbEntity
  8
0
100
AcDbLine
 62
3
  6
CONTINUOUS
 10
13.6531525022
 20
4.0133207923
 11
13.6409359499
 21
4.018322058
  0
LINE
  5
558
100
AcDbEntity
  8
0
100
AcDbLine
 62
7
  6
CONTINUOUS
 10
13.5748554116
 20
4.0575602431
 11
13.5608989106
 21
4.0635660459
  0
LINE
  5
559
100
AcDbEntity
  8
0
100
AcDbLine
 62
3
  6
CONTINUOUS
 10
13.5748554116
 20
4.058524616
 11
13.5608989106
 21
4.0645304188
  0
LINE
  5
55A
100
AcDbEntity
  8
0
100
AcDbLine
 62
7
  6
CONTINUOUS
 10
13.8099219052
 20
3.8582416612
 11
13.7998998741
 21
3.8640277527
  0
LINE
  5
55B
100
AcDbEntity
  8
0
100
AcDbLine
 62
7
  6
CONTINUOUS
 10
13.2813991074
 20
4.1633775377
 11
13.2500802712
 21
4.1814590672
  0
LINE
  5
55C
100
AcDbEntity
  8
0
100
AcDbLine
 62
3
  6
CONTINUOUS
 10
13.8103394862
 20
3.8589649491
 11
13.7998998741
 21
3.8649921256
  0
LINE
  5
55D
100
AcDbEntity
  8
0
100
AcDbLine
 62
3
  6
CONTINUOUS
 10
13.2813991074
 20
4.1643419106
 11
13.2500802712
 21
4.1824234401
  0
LINE
  5
55E
100
AcDbEntity
  8
0
100
AcDbLine
 62
3
  6
CONTINUOUS
 10
13.0136340984
 20
4.3291916388
 11
13.0240737104
 21
4.3231644624
  0
LINE
  5
55F
100
AcDbEntity
  8
0
100
AcDbLine
 62
3
  6
CONTINUOUS
 10
13.1719682208
 20
4.2377794587
 11
13.2050269857
 21
4.2186934036
  0
LINE
  5
560
100
AcDbEntity
  8
0
100
AcDbLine
 62
3
  6
CONTINUOUS
 10
13.4486179211
 20
4.0780592931
 11
13.4590575332
 21
4.0720321166
  0
LINE
  5
561
100
AcDbEntity
  8
0
100
AcDbLine
 62
3
  6
CONTINUOUS
 10
13.6626300086
 20
3.954502152
 11
13.6922088564
 21
3.9374251826
  0
LINE
  5
562
100
AcDbEntity
  8
0
100
AcDbLine
 62
3
  6
CONTINUOUS
 10
13.5286919519
 20
4.0338813802
 11
13.5356517066
 21
4.0298632548
  0
LINE
  5
563
100
AcDbEntity
  8
0
100
AcDbLine
 62
7
  6
CONTINUOUS
 10
13.5427594676
 20
4.0330025251
 11
13.5357997129
 21
4.0370206505
  0
LINE
  5
564
100
AcDbEntity
  8
0
100
AcDbLine
 62
3
  6
CONTINUOUS
 10
13.5427594676
 20
4.0339668981
 11
13.5357997129
 21
4.0379850234
  0
LINE
  5
565
100
AcDbEntity
  8
0
100
AcDbLine
 62
7
  6
CONTINUOUS
 10
13.7063503951
 20
3.9406072003
 11
13.6732916501
 21
3.9596932438
  0
LINE
  5
566
100
AcDbEntity
  8
0
100
AcDbLine
 62
7
  6
CONTINUOUS
 10
13.4697191746
 20
4.0772232085
 11
13.4592795625
 21
4.083250385
  0
LINE
  5
567
100
AcDbEntity
  8
0
100
AcDbLine
 62
7
  6
CONTINUOUS
 10
13.2156886272
 20
4.2238844955
 11
13.1826298622
 21
4.2429705505
  0
LINE
  5
568
100
AcDbEntity
  8
0
100
AcDbLine
 62
7
  6
CONTINUOUS
 10
13.0347353519
 20
4.3283555542
 11
13.0242957398
 21
4.3343827307
  0
LINE
  5
569
100
AcDbEntity
  8
0
100
AcDbLine
 62
3
  6
CONTINUOUS
 10
13.7063503951
 20
3.9415715732
 11
13.6732916501
 21
3.9606576168
  0
LINE
  5
56A
100
AcDbEntity
  8
0
100
AcDbLine
 62
3
  6
CONTINUOUS
 10
13.4697191746
 20
4.0781875814
 11
13.4592795625
 21
4.0842147579
  0
LINE
  5
56B
100
AcDbEntity
  8
0
100
AcDbLine
 62
3
  6
CONTINUOUS
 10
13.2156886272
 20
4.2248488684
 11
13.1826298622
 21
4.2439349235
  0
LINE
  5
56C
100
AcDbEntity
  8
0
100
AcDbLine
 62
3
  6
CONTINUOUS
 10
13.0347353519
 20
4.3293199272
 11
13.0242957398
 21
4.3353471037
  0
LINE
  5
56D
100
AcDbEntity
  8
0
100
AcDbLine
 62
3
  6
CONTINUOUS
 10
13.0611674286
 20
4.3325259522
 11
13.0716070407
 21
4.3264987757
  0
LINE
  5
56E
100
AcDbEntity
  8
0
100
AcDbLine
 62
3
  6
CONTINUOUS
 10
13.4961512538
 20
4.081393605
 11
13.5065908659
 21
4.0753664285
  0
LINE
  5
56F
100
AcDbEntity
  8
0
100
AcDbLine
 62
3
  6
CONTINUOUS
 10
13.5274700901
 20
4.0633120755
 11
13.5361697934
 21
4.0582894131
  0
LINE
  5
570
100
AcDbEntity
  8
0
100
AcDbLine
 62
3
  6
CONTINUOUS
 10
13.0491729081
 20
4.3497098578
 11
13.0596125202
 21
4.3436826813
  0
LINE
  5
571
100
AcDbEntity
  8
0
100
AcDbLine
 62
3
  6
CONTINUOUS
 10
13.2075070306
 20
4.2582976776
 11
13.2405657955
 21
4.2392116225
  0
LINE
  5
572
100
AcDbEntity
  8
0
100
AcDbLine
 62
3
  6
CONTINUOUS
 10
13.4841567309
 20
4.098577512
 11
13.4945963429
 21
4.0925503355
  0
LINE
  5
573
100
AcDbEntity
  8
0
100
AcDbLine
 62
3
  6
CONTINUOUS
 10
13.5642307617
 20
4.0543995991
 11
13.5711905164
 21
4.0503814738
  0
LINE
  5
574
100
AcDbEntity
  8
0
100
AcDbLine
 62
3
  6
CONTINUOUS
 10
13.6999457586
 20
3.9760462817
 11
13.7330045037
 21
3.9569602381
  0
LINE
  5
575
100
AcDbEntity
  8
0
100
AcDbLine
 62
7
  6
CONTINUOUS
 10
13.9167875181
 20
3.8601501153
 11
13.9071830894
 21
3.8656951094
  0
LINE
  5
576
100
AcDbEntity
  8
0
100
AcDbLine
 62
7
  6
CONTINUOUS
 10
13.7880322759
 20
3.9344853074
 11
13.7784278472
 21
3.9400303015
  0
LINE
  5
577
100
AcDbEntity
  8
0
100
AcDbLine
 62
7
  6
CONTINUOUS
 10
13.7401492961
 20
3.9621299333
 11
13.6983908079
 21
3.9862386622
  0
LINE
  5
578
100
AcDbEntity
  8
0
100
AcDbLine
 62
7
  6
CONTINUOUS
 10
13.578335269
 20
4.0555511919
 11
13.5748554116
 21
4.0575602431
  0
LINE
  5
579
100
AcDbEntity
  8
0
100
AcDbLine
 62
7
  6
CONTINUOUS
 10
13.5035180756
 20
4.0987459415
 11
13.4948183723
 21
4.1037686039
  0
LINE
  5
57A
100
AcDbEntity
  8
0
100
AcDbLine
 62
7
  6
CONTINUOUS
 10
13.4522247406
 20
4.1283594923
 11
13.4374005058
 21
4.1369180746
  0
LINE
  5
57B
100
AcDbEntity
  8
0
100
AcDbLine
 62
7
  6
CONTINUOUS
 10
13.3847848644
 20
4.1672950421
 11
13.3695430273
 21
4.1760947218
  0
LINE
  5
57C
100
AcDbEntity
  8
0
100
AcDbLine
 62
7
  6
CONTINUOUS
 10
13.3273670179
 20
4.2004445013
 11
13.3138651095
 21
4.2082396554
  0
LINE
  5
57D
100
AcDbEntity
  8
0
100
AcDbLine
 62
7
  6
CONTINUOUS
 10
13.2494875082
 20
4.24540724
 11
13.2077290599
 21
4.269515946
  0
LINE
  5
57E
100
AcDbEntity
  8
0
100
AcDbLine
 62
7
  6
CONTINUOUS
 10
13.1929743871
 20
4.2780343676
 11
13.1781501524
 21
4.2865929499
  0
LINE
  5
57F
100
AcDbEntity
  8
0
100
AcDbLine
 62
7
  6
CONTINUOUS
 10
13.1255345109
 20
4.3169699174
 11
13.1102926738
 21
4.3257695971
  0
LINE
  5
580
100
AcDbEntity
  8
0
100
AcDbLine
 62
7
  6
CONTINUOUS
 10
13.0685342255
 20
4.349878303
 11
13.0598345496
 21
4.3549009496
  0
LINE
  5
581
100
AcDbEntity
  8
0
100
AcDbLine
 62
3
  6
CONTINUOUS
 10
13.9176227015
 20
3.8606323058
 11
13.9071830894
 21
3.8666594823
  0
LINE
  5
582
100
AcDbEntity
  8
0
100
AcDbLine
 62
3
  6
CONTINUOUS
 10
13.7888674593
 20
3.9349674979
 11
13.7784278472
 21
3.9409946744
  0
LINE
  5
583
100
AcDbEntity
  8
0
100
AcDbLine
 62
3
  6
CONTINUOUS
 10
13.7401492961
 20
3.9630943062
 11
13.6983908079
 21
3.9872030352
  0
LINE
  5
584
100
AcDbEntity
  8
0
100
AcDbLine
 62
3
  6
CONTINUOUS
 10
13.578335269
 20
4.0565155649
 11
13.5748554116
 21
4.058524616
  0
LINE
  5
585
100
AcDbEntity
  8
0
100
AcDbLine
 62
3
  6
CONTINUOUS
 10
13.5035180756
 20
4.0997103144
 11
13.4948183723
 21
4.1047329768
  0
LINE
  5
586
100
AcDbEntity
  8
0
100
AcDbLine
 62
3
  6
CONTINUOUS
 10
13.453059924
 20
4.1288416828
 11
13.4374005058
 21
4.1378824475
  0
LINE
  5
587
100
AcDbEntity
  8
0
100
AcDbLine
 62
3
  6
CONTINUOUS
 10
13.3852024454
 20
4.16801833
 11
13.3695430273
 21
4.1770590947
  0
LINE
  5
588
100
AcDbEntity
  8
0
100
AcDbLine
 62
3
  6
CONTINUOUS
 10
13.3277845989
 20
4.2011677892
 11
13.3138651095
 21
4.2092040284
  0
LINE
  5
589
100
AcDbEntity
  8
0
100
AcDbLine
 62
3
  6
CONTINUOUS
 10
13.2494875082
 20
4.2463716129
 11
13.2077290599
 21
4.2704803189
  0
LINE
  5
58A
100
AcDbEntity
  8
0
100
AcDbLine
 62
3
  6
CONTINUOUS
 10
13.1938095705
 20
4.2785165581
 11
13.1781501524
 21
4.2875573228
  0
LINE
  5
58B
100
AcDbEntity
  8
0
100
AcDbLine
 62
3
  6
CONTINUOUS
 10
13.1259520919
 20
4.3176932053
 11
13.1102926738
 21
4.32673397
  0
LINE
  5
58C
100
AcDbEntity
  8
0
100
AcDbLine
 62
3
  6
CONTINUOUS
 10
13.0685342255
 20
4.350842676
 11
13.0598345496
 21
4.3558653226
  0
LINE
  5
58D
100
AcDbEntity
  8
0
100
AcDbLine
 62
7
  6
CONTINUOUS
 10
13.5887378894
 20
4.0474935675
 11
13.578335269
 21
4.0555511919
  0
LINE
  5
58E
100
AcDbEntity
  8
0
100
AcDbLine
 62
3
  6
CONTINUOUS
 10
13.5887378894
 20
4.0484579405
 11
13.578335269
 21
4.0565155649
  0
LINE
  5
58F
100
AcDbEntity
  8
0
100
AcDbLine
 62
3
  6
CONTINUOUS
 10
13.5609736292
 20
3.9721560663
 11
13.5696363009
 21
3.9651029789
  0
LINE
  5
590
100
AcDbEntity
  8
0
100
AcDbLine
 62
3
  6
CONTINUOUS
 10
13.5356517066
 20
4.0298632548
 11
13.5443143785
 21
4.0228101676
  0
LINE
  5
591
100
AcDbEntity
  8
0
100
AcDbLine
 62
7
  6
CONTINUOUS
 10
13.661815174
 20
4.0053033321
 11
13.6531525022
 21
4.0123564194
  0
LINE
  5
592
100
AcDbEntity
  8
0
100
AcDbLine
 62
3
  6
CONTINUOUS
 10
13.661815174
 20
4.006267705
 11
13.6531525022
 21
4.0133207923
  0
LINE
  5
593
100
AcDbEntity
  8
0
100
AcDbLine
 62
7
  6
CONTINUOUS
 10
13.0416580875
 20
4.3223069968
 11
13.0347353519
 21
4.3283555542
  0
LINE
  5
594
100
AcDbEntity
  8
0
100
AcDbLine
 62
3
  6
CONTINUOUS
 10
13.0416580875
 20
4.3232713698
 11
13.0347353519
 21
4.3293199272
  0
LINE
  5
595
100
AcDbEntity
  8
0
100
AcDbLine
 62
7
  6
CONTINUOUS
 10
13.0754569636
 20
4.3438297442
 11
13.0685342255
 21
4.349878303
  0
LINE
  5
596
100
AcDbEntity
  8
0
100
AcDbLine
 62
3
  6
CONTINUOUS
 10
13.0754569636
 20
4.3447941171
 11
13.0685342255
 21
4.350842676
  0
LINE
  5
597
100
AcDbEntity
  8
0
100
AcDbLine
 62
3
  6
CONTINUOUS
 10
13.4008995906
 20
4.0645727648
 11
13.4078223136
 21
4.0585242145
  0
LINE
  5
598
100
AcDbEntity
  8
0
100
AcDbLine
 62
7
  6
CONTINUOUS
 10
13.4967440553
 20
4.0164810355
 11
13.4898212923
 21
4.0225296087
  0
LINE
  5
599
100
AcDbEntity
  8
0
100
AcDbLine
 62
3
  6
CONTINUOUS
 10
13.4967440553
 20
4.0174454085
 11
13.4898212923
 21
4.0234939817
  0
LINE
  5
59A
100
AcDbEntity
  8
0
100
AcDbLine
 62
7
  6
CONTINUOUS
 10
13.2564102315
 20
4.2393586898
 11
13.2494875082
 21
4.24540724
  0
LINE
  5
59B
100
AcDbEntity
  8
0
100
AcDbLine
 62
3
  6
CONTINUOUS
 10
13.2564102315
 20
4.2403230627
 11
13.2494875082
 21
4.2463716129
  0
LINE
  5
59C
100
AcDbEntity
  8
0
100
AcDbLine
 62
7
  6
CONTINUOUS
 10
13.5785210034
 20
3.9692681607
 11
13.5715982802
 21
3.9753167109
  0
LINE
  5
59D
100
AcDbEntity
  8
0
100
AcDbLine
 62
3
  6
CONTINUOUS
 10
13.5785210034
 20
3.9702325336
 11
13.5715982802
 21
3.9762810838
  0
LINE
  5
59E
100
AcDbEntity
  8
0
100
AcDbLine
 62
7
  6
CONTINUOUS
 10
13.4766419377
 20
4.0711746353
 11
13.4697191746
 21
4.0772232085
  0
LINE
  5
59F
100
AcDbEntity
  8
0
100
AcDbLine
 62
3
  6
CONTINUOUS
 10
13.4766419377
 20
4.0721390082
 11
13.4697191746
 21
4.0781875814
  0
LINE
  5
5A0
100
AcDbEntity
  8
0
100
AcDbLine
 62
3
  6
CONTINUOUS
 10
13.7923850039
 20
3.8385536693
 11
13.7993077668
 21
3.832505096
  0
LINE
  5
5A1
100
AcDbEntity
  8
0
100
AcDbLine
 62
7
  6
CONTINUOUS
 10
13.5104407988
 20
4.0926973913
 11
13.5035180756
 21
4.0987459415
  0
LINE
  5
5A2
100
AcDbEntity
  8
0
100
AcDbLine
 62
3
  6
CONTINUOUS
 10
13.5104407988
 20
4.0936617642
 11
13.5035180756
 21
4.0997103144
  0
LINE
  5
5A3
100
AcDbEntity
  8
0
100
AcDbLine
 62
3
  6
CONTINUOUS
 10
13.5711905164
 20
4.0503814738
 11
13.5781132396
 21
4.0443329235
  0
LINE
  5
5A4
100
AcDbEntity
  8
0
100
AcDbLine
 62
3
  6
CONTINUOUS
 10
13.644267801
 20
4.0081912383
 11
13.6511905242
 21
4.0021426881
  0
LINE
  5
5A5
100
AcDbEntity
  8
0
100
AcDbLine
 62
7
  6
CONTINUOUS
 10
13.4184839563
 20
4.0637153071
 11
13.4133011419
 21
4.0687593433
  0
LINE
  5
5A6
100
AcDbEntity
  8
0
100
AcDbLine
 62
3
  6
CONTINUOUS
 10
13.4184839563
 20
4.0646796801
 11
13.4133011419
 21
4.0697237162
  0
LINE
  5
5A7
100
AcDbEntity
  8
0
100
AcDbLine
 62
3
  6
CONTINUOUS
 10
13.48093659
 20
4.018364427
 11
13.4861194043
 21
4.0133203908
  0
LINE
  5
5A8
100
AcDbEntity
  8
0
100
AcDbLine
 62
3
  6
CONTINUOUS
 10
13.4434351465
 20
4.0831033062
 11
13.4486179211
 21
4.0780592931
  0
LINE
  5
5A9
100
AcDbEntity
  8
0
100
AcDbLine
 62
3
  6
CONTINUOUS
 10
13.4590575332
 20
4.0720321166
 11
13.4642403476
 21
4.0669880805
  0
LINE
  5
5AA
100
AcDbEntity
  8
0
100
AcDbLine
 62
7
  6
CONTINUOUS
 10
13.0242957398
 20
4.3343827307
 11
13.020852874
 21
4.3384222298
  0
LINE
  5
5AB
100
AcDbEntity
  8
0
100
AcDbLine
 62
3
  6
CONTINUOUS
 10
13.0242957398
 20
4.3353471037
 11
13.020852874
 21
4.3393866027
  0
LINE
  5
5AC
100
AcDbEntity
  8
0
100
AcDbLine
 62
3
  6
CONTINUOUS
 10
13.0596125202
 20
4.3436826813
 11
13.0630553835
 21
4.3396431837
  0
LINE
  5
5AD
100
AcDbEntity
  8
0
100
AcDbLine
 62
3
  6
CONTINUOUS
 10
13.2050269857
 20
4.2186934036
 11
13.2084698515
 21
4.2146539046
  0
LINE
  5
5AE
100
AcDbEntity
  8
0
100
AcDbLine
 62
3
  6
CONTINUOUS
 10
13.2405657955
 20
4.2392116225
 11
13.2440086613
 21
4.2351721235
  0
LINE
  5
5AF
100
AcDbEntity
  8
0
100
AcDbLine
 62
3
  6
CONTINUOUS
 10
13.0050454359
 20
4.3403056068
 11
13.0084512964
 21
4.3342356678
  0
LINE
  5
5B0
100
AcDbEntity
  8
0
100
AcDbLine
 62
3
  6
CONTINUOUS
 10
13.0450639468
 20
4.3172014315
 11
13.0416580875
 21
4.3232713698
  0
LINE
  5
5B1
100
AcDbEntity
  8
0
100
AcDbLine
 62
3
  6
CONTINUOUS
 10
12.9625468851
 20
4.323805506
 11
12.9659157405
 21
4.3157051264
  0
LWPOLYLINE
  5
5B2
100
AcDbEntity
  8
0
100
AcDbPolyline
 62
7
  6
CONTINUOUS
 90
4
 70
0
 10
12.7790717314
 20
4.2980022821
 10
12.7871210034
 20
4.2627039977
 10
12.8107197656
 20
4.229811795
 10
12.8482598014
 20
4.2015666616
  0
LWPOLYLINE
  5
5B3
100
AcDbEntity
  8
0
100
AcDbPolyline
 62
3
  6
CONTINUOUS
 90
4
 70
0
 10
12.7790717314
 20
4.3815812696
 10
12.7871210034
 20
4.3462829853
 10
12.8107197656
 20
4.3133907825
 10
12.8482598014
 20
4.2851456492
  0
LINE
  5
5B4
100
AcDbEntity
  8
0
100
AcDbLine
 62
3
  6
CONTINUOUS
 10
13.6064339655
 20
3.958220951
 11
13.6170216249
 21
3.9603155208
  0
LINE
  5
5B5
100
AcDbEntity
  8
0
100
AcDbLine
 62
7
  6
CONTINUOUS
 10
13.6163548389
 20
4.0192384479
 11
13.6057671807
 21
4.0171438789
  0
LINE
  5
5B6
100
AcDbEntity
  8
0
100
AcDbLine
 62
3
  6
CONTINUOUS
 10
13.6163548389
 20
4.0202028209
 11
13.6057671807
 21
4.0181082518
  0
LINE
  5
5B7
100
AcDbEntity
  8
0
100
AcDbLine
 62
7
  6
CONTINUOUS
 10
13.535244637
 20
4.0065640457
 11
13.5299508477
 21
4.0055167382
  0
LINE
  5
5B8
100
AcDbEntity
  8
0
100
AcDbLine
 62
3
  6
CONTINUOUS
 10
13.535244637
 20
4.0075284187
 11
13.5299508477
 21
4.0064811112
  0
LINE
  5
5B9
100
AcDbEntity
  8
0
100
AcDbLine
 62
7
  6
CONTINUOUS
 10
13.5743743562
 20
4.0311645097
 11
13.563786698
 21
4.0290699407
  0
LINE
  5
5BA
100
AcDbEntity
  8
0
100
AcDbLine
 62
3
  6
CONTINUOUS
 10
13.5743743562
 20
4.0321288827
 11
13.563786698
 21
4.0300343136
  0
LINE
  5
5BB
100
AcDbEntity
  8
0
100
AcDbLine
 62
3
  6
CONTINUOUS
 10
13.4567995389
 20
4.0446104731
 11
13.4673871585
 21
4.0467050659
  0
LINE
  5
5BC
100
AcDbEntity
  8
0
100
AcDbLine
 62
3
  6
CONTINUOUS
 10
13.5280628916
 20
3.999363879
 11
13.5368735697
 21
4.0004325602
  0
LINE
  5
5BD
100
AcDbEntity
  8
0
100
AcDbLine
 62
3
  6
CONTINUOUS
 10
13.6073961097
 20
4.0110123912
 11
13.6250175108
 21
4.0131497336
  0
LINE
  5
5BE
100
AcDbEntity
  8
0
100
AcDbLine
 62
3
  6
CONTINUOUS
 10
13.565415632
 20
4.0229384559
 11
13.5742263101
 21
4.0240071371
  0
LINE
  5
5BF
100
AcDbEntity
  8
0
100
AcDbLine
 62
3
  6
CONTINUOUS
 10
13.5361697934
 20
4.0582894131
 11
13.5449804715
 21
4.0593580943
  0
LINE
  5
5C0
100
AcDbEntity
  8
0
100
AcDbLine
 62
7
  6
CONTINUOUS
 10
13.4587244866
 20
4.0527937803
 11
13.4499138085
 21
4.051725099
  0
LINE
  5
5C1
100
AcDbEntity
  8
0
100
AcDbLine
 62
3
  6
CONTINUOUS
 10
13.4587244866
 20
4.0537581532
 11
13.4499138085
 21
4.0526894719
  0
LINE
  5
5C2
100
AcDbEntity
  8
0
100
AcDbLine
 62
7
  6
CONTINUOUS
 10
13.4755680821
 20
4.1087270991
 11
13.4615005665
 21
4.1086415812
  0
LINE
  5
5C3
100
AcDbEntity
  8
0
100
AcDbLine
 62
3
  6
CONTINUOUS
 10
13.4755680821
 20
4.1096914721
 11
13.4615005665
 21
4.1096059542
  0
LINE
  5
5C4
100
AcDbEntity
  8
0
100
AcDbLine
 62
7
  6
CONTINUOUS
 10
13.1924033837
 20
4.2003954487
 11
13.1853696247
 21
4.200352689
  0
LINE
  5
5C5
100
AcDbEntity
  8
0
100
AcDbLine
 62
3
  6
CONTINUOUS
 10
13.1924033837
 20
4.2013598216
 11
13.1853696247
 21
4.201317062
  0
LINE
  5
5C6
100
AcDbEntity
  8
0
100
AcDbLine
 62
7
  6
CONTINUOUS
 10
13.2297191313
 20
4.221939577
 11
13.2226853735
 21
4.221896818
  0
LINE
  5
5C7
100
AcDbEntity
  8
0
100
AcDbLine
 62
3
  6
CONTINUOUS
 10
13.2297191313
 20
4.2229039499
 11
13.2226853735
 21
4.222861191
  0
LWPOLYLINE
  5
5C8
100
AcDbEntity
  8
02___PRT_ALL_AXES
100
AcDbPolyline
 62
7
  6
CONTINUOUS
 90
6
 70
0
 10
13.8877262668
 20
4.0951845049
 10
13.8545091793
 20
4.095377535
 10
13.8221773065
 20
4.090975451
 10
13.7926096593
 20
4.0822340862
 10
13.767524602
 20
4.0696614568
 10
13.7534827821
 20
4.0581657693
  0
LWPOLYLINE
  5
5C9
100
AcDbEntity
  8
02___PRT_ALL_AXES
100
AcDbPolyline
 62
3
  6
CONTINUOUS
 90
8
 70
0
 10
13.8877262668
 20
4.1787634924
 10
13.8545091793
 20
4.1789565226
 10
13.8221773065
 20
4.1745544386
 10
13.7926096593
 20
4.1658130738
 10
13.767524602
 20
4.1532404443
 10
13.7483799869
 20
4.1375672259
 10
13.7362884295
 20
4.1197042888
 10
13.7319459462
 20
4.0998958876
  0
LWPOLYLINE
  5
5CA
100
AcDbEntity
  8
02___PRT_ALL_AXES
100
AcDbPolyline
 62
7
  6
CONTINUOUS
 90
10
 70
0
 10
13.8877262668
 20
4.0951845049
 10
13.959720664
 20
4.0939752487
 10
14.030651251
 20
4.1011962274
 10
14.0975872643
 20
4.116549079
 10
14.1577629909
 20
4.1393994429
 10
14.2086920448
 20
4.1688031703
 10
14.2482701007
 20
4.2035453359
 10
14.2748618425
 20
4.2421904365
 10
14.2873685327
 20
4.2831417047
 10
14.2882965033
 20
4.2979151378
  0
LWPOLYLINE
  5
5CB
100
AcDbEntity
  8
02___PRT_ALL_AXES
100
AcDbPolyline
 62
3
  6
CONTINUOUS
 90
10
 70
0
 10
13.8877262668
 20
4.1787634924
 10
13.959720664
 20
4.1775542363
 10
14.030651251
 20
4.184775215
 10
14.0975872643
 20
4.2001280666
 10
14.1577629909
 20
4.2229784305
 10
14.2086920448
 20
4.2523821579
 10
14.2482701007
 20
4.2871243235
 10
14.2748618425
 20
4.3257694241
 10
14.2873685327
 20
4.3667206923
 10
14.2882965033
 20
4.3814941254
  0
LINE
  5
5CC
100
AcDbEntity
  8
0
100
AcDbLine
 62
3
  6
CONTINUOUS
 10
13.1764479109
 20
4.1941570709
 11
13.1887384867
 21
4.1932166783
  0
LINE
  5
5CD
100
AcDbEntity
  8
0
100
AcDbLine
 62
7
  6
CONTINUOUS
 10
13.0149299733
 20
4.302857452
 11
13.0061562856
 21
4.3038192179
  0
LINE
  5
5CE
100
AcDbEntity
  8
0
100
AcDbLine
 62
3
  6
CONTINUOUS
 10
13.0149299733
 20
4.3038218249
 11
13.0061562856
 21
4.3047835908
  0
LINE
  5
5CF
100
AcDbEntity
  8
0
100
AcDbLine
 62
3
  6
CONTINUOUS
 10
13.0334024741
 20
4.3526593026
 11
13.0421761619
 21
4.3516975352
  0
LINE
  5
5D0
100
AcDbEntity
  8
0
100
AcDbLine
 62
3
  6
CONTINUOUS
 10
12.9972345767
 20
4.2976235969
 11
13.0077481974
 21
4.2956573021
  0
LINE
  5
5D1
100
AcDbEntity
  8
0
100
AcDbLine
 62
7
  6
CONTINUOUS
 10
13.0510978671
 20
4.357893157
 11
13.0405842457
 21
4.3598594528
  0
LINE
  5
5D2
100
AcDbEntity
  8
0
100
AcDbLine
 62
3
  6
CONTINUOUS
 10
13.0510978671
 20
4.3588575299
 11
13.0405842457
 21
4.3608238257
  0
LINE
  5
5D3
100
AcDbEntity
  8
0
100
AcDbLine
 62
3
  6
CONTINUOUS
 10
13.0421761619
 20
4.3516975352
 11
13.0491729081
 21
4.3497098578
  0
LINE
  5
5D4
100
AcDbEntity
  8
0
100
AcDbLine
 62
7
  6
CONTINUOUS
 10
13.7470719795
 20
3.9560814061
 11
13.7401492961
 21
3.9621299333
  0
LINE
  5
5D5
100
AcDbEntity
  8
0
100
AcDbLine
 62
3
  6
CONTINUOUS
 10
13.7470719795
 20
3.957045779
 11
13.7401492961
 21
3.9630943062
  0
LINE
  5
5D6
100
AcDbEntity
  8
0
100
AcDbLine
 62
7
  6
CONTINUOUS
 10
13.8099694095
 20
3.8376961886
 11
13.8047866349
 21
3.8427402017
  0
LINE
  5
5D7
100
AcDbEntity
  8
0
100
AcDbLine
 62
3
  6
CONTINUOUS
 10
13.8099694095
 20
3.8386605615
 11
13.8047866349
 21
3.8437045747
  0
LINE
  5
5D8
100
AcDbEntity
  8
0
100
AcDbLine
 62
7
  6
CONTINUOUS
 10
13.4592795625
 20
4.083250385
 11
13.4558366967
 21
4.087289884
  0
LINE
  5
5D9
100
AcDbEntity
  8
0
100
AcDbLine
 62
3
  6
CONTINUOUS
 10
13.4592795625
 20
4.0842147579
 11
13.4558366967
 21
4.0882542569
  0
LINE
  5
5DA
100
AcDbEntity
  8
0
100
AcDbLine
 62
3
  6
CONTINUOUS
 10
13.4945963429
 20
4.0925503355
 11
13.4980392087
 21
4.0885108365
  0
LINE
  5
5DB
100
AcDbEntity
  8
0
100
AcDbLine
 62
3
  6
CONTINUOUS
 10
13.7330045037
 20
3.9569602381
 11
13.7364473695
 21
3.9529207391
  0
LINE
  5
5DC
100
AcDbEntity
  8
0
100
AcDbLine
 62
7
  6
CONTINUOUS
 10
13.5578121302
 20
4.0164706808
 11
13.5531250566
 21
4.0229144759
  0
LINE
  5
5DD
100
AcDbEntity
  8
0
100
AcDbLine
 62
3
  6
CONTINUOUS
 10
13.5582708794
 20
4.0168043648
 11
13.5531250566
 21
4.0238788488
  0
LINE
  5
5DE
100
AcDbEntity
  8
0
100
AcDbLine
 62
3
  6
CONTINUOUS
 10
13.2225003556
 20
4.2127089861
 11
13.2207974185
 21
4.2157439595
  0
LINE
  5
5DF
100
AcDbEntity
  8
0
100
AcDbLine
 62
3
  6
CONTINUOUS
 10
13.020852874
 20
4.3393866027
 11
13.0191869472
 21
4.3444520133
  0
LINE
  5
5E0
100
AcDbEntity
  8
0
100
AcDbLine
 62
3
  6
CONTINUOUS
 10
13.0292565124
 20
4.3181204334
 11
13.030922438
 21
4.3130550236
  0
LINE
  5
5E1
100
AcDbEntity
  8
0
100
AcDbLine
 62
7
  6
CONTINUOUS
 10
12.7790717314
 20
4.2980022885
 11
12.7790717314
 21
4.3815812761
  0
LINE
  5
5E2
100
AcDbEntity
  8
0
100
AcDbLine
 62
9
  6
CONTINUOUS
 10
12.8482598014
 20
4.2851456492
 11
12.8482598014
 21
4.2015666616
  0
LINE
  5
5E3
100
AcDbEntity
  8
0
100
AcDbLine
 62
7
  6
CONTINUOUS
 10
13.4374005058
 20
4.1369180746
 11
13.3366699768
 21
4.1088977571
  0
LINE
  5
5E4
100
AcDbEntity
  8
0
100
AcDbLine
 62
3
  6
CONTINUOUS
 10
13.4374005058
 20
4.1378824475
 11
13.3366699768
 21
4.10986213
  0
LINE
  5
5E5
100
AcDbEntity
  8
0
100
AcDbLine
 62
3
  6
CONTINUOUS
 10
13.3347450291
 20
4.10071445
 11
13.4248509095
 21
4.1246097513
  0
LINE
  5
5E6
100
AcDbEntity
  8
0
100
AcDbLine
 62
3
  6
CONTINUOUS
 10
13.1887384867
 20
4.1932166783
 11
13.2010660543
 21
4.1943067336
  0
LINE
  5
5E7
100
AcDbEntity
  8
0
100
AcDbLine
 62
3
  6
CONTINUOUS
 10
13.2260542361
 20
4.2147608077
 11
13.2383818031
 21
4.2158508626
  0
LINE
  5
5E8
100
AcDbEntity
  8
0
100
AcDbLine
 62
3
  6
CONTINUOUS
 10
13.0077481974
 20
4.2956573021
 11
13.0218157037
 21
4.2957428261
  0
LINE
  5
5E9
100
AcDbEntity
  8
0
100
AcDbLine
 62
7
  6
CONTINUOUS
 10
13.0405842457
 20
4.3598594528
 11
13.0265167431
 21
4.3597739274
  0
LINE
  5
5EA
100
AcDbEntity
  8
0
100
AcDbLine
 62
3
  6
CONTINUOUS
 10
13.0405842457
 20
4.3608238257
 11
13.0265167431
 21
4.3607383003
  0
LWPOLYLINE
  5
5EB
100
AcDbEntity
  8
02___PRT_ALL_AXES
100
AcDbPolyline
 62
3
  6
CONTINUOUS
 90
10
 70
0
 10
13.8430807767
 20
4.3291064307
 10
13.8697030523
 20
4.3173125951
 10
13.9007053033
 20
4.3098987144
 10
13.9339747776
 20
4.3073700323
 10
13.9672442153
 20
4.3098988744
 10
13.9982463594
 20
4.3173129041
 10
14.0248684649
 20
4.3291068677
 10
14.0452962794
 20
4.3444770259
 10
14.058137681
 20
4.362375928
 10
14.0625175495
 20
4.3815834879
  0
LWPOLYLINE
  5
5EC
100
AcDbEntity
  8
02___PRT_ALL_AXES
100
AcDbPolyline
 62
7
  6
CONTINUOUS
 90
8
 70
0
 10
14.0248677081
 20
4.3504815504
 10
13.9982454325
 20
4.362275386
 10
13.9672431815
 20
4.3696892667
 10
13.9339737072
 20
4.3722179487
 10
13.9007042695
 20
4.3696891067
 10
13.8697021254
 20
4.362275077
 10
13.8430800199
 20
4.3504811134
 10
13.8288761913
 20
4.3397939647
  0
LINE
  5
5ED
100
AcDbEntity
  8
0
100
AcDbLine
 62
3
  6
CONTINUOUS
 10
13.4400292723
 20
4.0891732531
 11
13.4434351465
 21
4.0831033062
  0
LINE
  5
5EE
100
AcDbEntity
  8
0
100
AcDbLine
 62
3
  6
CONTINUOUS
 10
13.4775307561
 20
4.0244343512
 11
13.48093659
 21
4.018364427
  0
LINE
  5
5EF
100
AcDbEntity
  8
0
100
AcDbLine
 62
3
  6
CONTINUOUS
 10
13.4898212923
 20
4.0234939817
 11
13.4881183751
 21
4.0265289436
  0
LINE
  5
5F0
100
AcDbEntity
  8
0
100
AcDbLine
 62
3
  6
CONTINUOUS
 10
13.480047772
 20
4.0660690842
 11
13.4766419377
 21
4.0721390082
  0
LINE
  5
5F1
100
AcDbEntity
  8
0
100
AcDbLine
 62
3
  6
CONTINUOUS
 10
13.5921437636
 20
4.0423879936
 11
13.5887378894
 21
4.0484579405
  0
LWPOLYLINE
  5
5F2
100
AcDbEntity
  8
02___PRT_ALL_AXES
100
AcDbPolyline
 62
3
  6
CONTINUOUS
 90
14
 70
0
 10
13.3094423886
 20
4.3341122163
 10
13.3177166532
 20
4.3155380977
 10
13.3334496929
 20
4.2986469395
 10
13.3557271606
 20
4.2844203943
 10
13.3832543709
 20
4.2736852573
 10
13.4144315423
 20
4.2670654156
 10
13.447446771
 20
4.2649455903
 10
13.4803813319
 20
4.2674489781
 10
13.5113211881
 20
4.274430091
 10
13.5384682275
 20
4.2854832121
 10
13.5602447628
 20
4.2999659744
 10
13.5753852211
 20
4.3170366921
 10
13.583009694
 20
4.3357032774
 10
13.5838443044
 20
4.3444292537
  0
LINE
  5
5F3
100
AcDbEntity
  8
0
100
AcDbLine
 62
3
  6
CONTINUOUS
 10
13.3975307085
 20
4.0726731599
 11
13.4008995906
 21
4.0645727648
  0
LINE
  5
5F4
100
AcDbEntity
  8
0
100
AcDbLine
 62
3
  6
CONTINUOUS
 10
13.0770858827
 20
4.337698268
 11
13.0754569636
 21
4.3447941171
  0
LINE
  5
5F5
100
AcDbEntity
  8
0
100
AcDbLine
 62
7
  6
CONTINUOUS
 10
12.966211782
 20
4.3319486495
 11
12.966211782
 21
4.3309842765
  0
LINE
  5
5F6
100
AcDbEntity
  8
0
100
AcDbLine
 62
7
  6
CONTINUOUS
 10
12.9715796076
 20
4.3370568221
 11
12.9715796076
 21
4.3360924492
  0
LINE
  5
5F7
100
AcDbEntity
  8
0
100
AcDbLine
 62
7
  6
CONTINUOUS
 10
12.9783173179
 20
4.3208560627
 11
12.9783173179
 21
4.3198916897
  0
LINE
  5
5F8
100
AcDbEntity
  8
0
100
AcDbLine
 62
7
  6
CONTINUOUS
 10
12.9835001187
 20
4.3158120344
 11
12.9835001187
 21
4.3148476615
  0
LINE
  5
5F9
100
AcDbEntity
  8
0
100
AcDbLine
 62
7
  6
CONTINUOUS
 10
12.9974196031
 20
4.3077757982
 11
12.9974196031
 21
4.3068114252
  0
LINE
  5
5FA
100
AcDbEntity
  8
0
100
AcDbLine
 62
7
  6
CONTINUOUS
 10
13.0051934552
 20
4.3484273678
 11
13.0051934552
 21
4.3474629949
  0
LINE
  5
5FB
100
AcDbEntity
  8
0
100
AcDbLine
 62
7
  6
CONTINUOUS
 10
13.0061562856
 20
4.3047835908
 11
13.0061562856
 21
4.3038192179
  0
LINE
  5
5FC
100
AcDbEntity
  8
0
100
AcDbLine
 62
7
  6
CONTINUOUS
 10
13.0105612807
 20
4.3535355406
 11
13.0105612807
 21
4.3525711676
  0
LINE
  5
5FD
100
AcDbEntity
  8
0
100
AcDbLine
 62
7
  6
CONTINUOUS
 10
13.0149299733
 20
4.3038218249
 11
13.0149299733
 21
4.302857452
  0
LINE
  5
5FE
100
AcDbEntity
  8
0
100
AcDbLine
 62
7
  6
CONTINUOUS
 10
13.0176690466
 20
4.3576391866
 11
13.0176690466
 21
4.3566748137
  0
LINE
  5
5FF
100
AcDbEntity
  8
0
100
AcDbLine
 62
7
  6
CONTINUOUS
 10
13.0191869472
 20
4.3444520133
 11
13.0191869472
 21
4.3434876403
  0
LINE
  5
600
100
AcDbEntity
  8
0
100
AcDbLine
 62
7
  6
CONTINUOUS
 10
13.020852874
 20
4.3393866027
 11
13.020852874
 21
4.3384222298
  0
LINE
  5
601
100
AcDbEntity
  8
0
100
AcDbLine
 62
7
  6
CONTINUOUS
 10
13.0237406614
 20
4.3048905004
 11
13.0237406614
 21
4.3039261275
  0
LINE
  5
602
100
AcDbEntity
  8
0
100
AcDbLine
 62
7
  6
CONTINUOUS
 10
13.0242957398
 20
4.3353471037
 11
13.0242957398
 21
4.3343827307
  0
LINE
  5
603
100
AcDbEntity
  8
0
100
AcDbLine
 62
7
  6
CONTINUOUS
 10
13.0265167431
 20
4.3607383003
 11
13.0265167431
 21
4.3597739274
  0
LINE
  5
604
100
AcDbEntity
  8
0
100
AcDbLine
 62
3
  6
CONTINUOUS
 10
12.9783173179
 20
4.3208560627
 11
12.9784283339
 21
4.326947384
  0
LINE
  5
605
100
AcDbEntity
  8
0
100
AcDbLine
 62
3
  6
CONTINUOUS
 10
13.0754946656
 20
4.250389331
 11
13.165600556
 21
4.2742846265
  0
LINE
  5
606
100
AcDbEntity
  8
0
100
AcDbLine
 62
3
  6
CONTINUOUS
 10
13.0218157037
 20
4.2957428261
 11
13.0324033333
 21
4.2978374131
  0
LINE
  5
607
100
AcDbEntity
  8
0
100
AcDbLine
 62
7
  6
CONTINUOUS
 10
13.0237406614
 20
4.3039261275
 11
13.0149299733
 21
4.302857452
  0
LINE
  5
608
100
AcDbEntity
  8
0
100
AcDbLine
 62
3
  6
CONTINUOUS
 10
13.0237406614
 20
4.3048905004
 11
13.0149299733
 21
4.3038218249
  0
LWPOLYLINE
  5
609
100
AcDbEntity
  8
02___PRT_ALL_AXES
100
AcDbPolyline
 62
3
  6
CONTINUOUS
 90
8
 70
0
 10
13.980222218
 20
4.5844034762
 10
14.0134393055
 20
4.5842104461
 10
14.0457711783
 20
4.5886125301
 10
14.0753388255
 20
4.5973538949
 10
14.1004238828
 20
4.6099265243
 10
14.1195684979
 20
4.6255997428
 10
14.1316600553
 20
4.6434626798
 10
14.1360025386
 20
4.663271081
  0
LWPOLYLINE
  5
60A
100
AcDbEntity
  8
02___PRT_ALL_AXES
100
AcDbPolyline
 62
3
  6
CONTINUOUS
 90
10
 70
0
 10
13.980222218
 20
4.5844034762
 10
13.9082278208
 20
4.5856127324
 10
13.8372972338
 20
4.5783917537
 10
13.7703612205
 20
4.5630389021
 10
13.7101854939
 20
4.5401885382
 10
13.65925644
 20
4.5107848108
 10
13.6196783841
 20
4.4760426452
 10
13.5930866423
 20
4.4373975446
 10
13.5805799521
 20
4.3964462764
 10
13.5796519815
 20
4.3816728433
  0
LWPOLYLINE
  5
60B
100
AcDbEntity
  8
0
100
AcDbPolyline
 62
3
  6
CONTINUOUS
 90
5
 70
0
 10
15.4264696329
 20
4.2616534073
 10
15.4652017608
 20
4.253687078
 10
15.4993279443
 20
4.2539677758
 10
15.5267551103
 20
4.2604314288
 10
15.5460175965
 20
4.2706039586
  0
LWPOLYLINE
  5
60C
100
AcDbEntity
  8
02___PRT_ALL_AXES
100
AcDbPolyline
 62
3
  6
CONTINUOUS
 90
10
 70
0
 10
14.0248677081
 20
4.434060538
 10
13.9982454325
 20
4.4458543736
 10
13.9672431815
 20
4.4532682542
 10
13.9339737072
 20
4.4557969363
 10
13.9007042695
 20
4.4532680943
 10
13.8697021254
 20
4.4458540646
 10
13.8430800199
 20
4.434060101
 10
13.8226522054
 20
4.4186899427
 10
13.8098108038
 20
4.4007910407
 10
13.8054309353
 20
4.3815834808
  0
LINE
  5
60D
100
AcDbEntity
  8
02___PRT_ALL_AXES
100
AcDbLine
 62
7
  6
CONTINUOUS
 10
14.0390722935
 20
4.3397940164
 11
14.0248677081
 21
4.3504815504
  0
LINE
  5
60E
100
AcDbEntity
  8
0
100
AcDbLine
 62
3
  6
CONTINUOUS
 10
13.78897917
 20
3.8446235935
 11
13.7923850039
 21
3.8385536693
  0
LINE
  5
60F
100
AcDbEntity
  8
0
100
AcDbLine
 62
3
  6
CONTINUOUS
 10
13.557604787
 20
3.9802564383
 11
13.5609736292
 21
3.9721560663
  0
LINE
  5
610
100
AcDbEntity
  8
0
100
AcDbLine
 62
3
  6
CONTINUOUS
 10
13.6651840168
 20
3.9981673332
 11
13.661815174
 21
4.006267705
  0
LINE
  5
611
100
AcDbEntity
  8
0
100
AcDbLine
 62
3
  6
CONTINUOUS
 10
13.4558366967
 20
4.0882542569
 11
13.4541707712
 21
4.0933196668
  0
LINE
  5
612
100
AcDbEntity
  8
0
100
AcDbLine
 62
3
  6
CONTINUOUS
 10
13.4758648312
 20
4.0294997615
 11
13.4775307561
 21
4.0244343512
  0
LINE
  5
613
100
AcDbEntity
  8
0
100
AcDbLine
 62
3
  6
CONTINUOUS
 10
13.4642403476
 20
4.0669880805
 11
13.4659062731
 21
4.0619226706
  0
LINE
  5
614
100
AcDbEntity
  8
0
100
AcDbLine
 62
3
  6
CONTINUOUS
 10
13.5443143785
 20
4.0228101676
 11
13.545980304
 21
4.0177447577
  0
LINE
  5
615
100
AcDbEntity
  8
0
100
AcDbLine
 62
3
  6
CONTINUOUS
 10
13.2580391654
 20
4.233227205
 11
13.2564102315
 21
4.2403230627
  0
LINE
  5
616
100
AcDbEntity
  8
0
100
AcDbLine
 62
7
  6
CONTINUOUS
 10
13.0290714821
 20
4.3079682328
 11
13.0290714821
 21
4.3070038599
  0
LINE
  5
617
100
AcDbEntity
  8
0
100
AcDbLine
 62
7
  6
CONTINUOUS
 10
13.030922438
 20
4.3130550236
 11
13.030922438
 21
4.3120906506
  0
LINE
  5
618
100
AcDbEntity
  8
0
100
AcDbLine
 62
7
  6
CONTINUOUS
 10
13.0347353519
 20
4.3293199272
 11
13.0347353519
 21
4.3283555542
  0
LINE
  5
619
100
AcDbEntity
  8
0
100
AcDbLine
 62
7
  6
CONTINUOUS
 10
13.0405842457
 20
4.3608238257
 11
13.0405842457
 21
4.3598594528
  0
LINE
  5
61A
100
AcDbEntity
  8
0
100
AcDbLine
 62
7
  6
CONTINUOUS
 10
13.0416580875
 20
4.3232713698
 11
13.0416580875
 21
4.3223069968
  0
LINE
  5
61B
100
AcDbEntity
  8
0
100
AcDbLine
 62
7
  6
CONTINUOUS
 10
13.0510978671
 20
4.3588575299
 11
13.0510978671
 21
4.357893157
  0
LINE
  5
61C
100
AcDbEntity
  8
0
100
AcDbLine
 62
7
  6
CONTINUOUS
 10
13.0598345496
 20
4.3558653226
 11
13.0598345496
 21
4.3549009496
  0
LINE
  5
61D
100
AcDbEntity
  8
0
100
AcDbLine
 62
7
  6
CONTINUOUS
 10
13.0629813754
 20
4.3355823023
 11
13.0629813754
 21
4.3346179293
  0
LINE
  5
61E
100
AcDbEntity
  8
0
100
AcDbLine
 62
7
  6
CONTINUOUS
 10
13.0630553835
 20
4.3396431837
 11
13.0630553835
 21
4.3386788107
  0
LINE
  5
61F
100
AcDbEntity
  8
0
100
AcDbLine
 62
7
  6
CONTINUOUS
 10
13.0685342255
 20
4.350842676
 11
13.0685342255
 21
4.349878303
  0
LINE
  5
620
100
AcDbEntity
  8
0
100
AcDbLine
 62
7
  6
CONTINUOUS
 10
13.0754569636
 20
4.3447941171
 11
13.0754569636
 21
4.3438297442
  0
LINE
  5
621
100
AcDbEntity
  8
0
100
AcDbLine
 62
7
  6
CONTINUOUS
 10
13.0774196234
 20
4.2595370053
 11
13.0774196234
 21
4.2585726324
  0
LINE
  5
622
100
AcDbEntity
  8
0
100
AcDbLine
 62
7
  6
CONTINUOUS
 10
13.1029628835
 20
4.3104476855
 11
13.1029628835
 21
4.3094833126
  0
LINE
  5
623
100
AcDbEntity
  8
0
100
AcDbLine
 62
7
  6
CONTINUOUS
 10
13.1102926738
 20
4.32673397
 11
13.1102926738
 21
4.3257695971
  0
LINE
  5
624
100
AcDbEntity
  8
0
100
AcDbLine
 62
7
  6
CONTINUOUS
 10
13.1453141134
 20
4.2223907945
 11
13.1453141134
 21
4.2214264215
  0
LINE
  5
625
100
AcDbEntity
  8
0
100
AcDbLine
 62
7
  6
CONTINUOUS
 10
13.165600556
 20
4.2742846265
 11
13.165600556
 21
4.2733202536
  0
LINE
  5
626
100
AcDbEntity
  8
0
100
AcDbLine
 62
7
  6
CONTINUOUS
 10
13.1781501524
 20
4.2875573228
 11
13.1781501524
 21
4.2865929499
  0
LINE
  5
627
100
AcDbEntity
  8
0
100
AcDbLine
 62
7
  6
CONTINUOUS
 10
13.1783728784
 20
4.2033047394
 11
13.1783728784
 21
4.2023403665
  0
LINE
  5
628
100
AcDbEntity
  8
0
100
AcDbLine
 62
7
  6
CONTINUOUS
 10
13.1826298622
 20
4.2439349235
 11
13.1826298622
 21
4.2429705505
  0
LINE
  5
629
100
AcDbEntity
  8
0
100
AcDbLine
 62
7
  6
CONTINUOUS
 10
13.1853696247
 20
4.201317062
 11
13.1853696247
 21
4.200352689
  0
LINE
  5
62A
100
AcDbEntity
  8
0
100
AcDbLine
 62
7
  6
CONTINUOUS
 10
13.1924033837
 20
4.2013598216
 11
13.1924033837
 21
4.2003954487
  0
LINE
  5
62B
100
AcDbEntity
  8
0
100
AcDbLine
 62
7
  6
CONTINUOUS
 10
13.1994741332
 20
4.2034330285
 11
13.1994741332
 21
4.2024686555
  0
LINE
  5
62C
100
AcDbEntity
  8
0
100
AcDbLine
 62
3
  6
CONTINUOUS
 10
13.0051934552
 20
4.3484273678
 11
13.0050454359
 21
4.3403056068
  0
LINE
  5
62D
100
AcDbEntity
  8
0
100
AcDbLine
 62
3
  6
CONTINUOUS
 10
13.0449159305
 20
4.3090796687
 11
13.0450639468
 21
4.3172014315
  0
LINE
  5
62E
100
AcDbEntity
  8
0
100
AcDbLine
 62
3
  6
CONTINUOUS
 10
13.0630553835
 20
4.3396431837
 11
13.0629813754
 21
4.3355823023
  0
LINE
  5
62F
100
AcDbEntity
  8
0
100
AcDbLine
 62
7
  6
CONTINUOUS
 10
13.1781501524
 20
4.2865929499
 11
13.0774196234
 21
4.2585726324
  0
LINE
  5
630
100
AcDbEntity
  8
0
100
AcDbLine
 62
3
  6
CONTINUOUS
 10
13.1781501524
 20
4.2875573228
 11
13.0774196234
 21
4.2595370053
  0
LWPOLYLINE
  5
631
100
AcDbEntity
  8
02___PRT_ALL_AXES
100
AcDbPolyline
 62
7
  6
CONTINUOUS
 90
11
 70
0
 10
14.0161928657
 20
4.6585733712
 10
13.9114882616
 20
4.6614527249
 10
13.8074063233
 20
4.6542677273
 10
13.7068292144
 20
4.6372173404
 10
13.6125420448
 20
4.6107737114
 10
13.5271557483
 20
4.5756690986
 10
13.4530347818
 20
4.532875594
 10
13.3922316505
 20
4.4835782052
 10
13.3464300718
 20
4.4291420405
 10
13.3168983507
 20
4.3710745077
 10
13.3093721869
 20
4.334731621
  0
LWPOLYLINE
  5
632
100
AcDbEntity
  8
02___PRT_ALL_AXES
100
AcDbPolyline
 62
3
  6
CONTINUOUS
 90
12
 70
0
 10
14.0161928657
 20
4.7421523588
 10
13.9114882616
 20
4.7450317125
 10
13.8074063233
 20
4.7378467149
 10
13.7068292144
 20
4.720796328
 10
13.6125420448
 20
4.694352699
 10
13.5271557483
 20
4.6592480861
 10
13.4530347818
 20
4.6164545816
 10
13.3922316505
 20
4.5671571927
 10
13.3464300718
 20
4.5127210281
 10
13.3168983507
 20
4.4546534953
 10
13.3044542586
 20
4.3945625595
 10
13.3040556349
 20
4.3816406789
  0
LINE
  5
633
100
AcDbEntity
  8
0
100
AcDbLine
 62
3
  6
CONTINUOUS
 10
13.5715982802
 20
3.9762810838
 11
13.5699323546
 21
3.9813464937
  0
LINE
  5
634
100
AcDbEntity
  8
0
100
AcDbLine
 62
3
  6
CONTINUOUS
 10
13.5781132396
 20
4.0443329235
 11
13.5797791652
 21
4.0392675137
  0
LINE
  5
635
100
AcDbEntity
  8
0
100
AcDbLine
 62
3
  6
CONTINUOUS
 10
13.6511905242
 20
4.0021426881
 11
13.6528564498
 21
3.9970772782
  0
LINE
  5
636
100
AcDbEntity
  8
0
100
AcDbLine
 62
3
  6
CONTINUOUS
 10
13.5120697328
 20
4.0865659065
 11
13.5104407988
 21
4.0936617642
  0
LINE
  5
637
100
AcDbEntity
  8
02___PRT_ALL_AXES
100
AcDbLine
 62
3
  6
CONTINUOUS
 10
13.3040556349
 20
4.3816406789
 11
13.3094423886
 21
4.3341122163
  0
LINE
  5
638
100
AcDbEntity
  8
0
100
AcDbLine
 62
7
  6
CONTINUOUS
 10
13.2048049539
 20
4.2065107609
 11
13.2048049539
 21
4.2055463879
  0
LINE
  5
639
100
AcDbEntity
  8
0
100
AcDbLine
 62
7
  6
CONTINUOUS
 10
13.2077290599
 20
4.2704803189
 11
13.2077290599
 21
4.269515946
  0
LINE
  5
63A
100
AcDbEntity
  8
0
100
AcDbLine
 62
7
  6
CONTINUOUS
 10
13.2083958484
 20
4.2105930203
 11
13.2083958484
 21
4.2096286474
  0
LINE
  5
63B
100
AcDbEntity
  8
0
100
AcDbLine
 62
7
  6
CONTINUOUS
 10
13.2084698515
 20
4.2146539046
 11
13.2084698515
 21
4.2136895316
  0
LINE
  5
63C
100
AcDbEntity
  8
0
100
AcDbLine
 62
7
  6
CONTINUOUS
 10
13.2156886272
 20
4.2248488684
 11
13.2156886272
 21
4.2238844955
  0
LINE
  5
63D
100
AcDbEntity
  8
0
100
AcDbLine
 62
7
  6
CONTINUOUS
 10
13.2207974185
 20
4.2157439595
 11
13.2207974185
 21
4.2147795866
  0
LINE
  5
63E
100
AcDbEntity
  8
0
100
AcDbLine
 62
7
  6
CONTINUOUS
 10
13.2226853735
 20
4.222861191
 11
13.2226853735
 21
4.221896818
  0
LINE
  5
63F
100
AcDbEntity
  8
0
100
AcDbLine
 62
7
  6
CONTINUOUS
 10
13.2297191313
 20
4.2229039499
 11
13.2297191313
 21
4.221939577
  0
LINE
  5
640
100
AcDbEntity
  8
0
100
AcDbLine
 62
7
  6
CONTINUOUS
 10
13.2367898807
 20
4.2249771567
 11
13.2367898807
 21
4.2240127838
  0
LINE
  5
641
100
AcDbEntity
  8
0
100
AcDbLine
 62
7
  6
CONTINUOUS
 10
13.2403437612
 20
4.2270289783
 11
13.2403437612
 21
4.2260646054
  0
LINE
  5
642
100
AcDbEntity
  8
0
100
AcDbLine
 62
7
  6
CONTINUOUS
 10
13.2439346582
 20
4.2311112392
 11
13.2439346582
 21
4.2301468663
  0
LINE
  5
643
100
AcDbEntity
  8
0
100
AcDbLine
 62
7
  6
CONTINUOUS
 10
13.2440086613
 20
4.2351721235
 11
13.2440086613
 21
4.2342077505
  0
LINE
  5
644
100
AcDbEntity
  8
0
100
AcDbLine
 62
7
  6
CONTINUOUS
 10
13.2494875082
 20
4.2463716129
 11
13.2494875082
 21
4.24540724
  0
LINE
  5
645
100
AcDbEntity
  8
0
100
AcDbLine
 62
7
  6
CONTINUOUS
 10
13.2500802712
 20
4.1824234401
 11
13.2500802712
 21
4.1814590672
  0
LINE
  5
646
100
AcDbEntity
  8
0
100
AcDbLine
 62
7
  6
CONTINUOUS
 10
13.2564102315
 20
4.2403230627
 11
13.2564102315
 21
4.2393586898
  0
LINE
  5
647
100
AcDbEntity
  8
0
100
AcDbLine
 62
7
  6
CONTINUOUS
 10
13.2760312951
 20
4.1592337303
 11
13.2760312951
 21
4.1582693574
  0
LINE
  5
648
100
AcDbEntity
  8
0
100
AcDbLine
 62
7
  6
CONTINUOUS
 10
13.2813991074
 20
4.1643419106
 11
13.2813991074
 21
4.1633775377
  0
LINE
  5
649
100
AcDbEntity
  8
0
100
AcDbLine
 62
7
  6
CONTINUOUS
 10
13.3137170832
 20
4.2010822713
 11
13.3137170832
 21
4.2001178984
  0
LINE
  5
64A
100
AcDbEntity
  8
0
100
AcDbLine
 62
7
  6
CONTINUOUS
 10
13.3138651095
 20
4.2092040284
 11
13.3138651095
 21
4.2082396554
  0
LINE
  5
64B
100
AcDbEntity
  8
0
100
AcDbLine
 62
7
  6
CONTINUOUS
 10
13.3366699768
 20
4.10986213
 11
13.3366699768
 21
4.1088977571
  0
LINE
  5
64C
100
AcDbEntity
  8
0
100
AcDbLine
 62
7
  6
CONTINUOUS
 10
13.362213237
 20
4.1607728102
 11
13.362213237
 21
4.1598084373
  0
LINE
  5
64D
100
AcDbEntity
  8
0
100
AcDbLine
 62
7
  6
CONTINUOUS
 10
13.3695430273
 20
4.1770590947
 11
13.3695430273
 21
4.1760947218
  0
LINE
  5
64E
100
AcDbEntity
  8
0
100
AcDbLine
 62
3
  6
CONTINUOUS
 10
13.2084698515
 20
4.2146539046
 11
13.2083958484
 21
4.2105930203
  0
LINE
  5
64F
100
AcDbEntity
  8
0
100
AcDbLine
 62
3
  6
CONTINUOUS
 10
13.2440086613
 20
4.2351721235
 11
13.2439346582
 21
4.2311112392
  0
LWPOLYLINE
  5
650
100
AcDbEntity
  8
0
100
AcDbPolyline
 62
7
  6
CONTINUOUS
 90
7
 70
0
 10
15.4366442215
 20
4.2501694034
 10
15.4661718922
 20
4.2386331874
 10
15.500435026
 20
4.2359413664
 10
15.5369095985
 20
4.2432493681
 10
15.5717054192
 20
4.2604835064
 10
15.59992442
 20
4.28499786
 10
15.6183983042
 20
4.3123927302
  0
LINE
  5
651
100
AcDbEntity
  8
0
100
AcDbLine
 62
3
  6
CONTINUOUS
 10
15.3854633322
 20
4.2797195485
 11
15.4264696329
 21
4.2616534073
  0
LWPOLYLINE
  5
652
100
AcDbEntity
  8
02___PRT_ALL_AXES
100
AcDbPolyline
 62
7
  6
CONTINUOUS
 90
5
 70
0
 10
14.1144657027
 20
4.6214222118
 10
14.1022632419
 20
4.6318516415
 10
14.0776216051
 20
4.6447132411
 10
14.0483647116
 20
4.6537964453
 10
14.0161928657
 20
4.6585733712
  0
LINE
  5
653
100
AcDbEntity
  8
0
100
AcDbLine
 62
3
  6
CONTINUOUS
 10
13.8047866349
 20
3.8437045747
 11
13.8031207106
 21
3.8487699852
  0
LINE
  5
654
100
AcDbEntity
  8
0
100
AcDbLine
 62
3
  6
CONTINUOUS
 10
13.7487009533
 20
3.9499498983
 11
13.7470719795
 21
3.957045779
  0
LINE
  5
655
100
AcDbEntity
  8
0
100
AcDbLine
 62
7
  6
CONTINUOUS
 10
13.4011956055
 20
4.0808163032
 11
13.4011956055
 21
4.0798519303
  0
LINE
  5
656
100
AcDbEntity
  8
0
100
AcDbLine
 62
7
  6
CONTINUOUS
 10
13.4065634577
 20
4.0859244605
 11
13.4065634577
 21
4.0849600876
  0
LINE
  5
657
100
AcDbEntity
  8
0
100
AcDbLine
 62
7
  6
CONTINUOUS
 10
13.4133011419
 20
4.0697237162
 11
13.4133011419
 21
4.0687593433
  0
LINE
  5
658
100
AcDbEntity
  8
0
100
AcDbLine
 62
7
  6
CONTINUOUS
 10
13.4184839563
 20
4.0646796801
 11
13.4184839563
 21
4.0637153071
  0
LINE
  5
659
100
AcDbEntity
  8
0
100
AcDbLine
 62
7
  6
CONTINUOUS
 10
13.4248509095
 20
4.1246097513
 11
13.4248509095
 21
4.1236453783
  0
LINE
  5
65A
100
AcDbEntity
  8
0
100
AcDbLine
 62
7
  6
CONTINUOUS
 10
13.4324034258
 20
4.0566434524
 11
13.4324034258
 21
4.0556790795
  0
LINE
  5
65B
100
AcDbEntity
  8
0
100
AcDbLine
 62
7
  6
CONTINUOUS
 10
13.4374005058
 20
4.1378824475
 11
13.4374005058
 21
4.1369180746
  0
LINE
  5
65C
100
AcDbEntity
  8
0
100
AcDbLine
 62
7
  6
CONTINUOUS
 10
13.4401772786
 20
4.0972950217
 11
13.4401772786
 21
4.0963306487
  0
LINE
  5
65D
100
AcDbEntity
  8
0
100
AcDbLine
 62
7
  6
CONTINUOUS
 10
13.4411401207
 20
4.0536512379
 11
13.4411401207
 21
4.0526868649
  0
LINE
  5
65E
100
AcDbEntity
  8
0
100
AcDbLine
 62
7
  6
CONTINUOUS
 10
13.4455451308
 20
4.102403179
 11
13.4455451308
 21
4.101438806
  0
LINE
  5
65F
100
AcDbEntity
  8
0
100
AcDbLine
 62
7
  6
CONTINUOUS
 10
13.4499138085
 20
4.0526894719
 11
13.4499138085
 21
4.051725099
  0
LINE
  5
660
100
AcDbEntity
  8
0
100
AcDbLine
 62
7
  6
CONTINUOUS
 10
13.4526528967
 20
4.1065068251
 11
13.4526528967
 21
4.1055424521
  0
LINE
  5
661
100
AcDbEntity
  8
0
100
AcDbLine
 62
7
  6
CONTINUOUS
 10
13.4541707712
 20
4.0933196668
 11
13.4541707712
 21
4.0923552939
  0
LINE
  5
662
100
AcDbEntity
  8
0
100
AcDbLine
 62
7
  6
CONTINUOUS
 10
13.4558366967
 20
4.0882542569
 11
13.4558366967
 21
4.087289884
  0
LINE
  5
663
100
AcDbEntity
  8
0
100
AcDbLine
 62
7
  6
CONTINUOUS
 10
13.4587244866
 20
4.0537581532
 11
13.4587244866
 21
4.0527937803
  0
LINE
  5
664
100
AcDbEntity
  8
0
100
AcDbLine
 62
7
  6
CONTINUOUS
 10
13.4592795625
 20
4.0842147579
 11
13.4592795625
 21
4.083250385
  0
LINE
  5
665
100
AcDbEntity
  8
0
100
AcDbLine
 62
7
  6
CONTINUOUS
 10
13.4615005665
 20
4.1096059542
 11
13.4615005665
 21
4.1086415812
  0
LINE
  5
666
100
AcDbEntity
  8
0
100
AcDbLine
 62
7
  6
CONTINUOUS
 10
13.4640553074
 20
4.0568358856
 11
13.4640553074
 21
4.0558715127
  0
LINE
  5
667
100
AcDbEntity
  8
0
100
AcDbLine
 62
7
  6
CONTINUOUS
 10
13.4659062731
 20
4.0619226706
 11
13.4659062731
 21
4.0609582977
  0
LINE
  5
668
100
AcDbEntity
  8
0
100
AcDbLine
 62
7
  6
CONTINUOUS
 10
13.4697191746
 20
4.0781875814
 11
13.4697191746
 21
4.0772232085
  0
LINE
  5
669
100
AcDbEntity
  8
0
100
AcDbLine
 62
7
  6
CONTINUOUS
 10
13.4755680821
 20
4.1096914721
 11
13.4755680821
 21
4.1087270991
  0
LINE
  5
66A
100
AcDbEntity
  8
0
100
AcDbLine
 62
7
  6
CONTINUOUS
 10
13.4766419377
 20
4.0721390082
 11
13.4766419377
 21
4.0711746353
  0
LINE
  5
66B
100
AcDbEntity
  8
0
100
AcDbLine
 62
7
  6
CONTINUOUS
 10
13.4777157546
 20
4.034586568
 11
13.4777157546
 21
4.0336221951
  0
LINE
  5
66C
100
AcDbEntity
  8
0
100
AcDbLine
 62
7
  6
CONTINUOUS
 10
13.4813066678
 20
4.0386688152
 11
13.4813066678
 21
4.0377044423
  0
LINE
  5
66D
100
AcDbEntity
  8
0
100
AcDbLine
 62
7
  6
CONTINUOUS
 10
13.4860817172
 20
4.1077251683
 11
13.4860817172
 21
4.1067607954
  0
LINE
  5
66E
100
AcDbEntity
  8
0
100
AcDbLine
 62
7
  6
CONTINUOUS
 10
13.4881183751
 20
4.0265289436
 11
13.4881183751
 21
4.0255645707
  0
LINE
  5
66F
100
AcDbEntity
  8
0
100
AcDbLine
 62
7
  6
CONTINUOUS
 10
13.4898212923
 20
4.0234939817
 11
13.4898212923
 21
4.0225296087
  0
LINE
  5
670
100
AcDbEntity
  8
0
100
AcDbLine
 62
7
  6
CONTINUOUS
 10
13.4948183723
 20
4.1047329768
 11
13.4948183723
 21
4.1037686039
  0
LINE
  5
671
100
AcDbEntity
  8
0
100
AcDbLine
 62
7
  6
CONTINUOUS
 10
13.4967440553
 20
4.0174454085
 11
13.4967440553
 21
4.0164810355
  0
LINE
  5
672
100
AcDbEntity
  8
0
100
AcDbLine
 62
7
  6
CONTINUOUS
 10
13.4979652255
 20
4.0844499407
 11
13.4979652255
 21
4.0834855678
  0
LINE
  5
673
100
AcDbEntity
  8
0
100
AcDbLine
 62
7
  6
CONTINUOUS
 10
13.4980392087
 20
4.0885108365
 11
13.4980392087
 21
4.0875464635
  0
LINE
  5
674
100
AcDbEntity
  8
0
100
AcDbLine
 62
7
  6
CONTINUOUS
 10
13.5035180756
 20
4.0997103144
 11
13.5035180756
 21
4.0987459415
  0
LINE
  5
675
100
AcDbEntity
  8
0
100
AcDbLine
 62
7
  6
CONTINUOUS
 10
13.5071836674
 20
4.011418232
 11
13.5071836674
 21
4.010453859
  0
LINE
  5
676
100
AcDbEntity
  8
0
100
AcDbLine
 62
7
  6
CONTINUOUS
 10
13.5104407988
 20
4.0936617642
 11
13.5104407988
 21
4.0926973913
  0
LINE
  5
677
100
AcDbEntity
  8
0
100
AcDbLine
 62
7
  6
CONTINUOUS
 10
13.5176602711
 20
4.0074215034
 11
13.5176602711
 21
4.0064571304
  0
LINE
  5
678
100
AcDbEntity
  8
0
100
AcDbLine
 62
7
  6
CONTINUOUS
 10
13.5229170688
 20
4.006438363
 11
13.5229170688
 21
4.0054739901
  0
LINE
  5
679
100
AcDbEntity
  8
0
100
AcDbLine
 62
7
  6
CONTINUOUS
 10
13.5299508477
 20
4.0064811112
 11
13.5299508477
 21
4.0055167382
  0
LINE
  5
67A
100
AcDbEntity
  8
0
100
AcDbLine
 62
7
  6
CONTINUOUS
 10
13.535244637
 20
4.0075284187
 11
13.535244637
 21
4.0065640457
  0
LINE
  5
67B
100
AcDbEntity
  8
0
100
AcDbLine
 62
7
  6
CONTINUOUS
 10
13.5357997129
 20
4.0379850234
 11
13.5357997129
 21
4.0370206505
  0
LINE
  5
67C
100
AcDbEntity
  8
0
100
AcDbLine
 62
7
  6
CONTINUOUS
 10
13.5363177997
 20
4.0664111816
 11
13.5363177997
 21
4.0654468087
  0
LINE
  5
67D
100
AcDbEntity
  8
0
100
AcDbLine
 62
7
  6
CONTINUOUS
 10
13.542352398
 20
4.0116320619
 11
13.542352398
 21
4.010667689
  0
LINE
  5
67E
100
AcDbEntity
  8
0
100
AcDbLine
 62
7
  6
CONTINUOUS
 10
13.5427594676
 20
4.0339668981
 11
13.5427594676
 21
4.0330025251
  0
LINE
  5
67F
100
AcDbEntity
  8
0
100
AcDbLine
 62
3
  6
CONTINUOUS
 10
13.4133011419
 20
4.0697237162
 11
13.4134121578
 21
4.0758150376
  0
LINE
  5
680
100
AcDbEntity
  8
0
100
AcDbLine
 62
3
  6
CONTINUOUS
 10
13.4401772786
 20
4.0972950217
 11
13.4400292723
 21
4.0891732531
  0
LINE
  5
681
100
AcDbEntity
  8
0
100
AcDbLine
 62
3
  6
CONTINUOUS
 10
13.4798997657
 20
4.0579473157
 11
13.480047772
 21
4.0660690842
  0
LINE
  5
682
100
AcDbEntity
  8
0
100
AcDbLine
 62
3
  6
CONTINUOUS
 10
13.4881183751
 20
4.0265289436
 11
13.4881923994
 21
4.0305898171
  0
LINE
  5
683
100
AcDbEntity
  8
0
100
AcDbLine
 62
3
  6
CONTINUOUS
 10
13.4980392087
 20
4.0885108365
 11
13.4979652255
 21
4.0844499407
  0
LINE
  5
684
100
AcDbEntity
  8
0
100
AcDbLine
 62
3
  6
CONTINUOUS
 10
13.0751979277
 20
4.3305810366
 11
13.0770858827
 21
4.337698268
  0
LINE
  5
685
100
AcDbEntity
  8
0
100
AcDbLine
 62
9
  6
CONTINUOUS
 10
13.8727367512
 20
5.0694954151
 11
15.1254902013
 21
4.3462342359
  0
LINE
  5
686
100
AcDbEntity
  8
0
100
AcDbLine
 62
3
  6
CONTINUOUS
 10
13.7151253988
 20
5.2440677875
 11
13.9239176405
 21
5.1235242576
  0
LINE
  5
687
100
AcDbEntity
  8
0
100
AcDbLine
 62
3
  6
CONTINUOUS
 10
15.1766710906
 20
4.4002630784
 11
15.3854633322
 21
4.2797195485
  0
LINE
  5
688
100
AcDbEntity
  8
0
100
AcDbLine
 62
7
  6
CONTINUOUS
 10
15.3854633322
 20
4.2797195485
 11
15.4366442215
 21
4.2501694034
  0
LWPOLYLINE
  5
689
100
AcDbEntity
  8
0
100
AcDbPolyline
 62
3
  6
CONTINUOUS
 90
6
 70
0
 10
13.5969707715
 20
5.3958612109
 10
13.6124085176
 20
5.3656549459
 10
13.6298545542
 20
5.3332843234
 10
13.6512339557
 20
5.3009581862
 10
13.6788607597
 20
5.270613035
 10
13.7151253988
 20
5.2440677875
  0
LWPOLYLINE
  5
68A
100
AcDbEntity
  8
02___PRT_ALL_AXES
100
AcDbPolyline
 62
3
  6
CONTINUOUS
 90
4
 70
0
 10
13.8054309353
 20
4.3815834808
 10
13.8098110808
 20
4.3623753311
 10
13.8226527406
 20
4.3444764908
 10
13.8430807767
 20
4.3291064307
  0
LWPOLYLINE
  5
68B
100
AcDbEntity
  8
02___PRT_ALL_AXES
100
AcDbPolyline
 62
3
  6
CONTINUOUS
 90
7
 70
0
 10
13.7319459462
 20
4.0998958876
 10
13.7356246195
 20
4.0816287012
 10
13.7470909452
 20
4.0636288653
 10
13.7656852429
 20
4.0477363396
 10
13.7903268797
 20
4.03487474
 10
13.8195837732
 20
4.0257915358
 10
13.8517556191
 20
4.0210146099
  0
LINE
  5
68C
100
AcDbEntity
  8
02___PRT_ALL_AXES
100
AcDbLine
 62
3
  6
CONTINUOUS
 10
13.5838443044
 20
4.3444292537
 11
13.5796519815
 21
4.3816728433
  0
LWPOLYLINE
  5
68D
100
AcDbEntity
  8
0
100
AcDbPolyline
 62
3
  6
CONTINUOUS
 90
4
 70
0
 10
13.5692914239
 20
5.5181785846
 10
13.5724719898
 20
5.4788827608
 10
13.5818008777
 20
5.4377212595
 10
13.5969707715
 20
5.3958612109
  0
LINE
  5
68E
100
AcDbEntity
  8
0
100
AcDbLine
 62
7
  6
CONTINUOUS
 10
13.545980304
 20
4.0177447577
 11
13.545980304
 21
4.0167803848
  0
LINE
  5
68F
100
AcDbEntity
  8
0
100
AcDbLine
 62
7
  6
CONTINUOUS
 10
13.5503853153
 20
4.0664966995
 11
13.5503853153
 21
4.0655323266
  0
LINE
  5
690
100
AcDbEntity
  8
0
100
AcDbLine
 62
7
  6
CONTINUOUS
 10
13.5531250566
 20
4.0238788488
 11
13.5531250566
 21
4.0229144759
  0
LINE
  5
691
100
AcDbEntity
  8
0
100
AcDbLine
 62
7
  6
CONTINUOUS
 10
13.5567529601
 20
4.0299915432
 11
13.5567529601
 21
4.0290271702
  0
LINE
  5
692
100
AcDbEntity
  8
0
100
AcDbLine
 62
7
  6
CONTINUOUS
 10
13.5577158023
 20
3.9863477594
 11
13.5577158023
 21
3.9853833864
  0
LINE
  5
693
100
AcDbEntity
  8
0
100
AcDbLine
 62
7
  6
CONTINUOUS
 10
13.5608989106
 20
4.0645304188
 11
13.5608989106
 21
4.0635660459
  0
LINE
  5
694
100
AcDbEntity
  8
0
100
AcDbLine
 62
7
  6
CONTINUOUS
 10
13.5613436672
 20
3.9924604774
 11
13.5613436672
 21
3.9914961045
  0
LINE
  5
695
100
AcDbEntity
  8
0
100
AcDbLine
 62
7
  6
CONTINUOUS
 10
13.563786698
 20
4.0300343136
 11
13.563786698
 21
4.0290699407
  0
LINE
  5
696
100
AcDbEntity
  8
0
100
AcDbLine
 62
7
  6
CONTINUOUS
 10
13.5649345792
 20
3.9965427239
 11
13.5649345792
 21
3.995578351
  0
LINE
  5
697
100
AcDbEntity
  8
0
100
AcDbLine
 62
3
  6
CONTINUOUS
 10
13.5692914239
 20
7.7842138854
 11
13.5692914239
 21
5.5181785846
  0
LINE
  5
698
100
AcDbEntity
  8
0
100
AcDbLine
 62
7
  6
CONTINUOUS
 10
13.5699323546
 20
3.9813464937
 11
13.5699323546
 21
3.9803821207
  0
LINE
  5
699
100
AcDbEntity
  8
0
100
AcDbLine
 62
7
  6
CONTINUOUS
 10
13.5715982802
 20
3.9762810838
 11
13.5715982802
 21
3.9753167109
  0
LINE
  5
69A
100
AcDbEntity
  8
0
100
AcDbLine
 62
7
  6
CONTINUOUS
 10
13.5720793342
 20
4.0026768165
 11
13.5720793342
 21
4.0017124435
  0
LINE
  5
69B
100
AcDbEntity
  8
0
100
AcDbLine
 62
7
  6
CONTINUOUS
 10
13.5743743562
 20
4.0321288827
 11
13.5743743562
 21
4.0311645097
  0
LINE
  5
69C
100
AcDbEntity
  8
0
100
AcDbLine
 62
7
  6
CONTINUOUS
 10
13.5748554116
 20
4.058524616
 11
13.5748554116
 21
4.0575602431
  0
LINE
  5
69D
100
AcDbEntity
  8
0
100
AcDbLine
 62
7
  6
CONTINUOUS
 10
13.5779282417
 20
4.0341807071
 11
13.5779282417
 21
4.0332163342
  0
LINE
  5
69E
100
AcDbEntity
  8
0
100
AcDbLine
 62
7
  6
CONTINUOUS
 10
13.578335269
 20
4.0565155649
 11
13.578335269
 21
4.0555511919
  0
LINE
  5
69F
100
AcDbEntity
  8
0
100
AcDbLine
 62
7
  6
CONTINUOUS
 10
13.5785210034
 20
3.9702325336
 11
13.5785210034
 21
3.9692681607
  0
LINE
  5
6A0
100
AcDbEntity
  8
02___PRT_ALL_AXES
100
AcDbLine
 62
7
  6
CONTINUOUS
 10
13.5796435337
 20
4.327462089
 11
13.5796435337
 21
4.3548808961
  0
LINE
  5
6A1
100
AcDbEntity
  8
0
100
AcDbLine
 62
7
  6
CONTINUOUS
 10
13.5797791652
 20
4.0392675137
 11
13.5797791652
 21
4.0383031408
  0
LINE
  5
6A2
100
AcDbEntity
  8
02___PRT_ALL_AXES
100
AcDbLine
 62
9
  6
CONTINUOUS
 10
13.5826750746
 20
4.3548808961
 11
13.5826750746
 21
4.334884047
  0
LINE
  5
6A3
100
AcDbEntity
  8
0
100
AcDbLine
 62
7
  6
CONTINUOUS
 10
13.5880717964
 20
4.0119100137
 11
13.5880717964
 21
4.0109456408
  0
LINE
  5
6A4
100
AcDbEntity
  8
0
100
AcDbLine
 62
7
  6
CONTINUOUS
 10
13.5887378894
 20
4.0484579405
 11
13.5887378894
 21
4.0474935675
  0
LINE
  5
6A5
100
AcDbEntity
  8
0
100
AcDbLine
 62
7
  6
CONTINUOUS
 10
13.5889976071
 20
3.966235805
 11
13.5889976071
 21
3.9652714321
  0
LINE
  5
6A6
100
AcDbEntity
  8
0
100
AcDbLine
 62
7
  6
CONTINUOUS
 10
13.5977712936
 20
3.9652740383
 11
13.5977712936
 21
3.9643096654
  0
LINE
  5
6A7
100
AcDbEntity
  8
0
100
AcDbLine
 62
7
  6
CONTINUOUS
 10
13.5986964462
 20
4.0160350306
 11
13.5986964462
 21
4.0150706577
  0
LINE
  5
6A8
100
AcDbEntity
  8
0
100
AcDbLine
 62
7
  6
CONTINUOUS
 10
13.6057671807
 20
4.0181082518
 11
13.6057671807
 21
4.0171438789
  0
LINE
  5
6A9
100
AcDbEntity
  8
0
100
AcDbLine
 62
7
  6
CONTINUOUS
 10
13.615392691
 20
3.9674113785
 11
13.615392691
 21
3.9664470056
  0
LINE
  5
6AA
100
AcDbEntity
  8
0
100
AcDbLine
 62
7
  6
CONTINUOUS
 10
13.6163548389
 20
4.0202028209
 11
13.6163548389
 21
4.0192384479
  0
LINE
  5
6AB
100
AcDbEntity
  8
0
100
AcDbLine
 62
7
  6
CONTINUOUS
 10
13.6269054657
 20
4.020266965
 11
13.6269054657
 21
4.0193025921
  0
LINE
  5
6AC
100
AcDbEntity
  8
0
100
AcDbLine
 62
7
  6
CONTINUOUS
 10
13.6277942835
 20
3.9725623077
 11
13.6277942835
 21
3.9715979348
  0
LINE
  5
6AD
100
AcDbEntity
  8
0
100
AcDbLine
 62
7
  6
CONTINUOUS
 10
13.6402328652
 20
3.9797436833
 11
13.6402328652
 21
3.9787793104
  0
LINE
  5
6AE
100
AcDbEntity
  8
0
100
AcDbLine
 62
7
  6
CONTINUOUS
 10
13.6409359499
 20
4.018322058
 11
13.6409359499
 21
4.0173576851
  0
LINE
  5
6AF
100
AcDbEntity
  8
0
100
AcDbLine
 62
7
  6
CONTINUOUS
 10
13.649154558
 20
3.9869036852
 11
13.649154558
 21
3.9859393123
  0
LINE
  5
6B0
100
AcDbEntity
  8
0
100
AcDbLine
 62
7
  6
CONTINUOUS
 10
13.6528564498
 20
3.9970772782
 11
13.6528564498
 21
3.9961129053
  0
LINE
  5
6B1
100
AcDbEntity
  8
0
100
AcDbLine
 62
7
  6
CONTINUOUS
 10
13.6531525022
 20
4.0133207923
 11
13.6531525022
 21
4.0123564194
  0
LINE
  5
6B2
100
AcDbEntity
  8
0
100
AcDbLine
 62
7
  6
CONTINUOUS
 10
13.661815174
 20
4.006267705
 11
13.661815174
 21
4.0053033321
  0
LINE
  5
6B3
100
AcDbEntity
  8
0
100
AcDbLine
 62
7
  6
CONTINUOUS
 10
13.6732916501
 20
3.9606576168
 11
13.6732916501
 21
3.9596932438
  0
LINE
  5
6B4
100
AcDbEntity
  8
0
100
AcDbLine
 62
7
  6
CONTINUOUS
 10
13.6922088564
 20
3.9374251826
 11
13.6922088564
 21
3.9364608096
  0
LINE
  5
6B5
100
AcDbEntity
  8
0
100
AcDbLine
 62
7
  6
CONTINUOUS
 10
13.6983908079
 20
3.9872030352
 11
13.6983908079
 21
3.9862386622
  0
LINE
  5
6B6
100
AcDbEntity
  8
0
100
AcDbLine
 62
7
  6
CONTINUOUS
 10
13.7063503951
 20
3.9415715732
 11
13.7063503951
 21
3.9406072003
  0
LINE
  5
6B7
100
AcDbEntity
  8
0
100
AcDbLine
 62
7
  6
CONTINUOUS
 10
13.7133471414
 20
3.9395838958
 11
13.7133471414
 21
3.9386195228
  0
LINE
  5
6B8
100
AcDbEntity
  8
0
100
AcDbLine
 62
7
  6
CONTINUOUS
 10
13.7160129007
 20
3.89290515
 11
13.7160129007
 21
3.891940777
  0
LINE
  5
6B9
100
AcDbEntity
  8
0
100
AcDbLine
 62
3
  6
CONTINUOUS
 10
13.5577158023
 20
3.9863477594
 11
13.557604787
 21
3.9802564383
  0
LINE
  5
6BA
100
AcDbEntity
  8
0
100
AcDbLine
 62
3
  6
CONTINUOUS
 10
13.5919957175
 20
4.034266248
 11
13.5921437636
 21
4.0423879936
  0
LINE
  5
6BB
100
AcDbEntity
  8
0
100
AcDbLine
 62
3
  6
CONTINUOUS
 10
13.6650730021
 20
3.9920760125
 11
13.6651840168
 21
3.9981673332
  0
LINE
  5
6BC
100
AcDbEntity
  8
0
100
AcDbLine
 62
3
  6
CONTINUOUS
 10
13.2206124007
 20
4.2055917546
 11
13.2225003556
 21
4.2127089861
  0
LINE
  5
6BD
100
AcDbEntity
  8
0
100
AcDbLine
 62
3
  6
CONTINUOUS
 10
13.2561512105
 20
4.2261099735
 11
13.2580391654
 21
4.233227205
  0
LINE
  5
6BE
100
AcDbEntity
  8
0
100
AcDbLine
 62
3
  6
CONTINUOUS
 10
13.030922438
 20
4.3130550236
 11
13.0290714821
 21
4.3079682328
  0
LINE
  5
6BF
100
AcDbEntity
  8
0
100
AcDbLine
 62
3
  6
CONTINUOUS
 10
12.966211782
 20
4.3319486495
 11
12.9625468851
 21
4.323805506
  0
LINE
  5
6C0
100
AcDbEntity
  8
0
100
AcDbLine
 62
9
  6
CONTINUOUS
 10
13.5969707715
 20
5.3958612109
 11
15.5460175965
 21
4.2706039586
  0
LINE
  5
6C1
100
AcDbEntity
  8
0
100
AcDbLine
 62
7
  6
CONTINUOUS
 10
13.7203809191
 20
3.9396266432
 11
13.7203809191
 21
3.9386622703
  0
LINE
  5
6C2
100
AcDbEntity
  8
0
100
AcDbLine
 62
7
  6
CONTINUOUS
 10
13.7274516486
 20
3.9416998615
 11
13.7274516486
 21
3.9407354886
  0
LINE
  5
6C3
100
AcDbEntity
  8
0
100
AcDbLine
 62
7
  6
CONTINUOUS
 10
13.7327824743
 20
3.9447775968
 11
13.7327824743
 21
3.9438132239
  0
LINE
  5
6C4
100
AcDbEntity
  8
0
100
AcDbLine
 62
7
  6
CONTINUOUS
 10
13.7363733863
 20
3.9488598433
 11
13.7363733863
 21
3.9478954704
  0
LINE
  5
6C5
100
AcDbEntity
  8
0
100
AcDbLine
 62
7
  6
CONTINUOUS
 10
13.7364473695
 20
3.9529207391
 11
13.7364473695
 21
3.9519563661
  0
LINE
  5
6C6
100
AcDbEntity
  8
0
100
AcDbLine
 62
7
  6
CONTINUOUS
 10
13.7401492961
 20
3.9630943062
 11
13.7401492961
 21
3.9621299333
  0
LINE
  5
6C7
100
AcDbEntity
  8
0
100
AcDbLine
 62
7
  6
CONTINUOUS
 10
13.7470719795
 20
3.957045779
 11
13.7470719795
 21
3.9560814061
  0
LINE
  5
6C8
100
AcDbEntity
  8
0
100
AcDbLine
 62
9
  6
CONTINUOUS
 10
13.7669456647
 20
3.7547541177
 11
13.7669456647
 21
3.6711751302
  0
LINE
  5
6C9
100
AcDbEntity
  8
0
100
AcDbLine
 62
7
  6
CONTINUOUS
 10
13.7784278472
 20
3.9409946744
 11
13.7784278472
 21
3.9400303015
  0
LINE
  5
6CA
100
AcDbEntity
  8
0
100
AcDbLine
 62
7
  6
CONTINUOUS
 10
13.7891272167
 20
3.8527453394
 11
13.7891272167
 21
3.8517809665
  0
LINE
  5
6CB
100
AcDbEntity
  8
0
100
AcDbLine
 62
7
  6
CONTINUOUS
 10
13.7927550817
 20
3.8588580575
 11
13.7927550817
 21
3.8578936846
  0
LINE
  5
6CC
100
AcDbEntity
  8
0
100
AcDbLine
 62
7
  6
CONTINUOUS
 10
13.7998998741
 20
3.8649921256
 11
13.7998998741
 21
3.8640277527
  0
LINE
  5
6CD
100
AcDbEntity
  8
0
100
AcDbLine
 62
7
  6
CONTINUOUS
 10
13.8031207106
 20
3.8487699852
 11
13.8031207106
 21
3.8478056123
  0
LINE
  5
6CE
100
AcDbEntity
  8
0
100
AcDbLine
 62
7
  6
CONTINUOUS
 10
13.8047866349
 20
3.8437045747
 11
13.8047866349
 21
3.8427402017
  0
LINE
  5
6CF
100
AcDbEntity
  8
0
100
AcDbLine
 62
7
  6
CONTINUOUS
 10
13.8099694095
 20
3.8386605615
 11
13.8099694095
 21
3.8376961886
  0
LINE
  5
6D0
100
AcDbEntity
  8
0
100
AcDbLine
 62
7
  6
CONTINUOUS
 10
13.8169291243
 20
3.8346424592
 11
13.8169291243
 21
3.8336780863
  0
LINE
  5
6D1
100
AcDbEntity
  8
0
100
AcDbLine
 62
7
  6
CONTINUOUS
 10
13.825665859
 20
3.8316502217
 11
13.825665859
 21
3.8306858488
  0
LINE
  5
6D2
100
AcDbEntity
  8
0
100
AcDbLine
 62
7
  6
CONTINUOUS
 10
13.8344395468
 20
3.8306884558
 11
13.8344395468
 21
3.8297240828
  0
LINE
  5
6D3
100
AcDbEntity
  8
0
100
AcDbLine
 62
7
  6
CONTINUOUS
 10
13.8432501851
 20
3.83175716
 11
13.8432501851
 21
3.8307927871
  0
LINE
  5
6D4
100
AcDbEntity
  8
0
100
AcDbLine
 62
7
  6
CONTINUOUS
 10
13.8520979345
 20
3.8348562431
 11
13.8520979345
 21
3.8338918702
  0
LINE
  5
6D5
100
AcDbEntity
  8
02___PRT_ALL_AXES
100
AcDbLine
 62
9
  6
CONTINUOUS
 10
13.8877262668
 20
4.1787634924
 11
13.8877262668
 21
4.0951845049
  0
LINE
  5
6D6
100
AcDbEntity
  8
0
100
AcDbLine
 62
3
  6
CONTINUOUS
 10
13.7364473695
 20
3.9529207391
 11
13.7363733863
 21
3.9488598433
  0
LINE
  5
6D7
100
AcDbEntity
  8
0
100
AcDbLine
 62
3
  6
CONTINUOUS
 10
13.7891272167
 20
3.8527453394
 11
13.78897917
 21
3.8446235935
  0
LINE
  5
6D8
100
AcDbEntity
  8
0
100
AcDbLine
 62
9
  6
CONTINUOUS
 10
15.4066631507
 20
6.9163054092
 11
15.4790438585
 21
6.9580941808
  0
LWPOLYLINE
  5
6D9
100
AcDbEntity
  8
02___PRT_ALL_AXES
100
AcDbPolyline
 62
3
  6
CONTINUOUS
 90
4
 70
0
 10
14.0625175495
 20
4.3815834879
 10
14.058137404
 20
4.4007916376
 10
14.0452957442
 20
4.4186904779
 10
14.0248677081
 20
4.434060538
  0
LINE
  5
6DA
100
AcDbEntity
  8
0
100
AcDbLine
 62
7
  6
CONTINUOUS
 10
13.9071830894
 20
3.8666594823
 11
13.9071830894
 21
3.8656951094
  0
LINE
  5
6DB
100
AcDbEntity
  8
02___PRT_ALL_AXES
100
AcDbLine
 62
9
  6
CONTINUOUS
 10
14.0161928657
 20
4.7421523588
 11
14.0161928657
 21
4.6585733712
  0
LINE
  5
6DC
100
AcDbEntity
  8
02___PRT_ALL_AXES
100
AcDbLine
 62
9
  6
CONTINUOUS
 10
14.0248677081
 20
4.434060538
 11
14.0248677081
 21
4.3504815504
  0
LINE
  5
6DD
100
AcDbEntity
  8
0
100
AcDbLine
 62
3
  6
CONTINUOUS
 10
13.5101817778
 20
4.079448675
 11
13.5120697328
 21
4.0865659065
  0
LINE
  5
6DE
100
AcDbEntity
  8
0
100
AcDbLine
 62
3
  6
CONTINUOUS
 10
13.0412880345
 20
4.3029669671
 11
13.0449159305
 21
4.3090796687
  0
LINE
  5
6DF
100
AcDbEntity
  8
0
100
AcDbLine
 62
3
  6
CONTINUOUS
 10
13.0629813754
 20
4.3355823023
 11
13.0611674286
 21
4.3325259522
  0
LWPOLYLINE
  5
6E0
100
AcDbEntity
  8
02___PRT_ALL_AXES
100
AcDbPolyline
 62
3
  6
CONTINUOUS
 90
6
 70
0
 10
14.2663840653
 20
6.0624945878
 10
14.2409429686
 20
6.0451396422
 10
14.1978007875
 20
5.9989019671
 10
14.1660130912
 20
5.9385392464
 10
14.1465457327
 20
5.8658855708
 10
14.1399902179
 20
5.7831484855
  0
LWPOLYLINE
  5
6E1
100
AcDbEntity
  8
02___PRT_ALL_AXES
100
AcDbPolyline
 62
7
  6
CONTINUOUS
 90
11
 70
0
 10
14.5585060962
 20
4.3454757648
 10
14.5502318316
 20
4.3640498834
 10
14.5344987919
 20
4.3809410416
 10
14.5122213242
 20
4.3951675868
 10
14.4846941139
 20
4.4059027238
 10
14.4535169425
 20
4.4125225655
 10
14.4205017138
 20
4.4146423908
 10
14.3875671529
 20
4.412139003
 10
14.3566272967
 20
4.4051578901
 10
14.3294802573
 20
4.394104769
 10
14.307703722
 20
4.3796220067
  0
LWPOLYLINE
  5
6E2
100
AcDbEntity
  8
02___PRT_ALL_AXES
100
AcDbPolyline
 62
3
  6
CONTINUOUS
 90
14
 70
0
 10
14.5585060962
 20
4.4290547524
 10
14.5502318316
 20
4.447628871
 10
14.5344987919
 20
4.4645200292
 10
14.5122213242
 20
4.4787465744
 10
14.4846941139
 20
4.4894817114
 10
14.4535169425
 20
4.4961015531
 10
14.4205017138
 20
4.4982213783
 10
14.3875671529
 20
4.4957179906
 10
14.3566272967
 20
4.4887368777
 10
14.3294802573
 20
4.4776837565
 10
14.307703722
 20
4.4632009943
 10
14.2925632637
 20
4.4461302765
 10
14.2849387908
 20
4.4274636913
 10
14.2841041804
 20
4.418737715
  0
LWPOLYLINE
  5
6E3
100
AcDbEntity
  8
02___PRT_ALL_AXES
100
AcDbPolyline
 62
3
  6
CONTINUOUS
 90
7
 70
0
 10
14.1360025386
 20
4.663271081
 10
14.1323238653
 20
4.6815382675
 10
14.1208575396
 20
4.6995381034
 10
14.1022632419
 20
4.715430629
 10
14.0776216051
 20
4.7282922287
 10
14.0483647116
 20
4.7373754329
 10
14.0161928657
 20
4.7421523588
  0
LWPOLYLINE
  5
6E4
100
AcDbEntity
  8
02___PRT_ALL_AXES
100
AcDbPolyline
 62
3
  6
CONTINUOUS
 90
15
 70
0
 10
14.1399902179
 20
5.7831484855
 10
14.1465457327
 20
5.6928419149
 10
14.1660130912
 20
5.5977097785
 10
14.1978007875
 20
5.5006426181
 10
14.2409429686
 20
5.4045897703
 10
14.294128781
 20
5.3124697522
 10
14.3557422009
 20
5.227081584
 10
14.4239111357
 20
5.1510197419
 10
14.4965643066
 20
5.0865953266
 10
14.571494184
 20
5.0357658413
 10
14.6464240614
 20
5.0000757142
 10
14.7190772323
 20
4.9806093718
 10
14.7872461671
 20
4.9779582889
 10
14.848859587
 20
4.9922030175
 10
14.8766043027
 20
5.0055557929
  0
LWPOLYLINE
  5
6E5
100
AcDbEntity
  8
02___PRT_ALL_AXES
100
AcDbPolyline
 62
7
  6
CONTINUOUS
 90
14
 70
0
 10
14.2123709256
 20
5.8249372571
 10
14.2189264404
 20
5.7346306865
 10
14.2383937989
 20
5.6394985501
 10
14.2701814952
 20
5.5424313897
 10
14.3133236763
 20
5.4463785419
 10
14.3665094888
 20
5.3542585238
 10
14.4281229087
 20
5.2688703556
 10
14.4962918434
 20
5.1928085136
 10
14.5689450144
 20
5.1283840983
 10
14.6438748917
 20
5.077554613
 10
14.7188047691
 20
5.0418644859
 10
14.7914579401
 20
5.0223981434
 10
14.8596268748
 20
5.0197470606
 10
14.9099488399
 20
5.0313812587
  0
LINE
  5
6E6
100
AcDbEntity
  8
0
100
AcDbLine
 62
9
  6
CONTINUOUS
 10
14.1010118606
 20
3.7547549207
 11
14.1010118606
 21
3.6711759332
  0
LINE
  5
6E7
100
AcDbEntity
  8
0
100
AcDbLine
 62
3
  6
CONTINUOUS
 10
13.7468129983
 20
3.9428326668
 11
13.7487009533
 21
3.9499498983
  0
LINE
  5
6E8
100
AcDbEntity
  8
0
100
AcDbLine
 62
3
  6
CONTINUOUS
 10
13.4659062731
 20
4.0619226706
 11
13.4640553074
 21
4.0568358856
  0
LINE
  5
6E9
100
AcDbEntity
  8
0
100
AcDbLine
 62
3
  6
CONTINUOUS
 10
13.4777157546
 20
4.034586568
 11
13.4758648312
 21
4.0294997615
  0
LINE
  5
6EA
100
AcDbEntity
  8
0
100
AcDbLine
 62
3
  6
CONTINUOUS
 10
13.5564199161
 20
4.0117175812
 11
13.5582708794
 21
4.0168043648
  0
LINE
  5
6EB
100
AcDbEntity
  8
0
100
AcDbLine
 62
3
  6
CONTINUOUS
 10
13.5797791652
 20
4.0392675137
 11
13.5779282417
 21
4.0341807071
  0
LINE
  5
6EC
100
AcDbEntity
  8
0
100
AcDbLine
 62
3
  6
CONTINUOUS
 10
13.5699323546
 20
3.9813464937
 11
13.5736342426
 21
3.9915200845
  0
LINE
  5
6ED
100
AcDbEntity
  8
0
100
AcDbLine
 62
3
  6
CONTINUOUS
 10
13.4011956055
 20
4.0808163032
 11
13.3975307085
 21
4.0726731599
  0
LWPOLYLINE
  5
6EE
100
AcDbEntity
  8
02___PRT_ALL_AXES
100
AcDbPolyline
 62
7
  6
CONTINUOUS
 90
5
 70
0
 10
14.3054202358
 20
6.0784578938
 10
14.2701814952
 20
6.0406907388
 10
14.2383937989
 20
5.9803280181
 10
14.2189264404
 20
5.9076743425
 10
14.2123709256
 20
5.8249372571
  0
LINE
  5
6EF
100
AcDbEntity
  8
0
100
AcDbLine
 62
9
  6
CONTINUOUS
 10
15.573696944
 20
6.6269959986
 11
15.6460776518
 21
6.6687847702
  0
LINE
  5
6F0
100
AcDbEntity
  8
02___PRT_ALL_AXES
100
AcDbLine
 62
9
  6
CONTINUOUS
 10
14.1399902179
 20
5.7831484855
 11
14.2123709256
 21
5.8249372571
  0
LINE
  5
6F1
100
AcDbEntity
  8
02___PRT_ALL_AXES
100
AcDbLine
 62
3
  6
CONTINUOUS
 10
14.2841041804
 20
4.418737715
 11
14.2882965033
 21
4.3814941254
  0
LINE
  5
6F2
100
AcDbEntity
  8
02___PRT_ALL_AXES
100
AcDbLine
 62
7
  6
CONTINUOUS
 10
14.2883049511
 20
4.2980044968
 11
14.2883049511
 21
4.3815834843
  0
LINE
  5
6F3
100
AcDbEntity
  8
0
100
AcDbLine
 62
3
  6
CONTINUOUS
 10
13.6528564498
 20
3.9970772782
 11
13.649154558
 21
3.9869036852
  0
LWPOLYLINE
  5
6F4
100
AcDbEntity
  8
0
100
AcDbPolyline
 62
3
  6
CONTINUOUS
 90
4
 70
0
 10
13.9239176405
 20
5.1235242576
 10
13.9089271051
 20
5.1015872621
 10
13.8914702569
 20
5.08315903
 10
13.8727367512
 20
5.0694954151
  0
LINE
  5
6F5
100
AcDbEntity
  8
0
100
AcDbLine
 62
3
  6
CONTINUOUS
 10
13.1029628835
 20
4.3104476855
 11
13.0615751762
 21
4.2584255702
  0
LINE
  5
6F6
100
AcDbEntity
  8
0
100
AcDbLine
 62
7
  6
CONTINUOUS
 10
13.1029628835
 20
4.3094833126
 11
13.0620450233
 21
4.2580517696
  0
LINE
  5
6F7
100
AcDbEntity
  8
0
100
AcDbLine
 62
3
  6
CONTINUOUS
 10
13.0774196234
 20
4.2595370053
 11
13.1259520919
 21
4.3176932053
  0
LINE
  5
6F8
100
AcDbEntity
  8
0
100
AcDbLine
 62
3
  6
CONTINUOUS
 10
12.9784283339
 20
4.326947384
 11
12.9820192196
 21
4.3310296456
  0
LINE
  5
6F9
100
AcDbEntity
  8
0
100
AcDbLine
 62
3
  6
CONTINUOUS
 10
13.0191869472
 20
4.3444520133
 11
13.022777833
 21
4.3485342749
  0
LINE
  5
6FA
100
AcDbEntity
  8
0
100
AcDbLine
 62
3
  6
CONTINUOUS
 10
13.0716070407
 20
4.3264987757
 11
13.0751979277
 21
4.3305810366
  0
LINE
  5
6FB
100
AcDbEntity
  8
0
100
AcDbLine
 62
3
  6
CONTINUOUS
 10
12.9715796076
 20
4.3370568221
 11
12.966211782
 21
4.3319486495
  0
LINE
  5
6FC
100
AcDbEntity
  8
02___PRT_ALL_AXES
100
AcDbLine
 62
7
  6
CONTINUOUS
 10
14.558576298
 20
4.3448563601
 11
14.5585060962
 21
4.3454757648
  0
LINE
  5
6FD
100
AcDbEntity
  8
02___PRT_ALL_AXES
100
AcDbLine
 62
3
  6
CONTINUOUS
 10
14.5638928499
 20
4.3815262898
 11
14.5585060962
 21
4.4290547524
  0
LINE
  5
6FE
100
AcDbEntity
  8
02___PRT_ALL_AXES
100
AcDbLine
 62
9
  6
CONTINUOUS
 10
14.5585060962
 20
4.4290547524
 11
14.5585060962
 21
4.3454757648
  0
LINE
  5
6FF
100
AcDbEntity
  8
0
100
AcDbLine
 62
3
  6
CONTINUOUS
 10
13.8031207106
 20
3.8487699852
 11
13.804971634
 21
3.8538567918
  0
LINE
  5
700
100
AcDbEntity
  8
0
100
AcDbLine
 62
3
  6
CONTINUOUS
 10
13.4762718597
 20
4.0518346199
 11
13.4798997657
 21
4.0579473157
  0
LINE
  5
701
100
AcDbEntity
  8
0
100
AcDbLine
 62
3
  6
CONTINUOUS
 10
13.4979652255
 20
4.0844499407
 11
13.4961512538
 21
4.081393605
  0
LINE
  5
702
100
AcDbEntity
  8
0
100
AcDbLine
 62
3
  6
CONTINUOUS
 10
13.4881923994
 20
4.0305898171
 11
13.4900063313
 21
4.0336461758
  0
LINE
  5
703
100
AcDbEntity
  8
0
100
AcDbLine
 62
3
  6
CONTINUOUS
 10
13.545980304
 20
4.0177447577
 11
13.542352398
 21
4.0116320619
  0
LINE
  5
704
100
AcDbEntity
  8
0
100
AcDbLine
 62
7
  6
CONTINUOUS
 10
13.5428373909
 20
4.0114848584
 11
13.542352398
 21
4.010667689
  0
LINE
  5
705
100
AcDbEntity
  8
0
100
AcDbLine
 62
3
  6
CONTINUOUS
 10
13.5613436672
 20
3.9924604774
 11
13.5577158023
 21
3.9863477594
  0
LINE
  5
706
100
AcDbEntity
  8
0
100
AcDbLine
 62
3
  6
CONTINUOUS
 10
13.362213237
 20
4.1607728102
 11
13.3208255595
 21
4.1087506776
  0
LINE
  5
707
100
AcDbEntity
  8
0
100
AcDbLine
 62
7
  6
CONTINUOUS
 10
13.362213237
 20
4.1598084373
 11
13.3212954065
 21
4.1083768776
  0
LINE
  5
708
100
AcDbEntity
  8
0
100
AcDbLine
 62
3
  6
CONTINUOUS
 10
13.2083958484
 20
4.2105930203
 11
13.2048049539
 21
4.2065107609
  0
LINE
  5
709
100
AcDbEntity
  8
0
100
AcDbLine
 62
7
  6
CONTINUOUS
 10
13.2083958484
 20
4.2096286474
 11
13.2048049539
 21
4.2055463879
  0
LINE
  5
70A
100
AcDbEntity
  8
0
100
AcDbLine
 62
3
  6
CONTINUOUS
 10
13.2170215062
 20
4.2015094952
 11
13.2206124007
 21
4.2055917546
  0
LINE
  5
70B
100
AcDbEntity
  8
0
100
AcDbLine
 62
3
  6
CONTINUOUS
 10
13.2439346582
 20
4.2311112392
 11
13.2403437612
 21
4.2270289783
  0
LINE
  5
70C
100
AcDbEntity
  8
0
100
AcDbLine
 62
7
  6
CONTINUOUS
 10
13.2439346582
 20
4.2301468663
 11
13.2403437612
 21
4.2260646054
  0
LINE
  5
70D
100
AcDbEntity
  8
0
100
AcDbLine
 62
3
  6
CONTINUOUS
 10
13.2525603185
 20
4.2220277155
 11
13.2561512105
 21
4.2261099735
  0
LINE
  5
70E
100
AcDbEntity
  8
0
100
AcDbLine
 62
7
  6
CONTINUOUS
 10
12.9715796076
 20
4.3360924492
 11
12.966211782
 21
4.3309842765
  0
LINE
  5
70F
100
AcDbEntity
  8
0
100
AcDbLine
 62
3
  6
CONTINUOUS
 10
13.0105612807
 20
4.3535355406
 11
13.0051934552
 21
4.3484273678
  0
LINE
  5
710
100
AcDbEntity
  8
0
100
AcDbLine
 62
7
  6
CONTINUOUS
 10
13.0105612807
 20
4.3525711676
 11
13.0051934552
 21
4.3474629949
  0
LWPOLYLINE
  5
711
100
AcDbEntity
  8
0
100
AcDbPolyline
 62
3
  6
CONTINUOUS
 90
4
 70
0
 10
12.8482584105
 20
4.4780161
 10
12.8107187821
 20
4.4497707862
 10
12.7871204943
 20
4.41687847
 10
12.7790717314
 20
4.3815812696
  0
LINE
  5
712
100
AcDbEntity
  8
0
100
AcDbLine
 62
3
  6
CONTINUOUS
 10
13.6614451384
 20
3.9859632952
 11
13.6650730021
 21
3.9920760125
  0
LINE
  5
713
100
AcDbEntity
  8
0
100
AcDbLine
 62
3
  6
CONTINUOUS
 10
13.3366699768
 20
4.10986213
 11
13.3852024454
 21
4.16801833
  0
LINE
  5
714
100
AcDbEntity
  8
0
100
AcDbLine
 62
3
  6
CONTINUOUS
 10
13.2721073565
 20
4.1368775089
 11
13.3277845989
 21
4.2011677892
  0
LINE
  5
715
100
AcDbEntity
  8
0
100
AcDbLine
 62
3
  6
CONTINUOUS
 10
13.2760312951
 20
4.1592337303
 11
13.2616677445
 21
4.1429046854
  0
LINE
  5
716
100
AcDbEntity
  8
0
100
AcDbLine
 62
7
  6
CONTINUOUS
 10
13.2760312951
 20
4.1582693574
 11
13.2621459923
 21
4.1424840033
  0
LINE
  5
717
100
AcDbEntity
  8
0
100
AcDbLine
 62
3
  6
CONTINUOUS
 10
13.3137170832
 20
4.2010822713
 11
13.2813991074
 21
4.1643419106
  0
LINE
  5
718
100
AcDbEntity
  8
0
100
AcDbLine
 62
7
  6
CONTINUOUS
 10
13.3137170832
 20
4.2001178984
 11
13.2813991074
 21
4.1633775377
  0
LINE
  5
719
100
AcDbEntity
  8
0
100
AcDbLine
 62
3
  6
CONTINUOUS
 10
13.4134121578
 20
4.0758150376
 11
13.4170030697
 21
4.0798972841
  0
LINE
  5
71A
100
AcDbEntity
  8
0
100
AcDbLine
 62
3
  6
CONTINUOUS
 10
13.8727367512
 20
5.0694954151
 11
12.8482584105
 21
4.4780161
  0
LINE
  5
71B
100
AcDbEntity
  8
0
100
AcDbLine
 62
3
  6
CONTINUOUS
 10
13.7927550817
 20
3.8588580575
 11
13.7891272167
 21
3.8527453394
  0
LINE
  5
71C
100
AcDbEntity
  8
0
100
AcDbLine
 62
7
  6
CONTINUOUS
 10
13.7927550817
 20
3.8578936846
 11
13.7891272167
 21
3.8517809665
  0
LINE
  5
71D
100
AcDbEntity
  8
0
100
AcDbLine
 62
3
  6
CONTINUOUS
 10
13.4541707712
 20
4.0933196668
 11
13.4577616831
 21
4.0974019133
  0
LINE
  5
71E
100
AcDbEntity
  8
0
100
AcDbLine
 62
3
  6
CONTINUOUS
 10
13.5065908659
 20
4.0753664285
 11
13.5101817778
 21
4.079448675
  0
LINE
  5
71F
100
AcDbEntity
  8
0
100
AcDbLine
 62
3
  6
CONTINUOUS
 10
13.4813066678
 20
4.0386688152
 11
13.4777157546
 21
4.034586568
  0
LINE
  5
720
100
AcDbEntity
  8
0
100
AcDbLine
 62
7
  6
CONTINUOUS
 10
13.4813066678
 20
4.0377044423
 11
13.4777157546
 21
4.0336221951
  0
LINE
  5
721
100
AcDbEntity
  8
0
100
AcDbLine
 62
3
  6
CONTINUOUS
 10
13.5649345792
 20
3.9965427239
 11
13.5613436672
 21
3.9924604774
  0
LINE
  5
722
100
AcDbEntity
  8
0
100
AcDbLine
 62
7
  6
CONTINUOUS
 10
13.5649345792
 20
3.995578351
 11
13.5613436672
 21
3.9914961045
  0
LINE
  5
723
100
AcDbEntity
  8
0
100
AcDbLine
 62
3
  6
CONTINUOUS
 10
13.4065634577
 20
4.0859244605
 11
13.4011956055
 21
4.0808163032
  0
LINE
  5
724
100
AcDbEntity
  8
0
100
AcDbLine
 62
7
  6
CONTINUOUS
 10
13.4065634577
 20
4.0849600876
 11
13.4011956055
 21
4.0798519303
  0
LINE
  5
725
100
AcDbEntity
  8
0
100
AcDbLine
 62
3
  6
CONTINUOUS
 10
13.4455451308
 20
4.102403179
 11
13.4401772786
 21
4.0972950217
  0
LINE
  5
726
100
AcDbEntity
  8
0
100
AcDbLine
 62
7
  6
CONTINUOUS
 10
13.4455451308
 20
4.101438806
 11
13.4401772786
 21
4.0963306487
  0
LINE
  5
727
100
AcDbEntity
  8
0
100
AcDbLine
 62
3
  6
CONTINUOUS
 10
13.0176690466
 20
4.3576391866
 11
13.0105612807
 21
4.3535355406
  0
LINE
  5
728
100
AcDbEntity
  8
0
100
AcDbLine
 62
7
  6
CONTINUOUS
 10
13.0176690466
 20
4.3566748137
 11
13.0105612807
 21
4.3525711676
  0
LINE
  5
729
100
AcDbEntity
  8
0
100
AcDbLine
 62
3
  6
CONTINUOUS
 10
13.022777833
 20
4.3485342749
 11
13.0263317135
 21
4.3505860965
  0
LINE
  5
72A
100
AcDbEntity
  8
0
100
AcDbLine
 62
3
  6
CONTINUOUS
 10
13.0290714821
 20
4.3079682328
 11
13.0237406614
 21
4.3048905004
  0
LINE
  5
72B
100
AcDbEntity
  8
0
100
AcDbLine
 62
7
  6
CONTINUOUS
 10
13.0290714821
 20
4.3070038599
 11
13.0237406614
 21
4.3039261275
  0
LINE
  5
72C
100
AcDbEntity
  8
0
100
AcDbLine
 62
3
  6
CONTINUOUS
 10
13.0324033333
 20
4.2978374131
 11
13.0412880345
 21
4.3029669671
  0
LWPOLYLINE
  5
72D
100
AcDbEntity
  8
02___PRT_ALL_AXES
100
AcDbPolyline
 62
3
  6
CONTINUOUS
 90
15
 70
0
 10
15.0029981501
 20
5.2849018953
 10
14.9964426353
 20
5.3752084659
 10
14.9769752768
 20
5.4703406023
 10
14.9451875805
 20
5.5674077627
 10
14.9020453994
 20
5.6634606105
 10
14.848859587
 20
5.7555806286
 10
14.7872461671
 20
5.8409687968
 10
14.7190772323
 20
5.9170306388
 10
14.6464240614
 20
5.9814550541
 10
14.571494184
 20
6.0322845394
 10
14.4965643066
 20
6.0679746665
 10
14.4239111357
 20
6.087441009
 10
14.3557422009
 20
6.0900920919
 10
14.294128781
 20
6.0758473633
 10
14.2663840653
 20
6.0624945878
  0
LINE
  5
72E
100
AcDbEntity
  8
0
100
AcDbLine
 62
3
  6
CONTINUOUS
 10
13.6809921366
 20
3.9008131116
 11
13.706202349
 21
3.9334498277
  0
LINE
  5
72F
100
AcDbEntity
  8
0
100
AcDbLine
 62
3
  6
CONTINUOUS
 10
13.6922088564
 20
3.9374251826
 11
13.6688126157
 21
3.9078448022
  0
LINE
  5
730
100
AcDbEntity
  8
0
100
AcDbLine
 62
7
  6
CONTINUOUS
 10
13.6922088564
 20
3.9364608096
 11
13.6692818377
 21
3.9074736768
  0
LINE
  5
731
100
AcDbEntity
  8
0
100
AcDbLine
 62
3
  6
CONTINUOUS
 10
13.6578542215
 20
3.9818810458
 11
13.6614451384
 21
3.9859632952
  0
LINE
  5
732
100
AcDbEntity
  8
0
100
AcDbLine
 62
3
  6
CONTINUOUS
 10
13.7363733863
 20
3.9488598433
 11
13.7327824743
 21
3.9447775968
  0
LINE
  5
733
100
AcDbEntity
  8
0
100
AcDbLine
 62
7
  6
CONTINUOUS
 10
13.7363733863
 20
3.9478954704
 11
13.7327824743
 21
3.9438132239
  0
LINE
  5
734
100
AcDbEntity
  8
0
100
AcDbLine
 62
3
  6
CONTINUOUS
 10
13.7432220864
 20
3.9387504203
 11
13.7468129983
 21
3.9428326668
  0
LINE
  5
735
100
AcDbEntity
  8
0
100
AcDbLine
 62
3
  6
CONTINUOUS
 10
13.5510521013
 20
4.0066093995
 11
13.5564199161
 21
4.0117175812
  0
LINE
  5
736
100
AcDbEntity
  8
0
100
AcDbLine
 62
3
  6
CONTINUOUS
 10
13.5866279052
 20
4.0291580677
 11
13.5919957175
 21
4.034266248
  0
LINE
  5
737
100
AcDbEntity
  8
0
100
AcDbLine
 62
3
  6
CONTINUOUS
 10
13.1102926738
 20
4.32673397
 11
13.0267764726
 21
4.2785161566
  0
LINE
  5
738
100
AcDbEntity
  8
0
100
AcDbLine
 62
7
  6
CONTINUOUS
 10
13.1102926738
 20
4.3257695971
 11
13.027611656
 21
4.2780339741
  0
LINE
  5
739
100
AcDbEntity
  8
0
100
AcDbLine
 62
3
  6
CONTINUOUS
 10
13.0372160847
 20
4.2724889801
 11
13.1029628835
 21
4.3104476855
  0
LINE
  5
73A
100
AcDbEntity
  8
0
100
AcDbLine
 62
3
  6
CONTINUOUS
 10
13.165600556
 20
4.2742846265
 11
13.0998537572
 21
4.2363259211
  0
LINE
  5
73B
100
AcDbEntity
  8
0
100
AcDbLine
 62
7
  6
CONTINUOUS
 10
13.165600556
 20
4.2733202536
 11
13.1006889406
 21
4.2358437386
  0
LINE
  5
73C
100
AcDbEntity
  8
0
100
AcDbLine
 62
3
  6
CONTINUOUS
 10
13.1102933692
 20
4.2302987446
 11
13.1938095705
 21
4.2785165581
  0
LINE
  5
73D
100
AcDbEntity
  8
0
100
AcDbLine
 62
3
  6
CONTINUOUS
 10
13.2077290599
 20
4.2704803189
 11
13.1242128587
 21
4.2222625054
  0
LINE
  5
73E
100
AcDbEntity
  8
0
100
AcDbLine
 62
7
  6
CONTINUOUS
 10
13.2077290599
 20
4.269515946
 11
13.1250480421
 21
4.221780323
  0
LINE
  5
73F
100
AcDbEntity
  8
0
100
AcDbLine
 62
3
  6
CONTINUOUS
 10
13.1453141134
 20
4.2223907945
 11
13.1719682208
 21
4.2377794587
  0
LINE
  5
740
100
AcDbEntity
  8
0
100
AcDbLine
 62
3
  6
CONTINUOUS
 10
13.1826298622
 20
4.2439349235
 11
13.2075070306
 21
4.2582976776
  0
LINE
  5
741
100
AcDbEntity
  8
0
100
AcDbLine
 62
3
  6
CONTINUOUS
 10
13.2403437612
 20
4.2270289783
 11
13.2367898807
 21
4.2249771567
  0
LINE
  5
742
100
AcDbEntity
  8
0
100
AcDbLine
 62
3
  6
CONTINUOUS
 10
13.2048049539
 20
4.2065107609
 11
13.1994741332
 21
4.2034330285
  0
LINE
  5
743
100
AcDbEntity
  8
0
100
AcDbLine
 62
7
  6
CONTINUOUS
 10
13.2403437612
 20
4.2260646054
 11
13.2367898807
 21
4.2240127838
  0
LINE
  5
744
100
AcDbEntity
  8
0
100
AcDbLine
 62
7
  6
CONTINUOUS
 10
13.2048049539
 20
4.2055463879
 11
13.1994741332
 21
4.2024686555
  0
LINE
  5
745
100
AcDbEntity
  8
0
100
AcDbLine
 62
3
  6
CONTINUOUS
 10
13.208136805
 20
4.1963799412
 11
13.2170215062
 21
4.2015094952
  0
LINE
  5
746
100
AcDbEntity
  8
0
100
AcDbLine
 62
3
  6
CONTINUOUS
 10
13.2454525525
 20
4.2179240694
 11
13.2525603185
 21
4.2220277155
  0
LINE
  5
747
100
AcDbEntity
  8
0
100
AcDbLine
 62
9
  6
CONTINUOUS
 10
15.1254902013
 20
4.2626552483
 11
15.1254902013
 21
4.3462342359
  0
LWPOLYLINE
  5
748
100
AcDbEntity
  8
02___PRT_ALL_AXES
100
AcDbPolyline
 62
7
  6
CONTINUOUS
 90
3
 70
0
 10
14.307703722
 20
4.3796220067
 10
14.2925632637
 20
4.362551289
 10
14.2883049511
 20
4.3521258921
  0
LINE
  5
749
100
AcDbEntity
  8
0
100
AcDbLine
 62
3
  6
CONTINUOUS
 10
13.5720793342
 20
4.0026768165
 11
13.5649345792
 21
3.9965427239
  0
LINE
  5
74A
100
AcDbEntity
  8
0
100
AcDbLine
 62
7
  6
CONTINUOUS
 10
13.5720793342
 20
4.0017124435
 11
13.5649345792
 21
3.995578351
  0
LINE
  5
74B
100
AcDbEntity
  8
0
100
AcDbLine
 62
3
  6
CONTINUOUS
 10
13.6507094689
 20
3.9757469547
 11
13.6578542215
 21
3.9818810458
  0
LINE
  5
74C
100
AcDbEntity
  8
0
100
AcDbLine
 62
3
  6
CONTINUOUS
 10
13.5736342426
 20
3.9915200845
 11
13.5825559379
 21
3.9986800879
  0
LINE
  5
74D
100
AcDbEntity
  8
0
100
AcDbLine
 62
3
  6
CONTINUOUS
 10
13.649154558
 20
3.9869036852
 11
13.6402328652
 21
3.9797436833
  0
LINE
  5
74E
100
AcDbEntity
  8
0
100
AcDbLine
 62
7
  6
CONTINUOUS
 10
13.649154558
 20
3.9859393123
 11
13.6402328652
 21
3.9787793104
  0
LWPOLYLINE
  5
74F
100
AcDbEntity
  8
02___PRT_ALL_AXES
100
AcDbPolyline
 62
3
  6
CONTINUOUS
 90
6
 70
0
 10
14.8766043027
 20
5.0055557929
 10
14.9020453994
 20
5.0229107386
 10
14.9451875805
 20
5.0691484136
 10
14.9769752768
 20
5.1295111344
 10
14.9964426353
 20
5.20216481
 10
15.0029981501
 20
5.2849018953
  0
LINE
  5
750
100
AcDbEntity
  8
0
100
AcDbLine
 62
3
  6
CONTINUOUS
 10
13.3695430273
 20
4.1770590947
 11
13.2860268261
 21
4.1288412813
  0
LINE
  5
751
100
AcDbEntity
  8
0
100
AcDbLine
 62
7
  6
CONTINUOUS
 10
13.3695430273
 20
4.1760947218
 11
13.2868620095
 21
4.1283590988
  0
LINE
  5
752
100
AcDbEntity
  8
0
100
AcDbLine
 62
3
  6
CONTINUOUS
 10
13.2964664381
 20
4.1228141048
 11
13.362213237
 21
4.1607728102
  0
LINE
  5
753
100
AcDbEntity
  8
0
100
AcDbLine
 62
3
  6
CONTINUOUS
 10
13.4248509095
 20
4.1246097513
 11
13.3591041106
 21
4.0866510458
  0
LINE
  5
754
100
AcDbEntity
  8
0
100
AcDbLine
 62
7
  6
CONTINUOUS
 10
13.4248509095
 20
4.1236453783
 11
13.359939294
 21
4.0861688634
  0
LINE
  5
755
100
AcDbEntity
  8
0
100
AcDbLine
 62
3
  6
CONTINUOUS
 10
13.3695437227
 20
4.0806238693
 11
13.453059924
 21
4.1288416828
  0
LINE
  5
756
100
AcDbEntity
  8
0
100
AcDbLine
 62
3
  6
CONTINUOUS
 10
13.0265167431
 20
4.3607383003
 11
13.0176690466
 21
4.3576391866
  0
LINE
  5
757
100
AcDbEntity
  8
0
100
AcDbLine
 62
7
  6
CONTINUOUS
 10
13.0265167431
 20
4.3597739274
 11
13.0176690466
 21
4.3566748137
  0
LINE
  5
758
100
AcDbEntity
  8
0
100
AcDbLine
 62
3
  6
CONTINUOUS
 10
13.0263317135
 20
4.3505860965
 11
13.0334024741
 21
4.3526593026
  0
LINE
  5
759
100
AcDbEntity
  8
0
100
AcDbLine
 62
3
  6
CONTINUOUS
 10
13.804971634
 20
3.8538567918
 11
13.8103394862
 21
3.8589649491
  0
LINE
  5
75A
100
AcDbEntity
  8
0
100
AcDbLine
 62
3
  6
CONTINUOUS
 10
13.7998998741
 20
3.8649921256
 11
13.7927550817
 21
3.8588580575
  0
LINE
  5
75B
100
AcDbEntity
  8
0
100
AcDbLine
 62
7
  6
CONTINUOUS
 10
13.7998998741
 20
3.8640277527
 11
13.7927550817
 21
3.8578936846
  0
LINE
  5
75C
100
AcDbEntity
  8
0
100
AcDbLine
 62
3
  6
CONTINUOUS
 10
13.4526528967
 20
4.1065068251
 11
13.4455451308
 21
4.102403179
  0
LINE
  5
75D
100
AcDbEntity
  8
0
100
AcDbLine
 62
7
  6
CONTINUOUS
 10
13.4526528967
 20
4.1055424521
 11
13.4455451308
 21
4.101438806
  0
LINE
  5
75E
100
AcDbEntity
  8
0
100
AcDbLine
 62
3
  6
CONTINUOUS
 10
13.4577616831
 20
4.0974019133
 11
13.4613155636
 21
4.0994537349
  0
LINE
  5
75F
100
AcDbEntity
  8
0
100
AcDbLine
 62
3
  6
CONTINUOUS
 10
13.4640553074
 20
4.0568358856
 11
13.4587244866
 21
4.0537581532
  0
LINE
  5
760
100
AcDbEntity
  8
0
100
AcDbLine
 62
7
  6
CONTINUOUS
 10
13.4640553074
 20
4.0558715127
 11
13.4587244866
 21
4.0527937803
  0
LINE
  5
761
100
AcDbEntity
  8
0
100
AcDbLine
 62
3
  6
CONTINUOUS
 10
13.4673871585
 20
4.0467050659
 11
13.4762718597
 21
4.0518346199
  0
LINE
  5
762
100
AcDbEntity
  8
0
100
AcDbLine
 62
3
  6
CONTINUOUS
 10
13.5357997129
 20
4.0379850234
 11
13.5286919519
 21
4.0338813802
  0
LINE
  5
763
100
AcDbEntity
  8
0
100
AcDbLine
 62
7
  6
CONTINUOUS
 10
13.5357997129
 20
4.0370206505
 11
13.5295271353
 21
4.0333991977
  0
LINE
  5
764
100
AcDbEntity
  8
0
100
AcDbLine
 62
3
  6
CONTINUOUS
 10
13.5779282417
 20
4.0341807071
 11
13.5743743562
 21
4.0321288827
  0
LINE
  5
765
100
AcDbEntity
  8
0
100
AcDbLine
 62
7
  6
CONTINUOUS
 10
13.5779282417
 20
4.0332163342
 11
13.5743743562
 21
4.0311645097
  0
LINE
  5
766
100
AcDbEntity
  8
0
100
AcDbLine
 62
3
  6
CONTINUOUS
 10
13.542352398
 20
4.0116320619
 11
13.535244637
 21
4.0075284187
  0
LINE
  5
767
100
AcDbEntity
  8
0
100
AcDbLine
 62
7
  6
CONTINUOUS
 10
13.542352398
 20
4.010667689
 11
13.535244637
 21
4.0065640457
  0
LINE
  5
768
100
AcDbEntity
  8
0
100
AcDbLine
 62
3
  6
CONTINUOUS
 10
13.5830740197
 20
4.0271062432
 11
13.5866279052
 21
4.0291580677
  0
LINE
  5
769
100
AcDbEntity
  8
0
100
AcDbLine
 62
3
  6
CONTINUOUS
 10
13.5439443403
 20
4.0025057563
 11
13.5510521013
 21
4.0066093995
  0
LINE
  5
76A
100
AcDbEntity
  8
0
100
AcDbLine
 62
3
  6
CONTINUOUS
 10
13.5880717964
 20
4.0119100137
 11
13.5720793342
 21
4.0026768165
  0
LINE
  5
76B
100
AcDbEntity
  8
0
100
AcDbLine
 62
7
  6
CONTINUOUS
 10
13.5880717964
 20
4.0109456408
 11
13.5720793342
 21
4.0017124435
  0
LINE
  5
76C
100
AcDbEntity
  8
0
100
AcDbLine
 62
3
  6
CONTINUOUS
 10
13.2367898807
 20
4.2249771567
 11
13.2297191313
 21
4.2229039499
  0
LINE
  5
76D
100
AcDbEntity
  8
0
100
AcDbLine
 62
7
  6
CONTINUOUS
 10
13.2367898807
 20
4.2240127838
 11
13.2297191313
 21
4.221939577
  0
LINE
  5
76E
100
AcDbEntity
  8
0
100
AcDbLine
 62
3
  6
CONTINUOUS
 10
15.573696944
 20
4.3609606978
 11
15.573696944
 21
6.6269959986
  0
LINE
  5
76F
100
AcDbEntity
  8
0
100
AcDbLine
 62
3
  6
CONTINUOUS
 10
13.5825559379
 20
3.9986800879
 11
13.5949945196
 21
4.0058614635
  0
LINE
  5
770
100
AcDbEntity
  8
0
100
AcDbLine
 62
3
  6
CONTINUOUS
 10
13.6402328652
 20
3.9797436833
 11
13.6277942835
 21
3.9725623077
  0
LINE
  5
771
100
AcDbEntity
  8
0
100
AcDbLine
 62
7
  6
CONTINUOUS
 10
13.6402328652
 20
3.9787793104
 11
13.6277942835
 21
3.9715979348
  0
LINE
  5
772
100
AcDbEntity
  8
0
100
AcDbLine
 62
3
  6
CONTINUOUS
 10
13.6347170067
 20
3.9665137575
 11
13.6507094689
 21
3.9757469547
  0
LINE
  5
773
100
AcDbEntity
  8
0
100
AcDbLine
 62
3
  6
CONTINUOUS
 10
13.6983908079
 20
3.9872030352
 11
13.6148746067
 21
3.9389852217
  0
LINE
  5
774
100
AcDbEntity
  8
0
100
AcDbLine
 62
7
  6
CONTINUOUS
 10
13.6983908079
 20
3.9862386622
 11
13.6157097901
 21
3.9385030393
  0
LINE
  5
775
100
AcDbEntity
  8
0
100
AcDbLine
 62
3
  6
CONTINUOUS
 10
13.6253142586
 20
3.9329580222
 11
13.6626300086
 21
3.954502152
  0
LINE
  5
776
100
AcDbEntity
  8
0
100
AcDbLine
 62
3
  6
CONTINUOUS
 10
13.6732916501
 20
3.9606576168
 11
13.6999457586
 21
3.9760462817
  0
LINE
  5
777
100
AcDbEntity
  8
0
100
AcDbLine
 62
3
  6
CONTINUOUS
 10
13.7327824743
 20
3.9447775968
 11
13.7274516486
 21
3.9416998615
  0
LINE
  5
778
100
AcDbEntity
  8
0
100
AcDbLine
 62
7
  6
CONTINUOUS
 10
13.7327824743
 20
3.9438132239
 11
13.7274516486
 21
3.9407354886
  0
LINE
  5
779
100
AcDbEntity
  8
0
100
AcDbLine
 62
3
  6
CONTINUOUS
 10
13.7361143205
 20
3.9346467742
 11
13.7432220864
 21
3.9387504203
  0
LINE
  5
77A
100
AcDbEntity
  8
0
100
AcDbLine
 62
3
  6
CONTINUOUS
 10
13.7784278472
 20
3.9409946744
 11
13.6949116459
 21
3.8927768609
  0
LINE
  5
77B
100
AcDbEntity
  8
0
100
AcDbLine
 62
7
  6
CONTINUOUS
 10
13.7784278472
 20
3.9400303015
 11
13.6957468293
 21
3.8922946785
  0
LINE
  5
77C
100
AcDbEntity
  8
0
100
AcDbLine
 62
3
  6
CONTINUOUS
 10
13.7160129007
 20
3.89290515
 11
13.7888674593
 21
3.9349674979
  0
LINE
  5
77D
100
AcDbEntity
  8
0
100
AcDbLine
 62
3
  6
CONTINUOUS
 10
13.4615005665
 20
4.1096059542
 11
13.4526528967
 21
4.1065068251
  0
LINE
  5
77E
100
AcDbEntity
  8
0
100
AcDbLine
 62
7
  6
CONTINUOUS
 10
13.4615005665
 20
4.1086415812
 11
13.4526528967
 21
4.1055424521
  0
LINE
  5
77F
100
AcDbEntity
  8
0
100
AcDbLine
 62
3
  6
CONTINUOUS
 10
13.5363177997
 20
4.0664111816
 11
13.5274700901
 21
4.0633120755
  0
LINE
  5
780
100
AcDbEntity
  8
0
100
AcDbLine
 62
7
  6
CONTINUOUS
 10
13.5363177997
 20
4.0654468087
 11
13.5285097227
 21
4.0627118569
  0
LINE
  5
781
100
AcDbEntity
  8
0
100
AcDbLine
 62
3
  6
CONTINUOUS
 10
13.2383818031
 20
4.2158508626
 11
13.2454525525
 21
4.2179240694
  0
LINE
  5
782
100
AcDbEntity
  8
0
100
AcDbLine
 62
3
  6
CONTINUOUS
 10
13.1994741332
 20
4.2034330285
 11
13.1924033837
 21
4.2013598216
  0
LINE
  5
783
100
AcDbEntity
  8
0
100
AcDbLine
 62
7
  6
CONTINUOUS
 10
13.1994741332
 20
4.2024686555
 11
13.1924033837
 21
4.2003954487
  0
LINE
  5
784
100
AcDbEntity
  8
0
100
AcDbLine
 62
3
  6
CONTINUOUS
 10
13.2010660543
 20
4.1943067336
 11
13.208136805
 21
4.1963799412
  0
LINE
  5
785
100
AcDbEntity
  8
0
100
AcDbLine
 62
3
  6
CONTINUOUS
 10
13.2500802712
 20
4.1824234401
 11
13.3137170832
 21
4.2010822713
  0
LINE
  5
786
100
AcDbEntity
  8
0
100
AcDbLine
 62
3
  6
CONTINUOUS
 10
13.2129495614
 20
4.1710315052
 11
13.2412325815
 21
4.1793243225
  0
LINE
  5
787
100
AcDbEntity
  8
0
100
AcDbLine
 62
3
  6
CONTINUOUS
 10
13.3138651095
 20
4.2092040284
 11
13.2025099493
 21
4.1770586817
  0
LINE
  5
788
100
AcDbEntity
  8
0
100
AcDbLine
 62
7
  6
CONTINUOUS
 10
13.3138651095
 20
4.2082396554
 11
13.2036235294
 21
4.1764157705
  0
LWPOLYLINE
  5
789
100
AcDbEntity
  8
0
100
AcDbPolyline
 62
3
  6
CONTINUOUS
 90
7
 70
0
 10
15.573696944
 20
6.6269959986
 10
15.5680054056
 20
6.6802015519
 10
15.551318659
 20
6.7363531085
 10
15.5247738787
 20
6.7916240327
 10
15.4901800474
 20
6.8422477024
 10
15.4498946776
 20
6.884774198
 10
15.4066631507
 20
6.9163054092
  0
LWPOLYLINE
  5
78A
100
AcDbEntity
  8
0
100
AcDbPolyline
 62
7
  6
CONTINUOUS
 90
7
 70
0
 10
15.6460776518
 20
6.6687847702
 10
15.6403861133
 20
6.7219903235
 10
15.6236993668
 20
6.7781418802
 10
15.5971545864
 20
6.8334128044
 10
15.5625607551
 20
6.884036474
 10
15.5222753853
 20
6.9265629696
 10
15.4790438585
 20
6.9580941808
  0
LINE
  5
78B
100
AcDbEntity
  8
0
100
AcDbLine
 62
7
  6
CONTINUOUS
 10
15.6460776518
 20
4.4027494695
 11
15.6460776518
 21
6.6687847702
  0
LINE
  5
78C
100
AcDbEntity
  8
0
100
AcDbLine
 62
3
  6
CONTINUOUS
 10
13.7575493184
 20
3.856613802
 11
13.7682109611
 21
3.8627692675
  0
LINE
  5
78D
100
AcDbEntity
  8
0
100
AcDbLine
 62
3
  6
CONTINUOUS
 10
13.9071830894
 20
3.8666594823
 11
13.8520979345
 21
3.8348562431
  0
LINE
  5
78E
100
AcDbEntity
  8
0
100
AcDbLine
 62
7
  6
CONTINUOUS
 10
13.9071830894
 20
3.8656951094
 11
13.8520979345
 21
3.8338918702
  0
LINE
  5
78F
100
AcDbEntity
  8
0
100
AcDbLine
 62
3
  6
CONTINUOUS
 10
13.8625375466
 20
3.8288290666
 11
13.9176227015
 21
3.8606323058
  0
LINE
  5
790
100
AcDbEntity
  8
0
100
AcDbLine
 62
3
  6
CONTINUOUS
 10
13.5949945196
 20
4.0058614635
 11
13.6073961097
 21
4.0110123912
  0
LINE
  5
791
100
AcDbEntity
  8
0
100
AcDbLine
 62
3
  6
CONTINUOUS
 10
13.6277942835
 20
3.9725623077
 11
13.615392691
 21
3.9674113785
  0
LINE
  5
792
100
AcDbEntity
  8
0
100
AcDbLine
 62
7
  6
CONTINUOUS
 10
13.6277942835
 20
3.9715979348
 11
13.615392691
 21
3.9664470056
  0
LINE
  5
793
100
AcDbEntity
  8
0
100
AcDbLine
 62
3
  6
CONTINUOUS
 10
13.5986964462
 20
4.0160350306
 11
13.5880717964
 21
4.0119100137
  0
LINE
  5
794
100
AcDbEntity
  8
0
100
AcDbLine
 62
7
  6
CONTINUOUS
 10
13.5986964462
 20
4.0150706577
 11
13.5880717964
 21
4.0109456408
  0
LINE
  5
795
100
AcDbEntity
  8
0
100
AcDbLine
 62
3
  6
CONTINUOUS
 10
13.6240923544
 20
3.9623887391
 11
13.6347170067
 21
3.9665137575
  0
LINE
  5
796
100
AcDbEntity
  8
0
100
AcDbLine
 62
3
  6
CONTINUOUS
 10
13.5742263101
 20
4.0240071371
 11
13.5830740197
 21
4.0271062432
  0
LINE
  5
797
100
AcDbEntity
  8
0
100
AcDbLine
 62
3
  6
CONTINUOUS
 10
13.4613155636
 20
4.0994537349
 11
13.4683862981
 21
4.1015269561
  0
LINE
  5
798
100
AcDbEntity
  8
0
100
AcDbLine
 62
3
  6
CONTINUOUS
 10
13.5368735697
 20
4.0004325602
 11
13.5439443403
 21
4.0025057563
  0
LINE
  5
799
100
AcDbEntity
  8
0
100
AcDbLine
 62
3
  6
CONTINUOUS
 10
13.6057671807
 20
4.0181082518
 11
13.5986964462
 21
4.0160350306
  0
LINE
  5
79A
100
AcDbEntity
  8
0
100
AcDbLine
 62
7
  6
CONTINUOUS
 10
13.6057671807
 20
4.0171438789
 11
13.5986964462
 21
4.0150706577
  0
LINE
  5
79B
100
AcDbEntity
  8
0
100
AcDbLine
 62
3
  6
CONTINUOUS
 10
15.4066631507
 20
6.9163054092
 11
13.7363252173
 21
7.8806536482
  0
LWPOLYLINE
  5
79C
100
AcDbEntity
  8
0
100
AcDbPolyline
 62
3
  6
CONTINUOUS
 90
4
 70
0
 10
15.1254902013
 20
4.3462342359
 10
15.1442237069
 20
4.3598978508
 10
15.1616805552
 20
4.3783260828
 10
15.1766710906
 20
4.4002630784
  0
LINE
  5
79D
100
AcDbEntity
  8
0
100
AcDbLine
 62
3
  6
CONTINUOUS
 10
14.1010118606
 20
3.7547549207
 11
15.1254902013
 21
4.3462342359
  0
LINE
  5
79E
100
AcDbEntity
  8
0
100
AcDbLine
 62
3
  6
CONTINUOUS
 10
13.851912857
 20
3.8247040727
 11
13.8625375466
 21
3.8288290666
  0
LINE
  5
79F
100
AcDbEntity
  8
0
100
AcDbLine
 62
3
  6
CONTINUOUS
 10
13.8520979345
 20
3.8348562431
 11
13.8432501851
 21
3.83175716
  0
LINE
  5
7A0
100
AcDbEntity
  8
0
100
AcDbLine
 62
7
  6
CONTINUOUS
 10
13.8520979345
 20
3.8338918702
 11
13.8432501851
 21
3.8307927871
  0
LINE
  5
7A1
100
AcDbEntity
  8
0
100
AcDbLine
 62
3
  6
CONTINUOUS
 10
13.6170216249
 20
3.9603155208
 11
13.6240923544
 21
3.9623887391
  0
LINE
  5
7A2
100
AcDbEntity
  8
0
100
AcDbLine
 62
3
  6
CONTINUOUS
 10
13.7274516486
 20
3.9416998615
 11
13.7203809191
 21
3.9396266432
  0
LINE
  5
7A3
100
AcDbEntity
  8
0
100
AcDbLine
 62
7
  6
CONTINUOUS
 10
13.7274516486
 20
3.9407354886
 11
13.7203809191
 21
3.9386622703
  0
LINE
  5
7A4
100
AcDbEntity
  8
0
100
AcDbLine
 62
3
  6
CONTINUOUS
 10
13.729043591
 20
3.9325735559
 11
13.7361143205
 21
3.9346467742
  0
LWPOLYLINE
  5
7A5
100
AcDbEntity
  8
0
100
AcDbPolyline
 62
3
  6
CONTINUOUS
 90
4
 70
0
 10
13.7363252173
 20
7.8806536482
 10
13.6930936904
 20
7.8990407751
 10
13.6528083206
 20
7.9030307653
 10
13.6182154982
 20
7.8923522901
  0
LINE
  5
7A6
100
AcDbEntity
  8
0
100
AcDbLine
 62
7
  6
CONTINUOUS
 10
15.4790438585
 20
6.9580941808
 11
13.808705925
 21
7.9224424199
  0
LWPOLYLINE
  5
7A7
100
AcDbEntity
  8
0
100
AcDbPolyline
 62
7
  6
CONTINUOUS
 90
5
 70
0
 10
15.1254902013
 20
4.2626552483
 10
15.1537417526
 20
4.2821803826
 10
15.1808879966
 20
4.3073631326
 10
15.2059068567
 20
4.3372482064
 10
15.2278519798
 20
4.3707129333
  0
LINE
  5
7A8
100
AcDbEntity
  8
0
100
AcDbLine
 62
7
  6
CONTINUOUS
 10
14.1010118606
 20
3.6711759332
 11
15.1254902013
 21
4.2626552483
  0
LINE
  5
7A9
100
AcDbEntity
  8
0
100
AcDbLine
 62
9
  6
CONTINUOUS
 10
15.573696944
 20
4.3609606978
 11
15.6460776518
 21
4.4027494695
  0
LWPOLYLINE
  5
7AA
100
AcDbEntity
  8
0
100
AcDbPolyline
 62
7
  6
CONTINUOUS
 90
4
 70
0
 10
13.808705925
 20
7.9224424199
 10
13.7654743981
 20
7.9408295467
 10
13.7251890284
 20
7.9448195369
 10
13.690596206
 20
7.9341410618
  0
LWPOLYLINE
  5
7AB
100
AcDbEntity
  8
0
100
AcDbPolyline
 62
3
  6
CONTINUOUS
 90
4
 70
0
 10
15.5460175965
 20
4.2706039586
 10
15.5611874902
 20
4.2949477189
 10
15.5705163782
 20
4.325337392
 10
15.573696944
 20
4.3609606978
  0
LWPOLYLINE
  5
7AC
100
AcDbEntity
  8
0
100
AcDbPolyline
 62
7
  6
CONTINUOUS
 90
4
 70
0
 10
15.6183983042
 20
4.3123927302
 10
15.633568198
 20
4.3367364906
 10
15.6428970859
 20
4.3671261637
 10
15.6460776518
 20
4.4027494695
  0
LINE
  5
7AD
100
AcDbEntity
  8
0
100
AcDbLine
 62
7
  6
CONTINUOUS
 10
15.6183983042
 20
4.3123927302
 11
15.5460175965
 21
4.2706039586
  0
LWPOLYLINE
  5
7AE
100
AcDbEntity
  8
0
100
AcDbPolyline
 62
3
  6
CONTINUOUS
 90
6
 70
0
 10
6.5893805842
 20
3.0125323656
 10
6.6139172515
 20
2.9891579135
 10
6.6456472653
 20
2.9689058595
 10
6.6848954774
 20
2.9534450841
 10
6.7318181328
 20
2.9436672819
 10
6.7864567108
 20
2.9401513565
  0
LWPOLYLINE
  5
7AF
100
AcDbEntity
  8
0
100
AcDbPolyline
 62
7
  6
CONTINUOUS
 90
7
 70
0
 10
6.5893805842
 20
3.0125323656
 10
6.6111068893
 20
2.9703177863
 10
6.6390427203
 20
2.9323124091
 10
6.6724666864
 20
2.9023857869
 10
6.7094201913
 20
2.8822736263
 10
6.7480340081
 20
2.8711846235
 10
6.7864567108
 20
2.8677703474
  0
LWPOLYLINE
  5
7B0
100
AcDbEntity
  8
0
100
AcDbPolyline
 62
7
  6
CONTINUOUS
 90
7
 70
0
 10
9.1486614353
 20
2.8677703474
 10
9.187084138
 20
2.8711846235
 10
9.2256979548
 20
2.8822736263
 10
9.2626514597
 20
2.9023857869
 10
9.2960754258
 20
2.9323124091
 10
9.3240112568
 20
2.9703177863
 10
9.3457375619
 20
3.0125323656
  0
LWPOLYLINE
  5
7B1
100
AcDbEntity
  8
0
100
AcDbPolyline
 62
3
  6
CONTINUOUS
 90
6
 70
0
 10
9.1486614353
 20
2.9401513565
 10
9.2033000133
 20
2.9436672819
 10
9.2502226687
 20
2.9534450841
 10
9.2894708808
 20
2.9689058595
 10
9.3212008946
 20
2.9891579135
 10
9.3457375619
 20
3.0125323656
  0
LINE
  5
7B2
100
AcDbEntity
  8
0
100
AcDbLine
 62
7
  6
CONTINUOUS
 10
7.0817323014
 20
2.8078079562
 11
8.8533858447
 21
2.8078079562
  0
LINE
  5
7B3
100
AcDbEntity
  8
0
100
AcDbLine
 62
7
  6
CONTINUOUS
 10
6.7864567108
 20
2.8677703474
 11
7.0817323014
 21
2.8677703474
  0
LINE
  5
7B4
100
AcDbEntity
  8
0
100
AcDbLine
 62
7
  6
CONTINUOUS
 10
8.8533858447
 20
2.8677703474
 11
9.1486614353
 21
2.8677703474
  0
LINE
  5
7B5
100
AcDbEntity
  8
0
100
AcDbLine
 62
3
  6
CONTINUOUS
 10
7.0817323014
 20
2.9101701609
 11
8.8533858447
 21
2.9101701609
  0
LINE
  5
7B6
100
AcDbEntity
  8
0
100
AcDbLine
 62
3
  6
CONTINUOUS
 10
6.7864567108
 20
2.9401513565
 11
7.0817323014
 21
2.9401513565
  0
LINE
  5
7B7
100
AcDbEntity
  8
0
100
AcDbLine
 62
3
  6
CONTINUOUS
 10
8.8533858447
 20
2.9401513565
 11
9.1486614353
 21
2.9401513565
  0
LINE
  5
7B8
100
AcDbEntity
  8
0
100
AcDbLine
 62
9
  6
CONTINUOUS
 10
6.5893805842
 20
3.0125323656
 11
9.3457375619
 21
3.0125323656
  0
LINE
  5
7B9
100
AcDbEntity
  8
0
100
AcDbLine
 62
3
  6
CONTINUOUS
 10
6.5502362384
 20
5.9180624749
 11
6.5502362384
 21
3.1427671993
  0
LINE
  5
7BA
100
AcDbEntity
  8
0
100
AcDbLine
 62
9
  6
CONTINUOUS
 10
6.7864567108
 20
2.9401513565
 11
6.7864567108
 21
2.8677703474
  0
LINE
  5
7BB
100
AcDbEntity
  8
0
100
AcDbLine
 62
3
  6
CONTINUOUS
 10
7.0817323014
 20
2.9401513565
 11
7.0817323014
 21
2.9101701609
  0
LINE
  5
7BC
100
AcDbEntity
  8
0
100
AcDbLine
 62
7
  6
CONTINUOUS
 10
7.0817323014
 20
2.9101701609
 11
7.0817323014
 21
2.8078079562
  0
LINE
  5
7BD
100
AcDbEntity
  8
0
100
AcDbLine
 62
9
  6
CONTINUOUS
 10
7.3179527738
 20
2.9101701609
 11
7.3179527738
 21
2.8078079562
  0
LINE
  5
7BE
100
AcDbEntity
  8
02___PRT_ALL_AXES
100
AcDbLine
 62
7
  6
CENTER
 10
7.9675590731
 20
3.8708183804
 11
7.2573228526
 21
3.8708183804
  0
LINE
  5
7BF
100
AcDbEntity
  8
02___PRT_ALL_AXES
100
AcDbLine
 62
7
  6
CENTER
 10
7.9675590731
 20
3.8708183804
 11
8.6777952935
 21
3.8708183804
  0
LINE
  5
7C0
100
AcDbEntity
  8
02___PRT_ALL_AXES
100
AcDbLine
 62
7
  6
CENTER
 10
7.9675590731
 20
3.8708183804
 11
7.9675590731
 21
3.1605821599
  0
LINE
  5
7C1
100
AcDbEntity
  8
02___PRT_ALL_AXES
100
AcDbLine
 62
7
  6
CENTER
 10
7.9675590731
 20
3.8708183804
 11
7.9675590731
 21
4.5810546008
  0
LINE
  5
7C2
100
AcDbEntity
  8
0
100
AcDbLine
 62
9
  6
CONTINUOUS
 10
8.6171653723
 20
2.9101701609
 11
8.6171653723
 21
2.8078079562
  0
LINE
  5
7C3
100
AcDbEntity
  8
0
100
AcDbLine
 62
7
  6
CONTINUOUS
 10
8.8533858447
 20
2.9101701609
 11
8.8533858447
 21
2.8078079562
  0
LINE
  5
7C4
100
AcDbEntity
  8
0
100
AcDbLine
 62
3
  6
CONTINUOUS
 10
8.8533858447
 20
2.9101701609
 11
8.8533858447
 21
2.9401513565
  0
LINE
  5
7C5
100
AcDbEntity
  8
0
100
AcDbLine
 62
9
  6
CONTINUOUS
 10
9.1486614353
 20
2.9401513565
 11
9.1486614353
 21
2.8677703474
  0
LINE
  5
7C6
100
AcDbEntity
  8
0
100
AcDbLine
 62
3
  6
CONTINUOUS
 10
9.3848819077
 20
3.1427671993
 11
9.3848819077
 21
5.9180624749
  0
LINE
  5
7C7
100
AcDbEntity
  8
0
100
AcDbLine
 62
3
  6
CONTINUOUS
 10
9.1486614353
 20
6.1542829473
 11
6.7864567108
 21
6.1542829473
  0
LINE
  5
7C8
100
AcDbEntity
  8
0
100
AcDbLine
 62
7
  6
CONTINUOUS
 10
2.6612308911
 20
2.8078079562
 11
4.3462885594
 21
2.8078079562
  0
LINE
  5
7C9
100
AcDbEntity
  8
0
100
AcDbLine
 62
3
  6
CONTINUOUS
 10
2.6612308911
 20
2.9101701609
 11
4.3462885594
 21
2.9101701609
  0
LINE
  5
7CA
100
AcDbEntity
  8
0
100
AcDbLine
 62
7
  6
CONTINUOUS
 10
2.4565064816
 20
3.0125323656
 11
2.5588686864
 21
3.0125323656
  0
LINE
  5
7CB
100
AcDbEntity
  8
0
100
AcDbLine
 62
9
  6
CONTINUOUS
 10
2.5588686864
 20
3.1427671993
 11
2.4565064816
 21
3.1427671993
  0
LINE
  5
7CC
100
AcDbEntity
  8
0
100
AcDbLine
 62
7
  6
CONTINUOUS
 10
2.4565064816
 20
6.1542829473
 11
2.4565064816
 21
3.0125323656
  0
LINE
  5
7CD
100
AcDbEntity
  8
0
100
AcDbLine
 62
3
  6
CONTINUOUS
 10
2.5588686864
 20
6.1542829473
 11
2.5588686864
 21
3.0125323656
  0
LINE
  5
7CE
100
AcDbEntity
  8
0
100
AcDbLine
 62
9
  6
CONTINUOUS
 10
2.6612308911
 20
2.8078079562
 11
2.6612308911
 21
2.9101701609
  0
LINE
  5
7CF
100
AcDbEntity
  8
0
100
AcDbLine
 62
7
  6
CONTINUOUS
 10
2.588849882
 20
2.9401513565
 11
2.5164688729
 21
2.8677703474
  0
LINE
  5
7D0
100
AcDbEntity
  8
0
100
AcDbLine
 62
9
  6
CONTINUOUS
 10
4.110068087
 20
2.9101701609
 11
4.110068087
 21
2.8078079562
  0
LINE
  5
7D1
100
AcDbEntity
  8
0
100
AcDbLine
 62
7
  6
CONTINUOUS
 10
4.3462885594
 20
2.9101701609
 11
4.3462885594
 21
2.8078079562
  0
LINE
  5
7D2
100
AcDbEntity
  8
0
100
AcDbLine
 62
9
  6
CONTINUOUS
 10
2.5588686864
 20
5.9180624749
 11
2.4565064816
 21
5.9180624749
  0
LINE
  5
7D3
100
AcDbEntity
  8
0
100
AcDbLine
 62
7
  6
CONTINUOUS
 10
2.5588686864
 20
6.1542829473
 11
2.4565064816
 21
6.1542829473
  0
LINE
  5
7D4
100
AcDbEntity
  8
0
100
AcDbLine
 62
7
  6
CONTINUOUS
 10
6.5502362384
 20
8.940813606
 11
6.5502362384
 21
9.0431758107
  0
LINE
  5
7D5
100
AcDbEntity
  8
0
100
AcDbLine
 62
9
  6
CONTINUOUS
 10
6.7864567108
 20
8.940813606
 11
6.7864567108
 21
9.0431758107
  0
LINE
  5
7D6
100
AcDbEntity
  8
0
100
AcDbLine
 62
3
  6
CONTINUOUS
 10
7.3514173411
 20
7.2815559039
 11
7.3637204904
 21
7.2740169528
  0
LINE
  5
7D7
100
AcDbEntity
  8
0
100
AcDbLine
 62
3
  6
CONTINUOUS
 10
8.5645079295
 20
7.2890948551
 11
8.5546653347
 21
7.2865818716
  0
LINE
  5
7D8
100
AcDbEntity
  8
0
100
AcDbLine
 62
3
  6
CONTINUOUS
 10
8.5546653347
 20
7.2715039692
 11
8.5669685219
 21
7.2740169528
  0
LINE
  5
7D9
100
AcDbEntity
  8
0
100
AcDbLine
 62
3
  6
CONTINUOUS
 10
7.3179527738
 20
7.153393733
 11
8.6171653723
 21
7.153393733
  0
LINE
  5
7DA
100
AcDbEntity
  8
0
100
AcDbLine
 62
3
  6
CONTINUOUS
 10
7.3637204904
 20
7.2740169528
 11
7.3760236388
 21
7.2715039692
  0
LINE
  5
7DB
100
AcDbEntity
  8
0
100
AcDbLine
 62
3
  6
CONTINUOUS
 10
7.3760236388
 20
7.2865818716
 11
7.3661811197
 21
7.2890948551
  0
LINE
  5
7DC
100
AcDbEntity
  8
0
100
AcDbLine
 62
3
  6
CONTINUOUS
 10
7.3711023801
 20
7.3267896121
 11
7.380944901
 21
7.3242766287
  0
LINE
  5
7DD
100
AcDbEntity
  8
0
100
AcDbLine
 62
3
  6
CONTINUOUS
 10
7.380944901
 20
7.3393545294
 11
7.3735630112
 21
7.3418675128
  0
LINE
  5
7DE
100
AcDbEntity
  8
0
100
AcDbLine
 62
3
  6
CONTINUOUS
 10
7.361259861
 20
7.331815579
 11
7.3711023801
 21
7.3267896121
  0
LINE
  5
7DF
100
AcDbEntity
  8
0
100
AcDbLine
 62
3
  6
CONTINUOUS
 10
7.4178543463
 20
7.331815579
 11
7.408011829
 21
7.3368415459
  0
LINE
  5
7E0
100
AcDbEntity
  8
0
100
AcDbLine
 62
3
  6
CONTINUOUS
 10
7.3735630112
 20
7.3418675128
 11
7.3661811197
 21
7.3468934797
  0
LINE
  5
7E1
100
AcDbEntity
  8
0
100
AcDbLine
 62
3
  6
CONTINUOUS
 10
7.4055512014
 20
7.3217636452
 11
7.4129330911
 21
7.3167376783
  0
LINE
  5
7E2
100
AcDbEntity
  8
0
100
AcDbLine
 62
3
  6
CONTINUOUS
 10
7.4153937187
 20
7.3795622716
 11
7.4055512014
 21
7.3871012219
  0
LINE
  5
7E3
100
AcDbEntity
  8
0
100
AcDbLine
 62
3
  6
CONTINUOUS
 10
7.3661811197
 20
7.2890948551
 11
7.3587992299
 21
7.2966338072
  0
LINE
  5
7E4
100
AcDbEntity
  8
0
100
AcDbLine
 62
3
  6
CONTINUOUS
 10
7.3514173411
 20
7.3418675128
 11
7.361259861
 21
7.331815579
  0
LINE
  5
7E5
100
AcDbEntity
  8
0
100
AcDbLine
 62
3
  6
CONTINUOUS
 10
7.4276968707
 20
7.3217636452
 11
7.4178543463
 21
7.331815579
  0
LINE
  5
7E6
100
AcDbEntity
  8
0
100
AcDbLine
 62
3
  6
CONTINUOUS
 10
7.4030905668
 20
7.3720233212
 11
7.408011829
 21
7.3669973543
  0
LINE
  5
7E7
100
AcDbEntity
  8
0
100
AcDbLine
 62
3
  6
CONTINUOUS
 10
7.3440354511
 20
7.2941208237
 11
7.3514173411
 21
7.2815559039
  0
LINE
  5
7E8
100
AcDbEntity
  8
0
100
AcDbLine
 62
3
  6
CONTINUOUS
 10
7.0817323014
 20
8.9108324104
 11
7.0817323014
 21
7.3896142054
  0
LINE
  5
7E9
100
AcDbEntity
  8
0
100
AcDbLine
 62
3
  6
CONTINUOUS
 10
8.1215944873
 20
7.2715039692
 11
8.1314370258
 21
7.2740169528
  0
LINE
  5
7EA
100
AcDbEntity
  8
0
100
AcDbLine
 62
3
  6
CONTINUOUS
 10
8.0207086794
 20
7.2890948551
 11
8.0108661409
 21
7.2865818716
  0
LINE
  5
7EB
100
AcDbEntity
  8
0
100
AcDbLine
 62
3
  6
CONTINUOUS
 10
8.2323228338
 20
7.2865818716
 11
8.220019703
 21
7.2840688882
  0
LINE
  5
7EC
100
AcDbEntity
  8
0
100
AcDbLine
 62
3
  6
CONTINUOUS
 10
8.1314370258
 20
7.2865818716
 11
8.119133895
 21
7.2840688882
  0
LINE
  5
7ED
100
AcDbEntity
  8
0
100
AcDbLine
 62
3
  6
CONTINUOUS
 10
8.0108661409
 20
7.2715039692
 11
8.023169328
 21
7.2740169528
  0
LINE
  5
7EE
100
AcDbEntity
  8
0
100
AcDbLine
 62
3
  6
CONTINUOUS
 10
8.220019703
 20
7.2715039692
 11
8.2347834825
 21
7.2740169528
  0
LINE
  5
7EF
100
AcDbEntity
  8
0
100
AcDbLine
 62
3
  6
CONTINUOUS
 10
7.3760236388
 20
7.2715039692
 11
7.3957086805
 21
7.2715039692
  0
LINE
  5
7F0
100
AcDbEntity
  8
0
100
AcDbLine
 62
3
  6
CONTINUOUS
 10
7.4523031675
 20
7.2715039692
 11
7.4670669471
 21
7.2715039692
  0
LINE
  5
7F1
100
AcDbEntity
  8
0
100
AcDbLine
 62
3
  6
CONTINUOUS
 10
7.5015157613
 20
7.2715039692
 11
7.52120081
 21
7.2715039692
  0
LINE
  5
7F2
100
AcDbEntity
  8
0
100
AcDbLine
 62
3
  6
CONTINUOUS
 10
7.5556496242
 20
7.2715039692
 11
7.5704134038
 21
7.2715039692
  0
LINE
  5
7F3
100
AcDbEntity
  8
0
100
AcDbLine
 62
3
  6
CONTINUOUS
 10
7.5900984525
 20
7.2715039692
 11
7.6491535706
 21
7.2715039692
  0
LINE
  5
7F4
100
AcDbEntity
  8
0
100
AcDbLine
 62
3
  6
CONTINUOUS
 10
7.700826799
 20
7.2715039692
 11
7.7155905785
 21
7.2715039692
  0
LINE
  5
7F5
100
AcDbEntity
  8
0
100
AcDbLine
 62
3
  6
CONTINUOUS
 10
7.7844882069
 20
7.2715039692
 11
7.7992519864
 21
7.2715039692
  0
LINE
  5
7F6
100
AcDbEntity
  8
0
100
AcDbLine
 62
3
  6
CONTINUOUS
 10
7.818937007
 20
7.2715039692
 11
7.8337007866
 21
7.2715039692
  0
LINE
  5
7F7
100
AcDbEntity
  8
0
100
AcDbLine
 62
3
  6
CONTINUOUS
 10
7.868149643
 20
7.2715039692
 11
7.8878346636
 21
7.2715039692
  0
LINE
  5
7F8
100
AcDbEntity
  8
0
100
AcDbLine
 62
3
  6
CONTINUOUS
 10
7.9222834637
 20
7.2715039692
 11
7.9370472433
 21
7.2715039692
  0
LINE
  5
7F9
100
AcDbEntity
  8
0
100
AcDbLine
 62
3
  6
CONTINUOUS
 10
7.9911811203
 20
7.2715039692
 11
8.0108661409
 21
7.2715039692
  0
LINE
  5
7FA
100
AcDbEntity
  8
0
100
AcDbLine
 62
3
  6
CONTINUOUS
 10
8.1019094668
 20
7.2715039692
 11
8.1215944873
 21
7.2715039692
  0
LINE
  5
7FB
100
AcDbEntity
  8
0
100
AcDbLine
 62
3
  6
CONTINUOUS
 10
8.2839960622
 20
7.2715039692
 11
8.298759898
 21
7.2715039692
  0
LINE
  5
7FC
100
AcDbEntity
  8
0
100
AcDbLine
 62
3
  6
CONTINUOUS
 10
8.3602756085
 20
7.2715039692
 11
8.3774999804
 21
7.2715039692
  0
LINE
  5
7FD
100
AcDbEntity
  8
0
100
AcDbLine
 62
3
  6
CONTINUOUS
 10
8.3971850573
 20
7.2715039692
 11
8.4857677345
 21
7.2715039692
  0
LINE
  5
7FE
100
AcDbEntity
  8
0
100
AcDbLine
 62
3
  6
CONTINUOUS
 10
8.5448228526
 20
7.2715039692
 11
8.5546653347
 21
7.2715039692
  0
LINE
  5
7FF
100
AcDbEntity
  8
0
100
AcDbLine
 62
3
  6
CONTINUOUS
 10
8.119133895
 20
7.2840688882
 11
8.1043701154
 21
7.2840688882
  0
LINE
  5
800
100
AcDbEntity
  8
0
100
AcDbLine
 62
3
  6
CONTINUOUS
 10
8.5546653347
 20
7.2865818716
 11
8.5448228526
 21
7.2865818716
  0
LINE
  5
801
100
AcDbEntity
  8
0
100
AcDbLine
 62
3
  6
CONTINUOUS
 10
8.4857677345
 20
7.2865818716
 11
8.4119488368
 21
7.2865818716
  0
LINE
  5
802
100
AcDbEntity
  8
0
100
AcDbLine
 62
3
  6
CONTINUOUS
 10
8.0108661409
 20
7.2865818716
 11
7.9911811203
 21
7.2865818716
  0
LINE
  5
803
100
AcDbEntity
  8
0
100
AcDbLine
 62
3
  6
CONTINUOUS
 10
7.6516141912
 20
7.2865818716
 11
7.604862232
 21
7.2865818716
  0
LINE
  5
804
100
AcDbEntity
  8
0
100
AcDbLine
 62
3
  6
CONTINUOUS
 10
7.3957086805
 20
7.2865818716
 11
7.3760236388
 21
7.2865818716
  0
LINE
  5
805
100
AcDbEntity
  8
0
100
AcDbLine
 62
3
  6
CONTINUOUS
 10
8.0797637975
 20
7.2991467906
 11
8.0674606666
 21
7.2991467906
  0
LINE
  5
806
100
AcDbEntity
  8
0
100
AcDbLine
 62
3
  6
CONTINUOUS
 10
7.7254330888
 20
7.3016597741
 11
7.7746456966
 21
7.3016597741
  0
LINE
  5
807
100
AcDbEntity
  8
0
100
AcDbLine
 62
3
  6
CONTINUOUS
 10
7.9714960997
 20
7.3041727575
 11
7.9567323202
 21
7.3041727575
  0
LINE
  5
808
100
AcDbEntity
  8
0
100
AcDbLine
 62
3
  6
CONTINUOUS
 10
7.3563386006
 20
7.3041727575
 11
7.3415748211
 21
7.3041727575
  0
LINE
  5
809
100
AcDbEntity
  8
0
100
AcDbLine
 62
3
  6
CONTINUOUS
 10
8.5202165909
 20
7.3117117079
 11
8.5054528114
 21
7.3117117079
  0
LINE
  5
80A
100
AcDbEntity
  8
0
100
AcDbLine
 62
3
  6
CONTINUOUS
 10
7.7721850479
 20
7.3117117079
 11
7.7278937093
 21
7.3117117079
  0
LINE
  5
80B
100
AcDbEntity
  8
0
100
AcDbLine
 62
3
  6
CONTINUOUS
 10
7.408011829
 20
7.3368415459
 11
7.3957086805
 21
7.3393545294
  0
LINE
  5
80C
100
AcDbEntity
  8
0
100
AcDbLine
 62
3
  6
CONTINUOUS
 10
7.4055512014
 20
7.3871012219
 11
7.3932480494
 21
7.3896142054
  0
LINE
  5
80D
100
AcDbEntity
  8
0
100
AcDbLine
 62
3
  6
CONTINUOUS
 10
7.9788779895
 20
7.2740169528
 11
7.9911811203
 21
7.2715039692
  0
LINE
  5
80E
100
AcDbEntity
  8
0
100
AcDbLine
 62
3
  6
CONTINUOUS
 10
7.3957086805
 20
7.3242766287
 11
7.4055512014
 21
7.3217636452
  0
LINE
  5
80F
100
AcDbEntity
  8
0
100
AcDbLine
 62
3
  6
CONTINUOUS
 10
7.9911811203
 20
7.2865818716
 11
7.9813385818
 21
7.2890948551
  0
LINE
  5
810
100
AcDbEntity
  8
0
100
AcDbLine
 62
3
  6
CONTINUOUS
 10
7.3957086805
 20
7.3745363047
 11
7.4030905668
 21
7.3720233212
  0
LINE
  5
811
100
AcDbEntity
  8
0
100
AcDbLine
 62
3
  6
CONTINUOUS
 10
7.6516141912
 20
7.3242766287
 11
7.6589960809
 21
7.3217636452
  0
LINE
  5
812
100
AcDbEntity
  8
0
100
AcDbLine
 62
3
  6
CONTINUOUS
 10
7.6516141912
 20
7.3745363047
 11
7.6589960809
 21
7.3720233212
  0
LINE
  5
813
100
AcDbEntity
  8
0
100
AcDbLine
 62
3
  6
CONTINUOUS
 10
7.6712992399
 20
7.3293025956
 11
7.6663779707
 21
7.331815579
  0
LINE
  5
814
100
AcDbEntity
  8
0
100
AcDbLine
 62
3
  6
CONTINUOUS
 10
7.4227756085
 20
7.3695103378
 11
7.4153937187
 21
7.3795622716
  0
LINE
  5
815
100
AcDbEntity
  8
0
100
AcDbLine
 62
3
  6
CONTINUOUS
 10
7.4129330911
 20
7.3167376783
 11
7.4178543463
 21
7.3091987244
  0
LINE
  5
816
100
AcDbEntity
  8
0
100
AcDbLine
 62
3
  6
CONTINUOUS
 10
7.4326181258
 20
7.3117117079
 11
7.4276968707
 21
7.3217636452
  0
LINE
  5
817
100
AcDbEntity
  8
0
100
AcDbLine
 62
3
  6
CONTINUOUS
 10
7.408011829
 20
7.3669973543
 11
7.4104724565
 21
7.3619713874
  0
LINE
  5
818
100
AcDbEntity
  8
0
100
AcDbLine
 62
3
  6
CONTINUOUS
 10
7.3587992299
 20
7.2966338072
 11
7.3563386006
 21
7.3041727575
  0
LINE
  5
819
100
AcDbEntity
  8
0
100
AcDbLine
 62
3
  6
CONTINUOUS
 10
7.3661811197
 20
7.3468934797
 11
7.3637204904
 21
7.3544324301
  0
LINE
  5
81A
100
AcDbEntity
  8
0
100
AcDbLine
 62
3
  6
CONTINUOUS
 10
7.3415748211
 20
7.3041727575
 11
7.3440354511
 21
7.2941208237
  0
LINE
  5
81B
100
AcDbEntity
  8
0
100
AcDbLine
 62
3
  6
CONTINUOUS
 10
7.9961023614
 20
7.3896142054
 11
7.9862598792
 21
7.3871012219
  0
LINE
  5
81C
100
AcDbEntity
  8
0
100
AcDbLine
 62
3
  6
CONTINUOUS
 10
8.2077165721
 20
7.3745363047
 11
8.220019703
 21
7.3770492881
  0
LINE
  5
81D
100
AcDbEntity
  8
0
100
AcDbLine
 62
3
  6
CONTINUOUS
 10
7.6491535706
 20
7.2715039692
 11
7.6614567015
 21
7.2740169528
  0
LINE
  5
81E
100
AcDbEntity
  8
0
100
AcDbLine
 62
3
  6
CONTINUOUS
 10
8.094527577
 20
7.3745363047
 11
8.1068307078
 21
7.3770492881
  0
LINE
  5
81F
100
AcDbEntity
  8
0
100
AcDbLine
 62
3
  6
CONTINUOUS
 10
7.3957086805
 20
7.2715039692
 11
7.408011829
 21
7.2740169528
  0
LINE
  5
820
100
AcDbEntity
  8
0
100
AcDbLine
 62
3
  6
CONTINUOUS
 10
8.220019703
 20
7.3896142054
 11
8.2052559234
 21
7.3871012219
  0
LINE
  5
821
100
AcDbEntity
  8
0
100
AcDbLine
 62
3
  6
CONTINUOUS
 10
8.1092913565
 20
7.3896142054
 11
8.0920669283
 21
7.3871012219
  0
LINE
  5
822
100
AcDbEntity
  8
0
100
AcDbLine
 62
3
  6
CONTINUOUS
 10
7.380944901
 20
7.3242766287
 11
7.3957086805
 21
7.3242766287
  0
LINE
  5
823
100
AcDbEntity
  8
0
100
AcDbLine
 62
3
  6
CONTINUOUS
 10
7.604862232
 20
7.3242766287
 11
7.6516141912
 21
7.3242766287
  0
LINE
  5
824
100
AcDbEntity
  8
0
100
AcDbLine
 62
3
  6
CONTINUOUS
 10
7.9961023614
 20
7.3242766287
 11
8.0108661409
 21
7.3242766287
  0
LINE
  5
825
100
AcDbEntity
  8
0
100
AcDbLine
 62
3
  6
CONTINUOUS
 10
8.298759898
 20
7.3242766287
 11
8.3405905316
 21
7.3242766287
  0
LINE
  5
826
100
AcDbEntity
  8
0
100
AcDbLine
 62
3
  6
CONTINUOUS
 10
8.1068307078
 20
7.3267896121
 11
8.1166732463
 21
7.3267896121
  0
LINE
  5
827
100
AcDbEntity
  8
0
100
AcDbLine
 62
3
  6
CONTINUOUS
 10
8.1166732463
 20
7.3368415459
 11
8.1068307078
 21
7.3368415459
  0
LINE
  5
828
100
AcDbEntity
  8
0
100
AcDbLine
 62
3
  6
CONTINUOUS
 10
8.345511829
 20
7.3393545294
 11
8.298759898
 21
7.3393545294
  0
LINE
  5
829
100
AcDbEntity
  8
0
100
AcDbLine
 62
3
  6
CONTINUOUS
 10
8.0108661409
 20
7.3393545294
 11
7.9961023614
 21
7.3393545294
  0
LINE
  5
82A
100
AcDbEntity
  8
0
100
AcDbLine
 62
3
  6
CONTINUOUS
 10
7.6516141912
 20
7.3393545294
 11
7.604862232
 21
7.3393545294
  0
LINE
  5
82B
100
AcDbEntity
  8
0
100
AcDbLine
 62
3
  6
CONTINUOUS
 10
7.3957086805
 20
7.3393545294
 11
7.380944901
 21
7.3393545294
  0
LINE
  5
82C
100
AcDbEntity
  8
0
100
AcDbLine
 62
3
  6
CONTINUOUS
 10
7.4104724565
 20
7.3619713874
 11
7.4252362361
 21
7.3619713874
  0
LINE
  5
82D
100
AcDbEntity
  8
0
100
AcDbLine
 62
3
  6
CONTINUOUS
 10
8.0256299204
 20
7.3619713874
 11
8.0403936999
 21
7.3619713874
  0
LINE
  5
82E
100
AcDbEntity
  8
0
100
AcDbLine
 62
3
  6
CONTINUOUS
 10
8.069921259
 20
7.3619713874
 11
8.0822244462
 21
7.3619713874
  0
LINE
  5
82F
100
AcDbEntity
  8
0
100
AcDbLine
 62
3
  6
CONTINUOUS
 10
7.380944901
 20
7.3745363047
 11
7.3957086805
 21
7.3745363047
  0
LINE
  5
830
100
AcDbEntity
  8
0
100
AcDbLine
 62
3
  6
CONTINUOUS
 10
7.604862232
 20
7.3745363047
 11
7.6516141912
 21
7.3745363047
  0
LINE
  5
831
100
AcDbEntity
  8
0
100
AcDbLine
 62
3
  6
CONTINUOUS
 10
7.9961023614
 20
7.3745363047
 11
8.0108661409
 21
7.3745363047
  0
LINE
  5
832
100
AcDbEntity
  8
0
100
AcDbLine
 62
3
  6
CONTINUOUS
 10
8.1068307078
 20
7.3770492881
 11
8.1166732463
 21
7.3770492881
  0
LINE
  5
833
100
AcDbEntity
  8
0
100
AcDbLine
 62
3
  6
CONTINUOUS
 10
8.298759898
 20
7.3770492881
 11
8.345511829
 21
7.3770492881
  0
LINE
  5
834
100
AcDbEntity
  8
0
100
AcDbLine
 62
3
  6
CONTINUOUS
 10
8.5940354886
 20
7.3896142054
 11
8.579271709
 21
7.3896142054
  0
LINE
  5
835
100
AcDbEntity
  8
0
100
AcDbLine
 62
3
  6
CONTINUOUS
 10
8.4119488368
 20
7.3896142054
 11
8.3971850573
 21
7.3896142054
  0
LINE
  5
836
100
AcDbEntity
  8
0
100
AcDbLine
 62
3
  6
CONTINUOUS
 10
8.3430512366
 20
7.3896142054
 11
8.2839960622
 21
7.3896142054
  0
LINE
  5
837
100
AcDbEntity
  8
0
100
AcDbLine
 62
3
  6
CONTINUOUS
 10
8.1142125976
 20
7.3896142054
 11
8.1092913565
 21
7.3896142054
  0
LINE
  5
838
100
AcDbEntity
  8
0
100
AcDbLine
 62
3
  6
CONTINUOUS
 10
8.0084055485
 20
7.3896142054
 11
7.9961023614
 21
7.3896142054
  0
LINE
  5
839
100
AcDbEntity
  8
0
100
AcDbLine
 62
3
  6
CONTINUOUS
 10
7.9370472433
 20
7.3896142054
 11
7.914901574
 21
7.3896142054
  0
LINE
  5
83A
100
AcDbEntity
  8
0
100
AcDbLine
 62
3
  6
CONTINUOUS
 10
7.8410826763
 20
7.3896142054
 11
7.818937007
 21
7.3896142054
  0
LINE
  5
83B
100
AcDbEntity
  8
0
100
AcDbLine
 62
3
  6
CONTINUOUS
 10
7.7598819171
 20
7.3896142054
 11
7.7401968683
 21
7.3896142054
  0
LINE
  5
83C
100
AcDbEntity
  8
0
100
AcDbLine
 62
3
  6
CONTINUOUS
 10
7.6491535706
 20
7.3896142054
 11
7.5900984525
 21
7.3896142054
  0
LINE
  5
83D
100
AcDbEntity
  8
0
100
AcDbLine
 62
3
  6
CONTINUOUS
 10
7.5704134038
 20
7.3896142054
 11
7.5482677345
 21
7.3896142054
  0
LINE
  5
83E
100
AcDbEntity
  8
0
100
AcDbLine
 62
3
  6
CONTINUOUS
 10
7.4744488368
 20
7.3896142054
 11
7.4523031675
 21
7.3896142054
  0
LINE
  5
83F
100
AcDbEntity
  8
0
100
AcDbLine
 62
3
  6
CONTINUOUS
 10
7.3932480494
 20
7.3896142054
 11
7.380944901
 21
7.3896142054
  0
LINE
  5
840
100
AcDbEntity
  8
0
100
AcDbLine
 62
3
  6
CONTINUOUS
 10
8.1314370258
 20
7.3871012219
 11
8.1142125976
 21
7.3896142054
  0
LINE
  5
841
100
AcDbEntity
  8
0
100
AcDbLine
 62
3
  6
CONTINUOUS
 10
8.2052559234
 20
7.2740169528
 11
8.220019703
 21
7.2715039692
  0
LINE
  5
842
100
AcDbEntity
  8
0
100
AcDbLine
 62
3
  6
CONTINUOUS
 10
8.1166732463
 20
7.3267896121
 11
8.1314370258
 21
7.3242766287
  0
LINE
  5
843
100
AcDbEntity
  8
0
100
AcDbLine
 62
3
  6
CONTINUOUS
 10
8.1043701154
 20
7.2840688882
 11
8.0920669283
 21
7.2865818716
  0
LINE
  5
844
100
AcDbEntity
  8
0
100
AcDbLine
 62
3
  6
CONTINUOUS
 10
7.6614567015
 20
7.3871012219
 11
7.6491535706
 21
7.3896142054
  0
LINE
  5
845
100
AcDbEntity
  8
0
100
AcDbLine
 62
3
  6
CONTINUOUS
 10
8.220019703
 20
7.2840688882
 11
8.2077165721
 21
7.2865818716
  0
LINE
  5
846
100
AcDbEntity
  8
0
100
AcDbLine
 62
3
  6
CONTINUOUS
 10
8.023169328
 20
7.3368415459
 11
8.0108661409
 21
7.3393545294
  0
LINE
  5
847
100
AcDbEntity
  8
0
100
AcDbLine
 62
3
  6
CONTINUOUS
 10
8.5325196654
 20
7.2740169528
 11
8.5448228526
 21
7.2715039692
  0
LINE
  5
848
100
AcDbEntity
  8
0
100
AcDbLine
 62
3
  6
CONTINUOUS
 10
8.0207086794
 20
7.3871012219
 11
8.0084055485
 21
7.3896142054
  0
LINE
  5
849
100
AcDbEntity
  8
0
100
AcDbLine
 62
3
  6
CONTINUOUS
 10
8.1166732463
 20
7.3770492881
 11
8.1289763771
 21
7.3745363047
  0
LINE
  5
84A
100
AcDbEntity
  8
0
100
AcDbLine
 62
3
  6
CONTINUOUS
 10
8.0920669283
 20
7.2740169528
 11
8.1019094668
 21
7.2715039692
  0
LINE
  5
84B
100
AcDbEntity
  8
0
100
AcDbLine
 62
3
  6
CONTINUOUS
 10
7.9862598792
 20
7.3267896121
 11
7.9961023614
 21
7.3242766287
  0
LINE
  5
84C
100
AcDbEntity
  8
0
100
AcDbLine
 62
3
  6
CONTINUOUS
 10
8.0108661409
 20
7.3242766287
 11
8.0207086794
 21
7.3217636452
  0
LINE
  5
84D
100
AcDbEntity
  8
0
100
AcDbLine
 62
3
  6
CONTINUOUS
 10
7.9961023614
 20
7.3393545294
 11
7.9887204716
 21
7.3418675128
  0
LINE
  5
84E
100
AcDbEntity
  8
0
100
AcDbLine
 62
3
  6
CONTINUOUS
 10
8.0108661409
 20
7.3745363047
 11
8.0182480307
 21
7.3720233212
  0
LINE
  5
84F
100
AcDbEntity
  8
0
100
AcDbLine
 62
3
  6
CONTINUOUS
 10
7.9764173408
 20
7.331815579
 11
7.9862598792
 21
7.3267896121
  0
LINE
  5
850
100
AcDbEntity
  8
0
100
AcDbLine
 62
3
  6
CONTINUOUS
 10
8.0822244462
 20
7.2790429204
 11
8.0920669283
 21
7.2740169528
  0
LINE
  5
851
100
AcDbEntity
  8
0
100
AcDbLine
 62
3
  6
CONTINUOUS
 10
8.0920669283
 20
7.2865818716
 11
8.0871456872
 21
7.2890948551
  0
LINE
  5
852
100
AcDbEntity
  8
0
100
AcDbLine
 62
3
  6
CONTINUOUS
 10
7.9665748023
 20
7.2815559039
 11
7.9788779895
 21
7.2740169528
  0
LINE
  5
853
100
AcDbEntity
  8
0
100
AcDbLine
 62
3
  6
CONTINUOUS
 10
7.6712992399
 20
7.3795622716
 11
7.6614567015
 21
7.3871012219
  0
LINE
  5
854
100
AcDbEntity
  8
0
100
AcDbLine
 62
3
  6
CONTINUOUS
 10
7.6589960809
 20
7.3217636452
 11
7.6639173502
 21
7.3167376783
  0
LINE
  5
855
100
AcDbEntity
  8
0
100
AcDbLine
 62
3
  6
CONTINUOUS
 10
7.6589960809
 20
7.3720233212
 11
7.6639173502
 21
7.3669973543
  0
LINE
  5
856
100
AcDbEntity
  8
0
100
AcDbLine
 62
3
  6
CONTINUOUS
 10
7.6786811297
 20
7.3192506618
 11
7.6712992399
 21
7.3293025956
  0
LINE
  5
857
100
AcDbEntity
  8
0
100
AcDbLine
 62
3
  6
CONTINUOUS
 10
7.4670669471
 20
7.3644843709
 11
7.5015157613
 21
7.2715039692
  0
LINE
  5
858
100
AcDbEntity
  8
0
100
AcDbLine
 62
3
  6
CONTINUOUS
 10
7.5113582857
 20
7.2840688882
 11
7.4744488368
 21
7.3896142054
  0
LINE
  5
859
100
AcDbEntity
  8
0
100
AcDbLine
 62
3
  6
CONTINUOUS
 10
7.4252362361
 20
7.3619713874
 11
7.4227756085
 21
7.3695103378
  0
LINE
  5
85A
100
AcDbEntity
  8
0
100
AcDbLine
 62
3
  6
CONTINUOUS
 10
7.3489567108
 20
7.3519194466
 11
7.3514173411
 21
7.3418675128
  0
LINE
  5
85B
100
AcDbEntity
  8
0
100
AcDbLine
 62
3
  6
CONTINUOUS
 10
7.3489567108
 20
7.3619713874
 11
7.3489567108
 21
7.3519194466
  0
LINE
  5
85C
100
AcDbEntity
  8
0
100
AcDbLine
 62
3
  6
CONTINUOUS
 10
7.3637204904
 20
7.3544324301
 11
7.3637204904
 21
7.359458397
  0
LINE
  5
85D
100
AcDbEntity
  8
0
100
AcDbLine
 62
3
  6
CONTINUOUS
 10
7.4055512014
 20
7.2890948551
 11
7.3957086805
 21
7.2865818716
  0
LINE
  5
85E
100
AcDbEntity
  8
0
100
AcDbLine
 62
3
  6
CONTINUOUS
 10
8.2347834825
 20
7.3871012219
 11
8.220019703
 21
7.3896142054
  0
LINE
  5
85F
100
AcDbEntity
  8
0
100
AcDbLine
 62
3
  6
CONTINUOUS
 10
8.220019703
 20
7.3770492881
 11
8.2323228338
 21
7.3745363047
  0
LINE
  5
860
100
AcDbEntity
  8
0
100
AcDbLine
 62
3
  6
CONTINUOUS
 10
8.3553543111
 20
7.3871012219
 11
8.3430512366
 21
7.3896142054
  0
LINE
  5
861
100
AcDbEntity
  8
0
100
AcDbLine
 62
3
  6
CONTINUOUS
 10
8.5448228526
 20
7.2865818716
 11
8.5349803704
 21
7.2890948551
  0
LINE
  5
862
100
AcDbEntity
  8
0
100
AcDbLine
 62
3
  6
CONTINUOUS
 10
8.345511829
 20
7.3770492881
 11
8.3528937187
 21
7.3745363047
  0
LINE
  5
863
100
AcDbEntity
  8
0
100
AcDbLine
 62
3
  6
CONTINUOUS
 10
8.148661454
 20
7.3267896121
 11
8.1363582669
 21
7.331815579
  0
LINE
  5
864
100
AcDbEntity
  8
0
100
AcDbLine
 62
3
  6
CONTINUOUS
 10
8.0330118102
 20
7.331815579
 11
8.023169328
 21
7.3368415459
  0
LINE
  5
865
100
AcDbEntity
  8
0
100
AcDbLine
 62
3
  6
CONTINUOUS
 10
8.1412795643
 20
7.382075255
 11
8.1314370258
 21
7.3871012219
  0
LINE
  5
866
100
AcDbEntity
  8
0
100
AcDbLine
 62
3
  6
CONTINUOUS
 10
8.1929527926
 20
7.2815559039
 11
8.2052559234
 21
7.2740169528
  0
LINE
  5
867
100
AcDbEntity
  8
0
100
AcDbLine
 62
3
  6
CONTINUOUS
 10
7.9887204716
 20
7.3418675128
 11
7.9813385818
 21
7.3468934797
  0
LINE
  5
868
100
AcDbEntity
  8
0
100
AcDbLine
 62
3
  6
CONTINUOUS
 10
8.0748425564
 20
7.2840688882
 11
8.0822244462
 21
7.2790429204
  0
LINE
  5
869
100
AcDbEntity
  8
0
100
AcDbLine
 62
3
  6
CONTINUOUS
 10
8.0207086794
 20
7.3217636452
 11
8.0280905691
 21
7.3167376783
  0
LINE
  5
86A
100
AcDbEntity
  8
0
100
AcDbLine
 62
3
  6
CONTINUOUS
 10
7.9813385818
 20
7.2890948551
 11
7.9739566921
 21
7.2966338072
  0
LINE
  5
86B
100
AcDbEntity
  8
0
100
AcDbLine
 62
3
  6
CONTINUOUS
 10
7.6786811297
 20
7.3695103378
 11
7.6712992399
 21
7.3795622716
  0
LINE
  5
86C
100
AcDbEntity
  8
0
100
AcDbLine
 62
3
  6
CONTINUOUS
 10
7.4178543463
 20
7.3091987244
 11
7.4178543463
 21
7.3016597741
  0
LINE
  5
86D
100
AcDbEntity
  8
0
100
AcDbLine
 62
3
  6
CONTINUOUS
 10
7.4326181258
 20
7.2991467906
 11
7.4326181258
 21
7.3117117079
  0
LINE
  5
86E
100
AcDbEntity
  8
0
100
AcDbLine
 62
3
  6
CONTINUOUS
 10
7.4523031675
 20
7.3896142054
 11
7.4523031675
 21
7.2715039692
  0
LINE
  5
86F
100
AcDbEntity
  8
0
100
AcDbLine
 62
3
  6
CONTINUOUS
 10
7.4670669471
 20
7.2715039692
 11
7.4670669471
 21
7.3644843709
  0
LINE
  5
870
100
AcDbEntity
  8
0
100
AcDbLine
 62
3
  6
CONTINUOUS
 10
7.380944901
 20
7.3896142054
 11
7.3711023801
 21
7.3871012219
  0
LINE
  5
871
100
AcDbEntity
  8
02___PRT_ALL_AXES
100
AcDbLine
 62
7
  6
CENTER
 10
8.2671463905
 20
7.6487907112
 11
8.0293511149
 21
7.6487907112
  0
LINE
  5
872
100
AcDbEntity
  8
02___PRT_ALL_AXES
100
AcDbLine
 62
7
  6
CENTER
 10
7.6679717556
 20
7.6487907112
 11
7.43017648
 21
7.6487907112
  0
LINE
  5
873
100
AcDbEntity
  8
02___PRT_ALL_AXES
100
AcDbLine
 62
7
  6
CENTER
 10
7.6679717556
 20
7.6487907112
 11
7.9057670312
 21
7.6487907112
  0
LINE
  5
874
100
AcDbEntity
  8
02___PRT_ALL_AXES
100
AcDbLine
 62
7
  6
CENTER
 10
8.2671463905
 20
7.6487907112
 11
8.5049416661
 21
7.6487907112
  0
LINE
  5
875
100
AcDbEntity
  8
0
100
AcDbLine
 62
3
  6
CONTINUOUS
 10
8.5226771833
 20
7.2790429204
 11
8.5325196654
 21
7.2740169528
  0
LINE
  5
876
100
AcDbEntity
  8
0
100
AcDbLine
 62
3
  6
CONTINUOUS
 10
8.2470866133
 20
7.3795622716
 11
8.2347834825
 21
7.3871012219
  0
LINE
  5
877
100
AcDbEntity
  8
0
100
AcDbLine
 62
3
  6
CONTINUOUS
 10
8.1314370258
 20
7.3242766287
 11
8.1388189156
 21
7.3192506618
  0
LINE
  5
878
100
AcDbEntity
  8
0
100
AcDbLine
 62
3
  6
CONTINUOUS
 10
8.2077165721
 20
7.2865818716
 11
8.2003346824
 21
7.2916078385
  0
LINE
  5
879
100
AcDbEntity
  8
0
100
AcDbLine
 62
3
  6
CONTINUOUS
 10
8.1289763771
 20
7.3745363047
 11
8.1363582669
 21
7.3695103378
  0
LINE
  5
87A
100
AcDbEntity
  8
0
100
AcDbLine
 62
3
  6
CONTINUOUS
 10
8.2323228338
 20
7.3745363047
 11
8.2397047236
 21
7.3695103378
  0
LINE
  5
87B
100
AcDbEntity
  8
0
100
AcDbLine
 62
3
  6
CONTINUOUS
 10
8.0305512178
 20
7.3795622716
 11
8.0207086794
 21
7.3871012219
  0
LINE
  5
87C
100
AcDbEntity
  8
0
100
AcDbLine
 62
3
  6
CONTINUOUS
 10
7.9665748023
 20
7.3418675128
 11
7.9764173408
 21
7.331815579
  0
LINE
  5
87D
100
AcDbEntity
  8
0
100
AcDbLine
 62
3
  6
CONTINUOUS
 10
8.0428543486
 20
7.3217636452
 11
8.0330118102
 21
7.331815579
  0
LINE
  5
87E
100
AcDbEntity
  8
0
100
AcDbLine
 62
3
  6
CONTINUOUS
 10
8.0871456872
 20
7.2890948551
 11
8.0822244462
 21
7.2941208237
  0
LINE
  5
87F
100
AcDbEntity
  8
0
100
AcDbLine
 62
3
  6
CONTINUOUS
 10
8.0182480307
 20
7.3720233212
 11
8.023169328
 21
7.3669973543
  0
LINE
  5
880
100
AcDbEntity
  8
0
100
AcDbLine
 62
3
  6
CONTINUOUS
 10
7.6639173502
 20
7.3167376783
 11
7.6663779707
 21
7.3091987244
  0
LINE
  5
881
100
AcDbEntity
  8
0
100
AcDbLine
 62
3
  6
CONTINUOUS
 10
7.6811417502
 20
7.3117117079
 11
7.6786811297
 21
7.3192506618
  0
LINE
  5
882
100
AcDbEntity
  8
0
100
AcDbLine
 62
3
  6
CONTINUOUS
 10
7.6639173502
 20
7.3669973543
 11
7.6663779707
 21
7.359458397
  0
LINE
  5
883
100
AcDbEntity
  8
0
100
AcDbLine
 62
3
  6
CONTINUOUS
 10
7.6811417502
 20
7.3619713874
 11
7.6786811297
 21
7.3695103378
  0
LINE
  5
884
100
AcDbEntity
  8
0
100
AcDbLine
 62
3
  6
CONTINUOUS
 10
7.5556496242
 20
7.3644843709
 11
7.5556496242
 21
7.2715039692
  0
LINE
  5
885
100
AcDbEntity
  8
0
100
AcDbLine
 62
3
  6
CONTINUOUS
 10
7.5704134038
 20
7.2715039692
 11
7.5704134038
 21
7.3896142054
  0
LINE
  5
886
100
AcDbEntity
  8
0
100
AcDbLine
 62
3
  6
CONTINUOUS
 10
7.5900984525
 20
7.3896142054
 11
7.5900984525
 21
7.2715039692
  0
LINE
  5
887
100
AcDbEntity
  8
0
100
AcDbLine
 62
3
  6
CONTINUOUS
 10
7.604862232
 20
7.2865818716
 11
7.604862232
 21
7.3242766287
  0
LINE
  5
888
100
AcDbEntity
  8
0
100
AcDbLine
 62
3
  6
CONTINUOUS
 10
7.604862232
 20
7.3393545294
 11
7.604862232
 21
7.3745363047
  0
LINE
  5
889
100
AcDbEntity
  8
0
100
AcDbLine
 62
3
  6
CONTINUOUS
 10
7.3514173411
 20
7.3720233212
 11
7.3489567108
 21
7.3619713874
  0
LINE
  5
88A
100
AcDbEntity
  8
0
100
AcDbLine
 62
3
  6
CONTINUOUS
 10
7.3637204904
 20
7.359458397
 11
7.3661811197
 21
7.3669973543
  0
LINE
  5
88B
100
AcDbEntity
  8
0
100
AcDbLine
 62
3
  6
CONTINUOUS
 10
8.5349803704
 20
7.2890948551
 11
8.5275984807
 21
7.2941208237
  0
LINE
  5
88C
100
AcDbEntity
  8
0
100
AcDbLine
 62
3
  6
CONTINUOUS
 10
8.3651969059
 20
7.3795622716
 11
8.3553543111
 21
7.3871012219
  0
LINE
  5
88D
100
AcDbEntity
  8
0
100
AcDbLine
 62
3
  6
CONTINUOUS
 10
8.1855709028
 20
7.2890948551
 11
8.1929527926
 21
7.2815559039
  0
LINE
  5
88E
100
AcDbEntity
  8
0
100
AcDbLine
 62
3
  6
CONTINUOUS
 10
8.1511220464
 20
7.3720233212
 11
8.1412795643
 21
7.382075255
  0
LINE
  5
88F
100
AcDbEntity
  8
0
100
AcDbLine
 62
3
  6
CONTINUOUS
 10
8.0379331076
 20
7.3695103378
 11
8.0305512178
 21
7.3795622716
  0
LINE
  5
890
100
AcDbEntity
  8
0
100
AcDbLine
 62
3
  6
CONTINUOUS
 10
8.0280905691
 20
7.3167376783
 11
8.0330118102
 21
7.3091987244
  0
LINE
  5
891
100
AcDbEntity
  8
0
100
AcDbLine
 62
3
  6
CONTINUOUS
 10
8.069921259
 20
7.2916078385
 11
8.0748425564
 21
7.2840688882
  0
LINE
  5
892
100
AcDbEntity
  8
0
100
AcDbLine
 62
3
  6
CONTINUOUS
 10
7.9591929125
 20
7.2941208237
 11
7.9665748023
 21
7.2815559039
  0
LINE
  5
893
100
AcDbEntity
  8
0
100
AcDbLine
 62
3
  6
CONTINUOUS
 10
7.8337007866
 20
7.3644843709
 11
7.868149643
 21
7.2715039692
  0
LINE
  5
894
100
AcDbEntity
  8
0
100
AcDbLine
 62
3
  6
CONTINUOUS
 10
7.8779921251
 20
7.2840688882
 11
7.8410826763
 21
7.3896142054
  0
LINE
  5
895
100
AcDbEntity
  8
0
100
AcDbLine
 62
3
  6
CONTINUOUS
 10
7.7992519864
 20
7.2715039692
 11
7.7598819171
 21
7.3896142054
  0
LINE
  5
896
100
AcDbEntity
  8
0
100
AcDbLine
 62
3
  6
CONTINUOUS
 10
7.7746456966
 20
7.3016597741
 11
7.7844882069
 21
7.2715039692
  0
LINE
  5
897
100
AcDbEntity
  8
0
100
AcDbLine
 62
3
  6
CONTINUOUS
 10
7.7500393786
 20
7.3795622716
 11
7.7721850479
 21
7.3117117079
  0
LINE
  5
898
100
AcDbEntity
  8
0
100
AcDbLine
 62
3
  6
CONTINUOUS
 10
7.6663779707
 20
7.359458397
 11
7.6663779707
 21
7.3544324301
  0
LINE
  5
899
100
AcDbEntity
  8
0
100
AcDbLine
 62
3
  6
CONTINUOUS
 10
7.6663779707
 20
7.3091987244
 11
7.6663779707
 21
7.3016597741
  0
LINE
  5
89A
100
AcDbEntity
  8
02___PRT_ALL_AXES
100
AcDbLine
 62
7
  6
CENTER
 10
7.6679717556
 20
8.4296502981
 11
7.6679717556
 21
8.1918550225
  0
LINE
  5
89B
100
AcDbEntity
  8
02___PRT_ALL_AXES
100
AcDbLine
 62
7
  6
CENTER
 10
7.6679717556
 20
7.6487907112
 11
7.6679717556
 21
7.4109954356
  0
LINE
  5
89C
100
AcDbEntity
  8
02___PRT_ALL_AXES
100
AcDbLine
 62
7
  6
CENTER
 10
7.6679717556
 20
7.6487907112
 11
7.6679717556
 21
7.8865859868
  0
LINE
  5
89D
100
AcDbEntity
  8
02___PRT_ALL_AXES
100
AcDbLine
 62
7
  6
CENTER
 10
7.6679717556
 20
8.4296502981
 11
7.6679717556
 21
8.6674455737
  0
LINE
  5
89E
100
AcDbEntity
  8
0
100
AcDbLine
 62
3
  6
CONTINUOUS
 10
7.6811417502
 20
7.2991467906
 11
7.6811417502
 21
7.3117117079
  0
LINE
  5
89F
100
AcDbEntity
  8
0
100
AcDbLine
 62
3
  6
CONTINUOUS
 10
7.6811417502
 20
7.3519194466
 11
7.6811417502
 21
7.3619713874
  0
LINE
  5
8A0
100
AcDbEntity
  8
0
100
AcDbLine
 62
3
  6
CONTINUOUS
 10
8.2544685031
 20
7.3720233212
 11
8.2470866133
 21
7.3795622716
  0
LINE
  5
8A1
100
AcDbEntity
  8
0
100
AcDbLine
 62
3
  6
CONTINUOUS
 10
8.3528937187
 20
7.3745363047
 11
8.3578150161
 21
7.3695103378
  0
LINE
  5
8A2
100
AcDbEntity
  8
0
100
AcDbLine
 62
3
  6
CONTINUOUS
 10
8.1535826951
 20
7.3192506618
 11
8.148661454
 21
7.3267896121
  0
LINE
  5
8A3
100
AcDbEntity
  8
0
100
AcDbLine
 62
3
  6
CONTINUOUS
 10
8.1363582669
 20
7.3695103378
 11
8.1412795643
 21
7.3619713874
  0
LINE
  5
8A4
100
AcDbEntity
  8
0
100
AcDbLine
 62
3
  6
CONTINUOUS
 10
8.2003346824
 20
7.2916078385
 11
8.1904921439
 21
7.306685741
  0
LINE
  5
8A5
100
AcDbEntity
  8
0
100
AcDbLine
 62
3
  6
CONTINUOUS
 10
8.0477755897
 20
7.3117117079
 11
8.0428543486
 21
7.3217636452
  0
LINE
  5
8A6
100
AcDbEntity
  8
0
100
AcDbLine
 62
3
  6
CONTINUOUS
 10
8.023169328
 20
7.3669973543
 11
8.0256299204
 21
7.3619713874
  0
LINE
  5
8A7
100
AcDbEntity
  8
0
100
AcDbLine
 62
3
  6
CONTINUOUS
 10
8.0822244462
 20
7.2941208237
 11
8.0797637975
 21
7.2991467906
  0
LINE
  5
8A8
100
AcDbEntity
  8
0
100
AcDbLine
 62
3
  6
CONTINUOUS
 10
7.9739566921
 20
7.2966338072
 11
7.9714960997
 21
7.3041727575
  0
LINE
  5
8A9
100
AcDbEntity
  8
0
100
AcDbLine
 62
3
  6
CONTINUOUS
 10
7.9813385818
 20
7.3468934797
 11
7.9788779895
 21
7.3544324301
  0
LINE
  5
8AA
100
AcDbEntity
  8
0
100
AcDbLine
 62
3
  6
CONTINUOUS
 10
7.818937007
 20
7.3896142054
 11
7.818937007
 21
7.2715039692
  0
LINE
  5
8AB
100
AcDbEntity
  8
0
100
AcDbLine
 62
3
  6
CONTINUOUS
 10
7.8337007866
 20
7.2715039692
 11
7.8337007866
 21
7.3644843709
  0
LINE
  5
8AC
100
AcDbEntity
  8
0
100
AcDbLine
 62
3
  6
CONTINUOUS
 10
7.5482677345
 20
7.3896142054
 11
7.5113582857
 21
7.2840688882
  0
LINE
  5
8AD
100
AcDbEntity
  8
0
100
AcDbLine
 62
3
  6
CONTINUOUS
 10
7.52120081
 20
7.2715039692
 11
7.5556496242
 21
7.3644843709
  0
LINE
  5
8AE
100
AcDbEntity
  8
0
100
AcDbLine
 62
3
  6
CONTINUOUS
 10
7.4276968707
 20
7.2890948551
 11
7.4326181258
 21
7.2991467906
  0
LINE
  5
8AF
100
AcDbEntity
  8
0
100
AcDbLine
 62
3
  6
CONTINUOUS
 10
8.5128347011
 20
7.2890948551
 11
8.5226771833
 21
7.2790429204
  0
LINE
  5
8B0
100
AcDbEntity
  8
0
100
AcDbLine
 62
3
  6
CONTINUOUS
 10
8.3725787956
 20
7.3695103378
 11
8.3651969059
 21
7.3795622716
  0
LINE
  5
8B1
100
AcDbEntity
  8
0
100
AcDbLine
 62
3
  6
CONTINUOUS
 10
8.2397047236
 20
7.3695103378
 11
8.249547262
 21
7.3544324301
  0
LINE
  5
8B2
100
AcDbEntity
  8
0
100
AcDbLine
 62
3
  6
CONTINUOUS
 10
8.1388189156
 20
7.3192506618
 11
8.1437401566
 21
7.3091987244
  0
LINE
  5
8B3
100
AcDbEntity
  8
0
100
AcDbLine
 62
3
  6
CONTINUOUS
 10
8.1806496055
 20
7.2991467906
 11
8.1855709028
 21
7.2890948551
  0
LINE
  5
8B4
100
AcDbEntity
  8
0
100
AcDbLine
 62
3
  6
CONTINUOUS
 10
8.0403936999
 20
7.3619713874
 11
8.0379331076
 21
7.3695103378
  0
LINE
  5
8B5
100
AcDbEntity
  8
0
100
AcDbLine
 62
3
  6
CONTINUOUS
 10
8.0674606666
 20
7.2991467906
 11
8.069921259
 21
7.2916078385
  0
LINE
  5
8B6
100
AcDbEntity
  8
0
100
AcDbLine
 62
3
  6
CONTINUOUS
 10
7.9567323202
 20
7.3041727575
 11
7.9591929125
 21
7.2941208237
  0
LINE
  5
8B7
100
AcDbEntity
  8
0
100
AcDbLine
 62
3
  6
CONTINUOUS
 10
7.9641142099
 20
7.3519194466
 11
7.9665748023
 21
7.3418675128
  0
LINE
  5
8B8
100
AcDbEntity
  8
0
100
AcDbLine
 62
3
  6
CONTINUOUS
 10
7.9222834637
 20
7.3644843709
 11
7.9222834637
 21
7.2715039692
  0
LINE
  5
8B9
100
AcDbEntity
  8
0
100
AcDbLine
 62
3
  6
CONTINUOUS
 10
7.9370472433
 20
7.2715039692
 11
7.9370472433
 21
7.3896142054
  0
LINE
  5
8BA
100
AcDbEntity
  8
0
100
AcDbLine
 62
3
  6
CONTINUOUS
 10
7.9641142099
 20
7.3619713874
 11
7.9641142099
 21
7.3519194466
  0
LINE
  5
8BB
100
AcDbEntity
  8
02___PRT_ALL_AXES
100
AcDbLine
 62
7
  6
CENTER
 10
7.9675590731
 20
8.0392205046
 11
7.9675590731
 21
7.3092992448
  0
LINE
  5
8BC
100
AcDbEntity
  8
02___PRT_ALL_AXES
100
AcDbLine
 62
7
  6
CENTER
 10
7.9675590731
 20
8.0392205046
 11
7.9675590731
 21
8.7691417645
  0
LINE
  5
8BD
100
AcDbEntity
  8
0
100
AcDbLine
 62
3
  6
CONTINUOUS
 10
7.9788779895
 20
7.3544324301
 11
7.9788779895
 21
7.359458397
  0
LINE
  5
8BE
100
AcDbEntity
  8
0
100
AcDbLine
 62
3
  6
CONTINUOUS
 10
7.6663779707
 20
7.3544324301
 11
7.6639173502
 21
7.3468934797
  0
LINE
  5
8BF
100
AcDbEntity
  8
0
100
AcDbLine
 62
3
  6
CONTINUOUS
 10
7.6786811297
 20
7.3443804963
 11
7.6811417502
 21
7.3519194466
  0
LINE
  5
8C0
100
AcDbEntity
  8
0
100
AcDbLine
 62
3
  6
CONTINUOUS
 10
7.6663779707
 20
7.3016597741
 11
7.6639173502
 21
7.2941208237
  0
LINE
  5
8C1
100
AcDbEntity
  8
0
100
AcDbLine
 62
3
  6
CONTINUOUS
 10
7.6786811297
 20
7.2916078385
 11
7.6811417502
 21
7.2991467906
  0
LINE
  5
8C2
100
AcDbEntity
  8
0
100
AcDbLine
 62
3
  6
CONTINUOUS
 10
7.7401968683
 20
7.3896142054
 11
7.700826799
 21
7.2715039692
  0
LINE
  5
8C3
100
AcDbEntity
  8
0
100
AcDbLine
 62
3
  6
CONTINUOUS
 10
7.4178543463
 20
7.3016597741
 11
7.4129330911
 21
7.2941208237
  0
LINE
  5
8C4
100
AcDbEntity
  8
02___PRT_ALL_AXES
100
AcDbLine
 62
7
  6
CENTER
 10
7.9675590731
 20
8.0392205046
 11
7.2376378132
 21
8.0392205046
  0
LINE
  5
8C5
100
AcDbEntity
  8
02___PRT_ALL_AXES
100
AcDbLine
 62
7
  6
CENTER
 10
7.9675590731
 20
8.0392205046
 11
8.6974803329
 21
8.0392205046
  0
LINE
  5
8C6
100
AcDbEntity
  8
0
100
AcDbLine
 62
3
  6
CONTINUOUS
 10
8.2593898005
 20
7.3619713874
 11
8.2544685031
 21
7.3720233212
  0
LINE
  5
8C7
100
AcDbEntity
  8
0
100
AcDbLine
 62
3
  6
CONTINUOUS
 10
8.1781890131
 20
7.306685741
 11
8.1806496055
 21
7.2991467906
  0
LINE
  5
8C8
100
AcDbEntity
  8
0
100
AcDbLine
 62
3
  6
CONTINUOUS
 10
8.1560433438
 20
7.3091987244
 11
8.1535826951
 21
7.3192506618
  0
LINE
  5
8C9
100
AcDbEntity
  8
0
100
AcDbLine
 62
3
  6
CONTINUOUS
 10
8.1535826951
 20
7.3619713874
 11
8.1511220464
 21
7.3720233212
  0
LINE
  5
8CA
100
AcDbEntity
  8
0
100
AcDbLine
 62
3
  6
CONTINUOUS
 10
8.0330118102
 20
7.3091987244
 11
8.0330118102
 21
7.3016597741
  0
LINE
  5
8CB
100
AcDbEntity
  8
0
100
AcDbLine
 62
3
  6
CONTINUOUS
 10
8.0477755897
 20
7.2991467906
 11
8.0477755897
 21
7.3117117079
  0
LINE
  5
8CC
100
AcDbEntity
  8
0
100
AcDbLine
 62
3
  6
CONTINUOUS
 10
7.7278937093
 20
7.3117117079
 11
7.7500393786
 21
7.3795622716
  0
LINE
  5
8CD
100
AcDbEntity
  8
0
100
AcDbLine
 62
3
  6
CONTINUOUS
 10
7.7155905785
 20
7.2715039692
 11
7.7254330888
 21
7.3016597741
  0
LINE
  5
8CE
100
AcDbEntity
  8
0
100
AcDbLine
 62
3
  6
CONTINUOUS
 10
7.361259861
 20
7.382075255
 11
7.3514173411
 21
7.3720233212
  0
LINE
  5
8CF
100
AcDbEntity
  8
0
100
AcDbLine
 62
3
  6
CONTINUOUS
 10
8.5275984807
 20
7.2941208237
 11
8.5226771833
 21
7.3016597741
  0
LINE
  5
8D0
100
AcDbEntity
  8
0
100
AcDbLine
 62
3
  6
CONTINUOUS
 10
8.3774999804
 20
7.2715039692
 11
8.3553543111
 21
7.3293025956
  0
LINE
  5
8D1
100
AcDbEntity
  8
0
100
AcDbLine
 62
3
  6
CONTINUOUS
 10
8.3405905316
 20
7.3242766287
 11
8.3602756085
 21
7.2715039692
  0
LINE
  5
8D2
100
AcDbEntity
  8
0
100
AcDbLine
 62
3
  6
CONTINUOUS
 10
8.2618503929
 20
7.3544324301
 11
8.2593898005
 21
7.3619713874
  0
LINE
  5
8D3
100
AcDbEntity
  8
0
100
AcDbLine
 62
3
  6
CONTINUOUS
 10
8.1757283644
 20
7.3192506618
 11
8.1781890131
 21
7.306685741
  0
LINE
  5
8D4
100
AcDbEntity
  8
0
100
AcDbLine
 62
3
  6
CONTINUOUS
 10
8.1904921439
 20
7.306685741
 11
8.1880314952
 21
7.3217636452
  0
LINE
  5
8D5
100
AcDbEntity
  8
0
100
AcDbLine
 62
3
  6
CONTINUOUS
 10
8.1068307078
 20
7.3368415459
 11
8.1068307078
 21
7.3267896121
  0
LINE
  5
8D6
100
AcDbEntity
  8
0
100
AcDbLine
 62
3
  6
CONTINUOUS
 10
8.1412795643
 20
7.3619713874
 11
8.1412795643
 21
7.3569454135
  0
LINE
  5
8D7
100
AcDbEntity
  8
0
100
AcDbLine
 62
3
  6
CONTINUOUS
 10
8.1437401566
 20
7.3091987244
 11
8.1437401566
 21
7.2991467906
  0
LINE
  5
8D8
100
AcDbEntity
  8
0
100
AcDbLine
 62
3
  6
CONTINUOUS
 10
8.1535826951
 20
7.3569454135
 11
8.1535826951
 21
7.3619713874
  0
LINE
  5
8D9
100
AcDbEntity
  8
0
100
AcDbLine
 62
3
  6
CONTINUOUS
 10
8.1560433438
 20
7.2991467906
 11
8.1560433438
 21
7.3091987244
  0
LINE
  5
8DA
100
AcDbEntity
  8
0
100
AcDbLine
 62
3
  6
CONTINUOUS
 10
8.1757283644
 20
7.3418675128
 11
8.1757283644
 21
7.3192506618
  0
LINE
  5
8DB
100
AcDbEntity
  8
0
100
AcDbLine
 62
3
  6
CONTINUOUS
 10
8.1880314952
 20
7.3217636452
 11
8.1880314952
 21
7.3393545294
  0
LINE
  5
8DC
100
AcDbEntity
  8
0
100
AcDbLine
 62
3
  6
CONTINUOUS
 10
7.9665748023
 20
7.3720233212
 11
7.9641142099
 21
7.3619713874
  0
LINE
  5
8DD
100
AcDbEntity
  8
0
100
AcDbLine
 62
3
  6
CONTINUOUS
 10
7.9788779895
 20
7.359458397
 11
7.9813385818
 21
7.3669973543
  0
LINE
  5
8DE
100
AcDbEntity
  8
0
100
AcDbLine
 62
3
  6
CONTINUOUS
 10
7.914901574
 20
7.3896142054
 11
7.8779921251
 21
7.2840688882
  0
LINE
  5
8DF
100
AcDbEntity
  8
0
100
AcDbLine
 62
3
  6
CONTINUOUS
 10
7.8878346636
 20
7.2715039692
 11
7.9222834637
 21
7.3644843709
  0
LINE
  5
8E0
100
AcDbEntity
  8
0
100
AcDbLine
 62
3
  6
CONTINUOUS
 10
7.6712992399
 20
7.3343285625
 11
7.6786811297
 21
7.3443804963
  0
LINE
  5
8E1
100
AcDbEntity
  8
0
100
AcDbLine
 62
3
  6
CONTINUOUS
 10
7.4178543463
 20
7.2790429204
 11
7.4276968707
 21
7.2890948551
  0
LINE
  5
8E2
100
AcDbEntity
  8
0
100
AcDbLine
 62
3
  6
CONTINUOUS
 10
8.5079134038
 20
7.2991467906
 11
8.5128347011
 21
7.2890948551
  0
LINE
  5
8E3
100
AcDbEntity
  8
0
100
AcDbLine
 62
3
  6
CONTINUOUS
 10
8.3578150161
 20
7.3695103378
 11
8.3602756085
 21
7.3619713874
  0
LINE
  5
8E4
100
AcDbEntity
  8
0
100
AcDbLine
 62
3
  6
CONTINUOUS
 10
8.375039388
 20
7.3619713874
 11
8.3725787956
 21
7.3695103378
  0
LINE
  5
8E5
100
AcDbEntity
  8
0
100
AcDbLine
 62
3
  6
CONTINUOUS
 10
8.2643110416
 20
7.3418675128
 11
8.2618503929
 21
7.3544324301
  0
LINE
  5
8E6
100
AcDbEntity
  8
0
100
AcDbLine
 62
3
  6
CONTINUOUS
 10
8.249547262
 20
7.3544324301
 11
8.2520079107
 21
7.3393545294
  0
LINE
  5
8E7
100
AcDbEntity
  8
0
100
AcDbLine
 62
3
  6
CONTINUOUS
 10
8.2520079107
 20
7.3393545294
 11
8.2520079107
 21
7.3217636452
  0
LINE
  5
8E8
100
AcDbEntity
  8
0
100
AcDbLine
 62
3
  6
CONTINUOUS
 10
8.2643110416
 20
7.3192506618
 11
8.2643110416
 21
7.3418675128
  0
LINE
  5
8E9
100
AcDbEntity
  8
02___PRT_ALL_AXES
100
AcDbLine
 62
7
  6
CENTER
 10
8.2671463905
 20
8.4296502981
 11
8.2671463905
 21
8.1918550225
  0
LINE
  5
8EA
100
AcDbEntity
  8
02___PRT_ALL_AXES
100
AcDbLine
 62
7
  6
CENTER
 10
8.2671463905
 20
7.6487907112
 11
8.2671463905
 21
7.4109954356
  0
LINE
  5
8EB
100
AcDbEntity
  8
02___PRT_ALL_AXES
100
AcDbLine
 62
7
  6
CENTER
 10
8.2671463905
 20
7.6487907112
 11
8.2671463905
 21
7.8865859868
  0
LINE
  5
8EC
100
AcDbEntity
  8
02___PRT_ALL_AXES
100
AcDbLine
 62
7
  6
CENTER
 10
8.2671463905
 20
8.4296502981
 11
8.2671463905
 21
8.6674455737
  0
LINE
  5
8ED
100
AcDbEntity
  8
0
100
AcDbLine
 62
3
  6
CONTINUOUS
 10
8.2839960622
 20
7.3896142054
 11
8.2839960622
 21
7.2715039692
  0
LINE
  5
8EE
100
AcDbEntity
  8
0
100
AcDbLine
 62
3
  6
CONTINUOUS
 10
8.298759898
 20
7.2715039692
 11
8.298759898
 21
7.3242766287
  0
LINE
  5
8EF
100
AcDbEntity
  8
0
100
AcDbLine
 62
3
  6
CONTINUOUS
 10
8.298759898
 20
7.3393545294
 11
8.298759898
 21
7.3770492881
  0
LINE
  5
8F0
100
AcDbEntity
  8
0
100
AcDbLine
 62
3
  6
CONTINUOUS
 10
8.1880314952
 20
7.3393545294
 11
8.1904921439
 21
7.3544324301
  0
LINE
  5
8F1
100
AcDbEntity
  8
0
100
AcDbLine
 62
3
  6
CONTINUOUS
 10
8.1781890131
 20
7.3544324301
 11
8.1757283644
 21
7.3418675128
  0
LINE
  5
8F2
100
AcDbEntity
  8
0
100
AcDbLine
 62
3
  6
CONTINUOUS
 10
8.0723819077
 20
7.3720233212
 11
8.069921259
 21
7.3619713874
  0
LINE
  5
8F3
100
AcDbEntity
  8
0
100
AcDbLine
 62
3
  6
CONTINUOUS
 10
7.6712992399
 20
7.2815559039
 11
7.6786811297
 21
7.2916078385
  0
LINE
  5
8F4
100
AcDbEntity
  8
0
100
AcDbLine
 62
3
  6
CONTINUOUS
 10
7.6639173502
 20
7.3468934797
 11
7.6589960809
 21
7.3418675128
  0
LINE
  5
8F5
100
AcDbEntity
  8
0
100
AcDbLine
 62
3
  6
CONTINUOUS
 10
7.6639173502
 20
7.2941208237
 11
7.6589960809
 21
7.2890948551
  0
LINE
  5
8F6
100
AcDbEntity
  8
0
100
AcDbLine
 62
3
  6
CONTINUOUS
 10
7.3661811197
 20
7.3669973543
 11
7.3735630112
 21
7.3720233212
  0
LINE
  5
8F7
100
AcDbEntity
  8
0
100
AcDbLine
 62
3
  6
CONTINUOUS
 10
7.4129330911
 20
7.2941208237
 11
7.4055512014
 21
7.2890948551
  0
LINE
  5
8F8
100
AcDbEntity
  8
02___PRT_ALL_AXES
100
AcDbLine
 62
7
  6
CENTER
 10
8.2671463905
 20
8.4296502981
 11
8.0293511149
 21
8.4296502981
  0
LINE
  5
8F9
100
AcDbEntity
  8
02___PRT_ALL_AXES
100
AcDbLine
 62
7
  6
CENTER
 10
7.6679717556
 20
8.4296502981
 11
7.43017648
 21
8.4296502981
  0
LINE
  5
8FA
100
AcDbEntity
  8
02___PRT_ALL_AXES
100
AcDbLine
 62
7
  6
CENTER
 10
7.6679717556
 20
8.4296502981
 11
7.9057670312
 21
8.4296502981
  0
LINE
  5
8FB
100
AcDbEntity
  8
02___PRT_ALL_AXES
100
AcDbLine
 62
7
  6
CENTER
 10
8.2671463905
 20
8.4296502981
 11
8.5049416661
 21
8.4296502981
  0
LINE
  5
8FC
100
AcDbEntity
  8
0
100
AcDbLine
 62
3
  6
CONTINUOUS
 10
8.5226771833
 20
7.3016597741
 11
8.5202165909
 21
7.3117117079
  0
LINE
  5
8FD
100
AcDbEntity
  8
0
100
AcDbLine
 62
3
  6
CONTINUOUS
 10
8.3602756085
 20
7.3619713874
 11
8.3602756085
 21
7.3544324301
  0
LINE
  5
8FE
100
AcDbEntity
  8
0
100
AcDbLine
 62
3
  6
CONTINUOUS
 10
8.375039388
 20
7.3519194466
 11
8.375039388
 21
7.3619713874
  0
LINE
  5
8FF
100
AcDbEntity
  8
0
100
AcDbLine
 62
3
  6
CONTINUOUS
 10
8.3971850573
 20
7.3896142054
 11
8.3971850573
 21
7.2715039692
  0
LINE
  5
900
100
AcDbEntity
  8
0
100
AcDbLine
 62
3
  6
CONTINUOUS
 10
8.4119488368
 20
7.2865818716
 11
8.4119488368
 21
7.3896142054
  0
LINE
  5
901
100
AcDbEntity
  8
0
100
AcDbLine
 62
3
  6
CONTINUOUS
 10
8.2520079107
 20
7.3217636452
 11
8.249547262
 21
7.306685741
  0
LINE
  5
902
100
AcDbEntity
  8
0
100
AcDbLine
 62
3
  6
CONTINUOUS
 10
8.2618503929
 20
7.306685741
 11
8.2643110416
 21
7.3192506618
  0
LINE
  5
903
100
AcDbEntity
  8
0
100
AcDbLine
 62
3
  6
CONTINUOUS
 10
8.1511220464
 20
7.3468934797
 11
8.1535826951
 21
7.3569454135
  0
LINE
  5
904
100
AcDbEntity
  8
0
100
AcDbLine
 62
3
  6
CONTINUOUS
 10
8.1535826951
 20
7.2916078385
 11
8.1560433438
 21
7.2991467906
  0
LINE
  5
905
100
AcDbEntity
  8
0
100
AcDbLine
 62
3
  6
CONTINUOUS
 10
8.1806496055
 20
7.3619713874
 11
8.1781890131
 21
7.3544324301
  0
LINE
  5
906
100
AcDbEntity
  8
0
100
AcDbLine
 62
3
  6
CONTINUOUS
 10
8.0428543486
 20
7.2890948551
 11
8.0477755897
 21
7.2991467906
  0
LINE
  5
907
100
AcDbEntity
  8
0
100
AcDbLine
 62
3
  6
CONTINUOUS
 10
7.6614567015
 20
7.2740169528
 11
7.6712992399
 21
7.2815559039
  0
LINE
  5
908
100
AcDbEntity
  8
0
100
AcDbLine
 62
3
  6
CONTINUOUS
 10
7.3711023801
 20
7.3871012219
 11
7.361259861
 21
7.382075255
  0
LINE
  5
909
100
AcDbEntity
  8
0
100
AcDbLine
 62
3
  6
CONTINUOUS
 10
8.5054528114
 20
7.3117117079
 11
8.5079134038
 21
7.2991467906
  0
LINE
  5
90A
100
AcDbEntity
  8
0
100
AcDbLine
 62
3
  6
CONTINUOUS
 10
8.4857677345
 20
7.2715039692
 11
8.4857677345
 21
7.2865818716
  0
LINE
  5
90B
100
AcDbEntity
  8
0
100
AcDbLine
 62
3
  6
CONTINUOUS
 10
8.2593898005
 20
7.2991467906
 11
8.2618503929
 21
7.306685741
  0
LINE
  5
90C
100
AcDbEntity
  8
0
100
AcDbLine
 62
3
  6
CONTINUOUS
 10
8.1412795643
 20
7.3569454135
 11
8.1363582669
 21
7.3468934797
  0
LINE
  5
90D
100
AcDbEntity
  8
0
100
AcDbLine
 62
3
  6
CONTINUOUS
 10
8.1437401566
 20
7.2991467906
 11
8.1412795643
 21
7.2941208237
  0
LINE
  5
90E
100
AcDbEntity
  8
0
100
AcDbLine
 62
3
  6
CONTINUOUS
 10
8.1855709028
 20
7.3720233212
 11
8.1806496055
 21
7.3619713874
  0
LINE
  5
90F
100
AcDbEntity
  8
0
100
AcDbLine
 62
3
  6
CONTINUOUS
 10
8.0330118102
 20
7.3016597741
 11
8.0280905691
 21
7.2941208237
  0
LINE
  5
910
100
AcDbEntity
  8
0
100
AcDbLine
 62
3
  6
CONTINUOUS
 10
8.0822244462
 20
7.3619713874
 11
8.0871456872
 21
7.3695103378
  0
LINE
  5
911
100
AcDbEntity
  8
0
100
AcDbLine
 62
3
  6
CONTINUOUS
 10
8.1462008053
 20
7.3393545294
 11
8.1511220464
 21
7.3468934797
  0
LINE
  5
912
100
AcDbEntity
  8
0
100
AcDbLine
 62
3
  6
CONTINUOUS
 10
7.9764173408
 20
7.382075255
 11
7.9665748023
 21
7.3720233212
  0
LINE
  5
913
100
AcDbEntity
  8
0
100
AcDbLine
 62
3
  6
CONTINUOUS
 10
8.0822244462
 20
7.382075255
 11
8.0723819077
 21
7.3720233212
  0
LINE
  5
914
100
AcDbEntity
  8
0
100
AcDbLine
 62
3
  6
CONTINUOUS
 10
7.408011829
 20
7.2740169528
 11
7.4178543463
 21
7.2790429204
  0
LINE
  5
915
100
AcDbEntity
  8
0
100
AcDbLine
 62
3
  6
CONTINUOUS
 10
7.6663779707
 20
7.331815579
 11
7.6712992399
 21
7.3343285625
  0
LINE
  5
916
100
AcDbEntity
  8
0
100
AcDbLine
 62
3
  6
CONTINUOUS
 10
7.3735630112
 20
7.3720233212
 11
7.380944901
 21
7.3745363047
  0
LINE
  5
917
100
AcDbEntity
  8
0
100
AcDbLine
 62
3
  6
CONTINUOUS
 10
8.579271709
 20
7.3896142054
 11
8.579271709
 21
7.3117117079
  0
LINE
  5
918
100
AcDbEntity
  8
0
100
AcDbLine
 62
3
  6
CONTINUOUS
 10
8.5940354886
 20
7.3117117079
 11
8.5940354886
 21
7.3896142054
  0
LINE
  5
919
100
AcDbEntity
  8
0
100
AcDbLine
 62
3
  6
CONTINUOUS
 10
8.3602756085
 20
7.3544324301
 11
8.3578150161
 21
7.3468934797
  0
LINE
  5
91A
100
AcDbEntity
  8
0
100
AcDbLine
 62
3
  6
CONTINUOUS
 10
8.3725787956
 20
7.3443804963
 11
8.375039388
 21
7.3519194466
  0
LINE
  5
91B
100
AcDbEntity
  8
0
100
AcDbLine
 62
3
  6
CONTINUOUS
 10
8.2544685031
 20
7.2890948551
 11
8.2593898005
 21
7.2991467906
  0
LINE
  5
91C
100
AcDbEntity
  8
0
100
AcDbLine
 62
3
  6
CONTINUOUS
 10
8.1904921439
 20
7.3544324301
 11
8.2003346824
 21
7.3695103378
  0
LINE
  5
91D
100
AcDbEntity
  8
0
100
AcDbLine
 62
3
  6
CONTINUOUS
 10
8.148661454
 20
7.2840688882
 11
8.1535826951
 21
7.2916078385
  0
LINE
  5
91E
100
AcDbEntity
  8
0
100
AcDbLine
 62
3
  6
CONTINUOUS
 10
8.249547262
 20
7.306685741
 11
8.2397047236
 21
7.2916078385
  0
LINE
  5
91F
100
AcDbEntity
  8
0
100
AcDbLine
 62
3
  6
CONTINUOUS
 10
8.0330118102
 20
7.2790429204
 11
8.0428543486
 21
7.2890948551
  0
LINE
  5
920
100
AcDbEntity
  8
0
100
AcDbLine
 62
3
  6
CONTINUOUS
 10
8.1363582669
 20
7.3468934797
 11
8.1314370258
 21
7.3418675128
  0
LINE
  5
921
100
AcDbEntity
  8
0
100
AcDbLine
 62
3
  6
CONTINUOUS
 10
8.1929527926
 20
7.3795622716
 11
8.1855709028
 21
7.3720233212
  0
LINE
  5
922
100
AcDbEntity
  8
0
100
AcDbLine
 62
3
  6
CONTINUOUS
 10
8.1412795643
 20
7.2941208237
 11
8.1363582669
 21
7.2890948551
  0
LINE
  5
923
100
AcDbEntity
  8
0
100
AcDbLine
 62
3
  6
CONTINUOUS
 10
7.9813385818
 20
7.3669973543
 11
7.9887204716
 21
7.3720233212
  0
LINE
  5
924
100
AcDbEntity
  8
0
100
AcDbLine
 62
3
  6
CONTINUOUS
 10
8.0871456872
 20
7.3695103378
 11
8.094527577
 21
7.3745363047
  0
LINE
  5
925
100
AcDbEntity
  8
0
100
AcDbLine
 62
3
  6
CONTINUOUS
 10
7.9862598792
 20
7.3871012219
 11
7.9764173408
 21
7.382075255
  0
LINE
  5
926
100
AcDbEntity
  8
0
100
AcDbLine
 62
3
  6
CONTINUOUS
 10
8.0920669283
 20
7.3871012219
 11
8.0822244462
 21
7.382075255
  0
LINE
  5
927
100
AcDbEntity
  8
0
100
AcDbLine
 62
3
  6
CONTINUOUS
 10
7.6589960809
 20
7.3418675128
 11
7.6516141912
 21
7.3393545294
  0
LINE
  5
928
100
AcDbEntity
  8
0
100
AcDbLine
 62
3
  6
CONTINUOUS
 10
7.6589960809
 20
7.2890948551
 11
7.6516141912
 21
7.2865818716
  0
LINE
  5
929
100
AcDbEntity
  8
0
100
AcDbLine
 62
3
  6
CONTINUOUS
 10
7.9887204716
 20
7.3720233212
 11
7.9961023614
 21
7.3745363047
  0
LWPOLYLINE
  5
92A
100
AcDbEntity
  8
0
100
AcDbPolyline
 62
3
  6
CONTINUOUS
 90
6
 70
0
 10
6.5893805842
 20
8.940813606
 10
6.6139172515
 20
8.9381090951
 10
6.6456472653
 20
8.9310513414
 10
6.6848954774
 20
8.9220379679
 10
6.7318181328
 20
8.9141852853
 10
6.7864567108
 20
8.9108324104
  0
LINE
  5
92B
100
AcDbEntity
  8
0
100
AcDbLine
 62
3
  6
CONTINUOUS
 10
8.5915747835
 20
7.2991467906
 11
8.5940354886
 21
7.3117117079
  0
LINE
  5
92C
100
AcDbEntity
  8
0
100
AcDbLine
 62
3
  6
CONTINUOUS
 10
8.579271709
 20
7.3117117079
 11
8.576811004
 21
7.3016597741
  0
LINE
  5
92D
100
AcDbEntity
  8
0
100
AcDbLine
 62
3
  6
CONTINUOUS
 10
8.3651969059
 20
7.3343285625
 11
8.3725787956
 21
7.3443804963
  0
LINE
  5
92E
100
AcDbEntity
  8
0
100
AcDbLine
 62
3
  6
CONTINUOUS
 10
8.2470866133
 20
7.2815559039
 11
8.2544685031
 21
7.2890948551
  0
LINE
  5
92F
100
AcDbEntity
  8
0
100
AcDbLine
 62
3
  6
CONTINUOUS
 10
8.3578150161
 20
7.3468934797
 11
8.3528937187
 21
7.3418675128
  0
LINE
  5
930
100
AcDbEntity
  8
0
100
AcDbLine
 62
3
  6
CONTINUOUS
 10
8.1363582669
 20
7.331815579
 11
8.1462008053
 21
7.3393545294
  0
LINE
  5
931
100
AcDbEntity
  8
0
100
AcDbLine
 62
3
  6
CONTINUOUS
 10
8.0280905691
 20
7.2941208237
 11
8.0207086794
 21
7.2890948551
  0
LINE
  5
932
100
AcDbEntity
  8
0
100
AcDbLine
 62
3
  6
CONTINUOUS
 10
8.2003346824
 20
7.3695103378
 11
8.2077165721
 21
7.3745363047
  0
LINE
  5
933
100
AcDbEntity
  8
0
100
AcDbLine
 62
3
  6
CONTINUOUS
 10
8.1412795643
 20
7.2790429204
 11
8.148661454
 21
7.2840688882
  0
LINE
  5
934
100
AcDbEntity
  8
0
100
AcDbLine
 62
3
  6
CONTINUOUS
 10
8.2052559234
 20
7.3871012219
 11
8.1929527926
 21
7.3795622716
  0
LINE
  5
935
100
AcDbEntity
  8
0
100
AcDbLine
 62
3
  6
CONTINUOUS
 10
8.023169328
 20
7.2740169528
 11
8.0330118102
 21
7.2790429204
  0
LINE
  5
936
100
AcDbEntity
  8
0
100
AcDbLine
 62
3
  6
CONTINUOUS
 10
8.1363582669
 20
7.2890948551
 11
8.1314370258
 21
7.2865818716
  0
LINE
  5
937
100
AcDbEntity
  8
0
100
AcDbLine
 62
3
  6
CONTINUOUS
 10
8.1314370258
 20
7.2740169528
 11
8.1412795643
 21
7.2790429204
  0
LINE
  5
938
100
AcDbEntity
  8
0
100
AcDbLine
 62
3
  6
CONTINUOUS
 10
8.1314370258
 20
7.3418675128
 11
8.1166732463
 21
7.3368415459
  0
LWPOLYLINE
  5
939
100
AcDbEntity
  8
0
100
AcDbPolyline
 62
3
  6
CONTINUOUS
 90
6
 70
0
 10
9.1486614353
 20
8.9108324104
 10
9.2033000133
 20
8.9141852853
 10
9.2502226687
 20
8.9220379679
 10
9.2894708808
 20
8.9310513414
 10
9.3212008946
 20
8.9381090951
 10
9.3457375619
 20
8.940813606
  0
LINE
  5
93A
100
AcDbEntity
  8
0
100
AcDbLine
 62
9
  6
CONTINUOUS
 10
7.0817323014
 20
8.8384514013
 11
8.8533858447
 21
8.8384514013
  0
LINE
  5
93B
100
AcDbEntity
  8
0
100
AcDbLine
 62
3
  6
CONTINUOUS
 10
8.8533858447
 20
7.3896142054
 11
8.8533858447
 21
8.9108324104
  0
LINE
  5
93C
100
AcDbEntity
  8
0
100
AcDbLine
 62
3
  6
CONTINUOUS
 10
8.5866535988
 20
7.2890948551
 11
8.5915747835
 21
7.2991467906
  0
LINE
  5
93D
100
AcDbEntity
  8
0
100
AcDbLine
 62
3
  6
CONTINUOUS
 10
8.2397047236
 20
7.2916078385
 11
8.2323228338
 21
7.2865818716
  0
LINE
  5
93E
100
AcDbEntity
  8
0
100
AcDbLine
 62
3
  6
CONTINUOUS
 10
8.2347834825
 20
7.2740169528
 11
8.2470866133
 21
7.2815559039
  0
LINE
  5
93F
100
AcDbEntity
  8
0
100
AcDbLine
 62
3
  6
CONTINUOUS
 10
8.3553543111
 20
7.3293025956
 11
8.3651969059
 21
7.3343285625
  0
LINE
  5
940
100
AcDbEntity
  8
0
100
AcDbLine
 62
3
  6
CONTINUOUS
 10
8.3528937187
 20
7.3418675128
 11
8.345511829
 21
7.3393545294
  0
LINE
  5
941
100
AcDbEntity
  8
0
100
AcDbLine
 62
3
  6
CONTINUOUS
 10
6.7864567108
 20
8.9108324104
 11
7.0817323014
 21
8.9108324104
  0
LINE
  5
942
100
AcDbEntity
  8
0
100
AcDbLine
 62
3
  6
CONTINUOUS
 10
8.8533858447
 20
8.9108324104
 11
9.1486614353
 21
8.9108324104
  0
LINE
  5
943
100
AcDbEntity
  8
0
100
AcDbLine
 62
3
  6
CONTINUOUS
 10
9.3848819077
 20
8.940813606
 11
6.5502362384
 21
8.940813606
  0
LINE
  5
944
100
AcDbEntity
  8
0
100
AcDbLine
 62
3
  6
CONTINUOUS
 10
8.576811004
 20
7.3016597741
 11
8.5718898193
 21
7.2941208237
  0
LINE
  5
945
100
AcDbEntity
  8
0
100
AcDbLine
 62
3
  6
CONTINUOUS
 10
8.576811004
 20
7.2790429204
 11
8.5866535988
 21
7.2890948551
  0
LINE
  5
946
100
AcDbEntity
  8
0
100
AcDbLine
 62
3
  6
CONTINUOUS
 10
8.5718898193
 20
7.2941208237
 11
8.5645079295
 21
7.2890948551
  0
LINE
  5
947
100
AcDbEntity
  8
0
100
AcDbLine
 62
3
  6
CONTINUOUS
 10
8.5669685219
 20
7.2740169528
 11
8.576811004
 21
7.2790429204
  0
LINE
  5
948
100
AcDbEntity
  8
0
100
AcDbLine
 62
7
  6
CONTINUOUS
 10
9.3848819077
 20
9.0431758107
 11
6.5502362384
 21
9.0431758107
  0
LINE
  5
949
100
AcDbEntity
  8
0
100
AcDbLine
 62
9
  6
CONTINUOUS
 10
9.1486614353
 20
8.940813606
 11
9.1486614353
 21
9.0431758107
  0
LINE
  5
94A
100
AcDbEntity
  8
0
100
AcDbLine
 62
7
  6
CONTINUOUS
 10
9.3848819077
 20
9.0431758107
 11
9.3848819077
 21
8.940813606
  0
CIRCLE
  5
94B
100
AcDbEntity
  8
SKETCHED_ENT
100
AcDbCircle
 62
2
  6
CENTER
 10
7.9675590731
 20
8.0392205046
 40
0.4921259843
  0
CIRCLE
  5
94C
100
AcDbEntity
  8
0
100
AcDbCircle
 62
7
  6
CONTINUOUS
 10
10.5342808475
 20
1.243294839
 40
0.252091
  0
CIRCLE
  5
94D
100
AcDbEntity
  8
0
100
AcDbCircle
 62
7
  6
CONTINUOUS
 10
10.5342808475
 20
1.243294839
 40
0.182698
  0
CIRCLE
  5
94E
100
AcDbEntity
  8
02___PRT_ALL_AXES
100
AcDbCircle
 62
3
  6
CONTINUOUS
 10
7.9675590731
 20
3.8708183804
 40
0.6102362205
  0
ARC
  5
94F
100
AcDbEntity
  8
0
100
AcDbCircle
 62
3
  6
CONTINUOUS
 10
9.1486614353
 20
3.1427671993
 40
0.2362204724
100
AcDbArc
 50
326.5418698117
 51
360.0
  0
ARC
  5
950
100
AcDbEntity
  8
0
100
AcDbCircle
 62
3
  6
CONTINUOUS
 10
9.1486614353
 20
5.9180624749
 40
0.2362204724
100
AcDbArc
 50
0.0
 51
90.0
  0
ARC
  5
951
100
AcDbEntity
  8
0
100
AcDbCircle
 62
3
  6
CONTINUOUS
 10
6.7864567108
 20
5.9180624749
 40
0.2362204724
100
AcDbArc
 50
90.0
 51
180.0
  0
ARC
  5
952
100
AcDbEntity
  8
0
100
AcDbCircle
 62
3
  6
CONTINUOUS
 10
6.7864567108
 20
3.1427671993
 40
0.2362204724
100
AcDbArc
 50
180.0
 51
213.4581301883
  0
ARC
  5
953
100
AcDbEntity
  8
0
100
AcDbCircle
 62
7
  6
CONTINUOUS
 10
2.6612308911
 20
3.0125323656
 40
0.2047244094
100
AcDbArc
 50
180.0
 51
270.0
  0
ARC
  5
954
100
AcDbEntity
  8
0
100
AcDbCircle
 62
3
  6
CONTINUOUS
 10
2.6612308911
 20
3.0125323656
 40
0.1023622047
100
AcDbArc
 50
180.0
 51
270.0
  0
ARC
  5
955
100
AcDbEntity
  8
02___PRT_ALL_AXES
100
AcDbCircle
 62
3
  6
CONTINUOUS
 10
7.9675590731
 20
8.0392205046
 40
0.6299212598
100
AcDbArc
 50
307.5
 51
52.5
  0
ARC
  5
956
100
AcDbEntity
  8
02___PRT_ALL_AXES
100
AcDbCircle
 62
3
  6
CONTINUOUS
 10
7.9675590731
 20
8.0392205046
 40
0.6299212598
100
AcDbArc
 50
127.5
 51
232.5
  0
ARC
  5
957
100
AcDbEntity
  8
02___PRT_ALL_AXES
100
AcDbCircle
 62
3
  6
CONTINUOUS
 10
7.9675590731
 20
8.0392205046
 40
0.3543307087
100
AcDbArc
 50
307.5
 51
52.5
  0
ARC
  5
958
100
AcDbEntity
  8
02___PRT_ALL_AXES
100
AcDbCircle
 62
3
  6
CONTINUOUS
 10
7.9675590731
 20
8.0392205046
 40
0.3543307087
100
AcDbArc
 50
127.5
 51
232.5
  0
ARC
  5
959
100
AcDbEntity
  8
0
100
AcDbCircle
 62
3
  6
CONTINUOUS
 10
8.6171653723
 20
7.3896142054
 40
0.2362204724
100
AcDbArc
 50
270.0
 51
360.0
  0
ARC
  5
95A
100
AcDbEntity
  8
0
100
AcDbCircle
 62
3
  6
CONTINUOUS
 10
7.3179527738
 20
7.3896142054
 40
0.2362204724
100
AcDbArc
 50
180.0
 51
270.0
  0
ARC
  5
95B
100
AcDbEntity
  8
02___PRT_ALL_AXES
100
AcDbCircle
 62
3
  6
CONTINUOUS
 10
8.2671463905
 20
7.6487907112
 40
0.1377952756
100
AcDbArc
 50
127.5
 51
307.5
  0
ARC
  5
95C
100
AcDbEntity
  8
02___PRT_ALL_AXES
100
AcDbCircle
 62
3
  6
CONTINUOUS
 10
8.2671463905
 20
8.4296502981
 40
0.1377952756
100
AcDbArc
 50
52.5
 51
232.5
  0
ARC
  5
95D
100
AcDbEntity
  8
02___PRT_ALL_AXES
100
AcDbCircle
 62
3
  6
CONTINUOUS
 10
7.6679717556
 20
8.4296502981
 40
0.1377952756
100
AcDbArc
 50
307.5
 51
127.5
  0
ARC
  5
95E
100
AcDbEntity
  8
02___PRT_ALL_AXES
100
AcDbCircle
 62
3
  6
CONTINUOUS
 10
7.6679717556
 20
7.6487907112
 40
0.1377952756
100
AcDbArc
 50
232.5
 51
52.5
  0
CIRCLE
  5
95F
100
AcDbEntity
  8
02___PRT_ALL_AXES
100
AcDbCircle
 62
3
  6
CONTINUOUS
 10
7.9675590731
 20
8.0392205046
 40
0.1285433071
  0
ENDSEC
  0
SECTION
  2
OBJECTS
  0
DICTIONARY
  5
C
100
AcDbDictionary
280
0
281
1
  3
ACAD_GROUP
350
D
  3
ACAD_MLINESTYLE
350
17
  3
ACAD_LAYOUT
350
1A
  3
ACAD_PLOTSETTINGS
350
19
  3
ACAD_PLOTSTYLENAME
350
E
  0
DICTIONARY
  5
D
102
{ACAD_REACTORS
330
C
102
}
100
AcDbDictionary
280
0
281
1
  0
ACDBDICTIONARYWDFLT
  5
E
102
{ACAD_REACTORS
330
C
102
}
100
AcDbDictionary
281
1
  3
Normal
350
F
100
AcDbDictionaryWithDefault
340
F
  0
DICTIONARY
  5
17
102
{ACAD_REACTORS
330
C
102
}
100
AcDbDictionary
280
0
281
1
  3
Standard
350
18
  0
DICTIONARY
  5
19
102
{ACAD_REACTORS
330
C
102
}
100
AcDbDictionary
281
1
  0
DICTIONARY
  5
1A
102
{ACAD_REACTORS
330
C
102
}
100
AcDbDictionary
281
1
  3
Layout1
350
1E
  3
Model
350
22
  0
ACDBPLACEHOLDER
  5
F
102
{ACAD_REACTORS
330
E
102
}
  0
MLINESTYLE
  5
18
102
{ACAD_REACTORS
330
17
102
}
100
AcDbMlineStyle
  2
STANDARD
 70
0
  3

 62
256
 51
90.0
 52
90.0
 71
2
 49
0.5
 62
256
  6
BYLAYER
 49
-0.5
 62
256
  6
BYLAYER
  0
LAYOUT
  5
1E
102
{ACAD_REACTORS
330
1A
102
}
100
AcDbPlotSettings
  1

  2

  4

  6

 40
0.0
 41
0.0
 42
0.0
 43
0.0
 44
0.0
 45
0.0
 46
0.0
 47
0.0
 48
0.0
 49
0.0
140
0.0
141
0.0
142
1.0
143
1.0
 70
0
 72
0
 73
0
 74
0
  7

 75
0
147
1.0
148
0.0
149
0.0
100
AcDbLayout
  1
Layout1
 70
0
 71
0
 10
0.0
 20
0.0
 11
0.0
 21
0.0
 12
0.0
 22
0.0
 32
0.0
 14
0.0
 24
0.0
 34
0.0
 15
0.0
 25
0.0
 35
0.0
146
0.0
 13
0.0
 23
0.0
 33
0.0
 16
0.0
 26
0.0
 36
0.0
 17
0.0
 27
0.0
 37
0.0
 76
0
330
1B
331
0
345
0
346
0
  0
LAYOUT
  5
22
102
{ACAD_REACTORS
330
1A
102
}
100
AcDbPlotSettings
  1

  2

  4

  6

 40
0.0
 41
0.0
 42
0.0
 43
0.0
 44
0.0
 45
0.0
 46
0.0
 47
0.0
 48
0.0
 49
0.0
140
0.0
141
0.0
142
1.0
143
1.0
 70
0
 72
0
 73
0
 74
0
  7

 75
0
147
1.0
148
0.0
149
0.0
100
AcDbLayout
  1
Model
 70
0
 71
0
 10
0.0
 20
0.0
 11
0.0
 21
0.0
 12
0.0
 22
0.0
 32
0.0
 14
0.0
 24
0.0
 34
0.0
 15
0.0
 25
0.0
 35
0.0
146
0.0
 13
0.0
 23
0.0
 33
0.0
 16
0.0
 26
0.0
 36
0.0
 17
0.0
 27
0.0
 37
0.0
 76
0
330
1F
331
0
345
0
346
0
  0
ENDSEC
  0
EOF
