999
DXF file: 141788_1.dxf
999
Pro/ENGINEER 2006170 by Parametric Technology Corporation
  0
SECTION
  2
HEADER
  9
$ACADVER
  1
AC1015
  9
$DWGCODEPAGE
  3
ANSI_1252
  9
$EXTMAX
 10
17.0
 20
11.0
 30
0.0
  9
$EXTMIN
 10
0.0
 20
0.0
 30
0.0
  9
$LIMMIN
 10
0.0
 20
0.0
  9
$LIMMAX
 10
17.0
 20
11.0
  9
$VIEWCTR
 10
8.5
 20
5.5
  9
$VIEWSIZE
 40
11.0
  9
$CLAYER
  8
0
  9
$LTSCALE
 40
0.935
  9
$CELTYPE
  6
BYLAYER
  9
$DIMSCALE
 40
1.0
  9
$DIMASZ
 40
0.1875
  9
$DIMEXO
 40
0.10625
  9
$DIMDLI
 40
0.646
  9
$DIMEXE
 40
0.306
  9
$DIMCEN
 40
0.153
  9
$DIMLFAC
 40
1.0
  9
$DIMBLK
  1
_FILLED
  9
$DIMTXT
 40
0.1
  9
$DIMTOL
 70
1
  9
$DIMLIM
 70
0
  9
$DIMTFAC
 40
1.0
  9
$DIMTP
 40
0.005
  9
$DIMTM
 40
0.005
  9
$PDMODE
 70
3
  9
$PDSIZE
 40
0.3125
  9
$HANDSEED
  5
90D
  9
$MEASUREMENT
 70
0
  9
$INSUNITS
 70
1
  0
ENDSEC
  0
SECTION
  2
CLASSES
  0
CLASS
  1
ACDBDICTIONARYWDFLT
  2
AcDbDictionaryWithDefault
  3
AutoCAD 2000
 90
0
280
0
281
0
  0
CLASS
  1
ACDBPLACEHOLDER
  2
AcDbPlaceHolder
  3
AutoCAD 2000
 90
0
280
0
281
0
  0
CLASS
  1
LAYOUT
  2
AcDbLayout
  3
AutoCAD 2000
 90
0
280
0
281
0
  0
ENDSEC
  0
SECTION
  2
TABLES
  0
TABLE
  2
VPORT
  5
8
100
AcDbSymbolTable
 70
2
  0
VPORT
  5
1F4
100
AcDbSymbolTableRecord
100
AcDbViewportTableRecord
  2
*ACTIVE
 70
0
 10
0.0
 20
0.0
 11
1.0
 21
1.0
 12
8.5
 22
5.5
 13
0.0
 23
0.0
 14
1.0
 24
1.0
 15
0.0
 25
0.0
 16
0.0
 26
0.0
 36
1.0
 17
0.0
 27
0.0
 37
0.0
 40
11.0
 41
1.5454545455
 42
50.0
 43
0.0
 44
0.0
 50
0.0
 51
0.0
 71
0
 72
100
 73
1
 74
1
 75
0
 76
0
 77
0
 78
0
  0
ENDTAB
  0
TABLE
  2
LTYPE
  5
5
100
AcDbSymbolTable
 70
6
  0
LTYPE
  5
14
100
AcDbSymbolTableRecord
100
AcDbLinetypeTableRecord
  2
BYBLOCK
 70
0
  3

 72
65
 73
0
 40
0.0
  0
LTYPE
  5
15
100
AcDbSymbolTableRecord
100
AcDbLinetypeTableRecord
  2
BYLAYER
 70
0
  3

 72
65
 73
0
 40
0.0
  0
LTYPE
  5
16
100
AcDbSymbolTableRecord
100
AcDbLinetypeTableRecord
  2
CONTINUOUS
 70
64
  3
Solid line
 72
65
 73
0
 40
0.0
  0
LTYPE
  5
1F5
100
AcDbSymbolTableRecord
100
AcDbLinetypeTableRecord
  2
CENTER
 70
64
  3
____ _ ____ _ ____ _ ____ _ ____ _ ____ _ ____
 72
65
 73
4
 40
0.6
 49
0.375
 74
0
 49
-0.075
 74
0
 49
0.075
 74
0
 49
-0.075
 74
0
  0
LTYPE
  5
1F6
100
AcDbSymbolTableRecord
100
AcDbLinetypeTableRecord
  2
HIDDEN
 70
64
  3
- - - - - - - - - - - - - - - - - - - -
 72
65
 73
2
 40
0.2
 49
0.1
 74
0
 49
-0.1
 74
0
  0
LTYPE
  5
1F7
100
AcDbSymbolTableRecord
100
AcDbLinetypeTableRecord
  2
PHANTOM
 70
64
  3
_____ _ _ _____ _ _ _____ _ _ _____
 72
65
 73
6
 40
0.8
 49
0.45
 74
0
 49
-0.05
 74
0
 49
0.1
 74
0
 49
-0.05
 74
0
 49
0.1
 74
0
 49
-0.05
 74
0
  0
LTYPE
  5
1F8
100
AcDbSymbolTableRecord
100
AcDbLinetypeTableRecord
  2
DOT
 70
64
  3
. . . . . . . . . . . . . . . . . . . .
 72
65
 73
2
 40
0.2
 49
0.1
 74
0
 49
-0.1
 74
0
  0
LTYPE
  5
1F9
100
AcDbSymbolTableRecord
100
AcDbLinetypeTableRecord
  2
DASHED
 70
64
  3
- - - - - - - - - - - - - - - - - - - -
 72
65
 73
2
 40
0.2
 49
0.1
 74
0
 49
-0.1
 74
0
  0
ENDTAB
  0
TABLE
  2
LAYER
  5
2
100
AcDbSymbolTable
 70
36
  0
LAYER
  5
10
100
AcDbSymbolTableRecord
100
AcDbLayerTableRecord
  2
0
 70
0
 62
7
  6
CONTINUOUS
370
-3
390
F
  0
LAYER
  5
1FA
100
AcDbSymbolTableRecord
100
AcDbLayerTableRecord
  2
DEFAULT_1
 70
0
 62
7
  6
CENTER
370
-3
390
F
  0
LAYER
  5
1FB
100
AcDbSymbolTableRecord
100
AcDbLayerTableRecord
  2
DEFAULT_2
 70
0
 62
8
  6
HIDDEN
370
-3
390
F
  0
LAYER
  5
1FC
100
AcDbSymbolTableRecord
100
AcDbLayerTableRecord
  2
DEFAULT_3
 70
0
 62
7
  6
PHANTOM
370
-3
390
F
  0
LAYER
  5
1FD
100
AcDbSymbolTableRecord
100
AcDbLayerTableRecord
  2
_2D_DELETED_OBJS
 70
0
 62
7
  6
CONTINUOUS
370
-3
390
F
  0
LAYER
  5
1FE
100
AcDbSymbolTableRecord
100
AcDbLayerTableRecord
  2
_BLACK_HOLE
 70
0
 62
7
  6
CONTINUOUS
370
-3
390
F
  0
LAYER
  5
1FF
100
AcDbSymbolTableRecord
100
AcDbLayerTableRecord
  2
01___PRT_ALL_DTM_PLN
 70
0
 62
7
  6
CONTINUOUS
370
-3
390
F
  0
LAYER
  5
200
100
AcDbSymbolTableRecord
100
AcDbLayerTableRecord
  2
01___PRT_DEF_DTM_PLN
 70
0
 62
7
  6
CONTINUOUS
370
-3
390
F
  0
LAYER
  5
201
100
AcDbSymbolTableRecord
100
AcDbLayerTableRecord
  2
02___PRT_ALL_AXES
 70
0
 62
7
  6
CONTINUOUS
370
-3
390
F
  0
LAYER
  5
202
100
AcDbSymbolTableRecord
100
AcDbLayerTableRecord
  2
03___PRT_ALL_CURVES
 70
0
 62
7
  6
CONTINUOUS
370
-3
390
F
  0
LAYER
  5
203
100
AcDbSymbolTableRecord
100
AcDbLayerTableRecord
  2
04___PRT_ALL_DTM_PNT
 70
0
 62
7
  6
CONTINUOUS
370
-3
390
F
  0
LAYER
  5
204
100
AcDbSymbolTableRecord
100
AcDbLayerTableRecord
  2
05___PRT_ALL_DTM_CSYS
 70
0
 62
7
  6
CONTINUOUS
370
-3
390
F
  0
LAYER
  5
205
100
AcDbSymbolTableRecord
100
AcDbLayerTableRecord
  2
05___PRT_DEF_DTM_CSYS
 70
0
 62
7
  6
CONTINUOUS
370
-3
390
F
  0
LAYER
  5
206
100
AcDbSymbolTableRecord
100
AcDbLayerTableRecord
  2
06___PRT_ALL_SURFS
 70
0
 62
7
  6
CONTINUOUS
370
-3
390
F
  0
LAYER
  5
207
100
AcDbSymbolTableRecord
100
AcDbLayerTableRecord
  2
AXIS
 70
0
 62
7
  6
CONTINUOUS
370
-3
390
F
  0
LAYER
  5
208
100
AcDbSymbolTableRecord
100
AcDbLayerTableRecord
  2
AXIS_COSMETIC_THREADS
 70
0
 62
7
  6
CONTINUOUS
370
-3
390
F
  0
LAYER
  5
209
100
AcDbSymbolTableRecord
100
AcDbLayerTableRecord
  2
CONSTRUCTION
 70
0
 62
7
  6
CONTINUOUS
370
-3
390
F
  0
LAYER
  5
20A
100
AcDbSymbolTableRecord
100
AcDbLayerTableRecord
  2
DATUM_PLANES
 70
0
 62
7
  6
CONTINUOUS
370
-3
390
F
  0
LAYER
  5
20B
100
AcDbSymbolTableRecord
100
AcDbLayerTableRecord
  2
DRIVEN_DIMS
 70
0
 62
7
  6
CONTINUOUS
370
-3
390
F
  0
LAYER
  5
20C
100
AcDbSymbolTableRecord
100
AcDbLayerTableRecord
  2
NOTES
 70
0
 62
7
  6
CONTINUOUS
370
-3
390
F
  0
LAYER
  5
20D
100
AcDbSymbolTableRecord
100
AcDbLayerTableRecord
  2
QUILTS
 70
0
 62
7
  6
CONTINUOUS
370
-3
390
F
  0
LAYER
  5
20E
100
AcDbSymbolTableRecord
100
AcDbLayerTableRecord
  2
SCHEME_DIMS
 70
0
 62
7
  6
CONTINUOUS
370
-3
390
F
  0
LAYER
  5
20F
100
AcDbSymbolTableRecord
100
AcDbLayerTableRecord
  2
SKETCHED_ENT
 70
0
 62
7
  6
CONTINUOUS
370
-3
390
F
  0
LAYER
  5
210
100
AcDbSymbolTableRecord
100
AcDbLayerTableRecord
  2
SYMBOLS
 70
0
 62
7
  6
CONTINUOUS
370
-3
390
F
  0
ENDTAB
  0
TABLE
  2
STYLE
  5
3
100
AcDbSymbolTable
 70
1
  0
STYLE
  5
11
100
AcDbSymbolTableRecord
100
AcDbTextStyleTableRecord
  2
STANDARD
 70
0
 40
0.0
 41
1.0
 50
0.0
 71
0
 42
0.2
  3
txt
  4

  0
ENDTAB
  0
TABLE
  2
VIEW
  5
6
100
AcDbSymbolTable
 70
0
  0
ENDTAB
  0
TABLE
  2
UCS
  5
7
100
AcDbSymbolTable
 70
0
  0
ENDTAB
  0
TABLE
  2
APPID
  5
9
100
AcDbSymbolTable
 70
1
  0
APPID
  5
211
100
AcDbSymbolTableRecord
100
AcDbRegAppTableRecord
  2
ACAD
 70
0
  0
ENDTAB
  0
TABLE
  2
BLOCK_RECORD
  5
1
100
AcDbSymbolTable
 70
0
  0
BLOCK_RECORD
  5
1F
100
AcDbSymbolTableRecord
100
AcDbBlockTableRecord
  2
*MODEL_SPACE
  0
BLOCK_RECORD
  5
1B
100
AcDbSymbolTableRecord
100
AcDbBlockTableRecord
  2
*PAPER_SPACE
  0
BLOCK_RECORD
  5
212
100
AcDbSymbolTableRecord
100
AcDbBlockTableRecord
  2
_FILLED
  0
BLOCK_RECORD
  5
213
100
AcDbSymbolTableRecord
100
AcDbBlockTableRecord
  2
BANNER_LOGO_TITLEBLOCK_BL0
  0
BLOCK_RECORD
  5
214
100
AcDbSymbolTableRecord
100
AcDbBlockTableRecord
  2
*D0
  0
BLOCK_RECORD
  5
215
100
AcDbSymbolTableRecord
100
AcDbBlockTableRecord
  2
*D1
  0
BLOCK_RECORD
  5
216
100
AcDbSymbolTableRecord
100
AcDbBlockTableRecord
  2
*D2
  0
BLOCK_RECORD
  5
217
100
AcDbSymbolTableRecord
100
AcDbBlockTableRecord
  2
*D3
  0
BLOCK_RECORD
  5
218
100
AcDbSymbolTableRecord
100
AcDbBlockTableRecord
  2
*D4
  0
BLOCK_RECORD
  5
219
100
AcDbSymbolTableRecord
100
AcDbBlockTableRecord
  2
*D5
  0
BLOCK_RECORD
  5
21A
100
AcDbSymbolTableRecord
100
AcDbBlockTableRecord
  2
*D6
  0
BLOCK_RECORD
  5
21B
100
AcDbSymbolTableRecord
100
AcDbBlockTableRecord
  2
*D7
  0
BLOCK_RECORD
  5
21C
100
AcDbSymbolTableRecord
100
AcDbBlockTableRecord
  2
*D8
  0
BLOCK_RECORD
  5
21D
100
AcDbSymbolTableRecord
100
AcDbBlockTableRecord
  2
*D9
  0
ENDTAB
  0
TABLE
  2
DIMSTYLE
  5
A
100
AcDbSymbolTable
 70
1
100
AcDbDimStyleTable
 71
0
  0
DIMSTYLE
105
21E
100
AcDbSymbolTableRecord
100
AcDbDimStyleTableRecord
  2
STANDARD
 70
0
  3

  4

 40
1.0
 41
0.1875
 42
0.0625
 43
0.38
 44
0.18
 45
0.0
 46
0.0
 47
0.005
 48
0.005
140
0.1
141
0.09
142
0.0
143
25.4
144
1.0
145
0.0
146
1.0
147
0.09
 71
1.0
 72
0.0
 73
1
 74
1
 75
0
 76
0
 77
0
 78
4
170
0
171
2
172
0
173
0
174
0
175
0
176
0
177
0
178
0
270
2
271
3
272
3
273
2
274
2
275
0
280
0
281
0
282
0
283
1
284
4
285
0
286
0
287
3
288
0
340
11
341
212
342
212
343
212
344
212
  0
DIMSTYLE
105
21F
100
AcDbSymbolTableRecord
100
AcDbDimStyleTableRecord
  2
DIMSTYLE_1
 70
0
  3

  4

 40
1.0
 41
0.1875
 42
0.0625
 43
0.38
 44
0.18
 45
0.0
 46
0.0
 47
0.02
 48
0.02
140
0.1
141
0.09
142
0.0
143
25.4
144
1.0
145
0.0
146
1.0
147
0.09
 71
0.0
 72
0.0
 73
1
 74
1
 75
0
 76
0
 77
0
 78
4
170
0
171
2
172
0
173
0
174
0
175
0
176
0
177
0
178
0
270
2
271
1
272
1
273
2
274
2
275
0
280
0
281
0
282
0
283
1
284
4
285
0
286
0
287
3
288
0
340
11
341
212
342
212
343
212
344
212
  0
DIMSTYLE
105
220
100
AcDbSymbolTableRecord
100
AcDbDimStyleTableRecord
  2
DIMSTYLE_2
 70
0
  3

  4

 40
1.0
 41
0.1875
 42
0.0625
 43
0.38
 44
0.18
 45
0.0
 46
0.0
 47
0.1
 48
0.1
140
0.1
141
0.09
142
0.0
143
25.4
144
1.0
145
0.0
146
1.0
147
0.09
 71
0.0
 72
0.0
 73
1
 74
1
 75
0
 76
0
 77
0
 78
4
170
0
171
2
172
0
173
0
174
0
175
0
176
0
177
0
178
0
270
2
271
1
272
1
273
2
274
2
275
0
280
0
281
0
282
0
283
1
284
4
285
0
286
0
287
3
288
0
340
11
341
212
342
212
343
212
344
212
  0
DIMSTYLE
105
221
100
AcDbSymbolTableRecord
100
AcDbDimStyleTableRecord
  2
DIMSTYLE_3
 70
0
  3

  4

 40
1.0
 41
0.1875
 42
0.0625
 43
0.38
 44
0.18
 45
0.0
 46
0.0
 47
0.1
 48
0.1
140
0.1
141
0.09
142
0.0
143
25.4
144
1.0
145
0.0
146
1.0
147
0.09
 71
0.0
 72
0.0
 73
1
 74
1
 75
0
 76
0
 77
0
 78
4
170
0
171
2
172
0
173
0
174
0
175
0
176
0
177
0
178
0
270
2
271
1
272
1
273
2
274
2
275
0
280
0
281
0
282
0
283
1
284
4
285
0
286
0
287
3
288
0
340
11
341
212
342
212
343
212
344
212
  0
DIMSTYLE
105
222
100
AcDbSymbolTableRecord
100
AcDbDimStyleTableRecord
  2
DIMSTYLE_4
 70
0
  3

  4

 40
1.0
 41
0.1875
 42
0.0625
 43
0.38
 44
0.18
 45
0.0
 46
0.0
 47
0.1
 48
0.1
140
0.1
141
0.09
142
0.0
143
25.4
144
1.0
145
0.0
146
1.0
147
0.09
 71
0.0
 72
0.0
 73
1
 74
1
 75
0
 76
0
 77
0
 78
4
170
0
171
2
172
0
173
0
174
0
175
0
176
0
177
0
178
0
270
2
271
1
272
1
273
2
274
2
275
0
280
0
281
0
282
0
283
1
284
4
285
0
286
0
287
3
288
0
340
11
341
212
342
212
343
212
344
212
  0
ENDTAB
  0
ENDSEC
  0
SECTION
  2
BLOCKS
  0
BLOCK
  5
20
100
AcDbEntity
  8
0
100
AcDbBlockBegin
  2
*MODEL_SPACE
 70
0
 10
0.0
 20
0.0
 30
0.0
  3
*MODEL_SPACE
  1

  0
ENDBLK
  5
21
100
AcDbEntity
  8
0
100
AcDbBlockEnd
  0
BLOCK
  5
1C
100
AcDbEntity
  8
0
100
AcDbBlockBegin
  2
*PAPER_SPACE
 70
0
 10
0.0
 20
0.0
 30
0.0
  3
*PAPER_SPACE
  1

  0
ENDBLK
  5
1D
100
AcDbEntity
  8
0
100
AcDbBlockEnd
  0
BLOCK
  5
223
100
AcDbEntity
  8
0
100
AcDbBlockBegin
 62
2
  6
CONTINUOUS
  2
BANNER_LOGO_TITLEBLOCK_BL0
 70
64
 10
12.9046655056
 20
2.5403783448
  3
BANNER_LOGO_TITLEBLOCK_BL0
  1

  0
LWPOLYLINE
  5
224
100
AcDbEntity
  8
0
100
AcDbPolyline
 62
2
  6
CONTINUOUS
 90
29
 70
0
 10
12.0796650004
 20
2.5403783448
 10
12.1000078385
 20
2.5005819703
 10
12.1615890075
 20
2.4620382478
 10
12.2590135686
 20
2.4281250935
 10
12.3910903821
 20
2.3992568791
 10
12.5462480343
 20
2.3779627503
 10
12.7225901426
 20
2.3645025835
 10
12.9046652672
 20
2.3600565514
 10
13.0867408686
 20
2.3645025835
 10
13.2630829769
 20
2.3779627503
 10
13.4182401522
 20
2.3992568791
 10
13.5503174426
 20
2.4281250935
 10
13.6477415269
 20
2.4620382478
 10
13.7093231727
 20
2.5005819703
 10
13.7296660108
 20
2.5403783448
 10
13.7093231727
 20
2.5801747193
 10
13.6477415269
 20
2.6187184418
 10
13.5503174426
 20
2.6526315961
 10
13.4182401522
 20
2.6814998105
 10
13.2630829769
 20
2.7027939393
 10
13.0867408686
 20
2.7162541061
 10
12.9046652672
 20
2.7207001382
 10
12.7225901426
 20
2.7162541061
 10
12.5462480343
 20
2.7027939393
 10
12.3910903821
 20
2.6814998105
 10
12.2590135686
 20
2.6526315961
 10
12.1615890075
 20
2.6187184418
 10
12.1000078385
 20
2.5801747193
 10
12.0796650004
 20
2.5403783448
  0
ARC
  5
225
100
AcDbEntity
  8
0
100
AcDbCircle
 62
2
  6
CONTINUOUS
 10
12.400005721
 20
2.5168763464
 40
0.0153945295
100
AcDbArc
 50
354.0454548824
 51
5.1878013979
  0
ARC
  5
226
100
AcDbEntity
  8
0
100
AcDbCircle
 62
2
  6
CONTINUOUS
 10
12.3931760319
 20
2.5166878286
 40
0.0222174455
100
AcDbArc
 50
4.0793399388
 51
69.834329283
  0
LINE
  5
227
100
AcDbEntity
  8
0
100
AcDbLine
 62
2
  6
CONTINUOUS
 10
12.4008351814
 20
2.5375433389
 11
12.3907841758
 21
2.5410923409
  0
LINE
  5
228
100
AcDbEntity
  8
0
100
AcDbLine
 62
2
  6
CONTINUOUS
 10
12.3907841758
 20
2.5410923409
 11
12.3990241804
 21
2.5458683435
  0
ARC
  5
229
100
AcDbEntity
  8
0
100
AcDbCircle
 62
2
  6
CONTINUOUS
 10
12.3771587979
 20
2.5826952352
 40
0.0428289026
100
AcDbArc
 50
300.6990502959
 51
319.0591802498
  0
ARC
  5
22A
100
AcDbEntity
  8
0
100
AcDbCircle
 62
2
  6
CONTINUOUS
 10
12.3971873948
 20
2.5665668817
 40
0.0171568255
100
AcDbArc
 50
315.9145124245
 51
16.0049121282
  0
ARC
  5
22B
100
AcDbEntity
  8
0
100
AcDbCircle
 62
2
  6
CONTINUOUS
 10
12.3922357827
 20
2.5632132173
 40
0.0229166529
100
AcDbArc
 50
20.6563876465
 51
62.3316896973
  0
ARC
  5
22C
100
AcDbEntity
  8
0
100
AcDbCircle
 62
2
  6
CONTINUOUS
 10
12.371573659
 20
2.5302846524
 40
0.061747717
100
AcDbArc
 50
59.5385584989
 51
90.0050977555
  0
LINE
  5
22D
100
AcDbEntity
  8
0
100
AcDbLine
 62
2
  6
CONTINUOUS
 10
12.3715681652
 20
2.5920323691
 11
12.2055050731
 21
2.5920323691
  0
ARC
  5
22E
100
AcDbEntity
  8
0
100
AcDbCircle
 62
2
  6
CONTINUOUS
 10
12.2055050712
 20
2.5895573696
 40
0.0024749995
100
AcDbArc
 50
89.9999571957
 51
180.0000428043
  0
LINE
  5
22F
100
AcDbEntity
  8
0
100
AcDbLine
 62
2
  6
CONTINUOUS
 10
12.2030300717
 20
2.5895573678
 11
12.2030300717
 21
2.5697573568
  0
ARC
  5
230
100
AcDbEntity
  8
0
100
AcDbCircle
 62
2
  6
CONTINUOUS
 10
12.2055050712
 20
2.5697573549
 40
0.0024749995
100
AcDbArc
 50
179.9999571957
 51
270.0000428043
  0
LINE
  5
231
100
AcDbEntity
  8
0
100
AcDbLine
 62
2
  6
CONTINUOUS
 10
12.2055050731
 20
2.5672823554
 11
12.2294470864
 21
2.5672823554
  0
ARC
  5
232
100
AcDbEntity
  8
0
100
AcDbCircle
 62
2
  6
CONTINUOUS
 10
12.2294470882
 20
2.5648073559
 40
0.0024749995
100
AcDbArc
 50
359.9999571957
 51
90.0000428043
  0
LINE
  5
233
100
AcDbEntity
  8
0
100
AcDbLine
 62
2
  6
CONTINUOUS
 10
12.2319220877
 20
2.564807354
 11
12.2319220877
 21
2.5184523283
  0
ARC
  5
234
100
AcDbEntity
  8
0
100
AcDbCircle
 62
2
  6
CONTINUOUS
 10
12.2294470882
 20
2.5184523265
 40
0.0024749995
100
AcDbArc
 50
269.9999571957
 51
0.0000428043
  0
LINE
  5
235
100
AcDbEntity
  8
0
100
AcDbLine
 62
2
  6
CONTINUOUS
 10
12.2294470864
 20
2.515977327
 11
12.2055050731
 21
2.515977327
  0
ARC
  5
236
100
AcDbEntity
  8
0
100
AcDbCircle
 62
2
  6
CONTINUOUS
 10
12.2055050712
 20
2.5135023274
 40
0.0024749995
100
AcDbArc
 50
89.9999571957
 51
180.0000428043
  0
LINE
  5
237
100
AcDbEntity
  8
0
100
AcDbLine
 62
2
  6
CONTINUOUS
 10
12.2030300717
 20
2.5135023256
 11
12.2030300717
 21
2.4937023146
  0
ARC
  5
238
100
AcDbEntity
  8
0
100
AcDbCircle
 62
2
  6
CONTINUOUS
 10
12.2055050712
 20
2.4937023128
 40
0.0024749995
100
AcDbArc
 50
179.9999571957
 51
270.0000428043
  0
LINE
  5
239
100
AcDbEntity
  8
0
100
AcDbLine
 62
2
  6
CONTINUOUS
 10
12.2055050731
 20
2.4912273132
 11
12.3819511709
 21
2.4912273132
  0
ARC
  5
23A
100
AcDbEntity
  8
0
100
AcDbCircle
 62
2
  6
CONTINUOUS
 10
12.3792298263
 20
2.539634765
 40
0.048483885
100
AcDbArc
 50
273.21763719
 51
303.0749121182
  0
ARC
  5
23B
100
AcDbEntity
  8
0
100
AcDbCircle
 62
2
  6
CONTINUOUS
 10
12.3940692204
 20
2.5168671561
 40
0.0213072145
100
AcDbArc
 50
303.0488228549
 51
355.7263138674
  0
LINE
  5
23C
100
AcDbEntity
  8
0
100
AcDbLine
 62
2
  6
CONTINUOUS
 10
12.2949101227
 20
2.5499573458
 11
12.3362731456
 21
2.5499573458
  0
ARC
  5
23D
100
AcDbEntity
  8
0
100
AcDbCircle
 62
2
  6
CONTINUOUS
 10
12.3362731456
 20
2.5586198506
 40
0.0086625048
100
AcDbArc
 50
270.0
 51
90.0
  0
LINE
  5
23E
100
AcDbEntity
  8
0
100
AcDbLine
 62
2
  6
CONTINUOUS
 10
12.3362731456
 20
2.5672823554
 11
12.2949101227
 21
2.5672823554
  0
ARC
  5
23F
100
AcDbEntity
  8
0
100
AcDbCircle
 62
2
  6
CONTINUOUS
 10
12.2949101208
 20
2.5648073559
 40
0.0024749995
100
AcDbArc
 50
89.9999571957
 51
180.0000428043
  0
LINE
  5
240
100
AcDbEntity
  8
0
100
AcDbLine
 62
2
  6
CONTINUOUS
 10
12.2924351213
 20
2.564807354
 11
12.2924351213
 21
2.5524323472
  0
ARC
  5
241
100
AcDbEntity
  8
0
100
AcDbCircle
 62
2
  6
CONTINUOUS
 10
12.2949101208
 20
2.5524323453
 40
0.0024749995
100
AcDbArc
 50
179.9999571957
 51
270.0000428043
  0
LINE
  5
242
100
AcDbEntity
  8
0
100
AcDbLine
 62
2
  6
CONTINUOUS
 10
12.2924351213
 20
2.5184523283
 11
12.2924351213
 21
2.5308273352
  0
ARC
  5
243
100
AcDbEntity
  8
0
100
AcDbCircle
 62
2
  6
CONTINUOUS
 10
12.2949101208
 20
2.530827337
 40
0.0024749995
100
AcDbArc
 50
89.9999571957
 51
180.0000428043
  0
LINE
  5
244
100
AcDbEntity
  8
0
100
AcDbLine
 62
2
  6
CONTINUOUS
 10
12.2949101227
 20
2.5333023366
 11
12.3362731456
 21
2.5333023366
  0
ARC
  5
245
100
AcDbEntity
  8
0
100
AcDbCircle
 62
2
  6
CONTINUOUS
 10
12.3362731456
 20
2.5246398318
 40
0.0086625048
100
AcDbArc
 50
270.0
 51
90.0
  0
LINE
  5
246
100
AcDbEntity
  8
0
100
AcDbLine
 62
2
  6
CONTINUOUS
 10
12.3362731456
 20
2.515977327
 11
12.2949101227
 21
2.515977327
  0
ARC
  5
247
100
AcDbEntity
  8
0
100
AcDbCircle
 62
2
  6
CONTINUOUS
 10
12.2949101208
 20
2.5184523265
 40
0.0024749995
100
AcDbArc
 50
179.9999571957
 51
270.0000428043
  0
ARC
  5
248
100
AcDbEntity
  8
0
100
AcDbCircle
 62
2
  6
CONTINUOUS
 10
13.5806801742
 20
2.5212486481
 40
0.044722495
100
AcDbArc
 50
195.531588407
 51
204.7624440448
  0
LINE
  5
249
100
AcDbEntity
  8
0
100
AcDbLine
 62
2
  6
CONTINUOUS
 10
13.5375908118
 20
2.5092733232
 11
13.5357868108
 21
2.5153423266
  0
ARC
  5
24A
100
AcDbEntity
  8
0
100
AcDbCircle
 62
2
  6
CONTINUOUS
 10
13.4974076135
 20
2.5055452462
 40
0.0396099176
100
AcDbArc
 50
14.3201081283
 51
22.4984722084
  0
ARC
  5
24B
100
AcDbEntity
  8
0
100
AcDbCircle
 62
2
  6
CONTINUOUS
 10
13.5201739219
 20
2.5145168728
 40
0.0151491919
100
AcDbArc
 50
24.098260853
 51
63.0369451818
  0
ARC
  5
24C
100
AcDbEntity
  8
0
100
AcDbCircle
 62
2
  6
CONTINUOUS
 10
13.5161192671
 20
2.5062372524
 40
0.0243676582
100
AcDbArc
 50
63.3666028271
 51
90.3937697637
  0
LINE
  5
24D
100
AcDbEntity
  8
0
100
AcDbLine
 62
2
  6
CONTINUOUS
 10
13.5159517998
 20
2.5306043351
 11
13.4883447845
 21
2.5306043351
  0
ARC
  5
24E
100
AcDbEntity
  8
0
100
AcDbCircle
 62
2
  6
CONTINUOUS
 10
13.4883447827
 20
2.5281293355
 40
0.0024749995
100
AcDbArc
 50
89.9999571957
 51
180.0000428043
  0
LINE
  5
24F
100
AcDbEntity
  8
0
100
AcDbLine
 62
2
  6
CONTINUOUS
 10
13.4858697831
 20
2.5281293337
 11
13.4858697831
 21
2.5184303283
  0
ARC
  5
250
100
AcDbEntity
  8
0
100
AcDbCircle
 62
2
  6
CONTINUOUS
 10
13.4883447827
 20
2.5184303265
 40
0.0024749995
100
AcDbArc
 50
179.9999571957
 51
270.0000428043
  0
LINE
  5
251
100
AcDbEntity
  8
0
100
AcDbLine
 62
2
  6
CONTINUOUS
 10
13.4883447845
 20
2.5159553269
 11
13.5130037982
 21
2.5159553269
  0
ARC
  5
252
100
AcDbEntity
  8
0
100
AcDbCircle
 62
2
  6
CONTINUOUS
 10
13.5130038
 20
2.5134803274
 40
0.0024749995
100
AcDbArc
 50
359.9999571957
 51
90.0000428043
  0
LINE
  5
253
100
AcDbEntity
  8
0
100
AcDbLine
 62
2
  6
CONTINUOUS
 10
13.5154787995
 20
2.5134803256
 11
13.5154787995
 21
2.4937023146
  0
ARC
  5
254
100
AcDbEntity
  8
0
100
AcDbCircle
 62
2
  6
CONTINUOUS
 10
13.5130038
 20
2.4937023128
 40
0.0024749995
100
AcDbArc
 50
269.9999571957
 51
0.0000428043
  0
LINE
  5
255
100
AcDbEntity
  8
0
100
AcDbLine
 62
2
  6
CONTINUOUS
 10
13.5130037982
 20
2.4912273132
 11
13.3994327352
 21
2.4912273132
  0
ARC
  5
256
100
AcDbEntity
  8
0
100
AcDbCircle
 62
2
  6
CONTINUOUS
 10
13.3994327333
 20
2.4937023128
 40
0.0024749995
100
AcDbArc
 50
179.9999571957
 51
270.0000428043
  0
LINE
  5
257
100
AcDbEntity
  8
0
100
AcDbLine
 62
2
  6
CONTINUOUS
 10
13.3969577338
 20
2.4937023146
 11
13.3969577338
 21
2.5135023256
  0
ARC
  5
258
100
AcDbEntity
  8
0
100
AcDbCircle
 62
2
  6
CONTINUOUS
 10
13.3994327333
 20
2.5135023274
 40
0.0024749995
100
AcDbArc
 50
89.9999571957
 51
180.0000428043
  0
LINE
  5
259
100
AcDbEntity
  8
0
100
AcDbLine
 62
2
  6
CONTINUOUS
 10
13.3994327352
 20
2.515977327
 11
13.4221787478
 21
2.515977327
  0
ARC
  5
25A
100
AcDbEntity
  8
0
100
AcDbCircle
 62
2
  6
CONTINUOUS
 10
13.4221787497
 20
2.5184523265
 40
0.0024749995
100
AcDbArc
 50
269.9999571957
 51
0.0000428042
  0
LINE
  5
25B
100
AcDbEntity
  8
0
100
AcDbLine
 62
2
  6
CONTINUOUS
 10
13.4246537492
 20
2.5184523283
 11
13.4246537492
 21
2.564807354
  0
ARC
  5
25C
100
AcDbEntity
  8
0
100
AcDbCircle
 62
2
  6
CONTINUOUS
 10
13.4221787497
 20
2.5648073559
 40
0.0024749995
100
AcDbArc
 50
359.9999571957
 51
90.0000428043
  0
LINE
  5
25D
100
AcDbEntity
  8
0
100
AcDbLine
 62
2
  6
CONTINUOUS
 10
13.4221787478
 20
2.5672823554
 11
13.3994327352
 21
2.5672823554
  0
ARC
  5
25E
100
AcDbEntity
  8
0
100
AcDbCircle
 62
2
  6
CONTINUOUS
 10
13.3994327333
 20
2.5697573549
 40
0.0024749995
100
AcDbArc
 50
179.9999571957
 51
270.0000428043
  0
LINE
  5
25F
100
AcDbEntity
  8
0
100
AcDbLine
 62
2
  6
CONTINUOUS
 10
13.3969577338
 20
2.5697573568
 11
13.3969577338
 21
2.5895573678
  0
ARC
  5
260
100
AcDbEntity
  8
0
100
AcDbCircle
 62
2
  6
CONTINUOUS
 10
13.3994327333
 20
2.5895573696
 40
0.0024749995
100
AcDbArc
 50
89.9999571957
 51
180.0000428043
  0
LINE
  5
261
100
AcDbEntity
  8
0
100
AcDbLine
 62
2
  6
CONTINUOUS
 10
13.3994327352
 20
2.5920323691
 11
13.5490138181
 21
2.5920323691
  0
ARC
  5
262
100
AcDbEntity
  8
0
100
AcDbCircle
 62
2
  6
CONTINUOUS
 10
13.5463505148
 20
2.4094934586
 40
0.1825583387
100
AcDbArc
 50
79.8618509324
 51
89.1640948679
  0
ARC
  5
263
100
AcDbEntity
  8
0
100
AcDbCircle
 62
2
  6
CONTINUOUS
 10
13.5726548052
 20
2.5503169747
 40
0.039319019
100
AcDbArc
 50
59.1202086415
 51
81.4730239328
  0
ARC
  5
264
100
AcDbEntity
  8
0
100
AcDbCircle
 62
2
  6
CONTINUOUS
 10
13.5783142014
 20
2.5566516438
 40
0.0310192946
100
AcDbArc
 50
34.7540871
 51
62.0879016178
  0
ARC
  5
265
100
AcDbEntity
  8
0
100
AcDbCircle
 62
2
  6
CONTINUOUS
 10
13.5900029525
 20
2.565201245
 40
0.0165459396
100
AcDbArc
 50
1.548452892
 51
33.5033152417
  0
ARC
  5
266
100
AcDbEntity
  8
0
100
AcDbCircle
 62
2
  6
CONTINUOUS
 10
13.5932995477
 20
2.5653696972
 40
0.0132462337
100
AcDbArc
 50
331.1510006998
 51
1.205404301
  0
ARC
  5
267
100
AcDbEntity
  8
0
100
AcDbCircle
 62
2
  6
CONTINUOUS
 10
13.5822888914
 20
2.5720482849
 40
0.0261183659
100
AcDbArc
 50
305.6373831893
 51
329.9727629745
  0
ARC
  5
268
100
AcDbEntity
  8
0
100
AcDbCircle
 62
2
  6
CONTINUOUS
 10
13.5519569538
 20
2.6152551345
 40
0.0789082104
100
AcDbArc
 50
292.906155071
 51
305.2574666259
  0
ARC
  5
269
100
AcDbEntity
  8
0
100
AcDbCircle
 62
2
  6
CONTINUOUS
 10
13.5282557878
 20
2.4386010294
 40
0.117346916
100
AcDbArc
 50
58.614769177
 51
62.3737227606
  0
ARC
  5
26A
100
AcDbEntity
  8
0
100
AcDbCircle
 62
2
  6
CONTINUOUS
 10
13.5761387404
 20
2.5167282896
 40
0.0257145923
100
AcDbArc
 50
39.3804255939
 51
59.0361096173
  0
ARC
  5
26B
100
AcDbEntity
  8
0
100
AcDbCircle
 62
2
  6
CONTINUOUS
 10
13.5750183849
 20
2.5166552064
 40
0.0266349791
100
AcDbArc
 50
20.3630922153
 51
37.9727053099
  0
ARC
  5
26C
100
AcDbEntity
  8
0
100
AcDbCircle
 62
2
  6
CONTINUOUS
 10
13.5571178432
 20
2.509473798
 40
0.0459185159
100
AcDbArc
 50
15.6740290068
 51
20.9917271228
  0
ARC
  5
26D
100
AcDbEntity
  8
0
100
AcDbCircle
 62
2
  6
CONTINUOUS
 10
13.6156881783
 20
2.525116781
 40
0.0147197649
100
AcDbArc
 50
192.7054516565
 51
206.0594861022
  0
ARC
  5
26E
100
AcDbEntity
  8
0
100
AcDbCircle
 62
2
  6
CONTINUOUS
 10
13.6071938412
 20
2.5209082945
 40
0.0052403997
100
AcDbArc
 50
205.5232099488
 51
227.5054868079
  0
ARC
  5
26F
100
AcDbEntity
  8
0
100
AcDbCircle
 62
2
  6
CONTINUOUS
 10
13.6054655419
 20
2.5190929218
 40
0.0027347709
100
AcDbArc
 50
228.5117626737
 51
266.1485845754
  0
LINE
  5
270
100
AcDbEntity
  8
0
100
AcDbLine
 62
2
  6
CONTINUOUS
 10
13.6052818493
 20
2.5163643272
 11
13.60639085
 21
2.5163643272
  0
ARC
  5
271
100
AcDbEntity
  8
0
100
AcDbCircle
 62
2
  6
CONTINUOUS
 10
13.6063292954
 20
2.5296129864
 40
0.0132488022
100
AcDbArc
 50
270.266200055
 51
281.2404888597
  0
ARC
  5
272
100
AcDbEntity
  8
0
100
AcDbCircle
 62
2
  6
CONTINUOUS
 10
13.6075235364
 20
2.5238762928
 40
0.0073895522
100
AcDbArc
 50
280.8288201977
 51
305.0837508495
  0
ARC
  5
273
100
AcDbEntity
  8
0
100
AcDbCircle
 62
2
  6
CONTINUOUS
 10
13.607924718
 20
2.5230254464
 40
0.0064647042
100
AcDbArc
 50
306.5086174083
 51
340.2162360092
  0
ARC
  5
274
100
AcDbEntity
  8
0
100
AcDbCircle
 62
2
  6
CONTINUOUS
 10
13.6027235414
 20
2.524769508
 40
0.0119498009
100
AcDbArc
 50
340.7883861657
 51
1.1691452593
  0
LINE
  5
275
100
AcDbEntity
  8
0
100
AcDbLine
 62
2
  6
CONTINUOUS
 10
13.6146708546
 20
2.525013332
 11
13.6146708546
 21
2.5276393334
  0
ARC
  5
276
100
AcDbEntity
  8
0
100
AcDbCircle
 62
2
  6
CONTINUOUS
 10
13.6171458541
 20
2.5276393353
 40
0.0024749995
100
AcDbArc
 50
89.9999571957
 51
180.0000428043
  0
LINE
  5
277
100
AcDbEntity
  8
0
100
AcDbLine
 62
2
  6
CONTINUOUS
 10
13.6171458559
 20
2.5301143348
 11
13.6292558626
 21
2.5301143348
  0
ARC
  5
278
100
AcDbEntity
  8
0
100
AcDbCircle
 62
2
  6
CONTINUOUS
 10
13.6292558645
 20
2.5276393353
 40
0.0024749995
100
AcDbArc
 50
359.9999571957
 51
90.0000428043
  0
LINE
  5
279
100
AcDbEntity
  8
0
100
AcDbLine
 62
2
  6
CONTINUOUS
 10
13.631730864
 20
2.5276393334
 11
13.631730864
 21
2.516087327
  0
ARC
  5
27A
100
AcDbEntity
  8
0
100
AcDbCircle
 62
2
  6
CONTINUOUS
 10
13.6141751675
 20
2.5161916447
 40
0.0175560065
100
AcDbArc
 50
332.2279060967
 51
359.6595469939
  0
ARC
  5
27B
100
AcDbEntity
  8
0
100
AcDbCircle
 62
2
  6
CONTINUOUS
 10
13.6048681567
 20
2.5210861501
 40
0.0280715479
100
AcDbArc
 50
308.5071794988
 51
332.2400656899
  0
ARC
  5
27C
100
AcDbEntity
  8
0
100
AcDbCircle
 62
2
  6
CONTINUOUS
 10
13.5978759713
 20
2.5286873679
 40
0.0383802683
100
AcDbArc
 50
288.7656836787
 51
309.6104317088
  0
ARC
  5
27D
100
AcDbEntity
  8
0
100
AcDbCircle
 62
2
  6
CONTINUOUS
 10
13.6036139387
 20
2.5111006186
 40
0.0198837666
100
AcDbArc
 50
271.8586572978
 51
289.4131338543
  0
LINE
  5
27E
100
AcDbEntity
  8
0
100
AcDbLine
 62
2
  6
CONTINUOUS
 10
13.6042588488
 20
2.4912273132
 11
13.5568948225
 21
2.4912273132
  0
ARC
  5
27F
100
AcDbEntity
  8
0
100
AcDbCircle
 62
2
  6
CONTINUOUS
 10
13.5577001432
 20
2.5085494649
 40
0.0173408616
100
AcDbArc
 50
232.4713476722
 51
267.338189944
  0
ARC
  5
280
100
AcDbEntity
  8
0
100
AcDbCircle
 62
2
  6
CONTINUOUS
 10
13.5607987082
 20
2.5143997688
 40
0.0238935861
100
AcDbArc
 50
209.8247607259
 51
235.1255079367
  0
ARC
  5
281
100
AcDbEntity
  8
0
100
AcDbCircle
 62
2
  6
CONTINUOUS
 10
13.5295131508
 20
2.5629115009
 40
0.0110815393
100
AcDbArc
 50
306.758405961
 51
320.4502234234
  0
ARC
  5
282
100
AcDbEntity
  8
0
100
AcDbCircle
 62
2
  6
CONTINUOUS
 10
13.5238839599
 20
2.5706523294
 40
0.0206523367
100
AcDbArc
 50
289.6883413472
 51
306.4184925496
  0
ARC
  5
283
100
AcDbEntity
  8
0
100
AcDbCircle
 62
2
  6
CONTINUOUS
 10
13.5219564542
 20
2.5750459767
 40
0.0254407115
100
AcDbArc
 50
270.7327484175
 51
290.441894219
  0
LINE
  5
284
100
AcDbEntity
  8
0
100
AcDbLine
 62
2
  6
CONTINUOUS
 10
13.5222818033
 20
2.5496073456
 11
13.4883447845
 21
2.5496073456
  0
ARC
  5
285
100
AcDbEntity
  8
0
100
AcDbCircle
 62
2
  6
CONTINUOUS
 10
13.4883447827
 20
2.5520823451
 40
0.0024749995
100
AcDbArc
 50
179.9999571957
 51
270.0000428043
  0
LINE
  5
286
100
AcDbEntity
  8
0
100
AcDbLine
 62
2
  6
CONTINUOUS
 10
13.4858697831
 20
2.552082347
 11
13.4858697831
 21
2.564807354
  0
ARC
  5
287
100
AcDbEntity
  8
0
100
AcDbCircle
 62
2
  6
CONTINUOUS
 10
13.4883447827
 20
2.5648073559
 40
0.0024749995
100
AcDbArc
 50
89.9999571957
 51
180.0000428043
  0
LINE
  5
288
100
AcDbEntity
  8
0
100
AcDbLine
 62
2
  6
CONTINUOUS
 10
13.4883447845
 20
2.5672823554
 11
13.5251458049
 21
2.5672823554
  0
ARC
  5
289
100
AcDbEntity
  8
0
100
AcDbCircle
 62
2
  6
CONTINUOUS
 10
13.5236009174
 20
2.5388278764
 40
0.0284963867
100
AcDbArc
 50
70.3834917948
 51
86.8922743861
  0
ARC
  5
28A
100
AcDbEntity
  8
0
100
AcDbCircle
 62
2
  6
CONTINUOUS
 10
13.5284605274
 20
2.5518696094
 40
0.0145814632
100
AcDbArc
 50
54.6746025112
 51
71.1660573124
  0
ARC
  5
28B
100
AcDbEntity
  8
0
100
AcDbCircle
 62
2
  6
CONTINUOUS
 10
13.5335900184
 20
2.5587235346
 40
0.0060275915
100
AcDbArc
 50
20.9055592135
 51
56.7851676243
  0
ARC
  5
28C
100
AcDbEntity
  8
0
100
AcDbCircle
 62
2
  6
CONTINUOUS
 10
13.5348905773
 20
2.5593838168
 40
0.0045795888
100
AcDbArc
 50
355.6235353944
 51
18.9942678268
  0
ARC
  5
28D
100
AcDbEntity
  8
0
100
AcDbCircle
 62
2
  6
CONTINUOUS
 10
13.533683767
 20
2.559677593
 40
0.0058087709
100
AcDbArc
 50
318.8515287446
 51
353.6422345323
  0
LINE
  5
28E
100
AcDbEntity
  8
0
100
AcDbLine
 62
2
  6
CONTINUOUS
 10
12.672340332
 20
2.5920323691
 11
12.7727983877
 21
2.5920323691
  0
ARC
  5
28F
100
AcDbEntity
  8
0
100
AcDbCircle
 62
2
  6
CONTINUOUS
 10
12.7727985224
 20
2.5895582013
 40
0.0024741678
100
AcDbArc
 50
46.3477981899
 51
90.0031206038
  0
LINE
  5
290
100
AcDbEntity
  8
0
100
AcDbLine
 62
2
  6
CONTINUOUS
 10
12.7745063886
 20
2.5913483688
 11
12.8345394219
 21
2.534068337
  0
ARC
  5
291
100
AcDbEntity
  8
0
100
AcDbCircle
 62
2
  6
CONTINUOUS
 10
12.8362481229
 20
2.5358592748
 40
0.0024753014
100
AcDbArc
 50
226.3461263059
 51
0.0014637321
  0
LINE
  5
292
100
AcDbEntity
  8
0
100
AcDbLine
 62
2
  6
CONTINUOUS
 10
12.8387234242
 20
2.535859338
 11
12.8387234242
 21
2.564807354
  0
ARC
  5
293
100
AcDbEntity
  8
0
100
AcDbCircle
 62
2
  6
CONTINUOUS
 10
12.8362484247
 20
2.5648073559
 40
0.0024749995
100
AcDbArc
 50
359.9999571957
 51
90.0000428043
  0
LINE
  5
294
100
AcDbEntity
  8
0
100
AcDbLine
 62
2
  6
CONTINUOUS
 10
12.8362484229
 20
2.5672823554
 11
12.8174724125
 21
2.5672823554
  0
ARC
  5
295
100
AcDbEntity
  8
0
100
AcDbCircle
 62
2
  6
CONTINUOUS
 10
12.8174724106
 20
2.5697573549
 40
0.0024749995
100
AcDbArc
 50
179.9999571957
 51
270.0000428043
  0
LINE
  5
296
100
AcDbEntity
  8
0
100
AcDbLine
 62
2
  6
CONTINUOUS
 10
12.8149974111
 20
2.5697573568
 11
12.8149974111
 21
2.5895573678
  0
ARC
  5
297
100
AcDbEntity
  8
0
100
AcDbCircle
 62
2
  6
CONTINUOUS
 10
12.8174724106
 20
2.5895573696
 40
0.0024749995
100
AcDbArc
 50
89.9999571957
 51
180.0000428043
  0
LINE
  5
298
100
AcDbEntity
  8
0
100
AcDbLine
 62
2
  6
CONTINUOUS
 10
12.8174724125
 20
2.5920323691
 11
12.8914734535
 21
2.5920323691
  0
ARC
  5
299
100
AcDbEntity
  8
0
100
AcDbCircle
 62
2
  6
CONTINUOUS
 10
12.8914734553
 20
2.5895573696
 40
0.0024749995
100
AcDbArc
 50
359.9999571957
 51
90.0000428043
  0
LINE
  5
29A
100
AcDbEntity
  8
0
100
AcDbLine
 62
2
  6
CONTINUOUS
 10
12.8939484549
 20
2.5895573678
 11
12.8939484549
 21
2.5697573568
  0
ARC
  5
29B
100
AcDbEntity
  8
0
100
AcDbCircle
 62
2
  6
CONTINUOUS
 10
12.8914734553
 20
2.5697573549
 40
0.0024749995
100
AcDbArc
 50
269.9999571957
 51
0.0000428043
  0
LINE
  5
29C
100
AcDbEntity
  8
0
100
AcDbLine
 62
2
  6
CONTINUOUS
 10
12.8914734535
 20
2.5672823554
 11
12.8735404436
 21
2.5672823554
  0
ARC
  5
29D
100
AcDbEntity
  8
0
100
AcDbCircle
 62
2
  6
CONTINUOUS
 10
12.8735404417
 20
2.5648073559
 40
0.0024749995
100
AcDbArc
 50
89.9999571957
 51
180.0000428043
  0
LINE
  5
29E
100
AcDbEntity
  8
0
100
AcDbLine
 62
2
  6
CONTINUOUS
 10
12.8710654422
 20
2.564807354
 11
12.8710654422
 21
2.4937023146
  0
ARC
  5
29F
100
AcDbEntity
  8
0
100
AcDbCircle
 62
2
  6
CONTINUOUS
 10
12.8685904427
 20
2.4937023128
 40
0.0024749995
100
AcDbArc
 50
269.9999571957
 51
0.0000428043
  0
LINE
  5
2A0
100
AcDbEntity
  8
0
100
AcDbLine
 62
2
  6
CONTINUOUS
 10
12.8685904408
 20
2.4912273132
 11
12.7943853997
 21
2.4912273132
  0
ARC
  5
2A1
100
AcDbEntity
  8
0
100
AcDbCircle
 62
2
  6
CONTINUOUS
 10
12.7943847649
 20
2.4937027294
 40
0.0024754162
100
AcDbArc
 50
226.3593695813
 51
270.0146919953
  0
LINE
  5
2A2
100
AcDbEntity
  8
0
100
AcDbLine
 62
2
  6
CONTINUOUS
 10
12.7926763987
 20
2.4919113136
 11
12.7293963636
 21
2.5522893471
  0
ARC
  5
2A3
100
AcDbEntity
  8
0
100
AcDbCircle
 62
2
  6
CONTINUOUS
 10
12.7276876627
 20
2.5504984093
 40
0.0024753014
100
AcDbArc
 50
46.3461263059
 51
180.0014637321
  0
LINE
  5
2A4
100
AcDbEntity
  8
0
100
AcDbLine
 62
2
  6
CONTINUOUS
 10
12.7252123613
 20
2.5504983461
 11
12.7252123613
 21
2.5184523283
  0
ARC
  5
2A5
100
AcDbEntity
  8
0
100
AcDbCircle
 62
2
  6
CONTINUOUS
 10
12.7276873608
 20
2.5184523265
 40
0.0024749995
100
AcDbArc
 50
179.9999571957
 51
270.0000428043
  0
LINE
  5
2A6
100
AcDbEntity
  8
0
100
AcDbLine
 62
2
  6
CONTINUOUS
 10
12.7276873627
 20
2.515977327
 11
12.7480043739
 21
2.515977327
  0
ARC
  5
2A7
100
AcDbEntity
  8
0
100
AcDbCircle
 62
2
  6
CONTINUOUS
 10
12.7480043758
 20
2.5135023274
 40
0.0024749995
100
AcDbArc
 50
359.9999571957
 51
90.0000428043
  0
LINE
  5
2A8
100
AcDbEntity
  8
0
100
AcDbLine
 62
2
  6
CONTINUOUS
 10
12.7504793753
 20
2.5135023256
 11
12.7504793753
 21
2.4937023146
  0
ARC
  5
2A9
100
AcDbEntity
  8
0
100
AcDbCircle
 62
2
  6
CONTINUOUS
 10
12.7480043758
 20
2.4937023128
 40
0.0024749995
100
AcDbArc
 50
269.9999571957
 51
0.0000428043
  0
LINE
  5
2AA
100
AcDbEntity
  8
0
100
AcDbLine
 62
2
  6
CONTINUOUS
 10
12.7480043739
 20
2.4912273132
 11
12.672340332
 21
2.4912273132
  0
ARC
  5
2AB
100
AcDbEntity
  8
0
100
AcDbCircle
 62
2
  6
CONTINUOUS
 10
12.6723403301
 20
2.4937023128
 40
0.0024749995
100
AcDbArc
 50
179.9999571957
 51
270.0000428043
  0
LINE
  5
2AC
100
AcDbEntity
  8
0
100
AcDbLine
 62
2
  6
CONTINUOUS
 10
12.6698653306
 20
2.4937023146
 11
12.6698653306
 21
2.5135023256
  0
ARC
  5
2AD
100
AcDbEntity
  8
0
100
AcDbCircle
 62
2
  6
CONTINUOUS
 10
12.6723403301
 20
2.5135023274
 40
0.0024749995
100
AcDbArc
 50
89.9999571957
 51
180.0000428043
  0
LINE
  5
2AE
100
AcDbEntity
  8
0
100
AcDbLine
 62
2
  6
CONTINUOUS
 10
12.672340332
 20
2.515977327
 11
12.6909873423
 21
2.515977327
  0
ARC
  5
2AF
100
AcDbEntity
  8
0
100
AcDbCircle
 62
2
  6
CONTINUOUS
 10
12.6909873442
 20
2.5184523265
 40
0.0024749995
100
AcDbArc
 50
269.9999571957
 51
0.0000428043
  0
LINE
  5
2B0
100
AcDbEntity
  8
0
100
AcDbLine
 62
2
  6
CONTINUOUS
 10
12.6934623437
 20
2.5184523283
 11
12.6934623437
 21
2.564807354
  0
ARC
  5
2B1
100
AcDbEntity
  8
0
100
AcDbCircle
 62
2
  6
CONTINUOUS
 10
12.6909873442
 20
2.5648073559
 40
0.0024749995
100
AcDbArc
 50
359.9999571957
 51
90.0000428043
  0
LINE
  5
2B2
100
AcDbEntity
  8
0
100
AcDbLine
 62
2
  6
CONTINUOUS
 10
12.6909873423
 20
2.5672823554
 11
12.672340332
 21
2.5672823554
  0
ARC
  5
2B3
100
AcDbEntity
  8
0
100
AcDbCircle
 62
2
  6
CONTINUOUS
 10
12.6723403301
 20
2.5697573549
 40
0.0024749995
100
AcDbArc
 50
179.9999571957
 51
270.0000428043
  0
LINE
  5
2B4
100
AcDbEntity
  8
0
100
AcDbLine
 62
2
  6
CONTINUOUS
 10
12.6698653306
 20
2.5697573568
 11
12.6698653306
 21
2.5895573678
  0
ARC
  5
2B5
100
AcDbEntity
  8
0
100
AcDbCircle
 62
2
  6
CONTINUOUS
 10
12.6723403301
 20
2.5895573696
 40
0.0024749995
100
AcDbArc
 50
89.9999571957
 51
180.0000428043
  0
LINE
  5
2B6
100
AcDbEntity
  8
0
100
AcDbLine
 62
2
  6
CONTINUOUS
 10
12.5246402501
 20
2.5655893545
 11
12.5175232461
 21
2.5543723483
  0
ARC
  5
2B7
100
AcDbEntity
  8
0
100
AcDbCircle
 62
2
  6
CONTINUOUS
 10
12.519613138
 20
2.5530463862
 40
0.0024750401
100
AcDbArc
 50
147.6063258012
 51
270.0025305754
  0
LINE
  5
2B8
100
AcDbEntity
  8
0
100
AcDbLine
 62
2
  6
CONTINUOUS
 10
12.5196132473
 20
2.5505713461
 11
12.5401702587
 21
2.5505713461
  0
ARC
  5
2B9
100
AcDbEntity
  8
0
100
AcDbCircle
 62
2
  6
CONTINUOUS
 10
12.5401702375
 20
2.5530465533
 40
0.0024752071
100
AcDbArc
 50
270.0004896793
 51
32.9089806818
  0
LINE
  5
2BA
100
AcDbEntity
  8
0
100
AcDbLine
 62
2
  6
CONTINUOUS
 10
12.5422482598
 20
2.5543913483
 11
12.5349892558
 21
2.5656073545
  0
ARC
  5
2BB
100
AcDbEntity
  8
0
100
AcDbCircle
 62
2
  6
CONTINUOUS
 10
12.532910715
 20
2.564262895
 40
0.0024754602
100
AcDbArc
 50
32.8959418573
 51
89.9875097202
  0
LINE
  5
2BC
100
AcDbEntity
  8
0
100
AcDbLine
 62
2
  6
CONTINUOUS
 10
12.5329112547
 20
2.5667383551
 11
12.5267302512
 21
2.5667383551
  0
ARC
  5
2BD
100
AcDbEntity
  8
0
100
AcDbCircle
 62
2
  6
CONTINUOUS
 10
12.5267301809
 20
2.5642631548
 40
0.0024752003
100
AcDbArc
 50
89.998372645
 51
147.602165307
  0
LINE
  5
2BE
100
AcDbEntity
  8
0
100
AcDbLine
 62
2
  6
CONTINUOUS
 10
12.548053263
 20
2.5284903339
 11
12.5536792662
 21
2.5197973291
  0
ARC
  5
2BF
100
AcDbEntity
  8
0
100
AcDbCircle
 62
2
  6
CONTINUOUS
 10
12.5516012439
 20
2.5184525341
 40
0.0024752071
100
AcDbArc
 50
270.0004896794
 51
32.9089806818
  0
LINE
  5
2C0
100
AcDbEntity
  8
0
100
AcDbLine
 62
2
  6
CONTINUOUS
 10
12.551601265
 20
2.515977327
 11
12.537150257
 21
2.515977327
  0
ARC
  5
2C1
100
AcDbEntity
  8
0
100
AcDbCircle
 62
2
  6
CONTINUOUS
 10
12.5371502552
 20
2.5135023274
 40
0.0024749995
100
AcDbArc
 50
89.9999571957
 51
180.0000428043
  0
LINE
  5
2C2
100
AcDbEntity
  8
0
100
AcDbLine
 62
2
  6
CONTINUOUS
 10
12.5346752556
 20
2.5135023256
 11
12.5346752556
 21
2.4937023146
  0
ARC
  5
2C3
100
AcDbEntity
  8
0
100
AcDbCircle
 62
2
  6
CONTINUOUS
 10
12.5371502552
 20
2.4937023128
 40
0.0024749995
100
AcDbArc
 50
179.9999571957
 51
270.0000428043
  0
LINE
  5
2C4
100
AcDbEntity
  8
0
100
AcDbLine
 62
2
  6
CONTINUOUS
 10
12.537150257
 20
2.4912273132
 11
12.6424313154
 21
2.4912273132
  0
ARC
  5
2C5
100
AcDbEntity
  8
0
100
AcDbCircle
 62
2
  6
CONTINUOUS
 10
12.6424313172
 20
2.4937023128
 40
0.0024749995
100
AcDbArc
 50
269.9999571957
 51
0.0000428043
  0
LINE
  5
2C6
100
AcDbEntity
  8
0
100
AcDbLine
 62
2
  6
CONTINUOUS
 10
12.6449063168
 20
2.4937023146
 11
12.6449063168
 21
2.5135023256
  0
ARC
  5
2C7
100
AcDbEntity
  8
0
100
AcDbCircle
 62
2
  6
CONTINUOUS
 10
12.6424313172
 20
2.5135023274
 40
0.0024749995
100
AcDbArc
 50
359.9999571957
 51
90.0000428043
  0
LINE
  5
2C8
100
AcDbEntity
  8
0
100
AcDbLine
 62
2
  6
CONTINUOUS
 10
12.6424313154
 20
2.515977327
 11
12.6224153043
 21
2.515977327
  0
ARC
  5
2C9
100
AcDbEntity
  8
0
100
AcDbCircle
 62
2
  6
CONTINUOUS
 10
12.6224154248
 20
2.518451368
 40
0.002474041
100
AcDbArc
 50
212.9056413127
 51
269.9972091756
  0
LINE
  5
2CA
100
AcDbEntity
  8
0
100
AcDbLine
 62
2
  6
CONTINUOUS
 10
12.6203383031
 20
2.5171073276
 11
12.5725822767
 21
2.5909023685
  0
ARC
  5
2CB
100
AcDbEntity
  8
0
100
AcDbCircle
 62
2
  6
CONTINUOUS
 10
12.570504655
 20
2.589557409
 40
0.0024749602
100
AcDbArc
 50
32.9172174468
 51
90.0087853097
  0
LINE
  5
2CC
100
AcDbEntity
  8
0
100
AcDbLine
 62
2
  6
CONTINUOUS
 10
12.5705042755
 20
2.5920323691
 11
12.5133292438
 21
2.5920323691
  0
ARC
  5
2CD
100
AcDbEntity
  8
0
100
AcDbCircle
 62
2
  6
CONTINUOUS
 10
12.5133291735
 20
2.5895571688
 40
0.0024752003
100
AcDbArc
 50
89.9983726451
 51
147.602165307
  0
LINE
  5
2CE
100
AcDbEntity
  8
0
100
AcDbLine
 62
2
  6
CONTINUOUS
 10
12.5112392426
 20
2.5908833685
 11
12.4644392167
 21
2.5171263276
  0
ARC
  5
2CF
100
AcDbEntity
  8
0
100
AcDbCircle
 62
2
  6
CONTINUOUS
 10
12.4623492858
 20
2.5184525273
 40
0.0024752003
100
AcDbArc
 50
269.9983726451
 51
327.602165307
  0
LINE
  5
2D0
100
AcDbEntity
  8
0
100
AcDbLine
 62
2
  6
CONTINUOUS
 10
12.4623492155
 20
2.515977327
 11
12.4394882028
 21
2.515977327
  0
ARC
  5
2D1
100
AcDbEntity
  8
0
100
AcDbCircle
 62
2
  6
CONTINUOUS
 10
12.439488201
 20
2.5135023274
 40
0.0024749995
100
AcDbArc
 50
89.9999571957
 51
180.0000428043
  0
LINE
  5
2D2
100
AcDbEntity
  8
0
100
AcDbLine
 62
2
  6
CONTINUOUS
 10
12.4370132015
 20
2.5135023256
 11
12.4370132015
 21
2.4937023146
  0
ARC
  5
2D3
100
AcDbEntity
  8
0
100
AcDbCircle
 62
2
  6
CONTINUOUS
 10
12.439488201
 20
2.4937023128
 40
0.0024749995
100
AcDbArc
 50
179.9999571957
 51
270.0000428043
  0
LINE
  5
2D4
100
AcDbEntity
  8
0
100
AcDbLine
 62
2
  6
CONTINUOUS
 10
12.4394882028
 20
2.4912273132
 11
12.5168642458
 21
2.4912273132
  0
ARC
  5
2D5
100
AcDbEntity
  8
0
100
AcDbCircle
 62
2
  6
CONTINUOUS
 10
12.5168642476
 20
2.4937023128
 40
0.0024749995
100
AcDbArc
 50
269.9999571957
 51
0.0000428043
  0
LINE
  5
2D6
100
AcDbEntity
  8
0
100
AcDbLine
 62
2
  6
CONTINUOUS
 10
12.5193392471
 20
2.4937023146
 11
12.5193392471
 21
2.5135023256
  0
ARC
  5
2D7
100
AcDbEntity
  8
0
100
AcDbCircle
 62
2
  6
CONTINUOUS
 10
12.5168642476
 20
2.5135023274
 40
0.0024749995
100
AcDbArc
 50
359.9999571957
 51
90.0000428043
  0
LINE
  5
2D8
100
AcDbEntity
  8
0
100
AcDbLine
 62
2
  6
CONTINUOUS
 10
12.5168642458
 20
2.515977327
 11
12.5055812395
 21
2.515977327
  0
ARC
  5
2D9
100
AcDbEntity
  8
0
100
AcDbCircle
 62
2
  6
CONTINUOUS
 10
12.5055811302
 20
2.518452367
 40
0.0024750401
100
AcDbArc
 50
147.6063258011
 51
270.0025305754
  0
LINE
  5
2DA
100
AcDbEntity
  8
0
100
AcDbLine
 62
2
  6
CONTINUOUS
 10
12.5034912383
 20
2.5197783291
 11
12.5090072414
 21
2.5284723339
  0
ARC
  5
2DB
100
AcDbEntity
  8
0
100
AcDbCircle
 62
2
  6
CONTINUOUS
 10
12.5110971723
 20
2.5271461342
 40
0.0024752003
100
AcDbArc
 50
89.998372645
 51
147.602165307
  0
LINE
  5
2DC
100
AcDbEntity
  8
0
100
AcDbLine
 62
2
  6
CONTINUOUS
 10
12.5110972426
 20
2.5296213345
 11
12.5459752619
 21
2.5296213345
  0
ARC
  5
2DD
100
AcDbEntity
  8
0
100
AcDbCircle
 62
2
  6
CONTINUOUS
 10
12.5459747223
 20
2.5271458744
 40
0.0024754602
100
AcDbArc
 50
32.8959418573
 51
89.9875097202
  0
LINE
  5
2DE
100
AcDbEntity
  8
0
100
AcDbLine
 62
2
  6
CONTINUOUS
 10
12.9205934696
 20
2.5920323691
 11
13.0210515254
 21
2.5920323691
  0
ARC
  5
2DF
100
AcDbEntity
  8
0
100
AcDbCircle
 62
2
  6
CONTINUOUS
 10
13.0210516601
 20
2.5895582013
 40
0.0024741678
100
AcDbArc
 50
46.3477981899
 51
90.0031206038
  0
LINE
  5
2E0
100
AcDbEntity
  8
0
100
AcDbLine
 62
2
  6
CONTINUOUS
 10
13.0227595263
 20
2.5913483688
 11
13.0827925596
 21
2.534068337
  0
ARC
  5
2E1
100
AcDbEntity
  8
0
100
AcDbCircle
 62
2
  6
CONTINUOUS
 10
13.0845012605
 20
2.5358592748
 40
0.0024753014
100
AcDbArc
 50
226.3461263059
 51
0.0014637321
  0
LINE
  5
2E2
100
AcDbEntity
  8
0
100
AcDbLine
 62
2
  6
CONTINUOUS
 10
13.0869765619
 20
2.535859338
 11
13.0869765619
 21
2.564807354
  0
ARC
  5
2E3
100
AcDbEntity
  8
0
100
AcDbCircle
 62
2
  6
CONTINUOUS
 10
13.0845015624
 20
2.5648073559
 40
0.0024749995
100
AcDbArc
 50
359.9999571957
 51
90.0000428043
  0
LINE
  5
2E4
100
AcDbEntity
  8
0
100
AcDbLine
 62
2
  6
CONTINUOUS
 10
13.0845015605
 20
2.5672823554
 11
13.0657255501
 21
2.5672823554
  0
ARC
  5
2E5
100
AcDbEntity
  8
0
100
AcDbCircle
 62
2
  6
CONTINUOUS
 10
13.0657255483
 20
2.5697573549
 40
0.0024749995
100
AcDbArc
 50
179.9999571957
 51
270.0000428043
  0
LINE
  5
2E6
100
AcDbEntity
  8
0
100
AcDbLine
 62
2
  6
CONTINUOUS
 10
13.0632505488
 20
2.5697573568
 11
13.0632505488
 21
2.5895573678
  0
ARC
  5
2E7
100
AcDbEntity
  8
0
100
AcDbCircle
 62
2
  6
CONTINUOUS
 10
13.0657255483
 20
2.5895573696
 40
0.0024749995
100
AcDbArc
 50
89.9999571957
 51
180.0000428043
  0
LINE
  5
2E8
100
AcDbEntity
  8
0
100
AcDbLine
 62
2
  6
CONTINUOUS
 10
13.0657255501
 20
2.5920323691
 11
13.1397265912
 21
2.5920323691
  0
ARC
  5
2E9
100
AcDbEntity
  8
0
100
AcDbCircle
 62
2
  6
CONTINUOUS
 10
13.139726593
 20
2.5895573696
 40
0.0024749995
100
AcDbArc
 50
359.9999571957
 51
90.0000428043
  0
LINE
  5
2EA
100
AcDbEntity
  8
0
100
AcDbLine
 62
2
  6
CONTINUOUS
 10
13.1422015925
 20
2.5895573678
 11
13.1422015925
 21
2.5697573568
  0
ARC
  5
2EB
100
AcDbEntity
  8
0
100
AcDbCircle
 62
2
  6
CONTINUOUS
 10
13.139726593
 20
2.5697573549
 40
0.0024749995
100
AcDbArc
 50
269.9999571957
 51
0.0000428042
  0
LINE
  5
2EC
100
AcDbEntity
  8
0
100
AcDbLine
 62
2
  6
CONTINUOUS
 10
13.1397265912
 20
2.5672823554
 11
13.1217935812
 21
2.5672823554
  0
ARC
  5
2ED
100
AcDbEntity
  8
0
100
AcDbCircle
 62
2
  6
CONTINUOUS
 10
13.1217935794
 20
2.5648073559
 40
0.0024749995
100
AcDbArc
 50
89.9999571957
 51
180.0000428042
  0
LINE
  5
2EE
100
AcDbEntity
  8
0
100
AcDbLine
 62
2
  6
CONTINUOUS
 10
13.1193185799
 20
2.564807354
 11
13.1193185799
 21
2.4937023146
  0
ARC
  5
2EF
100
AcDbEntity
  8
0
100
AcDbCircle
 62
2
  6
CONTINUOUS
 10
13.1168435803
 20
2.4937023128
 40
0.0024749995
100
AcDbArc
 50
269.9999571957
 51
0.0000428043
  0
LINE
  5
2F0
100
AcDbEntity
  8
0
100
AcDbLine
 62
2
  6
CONTINUOUS
 10
13.1168435785
 20
2.4912273132
 11
13.0426375373
 21
2.4912273132
  0
ARC
  5
2F1
100
AcDbEntity
  8
0
100
AcDbCircle
 62
2
  6
CONTINUOUS
 10
13.0426374026
 20
2.493701481
 40
0.0024741678
100
AcDbArc
 50
226.3477981898
 51
270.0031206038
  0
LINE
  5
2F2
100
AcDbEntity
  8
0
100
AcDbLine
 62
2
  6
CONTINUOUS
 10
13.0409295364
 20
2.4919113136
 11
12.9776495013
 21
2.5522893471
  0
ARC
  5
2F3
100
AcDbEntity
  8
0
100
AcDbCircle
 62
2
  6
CONTINUOUS
 10
12.9759408003
 20
2.5504984093
 40
0.0024753014
100
AcDbArc
 50
46.3461263059
 51
180.0014637321
  0
LINE
  5
2F4
100
AcDbEntity
  8
0
100
AcDbLine
 62
2
  6
CONTINUOUS
 10
12.973465499
 20
2.5504983461
 11
12.973465499
 21
2.5184523283
  0
ARC
  5
2F5
100
AcDbEntity
  8
0
100
AcDbCircle
 62
2
  6
CONTINUOUS
 10
12.9759404985
 20
2.5184523265
 40
0.0024749995
100
AcDbArc
 50
179.9999571957
 51
270.0000428043
  0
LINE
  5
2F6
100
AcDbEntity
  8
0
100
AcDbLine
 62
2
  6
CONTINUOUS
 10
12.9759405003
 20
2.515977327
 11
12.9962575116
 21
2.515977327
  0
ARC
  5
2F7
100
AcDbEntity
  8
0
100
AcDbCircle
 62
2
  6
CONTINUOUS
 10
12.9962575135
 20
2.5135023274
 40
0.0024749995
100
AcDbArc
 50
359.9999571957
 51
90.0000428043
  0
LINE
  5
2F8
100
AcDbEntity
  8
0
100
AcDbLine
 62
2
  6
CONTINUOUS
 10
12.998732513
 20
2.5135023256
 11
12.998732513
 21
2.4937023146
  0
ARC
  5
2F9
100
AcDbEntity
  8
0
100
AcDbCircle
 62
2
  6
CONTINUOUS
 10
12.9962575135
 20
2.4937023128
 40
0.0024749995
100
AcDbArc
 50
269.9999571957
 51
0.0000428043
  0
LINE
  5
2FA
100
AcDbEntity
  8
0
100
AcDbLine
 62
2
  6
CONTINUOUS
 10
12.9962575116
 20
2.4912273132
 11
12.9205934696
 21
2.4912273132
  0
ARC
  5
2FB
100
AcDbEntity
  8
0
100
AcDbCircle
 62
2
  6
CONTINUOUS
 10
12.9205934678
 20
2.4937023128
 40
0.0024749995
100
AcDbArc
 50
179.9999571957
 51
270.0000428043
  0
LINE
  5
2FC
100
AcDbEntity
  8
0
100
AcDbLine
 62
2
  6
CONTINUOUS
 10
12.9181184683
 20
2.4937023146
 11
12.9181184683
 21
2.5135023256
  0
ARC
  5
2FD
100
AcDbEntity
  8
0
100
AcDbCircle
 62
2
  6
CONTINUOUS
 10
12.9205934678
 20
2.5135023274
 40
0.0024749995
100
AcDbArc
 50
89.9999571957
 51
180.0000428042
  0
LINE
  5
2FE
100
AcDbEntity
  8
0
100
AcDbLine
 62
2
  6
CONTINUOUS
 10
12.9205934696
 20
2.515977327
 11
12.93923948
 21
2.515977327
  0
ARC
  5
2FF
100
AcDbEntity
  8
0
100
AcDbCircle
 62
2
  6
CONTINUOUS
 10
12.9392394818
 20
2.5184523265
 40
0.0024749995
100
AcDbArc
 50
269.9999571957
 51
0.0000428043
  0
LINE
  5
300
100
AcDbEntity
  8
0
100
AcDbLine
 62
2
  6
CONTINUOUS
 10
12.9417144814
 20
2.5184523283
 11
12.9417144814
 21
2.564807354
  0
ARC
  5
301
100
AcDbEntity
  8
0
100
AcDbCircle
 62
2
  6
CONTINUOUS
 10
12.9392394818
 20
2.5648073559
 40
0.0024749995
100
AcDbArc
 50
359.9999571957
 51
90.0000428043
  0
LINE
  5
302
100
AcDbEntity
  8
0
100
AcDbLine
 62
2
  6
CONTINUOUS
 10
12.93923948
 20
2.5672823554
 11
12.9205934696
 21
2.5672823554
  0
ARC
  5
303
100
AcDbEntity
  8
0
100
AcDbCircle
 62
2
  6
CONTINUOUS
 10
12.9205934678
 20
2.5697573549
 40
0.0024749995
100
AcDbArc
 50
179.9999571957
 51
270.0000428043
  0
LINE
  5
304
100
AcDbEntity
  8
0
100
AcDbLine
 62
2
  6
CONTINUOUS
 10
12.9181184683
 20
2.5697573568
 11
12.9181184683
 21
2.5895573678
  0
ARC
  5
305
100
AcDbEntity
  8
0
100
AcDbCircle
 62
2
  6
CONTINUOUS
 10
12.9205934678
 20
2.5895573696
 40
0.0024749995
100
AcDbArc
 50
89.9999571957
 51
180.0000428042
  0
LINE
  5
306
100
AcDbEntity
  8
0
100
AcDbLine
 62
2
  6
CONTINUOUS
 10
13.2934226764
 20
2.5324773361
 11
13.2582556569
 21
2.5324773361
  0
ARC
  5
307
100
AcDbEntity
  8
0
100
AcDbCircle
 62
2
  6
CONTINUOUS
 10
13.2582556551
 20
2.5300023366
 40
0.0024749995
100
AcDbArc
 50
89.9999571957
 51
180.0000428043
  0
LINE
  5
308
100
AcDbEntity
  8
0
100
AcDbLine
 62
2
  6
CONTINUOUS
 10
13.2557806555
 20
2.5300023347
 11
13.2557806555
 21
2.5184523283
  0
ARC
  5
309
100
AcDbEntity
  8
0
100
AcDbCircle
 62
2
  6
CONTINUOUS
 10
13.2582556551
 20
2.5184523265
 40
0.0024749995
100
AcDbArc
 50
179.9999571957
 51
270.0000428043
  0
LINE
  5
30A
100
AcDbEntity
  8
0
100
AcDbLine
 62
2
  6
CONTINUOUS
 10
13.2582556569
 20
2.515977327
 11
13.3232596929
 21
2.515977327
  0
ARC
  5
30B
100
AcDbEntity
  8
0
100
AcDbCircle
 62
2
  6
CONTINUOUS
 10
13.3232596948
 20
2.5184523265
 40
0.0024749995
100
AcDbArc
 50
269.9999571957
 51
0.0000428043
  0
LINE
  5
30C
100
AcDbEntity
  8
0
100
AcDbLine
 62
2
  6
CONTINUOUS
 10
13.3257346943
 20
2.5184523283
 11
13.3257346943
 21
2.5267023329
  0
ARC
  5
30D
100
AcDbEntity
  8
0
100
AcDbCircle
 62
2
  6
CONTINUOUS
 10
13.3282096938
 20
2.5267023348
 40
0.0024749995
100
AcDbArc
 50
89.9999571957
 51
180.0000428043
  0
LINE
  5
30E
100
AcDbEntity
  8
0
100
AcDbLine
 62
2
  6
CONTINUOUS
 10
13.3282096957
 20
2.5291773343
 11
13.3705287192
 21
2.5291773343
  0
ARC
  5
30F
100
AcDbEntity
  8
0
100
AcDbCircle
 62
2
  6
CONTINUOUS
 10
13.370528721
 20
2.5267023348
 40
0.0024749995
100
AcDbArc
 50
359.9999571957
 51
90.0000428043
  0
LINE
  5
310
100
AcDbEntity
  8
0
100
AcDbLine
 62
2
  6
CONTINUOUS
 10
13.3730037205
 20
2.5267023329
 11
13.3730037205
 21
2.4937023146
  0
ARC
  5
311
100
AcDbEntity
  8
0
100
AcDbCircle
 62
2
  6
CONTINUOUS
 10
13.370528721
 20
2.4937023128
 40
0.0024749995
100
AcDbArc
 50
269.9999571957
 51
0.0000428043
  0
LINE
  5
312
100
AcDbEntity
  8
0
100
AcDbLine
 62
2
  6
CONTINUOUS
 10
13.3705287192
 20
2.4912273132
 11
13.1673166065
 21
2.4912273132
  0
ARC
  5
313
100
AcDbEntity
  8
0
100
AcDbCircle
 62
2
  6
CONTINUOUS
 10
13.1673166046
 20
2.4937023128
 40
0.0024749995
100
AcDbArc
 50
179.9999571957
 51
270.0000428043
  0
LINE
  5
314
100
AcDbEntity
  8
0
100
AcDbLine
 62
2
  6
CONTINUOUS
 10
13.1648416051
 20
2.4937023146
 11
13.1648416051
 21
2.5135023256
  0
ARC
  5
315
100
AcDbEntity
  8
0
100
AcDbCircle
 62
2
  6
CONTINUOUS
 10
13.1673166046
 20
2.5135023274
 40
0.0024749995
100
AcDbArc
 50
89.9999571957
 51
180.0000428043
  0
LINE
  5
316
100
AcDbEntity
  8
0
100
AcDbLine
 62
2
  6
CONTINUOUS
 10
13.1673166065
 20
2.515977327
 11
13.1912396197
 21
2.515977327
  0
ARC
  5
317
100
AcDbEntity
  8
0
100
AcDbCircle
 62
2
  6
CONTINUOUS
 10
13.1912396216
 20
2.5184523265
 40
0.0024749995
100
AcDbArc
 50
269.9999571957
 51
0.0000428042
  0
LINE
  5
318
100
AcDbEntity
  8
0
100
AcDbLine
 62
2
  6
CONTINUOUS
 10
13.1937146211
 20
2.5184523283
 11
13.1937146211
 21
2.564807354
  0
ARC
  5
319
100
AcDbEntity
  8
0
100
AcDbCircle
 62
2
  6
CONTINUOUS
 10
13.1912396216
 20
2.5648073559
 40
0.0024749995
100
AcDbArc
 50
359.9999571957
 51
90.0000428043
  0
LINE
  5
31A
100
AcDbEntity
  8
0
100
AcDbLine
 62
2
  6
CONTINUOUS
 10
13.1912396197
 20
2.5672823554
 11
13.1673166065
 21
2.5672823554
  0
ARC
  5
31B
100
AcDbEntity
  8
0
100
AcDbCircle
 62
2
  6
CONTINUOUS
 10
13.1673166046
 20
2.5697573549
 40
0.0024749995
100
AcDbArc
 50
179.9999571957
 51
270.0000428043
  0
LINE
  5
31C
100
AcDbEntity
  8
0
100
AcDbLine
 62
2
  6
CONTINUOUS
 10
13.1648416051
 20
2.5697573568
 11
13.1648416051
 21
2.5895573678
  0
ARC
  5
31D
100
AcDbEntity
  8
0
100
AcDbCircle
 62
2
  6
CONTINUOUS
 10
13.1673166046
 20
2.5895573696
 40
0.0024749995
100
AcDbArc
 50
89.9999571957
 51
180.0000428043
  0
LINE
  5
31E
100
AcDbEntity
  8
0
100
AcDbLine
 62
2
  6
CONTINUOUS
 10
13.1673166065
 20
2.5920323691
 11
13.3691097184
 21
2.5920323691
  0
ARC
  5
31F
100
AcDbEntity
  8
0
100
AcDbCircle
 62
2
  6
CONTINUOUS
 10
13.3691097202
 20
2.5895573696
 40
0.0024749995
100
AcDbArc
 50
359.9999571957
 51
90.0000428043
  0
LINE
  5
320
100
AcDbEntity
  8
0
100
AcDbLine
 62
2
  6
CONTINUOUS
 10
13.3715847197
 20
2.5895573678
 11
13.3715847197
 21
2.5565573495
  0
ARC
  5
321
100
AcDbEntity
  8
0
100
AcDbCircle
 62
2
  6
CONTINUOUS
 10
13.3691097202
 20
2.5565573476
 40
0.0024749995
100
AcDbArc
 50
269.9999571957
 51
0.0000428042
  0
LINE
  5
322
100
AcDbEntity
  8
0
100
AcDbLine
 62
2
  6
CONTINUOUS
 10
13.3691097184
 20
2.5540823481
 11
13.3272456952
 21
2.5540823481
  0
ARC
  5
323
100
AcDbEntity
  8
0
100
AcDbCircle
 62
2
  6
CONTINUOUS
 10
13.3272456933
 20
2.5565573476
 40
0.0024749995
100
AcDbArc
 50
179.9999571957
 51
270.0000428043
  0
LINE
  5
324
100
AcDbEntity
  8
0
100
AcDbLine
 62
2
  6
CONTINUOUS
 10
13.3247706938
 20
2.5565573495
 11
13.3247706938
 21
2.564807354
  0
ARC
  5
325
100
AcDbEntity
  8
0
100
AcDbCircle
 62
2
  6
CONTINUOUS
 10
13.3222956943
 20
2.5648073559
 40
0.0024749995
100
AcDbArc
 50
359.9999571957
 51
90.0000428043
  0
LINE
  5
326
100
AcDbEntity
  8
0
100
AcDbLine
 62
2
  6
CONTINUOUS
 10
13.3222956924
 20
2.5672823554
 11
13.2582556569
 21
2.5672823554
  0
ARC
  5
327
100
AcDbEntity
  8
0
100
AcDbCircle
 62
2
  6
CONTINUOUS
 10
13.2582556551
 20
2.5648073559
 40
0.0024749995
100
AcDbArc
 50
89.9999571957
 51
180.0000428043
  0
LINE
  5
328
100
AcDbEntity
  8
0
100
AcDbLine
 62
2
  6
CONTINUOUS
 10
13.2557806555
 20
2.564807354
 11
13.2557806555
 21
2.5532573476
  0
ARC
  5
329
100
AcDbEntity
  8
0
100
AcDbCircle
 62
2
  6
CONTINUOUS
 10
13.2582556551
 20
2.5532573458
 40
0.0024749995
100
AcDbArc
 50
179.9999571957
 51
270.0000428043
  0
LINE
  5
32A
100
AcDbEntity
  8
0
100
AcDbLine
 62
2
  6
CONTINUOUS
 10
13.2582556569
 20
2.5507823463
 11
13.2934226764
 21
2.5507823463
  0
ARC
  5
32B
100
AcDbEntity
  8
0
100
AcDbCircle
 62
2
  6
CONTINUOUS
 10
13.2934226783
 20
2.5483073467
 40
0.0024749995
100
AcDbArc
 50
359.9999571957
 51
90.0000428043
  0
LINE
  5
32C
100
AcDbEntity
  8
0
100
AcDbLine
 62
2
  6
CONTINUOUS
 10
13.2958976778
 20
2.5483073449
 11
13.2958976778
 21
2.5349523375
  0
ARC
  5
32D
100
AcDbEntity
  8
0
100
AcDbCircle
 62
2
  6
CONTINUOUS
 10
13.2934226783
 20
2.5349523356
 40
0.0024749995
100
AcDbArc
 50
269.9999571957
 51
0.0000428042
  0
LINE
  5
32E
100
AcDbEntity
  8
0
100
AcDbLine
 62
2
  6
CONTINUOUS
 10
13.7286871589
 20
2.5350697372
 11
13.7286871589
 21
2.5456869438
  0
LINE
  5
32F
100
AcDbEntity
  8
0
100
AcDbLine
 62
2
  6
CONTINUOUS
 10
13.7086871478
 20
2.5004302075
 11
13.7086871478
 21
2.5803264735
  0
LINE
  5
330
100
AcDbEntity
  8
0
100
AcDbLine
 62
2
  6
CONTINUOUS
 10
13.6886871368
 20
2.4843919416
 11
13.6886871368
 21
2.5963647394
  0
LINE
  5
331
100
AcDbEntity
  8
0
100
AcDbLine
 62
2
  6
CONTINUOUS
 10
13.6686871257
 20
2.4726017898
 11
13.6686871257
 21
2.6081548911
  0
LINE
  5
332
100
AcDbEntity
  8
0
100
AcDbLine
 62
2
  6
CONTINUOUS
 10
13.6486871146
 20
2.4628062688
 11
13.6486871146
 21
2.6179504122
  0
LINE
  5
333
100
AcDbEntity
  8
0
100
AcDbLine
 62
2
  6
CONTINUOUS
 10
13.6286871035
 20
2.4541253507
 11
13.6286871035
 21
2.5062483056
  0
LINE
  5
334
100
AcDbEntity
  8
0
100
AcDbLine
 62
2
  6
CONTINUOUS
 10
13.6286871035
 20
2.5301143348
 11
13.6286871035
 21
2.6266313303
  0
LINE
  5
335
100
AcDbEntity
  8
0
100
AcDbLine
 62
2
  6
CONTINUOUS
 10
13.6086870924
 20
2.4465537903
 11
13.6086870924
 21
2.4918774918
  0
LINE
  5
336
100
AcDbEntity
  8
0
100
AcDbLine
 62
2
  6
CONTINUOUS
 10
13.6086870924
 20
2.5165781173
 11
13.6086870924
 21
2.6342028907
  0
LINE
  5
337
100
AcDbEntity
  8
0
100
AcDbLine
 62
2
  6
CONTINUOUS
 10
13.5886870813
 20
2.4398033466
 11
13.5886870813
 21
2.4912273132
  0
LINE
  5
338
100
AcDbEntity
  8
0
100
AcDbLine
 62
2
  6
CONTINUOUS
 10
13.5886870813
 20
2.5391840845
 11
13.5886870813
 21
2.5454298327
  0
LINE
  5
339
100
AcDbEntity
  8
0
100
AcDbLine
 62
2
  6
CONTINUOUS
 10
13.5886870813
 20
2.5862063472
 11
13.5886870813
 21
2.6409533343
  0
LINE
  5
33A
100
AcDbEntity
  8
0
100
AcDbLine
 62
2
  6
CONTINUOUS
 10
13.5686870702
 20
2.4334702189
 11
13.5686870702
 21
2.4912273132
  0
LINE
  5
33B
100
AcDbEntity
  8
0
100
AcDbLine
 62
2
  6
CONTINUOUS
 10
13.5686870702
 20
2.5906587765
 11
13.5686870702
 21
2.647286462
  0
LINE
  5
33C
100
AcDbEntity
  8
0
100
AcDbLine
 62
2
  6
CONTINUOUS
 10
13.5486870591
 20
2.4278968124
 11
13.5486870591
 21
2.4937461006
  0
LINE
  5
33D
100
AcDbEntity
  8
0
100
AcDbLine
 62
2
  6
CONTINUOUS
 10
13.5486870591
 20
2.5920323691
 11
13.5486870591
 21
2.6528598686
  0
LINE
  5
33E
100
AcDbEntity
  8
0
100
AcDbLine
 62
2
  6
CONTINUOUS
 10
13.528687048
 20
2.4225427674
 11
13.528687048
 21
2.5270426993
  0
LINE
  5
33F
100
AcDbEntity
  8
0
100
AcDbLine
 62
2
  6
CONTINUOUS
 10
13.528687048
 20
2.5505166259
 11
13.528687048
 21
2.5668657091
  0
LINE
  5
340
100
AcDbEntity
  8
0
100
AcDbLine
 62
2
  6
CONTINUOUS
 10
13.528687048
 20
2.5920323691
 11
13.528687048
 21
2.6582139136
  0
LINE
  5
341
100
AcDbEntity
  8
0
100
AcDbLine
 62
2
  6
CONTINUOUS
 10
13.5086870369
 20
2.4177306791
 11
13.5086870369
 21
2.4912273132
  0
LINE
  5
342
100
AcDbEntity
  8
0
100
AcDbLine
 62
2
  6
CONTINUOUS
 10
13.5086870369
 20
2.5159553269
 11
13.5086870369
 21
2.5306043351
  0
LINE
  5
343
100
AcDbEntity
  8
0
100
AcDbLine
 62
2
  6
CONTINUOUS
 10
13.5086870369
 20
2.5496073456
 11
13.5086870369
 21
2.5672823554
  0
LINE
  5
344
100
AcDbEntity
  8
0
100
AcDbLine
 62
2
  6
CONTINUOUS
 10
13.5086870369
 20
2.5920323691
 11
13.5086870369
 21
2.6630260019
  0
LINE
  5
345
100
AcDbEntity
  8
0
100
AcDbLine
 62
2
  6
CONTINUOUS
 10
13.4886870258
 20
2.4131795254
 11
13.4886870258
 21
2.4912273132
  0
LINE
  5
346
100
AcDbEntity
  8
0
100
AcDbLine
 62
2
  6
CONTINUOUS
 10
13.4886870258
 20
2.5159553269
 11
13.4886870258
 21
2.5306043351
  0
LINE
  5
347
100
AcDbEntity
  8
0
100
AcDbLine
 62
2
  6
CONTINUOUS
 10
13.4886870258
 20
2.5496073456
 11
13.4886870258
 21
2.5672823554
  0
LINE
  5
348
100
AcDbEntity
  8
0
100
AcDbLine
 62
2
  6
CONTINUOUS
 10
13.4886870258
 20
2.5920323691
 11
13.4886870258
 21
2.6675771555
  0
LINE
  5
349
100
AcDbEntity
  8
0
100
AcDbLine
 62
2
  6
CONTINUOUS
 10
13.4686870147
 20
2.4088819672
 11
13.4686870147
 21
2.4912273132
  0
LINE
  5
34A
100
AcDbEntity
  8
0
100
AcDbLine
 62
2
  6
CONTINUOUS
 10
13.4686870147
 20
2.5920323691
 11
13.4686870147
 21
2.6718747138
  0
LINE
  5
34B
100
AcDbEntity
  8
0
100
AcDbLine
 62
2
  6
CONTINUOUS
 10
13.4486870037
 20
2.4050092072
 11
13.4486870037
 21
2.4912273132
  0
LINE
  5
34C
100
AcDbEntity
  8
0
100
AcDbLine
 62
2
  6
CONTINUOUS
 10
13.4486870037
 20
2.5920323691
 11
13.4486870037
 21
2.6757474738
  0
LINE
  5
34D
100
AcDbEntity
  8
0
100
AcDbLine
 62
2
  6
CONTINUOUS
 10
13.4286869926
 20
2.4011364471
 11
13.4286869926
 21
2.4912273132
  0
LINE
  5
34E
100
AcDbEntity
  8
0
100
AcDbLine
 62
2
  6
CONTINUOUS
 10
13.4286869926
 20
2.5920323691
 11
13.4286869926
 21
2.6796202339
  0
LINE
  5
34F
100
AcDbEntity
  8
0
100
AcDbLine
 62
2
  6
CONTINUOUS
 10
13.4086869815
 20
2.3980226662
 11
13.4086869815
 21
2.4912273132
  0
LINE
  5
350
100
AcDbEntity
  8
0
100
AcDbLine
 62
2
  6
CONTINUOUS
 10
13.4086869815
 20
2.515977327
 11
13.4086869815
 21
2.5672823554
  0
LINE
  5
351
100
AcDbEntity
  8
0
100
AcDbLine
 62
2
  6
CONTINUOUS
 10
13.4086869815
 20
2.5920323691
 11
13.4086869815
 21
2.6827340148
  0
LINE
  5
352
100
AcDbEntity
  8
0
100
AcDbLine
 62
2
  6
CONTINUOUS
 10
13.3886869704
 20
2.3950052774
 11
13.3886869704
 21
2.6857514036
  0
LINE
  5
353
100
AcDbEntity
  8
0
100
AcDbLine
 62
2
  6
CONTINUOUS
 10
13.3686869593
 20
2.3919878885
 11
13.3686869593
 21
2.4912273132
  0
LINE
  5
354
100
AcDbEntity
  8
0
100
AcDbLine
 62
2
  6
CONTINUOUS
 10
13.3686869593
 20
2.5291773343
 11
13.3686869593
 21
2.5540823481
  0
LINE
  5
355
100
AcDbEntity
  8
0
100
AcDbLine
 62
2
  6
CONTINUOUS
 10
13.3686869593
 20
2.5920323691
 11
13.3686869593
 21
2.6887687924
  0
LINE
  5
356
100
AcDbEntity
  8
0
100
AcDbLine
 62
2
  6
CONTINUOUS
 10
13.3486869482
 20
2.3889704997
 11
13.3486869482
 21
2.4912273132
  0
LINE
  5
357
100
AcDbEntity
  8
0
100
AcDbLine
 62
2
  6
CONTINUOUS
 10
13.3486869482
 20
2.5291773343
 11
13.3486869482
 21
2.5540823481
  0
LINE
  5
358
100
AcDbEntity
  8
0
100
AcDbLine
 62
2
  6
CONTINUOUS
 10
13.3486869482
 20
2.5920323691
 11
13.3486869482
 21
2.6917861813
  0
LINE
  5
359
100
AcDbEntity
  8
0
100
AcDbLine
 62
2
  6
CONTINUOUS
 10
13.3286869371
 20
2.3859531109
 11
13.3286869371
 21
2.4912273132
  0
LINE
  5
35A
100
AcDbEntity
  8
0
100
AcDbLine
 62
2
  6
CONTINUOUS
 10
13.3286869371
 20
2.5291773343
 11
13.3286869371
 21
2.5540823481
  0
LINE
  5
35B
100
AcDbEntity
  8
0
100
AcDbLine
 62
2
  6
CONTINUOUS
 10
13.3286869371
 20
2.5920323691
 11
13.3286869371
 21
2.6948035701
  0
LINE
  5
35C
100
AcDbEntity
  8
0
100
AcDbLine
 62
2
  6
CONTINUOUS
 10
13.308686926
 20
2.3833355437
 11
13.308686926
 21
2.4912273132
  0
LINE
  5
35D
100
AcDbEntity
  8
0
100
AcDbLine
 62
2
  6
CONTINUOUS
 10
13.308686926
 20
2.515977327
 11
13.308686926
 21
2.5672823554
  0
LINE
  5
35E
100
AcDbEntity
  8
0
100
AcDbLine
 62
2
  6
CONTINUOUS
 10
13.308686926
 20
2.5920323691
 11
13.308686926
 21
2.6974211373
  0
LINE
  5
35F
100
AcDbEntity
  8
0
100
AcDbLine
 62
2
  6
CONTINUOUS
 10
13.2886869149
 20
2.3812612684
 11
13.2886869149
 21
2.4912273132
  0
LINE
  5
360
100
AcDbEntity
  8
0
100
AcDbLine
 62
2
  6
CONTINUOUS
 10
13.2886869149
 20
2.515977327
 11
13.2886869149
 21
2.5324773361
  0
LINE
  5
361
100
AcDbEntity
  8
0
100
AcDbLine
 62
2
  6
CONTINUOUS
 10
13.2886869149
 20
2.5507823463
 11
13.2886869149
 21
2.5672823554
  0
LINE
  5
362
100
AcDbEntity
  8
0
100
AcDbLine
 62
2
  6
CONTINUOUS
 10
13.2886869149
 20
2.5920323691
 11
13.2886869149
 21
2.6994954125
  0
LINE
  5
363
100
AcDbEntity
  8
0
100
AcDbLine
 62
2
  6
CONTINUOUS
 10
13.2686869038
 20
2.3791869932
 11
13.2686869038
 21
2.4912273132
  0
LINE
  5
364
100
AcDbEntity
  8
0
100
AcDbLine
 62
2
  6
CONTINUOUS
 10
13.2686869038
 20
2.515977327
 11
13.2686869038
 21
2.5324773361
  0
LINE
  5
365
100
AcDbEntity
  8
0
100
AcDbLine
 62
2
  6
CONTINUOUS
 10
13.2686869038
 20
2.5507823463
 11
13.2686869038
 21
2.5672823554
  0
LINE
  5
366
100
AcDbEntity
  8
0
100
AcDbLine
 62
2
  6
CONTINUOUS
 10
13.2686869038
 20
2.5920323691
 11
13.2686869038
 21
2.7015696878
  0
LINE
  5
367
100
AcDbEntity
  8
0
100
AcDbLine
 62
2
  6
CONTINUOUS
 10
13.2486868927
 20
2.377112718
 11
13.2486868927
 21
2.4912273132
  0
LINE
  5
368
100
AcDbEntity
  8
0
100
AcDbLine
 62
2
  6
CONTINUOUS
 10
13.2486868927
 20
2.5920323691
 11
13.2486868927
 21
2.703643963
  0
LINE
  5
369
100
AcDbEntity
  8
0
100
AcDbLine
 62
2
  6
CONTINUOUS
 10
13.2286868817
 20
2.3750384428
 11
13.2286868817
 21
2.4912273132
  0
LINE
  5
36A
100
AcDbEntity
  8
0
100
AcDbLine
 62
2
  6
CONTINUOUS
 10
13.2286868817
 20
2.5920323691
 11
13.2286868817
 21
2.7057182382
  0
LINE
  5
36B
100
AcDbEntity
  8
0
100
AcDbLine
 62
2
  6
CONTINUOUS
 10
13.2086868706
 20
2.3729641676
 11
13.2086868706
 21
2.4912273132
  0
LINE
  5
36C
100
AcDbEntity
  8
0
100
AcDbLine
 62
2
  6
CONTINUOUS
 10
13.2086868706
 20
2.5920323691
 11
13.2086868706
 21
2.7077925134
  0
LINE
  5
36D
100
AcDbEntity
  8
0
100
AcDbLine
 62
2
  6
CONTINUOUS
 10
13.1886868595
 20
2.3712344456
 11
13.1886868595
 21
2.4912273132
  0
LINE
  5
36E
100
AcDbEntity
  8
0
100
AcDbLine
 62
2
  6
CONTINUOUS
 10
13.1886868595
 20
2.515977327
 11
13.1886868595
 21
2.5672823554
  0
LINE
  5
36F
100
AcDbEntity
  8
0
100
AcDbLine
 62
2
  6
CONTINUOUS
 10
13.1886868595
 20
2.5920323691
 11
13.1886868595
 21
2.7095222354
  0
LINE
  5
370
100
AcDbEntity
  8
0
100
AcDbLine
 62
2
  6
CONTINUOUS
 10
13.1686868484
 20
2.3699682418
 11
13.1686868484
 21
2.4912273132
  0
LINE
  5
371
100
AcDbEntity
  8
0
100
AcDbLine
 62
2
  6
CONTINUOUS
 10
13.1686868484
 20
2.515977327
 11
13.1686868484
 21
2.5672823554
  0
LINE
  5
372
100
AcDbEntity
  8
0
100
AcDbLine
 62
2
  6
CONTINUOUS
 10
13.1686868484
 20
2.5920323691
 11
13.1686868484
 21
2.7107884392
  0
LINE
  5
373
100
AcDbEntity
  8
0
100
AcDbLine
 62
2
  6
CONTINUOUS
 10
13.1486868373
 20
2.3687020381
 11
13.1486868373
 21
2.7120546429
  0
LINE
  5
374
100
AcDbEntity
  8
0
100
AcDbLine
 62
2
  6
CONTINUOUS
 10
13.1286868262
 20
2.3674358343
 11
13.1286868262
 21
2.5672823554
  0
LINE
  5
375
100
AcDbEntity
  8
0
100
AcDbLine
 62
2
  6
CONTINUOUS
 10
13.1286868262
 20
2.5920323691
 11
13.1286868262
 21
2.7133208466
  0
LINE
  5
376
100
AcDbEntity
  8
0
100
AcDbLine
 62
2
  6
CONTINUOUS
 10
13.1086868151
 20
2.3661696306
 11
13.1086868151
 21
2.4912273132
  0
LINE
  5
377
100
AcDbEntity
  8
0
100
AcDbLine
 62
2
  6
CONTINUOUS
 10
13.1086868151
 20
2.5920323691
 11
13.1086868151
 21
2.7145870504
  0
LINE
  5
378
100
AcDbEntity
  8
0
100
AcDbLine
 62
2
  6
CONTINUOUS
 10
13.088686804
 20
2.3649034269
 11
13.088686804
 21
2.4912273132
  0
LINE
  5
379
100
AcDbEntity
  8
0
100
AcDbLine
 62
2
  6
CONTINUOUS
 10
13.088686804
 20
2.5920323691
 11
13.088686804
 21
2.7158532541
  0
LINE
  5
37A
100
AcDbEntity
  8
0
100
AcDbLine
 62
2
  6
CONTINUOUS
 10
13.0686867929
 20
2.3636739922
 11
13.0686867929
 21
2.4912273132
  0
LINE
  5
37B
100
AcDbEntity
  8
0
100
AcDbLine
 62
2
  6
CONTINUOUS
 10
13.0686867929
 20
2.5475272398
 11
13.0686867929
 21
2.5672823554
  0
LINE
  5
37C
100
AcDbEntity
  8
0
100
AcDbLine
 62
2
  6
CONTINUOUS
 10
13.0686867929
 20
2.5920323691
 11
13.0686867929
 21
2.7170826887
  0
LINE
  5
37D
100
AcDbEntity
  8
0
100
AcDbLine
 62
2
  6
CONTINUOUS
 10
13.0486867818
 20
2.363143203
 11
13.0486867818
 21
2.4912273132
  0
LINE
  5
37E
100
AcDbEntity
  8
0
100
AcDbLine
 62
2
  6
CONTINUOUS
 10
13.0486867818
 20
2.5666100882
 11
13.0486867818
 21
2.717613478
  0
LINE
  5
37F
100
AcDbEntity
  8
0
100
AcDbLine
 62
2
  6
CONTINUOUS
 10
13.0286867707
 20
2.3626124138
 11
13.0286867707
 21
2.50359263
  0
LINE
  5
380
100
AcDbEntity
  8
0
100
AcDbLine
 62
2
  6
CONTINUOUS
 10
13.0286867707
 20
2.5856929366
 11
13.0286867707
 21
2.7181442672
  0
LINE
  5
381
100
AcDbEntity
  8
0
100
AcDbLine
 62
2
  6
CONTINUOUS
 10
13.0086867596
 20
2.3620816246
 11
13.0086867596
 21
2.5226754472
  0
LINE
  5
382
100
AcDbEntity
  8
0
100
AcDbLine
 62
2
  6
CONTINUOUS
 10
13.0086867596
 20
2.5920323691
 11
13.0086867596
 21
2.7186750564
  0
LINE
  5
383
100
AcDbEntity
  8
0
100
AcDbLine
 62
2
  6
CONTINUOUS
 10
12.9886867486
 20
2.3615508354
 11
12.9886867486
 21
2.4912273132
  0
LINE
  5
384
100
AcDbEntity
  8
0
100
AcDbLine
 62
2
  6
CONTINUOUS
 10
12.9886867486
 20
2.515977327
 11
12.9886867486
 21
2.5417582644
  0
LINE
  5
385
100
AcDbEntity
  8
0
100
AcDbLine
 62
2
  6
CONTINUOUS
 10
12.9886867486
 20
2.5920323691
 11
12.9886867486
 21
2.7192058456
  0
LINE
  5
386
100
AcDbEntity
  8
0
100
AcDbLine
 62
2
  6
CONTINUOUS
 10
12.9686867375
 20
2.3610200462
 11
12.9686867375
 21
2.4912273132
  0
LINE
  5
387
100
AcDbEntity
  8
0
100
AcDbLine
 62
2
  6
CONTINUOUS
 10
12.9686867375
 20
2.5920323691
 11
12.9686867375
 21
2.7197366348
  0
LINE
  5
388
100
AcDbEntity
  8
0
100
AcDbLine
 62
2
  6
CONTINUOUS
 10
12.9486867264
 20
2.360489257
 11
12.9486867264
 21
2.4912273132
  0
LINE
  5
389
100
AcDbEntity
  8
0
100
AcDbLine
 62
2
  6
CONTINUOUS
 10
12.9486867264
 20
2.5920323691
 11
12.9486867264
 21
2.720267424
  0
LINE
  5
38A
100
AcDbEntity
  8
0
100
AcDbLine
 62
2
  6
CONTINUOUS
 10
12.9286867153
 20
2.3602836008
 11
12.9286867153
 21
2.4912273132
  0
LINE
  5
38B
100
AcDbEntity
  8
0
100
AcDbLine
 62
2
  6
CONTINUOUS
 10
12.9286867153
 20
2.515977327
 11
12.9286867153
 21
2.5672823554
  0
LINE
  5
38C
100
AcDbEntity
  8
0
100
AcDbLine
 62
2
  6
CONTINUOUS
 10
12.9286867153
 20
2.5920323691
 11
12.9286867153
 21
2.7204730802
  0
LINE
  5
38D
100
AcDbEntity
  8
0
100
AcDbLine
 62
2
  6
CONTINUOUS
 10
12.9086867042
 20
2.3604597639
 11
12.9086867042
 21
2.7202969171
  0
LINE
  5
38E
100
AcDbEntity
  8
0
100
AcDbLine
 62
2
  6
CONTINUOUS
 10
12.8886866931
 20
2.360635927
 11
12.8886866931
 21
2.5672823554
  0
LINE
  5
38F
100
AcDbEntity
  8
0
100
AcDbLine
 62
2
  6
CONTINUOUS
 10
12.8886866931
 20
2.5920323691
 11
12.8886866931
 21
2.720120754
  0
LINE
  5
390
100
AcDbEntity
  8
0
100
AcDbLine
 62
2
  6
CONTINUOUS
 10
12.868686682
 20
2.3608120901
 11
12.868686682
 21
2.491232357
  0
LINE
  5
391
100
AcDbEntity
  8
0
100
AcDbLine
 62
2
  6
CONTINUOUS
 10
12.868686682
 20
2.5920323691
 11
12.868686682
 21
2.7199445909
  0
LINE
  5
392
100
AcDbEntity
  8
0
100
AcDbLine
 62
2
  6
CONTINUOUS
 10
12.8486866709
 20
2.3609882532
 11
12.8486866709
 21
2.4912273132
  0
LINE
  5
393
100
AcDbEntity
  8
0
100
AcDbLine
 62
2
  6
CONTINUOUS
 10
12.8486866709
 20
2.5920323691
 11
12.8486866709
 21
2.7197684278
  0
LINE
  5
394
100
AcDbEntity
  8
0
100
AcDbLine
 62
2
  6
CONTINUOUS
 10
12.8286866598
 20
2.3611644163
 11
12.8286866598
 21
2.4912273132
  0
LINE
  5
395
100
AcDbEntity
  8
0
100
AcDbLine
 62
2
  6
CONTINUOUS
 10
12.8286866598
 20
2.5396527025
 11
12.8286866598
 21
2.5672823554
  0
LINE
  5
396
100
AcDbEntity
  8
0
100
AcDbLine
 62
2
  6
CONTINUOUS
 10
12.8286866598
 20
2.5920323691
 11
12.8286866598
 21
2.7195922647
  0
LINE
  5
397
100
AcDbEntity
  8
0
100
AcDbLine
 62
2
  6
CONTINUOUS
 10
12.8086866487
 20
2.3613405794
 11
12.8086866487
 21
2.4912273132
  0
LINE
  5
398
100
AcDbEntity
  8
0
100
AcDbLine
 62
2
  6
CONTINUOUS
 10
12.8086866487
 20
2.5587355508
 11
12.8086866487
 21
2.7194161016
  0
LINE
  5
399
100
AcDbEntity
  8
0
100
AcDbLine
 62
2
  6
CONTINUOUS
 10
12.7886866376
 20
2.3621089572
 11
12.7886866376
 21
2.4957181055
  0
LINE
  5
39A
100
AcDbEntity
  8
0
100
AcDbLine
 62
2
  6
CONTINUOUS
 10
12.7886866376
 20
2.5778183992
 11
12.7886866376
 21
2.7186477238
  0
LINE
  5
39B
100
AcDbEntity
  8
0
100
AcDbLine
 62
2
  6
CONTINUOUS
 10
12.7686866266
 20
2.3630013935
 11
12.7686866266
 21
2.5148009227
  0
LINE
  5
39C
100
AcDbEntity
  8
0
100
AcDbLine
 62
2
  6
CONTINUOUS
 10
12.7686866266
 20
2.5920323691
 11
12.7686866266
 21
2.7177552874
  0
LINE
  5
39D
100
AcDbEntity
  8
0
100
AcDbLine
 62
2
  6
CONTINUOUS
 10
12.7486866155
 20
2.3638938299
 11
12.7486866155
 21
2.4913263218
  0
LINE
  5
39E
100
AcDbEntity
  8
0
100
AcDbLine
 62
2
  6
CONTINUOUS
 10
12.7486866155
 20
2.5158783184
 11
12.7486866155
 21
2.5338837399
  0
LINE
  5
39F
100
AcDbEntity
  8
0
100
AcDbLine
 62
2
  6
CONTINUOUS
 10
12.7486866155
 20
2.5920323691
 11
12.7486866155
 21
2.7168628511
  0
LINE
  5
3A0
100
AcDbEntity
  8
0
100
AcDbLine
 62
2
  6
CONTINUOUS
 10
12.7286866044
 20
2.3647862663
 11
12.7286866044
 21
2.4912273132
  0
LINE
  5
3A1
100
AcDbEntity
  8
0
100
AcDbLine
 62
2
  6
CONTINUOUS
 10
12.7286866044
 20
2.515977327
 11
12.7286866044
 21
2.5527601554
  0
LINE
  5
3A2
100
AcDbEntity
  8
0
100
AcDbLine
 62
2
  6
CONTINUOUS
 10
12.7286866044
 20
2.5920323691
 11
12.7286866044
 21
2.7159704147
  0
LINE
  5
3A3
100
AcDbEntity
  8
0
100
AcDbLine
 62
2
  6
CONTINUOUS
 10
12.7086865933
 20
2.3656787026
 11
12.7086865933
 21
2.4912273132
  0
LINE
  5
3A4
100
AcDbEntity
  8
0
100
AcDbLine
 62
2
  6
CONTINUOUS
 10
12.7086865933
 20
2.5920323691
 11
12.7086865933
 21
2.7150779784
  0
LINE
  5
3A5
100
AcDbEntity
  8
0
100
AcDbLine
 62
2
  6
CONTINUOUS
 10
12.6886865822
 20
2.366571139
 11
12.6886865822
 21
2.4912273132
  0
LINE
  5
3A6
100
AcDbEntity
  8
0
100
AcDbLine
 62
2
  6
CONTINUOUS
 10
12.6886865822
 20
2.515977327
 11
12.6886865822
 21
2.5672823554
  0
LINE
  5
3A7
100
AcDbEntity
  8
0
100
AcDbLine
 62
2
  6
CONTINUOUS
 10
12.6886865822
 20
2.5920323691
 11
12.6886865822
 21
2.714185542
  0
LINE
  5
3A8
100
AcDbEntity
  8
0
100
AcDbLine
 62
2
  6
CONTINUOUS
 10
12.6686865711
 20
2.3677104027
 11
12.6686865711
 21
2.7130462783
  0
LINE
  5
3A9
100
AcDbEntity
  8
0
100
AcDbLine
 62
2
  6
CONTINUOUS
 10
12.64868656
 20
2.3693682721
 11
12.64868656
 21
2.7113884089
  0
LINE
  5
3AA
100
AcDbEntity
  8
0
100
AcDbLine
 62
2
  6
CONTINUOUS
 10
12.6286865489
 20
2.3710261415
 11
12.6286865489
 21
2.4912273132
  0
LINE
  5
3AB
100
AcDbEntity
  8
0
100
AcDbLine
 62
2
  6
CONTINUOUS
 10
12.6286865489
 20
2.515977327
 11
12.6286865489
 21
2.7097305395
  0
LINE
  5
3AC
100
AcDbEntity
  8
0
100
AcDbLine
 62
2
  6
CONTINUOUS
 10
12.6086865378
 20
2.372684011
 11
12.6086865378
 21
2.4912273132
  0
LINE
  5
3AD
100
AcDbEntity
  8
0
100
AcDbLine
 62
2
  6
CONTINUOUS
 10
12.6086865378
 20
2.5351122279
 11
12.6086865378
 21
2.70807267
  0
LINE
  5
3AE
100
AcDbEntity
  8
0
100
AcDbLine
 62
2
  6
CONTINUOUS
 10
12.5886865267
 20
2.3743418804
 11
12.5886865267
 21
2.4912273132
  0
LINE
  5
3AF
100
AcDbEntity
  8
0
100
AcDbLine
 62
2
  6
CONTINUOUS
 10
12.5886865267
 20
2.5660172622
 11
12.5886865267
 21
2.7064148006
  0
LINE
  5
3B0
100
AcDbEntity
  8
0
100
AcDbLine
 62
2
  6
CONTINUOUS
 10
12.5686865156
 20
2.3759997498
 11
12.5686865156
 21
2.4912273132
  0
LINE
  5
3B1
100
AcDbEntity
  8
0
100
AcDbLine
 62
2
  6
CONTINUOUS
 10
12.5686865156
 20
2.5920323691
 11
12.5686865156
 21
2.7047569312
  0
LINE
  5
3B2
100
AcDbEntity
  8
0
100
AcDbLine
 62
2
  6
CONTINUOUS
 10
12.5486865045
 20
2.3777575277
 11
12.5486865045
 21
2.4912273132
  0
LINE
  5
3B3
100
AcDbEntity
  8
0
100
AcDbLine
 62
2
  6
CONTINUOUS
 10
12.5486865045
 20
2.515977327
 11
12.5486865045
 21
2.5275118824
  0
LINE
  5
3B4
100
AcDbEntity
  8
0
100
AcDbLine
 62
2
  6
CONTINUOUS
 10
12.5486865045
 20
2.5920323691
 11
12.5486865045
 21
2.7029991533
  0
LINE
  5
3B5
100
AcDbEntity
  8
0
100
AcDbLine
 62
2
  6
CONTINUOUS
 10
12.5286864935
 20
2.3802813811
 11
12.5286864935
 21
2.5296213345
  0
LINE
  5
3B6
100
AcDbEntity
  8
0
100
AcDbLine
 62
2
  6
CONTINUOUS
 10
12.5286864935
 20
2.5505713461
 11
12.5286864935
 21
2.5667383551
  0
LINE
  5
3B7
100
AcDbEntity
  8
0
100
AcDbLine
 62
2
  6
CONTINUOUS
 10
12.5286864935
 20
2.5920323691
 11
12.5286864935
 21
2.7004752999
  0
LINE
  5
3B8
100
AcDbEntity
  8
0
100
AcDbLine
 62
2
  6
CONTINUOUS
 10
12.5086864824
 20
2.3828052346
 11
12.5086864824
 21
2.4912273132
  0
LINE
  5
3B9
100
AcDbEntity
  8
0
100
AcDbLine
 62
2
  6
CONTINUOUS
 10
12.5086864824
 20
2.515977327
 11
12.5086864824
 21
2.5279667721
  0
LINE
  5
3BA
100
AcDbEntity
  8
0
100
AcDbLine
 62
2
  6
CONTINUOUS
 10
12.5086864824
 20
2.5868602074
 11
12.5086864824
 21
2.6979514464
  0
LINE
  5
3BB
100
AcDbEntity
  8
0
100
AcDbLine
 62
2
  6
CONTINUOUS
 10
12.4886864713
 20
2.385329088
 11
12.4886864713
 21
2.4912273132
  0
LINE
  5
3BC
100
AcDbEntity
  8
0
100
AcDbLine
 62
2
  6
CONTINUOUS
 10
12.4886864713
 20
2.5553401045
 11
12.4886864713
 21
2.695427593
  0
LINE
  5
3BD
100
AcDbEntity
  8
0
100
AcDbLine
 62
2
  6
CONTINUOUS
 10
12.4686864602
 20
2.3878529415
 11
12.4686864602
 21
2.4912273132
  0
LINE
  5
3BE
100
AcDbEntity
  8
0
100
AcDbLine
 62
2
  6
CONTINUOUS
 10
12.4686864602
 20
2.5238200015
 11
12.4686864602
 21
2.6929037395
  0
LINE
  5
3BF
100
AcDbEntity
  8
0
100
AcDbLine
 62
2
  6
CONTINUOUS
 10
12.4486864491
 20
2.390376795
 11
12.4486864491
 21
2.4912273132
  0
LINE
  5
3C0
100
AcDbEntity
  8
0
100
AcDbLine
 62
2
  6
CONTINUOUS
 10
12.4486864491
 20
2.515977327
 11
12.4486864491
 21
2.690379886
  0
LINE
  5
3C1
100
AcDbEntity
  8
0
100
AcDbLine
 62
2
  6
CONTINUOUS
 10
12.428686438
 20
2.3931794042
 11
12.428686438
 21
2.6875772768
  0
LINE
  5
3C2
100
AcDbEntity
  8
0
100
AcDbLine
 62
2
  6
CONTINUOUS
 10
12.4086864269
 20
2.3964643301
 11
12.4086864269
 21
2.5013773986
  0
LINE
  5
3C3
100
AcDbEntity
  8
0
100
AcDbLine
 62
2
  6
CONTINUOUS
 10
12.4086864269
 20
2.5325739971
 11
12.4086864269
 21
2.5537224311
  0
LINE
  5
3C4
100
AcDbEntity
  8
0
100
AcDbLine
 62
2
  6
CONTINUOUS
 10
12.4086864269
 20
2.5791473398
 11
12.4086864269
 21
2.6842923509
  0
LINE
  5
3C5
100
AcDbEntity
  8
0
100
AcDbLine
 62
2
  6
CONTINUOUS
 10
12.3886864158
 20
2.399749256
 11
12.3886864158
 21
2.4921022658
  0
LINE
  5
3C6
100
AcDbEntity
  8
0
100
AcDbLine
 62
2
  6
CONTINUOUS
 10
12.3886864158
 20
2.5895929958
 11
12.3886864158
 21
2.681007425
  0
LINE
  5
3C7
100
AcDbEntity
  8
0
100
AcDbLine
 62
2
  6
CONTINUOUS
 10
12.3686864047
 20
2.403451877
 11
12.3686864047
 21
2.4912273132
  0
LINE
  5
3C8
100
AcDbEntity
  8
0
100
AcDbLine
 62
2
  6
CONTINUOUS
 10
12.3686864047
 20
2.5920323691
 11
12.3686864047
 21
2.677304804
  0
LINE
  5
3C9
100
AcDbEntity
  8
0
100
AcDbLine
 62
2
  6
CONTINUOUS
 10
12.3486863936
 20
2.407324637
 11
12.3486863936
 21
2.4912273132
  0
LINE
  5
3CA
100
AcDbEntity
  8
0
100
AcDbLine
 62
2
  6
CONTINUOUS
 10
12.3486863936
 20
2.5920323691
 11
12.3486863936
 21
2.673432044
  0
LINE
  5
3CB
100
AcDbEntity
  8
0
100
AcDbLine
 62
2
  6
CONTINUOUS
 10
12.3286863825
 20
2.4113493968
 11
12.3286863825
 21
2.4912273132
  0
LINE
  5
3CC
100
AcDbEntity
  8
0
100
AcDbLine
 62
2
  6
CONTINUOUS
 10
12.3286863825
 20
2.515977327
 11
12.3286863825
 21
2.5333023366
  0
LINE
  5
3CD
100
AcDbEntity
  8
0
100
AcDbLine
 62
2
  6
CONTINUOUS
 10
12.3286863825
 20
2.5499573458
 11
12.3286863825
 21
2.5672823554
  0
LINE
  5
3CE
100
AcDbEntity
  8
0
100
AcDbLine
 62
2
  6
CONTINUOUS
 10
12.3286863825
 20
2.5920323691
 11
12.3286863825
 21
2.6694072842
  0
LINE
  5
3CF
100
AcDbEntity
  8
0
100
AcDbLine
 62
2
  6
CONTINUOUS
 10
12.3086863715
 20
2.4159005505
 11
12.3086863715
 21
2.4912273132
  0
LINE
  5
3D0
100
AcDbEntity
  8
0
100
AcDbLine
 62
2
  6
CONTINUOUS
 10
12.3086863715
 20
2.515977327
 11
12.3086863715
 21
2.5333023366
  0
LINE
  5
3D1
100
AcDbEntity
  8
0
100
AcDbLine
 62
2
  6
CONTINUOUS
 10
12.3086863715
 20
2.5499573458
 11
12.3086863715
 21
2.5672823554
  0
LINE
  5
3D2
100
AcDbEntity
  8
0
100
AcDbLine
 62
2
  6
CONTINUOUS
 10
12.3086863715
 20
2.5920323691
 11
12.3086863715
 21
2.6648561305
  0
LINE
  5
3D3
100
AcDbEntity
  8
0
100
AcDbLine
 62
2
  6
CONTINUOUS
 10
12.2886863604
 20
2.4204517041
 11
12.2886863604
 21
2.4912273132
  0
LINE
  5
3D4
100
AcDbEntity
  8
0
100
AcDbLine
 62
2
  6
CONTINUOUS
 10
12.2886863604
 20
2.5920323691
 11
12.2886863604
 21
2.6603049769
  0
LINE
  5
3D5
100
AcDbEntity
  8
0
100
AcDbLine
 62
2
  6
CONTINUOUS
 10
12.2686863493
 20
2.4257438218
 11
12.2686863493
 21
2.4912273132
  0
LINE
  5
3D6
100
AcDbEntity
  8
0
100
AcDbLine
 62
2
  6
CONTINUOUS
 10
12.2686863493
 20
2.5920323691
 11
12.2686863493
 21
2.6550128592
  0
LINE
  5
3D7
100
AcDbEntity
  8
0
100
AcDbLine
 62
2
  6
CONTINUOUS
 10
12.2486863382
 20
2.4310978667
 11
12.2486863382
 21
2.4912273132
  0
LINE
  5
3D8
100
AcDbEntity
  8
0
100
AcDbLine
 62
2
  6
CONTINUOUS
 10
12.2486863382
 20
2.5920323691
 11
12.2486863382
 21
2.6496588142
  0
LINE
  5
3D9
100
AcDbEntity
  8
0
100
AcDbLine
 62
2
  6
CONTINUOUS
 10
12.2286863271
 20
2.4372566433
 11
12.2286863271
 21
2.4912273132
  0
LINE
  5
3DA
100
AcDbEntity
  8
0
100
AcDbLine
 62
2
  6
CONTINUOUS
 10
12.2286863271
 20
2.515977327
 11
12.2286863271
 21
2.5672823554
  0
LINE
  5
3DB
100
AcDbEntity
  8
0
100
AcDbLine
 62
2
  6
CONTINUOUS
 10
12.2286863271
 20
2.5920323691
 11
12.2286863271
 21
2.6435000377
  0
LINE
  5
3DC
100
AcDbEntity
  8
0
100
AcDbLine
 62
2
  6
CONTINUOUS
 10
12.208686316
 20
2.443589771
 11
12.208686316
 21
2.4912273132
  0
LINE
  5
3DD
100
AcDbEntity
  8
0
100
AcDbLine
 62
2
  6
CONTINUOUS
 10
12.208686316
 20
2.515977327
 11
12.208686316
 21
2.5672823554
  0
LINE
  5
3DE
100
AcDbEntity
  8
0
100
AcDbLine
 62
2
  6
CONTINUOUS
 10
12.208686316
 20
2.5920323691
 11
12.208686316
 21
2.63716691
  0
LINE
  5
3DF
100
AcDbEntity
  8
0
100
AcDbLine
 62
2
  6
CONTINUOUS
 10
12.1886863049
 20
2.4510806436
 11
12.1886863049
 21
2.6296760373
  0
LINE
  5
3E0
100
AcDbEntity
  8
0
100
AcDbLine
 62
2
  6
CONTINUOUS
 10
12.1686862938
 20
2.4591016523
 11
12.1686862938
 21
2.6216550287
  0
LINE
  5
3E1
100
AcDbEntity
  8
0
100
AcDbLine
 62
2
  6
CONTINUOUS
 10
12.1486862827
 20
2.468314272
 11
12.1486862827
 21
2.612442409
  0
LINE
  5
3E2
100
AcDbEntity
  8
0
100
AcDbLine
 62
2
  6
CONTINUOUS
 10
12.1286862716
 20
2.4794932339
 11
12.1286862716
 21
2.601263447
  0
LINE
  5
3E3
100
AcDbEntity
  8
0
100
AcDbLine
 62
2
  6
CONTINUOUS
 10
12.1086862605
 20
2.4934150665
 11
12.1086862605
 21
2.5873416144
  0
LINE
  5
3E4
100
AcDbEntity
  8
0
100
AcDbLine
 62
2
  6
CONTINUOUS
 10
12.0886862494
 20
2.5144449553
 11
12.0886862494
 21
2.5663117257
  0
ENDBLK
  5
3E5
100
AcDbEntity
  8
0
  6
BYBLOCK
 62
0
100
AcDbBlockEnd
  0
BLOCK
  5
3E6
100
AcDbEntity
  8
DRIVEN_DIMS
100
AcDbBlockBegin
 62
2
  6
CONTINUOUS
  2
*D0
 70
65
 10
0.0
 20
0.0
  3
*D0
  1

  0
TEXT
  5
3E7
100
AcDbEntity
  8
DRIVEN_DIMS
100
AcDbText
 62
2
  6
CONTINUOUS
 10
9.3340947756
 20
7.6330127026
  7
STANDARD
 40
0.1
  1
R
 41
1.0
 72
0
100
AcDbText
  0
TEXT
  5
3E8
100
AcDbEntity
  8
DRIVEN_DIMS
100
AcDbText
 62
2
  6
CONTINUOUS
 10
9.4340947756
 20
7.6330127026
  7
STANDARD
 40
0.1
  1
12,5
 41
1.0
 72
0
100
AcDbText
  0
TEXT
  5
3E9
100
AcDbEntity
  8
DRIVEN_DIMS
100
AcDbText
 62
2
  6
CONTINUOUS
 10
9.5340947756
 20
7.4830127026
  7
STANDARD
 40
0.1
  1
.49
 41
1.0
 72
0
100
AcDbText
  0
TEXT
  5
3EA
100
AcDbEntity
  8
DRIVEN_DIMS
100
AcDbText
 62
2
  6
CONTINUOUS
 10
9.4340947756
 20
7.4830127026
  7
STANDARD
 40
0.1
  1
[
 41
1.0
 72
0
100
AcDbText
  0
TEXT
  5
3EB
100
AcDbEntity
  8
DRIVEN_DIMS
100
AcDbText
 62
2
  6
CONTINUOUS
 10
9.8340947756
 20
7.4830127026
  7
STANDARD
 40
0.1
  1
]
 41
1.0
 72
0
100
AcDbText
  0
LINE
  5
3EC
100
AcDbEntity
  8
DRIVEN_DIMS
100
AcDbLine
 62
2
  6
CONTINUOUS
 10
8.4426674211
 20
7.8562216353
 11
9.0840947756
 21
7.6830127026
  0
LINE
  5
3ED
100
AcDbEntity
  8
DRIVEN_DIMS
100
AcDbLine
 62
2
  6
CONTINUOUS
 10
9.0840947756
 20
7.6830127026
 11
9.2340947756
 21
7.6830127026
  0
INSERT
  5
3EE
100
AcDbEntity
  8
DRIVEN_DIMS
100
AcDbBlockReference
 62
2
  6
CONTINUOUS
  2
_FILLED
 10
8.4426674211
 20
7.8562216353
 41
0.1875
 42
0.1875
 43
0.1875
 50
164.8884644705
  0
ENDBLK
  5
3EF
100
AcDbEntity
  8
0
  6
BYBLOCK
 62
0
100
AcDbBlockEnd
  0
BLOCK
  5
3F0
100
AcDbEntity
  8
SCHEME_DIMS
100
AcDbBlockBegin
 62
2
  6
CONTINUOUS
  2
*D1
 70
65
 10
0.0
 20
0.0
  3
*D1
  1

  0
TEXT
  5
3F1
100
AcDbEntity
  8
SCHEME_DIMS
100
AcDbText
 62
2
  6
CONTINUOUS
 10
4.5462885594
 20
4.5060454517
  7
STANDARD
 40
0.1
  1
53
 41
1.0
 72
0
100
AcDbText
  0
TEXT
  5
3F2
100
AcDbEntity
  8
SCHEME_DIMS
100
AcDbText
 62
2
  6
CONTINUOUS
 10
4.6462885594
 20
4.3560454517
  7
STANDARD
 40
0.1
  1
2.09
 41
1.0
 72
0
100
AcDbText
  0
TEXT
  5
3F3
100
AcDbEntity
  8
SCHEME_DIMS
100
AcDbText
 62
2
  6
CONTINUOUS
 10
4.5462885594
 20
4.3560454517
  7
STANDARD
 40
0.1
  1
[
 41
1.0
 72
0
100
AcDbText
  0
TEXT
  5
3F4
100
AcDbEntity
  8
SCHEME_DIMS
100
AcDbText
 62
2
  6
CONTINUOUS
 10
5.0462885594
 20
4.3560454517
  7
STANDARD
 40
0.1
  1
]
 41
1.0
 72
0
100
AcDbText
  0
LINE
  5
3F5
100
AcDbEntity
  8
SCHEME_DIMS
100
AcDbLine
 62
2
  6
CONTINUOUS
 10
4.4087885594
 20
3.437729216
 11
4.9712885594
 21
3.437729216
  0
LINE
  5
3F6
100
AcDbEntity
  8
SCHEME_DIMS
100
AcDbLine
 62
2
  6
CONTINUOUS
 10
2.6213686864
 20
5.5243616875
 11
4.2804395379
 21
5.5243616875
  0
LINE
  5
3F7
100
AcDbEntity
  8
SCHEME_DIMS
100
AcDbLine
 62
2
  6
CONTINUOUS
 10
4.393731759
 20
5.5243616875
 11
4.9712885594
 21
5.5243616875
  0
LINE
  5
3F8
100
AcDbEntity
  8
SCHEME_DIMS
100
AcDbLine
 62
2
  6
CONTINUOUS
 10
4.8462885594
 20
3.437729216
 11
4.8462885594
 21
4.2560454517
  0
LINE
  5
3F9
100
AcDbEntity
  8
SCHEME_DIMS
100
AcDbLine
 62
2
  6
CONTINUOUS
 10
4.8462885594
 20
5.5243616875
 11
4.8462885594
 21
4.7060454517
  0
INSERT
  5
3FA
100
AcDbEntity
  8
SCHEME_DIMS
100
AcDbBlockReference
 62
2
  6
CONTINUOUS
  2
_FILLED
 10
4.8462885594
 20
3.437729216
 41
0.1875
 42
0.1875
 43
0.1875
 50
270.0
  0
INSERT
  5
3FB
100
AcDbEntity
  8
SCHEME_DIMS
100
AcDbBlockReference
 62
2
  6
CONTINUOUS
  2
_FILLED
 10
4.8462885594
 20
5.5243616875
 41
0.1875
 42
0.1875
 43
0.1875
 50
90.0
  0
ENDBLK
  5
3FC
100
AcDbEntity
  8
0
  6
BYBLOCK
 62
0
100
AcDbBlockEnd
  0
BLOCK
  5
3FD
100
AcDbEntity
  8
SCHEME_DIMS
100
AcDbBlockBegin
 62
2
  6
CONTINUOUS
  2
*D2
 70
65
 10
0.0
 20
0.0
  3
*D2
  1

  0
TEXT
  5
3FE
100
AcDbEntity
  8
SCHEME_DIMS
100
AcDbText
 62
2
  6
CONTINUOUS
 10
3.1013975205
 20
5.9743616875
  7
STANDARD
 40
0.1
  1
48
 41
1.0
 72
0
100
AcDbText
  0
TEXT
  5
3FF
100
AcDbEntity
  8
SCHEME_DIMS
100
AcDbText
 62
2
  6
CONTINUOUS
 10
3.2013975205
 20
5.8243616875
  7
STANDARD
 40
0.1
  1
1.89
 41
1.0
 72
0
100
AcDbText
  0
TEXT
  5
400
100
AcDbEntity
  8
SCHEME_DIMS
100
AcDbText
 62
2
  6
CONTINUOUS
 10
3.1013975205
 20
5.8243616875
  7
STANDARD
 40
0.1
  1
[
 41
1.0
 72
0
100
AcDbText
  0
TEXT
  5
401
100
AcDbEntity
  8
SCHEME_DIMS
100
AcDbText
 62
2
  6
CONTINUOUS
 10
3.6013975205
 20
5.8243616875
  7
STANDARD
 40
0.1
  1
]
 41
1.0
 72
0
100
AcDbText
  0
LINE
  5
402
100
AcDbEntity
  8
SCHEME_DIMS
100
AcDbLine
 62
2
  6
CONTINUOUS
 10
4.3462885594
 20
3.6025914207
 11
4.3462885594
 21
6.1493616875
  0
LINE
  5
403
100
AcDbEntity
  8
SCHEME_DIMS
100
AcDbLine
 62
2
  6
CONTINUOUS
 10
2.4565064816
 20
5.5868616875
 11
2.4565064816
 21
6.1493616875
  0
LINE
  5
404
100
AcDbEntity
  8
SCHEME_DIMS
100
AcDbLine
 62
2
  6
CONTINUOUS
 10
4.3462885594
 20
6.0243616875
 11
3.8013975205
 21
6.0243616875
  0
LINE
  5
405
100
AcDbEntity
  8
SCHEME_DIMS
100
AcDbLine
 62
2
  6
CONTINUOUS
 10
2.4565064816
 20
6.0243616875
 11
3.0013975205
 21
6.0243616875
  0
INSERT
  5
406
100
AcDbEntity
  8
SCHEME_DIMS
100
AcDbBlockReference
 62
2
  6
CONTINUOUS
  2
_FILLED
 10
4.3462885594
 20
6.0243616875
 41
0.1875
 42
0.1875
 43
0.1875
  0
INSERT
  5
407
100
AcDbEntity
  8
SCHEME_DIMS
100
AcDbBlockReference
 62
2
  6
CONTINUOUS
  2
_FILLED
 10
2.4565064816
 20
6.0243616875
 41
0.1875
 42
0.1875
 43
0.1875
 50
180.0
  0
ENDBLK
  5
408
100
AcDbEntity
  8
0
  6
BYBLOCK
 62
0
100
AcDbBlockEnd
  0
BLOCK
  5
409
100
AcDbEntity
  8
SCHEME_DIMS
100
AcDbBlockBegin
 62
2
  6
CONTINUOUS
  2
*D3
 70
65
 10
0.0
 20
0.0
  3
*D3
  1

  0
TEXT
  5
40A
100
AcDbEntity
  8
SCHEME_DIMS
100
AcDbText
 62
2
  6
CONTINUOUS
 10
7.6675590731
 20
2.887729216
  7
STANDARD
 40
0.1
  1
45
 41
1.0
 72
0
100
AcDbText
  0
TEXT
  5
40B
100
AcDbEntity
  8
SCHEME_DIMS
100
AcDbText
 62
2
  6
CONTINUOUS
 10
7.7675590731
 20
2.737729216
  7
STANDARD
 40
0.1
  1
1.77
 41
1.0
 72
0
100
AcDbText
  0
TEXT
  5
40C
100
AcDbEntity
  8
SCHEME_DIMS
100
AcDbText
 62
2
  6
CONTINUOUS
 10
7.6675590731
 20
2.737729216
  7
STANDARD
 40
0.1
  1
[
 41
1.0
 72
0
100
AcDbText
  0
TEXT
  5
40D
100
AcDbEntity
  8
SCHEME_DIMS
100
AcDbText
 62
2
  6
CONTINUOUS
 10
8.1675590731
 20
2.737729216
  7
STANDARD
 40
0.1
  1
]
 41
1.0
 72
0
100
AcDbText
  0
LINE
  5
40E
100
AcDbEntity
  8
SCHEME_DIMS
100
AcDbLine
 62
2
  6
CONTINUOUS
 10
7.0817323014
 20
3.3859235945
 11
7.0817323014
 21
2.812729216
  0
LINE
  5
40F
100
AcDbEntity
  8
SCHEME_DIMS
100
AcDbLine
 62
2
  6
CONTINUOUS
 10
8.8533858447
 20
3.3758761455
 11
8.8533858447
 21
2.812729216
  0
LINE
  5
410
100
AcDbEntity
  8
SCHEME_DIMS
100
AcDbLine
 62
2
  6
CONTINUOUS
 10
7.0817323014
 20
2.937729216
 11
7.5675590731
 21
2.937729216
  0
LINE
  5
411
100
AcDbEntity
  8
SCHEME_DIMS
100
AcDbLine
 62
2
  6
CONTINUOUS
 10
8.8533858447
 20
2.937729216
 11
8.3675590731
 21
2.937729216
  0
INSERT
  5
412
100
AcDbEntity
  8
SCHEME_DIMS
100
AcDbBlockReference
 62
2
  6
CONTINUOUS
  2
_FILLED
 10
7.0817323014
 20
2.937729216
 41
0.1875
 42
0.1875
 43
0.1875
 50
180.0
  0
INSERT
  5
413
100
AcDbEntity
  8
SCHEME_DIMS
100
AcDbBlockReference
 62
2
  6
CONTINUOUS
  2
_FILLED
 10
8.8533858447
 20
2.937729216
 41
0.1875
 42
0.1875
 43
0.1875
  0
ENDBLK
  5
414
100
AcDbEntity
  8
0
  6
BYBLOCK
 62
0
100
AcDbBlockEnd
  0
BLOCK
  5
415
100
AcDbEntity
  8
SCHEME_DIMS
100
AcDbBlockBegin
 62
2
  6
CONTINUOUS
  2
*D4
 70
65
 10
0.0
 20
0.0
  3
*D4
  1

  0
TEXT
  5
416
100
AcDbEntity
  8
SCHEME_DIMS
100
AcDbText
 62
2
  6
CONTINUOUS
 10
8.5842403077
 20
9.4310067239
  7
STANDARD
 40
0.1
  1
4X 
 41
1.0
 72
0
100
AcDbText
  0
TEXT
  5
417
100
AcDbEntity
  8
SCHEME_DIMS
100
AcDbText
 62
2
  6
CONTINUOUS
 10
8.8842403077
 20
9.4310067239
  7
STANDARD
 40
0.1
  1
R
 41
1.0
 72
0
100
AcDbText
  0
TEXT
  5
418
100
AcDbEntity
  8
SCHEME_DIMS
100
AcDbText
 62
2
  6
CONTINUOUS
 10
8.9842403077
 20
9.4310067239
  7
STANDARD
 40
0.1
  1
3,5
 41
1.0
 72
0
100
AcDbText
  0
TEXT
  5
419
100
AcDbEntity
  8
SCHEME_DIMS
100
AcDbText
 62
2
  6
CONTINUOUS
 10
9.0842403077
 20
9.2810067239
  7
STANDARD
 40
0.1
  1
.14
 41
1.0
 72
0
100
AcDbText
  0
TEXT
  5
41A
100
AcDbEntity
  8
SCHEME_DIMS
100
AcDbText
 62
2
  6
CONTINUOUS
 10
8.9842403077
 20
9.2810067239
  7
STANDARD
 40
0.1
  1
[
 41
1.0
 72
0
100
AcDbText
  0
TEXT
  5
41B
100
AcDbEntity
  8
SCHEME_DIMS
100
AcDbText
 62
2
  6
CONTINUOUS
 10
9.3842403077
 20
9.2810067239
  7
STANDARD
 40
0.1
  1
]
 41
1.0
 72
0
100
AcDbText
  0
LINE
  5
41C
100
AcDbEntity
  8
SCHEME_DIMS
100
AcDbLine
 62
2
  6
CONTINUOUS
 10
7.739073368
 20
8.4929824355
 11
8.3342403077
 21
9.4810067239
  0
LINE
  5
41D
100
AcDbEntity
  8
SCHEME_DIMS
100
AcDbLine
 62
2
  6
CONTINUOUS
 10
8.3342403077
 20
9.4810067239
 11
8.4842403077
 21
9.4810067239
  0
INSERT
  5
41E
100
AcDbEntity
  8
SCHEME_DIMS
100
AcDbBlockReference
 62
2
  6
CONTINUOUS
  2
_FILLED
 10
7.739073368
 20
8.4929824355
 41
0.1875
 42
0.1875
 43
0.1875
 50
238.9360441564
  0
ENDBLK
  5
41F
100
AcDbEntity
  8
0
  6
BYBLOCK
 62
0
100
AcDbBlockEnd
  0
BLOCK
  5
420
100
AcDbEntity
  8
SCHEME_DIMS
100
AcDbBlockBegin
 62
2
  6
CONTINUOUS
  2
*D5
 70
65
 10
0.0
 20
0.0
  3
*D5
  1

  0
TEXT
  5
421
100
AcDbEntity
  8
SCHEME_DIMS
100
AcDbText
 62
2
  6
CONTINUOUS
 10
9.2986730461
 20
8.6679178279
  7
STANDARD
 40
0.1
  1
%%c
 41
1.3333333333
 72
0
100
AcDbText
  0
TEXT
  5
422
100
AcDbEntity
  8
SCHEME_DIMS
100
AcDbText
 62
2
  6
CONTINUOUS
 10
9.4320063794
 20
8.6679178279
  7
STANDARD
 40
0.1
  1
6,5
 41
1.0
 72
0
100
AcDbText
  0
TEXT
  5
423
100
AcDbEntity
  8
SCHEME_DIMS
100
AcDbText
 62
2
  6
CONTINUOUS
 10
9.5320063794
 20
8.5179178279
  7
STANDARD
 40
0.1
  1
.26
 41
1.0
 72
0
100
AcDbText
  0
TEXT
  5
424
100
AcDbEntity
  8
SCHEME_DIMS
100
AcDbText
 62
2
  6
CONTINUOUS
 10
9.4320063794
 20
8.5179178279
  7
STANDARD
 40
0.1
  1
[
 41
1.0
 72
0
100
AcDbText
  0
TEXT
  5
425
100
AcDbEntity
  8
SCHEME_DIMS
100
AcDbText
 62
2
  6
CONTINUOUS
 10
9.8320063794
 20
8.5179178279
  7
STANDARD
 40
0.1
  1
]
 41
1.0
 72
0
100
AcDbText
  0
LINE
  5
426
100
AcDbEntity
  8
SCHEME_DIMS
100
AcDbLine
 62
2
  6
CONTINUOUS
 10
8.0739353078
 20
8.0566811913
 11
9.0486730461
 21
8.7179178279
  0
LINE
  5
427
100
AcDbEntity
  8
SCHEME_DIMS
100
AcDbLine
 62
2
  6
CONTINUOUS
 10
9.0486730461
 20
8.7179178279
 11
9.1986730461
 21
8.7179178279
  0
INSERT
  5
428
100
AcDbEntity
  8
SCHEME_DIMS
100
AcDbBlockReference
 62
2
  6
CONTINUOUS
  2
_FILLED
 10
8.0739353078
 20
8.0566811913
 41
0.1875
 42
0.1875
 43
0.1875
 50
214.1519443432
  0
ENDBLK
  5
429
100
AcDbEntity
  8
0
  6
BYBLOCK
 62
0
100
AcDbBlockEnd
  0
BLOCK
  5
42A
100
AcDbEntity
  8
SCHEME_DIMS
100
AcDbBlockBegin
 62
2
  6
CONTINUOUS
  2
*D6
 70
65
 10
0.0
 20
0.0
  3
*D6
  1

  0
TEXT
  5
42B
100
AcDbEntity
  8
SCHEME_DIMS
100
AcDbText
 62
2
  6
CONTINUOUS
 10
6.7429717556
 20
6.5486915589
  7
STANDARD
 40
0.1
  1
15,2
 41
1.0
 72
0
100
AcDbText
  0
TEXT
  5
42C
100
AcDbEntity
  8
SCHEME_DIMS
100
AcDbText
 62
2
  6
CONTINUOUS
 10
6.8429717556
 20
6.3986915589
  7
STANDARD
 40
0.1
  1
.60
 41
1.0
 72
0
100
AcDbText
  0
TEXT
  5
42D
100
AcDbEntity
  8
SCHEME_DIMS
100
AcDbText
 62
2
  6
CONTINUOUS
 10
6.7429717556
 20
6.3986915589
  7
STANDARD
 40
0.1
  1
[
 41
1.0
 72
0
100
AcDbText
  0
TEXT
  5
42E
100
AcDbEntity
  8
SCHEME_DIMS
100
AcDbText
 62
2
  6
CONTINUOUS
 10
7.1429717556
 20
6.3986915589
  7
STANDARD
 40
0.1
  1
]
 41
1.0
 72
0
100
AcDbText
  0
LINE
  5
42F
100
AcDbEntity
  8
SCHEME_DIMS
100
AcDbLine
 62
2
  6
CONTINUOUS
 10
8.2671463905
 20
7.2937932615
 11
8.2671463905
 21
6.4736915589
  0
LINE
  5
430
100
AcDbEntity
  8
SCHEME_DIMS
100
AcDbLine
 62
2
  6
CONTINUOUS
 10
7.6679717556
 20
7.2937932615
 11
7.6679717556
 21
6.4736915589
  0
LINE
  5
431
100
AcDbEntity
  8
SCHEME_DIMS
100
AcDbLine
 62
2
  6
CONTINUOUS
 10
8.2671463905
 20
6.5986915589
 11
7.9675590731
 21
6.5986915589
  0
LINE
  5
432
100
AcDbEntity
  8
SCHEME_DIMS
100
AcDbLine
 62
2
  6
CONTINUOUS
 10
7.6679717556
 20
6.5986915589
 11
7.9675590731
 21
6.5986915589
  0
LINE
  5
433
100
AcDbEntity
  8
SCHEME_DIMS
100
AcDbLine
 62
2
  6
CONTINUOUS
 10
7.9675590731
 20
6.5986915589
 11
7.3429717556
 21
6.5986915589
  0
INSERT
  5
434
100
AcDbEntity
  8
SCHEME_DIMS
100
AcDbBlockReference
 62
2
  6
CONTINUOUS
  2
_FILLED
 10
8.2671463905
 20
6.5986915589
 41
0.1875
 42
0.1875
 43
0.1875
  0
INSERT
  5
435
100
AcDbEntity
  8
SCHEME_DIMS
100
AcDbBlockReference
 62
2
  6
CONTINUOUS
  2
_FILLED
 10
7.6679717556
 20
6.5986915589
 41
0.1875
 42
0.1875
 43
0.1875
 50
180.0
  0
ENDBLK
  5
436
100
AcDbEntity
  8
0
  6
BYBLOCK
 62
0
100
AcDbBlockEnd
  0
BLOCK
  5
437
100
AcDbEntity
  8
SCHEME_DIMS
100
AcDbBlockBegin
 62
2
  6
CONTINUOUS
  2
*D7
 70
65
 10
0.0
 20
0.0
  3
*D7
  1

  0
TEXT
  5
438
100
AcDbEntity
  8
SCHEME_DIMS
100
AcDbText
 62
2
  6
CONTINUOUS
 10
6.3317323014
 20
7.5666049447
  7
STANDARD
 40
0.1
  1
22,5
 41
1.0
 72
0
100
AcDbText
  0
TEXT
  5
439
100
AcDbEntity
  8
SCHEME_DIMS
100
AcDbText
 62
2
  6
CONTINUOUS
 10
6.4317323014
 20
7.4166049447
  7
STANDARD
 40
0.1
  1
.89
 41
1.0
 72
0
100
AcDbText
  0
TEXT
  5
43A
100
AcDbEntity
  8
SCHEME_DIMS
100
AcDbText
 62
2
  6
CONTINUOUS
 10
6.3317323014
 20
7.4166049447
  7
STANDARD
 40
0.1
  1
[
 41
1.0
 72
0
100
AcDbText
  0
TEXT
  5
43B
100
AcDbEntity
  8
SCHEME_DIMS
100
AcDbText
 62
2
  6
CONTINUOUS
 10
6.7317323014
 20
7.4166049447
  7
STANDARD
 40
0.1
  1
]
 41
1.0
 72
0
100
AcDbText
  0
LINE
  5
43C
100
AcDbEntity
  8
SCHEME_DIMS
100
AcDbLine
 62
2
  6
CONTINUOUS
 10
7.2554527738
 20
7.0986915589
 11
6.4567323014
 21
7.0986915589
  0
LINE
  5
43D
100
AcDbEntity
  8
SCHEME_DIMS
100
AcDbLine
 62
2
  6
CONTINUOUS
 10
7.676515766
 20
7.9845183306
 11
6.4567323014
 21
7.9845183306
  0
LINE
  5
43E
100
AcDbEntity
  8
SCHEME_DIMS
100
AcDbLine
 62
2
  6
CONTINUOUS
 10
6.5817323014
 20
7.0986915589
 11
6.5817323014
 21
7.3166049447
  0
LINE
  5
43F
100
AcDbEntity
  8
SCHEME_DIMS
100
AcDbLine
 62
2
  6
CONTINUOUS
 10
6.5817323014
 20
7.9845183306
 11
6.5817323014
 21
7.7666049447
  0
INSERT
  5
440
100
AcDbEntity
  8
SCHEME_DIMS
100
AcDbBlockReference
 62
2
  6
CONTINUOUS
  2
_FILLED
 10
6.5817323014
 20
7.0986915589
 41
0.1875
 42
0.1875
 43
0.1875
 50
270.0
  0
INSERT
  5
441
100
AcDbEntity
  8
SCHEME_DIMS
100
AcDbBlockReference
 62
2
  6
CONTINUOUS
  2
_FILLED
 10
6.5817323014
 20
7.9845183306
 41
0.1875
 42
0.1875
 43
0.1875
 50
90.0
  0
ENDBLK
  5
442
100
AcDbEntity
  8
0
  6
BYBLOCK
 62
0
100
AcDbBlockEnd
  0
BLOCK
  5
443
100
AcDbEntity
  8
SCHEME_DIMS
100
AcDbBlockBegin
 62
2
  6
CONTINUOUS
  2
*D8
 70
65
 10
0.0
 20
0.0
  3
*D8
  1

  0
TEXT
  5
444
100
AcDbEntity
  8
SCHEME_DIMS
100
AcDbText
 62
2
  6
CONTINUOUS
 10
9.4949611816
 20
5.5004657046
  7
STANDARD
 40
0.1
  1
%%c
 41
1.3333333333
 72
0
100
AcDbText
  0
TEXT
  5
445
100
AcDbEntity
  8
SCHEME_DIMS
100
AcDbText
 62
2
  6
CONTINUOUS
 10
9.628294515
 20
5.5004657046
  7
STANDARD
 40
0.1
  1
31
 41
1.0
 72
0
100
AcDbText
  0
TEXT
  5
446
100
AcDbEntity
  8
SCHEME_DIMS
100
AcDbText
 62
2
  6
CONTINUOUS
 10
9.728294515
 20
5.3504657046
  7
STANDARD
 40
0.1
  1
1.22
 41
1.0
 72
0
100
AcDbText
  0
TEXT
  5
447
100
AcDbEntity
  8
SCHEME_DIMS
100
AcDbText
 62
2
  6
CONTINUOUS
 10
9.628294515
 20
5.3504657046
  7
STANDARD
 40
0.1
  1
[
 41
1.0
 72
0
100
AcDbText
  0
TEXT
  5
448
100
AcDbEntity
  8
SCHEME_DIMS
100
AcDbText
 62
2
  6
CONTINUOUS
 10
10.128294515
 20
5.3504657046
  7
STANDARD
 40
0.1
  1
]
 41
1.0
 72
0
100
AcDbText
  0
LINE
  5
449
100
AcDbEntity
  8
SCHEME_DIMS
100
AcDbLine
 62
2
  6
CONTINUOUS
 10
8.4642205109
 20
4.9930989593
 11
7.9675590731
 21
4.6385349158
  0
LINE
  5
44A
100
AcDbEntity
  8
SCHEME_DIMS
100
AcDbLine
 62
2
  6
CONTINUOUS
 10
7.9675590731
 20
4.6385349158
 11
9.2449611816
 21
5.5504657046
  0
LINE
  5
44B
100
AcDbEntity
  8
SCHEME_DIMS
100
AcDbLine
 62
2
  6
CONTINUOUS
 10
9.2449611816
 20
5.5504657046
 11
9.3949611816
 21
5.5504657046
  0
LINE
  5
44C
100
AcDbEntity
  8
SCHEME_DIMS
100
AcDbLine
 62
2
  6
CONTINUOUS
 10
7.4708976352
 20
4.2839708723
 11
7.9675590731
 21
4.6385349158
  0
INSERT
  5
44D
100
AcDbEntity
  8
SCHEME_DIMS
100
AcDbBlockReference
 62
2
  6
CONTINUOUS
  2
_FILLED
 10
8.4642205109
 20
4.9930989593
 41
0.1875
 42
0.1875
 43
0.1875
 50
35.522846075
  0
INSERT
  5
44E
100
AcDbEntity
  8
SCHEME_DIMS
100
AcDbBlockReference
 62
2
  6
CONTINUOUS
  2
_FILLED
 10
7.4708976352
 20
4.2839708723
 41
0.1875
 42
0.1875
 43
0.1875
 50
215.522846075
  0
ENDBLK
  5
44F
100
AcDbEntity
  8
0
  6
BYBLOCK
 62
0
100
AcDbBlockEnd
  0
BLOCK
  5
450
100
AcDbEntity
  8
SCHEME_DIMS
100
AcDbBlockBegin
 62
2
  6
CONTINUOUS
  2
*D9
 70
65
 10
0.0
 20
0.0
  3
*D9
  1

  0
TEXT
  5
451
100
AcDbEntity
  8
SCHEME_DIMS
100
AcDbText
 62
2
  6
CONTINUOUS
 10
6.2817323014
 20
4.0631320659
  7
STANDARD
 40
0.1
  1
30,5
 41
1.0
 72
0
100
AcDbText
  0
TEXT
  5
452
100
AcDbEntity
  8
SCHEME_DIMS
100
AcDbText
 62
2
  6
CONTINUOUS
 10
6.3817323014
 20
3.9131320659
  7
STANDARD
 40
0.1
  1
1.20
 41
1.0
 72
0
100
AcDbText
  0
TEXT
  5
453
100
AcDbEntity
  8
SCHEME_DIMS
100
AcDbText
 62
2
  6
CONTINUOUS
 10
6.2817323014
 20
3.9131320659
  7
STANDARD
 40
0.1
  1
[
 41
1.0
 72
0
100
AcDbText
  0
TEXT
  5
454
100
AcDbEntity
  8
SCHEME_DIMS
100
AcDbText
 62
2
  6
CONTINUOUS
 10
6.7817323014
 20
3.9131320659
  7
STANDARD
 40
0.1
  1
]
 41
1.0
 72
0
100
AcDbText
  0
LINE
  5
455
100
AcDbEntity
  8
SCHEME_DIMS
100
AcDbLine
 62
2
  6
CONTINUOUS
 10
7.0360628977
 20
3.437729216
 11
6.4567323014
 21
3.437729216
  0
LINE
  5
456
100
AcDbEntity
  8
SCHEME_DIMS
100
AcDbLine
 62
2
  6
CONTINUOUS
 10
7.1948228526
 20
4.6385349158
 11
6.4567323014
 21
4.6385349158
  0
LINE
  5
457
100
AcDbEntity
  8
SCHEME_DIMS
100
AcDbLine
 62
2
  6
CONTINUOUS
 10
6.5817323014
 20
3.437729216
 11
6.5817323014
 21
3.8131320659
  0
LINE
  5
458
100
AcDbEntity
  8
SCHEME_DIMS
100
AcDbLine
 62
2
  6
CONTINUOUS
 10
6.5817323014
 20
4.6385349158
 11
6.5817323014
 21
4.2631320659
  0
INSERT
  5
459
100
AcDbEntity
  8
SCHEME_DIMS
100
AcDbBlockReference
 62
2
  6
CONTINUOUS
  2
_FILLED
 10
6.5817323014
 20
3.437729216
 41
0.1875
 42
0.1875
 43
0.1875
 50
270.0
  0
INSERT
  5
45A
100
AcDbEntity
  8
SCHEME_DIMS
100
AcDbBlockReference
 62
2
  6
CONTINUOUS
  2
_FILLED
 10
6.5817323014
 20
4.6385349158
 41
0.1875
 42
0.1875
 43
0.1875
 50
90.0
  0
ENDBLK
  5
45B
100
AcDbEntity
  8
0
  6
BYBLOCK
 62
0
100
AcDbBlockEnd
  0
BLOCK
  5
45C
100
AcDbEntity
  8
0
100
AcDbBlockBegin
  2
_FILLED
 70
64
 10
0.0
 20
0.0
  3
_FILLED
  1

  0
SOLID
  5
45D
100
AcDbEntity
  8
0
  6
BYBLOCK
 62
0
100
AcDbTrace
 10
0.0
 20
0.0
 11
-1.0
 21
0.1666666667
 12
-1.0
 22
-0.1666666667
 13
-1.0
 23
-0.1666666667
  0
ENDBLK
  5
45E
100
AcDbEntity
  8
0
  6
BYBLOCK
 62
0
100
AcDbBlockEnd
  0
ENDSEC
  0
SECTION
  2
ENTITIES
  0
TEXT
  5
45F
100
AcDbEntity
  8
0
100
AcDbText
 62
2
  6
CONTINUOUS
 10
10.1487658475
 20
1.694867839
  7
STANDARD
 40
0.1
  1
%%uTHIRD ANGLE PROJECTION
 41
0.8
 72
1
 11
11.0287658475
 21
1.694867839
100
AcDbText
  0
TEXT
  5
460
100
AcDbEntity
  8
0
100
AcDbText
 62
2
  6
CONTINUOUS
 10
12.88
 20
1.377
  7
STANDARD
 40
0.08
  1
DRAWING NO.
 41
1.0
 72
0
100
AcDbText
  0
TEXT
  5
461
100
AcDbEntity
  8
0
100
AcDbText
 62
2
  6
CONTINUOUS
 10
10.044
 20
2.436432
  7
STANDARD
 40
0.08
  1
and is proprietary in general
 41
0.85
 72
1
 11
11.03
 21
2.436432
100
AcDbText
  0
TEXT
  5
462
100
AcDbEntity
  8
0
100
AcDbText
 62
2
  6
CONTINUOUS
 10
10.078
 20
2.316432
  7
STANDARD
 40
0.08
  1
and in detail.  Its contents
 41
0.85
 72
1
 11
11.03
 21
2.316432
100
AcDbText
  0
TEXT
  5
463
100
AcDbEntity
  8
0
100
AcDbText
 62
2
  6
CONTINUOUS
 10
10.214
 20
2.196432
  7
STANDARD
 40
0.08
  1
shall not be revealed to
 41
0.85
 72
1
 11
11.03
 21
2.196432
100
AcDbText
  0
TEXT
  5
464
100
AcDbEntity
  8
0
100
AcDbText
 62
2
  6
CONTINUOUS
 10
10.248
 20
2.076432
  7
STANDARD
 40
0.08
  1
outside parties without
 41
0.85
 72
1
 11
11.03
 21
2.076432
100
AcDbText
  0
TEXT
  5
465
100
AcDbEntity
  8
0
100
AcDbText
 62
2
  6
CONTINUOUS
 10
10.146
 20
1.956432
  7
STANDARD
 40
0.08
  1
written consent of BANNER.
 41
0.85
 72
1
 11
11.03
 21
1.956432
100
AcDbText
  0
TEXT
  5
466
100
AcDbEntity
  8
0
100
AcDbText
 62
2
  6
CONTINUOUS
 10
12.08
 20
2.117
  7
STANDARD
 40
0.1
  1
TITLE
 41
0.8
 72
0
100
AcDbText
  0
TEXT
  5
467
100
AcDbEntity
  8
0
100
AcDbText
 62
2
  6
CONTINUOUS
 10
12.08
 20
1.377
  7
STANDARD
 40
0.08
  1
SIZE
 41
1.0
 72
0
100
AcDbText
  0
TEXT
  5
468
100
AcDbEntity
  8
0
100
AcDbText
 62
2
  6
CONTINUOUS
 10
12.08
 20
1.007
  7
STANDARD
 40
0.08
  1
SCALE
 41
1.0
 72
0
100
AcDbText
  0
TEXT
  5
469
100
AcDbEntity
  8
0
100
AcDbText
 62
2
  6
CONTINUOUS
 10
12.46
 20
1.237
  7
STANDARD
 40
0.1
  1
B
 41
0.8
 72
1
 11
12.5
 21
1.237
100
AcDbText
  0
TEXT
  5
46A
100
AcDbEntity
  8
0
100
AcDbText
 62
2
  6
CONTINUOUS
 10
10.112
 20
2.556432
  7
STANDARD
 40
0.08
  1
of BANNER ENGINEERING CORP.
 41
0.85
 72
1
 11
11.03
 21
2.556432
100
AcDbText
  0
TEXT
  5
46B
100
AcDbEntity
  8
0
100
AcDbText
 62
2
  6
CONTINUOUS
 10
10.078
 20
2.676432
  7
STANDARD
 40
0.08
  1
This drawing is the property
 41
0.85
 72
1
 11
11.03
 21
2.676432
100
AcDbText
  0
TEXT
  5
46C
100
AcDbEntity
  8
0
100
AcDbText
 62
2
  6
CONTINUOUS
 10
14.19
 20
2.3134
  7
STANDARD
 40
0.1
  1
MINNEAPOLIS, MN 55440
 41
0.8
 72
1
 11
15.03
 21
2.3134
100
AcDbText
  0
TEXT
  5
46D
100
AcDbEntity
  8
0
100
AcDbText
 62
2
  6
CONTINUOUS
 10
14.255
 20
1.007
  7
STANDARD
 40
0.08
  1
SHEET
 41
1.0
 72
0
100
AcDbText
  0
TEXT
  5
46E
100
AcDbEntity
  8
0
100
AcDbText
 62
2
  6
CONTINUOUS
 10
15.63
 20
1.377
  7
STANDARD
 40
0.08
  1
REV.
 41
1.0
 72
0
100
AcDbText
  0
TEXT
  5
46F
100
AcDbEntity
  8
0
100
AcDbText
 62
2
  6
CONTINUOUS
 10
16.03
 20
0.765443
  7
STANDARD
 40
0.07
  1
PRO/E
 41
1.0
 72
2
 11
16.38
 21
0.765443
100
AcDbText
  0
TEXT
  5
470
100
AcDbEntity
  8
0
100
AcDbText
 62
2
  6
CONTINUOUS
 10
13.7052
 20
2.631049
  7
STANDARD
 40
0.12
  1
BANNER ENGINEERING CORP.
 41
0.92
 72
1
 11
15.03
 21
2.631049
100
AcDbText
  0
TEXT
  5
471
100
AcDbEntity
  8
0
100
AcDbText
 62
2
  6
CONTINUOUS
 10
14.51
 20
2.4724
  7
STANDARD
 40
0.1
  1
P.O. BOX 9414
 41
0.8
 72
1
 11
15.03
 21
2.4724
100
AcDbText
  0
TEXT
  5
472
100
AcDbEntity
  8
0
100
AcDbText
 62
2
  6
CONTINUOUS
 10
9.445
 20
10.212
  7
STANDARD
 40
0.1
  1
4
 41
0.8
 72
1
 11
9.485
 21
10.212
100
AcDbText
  0
TEXT
  5
473
100
AcDbEntity
  8
0
100
AcDbText
 62
2
  6
CONTINUOUS
 10
11.415
 20
10.212
  7
STANDARD
 40
0.1
  1
3
 41
0.8
 72
1
 11
11.455
 21
10.212
100
AcDbText
  0
TEXT
  5
474
100
AcDbEntity
  8
0
100
AcDbText
 62
2
  6
CONTINUOUS
 10
13.385
 20
10.212
  7
STANDARD
 40
0.1
  1
2
 41
0.8
 72
1
 11
13.425
 21
10.212
100
AcDbText
  0
TEXT
  5
475
100
AcDbEntity
  8
0
100
AcDbText
 62
2
  6
CONTINUOUS
 10
15.355
 20
10.212
  7
STANDARD
 40
0.1
  1
1
 41
0.8
 72
1
 11
15.395
 21
10.212
100
AcDbText
  0
TEXT
  5
476
100
AcDbEntity
  8
0
100
AcDbText
 62
2
  6
CONTINUOUS
 10
3.535
 20
10.212
  7
STANDARD
 40
0.1
  1
7
 41
0.8
 72
1
 11
3.575
 21
10.212
100
AcDbText
  0
TEXT
  5
477
100
AcDbEntity
  8
0
100
AcDbText
 62
2
  6
CONTINUOUS
 10
5.505
 20
10.212
  7
STANDARD
 40
0.1
  1
6
 41
0.8
 72
1
 11
5.545
 21
10.212
100
AcDbText
  0
TEXT
  5
478
100
AcDbEntity
  8
0
100
AcDbText
 62
2
  6
CONTINUOUS
 10
7.475
 20
10.212
  7
STANDARD
 40
0.1
  1
5
 41
0.8
 72
1
 11
7.515
 21
10.212
100
AcDbText
  0
TEXT
  5
479
100
AcDbEntity
  8
0
100
AcDbText
 62
2
  6
CONTINUOUS
 10
1.565
 20
10.212
  7
STANDARD
 40
0.1
  1
8
 41
0.8
 72
1
 11
1.605
 21
10.212
100
AcDbText
  0
TEXT
  5
47A
100
AcDbEntity
  8
0
100
AcDbText
 62
2
  6
CONTINUOUS
 10
1.565
 20
0.687
  7
STANDARD
 40
0.1
  1
8
 41
0.8
 72
1
 11
1.605
 21
0.687
100
AcDbText
  0
TEXT
  5
47B
100
AcDbEntity
  8
0
100
AcDbText
 62
2
  6
CONTINUOUS
 10
3.535
 20
0.687
  7
STANDARD
 40
0.1
  1
7
 41
0.8
 72
1
 11
3.575
 21
0.687
100
AcDbText
  0
TEXT
  5
47C
100
AcDbEntity
  8
0
100
AcDbText
 62
2
  6
CONTINUOUS
 10
5.505
 20
0.687
  7
STANDARD
 40
0.1
  1
6
 41
0.8
 72
1
 11
5.545
 21
0.687
100
AcDbText
  0
TEXT
  5
47D
100
AcDbEntity
  8
0
100
AcDbText
 62
2
  6
CONTINUOUS
 10
7.475
 20
0.687
  7
STANDARD
 40
0.1
  1
5
 41
0.8
 72
1
 11
7.515
 21
0.687
100
AcDbText
  0
TEXT
  5
47E
100
AcDbEntity
  8
0
100
AcDbText
 62
2
  6
CONTINUOUS
 10
9.445
 20
0.687
  7
STANDARD
 40
0.1
  1
4
 41
0.8
 72
1
 11
9.485
 21
0.687
100
AcDbText
  0
TEXT
  5
47F
100
AcDbEntity
  8
0
100
AcDbText
 62
2
  6
CONTINUOUS
 10
11.415
 20
0.687
  7
STANDARD
 40
0.1
  1
3
 41
0.8
 72
1
 11
11.455
 21
0.687
100
AcDbText
  0
TEXT
  5
480
100
AcDbEntity
  8
0
100
AcDbText
 62
2
  6
CONTINUOUS
 10
13.385
 20
0.687
  7
STANDARD
 40
0.1
  1
2
 41
0.8
 72
1
 11
13.425
 21
0.687
100
AcDbText
  0
TEXT
  5
481
100
AcDbEntity
  8
0
100
AcDbText
 62
2
  6
CONTINUOUS
 10
15.355
 20
0.687
  7
STANDARD
 40
0.1
  1
1
 41
0.8
 72
1
 11
15.395
 21
0.687
100
AcDbText
  0
TEXT
  5
482
100
AcDbEntity
  8
0
100
AcDbText
 62
2
  6
CONTINUOUS
 10
0.44
 20
4.2995
  7
STANDARD
 40
0.1
  1
B
 41
0.8
 72
2
 11
0.52
 21
4.2995
100
AcDbText
  0
TEXT
  5
483
100
AcDbEntity
  8
0
100
AcDbText
 62
2
  6
CONTINUOUS
 10
0.44
 20
1.9995
  7
STANDARD
 40
0.1
  1
A
 41
0.8
 72
2
 11
0.52
 21
1.9995
100
AcDbText
  0
TEXT
  5
484
100
AcDbEntity
  8
0
100
AcDbText
 62
2
  6
CONTINUOUS
 10
0.44
 20
8.8995
  7
STANDARD
 40
0.1
  1
D
 41
0.8
 72
2
 11
0.52
 21
8.8995
100
AcDbText
  0
TEXT
  5
485
100
AcDbEntity
  8
0
100
AcDbText
 62
2
  6
CONTINUOUS
 10
0.44
 20
6.5995
  7
STANDARD
 40
0.1
  1
C
 41
0.8
 72
2
 11
0.52
 21
6.5995
100
AcDbText
  0
TEXT
  5
486
100
AcDbEntity
  8
0
100
AcDbText
 62
2
  6
CONTINUOUS
 10
16.48
 20
8.8995
  7
STANDARD
 40
0.1
  1
D
 41
0.8
 72
0
100
AcDbText
  0
TEXT
  5
487
100
AcDbEntity
  8
0
100
AcDbText
 62
2
  6
CONTINUOUS
 10
16.48
 20
6.5995
  7
STANDARD
 40
0.1
  1
C
 41
0.8
 72
0
100
AcDbText
  0
TEXT
  5
488
100
AcDbEntity
  8
0
100
AcDbText
 62
2
  6
CONTINUOUS
 10
16.48
 20
4.2995
  7
STANDARD
 40
0.1
  1
B
 41
0.8
 72
0
100
AcDbText
  0
TEXT
  5
489
100
AcDbEntity
  8
0
100
AcDbText
 62
2
  6
CONTINUOUS
 10
16.48
 20
1.9995
  7
STANDARD
 40
0.1
  1
A
 41
0.8
 72
0
100
AcDbText
  0
MTEXT
  5
48A
100
AcDbEntity
  8
0
100
AcDbMText
 62
2
  6
CONTINUOUS
  7
STANDARD
 71
1
 72
1
 10
14.819264911
 20
1.0627941725
 30
0.0
 11
1.0
 21
0.0
 31
0.0
  1
1 OF 1
 40
0.1
 41
0.6
  0
TEXT
  5
48B
100
AcDbEntity
  8
0
100
AcDbText
 62
7
  6
CONTINUOUS
 10
13.8911999818
 20
1.2547321586
  7
STANDARD
 40
0.12
  1
141788
 41
1.0
 72
0
100
AcDbText
  0
TEXT
  5
48C
100
AcDbEntity
  8
0
100
AcDbText
 62
2
  6
CONTINUOUS
 10
12.644264911
 20
0.9627941725
  7
STANDARD
 40
0.1
  1
1:1
 41
1.0
 72
0
100
AcDbText
  0
MTEXT
  5
48D
100
AcDbEntity
  8
0
100
AcDbMText
 62
2
  6
CONTINUOUS
  7
STANDARD
 71
1
 72
1
 10
1.0597007627
 20
1.6202922458
 30
0.0
 11
1.0
 21
0.0
 31
0.0
  1
NOTES:\P1. ALL DIMENSIONS ARE MILLIMETERS [INCHES] UNLESS OTHERWISE NOTED.
 40
0.1
 41
6.6
  0
INSERT
  5
48E
100
AcDbEntity
  8
0
100
AcDbBlockReference
 62
2
  6
CONTINUOUS
  2
BANNER_LOGO_TITLEBLOCK_BL0
 10
12.9046655056
 20
2.5403783448
  0
DIMENSION
  5
48F
100
AcDbEntity
  8
DRIVEN_DIMS
100
AcDbDimension
 62
2
  6
CONTINUOUS
  2
*D0
 10
7.9675590731
 20
7.9845183306
 11
9.6340947756
 21
7.6080127026
 70
164
 42
12.5
  1
<>
  3
DIMSTYLE_1
100
AcDbRadialDimension
 15
8.4426674211
 25
7.8562216353
  0
DIMENSION
  5
490
100
AcDbEntity
  8
SCHEME_DIMS
100
AcDbDimension
 62
2
  6
CONTINUOUS
  2
*D1
 10
4.8462885594
 20
5.5243616875
 11
4.8462885594
 21
4.4810454517
 70
160
 42
53.0004647752
  3
DIMSTYLE_2
100
AcDbAlignedDimension
 13
4.4087885594
 23
3.437729216
 14
2.6213686864
 24
5.5243616875
 50
90.0
100
AcDbRotatedDimension
  0
DIMENSION
  5
491
100
AcDbEntity
  8
SCHEME_DIMS
100
AcDbDimension
 62
2
  6
CONTINUOUS
  2
*D2
 10
2.4565064816
 20
6.0243616875
 11
3.4013975205
 21
5.9493616875
 70
160
 42
48.0004647752
  3
DIMSTYLE_2
100
AcDbAlignedDimension
 13
4.3462885594
 23
3.6025914207
 14
2.4565064816
 24
5.5868616875
 50
180.0
100
AcDbRotatedDimension
  0
DIMENSION
  5
492
100
AcDbEntity
  8
SCHEME_DIMS
100
AcDbDimension
 62
2
  6
CONTINUOUS
  2
*D3
 10
8.8533858447
 20
2.937729216
 11
7.9675590731
 21
2.862729216
 70
160
 42
45.0
  3
DIMSTYLE_2
100
AcDbAlignedDimension
 13
7.0817323014
 23
3.3859235945
 14
8.8533858447
 24
3.3758761455
100
AcDbRotatedDimension
  0
DIMENSION
  5
493
100
AcDbEntity
  8
SCHEME_DIMS
100
AcDbDimension
 62
2
  6
CONTINUOUS
  2
*D4
 10
7.6679717556
 20
8.374948124
 11
9.0342403077
 21
9.4060067239
 70
164
 42
3.5
  1
4X <>
  3
DIMSTYLE_3
100
AcDbRadialDimension
 15
7.739073368
 25
8.4929824355
  0
DIMENSION
  5
494
100
AcDbEntity
  8
SCHEME_DIMS
100
AcDbDimension
 62
2
  6
CONTINUOUS
  2
*D5
 10
8.0739353078
 20
8.0566811913
 11
9.6153397128
 21
8.6429178279
 70
163
 42
6.53
  1
<>
  3
DIMSTYLE_4
100
AcDbDiametricDimension
 15
7.8611828383
 25
7.9123554698
  0
DIMENSION
  5
495
100
AcDbEntity
  8
SCHEME_DIMS
100
AcDbDimension
 62
2
  6
CONTINUOUS
  2
*D6
 10
7.6679717556
 20
6.5986915589
 11
6.9929717556
 21
6.5236915589
 70
160
 42
15.2190357252
  3
DIMSTYLE_2
100
AcDbAlignedDimension
 13
8.2671463905
 23
7.2937932615
 14
7.6679717556
 24
7.2937932615
 50
180.0
100
AcDbRotatedDimension
  0
DIMENSION
  5
496
100
AcDbEntity
  8
SCHEME_DIMS
100
AcDbDimension
 62
2
  6
CONTINUOUS
  2
*D7
 10
6.5817323014
 20
7.9845183306
 11
6.5817323014
 21
7.5416049447
 70
160
 42
22.5
  3
DIMSTYLE_2
100
AcDbAlignedDimension
 13
7.2554527738
 23
7.0986915589
 14
7.676515766
 24
7.9845183306
 50
90.0
100
AcDbRotatedDimension
  0
DIMENSION
  5
497
100
AcDbEntity
  8
SCHEME_DIMS
100
AcDbDimension
 62
2
  6
CONTINUOUS
  2
*D8
 10
8.4642205109
 20
4.9930989593
 11
9.8616278483
 21
5.4754657046
 70
163
 42
31.0
  1
<>
  3
DIMSTYLE_4
100
AcDbDiametricDimension
 15
7.4708976352
 25
4.2839708723
  0
DIMENSION
  5
498
100
AcDbEntity
  8
SCHEME_DIMS
100
AcDbDimension
 62
2
  6
CONTINUOUS
  2
*D9
 10
6.5817323014
 20
4.6385349158
 11
6.5817323014
 21
4.0381320659
 70
160
 42
30.5004647752
  3
DIMSTYLE_2
100
AcDbAlignedDimension
 13
7.0360628977
 23
3.437729216
 14
7.1948228526
 24
4.6385349158
 50
90.0
100
AcDbRotatedDimension
  0
LINE
  5
499
100
AcDbEntity
  8
0
100
AcDbLine
 62
2
  6
CONTINUOUS
 10
16.38
 20
0.887
 11
12.03
 21
0.887
  0
LINE
  5
49A
100
AcDbEntity
  8
0
100
AcDbLine
 62
2
  6
CONTINUOUS
 10
16.38
 20
0.887
 11
16.38
 21
2.807
  0
LINE
  5
49B
100
AcDbEntity
  8
0
100
AcDbLine
 62
2
  6
CONTINUOUS
 10
16.38
 20
2.807
 11
12.03
 21
2.807
  0
LINE
  5
49C
100
AcDbEntity
  8
0
100
AcDbLine
 62
2
  6
CONTINUOUS
 10
12.03
 20
0.887
 11
12.03
 21
2.807
  0
TEXT
  5
49D
100
AcDbEntity
  8
0
100
AcDbText
 62
7
  6
CONTINUOUS
 10
16.105
 20
1.267
  7
STANDARD
 40
0.1
  1
1
 41
1.0
 72
1
 11
16.155
 21
1.267
100
AcDbText
  0
MTEXT
  5
49E
100
AcDbEntity
  8
0
100
AcDbMText
 62
7
  6
CONTINUOUS
  7
STANDARD
 71
2
 72
1
 10
14.205
 20
1.967
 30
0.0
 11
1.0
 21
0.0
 31
0.0
  1
SMBAMS30RA\PWEB CAD DRAWINGS 2D/3D
 40
0.1
 41
2.2
  0
MTEXT
  5
49F
100
AcDbEntity
  8
NOTES
100
AcDbMText
 62
2
  6
CONTINUOUS
  7
STANDARD
 71
2
 72
1
 10
14.5439008499
 20
3.2673942757
 30
0.0
 11
1.0
 21
0.0
 31
0.0
  1
ISOMETRIC VIEW\P\H0.1;SCALE  1:1
 40
0.125
 41
1.75
  0
LINE
  5
4A0
100
AcDbEntity
  8
0
100
AcDbLine
 62
2
  6
CONTINUOUS
 10
0.47
 20
5.586103
 11
0.47
 21
5.412897
  0
LINE
  5
4A1
100
AcDbEntity
  8
0
100
AcDbLine
 62
2
  6
CONTINUOUS
 10
0.62
 20
10.112
 11
0.62
 21
0.887
  0
LINE
  5
4A2
100
AcDbEntity
  8
0
100
AcDbLine
 62
2
  6
CONTINUOUS
 10
2.59
 20
0.887
 11
2.59
 21
0.637
  0
LINE
  5
4A3
100
AcDbEntity
  8
0
100
AcDbLine
 62
2
  6
CONTINUOUS
 10
2.59
 20
10.112
 11
2.59
 21
10.362
  0
LINE
  5
4A4
100
AcDbEntity
  8
0
100
AcDbLine
 62
2
  6
CONTINUOUS
 10
8.413397
 20
0.737
 11
8.586603
 21
0.737
  0
LINE
  5
4A5
100
AcDbEntity
  8
0
100
AcDbLine
 62
7
  6
CONTINUOUS
 10
11.1389508475
 20
1.425992839
 11
11.7453418475
 21
1.495385839
  0
LINE
  5
4A6
100
AcDbEntity
  8
0
100
AcDbLine
 62
2
  6
CONTINUOUS
 10
0.62
 20
0.887
 11
16.38
 21
0.887
  0
LINE
  5
4A7
100
AcDbEntity
  8
0
100
AcDbLine
 62
2
  6
CONTINUOUS
 10
12.03
 20
1.137
 11
16.38
 21
1.137
  0
LINE
  5
4A8
100
AcDbEntity
  8
0
100
AcDbLine
 62
7
  6
CONTINUOUS
 10
10.2121898475
 20
1.243294839
 11
10.4342808475
 21
1.243294839
  0
LINE
  5
4A9
100
AcDbEntity
  8
0
100
AcDbLine
 62
7
  6
CONTINUOUS
 10
10.4842808475
 20
1.243294839
 11
10.5842808475
 21
1.243294839
  0
LINE
  5
4AA
100
AcDbEntity
  8
0
100
AcDbLine
 62
7
  6
CONTINUOUS
 10
10.6342808475
 20
1.243294839
 11
10.8563718475
 21
1.243294839
  0
LINE
  5
4AB
100
AcDbEntity
  8
0
100
AcDbLine
 62
7
  6
CONTINUOUS
 10
11.0389508475
 20
1.243294839
 11
11.3171028475
 21
1.243294839
  0
LINE
  5
4AC
100
AcDbEntity
  8
0
100
AcDbLine
 62
7
  6
CONTINUOUS
 10
11.3671028475
 20
1.243294839
 11
11.5171888475
 21
1.243294839
  0
LINE
  5
4AD
100
AcDbEntity
  8
0
100
AcDbLine
 62
7
  6
CONTINUOUS
 10
11.5671888475
 20
1.243294839
 11
11.8453418475
 21
1.243294839
  0
LINE
  5
4AE
100
AcDbEntity
  8
0
100
AcDbLine
 62
7
  6
CONTINUOUS
 10
11.7453418475
 20
0.991203839
 11
11.1389508475
 21
1.060596839
  0
LINE
  5
4AF
100
AcDbEntity
  8
0
100
AcDbLine
 62
2
  6
CONTINUOUS
 10
4.56
 20
0.887
 11
4.56
 21
0.637
  0
LINE
  5
4B0
100
AcDbEntity
  8
0
100
AcDbLine
 62
2
  6
CONTINUOUS
 10
4.56
 20
10.112
 11
4.56
 21
10.362
  0
LINE
  5
4B1
100
AcDbEntity
  8
0
100
AcDbLine
 62
2
  6
CONTINUOUS
 10
0.47
 20
5.412897
 11
0.62
 21
5.4995
  0
LINE
  5
4B2
100
AcDbEntity
  8
0
100
AcDbLine
 62
2
  6
CONTINUOUS
 10
12.03
 20
1.507
 11
16.38
 21
1.507
  0
LINE
  5
4B3
100
AcDbEntity
  8
0
100
AcDbLine
 62
2
  6
CONTINUOUS
 10
10.03
 20
1.907
 11
12.03
 21
1.907
  0
LINE
  5
4B4
100
AcDbEntity
  8
0
100
AcDbLine
 62
2
  6
CONTINUOUS
 10
0.62
 20
5.4995
 11
0.47
 21
5.586103
  0
LINE
  5
4B5
100
AcDbEntity
  8
0
100
AcDbLine
 62
2
  6
CONTINUOUS
 10
12.03
 20
2.267
 11
16.38
 21
2.267
  0
LINE
  5
4B6
100
AcDbEntity
  8
0
100
AcDbLine
 62
2
  6
CONTINUOUS
 10
8.5
 20
10.112
 11
8.586603
 21
10.262
  0
LINE
  5
4B7
100
AcDbEntity
  8
0
100
AcDbLine
 62
2
  6
CONTINUOUS
 10
16.38
 20
2.807
 11
10.03
 21
2.807
  0
LINE
  5
4B8
100
AcDbEntity
  8
0
100
AcDbLine
 62
2
  6
CONTINUOUS
 10
0.62
 20
3.1995
 11
0.37
 21
3.1995
  0
LINE
  5
4B9
100
AcDbEntity
  8
0
100
AcDbLine
 62
2
  6
CONTINUOUS
 10
16.38
 20
3.1995
 11
16.63
 21
3.1995
  0
LINE
  5
4BA
100
AcDbEntity
  8
0
100
AcDbLine
 62
2
  6
CONTINUOUS
 10
8.586603
 20
0.737
 11
8.5
 21
0.887
  0
LINE
  5
4BB
100
AcDbEntity
  8
0
100
AcDbLine
 62
2
  6
CONTINUOUS
 10
6.53
 20
0.887
 11
6.53
 21
0.637
  0
LINE
  5
4BC
100
AcDbEntity
  8
0
100
AcDbLine
 62
2
  6
CONTINUOUS
 10
6.53
 20
10.112
 11
6.53
 21
10.362
  0
LINE
  5
4BD
100
AcDbEntity
  8
0
100
AcDbLine
 62
2
  6
CONTINUOUS
 10
8.5
 20
0.887
 11
8.5
 21
0.637
  0
LINE
  5
4BE
100
AcDbEntity
  8
0
100
AcDbLine
 62
2
  6
CONTINUOUS
 10
8.5
 20
10.112
 11
8.5
 21
10.362
  0
LINE
  5
4BF
100
AcDbEntity
  8
0
100
AcDbLine
 62
2
  6
CONTINUOUS
 10
0.62
 20
5.4995
 11
0.37
 21
5.4995
  0
LINE
  5
4C0
100
AcDbEntity
  8
0
100
AcDbLine
 62
2
  6
CONTINUOUS
 10
16.38
 20
5.4995
 11
16.63
 21
5.4995
  0
LINE
  5
4C1
100
AcDbEntity
  8
0
100
AcDbLine
 62
2
  6
CONTINUOUS
 10
10.03
 20
2.807
 11
10.03
 21
0.887
  0
LINE
  5
4C2
100
AcDbEntity
  8
0
100
AcDbLine
 62
2
  6
CONTINUOUS
 10
10.47
 20
0.887
 11
10.47
 21
0.637
  0
LINE
  5
4C3
100
AcDbEntity
  8
0
100
AcDbLine
 62
2
  6
CONTINUOUS
 10
10.47
 20
10.112
 11
10.47
 21
10.362
  0
LINE
  5
4C4
100
AcDbEntity
  8
0
100
AcDbLine
 62
7
  6
CONTINUOUS
 10
10.5342808475
 20
1.143294839
 11
10.5342808475
 21
0.921203839
  0
LINE
  5
4C5
100
AcDbEntity
  8
0
100
AcDbLine
 62
7
  6
CONTINUOUS
 10
10.5342808475
 20
1.193294839
 11
10.5342808475
 21
1.293294839
  0
LINE
  5
4C6
100
AcDbEntity
  8
0
100
AcDbLine
 62
7
  6
CONTINUOUS
 10
10.5342808475
 20
1.343294839
 11
10.5342808475
 21
1.565385839
  0
LINE
  5
4C7
100
AcDbEntity
  8
0
100
AcDbLine
 62
2
  6
CONTINUOUS
 10
8.5
 20
0.887
 11
8.413397
 21
0.737
  0
LINE
  5
4C8
100
AcDbEntity
  8
0
100
AcDbLine
 62
2
  6
CONTINUOUS
 10
0.62
 20
7.7995
 11
0.37
 21
7.7995
  0
LINE
  5
4C9
100
AcDbEntity
  8
0
100
AcDbLine
 62
2
  6
CONTINUOUS
 10
16.38
 20
7.7995
 11
16.63
 21
7.7995
  0
LINE
  5
4CA
100
AcDbEntity
  8
0
100
AcDbLine
 62
2
  6
CONTINUOUS
 10
8.413397
 20
10.262
 11
8.5
 21
10.112
  0
LINE
  5
4CB
100
AcDbEntity
  8
0
100
AcDbLine
 62
7
  6
CONTINUOUS
 10
11.1389508475
 20
1.060596839
 11
11.1389508475
 21
1.425992839
  0
LINE
  5
4CC
100
AcDbEntity
  8
0
100
AcDbLine
 62
7
  6
CONTINUOUS
 10
11.7453418475
 20
1.495385839
 11
11.7453418475
 21
0.991203839
  0
LINE
  5
4CD
100
AcDbEntity
  8
0
100
AcDbLine
 62
1
  6
CONTINUOUS
 10
12.03
 20
2.807
 11
12.03
 21
0.887
  0
LINE
  5
4CE
100
AcDbEntity
  8
0
100
AcDbLine
 62
2
  6
CONTINUOUS
 10
12.44
 20
0.887
 11
12.44
 21
0.637
  0
LINE
  5
4CF
100
AcDbEntity
  8
0
100
AcDbLine
 62
2
  6
CONTINUOUS
 10
12.44
 20
10.112
 11
12.44
 21
10.362
  0
LINE
  5
4D0
100
AcDbEntity
  8
0
100
AcDbLine
 62
2
  6
CONTINUOUS
 10
16.53
 20
5.586103
 11
16.38
 21
5.4995
  0
LINE
  5
4D1
100
AcDbEntity
  8
0
100
AcDbLine
 62
2
  6
CONTINUOUS
 10
16.38
 20
5.4995
 11
16.53
 21
5.412897
  0
LINE
  5
4D2
100
AcDbEntity
  8
0
100
AcDbLine
 62
2
  6
CONTINUOUS
 10
12.83
 20
1.507
 11
12.83
 21
1.137
  0
LINE
  5
4D3
100
AcDbEntity
  8
0
100
AcDbLine
 62
2
  6
CONTINUOUS
 10
16.38
 20
10.112
 11
0.62
 21
10.112
  0
LINE
  5
4D4
100
AcDbEntity
  8
0
100
AcDbLine
 62
2
  6
CONTINUOUS
 10
8.586603
 20
10.262
 11
8.413397
 21
10.262
  0
LINE
  5
4D5
100
AcDbEntity
  8
0
100
AcDbLine
 62
2
  6
CONTINUOUS
 10
14.205
 20
1.137
 11
14.205
 21
0.887
  0
LINE
  5
4D6
100
AcDbEntity
  8
0
100
AcDbLine
 62
2
  6
CONTINUOUS
 10
14.41
 20
0.887
 11
14.41
 21
0.637
  0
LINE
  5
4D7
100
AcDbEntity
  8
0
100
AcDbLine
 62
2
  6
CONTINUOUS
 10
14.41
 20
10.112
 11
14.41
 21
10.362
  0
LINE
  5
4D8
100
AcDbEntity
  8
0
100
AcDbLine
 62
2
  6
CONTINUOUS
 10
15.58
 20
1.507
 11
15.58
 21
1.137
  0
LINE
  5
4D9
100
AcDbEntity
  8
0
100
AcDbLine
 62
2
  6
CONTINUOUS
 10
16.38
 20
0.887
 11
16.38
 21
10.112
  0
LINE
  5
4DA
100
AcDbEntity
  8
0
100
AcDbLine
 62
2
  6
CONTINUOUS
 10
16.53
 20
5.412897
 11
16.53
 21
5.586103
  0
LWPOLYLINE
  5
4DB
100
AcDbEntity
  8
0
100
AcDbPolyline
 62
7
  6
CONTINUOUS
 90
8
 70
0
 10
14.0480943122
 20
3.5684110114
 10
14.089450679
 20
3.5493700868
 10
14.1371089669
 20
3.5361196387
 10
14.1886793906
 20
3.5293240999
 10
14.2415759934
 20
3.5293242271
 10
14.2931463191
 20
3.5361200138
 10
14.3408044159
 20
3.549370691
 10
14.3821605081
 20
3.5684118144
  0
LWPOLYLINE
  5
4DC
100
AcDbEntity
  8
0
100
AcDbPolyline
 62
7
  6
CONTINUOUS
 90
5
 70
0
 10
13.0602343585
 20
4.1952381722
 10
13.0617057938
 20
4.1799678899
 10
13.0734766099
 20
4.1501941741
 10
13.0964277842
 20
4.1226791525
 10
13.1294084488
 20
4.0988025429
  0
LWPOLYLINE
  5
4DD
100
AcDbEntity
  8
0
100
AcDbPolyline
 62
3
  6
CONTINUOUS
 90
5
 70
0
 10
13.0602343585
 20
4.2788171597
 10
13.0617057938
 20
4.2635468775
 10
13.0734766099
 20
4.2337731617
 10
13.0964277842
 20
4.20625814
 10
13.1294084488
 20
4.1823815304
  0
LINE
  5
4DE
100
AcDbEntity
  8
0
100
AcDbLine
 62
3
  6
CONTINUOUS
 10
13.9852046658
 20
3.7932469776
 11
14.0042954786
 21
3.7906006078
  0
LINE
  5
4DF
100
AcDbEntity
  8
0
100
AcDbLine
 62
3
  6
CONTINUOUS
 10
14.1544028794
 20
3.7569826452
 11
14.1687084865
 21
3.75430713
  0
LWPOLYLINE
  5
4E0
100
AcDbEntity
  8
0
100
AcDbPolyline
 62
3
  6
CONTINUOUS
 90
8
 70
0
 10
14.0480943122
 20
3.651989999
 10
14.089450679
 20
3.6329490744
 10
14.1371089669
 20
3.6196986263
 10
14.1886793906
 20
3.6129030875
 10
14.2415759934
 20
3.6129032146
 10
14.2931463191
 20
3.6196990014
 10
14.3408044159
 20
3.6329496786
 10
14.3821605081
 20
3.651990802
  0
LINE
  5
4E1
100
AcDbEntity
  8
0
100
AcDbLine
 62
7
  6
CONTINUOUS
 10
13.1294084488
 20
4.0988025429
 11
14.0480943122
 21
3.5684110114
  0
LINE
  5
4E2
100
AcDbEntity
  8
0
100
AcDbLine
 62
3
  6
CONTINUOUS
 10
13.1294084488
 20
4.1823815304
 11
14.0480943122
 21
3.651989999
  0
LINE
  5
4E3
100
AcDbEntity
  8
0
100
AcDbLine
 62
3
  6
CONTINUOUS
 10
13.1471195674
 20
4.2771046884
 11
13.1565391029
 21
4.2688746179
  0
LINE
  5
4E4
100
AcDbEntity
  8
0
100
AcDbLine
 62
7
  6
CONTINUOUS
 10
13.1710460447
 20
4.2762857817
 11
13.1639939805
 21
4.2831490228
  0
LINE
  5
4E5
100
AcDbEntity
  8
0
100
AcDbLine
 62
3
  6
CONTINUOUS
 10
13.1710460447
 20
4.2772501546
 11
13.1639939805
 21
4.2841133957
  0
LINE
  5
4E6
100
AcDbEntity
  8
0
100
AcDbLine
 62
3
  6
CONTINUOUS
 10
13.2049962805
 20
4.3023185784
 11
13.2120483464
 21
4.2954553363
  0
LINE
  5
4E7
100
AcDbEntity
  8
0
100
AcDbLine
 62
3
  6
CONTINUOUS
 10
13.2262531786
 20
4.2872543582
 11
13.2333052445
 21
4.2803911161
  0
LINE
  5
4E8
100
AcDbEntity
  8
0
100
AcDbLine
 62
7
  6
CONTINUOUS
 10
13.2265552865
 20
4.3028664992
 11
13.2218706938
 21
4.3083629109
  0
LINE
  5
4E9
100
AcDbEntity
  8
0
100
AcDbLine
 62
3
  6
CONTINUOUS
 10
13.2265552865
 20
4.3038308721
 11
13.2218706938
 21
4.3093272838
  0
LINE
  5
4EA
100
AcDbEntity
  8
0
100
AcDbLine
 62
3
  6
CONTINUOUS
 10
13.2003620396
 20
4.3105777421
 11
13.2049962805
 21
4.3023185784
  0
LINE
  5
4EB
100
AcDbEntity
  8
0
100
AcDbLine
 62
7
  6
CONTINUOUS
 10
13.25440235
 20
4.2789097426
 11
13.2501796543
 21
4.2864354506
  0
LINE
  5
4EC
100
AcDbEntity
  8
0
100
AcDbLine
 62
3
  6
CONTINUOUS
 10
13.2548138935
 20
4.2791406608
 11
13.2501796543
 21
4.2873998235
  0
LINE
  5
4ED
100
AcDbEntity
  8
0
100
AcDbLine
 62
3
  6
CONTINUOUS
 10
13.1425356783
 20
4.288126605
 11
13.1471195674
 21
4.2771046884
  0
LINE
  5
4EE
100
AcDbEntity
  8
0
100
AcDbLine
 62
7
  6
CONTINUOUS
 10
13.0602203789
 20
4.1952381698
 11
13.0602203789
 21
4.2788171573
  0
LINE
  5
4EF
100
AcDbEntity
  8
0
100
AcDbLine
 62
9
  6
CONTINUOUS
 10
13.1294084488
 20
4.1823815304
 11
13.1294084488
 21
4.0988025429
  0
LWPOLYLINE
  5
4F0
100
AcDbEntity
  8
0
100
AcDbPolyline
 62
3
  6
CONTINUOUS
 90
5
 70
0
 10
14.2751971864
 20
6.5439332576
 10
14.2627076215
 20
6.5350232456
 10
14.2428076521
 20
6.5099420474
 10
14.2304539924
 20
6.4763077611
 10
14.2262661064
 20
6.4358069503
  0
LINE
  5
4F1
100
AcDbEntity
  8
0
100
AcDbLine
 62
7
  6
CONTINUOUS
 10
14.3475709001
 20
6.5857341334
 11
14.2751901923
 21
6.5439453617
  0
LINE
  5
4F2
100
AcDbEntity
  8
0
100
AcDbLine
 62
9
  6
CONTINUOUS
 10
14.3932998998
 20
6.5322467132
 11
14.4656806075
 21
6.5740354848
  0
LINE
  5
4F3
100
AcDbEntity
  8
0
100
AcDbLine
 62
3
  6
CONTINUOUS
 10
14.0186513655
 20
3.7906878871
 11
14.0330576408
 21
3.7935378984
  0
LINE
  5
4F4
100
AcDbEntity
  8
0
100
AcDbLine
 62
7
  6
CONTINUOUS
 10
14.0308412047
 20
3.8022286226
 11
14.0068643567
 21
3.799320415
  0
LINE
  5
4F5
100
AcDbEntity
  8
0
100
AcDbLine
 62
3
  6
CONTINUOUS
 10
14.0308412047
 20
3.8031929955
 11
14.0068643567
 21
3.8002847879
  0
LINE
  5
4F6
100
AcDbEntity
  8
0
100
AcDbLine
 62
3
  6
CONTINUOUS
 10
14.1687084865
 20
3.75430713
 11
14.185482196
 21
3.7557903315
  0
LINE
  5
4F7
100
AcDbEntity
  8
0
100
AcDbLine
 62
7
  6
CONTINUOUS
 10
14.1736951872
 20
3.7644228593
 11
14.1641245603
 21
3.7643646943
  0
LINE
  5
4F8
100
AcDbEntity
  8
0
100
AcDbLine
 62
3
  6
CONTINUOUS
 10
14.1736951872
 20
3.7653872323
 11
14.1641245603
 21
3.7653290672
  0
LINE
  5
4F9
100
AcDbEntity
  8
0
100
AcDbLine
 62
3
  6
CONTINUOUS
 10
14.0042954786
 20
3.7906006078
 11
14.0186513655
 21
3.7906878871
  0
LINE
  5
4FA
100
AcDbEntity
  8
0
100
AcDbLine
 62
7
  6
CONTINUOUS
 10
13.9145833367
 20
3.8553895054
 11
13.9050127081
 21
3.8553313394
  0
LINE
  5
4FB
100
AcDbEntity
  8
0
100
AcDbLine
 62
3
  6
CONTINUOUS
 10
13.9145833367
 20
3.8563538783
 11
13.9050127081
 21
3.8562957123
  0
LINE
  5
4FC
100
AcDbEntity
  8
0
100
AcDbLine
 62
7
  6
CONTINUOUS
 10
14.0465062535
 20
3.8741474572
 11
14.0321503674
 21
3.8740601784
  0
LINE
  5
4FD
100
AcDbEntity
  8
0
100
AcDbLine
 62
3
  6
CONTINUOUS
 10
14.0465062535
 20
3.8751118301
 11
14.0321503674
 21
3.8750245513
  0
LINE
  5
4FE
100
AcDbEntity
  8
0
100
AcDbLine
 62
7
  6
CONTINUOUS
 10
13.9606226504
 20
3.8874375629
 11
13.9510520777
 21
3.8873793665
  0
LINE
  5
4FF
100
AcDbEntity
  8
0
100
AcDbLine
 62
3
  6
CONTINUOUS
 10
13.9606226504
 20
3.8884019358
 11
13.9510520777
 21
3.8883437395
  0
LINE
  5
500
100
AcDbEntity
  8
0
100
AcDbLine
 62
3
  6
CONTINUOUS
 10
13.9461157102
 20
3.8800264
 11
13.9628390865
 21
3.8787468387
  0
LINE
  5
501
100
AcDbEntity
  8
0
100
AcDbLine
 62
7
  6
CONTINUOUS
 10
14.0068643567
 20
3.799320415
 11
13.9949262939
 21
3.8006290588
  0
LINE
  5
502
100
AcDbEntity
  8
0
100
AcDbLine
 62
3
  6
CONTINUOUS
 10
14.0068643567
 20
3.8002847879
 11
13.9949262939
 21
3.8015934317
  0
LINE
  5
503
100
AcDbEntity
  8
0
100
AcDbLine
 62
3
  6
CONTINUOUS
 10
13.9000763941
 20
3.8479783411
 11
13.9120144577
 21
3.8466696978
  0
LINE
  5
504
100
AcDbEntity
  8
0
100
AcDbLine
 62
3
  6
CONTINUOUS
 10
14.0439373762
 20
3.8654276505
 11
14.055875439
 21
3.8641190067
  0
LINE
  5
505
100
AcDbEntity
  8
0
100
AcDbLine
 62
7
  6
CONTINUOUS
 10
13.8056796053
 20
3.9182636816
 11
13.7937415408
 21
3.9195723245
  0
LINE
  5
506
100
AcDbEntity
  8
0
100
AcDbLine
 62
3
  6
CONTINUOUS
 10
13.8056796053
 20
3.9192280546
 11
13.7937415408
 21
3.9205366974
  0
LINE
  5
507
100
AcDbEntity
  8
0
100
AcDbLine
 62
3
  6
CONTINUOUS
 10
13.9350336448
 20
3.9283018268
 11
13.9469717076
 21
3.926993183
  0
LINE
  5
508
100
AcDbEntity
  8
0
100
AcDbLine
 62
7
  6
CONTINUOUS
 10
14.0655970657
 20
3.8715010871
 11
14.0465062535
 21
3.8741474572
  0
LINE
  5
509
100
AcDbEntity
  8
0
100
AcDbLine
 62
3
  6
CONTINUOUS
 10
14.0655970657
 20
3.87246546
 11
14.0465062535
 21
3.8751118301
  0
LINE
  5
50A
100
AcDbEntity
  8
0
100
AcDbLine
 62
3
  6
CONTINUOUS
 10
13.8857708405
 20
3.8506538246
 11
13.9000763941
 21
3.8479783411
  0
LINE
  5
50B
100
AcDbEntity
  8
0
100
AcDbLine
 62
7
  6
CONTINUOUS
 10
13.9050127081
 20
3.8553313394
 11
13.8978599588
 21
3.8566690657
  0
LINE
  5
50C
100
AcDbEntity
  8
0
100
AcDbLine
 62
3
  6
CONTINUOUS
 10
13.9050127081
 20
3.8562957123
 11
13.8978599588
 21
3.8576334387
  0
LINE
  5
50D
100
AcDbEntity
  8
0
100
AcDbLine
 62
3
  6
CONTINUOUS
 10
13.7816020893
 20
3.9107943206
 11
13.7959075887
 21
3.9081188684
  0
LINE
  5
50E
100
AcDbEntity
  8
0
100
AcDbLine
 62
7
  6
CONTINUOUS
 10
13.9566933343
 20
3.9343752633
 11
13.9423878356
 21
3.937050716
  0
LINE
  5
50F
100
AcDbEntity
  8
0
100
AcDbLine
 62
3
  6
CONTINUOUS
 10
13.9566933343
 20
3.9353396363
 11
13.9423878356
 21
3.9380150889
  0
LINE
  5
510
100
AcDbEntity
  8
0
100
AcDbLine
 62
7
  6
CONTINUOUS
 10
14.1641245603
 20
3.7643646943
 11
14.1546043208
 21
3.7670692608
  0
LINE
  5
511
100
AcDbEntity
  8
0
100
AcDbLine
 62
3
  6
CONTINUOUS
 10
14.1641245603
 20
3.7653290672
 11
14.1546043208
 21
3.7680336337
  0
LINE
  5
512
100
AcDbEntity
  8
0
100
AcDbLine
 62
7
  6
CONTINUOUS
 10
13.9510520777
 20
3.8873793665
 11
13.9320115988
 21
3.8927884994
  0
LINE
  5
513
100
AcDbEntity
  8
0
100
AcDbLine
 62
3
  6
CONTINUOUS
 10
13.9510520777
 20
3.8883437395
 11
13.9320115988
 21
3.8937528724
  0
LINE
  5
514
100
AcDbEntity
  8
0
100
AcDbLine
 62
3
  6
CONTINUOUS
 10
13.8738831108
 20
3.8547252311
 11
13.8857708405
 21
3.8506538246
  0
LINE
  5
515
100
AcDbEntity
  8
0
100
AcDbLine
 62
7
  6
CONTINUOUS
 10
13.7937415408
 20
3.9195723245
 11
13.7818538113
 21
3.923643731
  0
LINE
  5
516
100
AcDbEntity
  8
0
100
AcDbLine
 62
3
  6
CONTINUOUS
 10
13.7937415408
 20
3.9205366974
 11
13.7818538113
 21
3.924608104
  0
LINE
  5
517
100
AcDbEntity
  8
0
100
AcDbLine
 62
7
  6
CONTINUOUS
 10
13.9949262939
 20
3.8006290588
 11
13.9806711285
 21
3.8060672742
  0
LINE
  5
518
100
AcDbEntity
  8
0
100
AcDbLine
 62
3
  6
CONTINUOUS
 10
13.9949262939
 20
3.8015934317
 11
13.9806711285
 21
3.8070316471
  0
LINE
  5
519
100
AcDbEntity
  8
0
100
AcDbLine
 62
7
  6
CONTINUOUS
 10
13.8978599588
 20
3.8566690657
 11
13.8836047934
 21
3.8621072811
  0
LINE
  5
51A
100
AcDbEntity
  8
0
100
AcDbLine
 62
3
  6
CONTINUOUS
 10
13.8978599588
 20
3.8576334387
 11
13.8836047934
 21
3.8630716541
  0
LINE
  5
51B
100
AcDbEntity
  8
0
100
AcDbLine
 62
3
  6
CONTINUOUS
 10
13.7673468695
 20
3.9162325672
 11
13.7816020893
 21
3.9107943206
  0
LINE
  5
51C
100
AcDbEntity
  8
0
100
AcDbLine
 62
3
  6
CONTINUOUS
 10
14.055875439
 20
3.8641190067
 11
14.0701306044
 21
3.8586807913
  0
LINE
  5
51D
100
AcDbEntity
  8
0
100
AcDbLine
 62
3
  6
CONTINUOUS
 10
13.4193285083
 20
4.1171565162
 11
13.4335836739
 21
4.1117183009
  0
LINE
  5
51E
100
AcDbEntity
  8
0
100
AcDbLine
 62
3
  6
CONTINUOUS
 10
13.9469717076
 20
3.926993183
 11
13.961226873
 21
3.9215549676
  0
LINE
  5
51F
100
AcDbEntity
  8
0
100
AcDbLine
 62
3
  6
CONTINUOUS
 10
13.96858201
 20
3.800052033
 11
13.9852046658
 21
3.7932469776
  0
LINE
  5
520
100
AcDbEntity
  8
0
100
AcDbLine
 62
7
  6
CONTINUOUS
 10
14.0822197212
 20
3.8646960316
 11
14.0655970657
 21
3.8715010871
  0
LINE
  5
521
100
AcDbEntity
  8
0
100
AcDbLine
 62
3
  6
CONTINUOUS
 10
14.0822197212
 20
3.8656604045
 11
14.0655970657
 21
3.87246546
  0
LINE
  5
522
100
AcDbEntity
  8
0
100
AcDbLine
 62
7
  6
CONTINUOUS
 10
13.9756834799
 20
3.9262033677
 11
13.9566933343
 21
3.9343752633
  0
LINE
  5
523
100
AcDbEntity
  8
0
100
AcDbLine
 62
3
  6
CONTINUOUS
 10
13.9756834799
 20
3.9271677406
 11
13.9566933343
 21
3.9353396363
  0
LINE
  5
524
100
AcDbEntity
  8
0
100
AcDbLine
 62
3
  6
CONTINUOUS
 10
13.1565391029
 20
4.2688746179
 11
13.1754788814
 21
4.257939979
  0
LINE
  5
525
100
AcDbEntity
  8
0
100
AcDbLine
 62
3
  6
CONTINUOUS
 10
13.2299307369
 20
4.2265028968
 11
13.2441355691
 21
4.2183019186
  0
LINE
  5
526
100
AcDbEntity
  8
0
100
AcDbLine
 62
3
  6
CONTINUOUS
 10
13.277280173
 20
4.1991663055
 11
13.2962199582
 21
4.1882316628
  0
LINE
  5
527
100
AcDbEntity
  8
0
100
AcDbLine
 62
3
  6
CONTINUOUS
 10
13.3293645621
 20
4.1690960497
 11
13.3435693943
 21
4.1608950716
  0
LINE
  5
528
100
AcDbEntity
  8
0
100
AcDbLine
 62
3
  6
CONTINUOUS
 10
13.3625091796
 20
4.1499604288
 11
13.4193285083
 21
4.1171565162
  0
LINE
  5
529
100
AcDbEntity
  8
0
100
AcDbLine
 62
3
  6
CONTINUOUS
 10
13.4690454209
 20
4.0884530927
 11
13.4832502531
 21
4.0802521146
  0
LINE
  5
52A
100
AcDbEntity
  8
0
100
AcDbLine
 62
3
  6
CONTINUOUS
 10
13.5495394609
 20
4.0419808884
 11
13.563744293
 21
4.0337799103
  0
LINE
  5
52B
100
AcDbEntity
  8
0
100
AcDbLine
 62
3
  6
CONTINUOUS
 10
13.5826840512
 20
4.0228452831
 11
13.5968888834
 21
4.014644305
  0
LINE
  5
52C
100
AcDbEntity
  8
0
100
AcDbLine
 62
3
  6
CONTINUOUS
 10
13.6300335279
 20
3.9955086685
 11
13.6489732861
 21
3.9845740414
  0
LINE
  5
52D
100
AcDbEntity
  8
0
100
AcDbLine
 62
3
  6
CONTINUOUS
 10
13.6821178764
 20
3.9654384361
 11
13.6963227086
 21
3.957237458
  0
LINE
  5
52E
100
AcDbEntity
  8
0
100
AcDbLine
 62
3
  6
CONTINUOUS
 10
13.7484071113
 20
3.9271671943
 11
13.7673468695
 21
3.9162325672
  0
LINE
  5
52F
100
AcDbEntity
  8
0
100
AcDbLine
 62
3
  6
CONTINUOUS
 10
13.8549433526
 20
3.8656598582
 11
13.8738831108
 21
3.8547252311
  0
LINE
  5
530
100
AcDbEntity
  8
0
100
AcDbLine
 62
3
  6
CONTINUOUS
 10
14.0301362647
 20
3.7645144714
 11
14.0443411511
 21
3.756313462
  0
LINE
  5
531
100
AcDbEntity
  8
0
100
AcDbLine
 62
3
  6
CONTINUOUS
 10
14.1035279157
 20
3.7221427406
 11
14.1201001838
 21
3.7125749536
  0
LINE
  5
532
100
AcDbEntity
  8
0
100
AcDbLine
 62
3
  6
CONTINUOUS
 10
14.1390399961
 20
3.7016402952
 11
14.1532448283
 21
3.6934393171
  0
LINE
  5
533
100
AcDbEntity
  8
0
100
AcDbLine
 62
3
  6
CONTINUOUS
 10
14.219534009
 20
3.6551681065
 11
14.2337388412
 21
3.6469671284
  0
LINE
  5
534
100
AcDbEntity
  8
0
100
AcDbLine
 62
7
  6
CONTINUOUS
 10
13.8836047934
 20
3.8621072811
 11
13.8693999612
 21
3.8703082593
  0
LINE
  5
535
100
AcDbEntity
  8
0
100
AcDbLine
 62
3
  6
CONTINUOUS
 10
13.8836047934
 20
3.8630716541
 11
13.8693999612
 21
3.8712726322
  0
LINE
  5
536
100
AcDbEntity
  8
0
100
AcDbLine
 62
7
  6
CONTINUOUS
 10
13.7818538113
 20
3.923643731
 11
13.7629140531
 21
3.9345783581
  0
LINE
  5
537
100
AcDbEntity
  8
0
100
AcDbLine
 62
7
  6
CONTINUOUS
 10
13.4362029131
 20
4.1232008556
 11
13.3912209536
 21
4.1491706145
  0
LINE
  5
538
100
AcDbEntity
  8
0
100
AcDbLine
 62
7
  6
CONTINUOUS
 10
13.1899858232
 20
4.2653511428
 11
13.1710460447
 21
4.2762857817
  0
LINE
  5
539
100
AcDbEntity
  8
0
100
AcDbLine
 62
3
  6
CONTINUOUS
 10
13.7818538113
 20
3.924608104
 11
13.7629140531
 21
3.9355427311
  0
LINE
  5
53A
100
AcDbEntity
  8
0
100
AcDbLine
 62
3
  6
CONTINUOUS
 10
13.4362029131
 20
4.1241652285
 11
13.3912209536
 21
4.1501349874
  0
LINE
  5
53B
100
AcDbEntity
  8
0
100
AcDbLine
 62
3
  6
CONTINUOUS
 10
13.1899858232
 20
4.2663155158
 11
13.1710460447
 21
4.2772501546
  0
LINE
  5
53C
100
AcDbEntity
  8
0
100
AcDbLine
 62
7
  6
CONTINUOUS
 10
13.8597641885
 20
3.8926222834
 11
13.8483948226
 21
3.8991862414
  0
LINE
  5
53D
100
AcDbEntity
  8
0
100
AcDbLine
 62
3
  6
CONTINUOUS
 10
13.8602321646
 20
3.8933164763
 11
13.8483948226
 21
3.9001506143
  0
LINE
  5
53E
100
AcDbEntity
  8
0
100
AcDbLine
 62
3
  6
CONTINUOUS
 10
13.5217340158
 20
4.0915358745
 11
13.5690834654
 21
4.0641992755
  0
LINE
  5
53F
100
AcDbEntity
  8
0
100
AcDbLine
 62
3
  6
CONTINUOUS
 10
14.1917285639
 20
3.7047230927
 11
14.2390780406
 21
3.677386478
  0
LINE
  5
540
100
AcDbEntity
  8
0
100
AcDbLine
 62
7
  6
CONTINUOUS
 10
13.7604814791
 20
3.9555255297
 11
13.7466942279
 21
3.9634854228
  0
LINE
  5
541
100
AcDbEntity
  8
0
100
AcDbLine
 62
7
  6
CONTINUOUS
 10
13.1686134537
 20
4.297232963
 11
13.1548262026
 21
4.3051928561
  0
LINE
  5
542
100
AcDbEntity
  8
0
100
AcDbLine
 62
3
  6
CONTINUOUS
 10
13.7608990601
 20
3.9562488176
 11
13.7466942279
 21
3.9644497957
  0
LINE
  5
543
100
AcDbEntity
  8
0
100
AcDbLine
 62
3
  6
CONTINUOUS
 10
13.1690310348
 20
4.2979562509
 11
13.1548262026
 21
4.306157229
  0
LINE
  5
544
100
AcDbEntity
  8
0
100
AcDbLine
 62
7
  6
CONTINUOUS
 10
14.2463818982
 20
3.6833726044
 11
14.2037674016
 21
3.7079755389
  0
LINE
  5
545
100
AcDbEntity
  8
0
100
AcDbLine
 62
7
  6
CONTINUOUS
 10
13.5763872687
 20
4.0701854332
 11
13.5337727722
 21
4.0947883676
  0
LINE
  5
546
100
AcDbEntity
  8
0
100
AcDbLine
 62
3
  6
CONTINUOUS
 10
14.2463818982
 20
3.6843369773
 11
14.2037674016
 21
3.7089399118
  0
LINE
  5
547
100
AcDbEntity
  8
0
100
AcDbLine
 62
3
  6
CONTINUOUS
 10
13.5763872687
 20
4.0711498061
 11
13.5337727722
 21
4.0957527406
  0
LINE
  5
548
100
AcDbEntity
  8
0
100
AcDbLine
 62
3
  6
CONTINUOUS
 10
13.2120483464
 20
4.2954553363
 11
13.2262531786
 21
4.2872543582
  0
LINE
  5
549
100
AcDbEntity
  8
0
100
AcDbLine
 62
3
  6
CONTINUOUS
 10
13.4274883089
 20
4.1710738298
 11
13.4724702685
 21
4.1451040709
  0
LINE
  5
54A
100
AcDbEntity
  8
0
100
AcDbLine
 62
3
  6
CONTINUOUS
 10
13.8039163345
 20
3.9537479245
 11
13.8181211667
 21
3.9455469464
  0
LINE
  5
54B
100
AcDbEntity
  8
0
100
AcDbLine
 62
3
  6
CONTINUOUS
 10
14.0951154483
 20
3.7856278412
 11
14.1353624005
 21
3.7623917781
  0
LINE
  5
54C
100
AcDbEntity
  8
0
100
AcDbLine
 62
3
  6
CONTINUOUS
 10
13.9128703992
 20
3.893636511
 11
13.9223403054
 21
3.8881691818
  0
LINE
  5
54D
100
AcDbEntity
  8
0
100
AcDbLine
 62
7
  6
CONTINUOUS
 10
13.9320115988
 20
3.8927884994
 11
13.9225416926
 21
3.8982558286
  0
LINE
  5
54E
100
AcDbEntity
  8
0
100
AcDbLine
 62
3
  6
CONTINUOUS
 10
13.9320115988
 20
3.8937528724
 11
13.9225416926
 21
3.8992202016
  0
LINE
  5
54F
100
AcDbEntity
  8
0
100
AcDbLine
 62
7
  6
CONTINUOUS
 10
14.1546043208
 20
3.7670692608
 11
14.1096223884
 21
3.793039004
  0
LINE
  5
550
100
AcDbEntity
  8
0
100
AcDbLine
 62
7
  6
CONTINUOUS
 10
13.8326281068
 20
3.9529581092
 11
13.8184232746
 21
3.9611590874
  0
LINE
  5
551
100
AcDbEntity
  8
0
100
AcDbLine
 62
7
  6
CONTINUOUS
 10
13.4869772086
 20
4.1525152338
 11
13.4419952491
 21
4.1784849927
  0
LINE
  5
552
100
AcDbEntity
  8
0
100
AcDbLine
 62
7
  6
CONTINUOUS
 10
13.2407601187
 20
4.294665521
 11
13.2265552865
 21
4.3028664992
  0
LINE
  5
553
100
AcDbEntity
  8
0
100
AcDbLine
 62
3
  6
CONTINUOUS
 10
14.1546043208
 20
3.7680336337
 11
14.1096223884
 21
3.794003377
  0
LINE
  5
554
100
AcDbEntity
  8
0
100
AcDbLine
 62
3
  6
CONTINUOUS
 10
13.8326281068
 20
3.9539224822
 11
13.8184232746
 21
3.9621234603
  0
LINE
  5
555
100
AcDbEntity
  8
0
100
AcDbLine
 62
3
  6
CONTINUOUS
 10
13.4869772086
 20
4.1534796067
 11
13.4419952491
 21
4.1794493656
  0
LINE
  5
556
100
AcDbEntity
  8
0
100
AcDbLine
 62
3
  6
CONTINUOUS
 10
13.2407601187
 20
4.295629894
 11
13.2265552865
 21
4.3038308721
  0
LINE
  5
557
100
AcDbEntity
  8
0
100
AcDbLine
 62
3
  6
CONTINUOUS
 10
13.2767253644
 20
4.2999922254
 11
13.2909301966
 21
4.2917912472
  0
LINE
  5
558
100
AcDbEntity
  8
0
100
AcDbLine
 62
3
  6
CONTINUOUS
 10
13.8685933559
 20
3.9582848116
 11
13.8827981881
 21
3.9500838335
  0
LINE
  5
559
100
AcDbEntity
  8
0
100
AcDbLine
 62
3
  6
CONTINUOUS
 10
13.9112078525
 20
3.9336818772
 11
13.9230452487
 21
3.9268477078
  0
LINE
  5
55A
100
AcDbEntity
  8
0
100
AcDbLine
 62
3
  6
CONTINUOUS
 10
13.9567950014
 20
3.8096489339
 11
13.96858201
 21
3.800052033
  0
LINE
  5
55B
100
AcDbEntity
  8
0
100
AcDbLine
 62
7
  6
CONTINUOUS
 10
13.2501796543
 20
4.2864354506
 11
13.2407601187
 21
4.294665521
  0
LINE
  5
55C
100
AcDbEntity
  8
0
100
AcDbLine
 62
3
  6
CONTINUOUS
 10
13.2501796543
 20
4.2873998235
 11
13.2407601187
 21
4.295629894
  0
LINE
  5
55D
100
AcDbEntity
  8
0
100
AcDbLine
 62
7
  6
CONTINUOUS
 10
13.2961686584
 20
4.3157207355
 11
13.2867491194
 21
4.3239508079
  0
LINE
  5
55E
100
AcDbEntity
  8
0
100
AcDbLine
 62
3
  6
CONTINUOUS
 10
13.2961686584
 20
4.3166851085
 11
13.2867491194
 21
4.3249151809
  0
LINE
  5
55F
100
AcDbEntity
  8
0
100
AcDbLine
 62
3
  6
CONTINUOUS
 10
13.7389875928
 20
3.9353972551
 11
13.7484071113
 21
3.9271671943
  0
LINE
  5
560
100
AcDbEntity
  8
0
100
AcDbLine
 62
7
  6
CONTINUOUS
 10
13.8693999612
 20
3.8703082593
 11
13.8599803883
 21
3.8785383512
  0
LINE
  5
561
100
AcDbEntity
  8
0
100
AcDbLine
 62
3
  6
CONTINUOUS
 10
13.8693999612
 20
3.8712726322
 11
13.8599803883
 21
3.8795027242
  0
LINE
  5
562
100
AcDbEntity
  8
0
100
AcDbLine
 62
7
  6
CONTINUOUS
 10
13.5423857382
 20
4.1735704541
 11
13.5329662194
 21
4.1818005148
  0
LINE
  5
563
100
AcDbEntity
  8
0
100
AcDbLine
 62
3
  6
CONTINUOUS
 10
13.5423857382
 20
4.1745348271
 11
13.5329662194
 21
4.1827648877
  0
LINE
  5
564
100
AcDbEntity
  8
0
100
AcDbLine
 62
7
  6
CONTINUOUS
 10
13.7629140531
 20
3.9345783581
 11
13.7558619703
 21
3.94144161
  0
LINE
  5
565
100
AcDbEntity
  8
0
100
AcDbLine
 62
3
  6
CONTINUOUS
 10
13.7629140531
 20
3.9355427311
 11
13.7558619703
 21
3.9424059829
  0
LINE
  5
566
100
AcDbEntity
  8
0
100
AcDbLine
 62
3
  6
CONTINUOUS
 10
13.84789127
 20
3.8725231101
 11
13.8549433526
 21
3.8656598582
  0
LINE
  5
567
100
AcDbEntity
  8
0
100
AcDbLine
 62
3
  6
CONTINUOUS
 10
13.2746096524
 20
4.3151728147
 11
13.2792942418
 21
4.309676405
  0
LINE
  5
568
100
AcDbEntity
  8
0
100
AcDbLine
 62
3
  6
CONTINUOUS
 10
13.4724702685
 20
4.1451040709
 11
13.4771548612
 21
4.1396076592
  0
LINE
  5
569
100
AcDbEntity
  8
0
100
AcDbLine
 62
3
  6
CONTINUOUS
 10
13.5208267423
 20
4.1730225275
 11
13.5255113351
 21
4.1675261158
  0
LINE
  5
56A
100
AcDbEntity
  8
0
100
AcDbLine
 62
3
  6
CONTINUOUS
 10
13.2218706938
 20
4.3093272838
 11
13.2196039227
 21
4.3162196191
  0
LINE
  5
56B
100
AcDbEntity
  8
0
100
AcDbLine
 62
3
  6
CONTINUOUS
 10
13.2333052445
 20
4.2803911161
 11
13.2355720138
 21
4.2734987818
  0
LINE
  5
56C
100
AcDbEntity
  8
0
100
AcDbLine
 62
7
  6
CONTINUOUS
 10
13.1475223813
 20
4.2992067088
 11
13.1475223813
 21
4.2982423359
  0
LINE
  5
56D
100
AcDbEntity
  8
0
100
AcDbLine
 62
7
  6
CONTINUOUS
 10
13.1548262026
 20
4.306157229
 11
13.1548262026
 21
4.3051928561
  0
LINE
  5
56E
100
AcDbEntity
  8
0
100
AcDbLine
 62
7
  6
CONTINUOUS
 10
13.1639939805
 20
4.2841133957
 11
13.1639939805
 21
4.2831490228
  0
LINE
  5
56F
100
AcDbEntity
  8
0
100
AcDbLine
 62
7
  6
CONTINUOUS
 10
13.1710460447
 20
4.2772501546
 11
13.1710460447
 21
4.2762857817
  0
LINE
  5
570
100
AcDbEntity
  8
0
100
AcDbLine
 62
7
  6
CONTINUOUS
 10
13.1899858232
 20
4.2663155158
 11
13.1899858232
 21
4.2653511428
  0
LINE
  5
571
100
AcDbEntity
  8
0
100
AcDbLine
 62
7
  6
CONTINUOUS
 10
13.2005634447
 20
4.3216287515
 11
13.2005634447
 21
4.3206643786
  0
LINE
  5
572
100
AcDbEntity
  8
0
100
AcDbLine
 62
7
  6
CONTINUOUS
 10
13.2018735358
 20
4.262244119
 11
13.2018735358
 21
4.2612797461
  0
LINE
  5
573
100
AcDbEntity
  8
0
100
AcDbLine
 62
7
  6
CONTINUOUS
 10
13.2078672658
 20
4.3285792719
 11
13.2078672658
 21
4.327614899
  0
LINE
  5
574
100
AcDbEntity
  8
0
100
AcDbLine
 62
7
  6
CONTINUOUS
 10
13.2138116003
 20
4.2609354762
 11
13.2138116003
 21
4.2599711032
  0
LINE
  5
575
100
AcDbEntity
  8
0
100
AcDbLine
 62
7
  6
CONTINUOUS
 10
13.217538566
 20
4.3341629664
 11
13.217538566
 21
4.3331985934
  0
LINE
  5
576
100
AcDbEntity
  8
0
100
AcDbLine
 62
7
  6
CONTINUOUS
 10
13.2218706938
 20
4.3093272838
 11
13.2218706938
 21
4.3083629109
  0
LINE
  5
577
100
AcDbEntity
  8
0
100
AcDbLine
 62
7
  6
CONTINUOUS
 10
13.2258000099
 20
4.2623895873
 11
13.2258000099
 21
4.2614252143
  0
LINE
  5
578
100
AcDbEntity
  8
0
100
AcDbLine
 62
7
  6
CONTINUOUS
 10
13.2265552865
 20
4.3038308721
 11
13.2265552865
 21
4.3028664992
  0
LINE
  5
579
100
AcDbEntity
  8
0
100
AcDbLine
 62
7
  6
CONTINUOUS
 10
13.2295773317
 20
4.338379827
 11
13.2295773317
 21
4.3374154541
  0
LINE
  5
57A
100
AcDbEntity
  8
0
100
AcDbLine
 62
7
  6
CONTINUOUS
 10
13.2330534799
 20
4.2665773552
 11
13.2330534799
 21
4.2656129822
  0
LINE
  5
57B
100
AcDbEntity
  8
0
100
AcDbLine
 62
7
  6
CONTINUOUS
 10
13.2355720138
 20
4.2734987818
 11
13.2355720138
 21
4.2725344089
  0
LINE
  5
57C
100
AcDbEntity
  8
0
100
AcDbLine
 62
7
  6
CONTINUOUS
 10
13.2407601187
 20
4.295629894
 11
13.2407601187
 21
4.294665521
  0
LINE
  5
57D
100
AcDbEntity
  8
0
100
AcDbLine
 62
7
  6
CONTINUOUS
 10
13.2487185135
 20
4.3384961986
 11
13.2487185135
 21
4.3375318257
  0
LINE
  5
57E
100
AcDbEntity
  8
0
100
AcDbLine
 62
7
  6
CONTINUOUS
 10
13.2501796543
 20
4.2873998235
 11
13.2501796543
 21
4.2864354506
  0
LINE
  5
57F
100
AcDbEntity
  8
0
100
AcDbLine
 62
7
  6
CONTINUOUS
 10
13.2630240478
 20
4.3358207255
 11
13.2630240478
 21
4.3348563525
  0
LINE
  5
580
100
AcDbEntity
  8
0
100
AcDbLine
 62
3
  6
CONTINUOUS
 10
13.1639939805
 20
4.2841133957
 11
13.1641450362
 21
4.2924016536
  0
LINE
  5
581
100
AcDbEntity
  8
0
100
AcDbLine
 62
3
  6
CONTINUOUS
 10
13.2005634447
 20
4.3216287515
 11
13.2003620396
 21
4.3105777421
  0
LINE
  5
582
100
AcDbEntity
  8
0
100
AcDbLine
 62
3
  6
CONTINUOUS
 10
13.2546124927
 20
4.2680896489
 11
13.2548138935
 21
4.2791406608
  0
LINE
  5
583
100
AcDbEntity
  8
0
100
AcDbLine
 62
7
  6
CONTINUOUS
 10
14.0321503674
 20
3.8740601784
 11
14.0177440938
 21
3.8712101681
  0
LINE
  5
584
100
AcDbEntity
  8
0
100
AcDbLine
 62
3
  6
CONTINUOUS
 10
14.0321503674
 20
3.8750245513
 11
14.0177440938
 21
3.872174541
  0
LINE
  5
585
100
AcDbEntity
  8
0
100
AcDbLine
 62
7
  6
CONTINUOUS
 10
13.9217864193
 20
3.8568145418
 11
13.9145833367
 21
3.8553895054
  0
LINE
  5
586
100
AcDbEntity
  8
0
100
AcDbLine
 62
3
  6
CONTINUOUS
 10
13.9217864193
 20
3.8577789148
 11
13.9145833367
 21
3.8563538783
  0
LINE
  5
587
100
AcDbEntity
  8
0
100
AcDbLine
 62
7
  6
CONTINUOUS
 10
13.975028924
 20
3.8902875731
 11
13.9606226504
 21
3.8874375629
  0
LINE
  5
588
100
AcDbEntity
  8
0
100
AcDbLine
 62
3
  6
CONTINUOUS
 10
13.975028924
 20
3.8912519461
 11
13.9606226504
 21
3.8884019358
  0
LINE
  5
589
100
AcDbEntity
  8
0
100
AcDbLine
 62
3
  6
CONTINUOUS
 10
13.8150487891
 20
3.9082352302
 11
13.8294550102
 21
3.9110852727
  0
LINE
  5
58A
100
AcDbEntity
  8
0
100
AcDbLine
 62
3
  6
CONTINUOUS
 10
13.9120144577
 20
3.8466696978
 11
13.9240028538
 21
3.8481238167
  0
LINE
  5
58B
100
AcDbEntity
  8
0
100
AcDbLine
 62
3
  6
CONTINUOUS
 10
14.0199605231
 20
3.86251944
 11
14.0439373762
 21
3.8654276505
  0
LINE
  5
58C
100
AcDbEntity
  8
0
100
AcDbLine
 62
3
  6
CONTINUOUS
 10
13.9628390865
 20
3.8787468387
 11
13.9748274825
 21
3.8802009576
  0
LINE
  5
58D
100
AcDbEntity
  8
0
100
AcDbLine
 62
3
  6
CONTINUOUS
 10
13.9230452487
 20
3.9268477078
 11
13.9350336448
 21
3.9283018268
  0
LINE
  5
58E
100
AcDbEntity
  8
0
100
AcDbLine
 62
7
  6
CONTINUOUS
 10
13.8176680014
 20
3.9197178006
 11
13.8056796053
 21
3.9182636816
  0
LINE
  5
58F
100
AcDbEntity
  8
0
100
AcDbLine
 62
3
  6
CONTINUOUS
 10
13.8176680014
 20
3.9206821735
 11
13.8056796053
 21
3.9192280546
  0
LINE
  5
590
100
AcDbEntity
  8
0
100
AcDbLine
 62
3
  6
CONTINUOUS
 10
13.7959075887
 20
3.9081188684
 11
13.8150487891
 21
3.9082352302
  0
LINE
  5
591
100
AcDbEntity
  8
0
100
AcDbLine
 62
7
  6
CONTINUOUS
 10
13.9423878356
 20
3.937050716
 11
13.923246636
 21
3.9369343546
  0
LINE
  5
592
100
AcDbEntity
  8
0
100
AcDbLine
 62
3
  6
CONTINUOUS
 10
13.9423878356
 20
3.9380150889
 11
13.923246636
 21
3.9378987276
  0
LINE
  5
593
100
AcDbEntity
  8
0
100
AcDbLine
 62
7
  6
CONTINUOUS
 10
13.8405865202
 20
3.9958244031
 11
13.8214453206
 21
3.9957080418
  0
LINE
  5
594
100
AcDbEntity
  8
0
100
AcDbLine
 62
3
  6
CONTINUOUS
 10
13.8405865202
 20
3.9967887761
 11
13.8214453206
 21
3.9966724147
  0
LWPOLYLINE
  5
595
100
AcDbEntity
  8
02___PRT_ALL_AXES
100
AcDbPolyline
 62
7
  6
CONTINUOUS
 90
7
 70
0
 10
14.1688749143
 20
3.9924203861
 10
14.1380239551
 20
3.9927534261
 10
14.1078181326
 20
3.9891146722
 10
14.0797720928
 20
3.9816865867
 10
14.0552921814
 20
3.970841645
 10
14.0356059232
 20
3.9571236576
 10
14.0339602877
 20
3.9552416049
  0
LWPOLYLINE
  5
596
100
AcDbEntity
  8
02___PRT_ALL_AXES
100
AcDbPolyline
 62
7
  6
CONTINUOUS
 90
11
 70
0
 10
14.1688749143
 20
3.9924203861
 10
14.2336685995
 20
3.9909507732
 10
14.2978411855
 20
3.9963228569
 10
14.3592435205
 20
4.0083567252
 10
14.415819229
 20
4.0266493615
 10
14.4656735799
 20
4.0505881422
 10
14.5071369419
 20
4.0793713529
 10
14.5388206993
 20
4.1120350388
 10
14.5596637572
 20
4.1474852868
 10
14.5689680778
 20
4.1845348617
 10
14.5694498621
 20
4.1951854588
  0
LWPOLYLINE
  5
597
100
AcDbEntity
  8
02___PRT_ALL_AXES
100
AcDbPolyline
 62
3
  6
CONTINUOUS
 90
13
 70
0
 10
14.1329042666
 20
3.9182504911
 10
14.2288671717
 20
3.9152259349
 10
14.3245101515
 20
3.9206647353
 10
14.4176069262
 20
3.9344402936
 10
14.5059904843
 20
3.9562319563
 10
14.5876035235
 20
3.9855324794
 10
14.6605463388
 20
4.0216598352
 10
14.7231210418
 20
4.063773088
 10
14.7738710824
 20
4.1108919685
 10
14.811615153
 20
4.1619196915
 10
14.8354746858
 20
4.2156684858
 10
14.8448943027
 20
4.2708872418
 10
14.845043295
 20
4.2787891992
  0
LINE
  5
598
100
AcDbEntity
  8
0
100
AcDbLine
 62
3
  6
CONTINUOUS
 10
13.8308145061
 20
3.9856795913
 11
13.8427525689
 21
3.9843709475
  0
LINE
  5
599
100
AcDbEntity
  8
0
100
AcDbLine
 62
7
  6
CONTINUOUS
 10
13.8548920731
 20
3.9931489192
 11
13.8405865202
 21
3.9958244031
  0
LINE
  5
59A
100
AcDbEntity
  8
0
100
AcDbLine
 62
3
  6
CONTINUOUS
 10
13.8548920731
 20
3.9941132921
 11
13.8405865202
 21
3.9967887761
  0
LINE
  5
59B
100
AcDbEntity
  8
0
100
AcDbLine
 62
3
  6
CONTINUOUS
 10
13.4939285707
 20
4.1410908607
 11
13.5010813472
 21
4.1397531187
  0
LINE
  5
59C
100
AcDbEntity
  8
0
100
AcDbLine
 62
3
  6
CONTINUOUS
 10
13.8427525689
 20
3.9843709475
 11
13.8522728083
 21
3.9816663811
  0
LINE
  5
59D
100
AcDbEntity
  8
0
100
AcDbLine
 62
7
  6
CONTINUOUS
 10
13.4457231525
 20
4.1204962891
 11
13.4362029131
 21
4.1232008556
  0
LINE
  5
59E
100
AcDbEntity
  8
0
100
AcDbLine
 62
3
  6
CONTINUOUS
 10
13.4457231525
 20
4.1214606621
 11
13.4362029131
 21
4.1241652285
  0
LINE
  5
59F
100
AcDbEntity
  8
0
100
AcDbLine
 62
7
  6
CONTINUOUS
 10
13.496497448
 20
4.1498106673
 11
13.4869772086
 21
4.1525152338
  0
LINE
  5
5A0
100
AcDbEntity
  8
0
100
AcDbLine
 62
3
  6
CONTINUOUS
 10
13.496497448
 20
4.1507750403
 11
13.4869772086
 21
4.1534796067
  0
LINE
  5
5A1
100
AcDbEntity
  8
0
100
AcDbLine
 62
7
  6
CONTINUOUS
 10
13.8667797485
 20
3.9890775439
 11
13.8548920731
 21
3.9931489192
  0
LINE
  5
5A2
100
AcDbEntity
  8
0
100
AcDbLine
 62
3
  6
CONTINUOUS
 10
13.8667797485
 20
3.9900419169
 11
13.8548920731
 21
3.9941132921
  0
LINE
  5
5A3
100
AcDbEntity
  8
0
100
AcDbLine
 62
7
  6
CONTINUOUS
 10
13.2018735358
 20
4.2612797461
 11
13.1899858232
 21
4.2653511428
  0
LINE
  5
5A4
100
AcDbEntity
  8
0
100
AcDbLine
 62
3
  6
CONTINUOUS
 10
13.2018735358
 20
4.262244119
 11
13.1899858232
 21
4.2663155158
  0
LINE
  5
5A5
100
AcDbEntity
  8
0
100
AcDbLine
 62
3
  6
CONTINUOUS
 10
13.1754788814
 20
4.257939979
 11
13.1897340639
 21
4.252501754
  0
LINE
  5
5A6
100
AcDbEntity
  8
0
100
AcDbLine
 62
3
  6
CONTINUOUS
 10
13.2604048202
 20
4.3233737929
 11
13.2746096524
 21
4.3151728147
  0
LINE
  5
5A7
100
AcDbEntity
  8
0
100
AcDbLine
 62
3
  6
CONTINUOUS
 10
13.4758447828
 20
4.1989922864
 11
13.5208267423
 21
4.1730225275
  0
LINE
  5
5A8
100
AcDbEntity
  8
0
100
AcDbLine
 62
3
  6
CONTINUOUS
 10
13.8522728083
 20
3.9816663811
 11
13.8664776405
 21
3.9734654029
  0
LINE
  5
5A9
100
AcDbEntity
  8
0
100
AcDbLine
 62
3
  6
CONTINUOUS
 10
13.961226873
 20
3.9215549676
 11
13.9706967792
 21
3.9160876384
  0
LINE
  5
5AA
100
AcDbEntity
  8
0
100
AcDbLine
 62
3
  6
CONTINUOUS
 10
14.1458897455
 20
3.8149422204
 11
14.1908716779
 21
3.7889724771
  0
LINE
  5
5AB
100
AcDbEntity
  8
0
100
AcDbLine
 62
7
  6
CONTINUOUS
 10
14.309079455
 20
3.7337214662
 11
14.2905572236
 21
3.7444150396
  0
LINE
  5
5AC
100
AcDbEntity
  8
0
100
AcDbLine
 62
7
  6
CONTINUOUS
 10
14.2005933588
 20
3.7963545261
 11
14.1437739759
 21
3.82915847
  0
LINE
  5
5AD
100
AcDbEntity
  8
0
100
AcDbLine
 62
7
  6
CONTINUOUS
 10
13.9804184059
 20
3.9234697187
 11
13.9756834799
 21
3.9262033677
  0
LINE
  5
5AE
100
AcDbEntity
  8
0
100
AcDbLine
 62
7
  6
CONTINUOUS
 10
13.8786171447
 20
3.9822433746
 11
13.8667797485
 21
3.9890775439
  0
LINE
  5
5AF
100
AcDbEntity
  8
0
100
AcDbLine
 62
7
  6
CONTINUOUS
 10
13.8091252364
 20
4.022363639
 11
13.7886531715
 21
4.0341829237
  0
LINE
  5
5B0
100
AcDbEntity
  8
0
100
AcDbLine
 62
7
  6
CONTINUOUS
 10
13.7172114296
 20
4.0754288995
 11
13.6963217624
 21
4.0874892817
  0
LINE
  5
5B1
100
AcDbEntity
  8
0
100
AcDbLine
 62
7
  6
CONTINUOUS
 10
13.6390848798
 20
4.1205342637
 11
13.6205626755
 21
4.1312278214
  0
LINE
  5
5B2
100
AcDbEntity
  8
0
100
AcDbLine
 62
7
  6
CONTINUOUS
 10
13.5329662194
 20
4.1818005148
 11
13.4761468907
 21
4.2146044274
  0
LINE
  5
5B3
100
AcDbEntity
  8
0
100
AcDbLine
 62
7
  6
CONTINUOUS
 10
13.4563719221
 20
4.2260212526
 11
13.4358998572
 21
4.2378405374
  0
LINE
  5
5B4
100
AcDbEntity
  8
0
100
AcDbLine
 62
7
  6
CONTINUOUS
 10
13.3644581153
 20
4.2790865132
 11
13.3435684481
 21
4.2911468953
  0
LINE
  5
5B5
100
AcDbEntity
  8
0
100
AcDbLine
 62
7
  6
CONTINUOUS
 10
13.2867491194
 20
4.3239508079
 11
13.2749117604
 21
4.3307849557
  0
LINE
  5
5B6
100
AcDbEntity
  8
0
100
AcDbLine
 62
3
  6
CONTINUOUS
 10
14.309497036
 20
3.7344447541
 11
14.2905572236
 21
3.7453794125
  0
LINE
  5
5B7
100
AcDbEntity
  8
0
100
AcDbLine
 62
3
  6
CONTINUOUS
 10
14.2005933588
 20
3.7973188991
 11
14.1437739759
 21
3.8301228429
  0
LINE
  5
5B8
100
AcDbEntity
  8
0
100
AcDbLine
 62
3
  6
CONTINUOUS
 10
13.9804184059
 20
3.9244340917
 11
13.9756834799
 21
3.9271677406
  0
LINE
  5
5B9
100
AcDbEntity
  8
0
100
AcDbLine
 62
3
  6
CONTINUOUS
 10
13.8786171447
 20
3.9832077475
 11
13.8667797485
 21
3.9900419169
  0
LINE
  5
5BA
100
AcDbEntity
  8
0
100
AcDbLine
 62
3
  6
CONTINUOUS
 10
13.8099604198
 20
4.0228458295
 11
13.7886531715
 21
4.0351472967
  0
LINE
  5
5BB
100
AcDbEntity
  8
0
100
AcDbLine
 62
3
  6
CONTINUOUS
 10
13.7176290106
 20
4.0761521874
 11
13.6963217624
 21
4.0884536546
  0
LINE
  5
5BC
100
AcDbEntity
  8
0
100
AcDbLine
 62
3
  6
CONTINUOUS
 10
13.6395024608
 20
4.1212575516
 11
13.6205626755
 21
4.1321921943
  0
LINE
  5
5BD
100
AcDbEntity
  8
0
100
AcDbLine
 62
3
  6
CONTINUOUS
 10
13.5329662194
 20
4.1827648877
 11
13.4761468907
 21
4.2155688003
  0
LINE
  5
5BE
100
AcDbEntity
  8
0
100
AcDbLine
 62
3
  6
CONTINUOUS
 10
13.4572071055
 20
4.2265034431
 11
13.4358998572
 21
4.2388049103
  0
LINE
  5
5BF
100
AcDbEntity
  8
0
100
AcDbLine
 62
3
  6
CONTINUOUS
 10
13.3648756963
 20
4.279809801
 11
13.3435684481
 21
4.2921112683
  0
LINE
  5
5C0
100
AcDbEntity
  8
0
100
AcDbLine
 62
3
  6
CONTINUOUS
 10
13.2867491194
 20
4.3249151809
 11
13.2749117604
 21
4.3317493287
  0
LINE
  5
5C1
100
AcDbEntity
  8
0
100
AcDbLine
 62
7
  6
CONTINUOUS
 10
13.9945729048
 20
3.9125059778
 11
13.9804184059
 21
3.9234697187
  0
LINE
  5
5C2
100
AcDbEntity
  8
0
100
AcDbLine
 62
3
  6
CONTINUOUS
 10
13.9945729048
 20
3.9134703508
 11
13.9804184059
 21
3.9244340917
  0
LINE
  5
5C3
100
AcDbEntity
  8
0
100
AcDbLine
 62
3
  6
CONTINUOUS
 10
13.9223403054
 20
3.8881691818
 11
13.9341273142
 21
3.8785722811
  0
LINE
  5
5C4
100
AcDbEntity
  8
0
100
AcDbLine
 62
7
  6
CONTINUOUS
 10
14.09400673
 20
3.8550991308
 11
14.0822197212
 21
3.8646960316
  0
LINE
  5
5C5
100
AcDbEntity
  8
0
100
AcDbLine
 62
3
  6
CONTINUOUS
 10
14.09400673
 20
3.8560635037
 11
14.0822197212
 21
3.8656604045
  0
LINE
  5
5C6
100
AcDbEntity
  8
0
100
AcDbLine
 62
7
  6
CONTINUOUS
 10
13.9806711285
 20
3.8060672742
 11
13.9712516098
 21
3.8142973349
  0
LINE
  5
5C7
100
AcDbEntity
  8
0
100
AcDbLine
 62
3
  6
CONTINUOUS
 10
13.9806711285
 20
3.8070316471
 11
13.9712516098
 21
3.8152617078
  0
LINE
  5
5C8
100
AcDbEntity
  8
0
100
AcDbLine
 62
7
  6
CONTINUOUS
 10
13.8420476797
 20
3.9447280173
 11
13.8326281068
 21
3.9529581092
  0
LINE
  5
5C9
100
AcDbEntity
  8
0
100
AcDbLine
 62
3
  6
CONTINUOUS
 10
13.8420476797
 20
3.9456923902
 11
13.8326281068
 21
3.9539224822
  0
LINE
  5
5CA
100
AcDbEntity
  8
0
100
AcDbLine
 62
7
  6
CONTINUOUS
 10
13.8880366635
 20
3.9740133139
 11
13.8786171447
 21
3.9822433746
  0
LINE
  5
5CB
100
AcDbEntity
  8
0
100
AcDbLine
 62
3
  6
CONTINUOUS
 10
13.8880366635
 20
3.9749776869
 11
13.8786171447
 21
3.9832077475
  0
LINE
  5
5CC
100
AcDbEntity
  8
0
100
AcDbLine
 62
3
  6
CONTINUOUS
 10
13.9706967792
 20
3.9160876384
 11
13.9801162979
 21
3.9078575777
  0
LINE
  5
5CD
100
AcDbEntity
  8
0
100
AcDbLine
 62
3
  6
CONTINUOUS
 10
14.0701306044
 20
3.8586807913
 11
14.0795501232
 21
3.8504507307
  0
LINE
  5
5CE
100
AcDbEntity
  8
0
100
AcDbLine
 62
3
  6
CONTINUOUS
 10
13.7968643059
 20
3.9606111451
 11
13.8039163345
 21
3.9537479245
  0
LINE
  5
5CF
100
AcDbEntity
  8
0
100
AcDbLine
 62
3
  6
CONTINUOUS
 10
13.8181211667
 20
3.9455469464
 11
13.8251732495
 21
3.9386836946
  0
LINE
  5
5D0
100
AcDbEntity
  8
0
100
AcDbLine
 62
7
  6
CONTINUOUS
 10
13.8184232746
 20
3.9611590874
 11
13.8137386819
 21
3.9666554991
  0
LINE
  5
5D1
100
AcDbEntity
  8
0
100
AcDbLine
 62
3
  6
CONTINUOUS
 10
13.8184232746
 20
3.9621234603
 11
13.8137386819
 21
3.967619872
  0
LINE
  5
5D2
100
AcDbEntity
  8
0
100
AcDbLine
 62
3
  6
CONTINUOUS
 10
13.8664776405
 20
3.9734654029
 11
13.8711622333
 21
3.9679689912
  0
LINE
  5
5D3
100
AcDbEntity
  8
0
100
AcDbLine
 62
7
  6
CONTINUOUS
 10
13.4958341563
 20
4.1367303542
 11
13.4939285707
 21
4.1401264877
  0
LINE
  5
5D4
100
AcDbEntity
  8
0
100
AcDbLine
 62
3
  6
CONTINUOUS
 10
13.4962457004
 20
4.1369612734
 11
13.4939285707
 21
4.1410908607
  0
LINE
  5
5D5
100
AcDbEntity
  8
0
100
AcDbLine
 62
7
  6
CONTINUOUS
 10
13.2981747755
 20
4.3069817471
 11
13.2961686584
 21
4.3157207355
  0
LINE
  5
5D6
100
AcDbEntity
  8
0
100
AcDbLine
 62
3
  6
CONTINUOUS
 10
13.2983850742
 20
4.3070300231
 11
13.2961686584
 21
4.3166851085
  0
LINE
  5
5D7
100
AcDbEntity
  8
0
100
AcDbLine
 62
7
  6
CONTINUOUS
 10
13.2749117604
 20
4.3317493287
 11
13.2749117604
 21
4.3307849557
  0
LINE
  5
5D8
100
AcDbEntity
  8
0
100
AcDbLine
 62
7
  6
CONTINUOUS
 10
13.2867491194
 20
4.3249151809
 11
13.2867491194
 21
4.3239508079
  0
LINE
  5
5D9
100
AcDbEntity
  8
0
100
AcDbLine
 62
7
  6
CONTINUOUS
 10
13.2961686584
 20
4.3166851085
 11
13.2961686584
 21
4.3157207355
  0
LINE
  5
5DA
100
AcDbEntity
  8
0
100
AcDbLine
 62
7
  6
CONTINUOUS
 10
13.2988391841
 20
4.2006785983
 11
13.2988391841
 21
4.1997142254
  0
LINE
  5
5DB
100
AcDbEntity
  8
0
100
AcDbLine
 62
7
  6
CONTINUOUS
 10
13.3335950467
 20
4.2699510638
 11
13.3335950467
 21
4.2689866909
  0
LINE
  5
5DC
100
AcDbEntity
  8
0
100
AcDbLine
 62
7
  6
CONTINUOUS
 10
13.3435684481
 20
4.2921112683
 11
13.3435684481
 21
4.2911468953
  0
LINE
  5
5DD
100
AcDbEntity
  8
0
100
AcDbLine
 62
7
  6
CONTINUOUS
 10
13.3912209536
 20
4.1501349874
 11
13.3912209536
 21
4.1491706145
  0
LINE
  5
5DE
100
AcDbEntity
  8
0
100
AcDbLine
 62
3
  6
CONTINUOUS
 10
13.2792942418
 20
4.309676405
 11
13.2791935414
 21
4.304150899
  0
LINE
  5
5DF
100
AcDbEntity
  8
0
100
AcDbLine
 62
7
  6
CONTINUOUS
 10
13.455293754
 20
4.1205544708
 11
13.4457231525
 21
4.1204962891
  0
LINE
  5
5E0
100
AcDbEntity
  8
0
100
AcDbLine
 62
3
  6
CONTINUOUS
 10
13.455293754
 20
4.1215188437
 11
13.4457231525
 21
4.1214606621
  0
LINE
  5
5E1
100
AcDbEntity
  8
0
100
AcDbLine
 62
7
  6
CONTINUOUS
 10
13.5060680478
 20
4.149868848
 11
13.496497448
 21
4.1498106673
  0
LINE
  5
5E2
100
AcDbEntity
  8
0
100
AcDbLine
 62
3
  6
CONTINUOUS
 10
13.5060680478
 20
4.1508332209
 11
13.496497448
 21
4.1507750403
  0
LWPOLYLINE
  5
5E3
100
AcDbEntity
  8
02___PRT_ALL_AXES
100
AcDbPolyline
 62
3
  6
CONTINUOUS
 90
9
 70
0
 10
14.1688749143
 20
4.0759993737
 10
14.1380239551
 20
4.0763324136
 10
14.1078181326
 20
4.0726936597
 10
14.0797720928
 20
4.0652655743
 10
14.0552921814
 20
4.0544206325
 10
14.0356059232
 20
4.0407026451
 10
14.0217004694
 20
4.0247994892
 10
14.0142730977
 20
4.0075086155
 10
14.0131020225
 20
3.9971188353
  0
LWPOLYLINE
  5
5E4
100
AcDbEntity
  8
02___PRT_ALL_AXES
100
AcDbPolyline
 62
3
  6
CONTINUOUS
 90
11
 70
0
 10
14.1688749143
 20
4.0759993737
 10
14.2336685995
 20
4.0745297608
 10
14.2978411855
 20
4.0799018445
 10
14.3592435205
 20
4.0919357127
 10
14.415819229
 20
4.1102283491
 10
14.4656735799
 20
4.1341671297
 10
14.5071369419
 20
4.1629503405
 10
14.5388206993
 20
4.1956140264
 10
14.5596637572
 20
4.2310642744
 10
14.5689680778
 20
4.2681138493
 10
14.5694498621
 20
4.2787644464
  0
LINE
  5
5E5
100
AcDbEntity
  8
0
100
AcDbLine
 62
3
  6
CONTINUOUS
 10
13.4335836739
 20
4.1117183009
 11
13.4503070508
 21
4.11043874
  0
LINE
  5
5E6
100
AcDbEntity
  8
0
100
AcDbLine
 62
7
  6
CONTINUOUS
 10
13.2138116003
 20
4.2599711032
 11
13.2018735358
 21
4.2612797461
  0
LINE
  5
5E7
100
AcDbEntity
  8
0
100
AcDbLine
 62
3
  6
CONTINUOUS
 10
13.2138116003
 20
4.2609354762
 11
13.2018735358
 21
4.262244119
  0
LINE
  5
5E8
100
AcDbEntity
  8
0
100
AcDbLine
 62
3
  6
CONTINUOUS
 10
13.1897340639
 20
4.252501754
 11
13.2040395971
 21
4.2498262821
  0
LINE
  5
5E9
100
AcDbEntity
  8
0
100
AcDbLine
 62
7
  6
CONTINUOUS
 10
13.2630240478
 20
4.3348563525
 11
13.2487185135
 21
4.3375318257
  0
LINE
  5
5EA
100
AcDbEntity
  8
0
100
AcDbLine
 62
3
  6
CONTINUOUS
 10
13.2630240478
 20
4.3358207255
 11
13.2487185135
 21
4.3384961986
  0
LINE
  5
5EB
100
AcDbEntity
  8
0
100
AcDbLine
 62
3
  6
CONTINUOUS
 10
13.2508845808
 20
4.3260783593
 11
13.2604048202
 21
4.3233737929
  0
LINE
  5
5EC
100
AcDbEntity
  8
0
100
AcDbLine
 62
7
  6
CONTINUOUS
 10
13.2749117604
 20
4.3307849557
 11
13.2630240478
 21
4.3348563525
  0
LINE
  5
5ED
100
AcDbEntity
  8
0
100
AcDbLine
 62
3
  6
CONTINUOUS
 10
13.2749117604
 20
4.3317493287
 11
13.2630240478
 21
4.3358207255
  0
LINE
  5
5EE
100
AcDbEntity
  8
0
100
AcDbLine
 62
7
  6
CONTINUOUS
 10
14.2100128233
 20
3.7881244968
 11
14.2005933588
 21
3.7963545261
  0
LINE
  5
5EF
100
AcDbEntity
  8
0
100
AcDbLine
 62
3
  6
CONTINUOUS
 10
14.2100128233
 20
3.7890888697
 11
14.2005933588
 21
3.7973188991
  0
LINE
  5
5F0
100
AcDbEntity
  8
0
100
AcDbLine
 62
3
  6
CONTINUOUS
 10
14.1908716779
 20
3.7889724771
 11
14.1955562707
 21
3.7834760654
  0
LINE
  5
5F1
100
AcDbEntity
  8
0
100
AcDbLine
 62
7
  6
CONTINUOUS
 10
13.9526587106
 20
3.8700667015
 11
13.9461157102
 21
3.8790620271
  0
LINE
  5
5F2
100
AcDbEntity
  8
0
100
AcDbLine
 62
3
  6
CONTINUOUS
 10
13.9531174598
 20
3.8704003854
 11
13.9461157102
 21
3.8800264
  0
LINE
  5
5F3
100
AcDbEntity
  8
0
100
AcDbLine
 62
3
  6
CONTINUOUS
 10
13.7922300464
 20
3.9688703195
 11
13.7968643059
 21
3.9606111451
  0
LINE
  5
5F4
100
AcDbEntity
  8
0
100
AcDbLine
 62
3
  6
CONTINUOUS
 10
13.8432570654
 20
3.8807822537
 11
13.84789127
 21
3.8725231101
  0
LINE
  5
5F5
100
AcDbEntity
  8
0
100
AcDbLine
 62
7
  6
CONTINUOUS
 10
13.8599803883
 20
3.8785383512
 11
13.8576632856
 21
3.8826679228
  0
LINE
  5
5F6
100
AcDbEntity
  8
0
100
AcDbLine
 62
3
  6
CONTINUOUS
 10
13.8599803883
 20
3.8795027242
 11
13.8576632856
 21
3.8836322957
  0
LINE
  5
5F7
100
AcDbEntity
  8
0
100
AcDbLine
 62
7
  6
CONTINUOUS
 10
13.8462703426
 20
3.9372023306
 11
13.8420476797
 21
3.9447280173
  0
LINE
  5
5F8
100
AcDbEntity
  8
0
100
AcDbLine
 62
3
  6
CONTINUOUS
 10
13.846681885
 20
3.937433247
 11
13.8420476797
 21
3.9456923902
  0
LWPOLYLINE
  5
5F9
100
AcDbEntity
  8
02___PRT_ALL_AXES
100
AcDbPolyline
 62
3
  6
CONTINUOUS
 90
15
 70
0
 10
13.5905910361
 20
4.2313480975
 10
13.5980186572
 20
4.2140572595
 10
13.6119243403
 20
4.1981541705
 10
13.6316107963
 20
4.1844362777
 10
13.6560908642
 20
4.1735914536
 10
13.6841370111
 20
4.166163503
 10
13.7143428861
 20
4.1625248943
 10
13.7451938405
 20
4.1628580826
 10
13.7751428786
 20
4.1671463604
 10
13.8026882306
 20
4.1751746955
 10
13.8264486575
 20
4.1865405137
 10
13.8452327123
 20
4.2006738854
 10
13.8580984841
 20
4.2168661044
 10
13.8644008293
 20
4.2343052251
 10
13.8649964126
 20
4.2416811145
  0
LINE
  5
5FA
100
AcDbEntity
  8
0
100
AcDbLine
 62
3
  6
CONTINUOUS
 10
13.7344036672
 20
3.9464191927
 11
13.7389875928
 21
3.9353972551
  0
LINE
  5
5FB
100
AcDbEntity
  8
0
100
AcDbLine
 62
7
  6
CONTINUOUS
 10
13.5443918741
 20
4.1648314532
 11
13.5423857382
 21
4.1735704541
  0
LINE
  5
5FC
100
AcDbEntity
  8
0
100
AcDbLine
 62
3
  6
CONTINUOUS
 10
13.5446021743
 20
4.16487973
 11
13.5423857382
 21
4.1745348271
  0
LINE
  5
5FD
100
AcDbEntity
  8
0
100
AcDbLine
 62
7
  6
CONTINUOUS
 10
13.4188240398
 20
4.2207451949
 11
13.4188240398
 21
4.219780822
  0
LINE
  5
5FE
100
AcDbEntity
  8
0
100
AcDbLine
 62
7
  6
CONTINUOUS
 10
13.4358998572
 20
4.2388049103
 11
13.4358998572
 21
4.2378405374
  0
LINE
  5
5FF
100
AcDbEntity
  8
0
100
AcDbLine
 62
7
  6
CONTINUOUS
 10
13.4362029131
 20
4.1241652285
 11
13.4362029131
 21
4.1232008556
  0
LINE
  5
600
100
AcDbEntity
  8
0
100
AcDbLine
 62
7
  6
CONTINUOUS
 10
13.4419952491
 20
4.1794493656
 11
13.4419952491
 21
4.1784849927
  0
LINE
  5
601
100
AcDbEntity
  8
0
100
AcDbLine
 62
7
  6
CONTINUOUS
 10
13.4457231525
 20
4.1214606621
 11
13.4457231525
 21
4.1204962891
  0
LINE
  5
602
100
AcDbEntity
  8
0
100
AcDbLine
 62
7
  6
CONTINUOUS
 10
13.455293754
 20
4.1215188437
 11
13.455293754
 21
4.1205544708
  0
LINE
  5
603
100
AcDbEntity
  8
0
100
AcDbLine
 62
7
  6
CONTINUOUS
 10
13.4649146871
 20
4.1243397871
 11
13.4649146871
 21
4.1233754142
  0
LINE
  5
604
100
AcDbEntity
  8
0
100
AcDbLine
 62
7
  6
CONTINUOUS
 10
13.4721681571
 20
4.128527555
 11
13.4721681571
 21
4.1275631821
  0
LINE
  5
605
100
AcDbEntity
  8
0
100
AcDbLine
 62
7
  6
CONTINUOUS
 10
13.4761468907
 20
4.2155688003
 11
13.4761468907
 21
4.2146044274
  0
LINE
  5
606
100
AcDbEntity
  8
0
100
AcDbLine
 62
7
  6
CONTINUOUS
 10
13.4770541676
 20
4.1340821494
 11
13.4770541676
 21
4.1331177764
  0
LINE
  5
607
100
AcDbEntity
  8
0
100
AcDbLine
 62
7
  6
CONTINUOUS
 10
13.4771548612
 20
4.1396076592
 11
13.4771548612
 21
4.1386432863
  0
LINE
  5
608
100
AcDbEntity
  8
0
100
AcDbLine
 62
7
  6
CONTINUOUS
 10
13.4869772086
 20
4.1534796067
 11
13.4869772086
 21
4.1525152338
  0
LINE
  5
609
100
AcDbEntity
  8
0
100
AcDbLine
 62
7
  6
CONTINUOUS
 10
13.496497448
 20
4.1507750403
 11
13.496497448
 21
4.1498106673
  0
LINE
  5
60A
100
AcDbEntity
  8
0
100
AcDbLine
 62
7
  6
CONTINUOUS
 10
13.5060680478
 20
4.1508332209
 11
13.5060680478
 21
4.149868848
  0
LINE
  5
60B
100
AcDbEntity
  8
0
100
AcDbLine
 62
7
  6
CONTINUOUS
 10
13.5156889809
 20
4.1536541643
 11
13.5156889809
 21
4.1526897914
  0
LINE
  5
60C
100
AcDbEntity
  8
0
100
AcDbLine
 62
7
  6
CONTINUOUS
 10
13.5205246276
 20
4.1564460096
 11
13.5205246276
 21
4.1554816367
  0
LINE
  5
60D
100
AcDbEntity
  8
0
100
AcDbLine
 62
7
  6
CONTINUOUS
 10
13.5254106414
 20
4.1620006059
 11
13.5254106414
 21
4.161036233
  0
LINE
  5
60E
100
AcDbEntity
  8
0
100
AcDbLine
 62
7
  6
CONTINUOUS
 10
13.5255113351
 20
4.1675261158
 11
13.5255113351
 21
4.1665617428
  0
LINE
  5
60F
100
AcDbEntity
  8
0
100
AcDbLine
 62
7
  6
CONTINUOUS
 10
13.5329662194
 20
4.1827648877
 11
13.5329662194
 21
4.1818005148
  0
LINE
  5
610
100
AcDbEntity
  8
0
100
AcDbLine
 62
7
  6
CONTINUOUS
 10
13.5337727722
 20
4.0957527406
 11
13.5337727722
 21
4.0947883676
  0
LINE
  5
611
100
AcDbEntity
  8
0
100
AcDbLine
 62
3
  6
CONTINUOUS
 10
13.4771548612
 20
4.1396076592
 11
13.4770541676
 21
4.1340821494
  0
LINE
  5
612
100
AcDbEntity
  8
0
100
AcDbLine
 62
3
  6
CONTINUOUS
 10
13.2958161969
 20
4.2973458435
 11
13.2983850742
 21
4.3070300231
  0
LINE
  5
613
100
AcDbEntity
  8
0
100
AcDbLine
 62
7
  6
CONTINUOUS
 10
13.7886531715
 20
4.0341829237
 11
13.6515924984
 21
3.9960566118
  0
LINE
  5
614
100
AcDbEntity
  8
0
100
AcDbLine
 62
3
  6
CONTINUOUS
 10
13.7886531715
 20
4.0351472967
 11
13.6515924984
 21
3.9970209847
  0
LINE
  5
615
100
AcDbEntity
  8
0
100
AcDbLine
 62
3
  6
CONTINUOUS
 10
13.6489732861
 20
3.9845740414
 11
13.7715773541
 21
4.0170875813
  0
LINE
  5
616
100
AcDbEntity
  8
0
100
AcDbLine
 62
3
  6
CONTINUOUS
 10
13.4503070508
 20
4.11043874
 11
13.4670807612
 21
4.111921942
  0
LINE
  5
617
100
AcDbEntity
  8
0
100
AcDbLine
 62
3
  6
CONTINUOUS
 10
13.5010813472
 20
4.1397531187
 11
13.5178550567
 21
4.1412363201
  0
LINE
  5
618
100
AcDbEntity
  8
0
100
AcDbLine
 62
3
  6
CONTINUOUS
 10
13.2040395971
 20
4.2498262821
 11
13.223180784
 21
4.2499426518
  0
LINE
  5
619
100
AcDbEntity
  8
0
100
AcDbLine
 62
3
  6
CONTINUOUS
 10
13.2389465163
 20
4.3273870041
 11
13.2508845808
 21
4.3260783593
  0
LWPOLYLINE
  5
61A
100
AcDbEntity
  8
02___PRT_ALL_AXES
100
AcDbPolyline
 62
3
  6
CONTINUOUS
 90
12
 70
0
 10
14.1242294242
 20
4.2263423119
 10
14.1467341804
 20
4.2159808755
 10
14.1726682321
 20
4.2087704233
 10
14.2007311377
 20
4.2050725176
 10
14.2295157057
 20
4.2050725868
 10
14.2575785579
 20
4.2087706274
 10
14.2835125056
 20
4.2159812043
 10
14.3060171124
 20
4.2263427489
 10
14.3239639034
 20
4.2393356902
 10
14.3364529514
 20
4.2543085079
 10
14.3428580035
 20
4.2705104024
 10
14.3436585897
 20
4.2788193643
  0
LINE
  5
61B
100
AcDbEntity
  8
0
100
AcDbLine
 62
7
  6
CONTINUOUS
 10
13.9987956201
 20
3.9049802571
 11
13.9945729048
 21
3.9125059778
  0
LINE
  5
61C
100
AcDbEntity
  8
0
100
AcDbLine
 62
3
  6
CONTINUOUS
 10
13.9992071643
 20
3.9052111763
 11
13.9945729048
 21
3.9134703508
  0
LINE
  5
61D
100
AcDbEntity
  8
0
100
AcDbLine
 62
3
  6
CONTINUOUS
 10
13.95221113
 20
3.8206708402
 11
13.9567950014
 21
3.8096489339
  0
LINE
  5
61E
100
AcDbEntity
  8
0
100
AcDbLine
 62
3
  6
CONTINUOUS
 10
13.8137386819
 20
3.967619872
 11
13.8114719125
 21
3.9745122064
  0
LINE
  5
61F
100
AcDbEntity
  8
0
100
AcDbLine
 62
3
  6
CONTINUOUS
 10
13.8409902968
 20
3.8876745885
 11
13.8432570654
 21
3.8807822537
  0
LINE
  5
620
100
AcDbEntity
  8
0
100
AcDbLine
 62
3
  6
CONTINUOUS
 10
13.8251732495
 20
3.9386836946
 11
13.8274400189
 21
3.9317913602
  0
LINE
  5
621
100
AcDbEntity
  8
02___PRT_ALL_AXES
100
AcDbLine
 62
3
  6
CONTINUOUS
 10
13.5852024848
 20
4.278849532
 11
13.5905910361
 21
4.2313480975
  0
LINE
  5
622
100
AcDbEntity
  8
0
100
AcDbLine
 62
7
  6
CONTINUOUS
 10
13.5423857382
 20
4.1745348271
 11
13.5423857382
 21
4.1735704541
  0
LINE
  5
623
100
AcDbEntity
  8
0
100
AcDbLine
 62
7
  6
CONTINUOUS
 10
13.5690834654
 20
4.0641992755
 11
13.5690834654
 21
4.0632349026
  0
LINE
  5
624
100
AcDbEntity
  8
0
100
AcDbLine
 62
7
  6
CONTINUOUS
 10
13.5763872687
 20
4.0711498061
 11
13.5763872687
 21
4.0701854332
  0
LINE
  5
625
100
AcDbEntity
  8
0
100
AcDbLine
 62
7
  6
CONTINUOUS
 10
13.6203612612
 20
4.1211411903
 11
13.6203612612
 21
4.1201768173
  0
LINE
  5
626
100
AcDbEntity
  8
0
100
AcDbLine
 62
7
  6
CONTINUOUS
 10
13.6205626755
 20
4.1321921943
 11
13.6205626755
 21
4.1312278214
  0
LINE
  5
627
100
AcDbEntity
  8
0
100
AcDbLine
 62
7
  6
CONTINUOUS
 10
13.6515924984
 20
3.9970209847
 11
13.6515924984
 21
3.9960566118
  0
LINE
  5
628
100
AcDbEntity
  8
0
100
AcDbLine
 62
3
  6
CONTINUOUS
 10
13.5255113351
 20
4.1675261158
 11
13.5254106414
 21
4.1620006059
  0
LINE
  5
629
100
AcDbEntity
  8
0
100
AcDbLine
 62
3
  6
CONTINUOUS
 10
13.2355720138
 20
4.2734987818
 11
13.2330534799
 21
4.2665773552
  0
LINE
  5
62A
100
AcDbEntity
  8
0
100
AcDbLine
 62
3
  6
CONTINUOUS
 10
13.1475223813
 20
4.2992067088
 11
13.1425356783
 21
4.288126605
  0
LINE
  5
62B
100
AcDbEntity
  8
0
100
AcDbLine
 62
7
  6
CONTINUOUS
 10
13.1475223813
 20
4.2982423359
 11
13.1428965978
 21
4.2879641698
  0
LWPOLYLINE
  5
62C
100
AcDbEntity
  8
02___PRT_ALL_AXES
100
AcDbPolyline
 62
3
  6
CONTINUOUS
 90
6
 70
0
 10
14.5475260764
 20
6.0722520988
 10
14.5035487897
 20
6.0381857238
 10
14.4681699824
 20
5.9919467393
 10
14.4422581727
 20
5.9346721868
 10
14.4264513952
 20
5.8677723559
 10
14.4211388653
 20
5.7928945423
  0
LINE
  5
62D
100
AcDbEntity
  8
0
100
AcDbLine
 62
7
  6
CONTINUOUS
 10
13.2258000099
 20
4.2614252143
 11
13.2138116003
 21
4.2599711032
  0
LINE
  5
62E
100
AcDbEntity
  8
0
100
AcDbLine
 62
3
  6
CONTINUOUS
 10
13.2258000099
 20
4.2623895873
 11
13.2138116003
 21
4.2609354762
  0
LINE
  5
62F
100
AcDbEntity
  8
0
100
AcDbLine
 62
7
  6
CONTINUOUS
 10
13.2487185135
 20
4.3375318257
 11
13.2295773317
 21
4.3374154541
  0
LINE
  5
630
100
AcDbEntity
  8
0
100
AcDbLine
 62
3
  6
CONTINUOUS
 10
13.2487185135
 20
4.3384961986
 11
13.2295773317
 21
4.338379827
  0
LWPOLYLINE
  5
631
100
AcDbEntity
  8
02___PRT_ALL_AXES
100
AcDbPolyline
 62
7
  6
CONTINUOUS
 90
9
 70
0
 10
14.3060163556
 20
4.2477174316
 10
14.2835115993
 20
4.2580788681
 10
14.2575775476
 20
4.2652893203
 10
14.2295146421
 20
4.268987226
 10
14.200730074
 20
4.2689871568
 10
14.1726672218
 20
4.2652891162
 10
14.1467332741
 20
4.2580785393
 10
14.1242286673
 20
4.2477169947
 10
14.1094667903
 20
4.237029836
  0
LWPOLYLINE
  5
632
100
AcDbEntity
  8
02___PRT_ALL_AXES
100
AcDbPolyline
 62
3
  6
CONTINUOUS
 90
12
 70
0
 10
14.3060163556
 20
4.3312964192
 10
14.2835115993
 20
4.3416578557
 10
14.2575775476
 20
4.3488683079
 10
14.2295146421
 20
4.3525662136
 10
14.200730074
 20
4.3525661444
 10
14.1726672218
 20
4.3488681038
 10
14.1467332741
 20
4.3416575269
 10
14.1242286673
 20
4.3312959823
 10
14.1062818764
 20
4.3183030409
 10
14.0937928283
 20
4.3033302233
 10
14.0873877762
 20
4.2871283288
 10
14.08658719
 20
4.2788193669
  0
LINE
  5
633
100
AcDbEntity
  8
02___PRT_ALL_AXES
100
AcDbLine
 62
7
  6
CONTINUOUS
 10
14.3207789895
 20
4.2370299076
 11
14.3060163556
 21
4.2477174316
  0
LINE
  5
634
100
AcDbEntity
  8
0
100
AcDbLine
 62
7
  6
CONTINUOUS
 10
14.0982486724
 20
3.8448993936
 11
14.09400673
 21
3.8550991308
  0
LINE
  5
635
100
AcDbEntity
  8
0
100
AcDbLine
 62
3
  6
CONTINUOUS
 10
14.098590602
 20
3.8450415978
 11
14.09400673
 21
3.8560635037
  0
LINE
  5
636
100
AcDbEntity
  8
0
100
AcDbLine
 62
3
  6
CONTINUOUS
 10
13.9341273142
 20
3.8785722811
 11
13.9363940836
 21
3.8716799467
  0
LINE
  5
637
100
AcDbEntity
  8
0
100
AcDbLine
 62
3
  6
CONTINUOUS
 10
13.9712516098
 20
3.8152617078
 11
13.9689848404
 21
3.8221540421
  0
LINE
  5
638
100
AcDbEntity
  8
0
100
AcDbLine
 62
3
  6
CONTINUOUS
 10
13.9801162979
 20
3.9078575777
 11
13.9823830673
 21
3.9009652434
  0
LINE
  5
639
100
AcDbEntity
  8
0
100
AcDbLine
 62
7
  6
CONTINUOUS
 10
13.8900427994
 20
3.965274313
 11
13.8880366635
 21
3.9740133139
  0
LINE
  5
63A
100
AcDbEntity
  8
0
100
AcDbLine
 62
3
  6
CONTINUOUS
 10
13.8902530996
 20
3.9653225898
 11
13.8880366635
 21
3.9749776869
  0
LINE
  5
63B
100
AcDbEntity
  8
0
100
AcDbLine
 62
7
  6
CONTINUOUS
 10
13.686348361
 20
4.0662934502
 11
13.686348361
 21
4.0653290772
  0
LINE
  5
63C
100
AcDbEntity
  8
0
100
AcDbLine
 62
7
  6
CONTINUOUS
 10
13.6963217624
 20
4.0884536546
 11
13.6963217624
 21
4.0874892817
  0
LINE
  5
63D
100
AcDbEntity
  8
0
100
AcDbLine
 62
7
  6
CONTINUOUS
 10
13.7393903704
 20
3.9574992964
 11
13.7393903704
 21
3.9565349234
  0
LINE
  5
63E
100
AcDbEntity
  8
0
100
AcDbLine
 62
7
  6
CONTINUOUS
 10
13.7466942279
 20
3.9644497957
 11
13.7466942279
 21
3.9634854228
  0
LINE
  5
63F
100
AcDbEntity
  8
0
100
AcDbLine
 62
7
  6
CONTINUOUS
 10
13.7558619703
 20
3.9424059829
 11
13.7558619703
 21
3.94144161
  0
LINE
  5
640
100
AcDbEntity
  8
0
100
AcDbLine
 62
7
  6
CONTINUOUS
 10
13.7629140531
 20
3.9355427311
 11
13.7629140531
 21
3.9345783581
  0
LINE
  5
641
100
AcDbEntity
  8
0
100
AcDbLine
 62
7
  6
CONTINUOUS
 10
13.7715773541
 20
4.0170875813
 11
13.7715773541
 21
4.0161232084
  0
LINE
  5
642
100
AcDbEntity
  8
0
100
AcDbLine
 62
7
  6
CONTINUOUS
 10
13.7818538113
 20
3.924608104
 11
13.7818538113
 21
3.923643731
  0
LINE
  5
643
100
AcDbEntity
  8
0
100
AcDbLine
 62
7
  6
CONTINUOUS
 10
13.7886531715
 20
4.0351472967
 11
13.7886531715
 21
4.0341829237
  0
LINE
  5
644
100
AcDbEntity
  8
0
100
AcDbLine
 62
7
  6
CONTINUOUS
 10
13.7924314336
 20
3.9799213392
 11
13.7924314336
 21
3.9789569663
  0
LINE
  5
645
100
AcDbEntity
  8
0
100
AcDbLine
 62
7
  6
CONTINUOUS
 10
13.7937415408
 20
3.9205366974
 11
13.7937415408
 21
3.9195723245
  0
LINE
  5
646
100
AcDbEntity
  8
0
100
AcDbLine
 62
3
  6
CONTINUOUS
 10
13.7558619703
 20
3.9424059829
 11
13.756013026
 21
3.9506942408
  0
LINE
  5
647
100
AcDbEntity
  8
0
100
AcDbLine
 62
3
  6
CONTINUOUS
 10
13.4936768231
 20
4.1272770938
 11
13.4962457004
 21
4.1369612734
  0
LWPOLYLINE
  5
648
100
AcDbEntity
  8
02___PRT_ALL_AXES
100
AcDbPolyline
 62
7
  6
CONTINUOUS
 90
6
 70
0
 10
14.5865666307
 20
6.0882143983
 10
14.5759294975
 20
6.0799744955
 10
14.5405506902
 20
6.033735511
 10
14.5146388804
 20
5.9764609585
 10
14.4988321029
 20
5.9095611275
 10
14.4935195731
 20
5.834683314
  0
LINE
  5
649
100
AcDbEntity
  8
02___PRT_ALL_AXES
100
AcDbLine
 62
9
  6
CONTINUOUS
 10
14.4211388653
 20
5.7928945423
 11
14.4935195731
 21
5.834683314
  0
LINE
  5
64A
100
AcDbEntity
  8
0
100
AcDbLine
 62
7
  6
CONTINUOUS
 10
13.4358998572
 20
4.2378405374
 11
13.2988391841
 21
4.1997142254
  0
LINE
  5
64B
100
AcDbEntity
  8
0
100
AcDbLine
 62
3
  6
CONTINUOUS
 10
13.4358998572
 20
4.2388049103
 11
13.2988391841
 21
4.2006785983
  0
LINE
  5
64C
100
AcDbEntity
  8
0
100
AcDbLine
 62
3
  6
CONTINUOUS
 10
13.2962199582
 20
4.1882316628
 11
13.4188240398
 21
4.2207451949
  0
LINE
  5
64D
100
AcDbEntity
  8
0
100
AcDbLine
 62
3
  6
CONTINUOUS
 10
13.223180784
 20
4.2499426518
 11
13.2375870187
 21
4.2527926865
  0
LWPOLYLINE
  5
64E
100
AcDbEntity
  8
02___PRT_ALL_AXES
100
AcDbPolyline
 62
3
  6
CONTINUOUS
 90
9
 70
0
 10
14.2613708655
 20
4.4816393575
 10
14.2922218246
 20
4.4813063175
 10
14.3224276472
 20
4.4849450714
 10
14.3504736869
 20
4.4923731569
 10
14.3749535984
 20
4.5032180986
 10
14.3946398566
 20
4.516936086
 10
14.4085453103
 20
4.5328392419
 10
14.4159726821
 20
4.5501301157
 10
14.4171437572
 20
4.5605198958
  0
LWPOLYLINE
  5
64F
100
AcDbEntity
  8
02___PRT_ALL_AXES
100
AcDbPolyline
 62
3
  6
CONTINUOUS
 90
11
 70
0
 10
14.2613708655
 20
4.4816393575
 10
14.1965771802
 20
4.4831089704
 10
14.1324045942
 20
4.4777368867
 10
14.0710022592
 20
4.4657030184
 10
14.0144265508
 20
4.4474103821
 10
13.9645721999
 20
4.4234716014
 10
13.9231088379
 20
4.3946883907
 10
13.8914250804
 20
4.3620247048
 10
13.8705820225
 20
4.3265744568
 10
13.8612777019
 20
4.2895248819
 10
13.8607959177
 20
4.2788742848
  0
LINE
  5
650
100
AcDbEntity
  8
0
100
AcDbLine
 62
3
  6
CONTINUOUS
 10
14.0795501232
 20
3.8504507307
 11
14.0818168925
 21
3.8435583963
  0
LINE
  5
651
100
AcDbEntity
  8
02___PRT_ALL_AXES
100
AcDbLine
 62
3
  6
CONTINUOUS
 10
13.8649964126
 20
4.2416811145
 11
13.8607959177
 21
4.2788742848
  0
LWPOLYLINE
  5
652
100
AcDbEntity
  8
02___PRT_ALL_AXES
100
AcDbPolyline
 62
3
  6
CONTINUOUS
 90
8
 70
0
 10
14.0131020225
 20
3.9971188353
 10
14.0136962473
 20
3.9896970606
 10
14.019998844
 20
3.9722579701
 10
14.0328648494
 20
3.956065813
 10
14.051649108
 20
3.9419325316
 10
14.0754096989
 20
3.9305668276
 10
14.1029551667
 20
3.9225386249
 10
14.1329042666
 20
3.9182504911
  0
LINE
  5
653
100
AcDbEntity
  8
0
100
AcDbLine
 62
7
  6
CONTINUOUS
 10
13.7997352911
 20
3.9868718386
 11
13.7997352911
 21
3.9859074657
  0
LINE
  5
654
100
AcDbEntity
  8
0
100
AcDbLine
 62
7
  6
CONTINUOUS
 10
13.8056796053
 20
3.9192280546
 11
13.8056796053
 21
3.9182636816
  0
LINE
  5
655
100
AcDbEntity
  8
0
100
AcDbLine
 62
7
  6
CONTINUOUS
 10
13.8094065913
 20
3.992455533
 11
13.8094065913
 21
3.9914911601
  0
LINE
  5
656
100
AcDbEntity
  8
0
100
AcDbLine
 62
7
  6
CONTINUOUS
 10
13.8137386819
 20
3.967619872
 11
13.8137386819
 21
3.9666554991
  0
LINE
  5
657
100
AcDbEntity
  8
0
100
AcDbLine
 62
7
  6
CONTINUOUS
 10
13.8176680014
 20
3.9206821735
 11
13.8176680014
 21
3.9197178006
  0
LINE
  5
658
100
AcDbEntity
  8
0
100
AcDbLine
 62
7
  6
CONTINUOUS
 10
13.8184232746
 20
3.9621234603
 11
13.8184232746
 21
3.9611590874
  0
LINE
  5
659
100
AcDbEntity
  8
0
100
AcDbLine
 62
7
  6
CONTINUOUS
 10
13.8214453206
 20
3.9966724147
 11
13.8214453206
 21
3.9957080418
  0
LINE
  5
65A
100
AcDbEntity
  8
0
100
AcDbLine
 62
7
  6
CONTINUOUS
 10
13.8249214714
 20
3.9248699414
 11
13.8249214714
 21
3.9239055685
  0
LINE
  5
65B
100
AcDbEntity
  8
0
100
AcDbLine
 62
7
  6
CONTINUOUS
 10
13.8274400189
 20
3.9317913602
 11
13.8274400189
 21
3.9308269873
  0
LINE
  5
65C
100
AcDbEntity
  8
0
100
AcDbLine
 62
7
  6
CONTINUOUS
 10
13.8326281068
 20
3.9539224822
 11
13.8326281068
 21
3.9529581092
  0
LINE
  5
65D
100
AcDbEntity
  8
0
100
AcDbLine
 62
7
  6
CONTINUOUS
 10
13.8405865202
 20
3.9967887761
 11
13.8405865202
 21
3.9958244031
  0
LINE
  5
65E
100
AcDbEntity
  8
0
100
AcDbLine
 62
7
  6
CONTINUOUS
 10
13.8420476797
 20
3.9456923902
 11
13.8420476797
 21
3.9447280173
  0
LINE
  5
65F
100
AcDbEntity
  8
0
100
AcDbLine
 62
7
  6
CONTINUOUS
 10
13.8435087867
 20
3.8945960366
 11
13.8435087867
 21
3.8936316637
  0
LINE
  5
660
100
AcDbEntity
  8
0
100
AcDbLine
 62
7
  6
CONTINUOUS
 10
13.8483948226
 20
3.9001506143
 11
13.8483948226
 21
3.8991862414
  0
LINE
  5
661
100
AcDbEntity
  8
0
100
AcDbLine
 62
7
  6
CONTINUOUS
 10
13.8548920731
 20
3.9941132921
 11
13.8548920731
 21
3.9931489192
  0
LINE
  5
662
100
AcDbEntity
  8
0
100
AcDbLine
 62
7
  6
CONTINUOUS
 10
13.8599803883
 20
3.8795027242
 11
13.8599803883
 21
3.8785383512
  0
LINE
  5
663
100
AcDbEntity
  8
02___PRT_ALL_AXES
100
AcDbLine
 62
7
  6
CONTINUOUS
 10
13.8607921812
 20
4.2243197914
 11
13.8607921812
 21
4.2788193656
  0
LINE
  5
664
100
AcDbEntity
  8
02___PRT_ALL_AXES
100
AcDbLine
 62
9
  6
CONTINUOUS
 10
13.8638237221
 20
4.2521167773
 11
13.8638237221
 21
4.2327083207
  0
LINE
  5
665
100
AcDbEntity
  8
0
100
AcDbLine
 62
7
  6
CONTINUOUS
 10
13.8667797485
 20
3.9900419169
 11
13.8667797485
 21
3.9890775439
  0
LINE
  5
666
100
AcDbEntity
  8
0
100
AcDbLine
 62
7
  6
CONTINUOUS
 10
13.8693999612
 20
3.8712726322
 11
13.8693999612
 21
3.8703082593
  0
LINE
  5
667
100
AcDbEntity
  8
0
100
AcDbLine
 62
7
  6
CONTINUOUS
 10
13.8786171447
 20
3.9832077475
 11
13.8786171447
 21
3.9822433746
  0
LINE
  5
668
100
AcDbEntity
  8
0
100
AcDbLine
 62
7
  6
CONTINUOUS
 10
13.8836047934
 20
3.8630716541
 11
13.8836047934
 21
3.8621072811
  0
LINE
  5
669
100
AcDbEntity
  8
0
100
AcDbLine
 62
7
  6
CONTINUOUS
 10
13.8880366635
 20
3.9749776869
 11
13.8880366635
 21
3.9740133139
  0
LINE
  5
66A
100
AcDbEntity
  8
0
100
AcDbLine
 62
7
  6
CONTINUOUS
 10
13.8978599588
 20
3.8576334387
 11
13.8978599588
 21
3.8566690657
  0
LINE
  5
66B
100
AcDbEntity
  8
0
100
AcDbLine
 62
7
  6
CONTINUOUS
 10
13.9050127081
 20
3.8562957123
 11
13.9050127081
 21
3.8553313394
  0
LINE
  5
66C
100
AcDbEntity
  8
0
100
AcDbLine
 62
7
  6
CONTINUOUS
 10
13.9145833367
 20
3.8563538783
 11
13.9145833367
 21
3.8553895054
  0
LINE
  5
66D
100
AcDbEntity
  8
0
100
AcDbLine
 62
7
  6
CONTINUOUS
 10
13.9217864193
 20
3.8577789148
 11
13.9217864193
 21
3.8568145418
  0
LINE
  5
66E
100
AcDbEntity
  8
0
100
AcDbLine
 62
7
  6
CONTINUOUS
 10
13.9225416926
 20
3.8992202016
 11
13.9225416926
 21
3.8982558286
  0
LINE
  5
66F
100
AcDbEntity
  8
0
100
AcDbLine
 62
7
  6
CONTINUOUS
 10
13.923246636
 20
3.9378987276
 11
13.923246636
 21
3.9369343546
  0
LINE
  5
670
100
AcDbEntity
  8
0
100
AcDbLine
 62
3
  6
CONTINUOUS
 10
13.7924314336
 20
3.9799213392
 11
13.7922300464
 21
3.9688703195
  0
LINE
  5
671
100
AcDbEntity
  8
0
100
AcDbLine
 62
3
  6
CONTINUOUS
 10
13.8464804978
 20
3.9263822273
 11
13.846681885
 21
3.937433247
  0
LINE
  5
672
100
AcDbEntity
  8
0
100
AcDbLine
 62
3
  6
CONTINUOUS
 10
13.8576632856
 20
3.8836322957
 11
13.857764008
 21
3.8891577909
  0
LINE
  5
673
100
AcDbEntity
  8
0
100
AcDbLine
 62
3
  6
CONTINUOUS
 10
13.8711622333
 20
3.9679689912
 11
13.8710615667
 21
3.9624434657
  0
LINE
  5
674
100
AcDbEntity
  8
0
100
AcDbLine
 62
3
  6
CONTINUOUS
 10
13.542033297
 20
4.1551955504
 11
13.5446021743
 21
4.16487973
  0
LINE
  5
675
100
AcDbEntity
  8
0
100
AcDbLine
 62
3
  6
CONTINUOUS
 10
13.2496761355
 20
4.2597722997
 11
13.2546124927
 21
4.2680896489
  0
LINE
  5
676
100
AcDbEntity
  8
0
100
AcDbLine
 62
3
  6
CONTINUOUS
 10
13.2791935414
 20
4.304150899
 11
13.2767253644
 21
4.2999922254
  0
LINE
  5
677
100
AcDbEntity
  8
0
100
AcDbLine
 62
7
  6
CONTINUOUS
 10
13.2791935414
 20
4.3031865261
 11
13.2771486287
 21
4.2997410176
  0
LWPOLYLINE
  5
678
100
AcDbEntity
  8
02___PRT_ALL_AXES
100
AcDbPolyline
 62
7
  6
CONTINUOUS
 90
12
 70
0
 10
14.2973415131
 20
4.5558092525
 10
14.201378608
 20
4.5588338087
 10
14.1057356283
 20
4.5533950083
 10
14.0126388535
 20
4.53961945
 10
13.9242552954
 20
4.5178277873
 10
13.8426422562
 20
4.4885272642
 10
13.769699441
 20
4.4523999084
 10
13.707124738
 20
4.4102866556
 10
13.6563746974
 20
4.3631677751
 10
13.6186306267
 20
4.3121400521
 10
13.594771094
 20
4.2583912578
 10
13.5904180325
 20
4.2328731672
  0
LWPOLYLINE
  5
679
100
AcDbEntity
  8
02___PRT_ALL_AXES
100
AcDbPolyline
 62
3
  6
CONTINUOUS
 90
13
 70
0
 10
14.2973415131
 20
4.6393882401
 10
14.201378608
 20
4.6424127963
 10
14.1057356283
 20
4.6369739959
 10
14.0126388535
 20
4.6231984376
 10
13.9242552954
 20
4.6014067749
 10
13.8426422562
 20
4.5721062518
 10
13.769699441
 20
4.535978896
 10
13.707124738
 20
4.4938656432
 10
13.6563746974
 20
4.4467467627
 10
13.6186306267
 20
4.3957190397
 10
13.594771094
 20
4.3419702454
 10
13.585351477
 20
4.2867514894
 10
13.5852024848
 20
4.278849532
  0
LWPOLYLINE
  5
67A
100
AcDbEntity
  8
02___PRT_ALL_AXES
100
AcDbPolyline
 62
7
  6
CONTINUOUS
 90
5
 70
0
 10
14.396285492
 20
4.5188181387
 10
14.3785966717
 20
4.532127212
 10
14.3548360809
 20
4.543492916
 10
14.3272906131
 20
4.5515211187
 10
14.2973415131
 20
4.5558092525
  0
LINE
  5
67B
100
AcDbEntity
  8
0
100
AcDbLine
 62
7
  6
CONTINUOUS
 10
14.2120190094
 20
3.7793854626
 11
14.2100128233
 21
3.7881244968
  0
LINE
  5
67C
100
AcDbEntity
  8
0
100
AcDbLine
 62
3
  6
CONTINUOUS
 10
14.2122293136
 20
3.7794337413
 11
14.2100128233
 21
3.7890888697
  0
LWPOLYLINE
  5
67D
100
AcDbEntity
  8
02___PRT_ALL_AXES
100
AcDbPolyline
 62
3
  6
CONTINUOUS
 90
5
 70
0
 10
14.08658719
 20
4.2788193669
 10
14.087387896
 20
4.2705097883
 10
14.0937931819
 20
4.2543079246
 10
14.1062824458
 20
4.239335167
 10
14.1242294242
 20
4.2263423119
  0
LINE
  5
67E
100
AcDbEntity
  8
0
100
AcDbLine
 62
7
  6
CONTINUOUS
 10
13.9314577128
 20
3.8633626053
 11
13.9314577128
 21
3.8623982324
  0
LINE
  5
67F
100
AcDbEntity
  8
0
100
AcDbLine
 62
7
  6
CONTINUOUS
 10
13.9320115988
 20
3.8937528724
 11
13.9320115988
 21
3.8927884994
  0
LINE
  5
680
100
AcDbEntity
  8
0
100
AcDbLine
 62
7
  6
CONTINUOUS
 10
13.9423878356
 20
3.9380150889
 11
13.9423878356
 21
3.937050716
  0
LINE
  5
681
100
AcDbEntity
  8
0
100
AcDbLine
 62
7
  6
CONTINUOUS
 10
13.9510520777
 20
3.8883437395
 11
13.9510520777
 21
3.8873793665
  0
LINE
  5
682
100
AcDbEntity
  8
0
100
AcDbLine
 62
7
  6
CONTINUOUS
 10
13.9523621849
 20
3.8289590976
 11
13.9523621849
 21
3.8279947247
  0
LINE
  5
683
100
AcDbEntity
  8
0
100
AcDbLine
 62
7
  6
CONTINUOUS
 10
13.9566933343
 20
3.9353396363
 11
13.9566933343
 21
3.9343752633
  0
LINE
  5
684
100
AcDbEntity
  8
0
100
AcDbLine
 62
7
  6
CONTINUOUS
 10
13.9572984998
 20
3.8372764694
 11
13.9572984998
 21
3.8363120965
  0
LINE
  5
685
100
AcDbEntity
  8
0
100
AcDbLine
 62
7
  6
CONTINUOUS
 10
13.9606226504
 20
3.8884019358
 11
13.9606226504
 21
3.8874375629
  0
LINE
  5
686
100
AcDbEntity
  8
0
100
AcDbLine
 62
7
  6
CONTINUOUS
 10
13.9621845339
 20
3.8428310461
 11
13.9621845339
 21
3.8418666732
  0
LINE
  5
687
100
AcDbEntity
  8
0
100
AcDbLine
 62
7
  6
CONTINUOUS
 10
13.9689848404
 20
3.8221540421
 11
13.9689848404
 21
3.8211896692
  0
LINE
  5
688
100
AcDbEntity
  8
0
100
AcDbLine
 62
7
  6
CONTINUOUS
 10
13.9712516098
 20
3.8152617078
 11
13.9712516098
 21
3.8142973349
  0
LINE
  5
689
100
AcDbEntity
  8
0
100
AcDbLine
 62
7
  6
CONTINUOUS
 10
13.971906164
 20
3.8511775014
 11
13.971906164
 21
3.8502131284
  0
LINE
  5
68A
100
AcDbEntity
  8
0
100
AcDbLine
 62
7
  6
CONTINUOUS
 10
13.975028924
 20
3.8912519461
 11
13.975028924
 21
3.8902875731
  0
LINE
  5
68B
100
AcDbEntity
  8
0
100
AcDbLine
 62
7
  6
CONTINUOUS
 10
13.9756834799
 20
3.9271677406
 11
13.9756834799
 21
3.9262033677
  0
LINE
  5
68C
100
AcDbEntity
  8
0
100
AcDbLine
 62
7
  6
CONTINUOUS
 10
13.9798645774
 20
3.8940437953
 11
13.9798645774
 21
3.8930794223
  0
LINE
  5
68D
100
AcDbEntity
  8
0
100
AcDbLine
 62
7
  6
CONTINUOUS
 10
13.9804184059
 20
3.9244340917
 11
13.9804184059
 21
3.9234697187
  0
LINE
  5
68E
100
AcDbEntity
  8
0
100
AcDbLine
 62
7
  6
CONTINUOUS
 10
13.9806711285
 20
3.8070316471
 11
13.9806711285
 21
3.8060672742
  0
LINE
  5
68F
100
AcDbEntity
  8
0
100
AcDbLine
 62
7
  6
CONTINUOUS
 10
13.9936665742
 20
3.863740805
 11
13.9936665742
 21
3.8627764321
  0
LINE
  5
690
100
AcDbEntity
  8
0
100
AcDbLine
 62
7
  6
CONTINUOUS
 10
13.9945729048
 20
3.9134703508
 11
13.9945729048
 21
3.9125059778
  0
LINE
  5
691
100
AcDbEntity
  8
0
100
AcDbLine
 62
7
  6
CONTINUOUS
 10
13.9949262939
 20
3.8015934317
 11
13.9949262939
 21
3.8006290588
  0
LINE
  5
692
100
AcDbEntity
  8
0
100
AcDbLine
 62
7
  6
CONTINUOUS
 10
14.0068643567
 20
3.8002847879
 11
14.0068643567
 21
3.799320415
  0
LINE
  5
693
100
AcDbEntity
  8
0
100
AcDbLine
 62
7
  6
CONTINUOUS
 10
14.008123181
 20
3.8693535781
 11
14.008123181
 21
3.8683892051
  0
LINE
  5
694
100
AcDbEntity
  8
0
100
AcDbLine
 62
7
  6
CONTINUOUS
 10
14.0177440938
 20
3.872174541
 11
14.0177440938
 21
3.8712101681
  0
LINE
  5
695
100
AcDbEntity
  8
0
100
AcDbLine
 62
7
  6
CONTINUOUS
 10
14.0308412047
 20
3.8031929955
 11
14.0308412047
 21
3.8022286226
  0
LINE
  5
696
100
AcDbEntity
  8
0
100
AcDbLine
 62
7
  6
CONTINUOUS
 10
14.0321503674
 20
3.8750245513
 11
14.0321503674
 21
3.8740601784
  0
LINE
  5
697
100
AcDbEntity
  8
0
100
AcDbLine
 62
7
  6
CONTINUOUS
 10
14.0465062535
 20
3.8751118301
 11
14.0465062535
 21
3.8741474572
  0
LINE
  5
698
100
AcDbEntity
  8
0
100
AcDbLine
 62
7
  6
CONTINUOUS
 10
14.0477156383
 20
3.8102016931
 11
14.0477156383
 21
3.8092373202
  0
LINE
  5
699
100
AcDbEntity
  8
0
100
AcDbLine
 62
9
  6
CONTINUOUS
 10
14.0480943122
 20
3.651989999
 11
14.0480943122
 21
3.5684110114
  0
LINE
  5
69A
100
AcDbEntity
  8
0
100
AcDbLine
 62
3
  6
CONTINUOUS
 10
13.9523621849
 20
3.8289590976
 11
13.95221113
 21
3.8206708402
  0
LINE
  5
69B
100
AcDbEntity
  8
0
100
AcDbLine
 62
3
  6
CONTINUOUS
 10
13.9990057228
 20
3.8941601879
 11
13.9992071643
 21
3.9052111763
  0
LINE
  5
69C
100
AcDbEntity
  8
0
100
AcDbLine
 62
3
  6
CONTINUOUS
 10
13.3335950467
 20
4.2699510638
 11
13.277280173
 21
4.1991663055
  0
LINE
  5
69D
100
AcDbEntity
  8
0
100
AcDbLine
 62
7
  6
CONTINUOUS
 10
13.3335950467
 20
4.2689866909
 11
13.2777500201
 21
4.198792505
  0
LINE
  5
69E
100
AcDbEntity
  8
0
100
AcDbLine
 62
3
  6
CONTINUOUS
 10
13.1641450362
 20
4.2924016536
 11
13.1690310348
 21
4.2979562509
  0
LINE
  5
69F
100
AcDbEntity
  8
0
100
AcDbLine
 62
3
  6
CONTINUOUS
 10
13.2196039227
 20
4.3162196191
 11
13.2244899213
 21
4.3217742164
  0
LINE
  5
6A0
100
AcDbEntity
  8
0
100
AcDbLine
 62
3
  6
CONTINUOUS
 10
13.2909301966
 20
4.2917912472
 11
13.2958161969
 21
4.2973458435
  0
LINE
  5
6A1
100
AcDbEntity
  8
0
100
AcDbLine
 62
9
  6
CONTINUOUS
 10
15.3119857632
 20
6.0018551817
 11
15.3843664709
 21
6.0436439534
  0
LINE
  5
6A2
100
AcDbEntity
  8
0
100
AcDbLine
 62
7
  6
CONTINUOUS
 10
14.0646404018
 20
3.8199731515
 11
14.0646404018
 21
3.8190087786
  0
LINE
  5
6A3
100
AcDbEntity
  8
0
100
AcDbLine
 62
7
  6
CONTINUOUS
 10
14.0655970657
 20
3.87246546
 11
14.0655970657
 21
3.8715010871
  0
LINE
  5
6A4
100
AcDbEntity
  8
0
100
AcDbLine
 62
7
  6
CONTINUOUS
 10
14.0767798518
 20
3.8297155274
 11
14.0767798518
 21
3.8287511545
  0
LINE
  5
6A5
100
AcDbEntity
  8
0
100
AcDbLine
 62
7
  6
CONTINUOUS
 10
14.0818168925
 20
3.8435583963
 11
14.0818168925
 21
3.8425940234
  0
LINE
  5
6A6
100
AcDbEntity
  8
0
100
AcDbLine
 62
7
  6
CONTINUOUS
 10
14.0822197212
 20
3.8656604045
 11
14.0822197212
 21
3.8646960316
  0
LINE
  5
6A7
100
AcDbEntity
  8
0
100
AcDbLine
 62
7
  6
CONTINUOUS
 10
14.09400673
 20
3.8560635037
 11
14.09400673
 21
3.8550991308
  0
LINE
  5
6A8
100
AcDbEntity
  8
0
100
AcDbLine
 62
7
  6
CONTINUOUS
 10
14.1096223884
 20
3.794003377
 11
14.1096223884
 21
3.793039004
  0
LINE
  5
6A9
100
AcDbEntity
  8
0
100
AcDbLine
 62
7
  6
CONTINUOUS
 10
14.1353624005
 20
3.7623917781
 11
14.1353624005
 21
3.7614274052
  0
LINE
  5
6AA
100
AcDbEntity
  8
0
100
AcDbLine
 62
7
  6
CONTINUOUS
 10
14.1437739759
 20
3.8301228429
 11
14.1437739759
 21
3.82915847
  0
LINE
  5
6AB
100
AcDbEntity
  8
0
100
AcDbLine
 62
7
  6
CONTINUOUS
 10
14.1546043208
 20
3.7680336337
 11
14.1546043208
 21
3.7670692608
  0
LINE
  5
6AC
100
AcDbEntity
  8
0
100
AcDbLine
 62
7
  6
CONTINUOUS
 10
14.1641245603
 20
3.7653290672
 11
14.1641245603
 21
3.7643646943
  0
LINE
  5
6AD
100
AcDbEntity
  8
02___PRT_ALL_AXES
100
AcDbLine
 62
9
  6
CONTINUOUS
 10
14.1688749143
 20
4.0759993737
 11
14.1688749143
 21
3.9924203861
  0
LINE
  5
6AE
100
AcDbEntity
  8
0
100
AcDbLine
 62
7
  6
CONTINUOUS
 10
14.1736951872
 20
3.7653872323
 11
14.1736951872
 21
3.7644228593
  0
LINE
  5
6AF
100
AcDbEntity
  8
0
100
AcDbLine
 62
7
  6
CONTINUOUS
 10
14.1833160931
 20
3.7682081913
 11
14.1833160931
 21
3.7672438184
  0
LINE
  5
6B0
100
AcDbEntity
  8
0
100
AcDbLine
 62
7
  6
CONTINUOUS
 10
14.19056957
 20
3.7723959631
 11
14.19056957
 21
3.7714315902
  0
LINE
  5
6B1
100
AcDbEntity
  8
0
100
AcDbLine
 62
3
  6
CONTINUOUS
 10
14.0984395481
 20
3.8367533408
 11
14.098590602
 21
3.8450415978
  0
LINE
  5
6B2
100
AcDbEntity
  8
0
100
AcDbLine
 62
3
  6
CONTINUOUS
 10
13.8876842223
 20
3.9556384102
 11
13.8902530996
 21
3.9653225898
  0
LINE
  5
6B3
100
AcDbEntity
  8
0
100
AcDbLine
 62
3
  6
CONTINUOUS
 10
13.2988391841
 20
4.2006785983
 11
13.3648756963
 21
4.279809801
  0
LINE
  5
6B4
100
AcDbEntity
  8
0
100
AcDbLine
 62
3
  6
CONTINUOUS
 10
13.1548262026
 20
4.306157229
 11
13.1475223813
 21
4.2992067088
  0
LINE
  5
6B5
100
AcDbEntity
  8
0
100
AcDbLine
 62
7
  6
CONTINUOUS
 10
13.1548262026
 20
4.3051928561
 11
13.1475223813
 21
4.2982423359
  0
LINE
  5
6B6
100
AcDbEntity
  8
0
100
AcDbLine
 62
3
  6
CONTINUOUS
 10
13.2078672658
 20
4.3285792719
 11
13.2005634447
 21
4.3216287515
  0
LINE
  5
6B7
100
AcDbEntity
  8
0
100
AcDbLine
 62
7
  6
CONTINUOUS
 10
13.2078672658
 20
4.327614899
 11
13.2005634447
 21
4.3206643786
  0
LWPOLYLINE
  5
6B8
100
AcDbEntity
  8
0
100
AcDbPolyline
 62
3
  6
CONTINUOUS
 90
5
 70
0
 10
13.129407058
 20
4.3752519812
 10
13.0964267377
 20
4.3513752131
 10
13.0734759603
 20
4.3238600811
 10
13.0617055735
 20
4.2940863088
 10
13.0602343585
 20
4.2788171597
  0
LINE
  5
6B9
100
AcDbEntity
  8
0
100
AcDbLine
 62
9
  6
CONTINUOUS
 10
14.1538853987
 20
4.9667312964
 11
15.4066388488
 21
4.2434701171
  0
LWPOLYLINE
  5
6BA
100
AcDbEntity
  8
02___PRT_ALL_AXES
100
AcDbPolyline
 62
3
  6
CONTINUOUS
 90
5
 70
0
 10
14.3436585897
 20
4.2788193643
 10
14.3428578837
 20
4.2871289429
 10
14.3364525979
 20
4.3033308065
 10
14.3239633339
 20
4.3183035642
 10
14.3060163556
 20
4.3312964192
  0
LINE
  5
6BB
100
AcDbEntity
  8
0
100
AcDbLine
 62
7
  6
CONTINUOUS
 10
14.1954556041
 20
3.7779505399
 11
14.1954556041
 21
3.7769861669
  0
LINE
  5
6BC
100
AcDbEntity
  8
0
100
AcDbLine
 62
7
  6
CONTINUOUS
 10
14.1955562707
 20
3.7834760654
 11
14.1955562707
 21
3.7825116924
  0
LINE
  5
6BD
100
AcDbEntity
  8
0
100
AcDbLine
 62
7
  6
CONTINUOUS
 10
14.2005933588
 20
3.7973188991
 11
14.2005933588
 21
3.7963545261
  0
LINE
  5
6BE
100
AcDbEntity
  8
0
100
AcDbLine
 62
7
  6
CONTINUOUS
 10
14.2037674016
 20
3.7089399118
 11
14.2037674016
 21
3.7079755389
  0
LINE
  5
6BF
100
AcDbEntity
  8
0
100
AcDbLine
 62
7
  6
CONTINUOUS
 10
14.2100128233
 20
3.7890888697
 11
14.2100128233
 21
3.7881244968
  0
LINE
  5
6C0
100
AcDbEntity
  8
0
100
AcDbLine
 62
3
  6
CONTINUOUS
 10
14.2262661064
 20
6.4358069503
 11
14.2262661064
 21
5.0920990556
  0
LINE
  5
6C1
100
AcDbEntity
  8
0
100
AcDbLine
 62
7
  6
CONTINUOUS
 10
14.2390780406
 20
3.677386478
 11
14.2390780406
 21
3.6764221051
  0
LINE
  5
6C2
100
AcDbEntity
  8
0
100
AcDbLine
 62
7
  6
CONTINUOUS
 10
14.2463818982
 20
3.6843369773
 11
14.2463818982
 21
3.6833726044
  0
LINE
  5
6C3
100
AcDbEntity
  8
0
100
AcDbLine
 62
7
  6
CONTINUOUS
 10
14.2903558906
 20
3.7343283615
 11
14.2903558906
 21
3.7333639886
  0
LINE
  5
6C4
100
AcDbEntity
  8
0
100
AcDbLine
 62
7
  6
CONTINUOUS
 10
14.2905572236
 20
3.7453794125
 11
14.2905572236
 21
3.7444150396
  0
LINE
  5
6C5
100
AcDbEntity
  8
02___PRT_ALL_AXES
100
AcDbLine
 62
9
  6
CONTINUOUS
 10
14.2973415131
 20
4.6393882401
 11
14.2973415131
 21
4.5558092525
  0
LINE
  5
6C6
100
AcDbEntity
  8
02___PRT_ALL_AXES
100
AcDbLine
 62
9
  6
CONTINUOUS
 10
14.3060163556
 20
4.3312964192
 11
14.3060163556
 21
4.2477174316
  0
LINE
  5
6C7
100
AcDbEntity
  8
0
100
AcDbLine
 62
3
  6
CONTINUOUS
 10
14.1955562707
 20
3.7834760654
 11
14.1954556041
 21
3.7779505399
  0
LWPOLYLINE
  5
6C8
100
AcDbEntity
  8
0
100
AcDbPolyline
 62
3
  6
CONTINUOUS
 90
7
 70
0
 10
14.2262661064
 20
5.0920990556
 10
14.2237997936
 20
5.069043304
 10
14.2165689303
 20
5.044710928
 10
14.205066288
 20
5.0207601389
 10
14.1900757526
 20
4.9988231433
 10
14.1726189044
 20
4.9803949113
 10
14.1538853987
 20
4.9667312964
  0
LINE
  5
6C9
100
AcDbEntity
  8
0
100
AcDbLine
 62
3
  6
CONTINUOUS
 10
13.8274400189
 20
3.9317913602
 11
13.8249214714
 21
3.9248699414
  0
LINE
  5
6CA
100
AcDbEntity
  8
0
100
AcDbLine
 62
3
  6
CONTINUOUS
 10
13.8435087867
 20
3.8945960366
 11
13.8409902968
 21
3.8876745885
  0
LINE
  5
6CB
100
AcDbEntity
  8
0
100
AcDbLine
 62
3
  6
CONTINUOUS
 10
13.7393903704
 20
3.9574992964
 11
13.7344036672
 21
3.9464191927
  0
LINE
  5
6CC
100
AcDbEntity
  8
0
100
AcDbLine
 62
7
  6
CONTINUOUS
 10
13.7393903704
 20
3.9565349234
 11
13.7347645867
 21
3.9462567575
  0
LINE
  5
6CD
100
AcDbEntity
  8
0
100
AcDbLine
 62
3
  6
CONTINUOUS
 10
13.4770541676
 20
4.1340821494
 11
13.4721681571
 21
4.128527555
  0
LINE
  5
6CE
100
AcDbEntity
  8
0
100
AcDbLine
 62
7
  6
CONTINUOUS
 10
13.4770541676
 20
4.1331177764
 11
13.4721681571
 21
4.1275631821
  0
LINE
  5
6CF
100
AcDbEntity
  8
0
100
AcDbLine
 62
3
  6
CONTINUOUS
 10
13.4887908127
 20
4.1217224995
 11
13.4936768231
 21
4.1272770938
  0
LINE
  5
6D0
100
AcDbEntity
  8
0
100
AcDbLine
 62
3
  6
CONTINUOUS
 10
13.5254106414
 20
4.1620006059
 11
13.5205246276
 21
4.1564460096
  0
LINE
  5
6D1
100
AcDbEntity
  8
0
100
AcDbLine
 62
7
  6
CONTINUOUS
 10
13.5254106414
 20
4.161036233
 11
13.5205246276
 21
4.1554816367
  0
LINE
  5
6D2
100
AcDbEntity
  8
0
100
AcDbLine
 62
3
  6
CONTINUOUS
 10
14.1538853987
 20
4.9667312964
 11
13.129407058
 21
4.3752519812
  0
LINE
  5
6D3
100
AcDbEntity
  8
0
100
AcDbLine
 62
9
  6
CONTINUOUS
 10
14.2262661064
 20
5.0920990556
 11
15.4790195565
 21
4.3688378763
  0
LWPOLYLINE
  5
6D4
100
AcDbEntity
  8
02___PRT_ALL_AXES
100
AcDbPolyline
 62
3
  6
CONTINUOUS
 90
8
 70
0
 10
14.4171437572
 20
4.5605198958
 10
14.4165495324
 20
4.5679416706
 10
14.4102469357
 20
4.5853807611
 10
14.3973809304
 20
4.6015729182
 10
14.3785966717
 20
4.6157061996
 10
14.3548360809
 20
4.6270719036
 10
14.3272906131
 20
4.6351001063
 10
14.2973415131
 20
4.6393882401
  0
LINE
  5
6D5
100
AcDbEntity
  8
0
100
AcDbLine
 62
9
  6
CONTINUOUS
 10
14.3821605081
 20
3.651990802
 11
14.3821605081
 21
3.5684118144
  0
LINE
  5
6D6
100
AcDbEntity
  8
0
100
AcDbLine
 62
3
  6
CONTINUOUS
 10
13.9505989157
 20
3.8634789686
 11
13.9531174598
 21
3.8704003854
  0
LINE
  5
6D7
100
AcDbEntity
  8
0
100
AcDbLine
 62
3
  6
CONTINUOUS
 10
13.9823830673
 20
3.9009652434
 11
13.9798645774
 21
3.8940437953
  0
LINE
  5
6D8
100
AcDbEntity
  8
0
100
AcDbLine
 62
3
  6
CONTINUOUS
 10
13.9689848404
 20
3.8221540421
 11
13.974021876
 21
3.8359969081
  0
LINE
  5
6D9
100
AcDbEntity
  8
0
100
AcDbLine
 62
3
  6
CONTINUOUS
 10
13.686348361
 20
4.0662934502
 11
13.6300335279
 21
3.9955086685
  0
LINE
  5
6DA
100
AcDbEntity
  8
0
100
AcDbLine
 62
7
  6
CONTINUOUS
 10
13.686348361
 20
4.0653290772
 11
13.6305033749
 21
3.9951348684
  0
LINE
  5
6DB
100
AcDbEntity
  8
0
100
AcDbLine
 62
3
  6
CONTINUOUS
 10
13.563744293
 20
4.0337799103
 11
13.6395024608
 21
4.1212575516
  0
LINE
  5
6DC
100
AcDbEntity
  8
0
100
AcDbLine
 62
3
  6
CONTINUOUS
 10
13.5371472899
 20
4.149640958
 11
13.542033297
 21
4.1551955504
  0
LINE
  5
6DD
100
AcDbEntity
  8
0
100
AcDbLine
 62
3
  6
CONTINUOUS
 10
13.5690834654
 20
4.0641992755
 11
13.5495394609
 21
4.0419808884
  0
LINE
  5
6DE
100
AcDbEntity
  8
0
100
AcDbLine
 62
7
  6
CONTINUOUS
 10
13.5690834654
 20
4.0632349026
 11
13.5500177087
 21
4.0415602063
  0
LINE
  5
6DF
100
AcDbEntity
  8
0
100
AcDbLine
 62
3
  6
CONTINUOUS
 10
13.6203612612
 20
4.1211411903
 11
13.5763872687
 21
4.0711498061
  0
LINE
  5
6E0
100
AcDbEntity
  8
0
100
AcDbLine
 62
7
  6
CONTINUOUS
 10
13.6203612612
 20
4.1201768173
 11
13.5763872687
 21
4.0701854332
  0
LINE
  5
6E1
100
AcDbEntity
  8
0
100
AcDbLine
 62
9
  6
CONTINUOUS
 10
15.4790195565
 20
5.7125457711
 11
15.5514002642
 21
5.7543345427
  0
LINE
  5
6E2
100
AcDbEntity
  8
0
100
AcDbLine
 62
3
  6
CONTINUOUS
 10
13.217538566
 20
4.3341629664
 11
13.2078672658
 21
4.3285792719
  0
LINE
  5
6E3
100
AcDbEntity
  8
0
100
AcDbLine
 62
7
  6
CONTINUOUS
 10
13.217538566
 20
4.3331985934
 11
13.2078672658
 21
4.327614899
  0
LINE
  5
6E4
100
AcDbEntity
  8
0
100
AcDbLine
 62
3
  6
CONTINUOUS
 10
13.2244899213
 20
4.3217742164
 11
13.229325568
 21
4.3245660617
  0
LWPOLYLINE
  5
6E5
100
AcDbEntity
  8
02___PRT_ALL_AXES
100
AcDbPolyline
 62
3
  6
CONTINUOUS
 90
16
 70
0
 10
14.4211388653
 20
5.7928945423
 10
14.4264513952
 20
5.7118824864
 10
14.4422581727
 20
5.6267309739
 10
14.4681699824
 20
5.5395367176
 10
14.5035487897
 20
5.4524467295
 10
14.5475234509
 20
5.367605454
 10
14.5990111639
 20
5.2871019651
 10
14.6567441302
 20
5.2129185257
 10
14.7193007728
 20
5.1468817784
 10
14.7851407394
 20
5.090617767
 10
14.8526428315
 20
5.0455118982
 10
14.9201449236
 20
5.0126748282
 10
14.9859848901
 20
4.9929151146
 10
15.0485415327
 20
4.9867193073
 10
15.1062744991
 20
4.9942399674
 10
15.1577595866
 20
5.0152903956
  0
LWPOLYLINE
  5
6E6
100
AcDbEntity
  8
02___PRT_ALL_AXES
100
AcDbPolyline
 62
7
  6
CONTINUOUS
 90
16
 70
0
 10
14.4935195731
 20
5.834683314
 10
14.4988321029
 20
5.7536712581
 10
14.5146388804
 20
5.6685197456
 10
14.5405506902
 20
5.5813254892
 10
14.5759294975
 20
5.4942355011
 10
14.6199041587
 20
5.4093942257
 10
14.6713918716
 20
5.3288907367
 10
14.729124838
 20
5.2547072974
 10
14.7916814805
 20
5.18867055
 10
14.8575214471
 20
5.1324065386
 10
14.9250235392
 20
5.0873006698
 10
14.9925256313
 20
5.0544635998
 10
15.0583655979
 20
5.0347038863
 10
15.1209222404
 20
5.0285080789
 10
15.1786552068
 20
5.036028739
 10
15.19109974
 20
5.0411168677
  0
LINE
  5
6E7
100
AcDbEntity
  8
02___PRT_ALL_AXES
100
AcDbLine
 62
7
  6
CONTINUOUS
 10
14.5694535985
 20
4.195240378
 11
14.5694535985
 21
4.2788193656
  0
LINE
  5
6E8
100
AcDbEntity
  8
0
100
AcDbLine
 62
3
  6
CONTINUOUS
 10
14.2096604363
 20
3.7697495617
 11
14.2122293136
 21
3.7794337413
  0
LINE
  5
6E9
100
AcDbEntity
  8
0
100
AcDbLine
 62
3
  6
CONTINUOUS
 10
14.0818168925
 20
3.8435583963
 11
14.0767798518
 21
3.8297155274
  0
LINE
  5
6EA
100
AcDbEntity
  8
0
100
AcDbLine
 62
7
  6
CONTINUOUS
 10
14.0818168925
 20
3.8425940234
 11
14.0767798518
 21
3.8287511545
  0
LINE
  5
6EB
100
AcDbEntity
  8
0
100
AcDbLine
 62
3
  6
CONTINUOUS
 10
13.841544127
 20
3.9180648859
 11
13.8464804978
 21
3.9263822273
  0
LINE
  5
6EC
100
AcDbEntity
  8
0
100
AcDbLine
 62
3
  6
CONTINUOUS
 10
13.8710615667
 20
3.9624434657
 11
13.8685933559
 21
3.9582848116
  0
LINE
  5
6ED
100
AcDbEntity
  8
0
100
AcDbLine
 62
7
  6
CONTINUOUS
 10
13.8710615667
 20
3.9614790928
 11
13.8690166239
 21
3.958033597
  0
LINE
  5
6EE
100
AcDbEntity
  8
0
100
AcDbLine
 62
3
  6
CONTINUOUS
 10
13.857764008
 20
3.8891577909
 11
13.8602321646
 21
3.8933164763
  0
LINE
  5
6EF
100
AcDbEntity
  8
0
100
AcDbLine
 62
3
  6
CONTINUOUS
 10
13.6515924984
 20
3.9970209847
 11
13.7176290106
 21
4.0761521874
  0
LINE
  5
6F0
100
AcDbEntity
  8
0
100
AcDbLine
 62
3
  6
CONTINUOUS
 10
13.2330534799
 20
4.2665773552
 11
13.2258000099
 21
4.2623895873
  0
LINE
  5
6F1
100
AcDbEntity
  8
0
100
AcDbLine
 62
7
  6
CONTINUOUS
 10
13.2330534799
 20
4.2656129822
 11
13.2258000099
 21
4.2614252143
  0
LINE
  5
6F2
100
AcDbEntity
  8
0
100
AcDbLine
 62
3
  6
CONTINUOUS
 10
13.2375870187
 20
4.2527926865
 11
13.2496761355
 21
4.2597722997
  0
LINE
  5
6F3
100
AcDbEntity
  8
0
100
AcDbLine
 62
3
  6
CONTINUOUS
 10
13.3435684481
 20
4.2921112683
 11
13.2299307369
 21
4.2265028968
  0
LINE
  5
6F4
100
AcDbEntity
  8
0
100
AcDbLine
 62
7
  6
CONTINUOUS
 10
13.3435684481
 20
4.2911468953
 11
13.2307659203
 21
4.2260207143
  0
LINE
  5
6F5
100
AcDbEntity
  8
0
100
AcDbLine
 62
3
  6
CONTINUOUS
 10
13.2441355691
 20
4.2183019186
 11
13.3335950467
 21
4.2699510638
  0
LWPOLYLINE
  5
6F6
100
AcDbEntity
  8
02___PRT_ALL_AXES
100
AcDbPolyline
 62
7
  6
CONTINUOUS
 90
14
 70
0
 10
14.8396547437
 20
4.2427116461
 10
14.8322271225
 20
4.2600024841
 10
14.8183214394
 20
4.2759055731
 10
14.7986349834
 20
4.2896234659
 10
14.7741549155
 20
4.3004682899
 10
14.7461087686
 20
4.3078962406
 10
14.7159028936
 20
4.3115348493
 10
14.6850519392
 20
4.311201661
 10
14.6551029011
 20
4.3069133832
 10
14.6275575492
 20
4.2988850481
 10
14.6037971222
 20
4.2875192299
 10
14.5850130674
 20
4.2733858582
 10
14.5721472956
 20
4.2571936392
 10
14.5694535985
 20
4.2497399522
  0
LWPOLYLINE
  5
6F7
100
AcDbEntity
  8
02___PRT_ALL_AXES
100
AcDbPolyline
 62
3
  6
CONTINUOUS
 90
15
 70
0
 10
14.8396547437
 20
4.3262906336
 10
14.8322271225
 20
4.3435814717
 10
14.8183214394
 20
4.3594845607
 10
14.7986349834
 20
4.3732024535
 10
14.7741549155
 20
4.3840472775
 10
14.7461087686
 20
4.3914752281
 10
14.7159028936
 20
4.3951138368
 10
14.6850519392
 20
4.3947806486
 10
14.6551029011
 20
4.3904923708
 10
14.6275575492
 20
4.3824640357
 10
14.6037971222
 20
4.3710982175
 10
14.5850130674
 20
4.3569648458
 10
14.5721472956
 20
4.3407726268
 10
14.5658449504
 20
4.323333506
 10
14.5652493671
 20
4.3159576166
  0
LINE
  5
6F8
100
AcDbEntity
  8
02___PRT_ALL_AXES
100
AcDbLine
 62
3
  6
CONTINUOUS
 10
14.5652493671
 20
4.3159576166
 11
14.5694498621
 21
4.2787644464
  0
LINE
  5
6F9
100
AcDbEntity
  8
0
100
AcDbLine
 62
3
  6
CONTINUOUS
 10
13.9363940836
 20
3.8716799467
 11
13.9314577128
 21
3.8633626053
  0
LINE
  5
6FA
100
AcDbEntity
  8
0
100
AcDbLine
 62
7
  6
CONTINUOUS
 10
13.9363940836
 20
3.8707155738
 11
13.9314577128
 21
3.8623982324
  0
LINE
  5
6FB
100
AcDbEntity
  8
0
100
AcDbLine
 62
3
  6
CONTINUOUS
 10
13.9572984998
 20
3.8372764694
 11
13.9523621849
 21
3.8289590976
  0
LINE
  5
6FC
100
AcDbEntity
  8
0
100
AcDbLine
 62
7
  6
CONTINUOUS
 10
13.9572984998
 20
3.8363120965
 11
13.9523621849
 21
3.8279947247
  0
LINE
  5
6FD
100
AcDbEntity
  8
0
100
AcDbLine
 62
3
  6
CONTINUOUS
 10
13.756013026
 20
3.9506942408
 11
13.7608990601
 21
3.9562488176
  0
LINE
  5
6FE
100
AcDbEntity
  8
0
100
AcDbLine
 62
3
  6
CONTINUOUS
 10
13.8114719125
 20
3.9745122064
 11
13.8163579467
 21
3.9800667831
  0
LINE
  5
6FF
100
AcDbEntity
  8
0
100
AcDbLine
 62
3
  6
CONTINUOUS
 10
13.7466942279
 20
3.9644497957
 11
13.7393903704
 21
3.9574992964
  0
LINE
  5
700
100
AcDbEntity
  8
0
100
AcDbLine
 62
7
  6
CONTINUOUS
 10
13.7466942279
 20
3.9634854228
 11
13.7393903704
 21
3.9565349234
  0
LINE
  5
701
100
AcDbEntity
  8
0
100
AcDbLine
 62
3
  6
CONTINUOUS
 10
13.4188240398
 20
4.2207451949
 11
13.3293645621
 21
4.1690960497
  0
LINE
  5
702
100
AcDbEntity
  8
0
100
AcDbLine
 62
7
  6
CONTINUOUS
 10
13.4188240398
 20
4.219780822
 11
13.3301997455
 21
4.1686138673
  0
LINE
  5
703
100
AcDbEntity
  8
0
100
AcDbLine
 62
3
  6
CONTINUOUS
 10
13.3435693943
 20
4.1608950716
 11
13.4572071055
 21
4.2265034431
  0
LINE
  5
704
100
AcDbEntity
  8
0
100
AcDbLine
 62
3
  6
CONTINUOUS
 10
13.4761468907
 20
4.2155688003
 11
13.3625091796
 21
4.1499604288
  0
LINE
  5
705
100
AcDbEntity
  8
0
100
AcDbLine
 62
7
  6
CONTINUOUS
 10
13.4761468907
 20
4.2146044274
 11
13.363344363
 21
4.1494782464
  0
LINE
  5
706
100
AcDbEntity
  8
0
100
AcDbLine
 62
3
  6
CONTINUOUS
 10
13.3912209536
 20
4.1501349874
 11
13.4274883089
 21
4.1710738298
  0
LINE
  5
707
100
AcDbEntity
  8
0
100
AcDbLine
 62
3
  6
CONTINUOUS
 10
13.4419952491
 20
4.1794493656
 11
13.4758447828
 21
4.1989922864
  0
LINE
  5
708
100
AcDbEntity
  8
0
100
AcDbLine
 62
3
  6
CONTINUOUS
 10
13.5205246276
 20
4.1564460096
 11
13.5156889809
 21
4.1536541643
  0
LINE
  5
709
100
AcDbEntity
  8
0
100
AcDbLine
 62
3
  6
CONTINUOUS
 10
13.4721681571
 20
4.128527555
 11
13.4649146871
 21
4.1243397871
  0
LINE
  5
70A
100
AcDbEntity
  8
0
100
AcDbLine
 62
7
  6
CONTINUOUS
 10
13.5205246276
 20
4.1554816367
 11
13.5156889809
 21
4.1526897914
  0
LINE
  5
70B
100
AcDbEntity
  8
0
100
AcDbLine
 62
7
  6
CONTINUOUS
 10
13.4721681571
 20
4.1275631821
 11
13.4649146871
 21
4.1233754142
  0
LINE
  5
70C
100
AcDbEntity
  8
0
100
AcDbLine
 62
3
  6
CONTINUOUS
 10
13.4767016959
 20
4.1147428863
 11
13.4887908127
 21
4.1217224995
  0
LINE
  5
70D
100
AcDbEntity
  8
0
100
AcDbLine
 62
3
  6
CONTINUOUS
 10
13.5274759897
 20
4.1440572636
 11
13.5371472899
 21
4.149640958
  0
LINE
  5
70E
100
AcDbEntity
  8
0
100
AcDbLine
 62
3
  6
CONTINUOUS
 10
13.2295773317
 20
4.338379827
 11
13.217538566
 21
4.3341629664
  0
LINE
  5
70F
100
AcDbEntity
  8
0
100
AcDbLine
 62
7
  6
CONTINUOUS
 10
13.2295773317
 20
4.3374154541
 11
13.217538566
 21
4.3331985934
  0
LINE
  5
710
100
AcDbEntity
  8
0
100
AcDbLine
 62
3
  6
CONTINUOUS
 10
13.229325568
 20
4.3245660617
 11
13.2389465163
 21
4.3273870041
  0
LINE
  5
711
100
AcDbEntity
  8
02___PRT_ALL_AXES
100
AcDbLine
 62
9
  6
CONTINUOUS
 10
14.8396547437
 20
4.3262906336
 11
14.8396547437
 21
4.2427116461
  0
LINE
  5
712
100
AcDbEntity
  8
0
100
AcDbLine
 62
3
  6
CONTINUOUS
 10
14.0935032348
 20
3.8284359701
 11
14.0984395481
 21
3.8367533408
  0
LINE
  5
713
100
AcDbEntity
  8
0
100
AcDbLine
 62
3
  6
CONTINUOUS
 10
13.8827981881
 20
3.9500838335
 11
13.8876842223
 21
3.9556384102
  0
LINE
  5
714
100
AcDbEntity
  8
0
100
AcDbLine
 62
3
  6
CONTINUOUS
 10
13.8483948226
 20
3.9001506143
 11
13.8435087867
 21
3.8945960366
  0
LINE
  5
715
100
AcDbEntity
  8
0
100
AcDbLine
 62
7
  6
CONTINUOUS
 10
13.8483948226
 20
3.8991862414
 11
13.8435087867
 21
3.8936316637
  0
LINE
  5
716
100
AcDbEntity
  8
0
100
AcDbLine
 62
3
  6
CONTINUOUS
 10
13.7997352911
 20
3.9868718386
 11
13.7924314336
 21
3.9799213392
  0
LINE
  5
717
100
AcDbEntity
  8
0
100
AcDbLine
 62
7
  6
CONTINUOUS
 10
13.7997352911
 20
3.9859074657
 11
13.7924314336
 21
3.9789569663
  0
LINE
  5
718
100
AcDbEntity
  8
0
100
AcDbLine
 62
3
  6
CONTINUOUS
 10
13.6963217624
 20
4.0884536546
 11
13.5826840512
 21
4.0228452831
  0
LINE
  5
719
100
AcDbEntity
  8
0
100
AcDbLine
 62
7
  6
CONTINUOUS
 10
13.6963217624
 20
4.0874892817
 11
13.5835192346
 21
4.0223631007
  0
LINE
  5
71A
100
AcDbEntity
  8
02___PRT_ALL_AXES
100
AcDbLine
 62
7
  6
CONTINUOUS
 10
14.8398277472
 20
4.2411865764
 11
14.8396547437
 21
4.2427116461
  0
LINE
  5
71B
100
AcDbEntity
  8
02___PRT_ALL_AXES
100
AcDbLine
 62
3
  6
CONTINUOUS
 10
14.845043295
 20
4.2787891992
 11
14.8396547437
 21
4.3262906336
  0
LINE
  5
71C
100
AcDbEntity
  8
0
100
AcDbLine
 62
3
  6
CONTINUOUS
 10
14.1353624005
 20
3.7623917781
 11
14.1035279157
 21
3.7221427406
  0
LINE
  5
71D
100
AcDbEntity
  8
0
100
AcDbLine
 62
7
  6
CONTINUOUS
 10
14.1353624005
 20
3.7614274052
 11
14.1039971376
 21
3.7217716152
  0
LINE
  5
71E
100
AcDbEntity
  8
0
100
AcDbLine
 62
3
  6
CONTINUOUS
 10
13.9621845339
 20
3.8428310461
 11
13.9572984998
 21
3.8372764694
  0
LINE
  5
71F
100
AcDbEntity
  8
0
100
AcDbLine
 62
7
  6
CONTINUOUS
 10
13.9621845339
 20
3.8418666732
 11
13.9572984998
 21
3.8363120965
  0
LINE
  5
720
100
AcDbEntity
  8
0
100
AcDbLine
 62
3
  6
CONTINUOUS
 10
14.0886171939
 20
3.8228813894
 11
14.0935032348
 21
3.8284359701
  0
LINE
  5
721
100
AcDbEntity
  8
0
100
AcDbLine
 62
3
  6
CONTINUOUS
 10
13.943295109
 20
3.856528436
 11
13.9505989157
 21
3.8634789686
  0
LINE
  5
722
100
AcDbEntity
  8
0
100
AcDbLine
 62
3
  6
CONTINUOUS
 10
13.9917019195
 20
3.8872096572
 11
13.9990057228
 21
3.8941601879
  0
LWPOLYLINE
  5
723
100
AcDbEntity
  8
02___PRT_ALL_AXES
100
AcDbPolyline
 62
3
  6
CONTINUOUS
 90
6
 70
0
 10
15.1577595866
 20
5.0152903956
 10
15.2017368732
 20
5.0493567706
 10
15.2371156805
 20
5.0955957551
 10
15.2630274903
 20
5.1528703076
 10
15.2788342677
 20
5.2197701386
 10
15.2841467976
 20
5.2946479521
  0
LINE
  5
724
100
AcDbEntity
  8
0
100
AcDbLine
 62
3
  6
CONTINUOUS
 10
13.5968888834
 20
4.014644305
 11
13.686348361
 21
4.0662934502
  0
LINE
  5
725
100
AcDbEntity
  8
0
100
AcDbLine
 62
3
  6
CONTINUOUS
 10
13.7715773541
 20
4.0170875813
 11
13.6821178764
 21
3.9654384361
  0
LINE
  5
726
100
AcDbEntity
  8
0
100
AcDbLine
 62
7
  6
CONTINUOUS
 10
13.7715773541
 20
4.0161232084
 11
13.6829530598
 21
3.9649562537
  0
LINE
  5
727
100
AcDbEntity
  8
0
100
AcDbLine
 62
3
  6
CONTINUOUS
 10
13.6963227086
 20
3.957237458
 11
13.8099604198
 21
4.0228458295
  0
LINE
  5
728
100
AcDbEntity
  8
0
100
AcDbLine
 62
3
  6
CONTINUOUS
 10
13.5156889809
 20
4.1536541643
 11
13.5060680478
 21
4.1508332209
  0
LINE
  5
729
100
AcDbEntity
  8
0
100
AcDbLine
 62
7
  6
CONTINUOUS
 10
13.5156889809
 20
4.1526897914
 11
13.5060680478
 21
4.149868848
  0
LINE
  5
72A
100
AcDbEntity
  8
0
100
AcDbLine
 62
3
  6
CONTINUOUS
 10
13.5178550567
 20
4.1412363201
 11
13.5274759897
 21
4.1440572636
  0
LINE
  5
72B
100
AcDbEntity
  8
0
100
AcDbLine
 62
3
  6
CONTINUOUS
 10
13.4649146871
 20
4.1243397871
 11
13.455293754
 21
4.1215188437
  0
LINE
  5
72C
100
AcDbEntity
  8
0
100
AcDbLine
 62
7
  6
CONTINUOUS
 10
13.4649146871
 20
4.1233754142
 11
13.455293754
 21
4.1205544708
  0
LINE
  5
72D
100
AcDbEntity
  8
0
100
AcDbLine
 62
3
  6
CONTINUOUS
 10
14.1201001838
 20
3.7125749536
 11
14.1544028794
 21
3.7569826452
  0
LINE
  5
72E
100
AcDbEntity
  8
0
100
AcDbLine
 62
3
  6
CONTINUOUS
 10
14.1954556041
 20
3.7779505399
 11
14.19056957
 21
3.7723959631
  0
LINE
  5
72F
100
AcDbEntity
  8
0
100
AcDbLine
 62
7
  6
CONTINUOUS
 10
14.1954556041
 20
3.7769861669
 11
14.19056957
 21
3.7714315902
  0
LINE
  5
730
100
AcDbEntity
  8
0
100
AcDbLine
 62
3
  6
CONTINUOUS
 10
14.2047744021
 20
3.764194985
 11
14.2096604363
 21
3.7697495617
  0
LINE
  5
731
100
AcDbEntity
  8
0
100
AcDbLine
 62
3
  6
CONTINUOUS
 10
13.971906164
 20
3.8511775014
 11
13.9621845339
 21
3.8428310461
  0
LINE
  5
732
100
AcDbEntity
  8
0
100
AcDbLine
 62
7
  6
CONTINUOUS
 10
13.971906164
 20
3.8502131284
 11
13.9621845339
 21
3.8418666732
  0
LINE
  5
733
100
AcDbEntity
  8
0
100
AcDbLine
 62
3
  6
CONTINUOUS
 10
14.0788955672
 20
3.8145349361
 11
14.0886171939
 21
3.8228813894
  0
LINE
  5
734
100
AcDbEntity
  8
0
100
AcDbLine
 62
3
  6
CONTINUOUS
 10
13.974021876
 20
3.8359969081
 11
13.9861613294
 21
3.845739286
  0
LINE
  5
735
100
AcDbEntity
  8
0
100
AcDbLine
 62
3
  6
CONTINUOUS
 10
13.8094065913
 20
3.992455533
 11
13.7997352911
 21
3.9868718386
  0
LINE
  5
736
100
AcDbEntity
  8
0
100
AcDbLine
 62
7
  6
CONTINUOUS
 10
13.8094065913
 20
3.9914911601
 11
13.7997352911
 21
3.9859074657
  0
LINE
  5
737
100
AcDbEntity
  8
0
100
AcDbLine
 62
3
  6
CONTINUOUS
 10
13.8163579467
 20
3.9800667831
 11
13.8211935934
 21
3.9828586284
  0
LINE
  5
738
100
AcDbEntity
  8
0
100
AcDbLine
 62
3
  6
CONTINUOUS
 10
13.8249214714
 20
3.9248699414
 11
13.8176680014
 21
3.9206821735
  0
LINE
  5
739
100
AcDbEntity
  8
0
100
AcDbLine
 62
7
  6
CONTINUOUS
 10
13.8249214714
 20
3.9239055685
 11
13.8176680014
 21
3.9197178006
  0
LINE
  5
73A
100
AcDbEntity
  8
0
100
AcDbLine
 62
3
  6
CONTINUOUS
 10
13.8294550102
 20
3.9110852727
 11
13.841544127
 21
3.9180648859
  0
LINE
  5
73B
100
AcDbEntity
  8
0
100
AcDbLine
 62
3
  6
CONTINUOUS
 10
13.4670807612
 20
4.111921942
 11
13.4767016959
 21
4.1147428863
  0
LINE
  5
73C
100
AcDbEntity
  8
0
100
AcDbLine
 62
3
  6
CONTINUOUS
 10
13.5337727722
 20
4.0957527406
 11
13.6203612612
 21
4.1211411903
  0
LINE
  5
73D
100
AcDbEntity
  8
0
100
AcDbLine
 62
3
  6
CONTINUOUS
 10
13.4832502531
 20
4.0802521146
 11
13.5217340158
 21
4.0915358745
  0
LINE
  5
73E
100
AcDbEntity
  8
0
100
AcDbLine
 62
3
  6
CONTINUOUS
 10
13.6205626755
 20
4.1321921943
 11
13.4690454209
 21
4.0884530927
  0
LINE
  5
73F
100
AcDbEntity
  8
0
100
AcDbLine
 62
7
  6
CONTINUOUS
 10
13.6205626755
 20
4.1312278214
 11
13.470159001
 21
4.0878101815
  0
LINE
  5
740
100
AcDbEntity
  8
0
100
AcDbLine
 62
3
  6
CONTINUOUS
 10
14.2337388412
 20
3.6469671284
 11
14.309497036
 21
3.7344447541
  0
LINE
  5
741
100
AcDbEntity
  8
0
100
AcDbLine
 62
3
  6
CONTINUOUS
 10
14.2390780406
 20
3.677386478
 11
14.219534009
 21
3.6551681065
  0
LINE
  5
742
100
AcDbEntity
  8
0
100
AcDbLine
 62
7
  6
CONTINUOUS
 10
14.2390780406
 20
3.6764221051
 11
14.220012257
 21
3.6547474234
  0
LINE
  5
743
100
AcDbEntity
  8
0
100
AcDbLine
 62
3
  6
CONTINUOUS
 10
14.2903558906
 20
3.7343283615
 11
14.2463818982
 21
3.6843369773
  0
LINE
  5
744
100
AcDbEntity
  8
0
100
AcDbLine
 62
7
  6
CONTINUOUS
 10
14.2903558906
 20
3.7333639886
 11
14.2463818982
 21
3.6833726044
  0
LINE
  5
745
100
AcDbEntity
  8
0
100
AcDbLine
 62
3
  6
CONTINUOUS
 10
14.0767798518
 20
3.8297155274
 11
14.0646404018
 21
3.8199731515
  0
LINE
  5
746
100
AcDbEntity
  8
0
100
AcDbLine
 62
7
  6
CONTINUOUS
 10
14.0767798518
 20
3.8287511545
 11
14.0646404018
 21
3.8190087786
  0
LINE
  5
747
100
AcDbEntity
  8
0
100
AcDbLine
 62
3
  6
CONTINUOUS
 10
13.9225416926
 20
3.8992202016
 11
13.9128703992
 21
3.893636511
  0
LINE
  5
748
100
AcDbEntity
  8
0
100
AcDbLine
 62
7
  6
CONTINUOUS
 10
13.9225416926
 20
3.8982558286
 11
13.9137055826
 21
3.8931543286
  0
LINE
  5
749
100
AcDbEntity
  8
0
100
AcDbLine
 62
3
  6
CONTINUOUS
 10
13.9798645774
 20
3.8940437953
 11
13.975028924
 21
3.8912519461
  0
LINE
  5
74A
100
AcDbEntity
  8
0
100
AcDbLine
 62
7
  6
CONTINUOUS
 10
13.9798645774
 20
3.8930794223
 11
13.975028924
 21
3.8902875731
  0
LINE
  5
74B
100
AcDbEntity
  8
0
100
AcDbLine
 62
3
  6
CONTINUOUS
 10
13.9314577128
 20
3.8633626053
 11
13.9217864193
 21
3.8577789148
  0
LINE
  5
74C
100
AcDbEntity
  8
0
100
AcDbLine
 62
7
  6
CONTINUOUS
 10
13.9314577128
 20
3.8623982324
 11
13.9217864193
 21
3.8568145418
  0
LINE
  5
74D
100
AcDbEntity
  8
0
100
AcDbLine
 62
3
  6
CONTINUOUS
 10
13.986866266
 20
3.884417808
 11
13.9917019195
 21
3.8872096572
  0
LINE
  5
74E
100
AcDbEntity
  8
0
100
AcDbLine
 62
3
  6
CONTINUOUS
 10
13.9336238156
 20
3.8509447454
 11
13.943295109
 21
3.856528436
  0
LINE
  5
74F
100
AcDbEntity
  8
0
100
AcDbLine
 62
3
  6
CONTINUOUS
 10
13.9936665742
 20
3.863740805
 11
13.971906164
 21
3.8511775014
  0
LINE
  5
750
100
AcDbEntity
  8
0
100
AcDbLine
 62
7
  6
CONTINUOUS
 10
13.9936665742
 20
3.8627764321
 11
13.971906164
 21
3.8502131284
  0
LINE
  5
751
100
AcDbEntity
  8
0
100
AcDbLine
 62
3
  6
CONTINUOUS
 10
13.9861613294
 20
3.845739286
 11
14.0030860929
 21
3.8555107444
  0
LINE
  5
752
100
AcDbEntity
  8
0
100
AcDbLine
 62
3
  6
CONTINUOUS
 10
13.8214453206
 20
3.9966724147
 11
13.8094065913
 21
3.992455533
  0
LINE
  5
753
100
AcDbEntity
  8
0
100
AcDbLine
 62
7
  6
CONTINUOUS
 10
13.8214453206
 20
3.9957080418
 11
13.8094065913
 21
3.9914911601
  0
LINE
  5
754
100
AcDbEntity
  8
0
100
AcDbLine
 62
3
  6
CONTINUOUS
 10
13.923246636
 20
3.9378987276
 11
13.9112078525
 21
3.9336818772
  0
LINE
  5
755
100
AcDbEntity
  8
0
100
AcDbLine
 62
7
  6
CONTINUOUS
 10
13.923246636
 20
3.9369343546
 11
13.9122474851
 21
3.9330816586
  0
LINE
  5
756
100
AcDbEntity
  8
0
100
AcDbLine
 62
3
  6
CONTINUOUS
 10
13.8211935934
 20
3.9828586284
 11
13.8308145061
 21
3.9856795913
  0
LWPOLYLINE
  5
757
100
AcDbEntity
  8
02___PRT_ALL_AXES
100
AcDbPolyline
 62
3
  6
CONTINUOUS
 90
16
 70
0
 10
15.2841467976
 20
5.2946479521
 10
15.2788342677
 20
5.375660008
 10
15.2630274903
 20
5.4608115205
 10
15.2371156805
 20
5.5480057768
 10
15.2017368732
 20
5.635095765
 10
15.157762212
 20
5.7199370404
 10
15.1062744991
 20
5.8004405293
 10
15.0485415327
 20
5.8746239687
 10
14.9859848901
 20
5.940660716
 10
14.9201449236
 20
5.9969247275
 10
14.8526428315
 20
6.0420305963
 10
14.7851407394
 20
6.0748676662
 10
14.7193007728
 20
6.0946273798
 10
14.6567441302
 20
6.1008231872
 10
14.5990111639
 20
6.093302527
 10
14.5475260764
 20
6.0722520988
  0
LINE
  5
758
100
AcDbEntity
  8
0
100
AcDbLine
 62
3
  6
CONTINUOUS
 10
14.0646404018
 20
3.8199731515
 11
14.0477156383
 21
3.8102016931
  0
LINE
  5
759
100
AcDbEntity
  8
0
100
AcDbLine
 62
7
  6
CONTINUOUS
 10
14.0646404018
 20
3.8190087786
 11
14.0477156383
 21
3.8092373202
  0
LINE
  5
75A
100
AcDbEntity
  8
0
100
AcDbLine
 62
3
  6
CONTINUOUS
 10
14.057135157
 20
3.8019716325
 11
14.0788955672
 21
3.8145349361
  0
LINE
  5
75B
100
AcDbEntity
  8
0
100
AcDbLine
 62
3
  6
CONTINUOUS
 10
14.1437739759
 20
3.8301228429
 11
14.0301362647
 21
3.7645144714
  0
LINE
  5
75C
100
AcDbEntity
  8
0
100
AcDbLine
 62
7
  6
CONTINUOUS
 10
14.1437739759
 20
3.82915847
 11
14.0309714481
 21
3.764032289
  0
LINE
  5
75D
100
AcDbEntity
  8
0
100
AcDbLine
 62
3
  6
CONTINUOUS
 10
14.0443411511
 20
3.756313462
 11
14.0951154483
 21
3.7856278412
  0
LINE
  5
75E
100
AcDbEntity
  8
0
100
AcDbLine
 62
3
  6
CONTINUOUS
 10
14.1096223884
 20
3.794003377
 11
14.1458897455
 21
3.8149422204
  0
LINE
  5
75F
100
AcDbEntity
  8
0
100
AcDbLine
 62
3
  6
CONTINUOUS
 10
14.19056957
 20
3.7723959631
 11
14.1833160931
 21
3.7682081913
  0
LINE
  5
760
100
AcDbEntity
  8
0
100
AcDbLine
 62
7
  6
CONTINUOUS
 10
14.19056957
 20
3.7714315902
 11
14.1833160931
 21
3.7672438184
  0
LINE
  5
761
100
AcDbEntity
  8
0
100
AcDbLine
 62
3
  6
CONTINUOUS
 10
14.0030860929
 20
3.8555107444
 11
14.0199605231
 21
3.86251944
  0
LINE
  5
762
100
AcDbEntity
  8
0
100
AcDbLine
 62
3
  6
CONTINUOUS
 10
14.0477156383
 20
3.8102016931
 11
14.0308412047
 21
3.8031929955
  0
LINE
  5
763
100
AcDbEntity
  8
0
100
AcDbLine
 62
7
  6
CONTINUOUS
 10
14.0477156383
 20
3.8092373202
 11
14.0308412047
 21
3.8022286226
  0
LINE
  5
764
100
AcDbEntity
  8
0
100
AcDbLine
 62
3
  6
CONTINUOUS
 10
14.008123181
 20
3.8693535781
 11
13.9936665742
 21
3.863740805
  0
LINE
  5
765
100
AcDbEntity
  8
0
100
AcDbLine
 62
7
  6
CONTINUOUS
 10
14.008123181
 20
3.8683892051
 11
13.9936665742
 21
3.8627764321
  0
LINE
  5
766
100
AcDbEntity
  8
0
100
AcDbLine
 62
3
  6
CONTINUOUS
 10
13.9748274825
 20
3.8802009576
 11
13.986866266
 21
3.884417808
  0
LINE
  5
767
100
AcDbEntity
  8
0
100
AcDbLine
 62
3
  6
CONTINUOUS
 10
13.9240028538
 20
3.8481238167
 11
13.9336238156
 21
3.8509447454
  0
LINE
  5
768
100
AcDbEntity
  8
0
100
AcDbLine
 62
3
  6
CONTINUOUS
 10
14.0177440938
 20
3.872174541
 11
14.008123181
 21
3.8693535781
  0
LINE
  5
769
100
AcDbEntity
  8
0
100
AcDbLine
 62
7
  6
CONTINUOUS
 10
14.0177440938
 20
3.8712101681
 11
14.008123181
 21
3.8683892051
  0
LINE
  5
76A
100
AcDbEntity
  8
0
100
AcDbLine
 62
9
  6
CONTINUOUS
 10
15.4066388488
 20
4.1598911295
 11
15.4066388488
 21
4.2434701171
  0
LINE
  5
76B
100
AcDbEntity
  8
0
100
AcDbLine
 62
3
  6
CONTINUOUS
 10
15.4790195565
 20
4.3688378763
 11
15.4790195565
 21
5.7125457711
  0
LINE
  5
76C
100
AcDbEntity
  8
0
100
AcDbLine
 62
3
  6
CONTINUOUS
 10
14.195103102
 20
3.7586112905
 11
14.2047744021
 21
3.764194985
  0
LINE
  5
76D
100
AcDbEntity
  8
0
100
AcDbLine
 62
9
  6
CONTINUOUS
 10
15.5514002642
 20
4.410626648
 11
15.4790195565
 21
4.3688378763
  0
LINE
  5
76E
100
AcDbEntity
  8
0
100
AcDbLine
 62
3
  6
CONTINUOUS
 10
14.0426785468
 20
3.7963588575
 11
14.057135157
 21
3.8019716325
  0
LINE
  5
76F
100
AcDbEntity
  8
0
100
AcDbLine
 62
3
  6
CONTINUOUS
 10
14.0330576408
 20
3.7935378984
 11
14.0426785468
 21
3.7963588575
  0
LWPOLYLINE
  5
770
100
AcDbEntity
  8
0
100
AcDbPolyline
 62
3
  6
CONTINUOUS
 90
8
 70
0
 10
15.4790195565
 20
5.7125457711
 10
15.4748316706
 20
5.7578822266
 10
15.4624780108
 20
5.8057809677
 10
15.4425780414
 20
5.8538401515
 10
15.4161296299
 20
5.8996498898
 10
15.38445901
 20
5.940913091
 10
15.3491542789
 20
5.975560646
 10
15.3119857632
 20
6.0018551817
  0
LWPOLYLINE
  5
771
100
AcDbEntity
  8
0
100
AcDbPolyline
 62
7
  6
CONTINUOUS
 90
8
 70
0
 10
15.5514002642
 20
5.7543345427
 10
15.5472123783
 20
5.7996709983
 10
15.5348587186
 20
5.8475697394
 10
15.5149587492
 20
5.8956289232
 10
15.4885103376
 20
5.9414386615
 10
15.4568397177
 20
5.9827018627
 10
15.4215349866
 20
6.0173494177
 10
15.3843664709
 20
6.0436439534
  0
LINE
  5
772
100
AcDbEntity
  8
0
100
AcDbLine
 62
7
  6
CONTINUOUS
 10
15.5514002642
 20
4.410626648
 11
15.5514002642
 21
5.7543345427
  0
LWPOLYLINE
  5
773
100
AcDbEntity
  8
0
100
AcDbPolyline
 62
3
  6
CONTINUOUS
 90
7
 70
0
 10
15.4066388488
 20
4.2434701171
 10
15.4253723544
 20
4.257133732
 10
15.4428292026
 20
4.275561964
 10
15.457819738
 20
4.2974989596
 10
15.4693223804
 20
4.3214497487
 10
15.4765532437
 20
4.3457821247
 10
15.4790195565
 20
4.3688378763
  0
LINE
  5
774
100
AcDbEntity
  8
0
100
AcDbLine
 62
3
  6
CONTINUOUS
 10
14.3821605081
 20
3.651990802
 11
15.4066388488
 21
4.2434701171
  0
LINE
  5
775
100
AcDbEntity
  8
0
100
AcDbLine
 62
7
  6
CONTINUOUS
 10
14.3821605081
 20
3.5684118144
 11
15.4066388488
 21
4.1598911295
  0
LINE
  5
776
100
AcDbEntity
  8
0
100
AcDbLine
 62
3
  6
CONTINUOUS
 10
14.1833160931
 20
3.7682081913
 11
14.1736951872
 21
3.7653872323
  0
LINE
  5
777
100
AcDbEntity
  8
0
100
AcDbLine
 62
7
  6
CONTINUOUS
 10
14.1833160931
 20
3.7672438184
 11
14.1736951872
 21
3.7644228593
  0
LINE
  5
778
100
AcDbEntity
  8
0
100
AcDbLine
 62
3
  6
CONTINUOUS
 10
14.185482196
 20
3.7557903315
 11
14.195103102
 21
3.7586112905
  0
LINE
  5
779
100
AcDbEntity
  8
0
100
AcDbLine
 62
3
  6
CONTINUOUS
 10
14.2037674016
 20
3.7089399118
 11
14.2903558906
 21
3.7343283615
  0
LINE
  5
77A
100
AcDbEntity
  8
0
100
AcDbLine
 62
3
  6
CONTINUOUS
 10
14.1532448283
 20
3.6934393171
 11
14.1917285639
 21
3.7047230927
  0
LINE
  5
77B
100
AcDbEntity
  8
0
100
AcDbLine
 62
3
  6
CONTINUOUS
 10
14.2905572236
 20
3.7453794125
 11
14.1390399961
 21
3.7016402952
  0
LINE
  5
77C
100
AcDbEntity
  8
0
100
AcDbLine
 62
7
  6
CONTINUOUS
 10
14.2905572236
 20
3.7444150396
 11
14.1401535761
 21
3.7009973841
  0
LINE
  5
77D
100
AcDbEntity
  8
0
100
AcDbLine
 62
3
  6
CONTINUOUS
 10
15.3119857632
 20
6.0018551817
 11
14.3932998998
 21
6.5322467132
  0
LWPOLYLINE
  5
77E
100
AcDbEntity
  8
0
100
AcDbPolyline
 62
7
  6
CONTINUOUS
 90
12
 70
0
 10
15.4066388488
 20
4.1598911295
 10
15.427242977
 20
4.1734886883
 10
15.4474158188
 20
4.1902022715
 10
15.4667811658
 20
4.2097231349
 10
15.4848941275
 20
4.2316008846
 10
15.5014448282
 20
4.2554628845
 10
15.5160358033
 20
4.280735335
 10
15.5284254604
 20
4.3069997834
 10
15.5383156087
 20
4.3336251122
 10
15.5455384749
 20
4.3601566407
 10
15.5499264522
 20
4.3859838802
 10
15.5514002642
 20
4.410626648
  0
LWPOLYLINE
  5
77F
100
AcDbEntity
  8
0
100
AcDbPolyline
 62
3
  6
CONTINUOUS
 90
5
 70
0
 10
14.3932998998
 20
6.5322467132
 10
14.3561313841
 20
6.5488697117
 10
14.320826653
 20
6.5549876265
 10
14.2891560331
 20
6.5502936798
 10
14.2751971864
 20
6.5439332576
  0
LWPOLYLINE
  5
780
100
AcDbEntity
  8
0
100
AcDbPolyline
 62
7
  6
CONTINUOUS
 90
5
 70
0
 10
14.4656806075
 20
6.5740354848
 10
14.4285120918
 20
6.5906584833
 10
14.3932073607
 20
6.5967763981
 10
14.3615367408
 20
6.5920824514
 10
14.3475778941
 20
6.5857220292
  0
LINE
  5
781
100
AcDbEntity
  8
0
100
AcDbLine
 62
7
  6
CONTINUOUS
 10
15.3843664709
 20
6.0436439534
 11
14.4656806075
 21
6.5740354848
  0
LINE
  5
782
100
AcDbEntity
  8
0
100
AcDbLine
 62
7
  6
CONTINUOUS
 10
7.0817323014
 20
3.437729216
 11
8.8533858447
 21
3.437729216
  0
LINE
  5
783
100
AcDbEntity
  8
0
100
AcDbLine
 62
3
  6
CONTINUOUS
 10
7.0817323014
 20
3.5400914207
 11
8.8533858447
 21
3.5400914207
  0
LINE
  5
784
100
AcDbEntity
  8
0
100
AcDbLine
 62
3
  6
CONTINUOUS
 10
7.0817323014
 20
5.288141215
 11
7.0817323014
 21
3.5400914207
  0
LINE
  5
785
100
AcDbEntity
  8
0
100
AcDbLine
 62
7
  6
CONTINUOUS
 10
7.0817323014
 20
3.5400914207
 11
7.0817323014
 21
3.437729216
  0
LINE
  5
786
100
AcDbEntity
  8
0
100
AcDbLine
 62
9
  6
CONTINUOUS
 10
7.0817323014
 20
3.6424536254
 11
8.8533858447
 21
3.6424536254
  0
LINE
  5
787
100
AcDbEntity
  8
0
100
AcDbLine
 62
9
  6
CONTINUOUS
 10
7.3179527738
 20
3.5400914207
 11
7.3179527738
 21
3.437729216
  0
LINE
  5
788
100
AcDbEntity
  8
02___PRT_ALL_AXES
100
AcDbLine
 62
7
  6
CENTER
 10
7.9675590731
 20
4.6385349158
 11
7.9675590731
 21
3.9282986953
  0
LINE
  5
789
100
AcDbEntity
  8
02___PRT_ALL_AXES
100
AcDbLine
 62
7
  6
CENTER
 10
7.9675590731
 20
4.6385349158
 11
7.9675590731
 21
5.3487711363
  0
LINE
  5
78A
100
AcDbEntity
  8
02___PRT_ALL_AXES
100
AcDbLine
 62
7
  6
CENTER
 10
7.9675590731
 20
4.6385349158
 11
7.2573228526
 21
4.6385349158
  0
LINE
  5
78B
100
AcDbEntity
  8
02___PRT_ALL_AXES
100
AcDbLine
 62
7
  6
CENTER
 10
7.9675590731
 20
4.6385349158
 11
8.6777952935
 21
4.6385349158
  0
LINE
  5
78C
100
AcDbEntity
  8
0
100
AcDbLine
 62
9
  6
CONTINUOUS
 10
8.6171653723
 20
3.5400914207
 11
8.6171653723
 21
3.437729216
  0
LINE
  5
78D
100
AcDbEntity
  8
0
100
AcDbLine
 62
7
  6
CONTINUOUS
 10
8.8533858447
 20
3.5400914207
 11
8.8533858447
 21
3.437729216
  0
LINE
  5
78E
100
AcDbEntity
  8
0
100
AcDbLine
 62
3
  6
CONTINUOUS
 10
8.8533858447
 20
3.5400914207
 11
8.8533858447
 21
5.288141215
  0
LINE
  5
78F
100
AcDbEntity
  8
0
100
AcDbLine
 62
3
  6
CONTINUOUS
 10
8.6171653723
 20
5.5243616875
 11
7.3179527738
 21
5.5243616875
  0
LINE
  5
790
100
AcDbEntity
  8
0
100
AcDbLine
 62
7
  6
CONTINUOUS
 10
2.6612308911
 20
3.437729216
 11
4.3462885594
 21
3.437729216
  0
LINE
  5
791
100
AcDbEntity
  8
0
100
AcDbLine
 62
7
  6
CONTINUOUS
 10
2.4565064816
 20
5.5243616875
 11
2.4565064816
 21
3.6424536254
  0
LINE
  5
792
100
AcDbEntity
  8
0
100
AcDbLine
 62
3
  6
CONTINUOUS
 10
2.6612308911
 20
3.5400914207
 11
4.3462885594
 21
3.5400914207
  0
LINE
  5
793
100
AcDbEntity
  8
0
100
AcDbLine
 62
3
  6
CONTINUOUS
 10
2.5588686864
 20
5.5243616875
 11
2.5588686864
 21
3.6424536254
  0
LINE
  5
794
100
AcDbEntity
  8
0
100
AcDbLine
 62
9
  6
CONTINUOUS
 10
2.4565064816
 20
3.6424536254
 11
2.5588686864
 21
3.6424536254
  0
LINE
  5
795
100
AcDbEntity
  8
0
100
AcDbLine
 62
9
  6
CONTINUOUS
 10
2.6612308911
 20
3.437729216
 11
2.6612308911
 21
3.5400914207
  0
LINE
  5
796
100
AcDbEntity
  8
0
100
AcDbLine
 62
9
  6
CONTINUOUS
 10
4.110068087
 20
3.5400914207
 11
4.110068087
 21
3.437729216
  0
LINE
  5
797
100
AcDbEntity
  8
0
100
AcDbLine
 62
9
  6
CONTINUOUS
 10
2.5588686864
 20
5.288141215
 11
2.4565064816
 21
5.288141215
  0
LINE
  5
798
100
AcDbEntity
  8
0
100
AcDbLine
 62
7
  6
CONTINUOUS
 10
4.3462885594
 20
3.5400914207
 11
4.3462885594
 21
3.437729216
  0
LINE
  5
799
100
AcDbEntity
  8
0
100
AcDbLine
 62
7
  6
CONTINUOUS
 10
2.5588686864
 20
5.5243616875
 11
2.4565064816
 21
5.5243616875
  0
LINE
  5
79A
100
AcDbEntity
  8
0
100
AcDbLine
 62
3
  6
CONTINUOUS
 10
7.1977231154
 20
7.2374870016
 11
7.2144636006
 21
7.2272290023
  0
LINE
  5
79B
100
AcDbEntity
  8
0
100
AcDbLine
 62
3
  6
CONTINUOUS
 10
7.2178116969
 20
7.2477450012
 11
7.2077674056
 21
7.2580030021
  0
LINE
  5
79C
100
AcDbEntity
  8
0
100
AcDbLine
 62
3
  6
CONTINUOUS
 10
7.1977231154
 20
7.3195509975
 11
7.2111155043
 21
7.3058736663
  0
LINE
  5
79D
100
AcDbEntity
  8
0
100
AcDbLine
 62
3
  6
CONTINUOUS
 10
7.1876788238
 20
7.2545836693
 11
7.1977231154
 21
7.2374870016
  0
LINE
  5
79E
100
AcDbEntity
  8
0
100
AcDbLine
 62
3
  6
CONTINUOUS
 10
7.3179527738
 20
7.0986915589
 11
8.6171653723
 21
7.0986915589
  0
LINE
  5
79F
100
AcDbEntity
  8
0
100
AcDbLine
 62
3
  6
CONTINUOUS
 10
7.2144636006
 20
7.2272290023
 11
7.2312040846
 21
7.2238096691
  0
LINE
  5
7A0
100
AcDbEntity
  8
0
100
AcDbLine
 62
3
  6
CONTINUOUS
 10
7.2312040846
 20
7.2443256684
 11
7.2178116969
 21
7.2477450012
  0
LINE
  5
7A1
100
AcDbEntity
  8
0
100
AcDbLine
 62
3
  6
CONTINUOUS
 10
7.2111155043
 20
7.3058736663
 11
7.2245078919
 21
7.2990350006
  0
LINE
  5
7A2
100
AcDbEntity
  8
0
100
AcDbLine
 62
3
  6
CONTINUOUS
 10
7.2881217339
 20
7.3058736663
 11
7.2747293486
 21
7.3127123319
  0
LINE
  5
7A3
100
AcDbEntity
  8
0
100
AcDbLine
 62
3
  6
CONTINUOUS
 10
7.2278559907
 20
7.3195509975
 11
7.2178116969
 21
7.3263896631
  0
LINE
  5
7A4
100
AcDbEntity
  8
0
100
AcDbLine
 62
3
  6
CONTINUOUS
 10
7.2713812547
 20
7.292196335
 11
7.2814255461
 21
7.2853576694
  0
LINE
  5
7A5
100
AcDbEntity
  8
0
100
AcDbLine
 62
3
  6
CONTINUOUS
 10
7.28477364
 20
7.3708409993
 11
7.2713812547
 21
7.3810989977
  0
LINE
  5
7A6
100
AcDbEntity
  8
0
100
AcDbLine
 62
3
  6
CONTINUOUS
 10
7.3015141287
 20
7.292196335
 11
7.2881217339
 21
7.3058736663
  0
LINE
  5
7A7
100
AcDbEntity
  8
0
100
AcDbLine
 62
3
  6
CONTINUOUS
 10
7.2680331512
 20
7.3605830009
 11
7.2747293486
 21
7.3537443352
  0
LINE
  5
7A8
100
AcDbEntity
  8
0
100
AcDbLine
 62
3
  6
CONTINUOUS
 10
7.2948179313
 20
7.357163668
 11
7.28477364
 21
7.3708409993
  0
LINE
  5
7A9
100
AcDbEntity
  8
0
100
AcDbLine
 62
3
  6
CONTINUOUS
 10
7.2814255461
 20
7.2853576694
 11
7.2881217339
 21
7.2750996661
  0
LINE
  5
7AA
100
AcDbEntity
  8
0
100
AcDbLine
 62
3
  6
CONTINUOUS
 10
7.2077674056
 20
7.2580030021
 11
7.2044193093
 21
7.2682610005
  0
LINE
  5
7AB
100
AcDbEntity
  8
0
100
AcDbLine
 62
3
  6
CONTINUOUS
 10
7.1843307266
 20
7.2682610005
 11
7.1876788238
 21
7.2545836693
  0
LINE
  5
7AC
100
AcDbEntity
  8
0
100
AcDbLine
 62
3
  6
CONTINUOUS
 10
7.0817323014
 20
8.8861114319
 11
7.0817323014
 21
7.3349120313
  0
LINE
  5
7AD
100
AcDbEntity
  8
0
100
AcDbLine
 62
7
  6
CONTINUOUS
 10
7.0817323014
 20
8.8861114319
 11
7.0817323014
 21
8.9884736367
  0
LINE
  5
7AE
100
AcDbEntity
  8
0
100
AcDbLine
 62
3
  6
CONTINUOUS
 10
8.2456774858
 20
7.2238096691
 11
8.2590698998
 21
7.2272290023
  0
LINE
  5
7AF
100
AcDbEntity
  8
0
100
AcDbLine
 62
3
  6
CONTINUOUS
 10
8.3963418559
 20
7.2443256684
 11
8.3796013959
 21
7.2409063356
  0
LINE
  5
7B0
100
AcDbEntity
  8
0
100
AcDbLine
 62
3
  6
CONTINUOUS
 10
8.3796013959
 20
7.2238096691
 11
8.3996899786
 21
7.2272290023
  0
LINE
  5
7B1
100
AcDbEntity
  8
0
100
AcDbLine
 62
3
  6
CONTINUOUS
 10
7.2747293486
 20
7.3127123319
 11
7.2579888647
 21
7.3161316647
  0
LINE
  5
7B2
100
AcDbEntity
  8
0
100
AcDbLine
 62
3
  6
CONTINUOUS
 10
7.2245078919
 20
7.2990350006
 11
7.237900282
 21
7.2956156678
  0
LINE
  5
7B3
100
AcDbEntity
  8
0
100
AcDbLine
 62
3
  6
CONTINUOUS
 10
7.2579888647
 20
7.2956156678
 11
7.2713812547
 21
7.292196335
  0
LINE
  5
7B4
100
AcDbEntity
  8
0
100
AcDbLine
 62
3
  6
CONTINUOUS
 10
7.237900282
 20
7.3161316647
 11
7.2278559907
 21
7.3195509975
  0
LINE
  5
7B5
100
AcDbEntity
  8
0
100
AcDbLine
 62
3
  6
CONTINUOUS
 10
7.2579888647
 20
7.3640023337
 11
7.2680331512
 21
7.3605830009
  0
LINE
  5
7B6
100
AcDbEntity
  8
0
100
AcDbLine
 62
3
  6
CONTINUOUS
 10
7.3082103166
 20
7.278518999
 11
7.3015141287
 21
7.292196335
  0
LINE
  5
7B7
100
AcDbEntity
  8
0
100
AcDbLine
 62
3
  6
CONTINUOUS
 10
7.2747293486
 20
7.3537443352
 11
7.2780774426
 21
7.3469056696
  0
LINE
  5
7B8
100
AcDbEntity
  8
0
100
AcDbLine
 62
3
  6
CONTINUOUS
 10
7.2178116969
 20
7.3263896631
 11
7.2144636006
 21
7.3366476616
  0
LINE
  5
7B9
100
AcDbEntity
  8
0
100
AcDbLine
 62
3
  6
CONTINUOUS
 10
7.2981660252
 20
7.3469056696
 11
7.2948179313
 21
7.357163668
  0
LINE
  5
7BA
100
AcDbEntity
  8
0
100
AcDbLine
 62
3
  6
CONTINUOUS
 10
7.1943750179
 20
7.3332283288
 11
7.1977231154
 21
7.3195509975
  0
LINE
  5
7BB
100
AcDbEntity
  8
0
100
AcDbLine
 62
3
  6
CONTINUOUS
 10
7.1943750179
 20
7.3469056696
 11
7.1943750179
 21
7.3332283288
  0
LINE
  5
7BC
100
AcDbEntity
  8
0
100
AcDbLine
 62
3
  6
CONTINUOUS
 10
8.1084055297
 20
7.2477450012
 11
8.0950131157
 21
7.2443256684
  0
LINE
  5
7BD
100
AcDbEntity
  8
0
100
AcDbLine
 62
3
  6
CONTINUOUS
 10
8.2590698998
 20
7.2443256684
 11
8.2423294398
 21
7.2409063356
  0
LINE
  5
7BE
100
AcDbEntity
  8
0
100
AcDbLine
 62
3
  6
CONTINUOUS
 10
8.0950131157
 20
7.2238096691
 11
8.1117536524
 21
7.2272290023
  0
LINE
  5
7BF
100
AcDbEntity
  8
0
100
AcDbLine
 62
3
  6
CONTINUOUS
 10
7.2312040846
 20
7.2238096691
 11
7.2579888647
 21
7.2238096691
  0
LINE
  5
7C0
100
AcDbEntity
  8
0
100
AcDbLine
 62
3
  6
CONTINUOUS
 10
7.3349950967
 20
7.2238096691
 11
7.3550836794
 21
7.2238096691
  0
LINE
  5
7C1
100
AcDbEntity
  8
0
100
AcDbLine
 62
3
  6
CONTINUOUS
 10
7.4019570325
 20
7.2238096691
 11
7.4287418222
 21
7.2238096691
  0
LINE
  5
7C2
100
AcDbEntity
  8
0
100
AcDbLine
 62
3
  6
CONTINUOUS
 10
7.4756151754
 20
7.2238096691
 11
7.4957037581
 21
7.2238096691
  0
LINE
  5
7C3
100
AcDbEntity
  8
0
100
AcDbLine
 62
3
  6
CONTINUOUS
 10
7.5224885478
 20
7.2238096691
 11
7.6028428785
 21
7.2238096691
  0
LINE
  5
7C4
100
AcDbEntity
  8
0
100
AcDbLine
 62
3
  6
CONTINUOUS
 10
7.6731529178
 20
7.2238096691
 11
7.6932415005
 21
7.2238096691
  0
LINE
  5
7C5
100
AcDbEntity
  8
0
100
AcDbLine
 62
3
  6
CONTINUOUS
 10
7.7869882069
 20
7.2238096691
 11
7.8070767896
 21
7.2238096691
  0
LINE
  5
7C6
100
AcDbEntity
  8
0
100
AcDbLine
 62
3
  6
CONTINUOUS
 10
7.8338615409
 20
7.2238096691
 11
7.8539501236
 21
7.2238096691
  0
LINE
  5
7C7
100
AcDbEntity
  8
0
100
AcDbLine
 62
3
  6
CONTINUOUS
 10
7.9008235343
 20
7.2238096691
 11
7.9276082857
 21
7.2238096691
  0
LINE
  5
7C8
100
AcDbEntity
  8
0
100
AcDbLine
 62
3
  6
CONTINUOUS
 10
7.9744816197
 20
7.2238096691
 11
7.9945702024
 21
7.2238096691
  0
LINE
  5
7C9
100
AcDbEntity
  8
0
100
AcDbLine
 62
3
  6
CONTINUOUS
 10
8.0682283644
 20
7.2238096691
 11
8.0950131157
 21
7.2238096691
  0
LINE
  5
7CA
100
AcDbEntity
  8
0
100
AcDbLine
 62
3
  6
CONTINUOUS
 10
8.2188927345
 20
7.2238096691
 11
8.2456774858
 21
7.2238096691
  0
LINE
  5
7CB
100
AcDbEntity
  8
0
100
AcDbLine
 62
3
  6
CONTINUOUS
 10
8.4666518953
 20
7.2238096691
 11
8.4867405546
 21
7.2238096691
  0
LINE
  5
7CC
100
AcDbEntity
  8
0
100
AcDbLine
 62
3
  6
CONTINUOUS
 10
8.5704429313
 20
7.2238096691
 11
8.59387956
 21
7.2238096691
  0
LINE
  5
7CD
100
AcDbEntity
  8
0
100
AcDbLine
 62
3
  6
CONTINUOUS
 10
8.620664388
 20
7.2238096691
 11
8.6407529707
 21
7.2238096691
  0
LINE
  5
7CE
100
AcDbEntity
  8
0
100
AcDbLine
 62
3
  6
CONTINUOUS
 10
8.7344996388
 20
7.2238096691
 11
8.7545882214
 21
7.2238096691
  0
LINE
  5
7CF
100
AcDbEntity
  8
0
100
AcDbLine
 62
3
  6
CONTINUOUS
 10
8.2423294398
 20
7.2409063356
 11
8.2222408571
 21
7.2409063356
  0
LINE
  5
7D0
100
AcDbEntity
  8
0
100
AcDbLine
 62
3
  6
CONTINUOUS
 10
8.0950131157
 20
7.2443256684
 11
8.0682283644
 21
7.2443256684
  0
LINE
  5
7D1
100
AcDbEntity
  8
0
100
AcDbLine
 62
3
  6
CONTINUOUS
 10
7.6061909628
 20
7.2443256684
 11
7.5425771304
 21
7.2443256684
  0
LINE
  5
7D2
100
AcDbEntity
  8
0
100
AcDbLine
 62
3
  6
CONTINUOUS
 10
7.2579888647
 20
7.2443256684
 11
7.2312040846
 21
7.2443256684
  0
LINE
  5
7D3
100
AcDbEntity
  8
0
100
AcDbLine
 62
3
  6
CONTINUOUS
 10
8.1887598605
 20
7.2614223349
 11
8.1720194004
 21
7.2614223349
  0
LINE
  5
7D4
100
AcDbEntity
  8
0
100
AcDbLine
 62
3
  6
CONTINUOUS
 10
7.7066338762
 20
7.2648416677
 11
7.7735958312
 21
7.2648416677
  0
LINE
  5
7D5
100
AcDbEntity
  8
0
100
AcDbLine
 62
3
  6
CONTINUOUS
 10
8.6541453081
 20
7.2648416677
 11
8.7211073014
 21
7.2648416677
  0
LINE
  5
7D6
100
AcDbEntity
  8
0
100
AcDbLine
 62
3
  6
CONTINUOUS
 10
8.041443613
 20
7.2682610005
 11
8.0213550304
 21
7.2682610005
  0
LINE
  5
7D7
100
AcDbEntity
  8
0
100
AcDbLine
 62
3
  6
CONTINUOUS
 10
7.2044193093
 20
7.2682610005
 11
7.1843307266
 21
7.2682610005
  0
LINE
  5
7D8
100
AcDbEntity
  8
0
100
AcDbLine
 62
3
  6
CONTINUOUS
 10
7.2713812547
 20
7.3810989977
 11
7.254640766
 21
7.3845183306
  0
LINE
  5
7D9
100
AcDbEntity
  8
0
100
AcDbLine
 62
3
  6
CONTINUOUS
 10
8.0514879044
 20
7.2272290023
 11
8.0682283644
 21
7.2238096691
  0
LINE
  5
7DA
100
AcDbEntity
  8
0
100
AcDbLine
 62
3
  6
CONTINUOUS
 10
7.6061909628
 20
7.2956156678
 11
7.6162352542
 21
7.292196335
  0
LINE
  5
7DB
100
AcDbEntity
  8
0
100
AcDbLine
 62
3
  6
CONTINUOUS
 10
7.6329757525
 20
7.3024543334
 11
7.6262795455
 21
7.3058736663
  0
LINE
  5
7DC
100
AcDbEntity
  8
0
100
AcDbLine
 62
3
  6
CONTINUOUS
 10
7.6162352542
 20
7.292196335
 11
7.6229314612
 21
7.2853576694
  0
LINE
  5
7DD
100
AcDbEntity
  8
0
100
AcDbLine
 62
3
  6
CONTINUOUS
 10
7.3550836794
 20
7.3503250024
 11
7.4019570325
 21
7.2238096691
  0
LINE
  5
7DE
100
AcDbEntity
  8
0
100
AcDbLine
 62
3
  6
CONTINUOUS
 10
7.4153494274
 20
7.2409063356
 11
7.3651279707
 21
7.3845183306
  0
LINE
  5
7DF
100
AcDbEntity
  8
0
100
AcDbLine
 62
3
  6
CONTINUOUS
 10
7.2144636006
 20
7.3366476616
 11
7.2144636006
 21
7.3434863272
  0
LINE
  5
7E0
100
AcDbEntity
  8
0
100
AcDbLine
 62
3
  6
CONTINUOUS
 10
7.2881217339
 20
7.2750996661
 11
7.2881217339
 21
7.2648416677
  0
LINE
  5
7E1
100
AcDbEntity
  8
0
100
AcDbLine
 62
3
  6
CONTINUOUS
 10
8.3628609359
 20
7.3640023337
 11
8.3796013959
 21
7.3674216665
  0
LINE
  5
7E2
100
AcDbEntity
  8
0
100
AcDbLine
 62
3
  6
CONTINUOUS
 10
7.6028428785
 20
7.2238096691
 11
7.6195833385
 21
7.2272290023
  0
LINE
  5
7E3
100
AcDbEntity
  8
0
100
AcDbLine
 62
3
  6
CONTINUOUS
 10
8.2088484431
 20
7.3640023337
 11
8.2255889032
 21
7.3674216665
  0
LINE
  5
7E4
100
AcDbEntity
  8
0
100
AcDbLine
 62
3
  6
CONTINUOUS
 10
8.3796013959
 20
7.3845183306
 11
8.3595128132
 21
7.3810989977
  0
LINE
  5
7E5
100
AcDbEntity
  8
0
100
AcDbLine
 62
3
  6
CONTINUOUS
 10
8.2289370258
 20
7.3845183306
 11
8.2055003205
 21
7.3810989977
  0
LINE
  5
7E6
100
AcDbEntity
  8
0
100
AcDbLine
 62
3
  6
CONTINUOUS
 10
8.7177592554
 20
7.278518999
 11
8.6574935073
 21
7.278518999
  0
LINE
  5
7E7
100
AcDbEntity
  8
0
100
AcDbLine
 62
3
  6
CONTINUOUS
 10
7.7702477086
 20
7.278518999
 11
7.7099819605
 21
7.278518999
  0
LINE
  5
7E8
100
AcDbEntity
  8
0
100
AcDbLine
 62
3
  6
CONTINUOUS
 10
7.237900282
 20
7.2956156678
 11
7.2579888647
 21
7.2956156678
  0
LINE
  5
7E9
100
AcDbEntity
  8
0
100
AcDbLine
 62
3
  6
CONTINUOUS
 10
7.5425771304
 20
7.2956156678
 11
7.6061909628
 21
7.2956156678
  0
LINE
  5
7EA
100
AcDbEntity
  8
0
100
AcDbLine
 62
3
  6
CONTINUOUS
 10
8.0749245331
 20
7.2956156678
 11
8.0950131157
 21
7.2956156678
  0
LINE
  5
7EB
100
AcDbEntity
  8
0
100
AcDbLine
 62
3
  6
CONTINUOUS
 10
8.4867405546
 20
7.2956156678
 11
8.5436581033
 21
7.2956156678
  0
LINE
  5
7EC
100
AcDbEntity
  8
0
100
AcDbLine
 62
3
  6
CONTINUOUS
 10
8.2255889032
 20
7.2990350006
 11
8.2389813171
 21
7.2990350006
  0
LINE
  5
7ED
100
AcDbEntity
  8
0
100
AcDbLine
 62
3
  6
CONTINUOUS
 10
8.2389813171
 20
7.3127123319
 11
8.2255889032
 21
7.3127123319
  0
LINE
  5
7EE
100
AcDbEntity
  8
0
100
AcDbLine
 62
3
  6
CONTINUOUS
 10
8.5503543486
 20
7.3161316647
 11
8.4867405546
 21
7.3161316647
  0
LINE
  5
7EF
100
AcDbEntity
  8
0
100
AcDbLine
 62
3
  6
CONTINUOUS
 10
8.0950131157
 20
7.3161316647
 11
8.0749245331
 21
7.3161316647
  0
LINE
  5
7F0
100
AcDbEntity
  8
0
100
AcDbLine
 62
3
  6
CONTINUOUS
 10
7.6061909628
 20
7.3161316647
 11
7.5425771304
 21
7.3161316647
  0
LINE
  5
7F1
100
AcDbEntity
  8
0
100
AcDbLine
 62
3
  6
CONTINUOUS
 10
7.2579888647
 20
7.3161316647
 11
7.237900282
 21
7.3161316647
  0
LINE
  5
7F2
100
AcDbEntity
  8
0
100
AcDbLine
 62
3
  6
CONTINUOUS
 10
7.2780774426
 20
7.3469056696
 11
7.2981660252
 21
7.3469056696
  0
LINE
  5
7F3
100
AcDbEntity
  8
0
100
AcDbLine
 62
3
  6
CONTINUOUS
 10
8.1151016984
 20
7.3469056696
 11
8.1351902811
 21
7.3469056696
  0
LINE
  5
7F4
100
AcDbEntity
  8
0
100
AcDbLine
 62
3
  6
CONTINUOUS
 10
8.1753674465
 20
7.3469056696
 11
8.1921079831
 21
7.3469056696
  0
LINE
  5
7F5
100
AcDbEntity
  8
0
100
AcDbLine
 62
3
  6
CONTINUOUS
 10
7.237900282
 20
7.3640023337
 11
7.2579888647
 21
7.3640023337
  0
LINE
  5
7F6
100
AcDbEntity
  8
0
100
AcDbLine
 62
3
  6
CONTINUOUS
 10
7.5425771304
 20
7.3640023337
 11
7.6061909628
 21
7.3640023337
  0
LINE
  5
7F7
100
AcDbEntity
  8
0
100
AcDbLine
 62
3
  6
CONTINUOUS
 10
8.0749245331
 20
7.3640023337
 11
8.0950131157
 21
7.3640023337
  0
LINE
  5
7F8
100
AcDbEntity
  8
0
100
AcDbLine
 62
3
  6
CONTINUOUS
 10
8.3595128132
 20
7.2272290023
 11
8.3796013959
 21
7.2238096691
  0
LINE
  5
7F9
100
AcDbEntity
  8
0
100
AcDbLine
 62
3
  6
CONTINUOUS
 10
8.2389813171
 20
7.2990350006
 11
8.2590698998
 21
7.2956156678
  0
LINE
  5
7FA
100
AcDbEntity
  8
0
100
AcDbLine
 62
3
  6
CONTINUOUS
 10
8.2222408571
 20
7.2409063356
 11
8.2055003205
 21
7.2443256684
  0
LINE
  5
7FB
100
AcDbEntity
  8
0
100
AcDbLine
 62
3
  6
CONTINUOUS
 10
7.6195833385
 20
7.3810989977
 11
7.6028428785
 21
7.3845183306
  0
LINE
  5
7FC
100
AcDbEntity
  8
0
100
AcDbLine
 62
3
  6
CONTINUOUS
 10
8.3796013959
 20
7.2409063356
 11
8.3628609359
 21
7.2443256684
  0
LINE
  5
7FD
100
AcDbEntity
  8
0
100
AcDbLine
 62
3
  6
CONTINUOUS
 10
8.1117536524
 20
7.3127123319
 11
8.0950131157
 21
7.3161316647
  0
LINE
  5
7FE
100
AcDbEntity
  8
0
100
AcDbLine
 62
3
  6
CONTINUOUS
 10
8.0682283644
 20
7.2443256684
 11
8.0548359504
 21
7.2477450012
  0
LINE
  5
7FF
100
AcDbEntity
  8
0
100
AcDbLine
 62
3
  6
CONTINUOUS
 10
8.2055003205
 20
7.2272290023
 11
8.2188927345
 21
7.2238096691
  0
LINE
  5
800
100
AcDbEntity
  8
0
100
AcDbLine
 62
3
  6
CONTINUOUS
 10
8.0615321957
 20
7.2990350006
 11
8.0749245331
 21
7.2956156678
  0
LINE
  5
801
100
AcDbEntity
  8
0
100
AcDbLine
 62
3
  6
CONTINUOUS
 10
8.0950131157
 20
7.2956156678
 11
8.1084055297
 21
7.292196335
  0
LINE
  5
802
100
AcDbEntity
  8
0
100
AcDbLine
 62
3
  6
CONTINUOUS
 10
7.6061909628
 20
7.3640023337
 11
7.6162352542
 21
7.3605830009
  0
LINE
  5
803
100
AcDbEntity
  8
0
100
AcDbLine
 62
3
  6
CONTINUOUS
 10
7.6329757525
 20
7.3708409993
 11
7.6195833385
 21
7.3810989977
  0
LINE
  5
804
100
AcDbEntity
  8
0
100
AcDbLine
 62
3
  6
CONTINUOUS
 10
7.6162352542
 20
7.3605830009
 11
7.6229314612
 21
7.3537443352
  0
LINE
  5
805
100
AcDbEntity
  8
0
100
AcDbLine
 62
3
  6
CONTINUOUS
 10
7.6430200438
 20
7.2887770022
 11
7.6329757525
 21
7.3024543334
  0
LINE
  5
806
100
AcDbEntity
  8
0
100
AcDbLine
 62
3
  6
CONTINUOUS
 10
7.3082103166
 20
7.2614223349
 11
7.3082103166
 21
7.278518999
  0
LINE
  5
807
100
AcDbEntity
  8
0
100
AcDbLine
 62
9
  6
CONTINUOUS
 10
7.3179527738
 20
8.8861114319
 11
7.3179527738
 21
8.9884736367
  0
LINE
  5
808
100
AcDbEntity
  8
0
100
AcDbLine
 62
3
  6
CONTINUOUS
 10
7.3349950967
 20
7.3845183306
 11
7.3349950967
 21
7.2238096691
  0
LINE
  5
809
100
AcDbEntity
  8
0
100
AcDbLine
 62
3
  6
CONTINUOUS
 10
7.3550836794
 20
7.2238096691
 11
7.3550836794
 21
7.3503250024
  0
LINE
  5
80A
100
AcDbEntity
  8
0
100
AcDbLine
 62
3
  6
CONTINUOUS
 10
8.0749245331
 20
7.3845183306
 11
8.0615321957
 21
7.3810989977
  0
LINE
  5
80B
100
AcDbEntity
  8
0
100
AcDbLine
 62
3
  6
CONTINUOUS
 10
7.2713812547
 20
7.2477450012
 11
7.2579888647
 21
7.2443256684
  0
LINE
  5
80C
100
AcDbEntity
  8
0
100
AcDbLine
 62
3
  6
CONTINUOUS
 10
7.2579888647
 20
7.2238096691
 11
7.2747293486
 21
7.2272290023
  0
LINE
  5
80D
100
AcDbEntity
  8
0
100
AcDbLine
 62
3
  6
CONTINUOUS
 10
8.2255889032
 20
7.3674216665
 11
8.2389813171
 21
7.3674216665
  0
LINE
  5
80E
100
AcDbEntity
  8
0
100
AcDbLine
 62
3
  6
CONTINUOUS
 10
8.4867405546
 20
7.3674216665
 11
8.5503543486
 21
7.3674216665
  0
LINE
  5
80F
100
AcDbEntity
  8
0
100
AcDbLine
 62
3
  6
CONTINUOUS
 10
8.7010187187
 20
7.3845183306
 11
8.6742338907
 21
7.3845183306
  0
LINE
  5
810
100
AcDbEntity
  8
0
100
AcDbLine
 62
3
  6
CONTINUOUS
 10
8.5470063026
 20
7.3845183306
 11
8.4666518953
 21
7.3845183306
  0
LINE
  5
811
100
AcDbEntity
  8
0
100
AcDbLine
 62
3
  6
CONTINUOUS
 10
8.2356331945
 20
7.3845183306
 11
8.2289370258
 21
7.3845183306
  0
LINE
  5
812
100
AcDbEntity
  8
0
100
AcDbLine
 62
3
  6
CONTINUOUS
 10
8.0916650697
 20
7.3845183306
 11
8.0749245331
 21
7.3845183306
  0
LINE
  5
813
100
AcDbEntity
  8
0
100
AcDbLine
 62
3
  6
CONTINUOUS
 10
7.9945702024
 20
7.3845183306
 11
7.9644373283
 21
7.3845183306
  0
LINE
  5
814
100
AcDbEntity
  8
0
100
AcDbLine
 62
3
  6
CONTINUOUS
 10
7.863994415
 20
7.3845183306
 11
7.8338615409
 21
7.3845183306
  0
LINE
  5
815
100
AcDbEntity
  8
0
100
AcDbLine
 62
3
  6
CONTINUOUS
 10
7.7535072486
 20
7.3845183306
 11
7.7267224589
 21
7.3845183306
  0
LINE
  5
816
100
AcDbEntity
  8
0
100
AcDbLine
 62
3
  6
CONTINUOUS
 10
7.6028428785
 20
7.3845183306
 11
7.5224885478
 21
7.3845183306
  0
LINE
  5
817
100
AcDbEntity
  8
0
100
AcDbLine
 62
3
  6
CONTINUOUS
 10
7.4957037581
 20
7.3845183306
 11
7.4655708841
 21
7.3845183306
  0
LINE
  5
818
100
AcDbEntity
  8
0
100
AcDbLine
 62
3
  6
CONTINUOUS
 10
7.3651279707
 20
7.3845183306
 11
7.3349950967
 21
7.3845183306
  0
LINE
  5
819
100
AcDbEntity
  8
0
100
AcDbLine
 62
3
  6
CONTINUOUS
 10
7.254640766
 20
7.3845183306
 11
7.237900282
 21
7.3845183306
  0
LINE
  5
81A
100
AcDbEntity
  8
0
100
AcDbLine
 62
3
  6
CONTINUOUS
 10
8.2590698998
 20
7.3810989977
 11
8.2356331945
 21
7.3845183306
  0
LINE
  5
81B
100
AcDbEntity
  8
0
100
AcDbLine
 62
3
  6
CONTINUOUS
 10
8.1084055297
 20
7.3810989977
 11
8.0916650697
 21
7.3845183306
  0
LINE
  5
81C
100
AcDbEntity
  8
0
100
AcDbLine
 62
3
  6
CONTINUOUS
 10
8.2389813171
 20
7.3674216665
 11
8.2557217772
 21
7.3640023337
  0
LINE
  5
81D
100
AcDbEntity
  8
0
100
AcDbLine
 62
3
  6
CONTINUOUS
 10
8.0749245331
 20
7.3161316647
 11
8.0648802417
 21
7.3195509975
  0
LINE
  5
81E
100
AcDbEntity
  8
0
100
AcDbLine
 62
3
  6
CONTINUOUS
 10
8.0950131157
 20
7.3640023337
 11
8.1050574071
 21
7.3605830009
  0
LINE
  5
81F
100
AcDbEntity
  8
0
100
AcDbLine
 62
3
  6
CONTINUOUS
 10
8.0481397817
 20
7.3058736663
 11
8.0615321957
 21
7.2990350006
  0
LINE
  5
820
100
AcDbEntity
  8
0
100
AcDbLine
 62
3
  6
CONTINUOUS
 10
8.1921079831
 20
7.2340676688
 11
8.2055003205
 21
7.2272290023
  0
LINE
  5
821
100
AcDbEntity
  8
0
100
AcDbLine
 62
3
  6
CONTINUOUS
 10
8.2055003205
 20
7.2443256684
 11
8.1988041518
 21
7.2477450012
  0
LINE
  5
822
100
AcDbEntity
  8
0
100
AcDbLine
 62
3
  6
CONTINUOUS
 10
8.0347473677
 20
7.2374870016
 11
8.0514879044
 21
7.2272290023
  0
LINE
  5
823
100
AcDbEntity
  8
0
100
AcDbLine
 62
3
  6
CONTINUOUS
 10
7.6430200438
 20
7.357163668
 11
7.6329757525
 21
7.3708409993
  0
LINE
  5
824
100
AcDbEntity
  8
0
100
AcDbLine
 62
3
  6
CONTINUOUS
 10
7.1977231154
 20
7.3605830009
 11
7.1943750179
 21
7.3469056696
  0
LINE
  5
825
100
AcDbEntity
  8
0
100
AcDbLine
 62
3
  6
CONTINUOUS
 10
8.3996899786
 20
7.3810989977
 11
8.3796013959
 21
7.3845183306
  0
LINE
  5
826
100
AcDbEntity
  8
0
100
AcDbLine
 62
3
  6
CONTINUOUS
 10
8.3796013959
 20
7.3674216665
 11
8.3963418559
 21
7.3640023337
  0
LINE
  5
827
100
AcDbEntity
  8
0
100
AcDbLine
 62
3
  6
CONTINUOUS
 10
8.563746686
 20
7.3810989977
 11
8.5470063026
 21
7.3845183306
  0
LINE
  5
828
100
AcDbEntity
  8
0
100
AcDbLine
 62
3
  6
CONTINUOUS
 10
8.2825066052
 20
7.2990350006
 11
8.2657660685
 21
7.3058736663
  0
LINE
  5
829
100
AcDbEntity
  8
0
100
AcDbLine
 62
3
  6
CONTINUOUS
 10
8.1251459898
 20
7.3058736663
 11
8.1117536524
 21
7.3127123319
  0
LINE
  5
82A
100
AcDbEntity
  8
0
100
AcDbLine
 62
3
  6
CONTINUOUS
 10
8.0648802417
 20
7.3195509975
 11
8.0548359504
 21
7.3263896631
  0
LINE
  5
82B
100
AcDbEntity
  8
0
100
AcDbLine
 62
3
  6
CONTINUOUS
 10
8.1820636918
 20
7.2409063356
 11
8.1921079831
 21
7.2340676688
  0
LINE
  5
82C
100
AcDbEntity
  8
0
100
AcDbLine
 62
3
  6
CONTINUOUS
 10
8.1084055297
 20
7.292196335
 11
8.1184498211
 21
7.2853576694
  0
LINE
  5
82D
100
AcDbEntity
  8
0
100
AcDbLine
 62
3
  6
CONTINUOUS
 10
7.6229314612
 20
7.2853576694
 11
7.6262795455
 21
7.2750996661
  0
LINE
  5
82E
100
AcDbEntity
  8
0
100
AcDbLine
 62
3
  6
CONTINUOUS
 10
7.6463681282
 20
7.278518999
 11
7.6430200438
 21
7.2887770022
  0
LINE
  5
82F
100
AcDbEntity
  8
0
100
AcDbLine
 62
3
  6
CONTINUOUS
 10
7.6229314612
 20
7.3537443352
 11
7.6262795455
 21
7.3434863272
  0
LINE
  5
830
100
AcDbEntity
  8
0
100
AcDbLine
 62
3
  6
CONTINUOUS
 10
7.6463681282
 20
7.3469056696
 11
7.6430200438
 21
7.357163668
  0
LINE
  5
831
100
AcDbEntity
  8
0
100
AcDbLine
 62
3
  6
CONTINUOUS
 10
7.4756151754
 20
7.3503250024
 11
7.4756151754
 21
7.2238096691
  0
LINE
  5
832
100
AcDbEntity
  8
0
100
AcDbLine
 62
3
  6
CONTINUOUS
 10
7.4957037581
 20
7.2238096691
 11
7.4957037581
 21
7.3845183306
  0
LINE
  5
833
100
AcDbEntity
  8
0
100
AcDbLine
 62
3
  6
CONTINUOUS
 10
7.5224885478
 20
7.3845183306
 11
7.5224885478
 21
7.2238096691
  0
LINE
  5
834
100
AcDbEntity
  8
0
100
AcDbLine
 62
3
  6
CONTINUOUS
 10
7.5425771304
 20
7.2443256684
 11
7.5425771304
 21
7.2956156678
  0
LINE
  5
835
100
AcDbEntity
  8
0
100
AcDbLine
 62
3
  6
CONTINUOUS
 10
7.5425771304
 20
7.3161316647
 11
7.5425771304
 21
7.3640023337
  0
LINE
  5
836
100
AcDbEntity
  8
0
100
AcDbLine
 62
3
  6
CONTINUOUS
 10
7.2144636006
 20
7.3434863272
 11
7.2178116969
 21
7.3537443352
  0
LINE
  5
837
100
AcDbEntity
  8
0
100
AcDbLine
 62
3
  6
CONTINUOUS
 10
7.237900282
 20
7.3845183306
 11
7.2245078919
 21
7.3810989977
  0
LINE
  5
838
100
AcDbEntity
  8
02___PRT_ALL_AXES
100
AcDbLine
 62
7
  6
CENTER
 10
8.2671463905
 20
7.5940885371
 11
8.0293511149
 21
7.5940885371
  0
LINE
  5
839
100
AcDbEntity
  8
02___PRT_ALL_AXES
100
AcDbLine
 62
7
  6
CENTER
 10
7.6679717556
 20
7.5940885371
 11
7.43017648
 21
7.5940885371
  0
LINE
  5
83A
100
AcDbEntity
  8
02___PRT_ALL_AXES
100
AcDbLine
 62
7
  6
CENTER
 10
7.6679717556
 20
7.5940885371
 11
7.9057670312
 21
7.5940885371
  0
LINE
  5
83B
100
AcDbEntity
  8
02___PRT_ALL_AXES
100
AcDbLine
 62
7
  6
CENTER
 10
8.2671463905
 20
7.5940885371
 11
8.5049416661
 21
7.5940885371
  0
LINE
  5
83C
100
AcDbEntity
  8
0
100
AcDbLine
 62
3
  6
CONTINUOUS
 10
8.5503543486
 20
7.3674216665
 11
8.56039864
 21
7.3640023337
  0
LINE
  5
83D
100
AcDbEntity
  8
0
100
AcDbLine
 62
3
  6
CONTINUOUS
 10
8.2724623138
 20
7.3742603321
 11
8.2590698998
 21
7.3810989977
  0
LINE
  5
83E
100
AcDbEntity
  8
0
100
AcDbLine
 62
3
  6
CONTINUOUS
 10
8.3427723532
 20
7.2374870016
 11
8.3595128132
 21
7.2272290023
  0
LINE
  5
83F
100
AcDbEntity
  8
0
100
AcDbLine
 62
3
  6
CONTINUOUS
 10
8.2590698998
 20
7.2956156678
 11
8.2691141912
 21
7.2887770022
  0
LINE
  5
840
100
AcDbEntity
  8
0
100
AcDbLine
 62
3
  6
CONTINUOUS
 10
8.3628609359
 20
7.2443256684
 11
8.3528166445
 21
7.251164334
  0
LINE
  5
841
100
AcDbEntity
  8
0
100
AcDbLine
 62
3
  6
CONTINUOUS
 10
8.1217979437
 20
7.3708409993
 11
8.1084055297
 21
7.3810989977
  0
LINE
  5
842
100
AcDbEntity
  8
0
100
AcDbLine
 62
3
  6
CONTINUOUS
 10
8.0548359504
 20
7.2477450012
 11
8.0447916591
 21
7.2580030021
  0
LINE
  5
843
100
AcDbEntity
  8
0
100
AcDbLine
 62
3
  6
CONTINUOUS
 10
8.0347473677
 20
7.3195509975
 11
8.0481397817
 21
7.3058736663
  0
LINE
  5
844
100
AcDbEntity
  8
0
100
AcDbLine
 62
3
  6
CONTINUOUS
 10
7.7735958312
 20
7.2648416677
 11
7.7869882069
 21
7.2238096691
  0
LINE
  5
845
100
AcDbEntity
  8
0
100
AcDbLine
 62
3
  6
CONTINUOUS
 10
7.7401148346
 20
7.3708409993
 11
7.7702477086
 21
7.278518999
  0
LINE
  5
846
100
AcDbEntity
  8
0
100
AcDbLine
 62
3
  6
CONTINUOUS
 10
7.6262795455
 20
7.3434863272
 11
7.6262795455
 21
7.3366476616
  0
LINE
  5
847
100
AcDbEntity
  8
0
100
AcDbLine
 62
3
  6
CONTINUOUS
 10
7.6262795455
 20
7.2750996661
 11
7.6262795455
 21
7.2648416677
  0
LINE
  5
848
100
AcDbEntity
  8
0
100
AcDbLine
 62
3
  6
CONTINUOUS
 10
8.4164304386
 20
7.3708409993
 11
8.3996899786
 21
7.3810989977
  0
LINE
  5
849
100
AcDbEntity
  8
0
100
AcDbLine
 62
3
  6
CONTINUOUS
 10
8.2557217772
 20
7.3640023337
 11
8.2657660685
 21
7.357163668
  0
LINE
  5
84A
100
AcDbEntity
  8
0
100
AcDbLine
 62
3
  6
CONTINUOUS
 10
8.1385384038
 20
7.292196335
 11
8.1251459898
 21
7.3058736663
  0
LINE
  5
84B
100
AcDbEntity
  8
0
100
AcDbLine
 62
3
  6
CONTINUOUS
 10
8.1988041518
 20
7.2477450012
 11
8.1921079831
 21
7.2545836693
  0
LINE
  5
84C
100
AcDbEntity
  8
0
100
AcDbLine
 62
3
  6
CONTINUOUS
 10
8.1050574071
 20
7.3605830009
 11
8.1117536524
 21
7.3537443352
  0
LINE
  5
84D
100
AcDbEntity
  8
0
100
AcDbLine
 62
3
  6
CONTINUOUS
 10
8.0247030764
 20
7.2545836693
 11
8.0347473677
 21
7.2374870016
  0
LINE
  5
84E
100
AcDbEntity
  8
0
100
AcDbLine
 62
3
  6
CONTINUOUS
 10
7.8539501236
 20
7.3503250024
 11
7.9008235343
 21
7.2238096691
  0
LINE
  5
84F
100
AcDbEntity
  8
0
100
AcDbLine
 62
3
  6
CONTINUOUS
 10
7.8070767896
 20
7.2238096691
 11
7.7535072486
 21
7.3845183306
  0
LINE
  5
850
100
AcDbEntity
  8
0
100
AcDbLine
 62
3
  6
CONTINUOUS
 10
7.6463681282
 20
7.2614223349
 11
7.6463681282
 21
7.278518999
  0
LINE
  5
851
100
AcDbEntity
  8
0
100
AcDbLine
 62
3
  6
CONTINUOUS
 10
7.6463681282
 20
7.3332283288
 11
7.6463681282
 21
7.3469056696
  0
LINE
  5
852
100
AcDbEntity
  8
02___PRT_ALL_AXES
100
AcDbLine
 62
7
  6
CENTER
 10
7.6679717556
 20
8.374948124
 11
7.6679717556
 21
8.1371528484
  0
LINE
  5
853
100
AcDbEntity
  8
02___PRT_ALL_AXES
100
AcDbLine
 62
7
  6
CENTER
 10
7.6679717556
 20
7.5940885371
 11
7.6679717556
 21
7.3562932615
  0
LINE
  5
854
100
AcDbEntity
  8
02___PRT_ALL_AXES
100
AcDbLine
 62
7
  6
CENTER
 10
7.6679717556
 20
7.5940885371
 11
7.6679717556
 21
7.8318838127
  0
LINE
  5
855
100
AcDbEntity
  8
02___PRT_ALL_AXES
100
AcDbLine
 62
7
  6
CENTER
 10
7.6679717556
 20
8.374948124
 11
7.6679717556
 21
8.6127433996
  0
LINE
  5
856
100
AcDbEntity
  8
0
100
AcDbLine
 62
3
  6
CONTINUOUS
 10
7.4655708841
 20
7.3845183306
 11
7.4153494274
 21
7.2409063356
  0
LINE
  5
857
100
AcDbEntity
  8
0
100
AcDbLine
 62
3
  6
CONTINUOUS
 10
7.3015141287
 20
7.2477450012
 11
7.3082103166
 21
7.2614223349
  0
LINE
  5
858
100
AcDbEntity
  8
0
100
AcDbLine
 62
3
  6
CONTINUOUS
 10
8.3963418559
 20
7.3640023337
 11
8.4063861472
 21
7.357163668
  0
LINE
  5
859
100
AcDbEntity
  8
0
100
AcDbLine
 62
3
  6
CONTINUOUS
 10
8.3327280619
 20
7.2477450012
 11
8.3427723532
 21
7.2374870016
  0
LINE
  5
85A
100
AcDbEntity
  8
0
100
AcDbLine
 62
3
  6
CONTINUOUS
 10
8.2858546512
 20
7.3605830009
 11
8.2724623138
 21
7.3742603321
  0
LINE
  5
85B
100
AcDbEntity
  8
0
100
AcDbLine
 62
3
  6
CONTINUOUS
 10
8.1318422351
 20
7.357163668
 11
8.1217979437
 21
7.3708409993
  0
LINE
  5
85C
100
AcDbEntity
  8
0
100
AcDbLine
 62
3
  6
CONTINUOUS
 10
8.1184498211
 20
7.2853576694
 11
8.1251459898
 21
7.2750996661
  0
LINE
  5
85D
100
AcDbEntity
  8
0
100
AcDbLine
 62
3
  6
CONTINUOUS
 10
8.1753674465
 20
7.251164334
 11
8.1820636918
 21
7.2409063356
  0
LINE
  5
85E
100
AcDbEntity
  8
0
100
AcDbLine
 62
3
  6
CONTINUOUS
 10
7.9142158717
 20
7.2409063356
 11
7.863994415
 21
7.3845183306
  0
LINE
  5
85F
100
AcDbEntity
  8
0
100
AcDbLine
 62
3
  6
CONTINUOUS
 10
7.4287418222
 20
7.2238096691
 11
7.4756151754
 21
7.3503250024
  0
LINE
  5
860
100
AcDbEntity
  8
0
100
AcDbLine
 62
3
  6
CONTINUOUS
 10
8.5771391766
 20
7.3708409993
 11
8.563746686
 21
7.3810989977
  0
LINE
  5
861
100
AcDbEntity
  8
0
100
AcDbLine
 62
3
  6
CONTINUOUS
 10
8.1452345724
 20
7.278518999
 11
8.1385384038
 21
7.292196335
  0
LINE
  5
862
100
AcDbEntity
  8
0
100
AcDbLine
 62
3
  6
CONTINUOUS
 10
8.1117536524
 20
7.3537443352
 11
8.1151016984
 21
7.3469056696
  0
LINE
  5
863
100
AcDbEntity
  8
0
100
AcDbLine
 62
3
  6
CONTINUOUS
 10
8.0447916591
 20
7.2580030021
 11
8.041443613
 21
7.2682610005
  0
LINE
  5
864
100
AcDbEntity
  8
0
100
AcDbLine
 62
3
  6
CONTINUOUS
 10
7.8338615409
 20
7.3845183306
 11
7.8338615409
 21
7.2238096691
  0
LINE
  5
865
100
AcDbEntity
  8
0
100
AcDbLine
 62
3
  6
CONTINUOUS
 10
7.8539501236
 20
7.2238096691
 11
7.8539501236
 21
7.3503250024
  0
LINE
  5
866
100
AcDbEntity
  8
0
100
AcDbLine
 62
3
  6
CONTINUOUS
 10
7.6262795455
 20
7.3366476616
 11
7.6229314612
 21
7.3263896631
  0
LINE
  5
867
100
AcDbEntity
  8
0
100
AcDbLine
 62
3
  6
CONTINUOUS
 10
7.6430200438
 20
7.3229703303
 11
7.6463681282
 21
7.3332283288
  0
LINE
  5
868
100
AcDbEntity
  8
0
100
AcDbLine
 62
3
  6
CONTINUOUS
 10
7.6262795455
 20
7.2648416677
 11
7.6229314612
 21
7.2545836693
  0
LINE
  5
869
100
AcDbEntity
  8
0
100
AcDbLine
 62
3
  6
CONTINUOUS
 10
7.2881217339
 20
7.2648416677
 11
7.2814255461
 21
7.2545836693
  0
LINE
  5
86A
100
AcDbEntity
  8
0
100
AcDbLine
 62
3
  6
CONTINUOUS
 10
8.4264747299
 20
7.3605830009
 11
8.4164304386
 21
7.3708409993
  0
LINE
  5
86B
100
AcDbEntity
  8
0
100
AcDbLine
 62
3
  6
CONTINUOUS
 10
8.2892027738
 20
7.2887770022
 11
8.2825066052
 21
7.2990350006
  0
LINE
  5
86C
100
AcDbEntity
  8
0
100
AcDbLine
 62
3
  6
CONTINUOUS
 10
8.2657660685
 20
7.357163668
 11
8.2724623138
 21
7.3469056696
  0
LINE
  5
86D
100
AcDbEntity
  8
0
100
AcDbLine
 62
3
  6
CONTINUOUS
 10
8.3528166445
 20
7.251164334
 11
8.3394242305
 21
7.2716803333
  0
LINE
  5
86E
100
AcDbEntity
  8
0
100
AcDbLine
 62
3
  6
CONTINUOUS
 10
8.1921079831
 20
7.2545836693
 11
8.1887598605
 21
7.2614223349
  0
LINE
  5
86F
100
AcDbEntity
  8
0
100
AcDbLine
 62
3
  6
CONTINUOUS
 10
8.0548359504
 20
7.3263896631
 11
8.0514879044
 21
7.3366476616
  0
LINE
  5
870
100
AcDbEntity
  8
0
100
AcDbLine
 62
3
  6
CONTINUOUS
 10
8.0213550304
 20
7.2682610005
 11
8.0247030764
 21
7.2545836693
  0
LINE
  5
871
100
AcDbEntity
  8
0
100
AcDbLine
 62
3
  6
CONTINUOUS
 10
8.0313993217
 20
7.3332283288
 11
8.0347473677
 21
7.3195509975
  0
LINE
  5
872
100
AcDbEntity
  8
02___PRT_ALL_AXES
100
AcDbLine
 62
7
  6
CENTER
 10
7.9675590731
 20
7.9845183306
 11
7.9675590731
 21
7.7559750235
  0
LINE
  5
873
100
AcDbEntity
  8
02___PRT_ALL_AXES
100
AcDbLine
 62
7
  6
CENTER
 10
7.9675590731
 20
7.9845183306
 11
7.9675590731
 21
8.2130616376
  0
LINE
  5
874
100
AcDbEntity
  8
0
100
AcDbLine
 62
3
  6
CONTINUOUS
 10
7.9744816197
 20
7.3503250024
 11
7.9744816197
 21
7.2238096691
  0
LINE
  5
875
100
AcDbEntity
  8
0
100
AcDbLine
 62
3
  6
CONTINUOUS
 10
7.6430200438
 20
7.251164334
 11
7.6463681282
 21
7.2614223349
  0
LINE
  5
876
100
AcDbEntity
  8
0
100
AcDbLine
 62
3
  6
CONTINUOUS
 10
7.7099819605
 20
7.278518999
 11
7.7401148346
 21
7.3708409993
  0
LINE
  5
877
100
AcDbEntity
  8
0
100
AcDbLine
 62
3
  6
CONTINUOUS
 10
7.6932415005
 20
7.2238096691
 11
7.7066338762
 21
7.2648416677
  0
LINE
  5
878
100
AcDbEntity
  8
0
100
AcDbLine
 62
3
  6
CONTINUOUS
 10
7.7267224589
 20
7.3845183306
 11
7.6731529178
 21
7.2238096691
  0
LINE
  5
879
100
AcDbEntity
  8
0
100
AcDbLine
 62
3
  6
CONTINUOUS
 10
7.2111155043
 20
7.3742603321
 11
7.1977231154
 21
7.3605830009
  0
LINE
  5
87A
100
AcDbEntity
  8
02___PRT_ALL_AXES
100
AcDbLine
 62
7
  6
CENTER
 10
7.9675590731
 20
7.9845183306
 11
7.739015766
 21
7.9845183306
  0
LINE
  5
87B
100
AcDbEntity
  8
02___PRT_ALL_AXES
100
AcDbLine
 62
7
  6
CENTER
 10
7.9675590731
 20
7.9845183306
 11
8.1961023801
 21
7.9845183306
  0
LINE
  5
87C
100
AcDbEntity
  8
0
100
AcDbLine
 62
3
  6
CONTINUOUS
 10
8.56039864
 20
7.3640023337
 11
8.5670948853
 21
7.357163668
  0
LINE
  5
87D
100
AcDbEntity
  8
0
100
AcDbLine
 62
3
  6
CONTINUOUS
 10
8.4063861472
 20
7.357163668
 11
8.4197785612
 21
7.3366476616
  0
LINE
  5
87E
100
AcDbEntity
  8
0
100
AcDbLine
 62
3
  6
CONTINUOUS
 10
8.2691141912
 20
7.2887770022
 11
8.2758103598
 21
7.2750996661
  0
LINE
  5
87F
100
AcDbEntity
  8
0
100
AcDbLine
 62
3
  6
CONTINUOUS
 10
8.3260318165
 20
7.2614223349
 11
8.3327280619
 21
7.2477450012
  0
LINE
  5
880
100
AcDbEntity
  8
0
100
AcDbLine
 62
3
  6
CONTINUOUS
 10
8.1351902811
 20
7.3469056696
 11
8.1318422351
 21
7.357163668
  0
LINE
  5
881
100
AcDbEntity
  8
0
100
AcDbLine
 62
3
  6
CONTINUOUS
 10
8.1720194004
 20
7.2614223349
 11
8.1753674465
 21
7.251164334
  0
LINE
  5
882
100
AcDbEntity
  8
0
100
AcDbLine
 62
3
  6
CONTINUOUS
 10
7.9945702024
 20
7.2238096691
 11
7.9945702024
 21
7.3845183306
  0
LINE
  5
883
100
AcDbEntity
  8
0
100
AcDbLine
 62
3
  6
CONTINUOUS
 10
8.0313993217
 20
7.3469056696
 11
8.0313993217
 21
7.3332283288
  0
LINE
  5
884
100
AcDbEntity
  8
0
100
AcDbLine
 62
3
  6
CONTINUOUS
 10
8.0514879044
 20
7.3366476616
 11
8.0514879044
 21
7.3434863272
  0
LINE
  5
885
100
AcDbEntity
  8
0
100
AcDbLine
 62
3
  6
CONTINUOUS
 10
7.2881217339
 20
7.2340676688
 11
7.3015141287
 21
7.2477450012
  0
LINE
  5
886
100
AcDbEntity
  8
0
100
AcDbLine
 62
3
  6
CONTINUOUS
 10
8.587183468
 20
7.357163668
 11
8.5771391766
 21
7.3708409993
  0
LINE
  5
887
100
AcDbEntity
  8
0
100
AcDbLine
 62
3
  6
CONTINUOUS
 10
8.1251459898
 20
7.2750996661
 11
8.1251459898
 21
7.2648416677
  0
LINE
  5
888
100
AcDbEntity
  8
0
100
AcDbLine
 62
3
  6
CONTINUOUS
 10
8.1452345724
 20
7.2614223349
 11
8.1452345724
 21
7.278518999
  0
LINE
  5
889
100
AcDbEntity
  8
0
100
AcDbLine
 62
3
  6
CONTINUOUS
 10
7.6329757525
 20
7.3092929991
 11
7.6430200438
 21
7.3229703303
  0
LINE
  5
88A
100
AcDbEntity
  8
0
100
AcDbLine
 62
3
  6
CONTINUOUS
 10
7.2178116969
 20
7.3537443352
 11
7.2278559907
 21
7.3605830009
  0
LINE
  5
88B
100
AcDbEntity
  8
0
100
AcDbLine
 62
3
  6
CONTINUOUS
 10
8.4331709752
 20
7.3469056696
 11
8.4264747299
 21
7.3605830009
  0
LINE
  5
88C
100
AcDbEntity
  8
0
100
AcDbLine
 62
3
  6
CONTINUOUS
 10
8.3226837705
 20
7.2716803333
 11
8.3260318165
 21
7.2614223349
  0
LINE
  5
88D
100
AcDbEntity
  8
0
100
AcDbLine
 62
3
  6
CONTINUOUS
 10
8.2925508965
 20
7.2750996661
 11
8.2892027738
 21
7.2887770022
  0
LINE
  5
88E
100
AcDbEntity
  8
0
100
AcDbLine
 62
3
  6
CONTINUOUS
 10
8.2892027738
 20
7.3469056696
 11
8.2858546512
 21
7.3605830009
  0
LINE
  5
88F
100
AcDbEntity
  8
0
100
AcDbLine
 62
3
  6
CONTINUOUS
 10
8.2255889032
 20
7.3127123319
 11
8.2255889032
 21
7.2990350006
  0
LINE
  5
890
100
AcDbEntity
  8
0
100
AcDbLine
 62
3
  6
CONTINUOUS
 10
8.0347473677
 20
7.3605830009
 11
8.0313993217
 21
7.3469056696
  0
LINE
  5
891
100
AcDbEntity
  8
0
100
AcDbLine
 62
3
  6
CONTINUOUS
 10
7.9644373283
 20
7.3845183306
 11
7.9142158717
 21
7.2409063356
  0
LINE
  5
892
100
AcDbEntity
  8
0
100
AcDbLine
 62
3
  6
CONTINUOUS
 10
7.9276082857
 20
7.2238096691
 11
7.9744816197
 21
7.3503250024
  0
LINE
  5
893
100
AcDbEntity
  8
0
100
AcDbLine
 62
3
  6
CONTINUOUS
 10
7.6329757525
 20
7.2374870016
 11
7.6430200438
 21
7.251164334
  0
LINE
  5
894
100
AcDbEntity
  8
0
100
AcDbLine
 62
3
  6
CONTINUOUS
 10
7.6229314612
 20
7.3263896631
 11
7.6162352542
 21
7.3195509975
  0
LINE
  5
895
100
AcDbEntity
  8
0
100
AcDbLine
 62
3
  6
CONTINUOUS
 10
7.2814255461
 20
7.2545836693
 11
7.2713812547
 21
7.2477450012
  0
LINE
  5
896
100
AcDbEntity
  8
0
100
AcDbLine
 62
3
  6
CONTINUOUS
 10
7.2245078919
 20
7.3810989977
 11
7.2111155043
 21
7.3742603321
  0
LINE
  5
897
100
AcDbEntity
  8
0
100
AcDbLine
 62
3
  6
CONTINUOUS
 10
8.4365190213
 20
7.3366476616
 11
8.4331709752
 21
7.3469056696
  0
LINE
  5
898
100
AcDbEntity
  8
0
100
AcDbLine
 62
3
  6
CONTINUOUS
 10
8.3193356479
 20
7.2887770022
 11
8.3226837705
 21
7.2716803333
  0
LINE
  5
899
100
AcDbEntity
  8
0
100
AcDbLine
 62
3
  6
CONTINUOUS
 10
8.3394242305
 20
7.2716803333
 11
8.3360761079
 21
7.292196335
  0
LINE
  5
89A
100
AcDbEntity
  8
02___PRT_ALL_AXES
100
AcDbLine
 62
7
  6
CENTER
 10
8.2671463905
 20
8.374948124
 11
8.2671463905
 21
8.1371528484
  0
LINE
  5
89B
100
AcDbEntity
  8
02___PRT_ALL_AXES
100
AcDbLine
 62
7
  6
CENTER
 10
8.2671463905
 20
7.5940885371
 11
8.2671463905
 21
7.3562932615
  0
LINE
  5
89C
100
AcDbEntity
  8
02___PRT_ALL_AXES
100
AcDbLine
 62
7
  6
CENTER
 10
8.2671463905
 20
7.5940885371
 11
8.2671463905
 21
7.8318838127
  0
LINE
  5
89D
100
AcDbEntity
  8
02___PRT_ALL_AXES
100
AcDbLine
 62
7
  6
CENTER
 10
8.2671463905
 20
8.374948124
 11
8.2671463905
 21
8.6127433996
  0
LINE
  5
89E
100
AcDbEntity
  8
0
100
AcDbLine
 62
3
  6
CONTINUOUS
 10
8.2724623138
 20
7.3469056696
 11
8.2724623138
 21
7.3400669944
  0
LINE
  5
89F
100
AcDbEntity
  8
0
100
AcDbLine
 62
3
  6
CONTINUOUS
 10
8.2758103598
 20
7.2750996661
 11
8.2758103598
 21
7.2614223349
  0
LINE
  5
8A0
100
AcDbEntity
  8
0
100
AcDbLine
 62
3
  6
CONTINUOUS
 10
8.2892027738
 20
7.3400669944
 11
8.2892027738
 21
7.3469056696
  0
LINE
  5
8A1
100
AcDbEntity
  8
0
100
AcDbLine
 62
3
  6
CONTINUOUS
 10
8.2925508965
 20
7.2614223349
 11
8.2925508965
 21
7.2750996661
  0
LINE
  5
8A2
100
AcDbEntity
  8
0
100
AcDbLine
 62
3
  6
CONTINUOUS
 10
8.3193356479
 20
7.3195509975
 11
8.3193356479
 21
7.2887770022
  0
LINE
  5
8A3
100
AcDbEntity
  8
0
100
AcDbLine
 62
3
  6
CONTINUOUS
 10
8.0514879044
 20
7.3434863272
 11
8.0548359504
 21
7.3537443352
  0
LINE
  5
8A4
100
AcDbEntity
  8
0
100
AcDbLine
 62
3
  6
CONTINUOUS
 10
7.6229314612
 20
7.2545836693
 11
7.6162352542
 21
7.2477450012
  0
LINE
  5
8A5
100
AcDbEntity
  8
02___PRT_ALL_AXES
100
AcDbLine
 62
7
  6
CENTER
 10
8.2671463905
 20
8.374948124
 11
8.0293511149
 21
8.374948124
  0
LINE
  5
8A6
100
AcDbEntity
  8
02___PRT_ALL_AXES
100
AcDbLine
 62
7
  6
CENTER
 10
7.6679717556
 20
8.374948124
 11
7.43017648
 21
8.374948124
  0
LINE
  5
8A7
100
AcDbEntity
  8
02___PRT_ALL_AXES
100
AcDbLine
 62
7
  6
CENTER
 10
7.6679717556
 20
8.374948124
 11
7.9057670312
 21
8.374948124
  0
LINE
  5
8A8
100
AcDbEntity
  8
02___PRT_ALL_AXES
100
AcDbLine
 62
7
  6
CENTER
 10
8.2671463905
 20
8.374948124
 11
8.5049416661
 21
8.374948124
  0
LINE
  5
8A9
100
AcDbEntity
  8
0
100
AcDbLine
 62
3
  6
CONTINUOUS
 10
8.59387956
 20
7.2238096691
 11
8.563746686
 21
7.3024543334
  0
LINE
  5
8AA
100
AcDbEntity
  8
0
100
AcDbLine
 62
3
  6
CONTINUOUS
 10
8.5436581033
 20
7.2956156678
 11
8.5704429313
 21
7.2238096691
  0
LINE
  5
8AB
100
AcDbEntity
  8
0
100
AcDbLine
 62
3
  6
CONTINUOUS
 10
8.5670948853
 20
7.357163668
 11
8.5704429313
 21
7.3469056696
  0
LINE
  5
8AC
100
AcDbEntity
  8
0
100
AcDbLine
 62
3
  6
CONTINUOUS
 10
8.4398671439
 20
7.3195509975
 11
8.4365190213
 21
7.3366476616
  0
LINE
  5
8AD
100
AcDbEntity
  8
0
100
AcDbLine
 62
3
  6
CONTINUOUS
 10
8.4197785612
 20
7.3366476616
 11
8.4231266839
 21
7.3161316647
  0
LINE
  5
8AE
100
AcDbEntity
  8
0
100
AcDbLine
 62
3
  6
CONTINUOUS
 10
8.3360761079
 20
7.292196335
 11
8.3360761079
 21
7.3161316647
  0
LINE
  5
8AF
100
AcDbEntity
  8
0
100
AcDbLine
 62
3
  6
CONTINUOUS
 10
8.1787155691
 20
7.3605830009
 11
8.1753674465
 21
7.3469056696
  0
LINE
  5
8B0
100
AcDbEntity
  8
0
100
AcDbLine
 62
3
  6
CONTINUOUS
 10
7.6195833385
 20
7.2272290023
 11
7.6329757525
 21
7.2374870016
  0
LINE
  5
8B1
100
AcDbEntity
  8
0
100
AcDbLine
 62
3
  6
CONTINUOUS
 10
7.2747293486
 20
7.2272290023
 11
7.2881217339
 21
7.2340676688
  0
LINE
  5
8B2
100
AcDbEntity
  8
0
100
AcDbLine
 62
3
  6
CONTINUOUS
 10
7.2278559907
 20
7.3605830009
 11
7.237900282
 21
7.3640023337
  0
LINE
  5
8B3
100
AcDbEntity
  8
0
100
AcDbLine
 62
3
  6
CONTINUOUS
 10
8.590531514
 20
7.3469056696
 11
8.587183468
 21
7.357163668
  0
LINE
  5
8B4
100
AcDbEntity
  8
0
100
AcDbLine
 62
3
  6
CONTINUOUS
 10
8.4231266839
 20
7.3161316647
 11
8.4231266839
 21
7.292196335
  0
LINE
  5
8B5
100
AcDbEntity
  8
0
100
AcDbLine
 62
3
  6
CONTINUOUS
 10
8.4398671439
 20
7.2887770022
 11
8.4398671439
 21
7.3195509975
  0
LINE
  5
8B6
100
AcDbEntity
  8
0
100
AcDbLine
 62
3
  6
CONTINUOUS
 10
8.4666518953
 20
7.3845183306
 11
8.4666518953
 21
7.2238096691
  0
LINE
  5
8B7
100
AcDbEntity
  8
0
100
AcDbLine
 62
3
  6
CONTINUOUS
 10
8.4867405546
 20
7.2238096691
 11
8.4867405546
 21
7.2956156678
  0
LINE
  5
8B8
100
AcDbEntity
  8
0
100
AcDbLine
 62
3
  6
CONTINUOUS
 10
8.4867405546
 20
7.3161316647
 11
8.4867405546
 21
7.3674216665
  0
LINE
  5
8B9
100
AcDbEntity
  8
0
100
AcDbLine
 62
3
  6
CONTINUOUS
 10
8.3360761079
 20
7.3161316647
 11
8.3394242305
 21
7.3366476616
  0
LINE
  5
8BA
100
AcDbEntity
  8
0
100
AcDbLine
 62
3
  6
CONTINUOUS
 10
8.3226837705
 20
7.3366476616
 11
8.3193356479
 21
7.3195509975
  0
LINE
  5
8BB
100
AcDbEntity
  8
0
100
AcDbLine
 62
3
  6
CONTINUOUS
 10
8.2858546512
 20
7.3263896631
 11
8.2892027738
 21
7.3400669944
  0
LINE
  5
8BC
100
AcDbEntity
  8
0
100
AcDbLine
 62
3
  6
CONTINUOUS
 10
8.1385384038
 20
7.2477450012
 11
8.1452345724
 21
7.2614223349
  0
LINE
  5
8BD
100
AcDbEntity
  8
0
100
AcDbLine
 62
3
  6
CONTINUOUS
 10
8.0481397817
 20
7.3742603321
 11
8.0347473677
 21
7.3605830009
  0
LINE
  5
8BE
100
AcDbEntity
  8
0
100
AcDbLine
 62
3
  6
CONTINUOUS
 10
7.6262795455
 20
7.3058736663
 11
7.6329757525
 21
7.3092929991
  0
LINE
  5
8BF
100
AcDbEntity
  8
0
100
AcDbLine
 62
3
  6
CONTINUOUS
 10
8.7545882214
 20
7.2238096691
 11
8.7010187187
 21
7.3845183306
  0
LINE
  5
8C0
100
AcDbEntity
  8
0
100
AcDbLine
 62
3
  6
CONTINUOUS
 10
8.7211073014
 20
7.2648416677
 11
8.7344996388
 21
7.2238096691
  0
LINE
  5
8C1
100
AcDbEntity
  8
0
100
AcDbLine
 62
3
  6
CONTINUOUS
 10
8.6876263814
 20
7.3708409993
 11
8.7177592554
 21
7.278518999
  0
LINE
  5
8C2
100
AcDbEntity
  8
0
100
AcDbLine
 62
3
  6
CONTINUOUS
 10
8.5704429313
 20
7.3469056696
 11
8.5704429313
 21
7.3366476616
  0
LINE
  5
8C3
100
AcDbEntity
  8
0
100
AcDbLine
 62
3
  6
CONTINUOUS
 10
8.4231266839
 20
7.292196335
 11
8.4197785612
 21
7.2716803333
  0
LINE
  5
8C4
100
AcDbEntity
  8
0
100
AcDbLine
 62
3
  6
CONTINUOUS
 10
8.4365190213
 20
7.2716803333
 11
8.4398671439
 21
7.2887770022
  0
LINE
  5
8C5
100
AcDbEntity
  8
0
100
AcDbLine
 62
3
  6
CONTINUOUS
 10
8.2892027738
 20
7.251164334
 11
8.2925508965
 21
7.2614223349
  0
LINE
  5
8C6
100
AcDbEntity
  8
0
100
AcDbLine
 62
3
  6
CONTINUOUS
 10
8.3260318165
 20
7.3469056696
 11
8.3226837705
 21
7.3366476616
  0
LINE
  5
8C7
100
AcDbEntity
  8
0
100
AcDbLine
 62
3
  6
CONTINUOUS
 10
8.2724623138
 20
7.3400669944
 11
8.2657660685
 21
7.3263896631
  0
LINE
  5
8C8
100
AcDbEntity
  8
0
100
AcDbLine
 62
3
  6
CONTINUOUS
 10
8.1251459898
 20
7.2648416677
 11
8.1184498211
 21
7.2545836693
  0
LINE
  5
8C9
100
AcDbEntity
  8
0
100
AcDbLine
 62
3
  6
CONTINUOUS
 10
8.1921079831
 20
7.3469056696
 11
8.1988041518
 21
7.357163668
  0
LINE
  5
8CA
100
AcDbEntity
  8
0
100
AcDbLine
 62
3
  6
CONTINUOUS
 10
7.6162352542
 20
7.3195509975
 11
7.6061909628
 21
7.3161316647
  0
LINE
  5
8CB
100
AcDbEntity
  8
0
100
AcDbLine
 62
3
  6
CONTINUOUS
 10
8.590531514
 20
7.3332283288
 11
8.590531514
 21
7.3469056696
  0
LINE
  5
8CC
100
AcDbEntity
  8
0
100
AcDbLine
 62
9
  6
CONTINUOUS
 10
8.6171653723
 20
8.8861114319
 11
8.6171653723
 21
8.9884736367
  0
LINE
  5
8CD
100
AcDbEntity
  8
0
100
AcDbLine
 62
3
  6
CONTINUOUS
 10
8.4331709752
 20
7.2614223349
 11
8.4365190213
 21
7.2716803333
  0
LINE
  5
8CE
100
AcDbEntity
  8
0
100
AcDbLine
 62
3
  6
CONTINUOUS
 10
8.2758103598
 20
7.2614223349
 11
8.2724623138
 21
7.2545836693
  0
LINE
  5
8CF
100
AcDbEntity
  8
0
100
AcDbLine
 62
3
  6
CONTINUOUS
 10
8.3327280619
 20
7.3605830009
 11
8.3260318165
 21
7.3469056696
  0
LINE
  5
8D0
100
AcDbEntity
  8
0
100
AcDbLine
 62
3
  6
CONTINUOUS
 10
8.2791584825
 20
7.3161316647
 11
8.2858546512
 21
7.3263896631
  0
LINE
  5
8D1
100
AcDbEntity
  8
0
100
AcDbLine
 62
3
  6
CONTINUOUS
 10
8.3394242305
 20
7.3366476616
 11
8.3528166445
 21
7.357163668
  0
LINE
  5
8D2
100
AcDbEntity
  8
0
100
AcDbLine
 62
3
  6
CONTINUOUS
 10
8.1921079831
 20
7.3742603321
 11
8.1787155691
 21
7.3605830009
  0
LINE
  5
8D3
100
AcDbEntity
  8
0
100
AcDbLine
 62
3
  6
CONTINUOUS
 10
8.1251459898
 20
7.2340676688
 11
8.1385384038
 21
7.2477450012
  0
LINE
  5
8D4
100
AcDbEntity
  8
0
100
AcDbLine
 62
3
  6
CONTINUOUS
 10
8.0548359504
 20
7.3537443352
 11
8.0648802417
 21
7.3605830009
  0
LINE
  5
8D5
100
AcDbEntity
  8
0
100
AcDbLine
 62
3
  6
CONTINUOUS
 10
8.1988041518
 20
7.357163668
 11
8.2088484431
 21
7.3640023337
  0
LINE
  5
8D6
100
AcDbEntity
  8
0
100
AcDbLine
 62
3
  6
CONTINUOUS
 10
8.0615321957
 20
7.3810989977
 11
8.0481397817
 21
7.3742603321
  0
LINE
  5
8D7
100
AcDbEntity
  8
0
100
AcDbLine
 62
3
  6
CONTINUOUS
 10
8.2055003205
 20
7.3810989977
 11
8.1921079831
 21
7.3742603321
  0
LINE
  5
8D8
100
AcDbEntity
  8
0
100
AcDbLine
 62
3
  6
CONTINUOUS
 10
7.6162352542
 20
7.2477450012
 11
7.6061909628
 21
7.2443256684
  0
LINE
  5
8D9
100
AcDbEntity
  8
0
100
AcDbLine
 62
3
  6
CONTINUOUS
 10
8.0648802417
 20
7.3605830009
 11
8.0749245331
 21
7.3640023337
  0
LINE
  5
8DA
100
AcDbEntity
  8
0
100
AcDbLine
 62
3
  6
CONTINUOUS
 10
8.4264747299
 20
7.2477450012
 11
8.4331709752
 21
7.2614223349
  0
LINE
  5
8DB
100
AcDbEntity
  8
0
100
AcDbLine
 62
3
  6
CONTINUOUS
 10
8.2825066052
 20
7.2409063356
 11
8.2892027738
 21
7.251164334
  0
LINE
  5
8DC
100
AcDbEntity
  8
0
100
AcDbLine
 62
3
  6
CONTINUOUS
 10
8.2657660685
 20
7.3263896631
 11
8.2590698998
 21
7.3195509975
  0
LINE
  5
8DD
100
AcDbEntity
  8
0
100
AcDbLine
 62
3
  6
CONTINUOUS
 10
8.3427723532
 20
7.3708409993
 11
8.3327280619
 21
7.3605830009
  0
LINE
  5
8DE
100
AcDbEntity
  8
0
100
AcDbLine
 62
3
  6
CONTINUOUS
 10
8.2724623138
 20
7.2545836693
 11
8.2657660685
 21
7.2477450012
  0
LINE
  5
8DF
100
AcDbEntity
  8
0
100
AcDbLine
 62
3
  6
CONTINUOUS
 10
8.2657660685
 20
7.3058736663
 11
8.2791584825
 21
7.3161316647
  0
LINE
  5
8E0
100
AcDbEntity
  8
0
100
AcDbLine
 62
3
  6
CONTINUOUS
 10
8.1184498211
 20
7.2545836693
 11
8.1084055297
 21
7.2477450012
  0
LINE
  5
8E1
100
AcDbEntity
  8
0
100
AcDbLine
 62
3
  6
CONTINUOUS
 10
8.3528166445
 20
7.357163668
 11
8.3628609359
 21
7.3640023337
  0
LINE
  5
8E2
100
AcDbEntity
  8
0
100
AcDbLine
 62
3
  6
CONTINUOUS
 10
8.3595128132
 20
7.3810989977
 11
8.3427723532
 21
7.3708409993
  0
LINE
  5
8E3
100
AcDbEntity
  8
0
100
AcDbLine
 62
3
  6
CONTINUOUS
 10
8.2590698998
 20
7.3195509975
 11
8.2389813171
 21
7.3127123319
  0
LINE
  5
8E4
100
AcDbEntity
  8
0
100
AcDbLine
 62
9
  6
CONTINUOUS
 10
7.0817323014
 20
8.7837492272
 11
8.8533858447
 21
8.7837492272
  0
LINE
  5
8E5
100
AcDbEntity
  8
0
100
AcDbLine
 62
3
  6
CONTINUOUS
 10
8.5704429313
 20
7.3366476616
 11
8.5670948853
 21
7.3263896631
  0
LINE
  5
8E6
100
AcDbEntity
  8
0
100
AcDbLine
 62
3
  6
CONTINUOUS
 10
8.587183468
 20
7.3229703303
 11
8.590531514
 21
7.3332283288
  0
LINE
  5
8E7
100
AcDbEntity
  8
0
100
AcDbLine
 62
3
  6
CONTINUOUS
 10
8.4197785612
 20
7.2716803333
 11
8.4063861472
 21
7.251164334
  0
LINE
  5
8E8
100
AcDbEntity
  8
0
100
AcDbLine
 62
3
  6
CONTINUOUS
 10
8.2724623138
 20
7.2340676688
 11
8.2825066052
 21
7.2409063356
  0
LINE
  5
8E9
100
AcDbEntity
  8
0
100
AcDbLine
 62
3
  6
CONTINUOUS
 10
8.1117536524
 20
7.2272290023
 11
8.1251459898
 21
7.2340676688
  0
LINE
  5
8EA
100
AcDbEntity
  8
0
100
AcDbLine
 62
3
  6
CONTINUOUS
 10
8.2657660685
 20
7.2477450012
 11
8.2590698998
 21
7.2443256684
  0
LINE
  5
8EB
100
AcDbEntity
  8
0
100
AcDbLine
 62
3
  6
CONTINUOUS
 10
8.2590698998
 20
7.2272290023
 11
8.2724623138
 21
7.2340676688
  0
LINE
  5
8EC
100
AcDbEntity
  8
0
100
AcDbLine
 62
3
  6
CONTINUOUS
 10
8.8533858447
 20
8.8861114319
 11
7.0817323014
 21
8.8861114319
  0
LINE
  5
8ED
100
AcDbEntity
  8
0
100
AcDbLine
 62
7
  6
CONTINUOUS
 10
8.8533858447
 20
8.9884736367
 11
8.8533858447
 21
8.8861114319
  0
LINE
  5
8EE
100
AcDbEntity
  8
0
100
AcDbLine
 62
3
  6
CONTINUOUS
 10
8.8533858447
 20
7.3349120313
 11
8.8533858447
 21
8.8861114319
  0
LINE
  5
8EF
100
AcDbEntity
  8
0
100
AcDbLine
 62
3
  6
CONTINUOUS
 10
8.6574935073
 20
7.278518999
 11
8.6876263814
 21
7.3708409993
  0
LINE
  5
8F0
100
AcDbEntity
  8
0
100
AcDbLine
 62
3
  6
CONTINUOUS
 10
8.6407529707
 20
7.2238096691
 11
8.6541453081
 21
7.2648416677
  0
LINE
  5
8F1
100
AcDbEntity
  8
0
100
AcDbLine
 62
3
  6
CONTINUOUS
 10
8.6742338907
 20
7.3845183306
 11
8.620664388
 21
7.2238096691
  0
LINE
  5
8F2
100
AcDbEntity
  8
0
100
AcDbLine
 62
3
  6
CONTINUOUS
 10
8.5771391766
 20
7.3092929991
 11
8.587183468
 21
7.3229703303
  0
LINE
  5
8F3
100
AcDbEntity
  8
0
100
AcDbLine
 62
3
  6
CONTINUOUS
 10
8.4164304386
 20
7.2374870016
 11
8.4264747299
 21
7.2477450012
  0
LINE
  5
8F4
100
AcDbEntity
  8
0
100
AcDbLine
 62
3
  6
CONTINUOUS
 10
8.5670948853
 20
7.3263896631
 11
8.56039864
 21
7.3195509975
  0
LINE
  5
8F5
100
AcDbEntity
  8
0
100
AcDbLine
 62
3
  6
CONTINUOUS
 10
8.4063861472
 20
7.251164334
 11
8.3963418559
 21
7.2443256684
  0
LINE
  5
8F6
100
AcDbEntity
  8
0
100
AcDbLine
 62
3
  6
CONTINUOUS
 10
8.3996899786
 20
7.2272290023
 11
8.4164304386
 21
7.2374870016
  0
LINE
  5
8F7
100
AcDbEntity
  8
0
100
AcDbLine
 62
3
  6
CONTINUOUS
 10
8.563746686
 20
7.3024543334
 11
8.5771391766
 21
7.3092929991
  0
LINE
  5
8F8
100
AcDbEntity
  8
0
100
AcDbLine
 62
3
  6
CONTINUOUS
 10
8.56039864
 20
7.3195509975
 11
8.5503543486
 21
7.3161316647
  0
LINE
  5
8F9
100
AcDbEntity
  8
0
100
AcDbLine
 62
7
  6
CONTINUOUS
 10
8.8533858447
 20
8.9884736367
 11
7.0817323014
 21
8.9884736367
  0
CIRCLE
  5
8FA
100
AcDbEntity
  8
SKETCHED_ENT
100
AcDbCircle
 62
2
  6
CENTER
 10
7.9675590731
 20
7.9845183306
 40
0.4921259843
  0
CIRCLE
  5
8FB
100
AcDbEntity
  8
0
100
AcDbCircle
 62
7
  6
CONTINUOUS
 10
10.5342808475
 20
1.243294839
 40
0.252091
  0
CIRCLE
  5
8FC
100
AcDbEntity
  8
0
100
AcDbCircle
 62
7
  6
CONTINUOUS
 10
10.5342808475
 20
1.243294839
 40
0.182698
  0
CIRCLE
  5
8FD
100
AcDbEntity
  8
02___PRT_ALL_AXES
100
AcDbCircle
 62
3
  6
CONTINUOUS
 10
7.9675590731
 20
4.6385349158
 40
0.6102362205
  0
ARC
  5
8FE
100
AcDbEntity
  8
0
100
AcDbCircle
 62
3
  6
CONTINUOUS
 10
8.6171653723
 20
5.288141215
 40
0.2362204724
100
AcDbArc
 50
0.0
 51
90.0
  0
ARC
  5
8FF
100
AcDbEntity
  8
0
100
AcDbCircle
 62
3
  6
CONTINUOUS
 10
7.3179527738
 20
5.288141215
 40
0.2362204724
100
AcDbArc
 50
90.0
 51
180.0
  0
ARC
  5
900
100
AcDbEntity
  8
0
100
AcDbCircle
 62
7
  6
CONTINUOUS
 10
2.6612308911
 20
3.6424536254
 40
0.2047244094
100
AcDbArc
 50
180.0
 51
270.0
  0
ARC
  5
901
100
AcDbEntity
  8
0
100
AcDbCircle
 62
3
  6
CONTINUOUS
 10
2.6612308911
 20
3.6424536254
 40
0.1023622047
100
AcDbArc
 50
180.0
 51
270.0
  0
ARC
  5
902
100
AcDbEntity
  8
02___PRT_ALL_AXES
100
AcDbCircle
 62
3
  6
CONTINUOUS
 10
7.9675590731
 20
7.9845183306
 40
0.6299212598
100
AcDbArc
 50
307.5
 51
52.5
  0
ARC
  5
903
100
AcDbEntity
  8
02___PRT_ALL_AXES
100
AcDbCircle
 62
3
  6
CONTINUOUS
 10
7.9675590731
 20
7.9845183306
 40
0.6299212598
100
AcDbArc
 50
127.5
 51
232.5
  0
ARC
  5
904
100
AcDbEntity
  8
02___PRT_ALL_AXES
100
AcDbCircle
 62
3
  6
CONTINUOUS
 10
7.9675590731
 20
7.9845183306
 40
0.3543307087
100
AcDbArc
 50
307.5
 51
52.5
  0
ARC
  5
905
100
AcDbEntity
  8
02___PRT_ALL_AXES
100
AcDbCircle
 62
3
  6
CONTINUOUS
 10
7.9675590731
 20
7.9845183306
 40
0.3543307087
100
AcDbArc
 50
127.5
 51
232.5
  0
ARC
  5
906
100
AcDbEntity
  8
0
100
AcDbCircle
 62
3
  6
CONTINUOUS
 10
8.6171653723
 20
7.3349120313
 40
0.2362204724
100
AcDbArc
 50
270.0
 51
360.0
  0
ARC
  5
907
100
AcDbEntity
  8
0
100
AcDbCircle
 62
3
  6
CONTINUOUS
 10
7.3179527738
 20
7.3349120313
 40
0.2362204724
100
AcDbArc
 50
180.0
 51
270.0
  0
ARC
  5
908
100
AcDbEntity
  8
02___PRT_ALL_AXES
100
AcDbCircle
 62
3
  6
CONTINUOUS
 10
8.2671463905
 20
7.5940885371
 40
0.1377952756
100
AcDbArc
 50
127.5
 51
307.5
  0
ARC
  5
909
100
AcDbEntity
  8
02___PRT_ALL_AXES
100
AcDbCircle
 62
3
  6
CONTINUOUS
 10
8.2671463905
 20
8.374948124
 40
0.1377952756
100
AcDbArc
 50
52.5
 51
232.5
  0
ARC
  5
90A
100
AcDbEntity
  8
02___PRT_ALL_AXES
100
AcDbCircle
 62
3
  6
CONTINUOUS
 10
7.6679717556
 20
8.374948124
 40
0.1377952756
100
AcDbArc
 50
307.5
 51
127.5
  0
ARC
  5
90B
100
AcDbEntity
  8
02___PRT_ALL_AXES
100
AcDbCircle
 62
3
  6
CONTINUOUS
 10
7.6679717556
 20
7.5940885371
 40
0.1377952756
100
AcDbArc
 50
232.5
 51
52.5
  0
CIRCLE
  5
90C
100
AcDbEntity
  8
02___PRT_ALL_AXES
100
AcDbCircle
 62
3
  6
CONTINUOUS
 10
7.9675590731
 20
7.9845183306
 40
0.1285433071
  0
ENDSEC
  0
SECTION
  2
OBJECTS
  0
DICTIONARY
  5
C
100
AcDbDictionary
280
0
281
1
  3
ACAD_GROUP
350
D
  3
ACAD_MLINESTYLE
350
17
  3
ACAD_LAYOUT
350
1A
  3
ACAD_PLOTSETTINGS
350
19
  3
ACAD_PLOTSTYLENAME
350
E
  0
DICTIONARY
  5
D
102
{ACAD_REACTORS
330
C
102
}
100
AcDbDictionary
280
0
281
1
  0
ACDBDICTIONARYWDFLT
  5
E
102
{ACAD_REACTORS
330
C
102
}
100
AcDbDictionary
281
1
  3
Normal
350
F
100
AcDbDictionaryWithDefault
340
F
  0
DICTIONARY
  5
17
102
{ACAD_REACTORS
330
C
102
}
100
AcDbDictionary
280
0
281
1
  3
Standard
350
18
  0
DICTIONARY
  5
19
102
{ACAD_REACTORS
330
C
102
}
100
AcDbDictionary
281
1
  0
DICTIONARY
  5
1A
102
{ACAD_REACTORS
330
C
102
}
100
AcDbDictionary
281
1
  3
Layout1
350
1E
  3
Model
350
22
  0
ACDBPLACEHOLDER
  5
F
102
{ACAD_REACTORS
330
E
102
}
  0
MLINESTYLE
  5
18
102
{ACAD_REACTORS
330
17
102
}
100
AcDbMlineStyle
  2
STANDARD
 70
0
  3

 62
256
 51
90.0
 52
90.0
 71
2
 49
0.5
 62
256
  6
BYLAYER
 49
-0.5
 62
256
  6
BYLAYER
  0
LAYOUT
  5
1E
102
{ACAD_REACTORS
330
1A
102
}
100
AcDbPlotSettings
  1

  2

  4

  6

 40
0.0
 41
0.0
 42
0.0
 43
0.0
 44
0.0
 45
0.0
 46
0.0
 47
0.0
 48
0.0
 49
0.0
140
0.0
141
0.0
142
1.0
143
1.0
 70
0
 72
0
 73
0
 74
0
  7

 75
0
147
1.0
148
0.0
149
0.0
100
AcDbLayout
  1
Layout1
 70
0
 71
0
 10
0.0
 20
0.0
 11
0.0
 21
0.0
 12
0.0
 22
0.0
 32
0.0
 14
0.0
 24
0.0
 34
0.0
 15
0.0
 25
0.0
 35
0.0
146
0.0
 13
0.0
 23
0.0
 33
0.0
 16
0.0
 26
0.0
 36
0.0
 17
0.0
 27
0.0
 37
0.0
 76
0
330
1B
331
0
345
0
346
0
  0
LAYOUT
  5
22
102
{ACAD_REACTORS
330
1A
102
}
100
AcDbPlotSettings
  1

  2

  4

  6

 40
0.0
 41
0.0
 42
0.0
 43
0.0
 44
0.0
 45
0.0
 46
0.0
 47
0.0
 48
0.0
 49
0.0
140
0.0
141
0.0
142
1.0
143
1.0
 70
0
 72
0
 73
0
 74
0
  7

 75
0
147
1.0
148
0.0
149
0.0
100
AcDbLayout
  1
Model
 70
0
 71
0
 10
0.0
 20
0.0
 11
0.0
 21
0.0
 12
0.0
 22
0.0
 32
0.0
 14
0.0
 24
0.0
 34
0.0
 15
0.0
 25
0.0
 35
0.0
146
0.0
 13
0.0
 23
0.0
 33
0.0
 16
0.0
 26
0.0
 36
0.0
 17
0.0
 27
0.0
 37
0.0
 76
0
330
1F
331
0
345
0
346
0
  0
ENDSEC
  0
EOF
