999
DXF file: 141787_1.dxf
999
Pro/ENGINEER 2006170 by Parametric Technology Corporation
  0
SECTION
  2
HEADER
  9
$ACADVER
  1
AC1015
  9
$DWGCODEPAGE
  3
ANSI_1252
  9
$EXTMAX
 10
17.0
 20
11.0
 30
0.0
  9
$EXTMIN
 10
0.0
 20
0.0
 30
0.0
  9
$LIMMIN
 10
0.0
 20
0.0
  9
$LIMMAX
 10
17.0
 20
11.0
  9
$VIEWCTR
 10
8.5
 20
5.5
  9
$VIEWSIZE
 40
11.0
  9
$CLAYER
  8
0
  9
$LTSCALE
 40
0.935
  9
$CELTYPE
  6
BYLAYER
  9
$DIMSCALE
 40
1.0
  9
$DIMASZ
 40
0.1875
  9
$DIMEXO
 40
0.10625
  9
$DIMDLI
 40
0.646
  9
$DIMEXE
 40
0.306
  9
$DIMCEN
 40
0.153
  9
$DIMLFAC
 40
1.0
  9
$DIMBLK
  1
_FILLED
  9
$DIMTXT
 40
0.1
  9
$DIMTOL
 70
1
  9
$DIMLIM
 70
0
  9
$DIMTFAC
 40
1.0
  9
$DIMTP
 40
0.005
  9
$DIMTM
 40
0.005
  9
$PDMODE
 70
3
  9
$PDSIZE
 40
0.3125
  9
$HANDSEED
  5
A18
  9
$MEASUREMENT
 70
0
  9
$INSUNITS
 70
1
  0
ENDSEC
  0
SECTION
  2
CLASSES
  0
CLASS
  1
ACDBDICTIONARYWDFLT
  2
AcDbDictionaryWithDefault
  3
AutoCAD 2000
 90
0
280
0
281
0
  0
CLASS
  1
ACDBPLACEHOLDER
  2
AcDbPlaceHolder
  3
AutoCAD 2000
 90
0
280
0
281
0
  0
CLASS
  1
LAYOUT
  2
AcDbLayout
  3
AutoCAD 2000
 90
0
280
0
281
0
  0
ENDSEC
  0
SECTION
  2
TABLES
  0
TABLE
  2
VPORT
  5
8
100
AcDbSymbolTable
 70
2
  0
VPORT
  5
1F4
100
AcDbSymbolTableRecord
100
AcDbViewportTableRecord
  2
*ACTIVE
 70
0
 10
0.0
 20
0.0
 11
1.0
 21
1.0
 12
8.5
 22
5.5
 13
0.0
 23
0.0
 14
1.0
 24
1.0
 15
0.0
 25
0.0
 16
0.0
 26
0.0
 36
1.0
 17
0.0
 27
0.0
 37
0.0
 40
11.0
 41
1.5454545455
 42
50.0
 43
0.0
 44
0.0
 50
0.0
 51
0.0
 71
0
 72
100
 73
1
 74
1
 75
0
 76
0
 77
0
 78
0
  0
ENDTAB
  0
TABLE
  2
LTYPE
  5
5
100
AcDbSymbolTable
 70
6
  0
LTYPE
  5
14
100
AcDbSymbolTableRecord
100
AcDbLinetypeTableRecord
  2
BYBLOCK
 70
0
  3

 72
65
 73
0
 40
0.0
  0
LTYPE
  5
15
100
AcDbSymbolTableRecord
100
AcDbLinetypeTableRecord
  2
BYLAYER
 70
0
  3

 72
65
 73
0
 40
0.0
  0
LTYPE
  5
16
100
AcDbSymbolTableRecord
100
AcDbLinetypeTableRecord
  2
CONTINUOUS
 70
64
  3
Solid line
 72
65
 73
0
 40
0.0
  0
LTYPE
  5
1F5
100
AcDbSymbolTableRecord
100
AcDbLinetypeTableRecord
  2
CENTER
 70
64
  3
____ _ ____ _ ____ _ ____ _ ____ _ ____ _ ____
 72
65
 73
4
 40
0.6
 49
0.375
 74
0
 49
-0.075
 74
0
 49
0.075
 74
0
 49
-0.075
 74
0
  0
LTYPE
  5
1F6
100
AcDbSymbolTableRecord
100
AcDbLinetypeTableRecord
  2
HIDDEN
 70
64
  3
- - - - - - - - - - - - - - - - - - - -
 72
65
 73
2
 40
0.2
 49
0.1
 74
0
 49
-0.1
 74
0
  0
LTYPE
  5
1F7
100
AcDbSymbolTableRecord
100
AcDbLinetypeTableRecord
  2
PHANTOM
 70
64
  3
_____ _ _ _____ _ _ _____ _ _ _____
 72
65
 73
6
 40
0.8
 49
0.45
 74
0
 49
-0.05
 74
0
 49
0.1
 74
0
 49
-0.05
 74
0
 49
0.1
 74
0
 49
-0.05
 74
0
  0
LTYPE
  5
1F8
100
AcDbSymbolTableRecord
100
AcDbLinetypeTableRecord
  2
DOT
 70
64
  3
. . . . . . . . . . . . . . . . . . . .
 72
65
 73
2
 40
0.2
 49
0.1
 74
0
 49
-0.1
 74
0
  0
LTYPE
  5
1F9
100
AcDbSymbolTableRecord
100
AcDbLinetypeTableRecord
  2
DASHED
 70
64
  3
- - - - - - - - - - - - - - - - - - - -
 72
65
 73
2
 40
0.2
 49
0.1
 74
0
 49
-0.1
 74
0
  0
ENDTAB
  0
TABLE
  2
LAYER
  5
2
100
AcDbSymbolTable
 70
36
  0
LAYER
  5
10
100
AcDbSymbolTableRecord
100
AcDbLayerTableRecord
  2
0
 70
0
 62
7
  6
CONTINUOUS
370
-3
390
F
  0
LAYER
  5
1FA
100
AcDbSymbolTableRecord
100
AcDbLayerTableRecord
  2
DEFAULT_1
 70
0
 62
7
  6
CENTER
370
-3
390
F
  0
LAYER
  5
1FB
100
AcDbSymbolTableRecord
100
AcDbLayerTableRecord
  2
DEFAULT_2
 70
0
 62
8
  6
HIDDEN
370
-3
390
F
  0
LAYER
  5
1FC
100
AcDbSymbolTableRecord
100
AcDbLayerTableRecord
  2
DEFAULT_3
 70
0
 62
7
  6
PHANTOM
370
-3
390
F
  0
LAYER
  5
1FD
100
AcDbSymbolTableRecord
100
AcDbLayerTableRecord
  2
_2D_DELETED_OBJS
 70
0
 62
7
  6
CONTINUOUS
370
-3
390
F
  0
LAYER
  5
1FE
100
AcDbSymbolTableRecord
100
AcDbLayerTableRecord
  2
_BLACK_HOLE
 70
0
 62
7
  6
CONTINUOUS
370
-3
390
F
  0
LAYER
  5
1FF
100
AcDbSymbolTableRecord
100
AcDbLayerTableRecord
  2
01___PRT_ALL_DTM_PLN
 70
0
 62
7
  6
CONTINUOUS
370
-3
390
F
  0
LAYER
  5
200
100
AcDbSymbolTableRecord
100
AcDbLayerTableRecord
  2
01___PRT_DEF_DTM_PLN
 70
0
 62
7
  6
CONTINUOUS
370
-3
390
F
  0
LAYER
  5
201
100
AcDbSymbolTableRecord
100
AcDbLayerTableRecord
  2
02___PRT_ALL_AXES
 70
0
 62
7
  6
CONTINUOUS
370
-3
390
F
  0
LAYER
  5
202
100
AcDbSymbolTableRecord
100
AcDbLayerTableRecord
  2
03___PRT_ALL_CURVES
 70
0
 62
7
  6
CONTINUOUS
370
-3
390
F
  0
LAYER
  5
203
100
AcDbSymbolTableRecord
100
AcDbLayerTableRecord
  2
04___PRT_ALL_DTM_PNT
 70
0
 62
7
  6
CONTINUOUS
370
-3
390
F
  0
LAYER
  5
204
100
AcDbSymbolTableRecord
100
AcDbLayerTableRecord
  2
05___PRT_ALL_DTM_CSYS
 70
0
 62
7
  6
CONTINUOUS
370
-3
390
F
  0
LAYER
  5
205
100
AcDbSymbolTableRecord
100
AcDbLayerTableRecord
  2
05___PRT_DEF_DTM_CSYS
 70
0
 62
7
  6
CONTINUOUS
370
-3
390
F
  0
LAYER
  5
206
100
AcDbSymbolTableRecord
100
AcDbLayerTableRecord
  2
06___PRT_ALL_SURFS
 70
0
 62
7
  6
CONTINUOUS
370
-3
390
F
  0
LAYER
  5
207
100
AcDbSymbolTableRecord
100
AcDbLayerTableRecord
  2
AXIS_COSMETIC_THREADS
 70
0
 62
7
  6
CONTINUOUS
370
-3
390
F
  0
LAYER
  5
208
100
AcDbSymbolTableRecord
100
AcDbLayerTableRecord
  2
CONSTRUCTION
 70
0
 62
7
  6
CONTINUOUS
370
-3
390
F
  0
LAYER
  5
209
100
AcDbSymbolTableRecord
100
AcDbLayerTableRecord
  2
DATUM_PLANES
 70
0
 62
7
  6
CONTINUOUS
370
-3
390
F
  0
LAYER
  5
20A
100
AcDbSymbolTableRecord
100
AcDbLayerTableRecord
  2
DRIVEN_DIMS
 70
0
 62
7
  6
CONTINUOUS
370
-3
390
F
  0
LAYER
  5
20B
100
AcDbSymbolTableRecord
100
AcDbLayerTableRecord
  2
NOTES
 70
0
 62
7
  6
CONTINUOUS
370
-3
390
F
  0
LAYER
  5
20C
100
AcDbSymbolTableRecord
100
AcDbLayerTableRecord
  2
QUILTS
 70
0
 62
7
  6
CONTINUOUS
370
-3
390
F
  0
LAYER
  5
20D
100
AcDbSymbolTableRecord
100
AcDbLayerTableRecord
  2
SCHEME_DIMS
 70
0
 62
7
  6
CONTINUOUS
370
-3
390
F
  0
LAYER
  5
20E
100
AcDbSymbolTableRecord
100
AcDbLayerTableRecord
  2
SKETCHED_ENT
 70
0
 62
7
  6
CONTINUOUS
370
-3
390
F
  0
LAYER
  5
20F
100
AcDbSymbolTableRecord
100
AcDbLayerTableRecord
  2
SYMBOLS
 70
0
 62
7
  6
CONTINUOUS
370
-3
390
F
  0
ENDTAB
  0
TABLE
  2
STYLE
  5
3
100
AcDbSymbolTable
 70
1
  0
STYLE
  5
11
100
AcDbSymbolTableRecord
100
AcDbTextStyleTableRecord
  2
STANDARD
 70
0
 40
0.0
 41
1.0
 50
0.0
 71
0
 42
0.2
  3
txt
  4

  0
ENDTAB
  0
TABLE
  2
VIEW
  5
6
100
AcDbSymbolTable
 70
0
  0
ENDTAB
  0
TABLE
  2
UCS
  5
7
100
AcDbSymbolTable
 70
0
  0
ENDTAB
  0
TABLE
  2
APPID
  5
9
100
AcDbSymbolTable
 70
1
  0
APPID
  5
210
100
AcDbSymbolTableRecord
100
AcDbRegAppTableRecord
  2
ACAD
 70
0
  0
ENDTAB
  0
TABLE
  2
BLOCK_RECORD
  5
1
100
AcDbSymbolTable
 70
0
  0
BLOCK_RECORD
  5
1F
100
AcDbSymbolTableRecord
100
AcDbBlockTableRecord
  2
*MODEL_SPACE
  0
BLOCK_RECORD
  5
1B
100
AcDbSymbolTableRecord
100
AcDbBlockTableRecord
  2
*PAPER_SPACE
  0
BLOCK_RECORD
  5
211
100
AcDbSymbolTableRecord
100
AcDbBlockTableRecord
  2
_FILLED
  0
BLOCK_RECORD
  5
212
100
AcDbSymbolTableRecord
100
AcDbBlockTableRecord
  2
BANNER_LOGO_TITLEBLOCK_BL0
  0
BLOCK_RECORD
  5
213
100
AcDbSymbolTableRecord
100
AcDbBlockTableRecord
  2
*D0
  0
BLOCK_RECORD
  5
214
100
AcDbSymbolTableRecord
100
AcDbBlockTableRecord
  2
*D1
  0
BLOCK_RECORD
  5
215
100
AcDbSymbolTableRecord
100
AcDbBlockTableRecord
  2
*D2
  0
BLOCK_RECORD
  5
216
100
AcDbSymbolTableRecord
100
AcDbBlockTableRecord
  2
*D3
  0
BLOCK_RECORD
  5
217
100
AcDbSymbolTableRecord
100
AcDbBlockTableRecord
  2
*D4
  0
BLOCK_RECORD
  5
218
100
AcDbSymbolTableRecord
100
AcDbBlockTableRecord
  2
*D5
  0
BLOCK_RECORD
  5
219
100
AcDbSymbolTableRecord
100
AcDbBlockTableRecord
  2
*D6
  0
BLOCK_RECORD
  5
21A
100
AcDbSymbolTableRecord
100
AcDbBlockTableRecord
  2
*D7
  0
BLOCK_RECORD
  5
21B
100
AcDbSymbolTableRecord
100
AcDbBlockTableRecord
  2
*D8
  0
BLOCK_RECORD
  5
21C
100
AcDbSymbolTableRecord
100
AcDbBlockTableRecord
  2
*D9
  0
BLOCK_RECORD
  5
21D
100
AcDbSymbolTableRecord
100
AcDbBlockTableRecord
  2
*D10
  0
BLOCK_RECORD
  5
21E
100
AcDbSymbolTableRecord
100
AcDbBlockTableRecord
  2
*D11
  0
ENDTAB
  0
TABLE
  2
DIMSTYLE
  5
A
100
AcDbSymbolTable
 70
1
100
AcDbDimStyleTable
 71
0
  0
DIMSTYLE
105
21F
100
AcDbSymbolTableRecord
100
AcDbDimStyleTableRecord
  2
STANDARD
 70
0
  3

  4

 40
1.0
 41
0.1875
 42
0.0625
 43
0.38
 44
0.18
 45
0.0
 46
0.0
 47
0.005
 48
0.005
140
0.1
141
0.09
142
0.0
143
25.4
144
1.0
145
0.0
146
1.0
147
0.09
 71
1.0
 72
0.0
 73
1
 74
1
 75
0
 76
0
 77
0
 78
4
170
0
171
2
172
0
173
0
174
0
175
0
176
0
177
0
178
0
270
2
271
3
272
3
273
2
274
2
275
0
280
0
281
0
282
0
283
1
284
4
285
0
286
0
287
3
288
0
340
11
341
211
342
211
343
211
344
211
  0
DIMSTYLE
105
220
100
AcDbSymbolTableRecord
100
AcDbDimStyleTableRecord
  2
DIMSTYLE_1
 70
0
  3

  4

 40
1.0
 41
0.1875
 42
0.0625
 43
0.38
 44
0.18
 45
0.0
 46
0.0
 47
0.02
 48
0.02
140
0.1
141
0.09
142
0.0
143
25.4
144
1.0
145
0.0
146
1.0
147
0.09
 71
0.0
 72
0.0
 73
1
 74
1
 75
0
 76
0
 77
0
 78
4
170
0
171
2
172
0
173
0
174
0
175
0
176
0
177
0
178
0
270
2
271
1
272
1
273
2
274
2
275
0
280
0
281
0
282
0
283
1
284
4
285
0
286
0
287
3
288
0
340
11
341
211
342
211
343
211
344
211
  0
DIMSTYLE
105
221
100
AcDbSymbolTableRecord
100
AcDbDimStyleTableRecord
  2
DIMSTYLE_2
 70
0
  3

  4

 40
1.0
 41
0.1875
 42
0.0625
 43
0.38
 44
0.18
 45
0.0
 46
0.0
 47
0.1
 48
0.1
140
0.1
141
0.09
142
0.0
143
25.4
144
1.0
145
0.0
146
1.0
147
0.09
 71
0.0
 72
0.0
 73
1
 74
1
 75
0
 76
0
 77
0
 78
4
170
0
171
2
172
0
173
0
174
0
175
0
176
0
177
0
178
0
270
2
271
1
272
1
273
2
274
2
275
0
280
0
281
0
282
0
283
1
284
4
285
0
286
0
287
3
288
0
340
11
341
211
342
211
343
211
344
211
  0
DIMSTYLE
105
222
100
AcDbSymbolTableRecord
100
AcDbDimStyleTableRecord
  2
DIMSTYLE_3
 70
0
  3

  4

 40
1.0
 41
0.1875
 42
0.0625
 43
0.38
 44
0.18
 45
0.0
 46
0.0
 47
0.1
 48
0.1
140
0.1
141
0.09
142
0.0
143
25.4
144
1.0
145
0.0
146
1.0
147
0.09
 71
0.0
 72
0.0
 73
1
 74
1
 75
0
 76
0
 77
0
 78
4
170
0
171
2
172
0
173
0
174
0
175
0
176
0
177
0
178
0
270
2
271
1
272
1
273
2
274
2
275
0
280
0
281
0
282
0
283
1
284
4
285
0
286
0
287
3
288
0
340
11
341
211
342
211
343
211
344
211
  0
DIMSTYLE
105
223
100
AcDbSymbolTableRecord
100
AcDbDimStyleTableRecord
  2
DIMSTYLE_4
 70
0
  3

  4

 40
1.0
 41
0.1875
 42
0.0625
 43
0.38
 44
0.18
 45
0.0
 46
0.0
 47
0.1
 48
0.1
140
0.1
141
0.09
142
0.0
143
25.4
144
1.0
145
0.0
146
1.0
147
0.09
 71
0.0
 72
0.0
 73
1
 74
1
 75
0
 76
0
 77
0
 78
4
170
0
171
2
172
0
173
0
174
0
175
0
176
0
177
0
178
0
270
2
271
1
272
1
273
2
274
2
275
0
280
0
281
0
282
0
283
1
284
4
285
0
286
0
287
3
288
0
340
11
341
211
342
211
343
211
344
211
  0
ENDTAB
  0
ENDSEC
  0
SECTION
  2
BLOCKS
  0
BLOCK
  5
20
100
AcDbEntity
  8
0
100
AcDbBlockBegin
  2
*MODEL_SPACE
 70
0
 10
0.0
 20
0.0
 30
0.0
  3
*MODEL_SPACE
  1

  0
ENDBLK
  5
21
100
AcDbEntity
  8
0
100
AcDbBlockEnd
  0
BLOCK
  5
1C
100
AcDbEntity
  8
0
100
AcDbBlockBegin
  2
*PAPER_SPACE
 70
0
 10
0.0
 20
0.0
 30
0.0
  3
*PAPER_SPACE
  1

  0
ENDBLK
  5
1D
100
AcDbEntity
  8
0
100
AcDbBlockEnd
  0
BLOCK
  5
224
100
AcDbEntity
  8
0
100
AcDbBlockBegin
 62
2
  6
CONTINUOUS
  2
BANNER_LOGO_TITLEBLOCK_BL0
 70
64
 10
12.9046655056
 20
2.5403783448
  3
BANNER_LOGO_TITLEBLOCK_BL0
  1

  0
LWPOLYLINE
  5
225
100
AcDbEntity
  8
0
100
AcDbPolyline
 62
2
  6
CONTINUOUS
 90
29
 70
0
 10
12.0796650004
 20
2.5403783448
 10
12.1000078385
 20
2.5005819703
 10
12.1615890075
 20
2.4620382478
 10
12.2590135686
 20
2.4281250935
 10
12.3910903821
 20
2.3992568791
 10
12.5462480343
 20
2.3779627503
 10
12.7225901426
 20
2.3645025835
 10
12.9046652672
 20
2.3600565514
 10
13.0867408686
 20
2.3645025835
 10
13.2630829769
 20
2.3779627503
 10
13.4182401522
 20
2.3992568791
 10
13.5503174426
 20
2.4281250935
 10
13.6477415269
 20
2.4620382478
 10
13.7093231727
 20
2.5005819703
 10
13.7296660108
 20
2.5403783448
 10
13.7093231727
 20
2.5801747193
 10
13.6477415269
 20
2.6187184418
 10
13.5503174426
 20
2.6526315961
 10
13.4182401522
 20
2.6814998105
 10
13.2630829769
 20
2.7027939393
 10
13.0867408686
 20
2.7162541061
 10
12.9046652672
 20
2.7207001382
 10
12.7225901426
 20
2.7162541061
 10
12.5462480343
 20
2.7027939393
 10
12.3910903821
 20
2.6814998105
 10
12.2590135686
 20
2.6526315961
 10
12.1615890075
 20
2.6187184418
 10
12.1000078385
 20
2.5801747193
 10
12.0796650004
 20
2.5403783448
  0
ARC
  5
226
100
AcDbEntity
  8
0
100
AcDbCircle
 62
2
  6
CONTINUOUS
 10
12.400005721
 20
2.5168763464
 40
0.0153945295
100
AcDbArc
 50
354.0454548824
 51
5.1878013979
  0
ARC
  5
227
100
AcDbEntity
  8
0
100
AcDbCircle
 62
2
  6
CONTINUOUS
 10
12.3931760319
 20
2.5166878286
 40
0.0222174455
100
AcDbArc
 50
4.0793399388
 51
69.834329283
  0
LINE
  5
228
100
AcDbEntity
  8
0
100
AcDbLine
 62
2
  6
CONTINUOUS
 10
12.4008351814
 20
2.5375433389
 11
12.3907841758
 21
2.5410923409
  0
LINE
  5
229
100
AcDbEntity
  8
0
100
AcDbLine
 62
2
  6
CONTINUOUS
 10
12.3907841758
 20
2.5410923409
 11
12.3990241804
 21
2.5458683435
  0
ARC
  5
22A
100
AcDbEntity
  8
0
100
AcDbCircle
 62
2
  6
CONTINUOUS
 10
12.3771587979
 20
2.5826952352
 40
0.0428289026
100
AcDbArc
 50
300.6990502959
 51
319.0591802498
  0
ARC
  5
22B
100
AcDbEntity
  8
0
100
AcDbCircle
 62
2
  6
CONTINUOUS
 10
12.3971873948
 20
2.5665668817
 40
0.0171568255
100
AcDbArc
 50
315.9145124245
 51
16.0049121282
  0
ARC
  5
22C
100
AcDbEntity
  8
0
100
AcDbCircle
 62
2
  6
CONTINUOUS
 10
12.3922357827
 20
2.5632132173
 40
0.0229166529
100
AcDbArc
 50
20.6563876465
 51
62.3316896973
  0
ARC
  5
22D
100
AcDbEntity
  8
0
100
AcDbCircle
 62
2
  6
CONTINUOUS
 10
12.371573659
 20
2.5302846524
 40
0.061747717
100
AcDbArc
 50
59.5385584989
 51
90.0050977555
  0
LINE
  5
22E
100
AcDbEntity
  8
0
100
AcDbLine
 62
2
  6
CONTINUOUS
 10
12.3715681652
 20
2.5920323691
 11
12.2055050731
 21
2.5920323691
  0
ARC
  5
22F
100
AcDbEntity
  8
0
100
AcDbCircle
 62
2
  6
CONTINUOUS
 10
12.2055050712
 20
2.5895573696
 40
0.0024749995
100
AcDbArc
 50
89.9999571957
 51
180.0000428043
  0
LINE
  5
230
100
AcDbEntity
  8
0
100
AcDbLine
 62
2
  6
CONTINUOUS
 10
12.2030300717
 20
2.5895573678
 11
12.2030300717
 21
2.5697573568
  0
ARC
  5
231
100
AcDbEntity
  8
0
100
AcDbCircle
 62
2
  6
CONTINUOUS
 10
12.2055050712
 20
2.5697573549
 40
0.0024749995
100
AcDbArc
 50
179.9999571957
 51
270.0000428043
  0
LINE
  5
232
100
AcDbEntity
  8
0
100
AcDbLine
 62
2
  6
CONTINUOUS
 10
12.2055050731
 20
2.5672823554
 11
12.2294470864
 21
2.5672823554
  0
ARC
  5
233
100
AcDbEntity
  8
0
100
AcDbCircle
 62
2
  6
CONTINUOUS
 10
12.2294470882
 20
2.5648073559
 40
0.0024749995
100
AcDbArc
 50
359.9999571957
 51
90.0000428043
  0
LINE
  5
234
100
AcDbEntity
  8
0
100
AcDbLine
 62
2
  6
CONTINUOUS
 10
12.2319220877
 20
2.564807354
 11
12.2319220877
 21
2.5184523283
  0
ARC
  5
235
100
AcDbEntity
  8
0
100
AcDbCircle
 62
2
  6
CONTINUOUS
 10
12.2294470882
 20
2.5184523265
 40
0.0024749995
100
AcDbArc
 50
269.9999571957
 51
0.0000428043
  0
LINE
  5
236
100
AcDbEntity
  8
0
100
AcDbLine
 62
2
  6
CONTINUOUS
 10
12.2294470864
 20
2.515977327
 11
12.2055050731
 21
2.515977327
  0
ARC
  5
237
100
AcDbEntity
  8
0
100
AcDbCircle
 62
2
  6
CONTINUOUS
 10
12.2055050712
 20
2.5135023274
 40
0.0024749995
100
AcDbArc
 50
89.9999571957
 51
180.0000428043
  0
LINE
  5
238
100
AcDbEntity
  8
0
100
AcDbLine
 62
2
  6
CONTINUOUS
 10
12.2030300717
 20
2.5135023256
 11
12.2030300717
 21
2.4937023146
  0
ARC
  5
239
100
AcDbEntity
  8
0
100
AcDbCircle
 62
2
  6
CONTINUOUS
 10
12.2055050712
 20
2.4937023128
 40
0.0024749995
100
AcDbArc
 50
179.9999571957
 51
270.0000428043
  0
LINE
  5
23A
100
AcDbEntity
  8
0
100
AcDbLine
 62
2
  6
CONTINUOUS
 10
12.2055050731
 20
2.4912273132
 11
12.3819511709
 21
2.4912273132
  0
ARC
  5
23B
100
AcDbEntity
  8
0
100
AcDbCircle
 62
2
  6
CONTINUOUS
 10
12.3792298263
 20
2.539634765
 40
0.048483885
100
AcDbArc
 50
273.21763719
 51
303.0749121182
  0
ARC
  5
23C
100
AcDbEntity
  8
0
100
AcDbCircle
 62
2
  6
CONTINUOUS
 10
12.3940692204
 20
2.5168671561
 40
0.0213072145
100
AcDbArc
 50
303.0488228549
 51
355.7263138674
  0
LINE
  5
23D
100
AcDbEntity
  8
0
100
AcDbLine
 62
2
  6
CONTINUOUS
 10
12.2949101227
 20
2.5499573458
 11
12.3362731456
 21
2.5499573458
  0
ARC
  5
23E
100
AcDbEntity
  8
0
100
AcDbCircle
 62
2
  6
CONTINUOUS
 10
12.3362731456
 20
2.5586198506
 40
0.0086625048
100
AcDbArc
 50
270.0
 51
90.0
  0
LINE
  5
23F
100
AcDbEntity
  8
0
100
AcDbLine
 62
2
  6
CONTINUOUS
 10
12.3362731456
 20
2.5672823554
 11
12.2949101227
 21
2.5672823554
  0
ARC
  5
240
100
AcDbEntity
  8
0
100
AcDbCircle
 62
2
  6
CONTINUOUS
 10
12.2949101208
 20
2.5648073559
 40
0.0024749995
100
AcDbArc
 50
89.9999571957
 51
180.0000428043
  0
LINE
  5
241
100
AcDbEntity
  8
0
100
AcDbLine
 62
2
  6
CONTINUOUS
 10
12.2924351213
 20
2.564807354
 11
12.2924351213
 21
2.5524323472
  0
ARC
  5
242
100
AcDbEntity
  8
0
100
AcDbCircle
 62
2
  6
CONTINUOUS
 10
12.2949101208
 20
2.5524323453
 40
0.0024749995
100
AcDbArc
 50
179.9999571957
 51
270.0000428043
  0
LINE
  5
243
100
AcDbEntity
  8
0
100
AcDbLine
 62
2
  6
CONTINUOUS
 10
12.2924351213
 20
2.5184523283
 11
12.2924351213
 21
2.5308273352
  0
ARC
  5
244
100
AcDbEntity
  8
0
100
AcDbCircle
 62
2
  6
CONTINUOUS
 10
12.2949101208
 20
2.530827337
 40
0.0024749995
100
AcDbArc
 50
89.9999571957
 51
180.0000428043
  0
LINE
  5
245
100
AcDbEntity
  8
0
100
AcDbLine
 62
2
  6
CONTINUOUS
 10
12.2949101227
 20
2.5333023366
 11
12.3362731456
 21
2.5333023366
  0
ARC
  5
246
100
AcDbEntity
  8
0
100
AcDbCircle
 62
2
  6
CONTINUOUS
 10
12.3362731456
 20
2.5246398318
 40
0.0086625048
100
AcDbArc
 50
270.0
 51
90.0
  0
LINE
  5
247
100
AcDbEntity
  8
0
100
AcDbLine
 62
2
  6
CONTINUOUS
 10
12.3362731456
 20
2.515977327
 11
12.2949101227
 21
2.515977327
  0
ARC
  5
248
100
AcDbEntity
  8
0
100
AcDbCircle
 62
2
  6
CONTINUOUS
 10
12.2949101208
 20
2.5184523265
 40
0.0024749995
100
AcDbArc
 50
179.9999571957
 51
270.0000428043
  0
ARC
  5
249
100
AcDbEntity
  8
0
100
AcDbCircle
 62
2
  6
CONTINUOUS
 10
13.5806801742
 20
2.5212486481
 40
0.044722495
100
AcDbArc
 50
195.531588407
 51
204.7624440448
  0
LINE
  5
24A
100
AcDbEntity
  8
0
100
AcDbLine
 62
2
  6
CONTINUOUS
 10
13.5375908118
 20
2.5092733232
 11
13.5357868108
 21
2.5153423266
  0
ARC
  5
24B
100
AcDbEntity
  8
0
100
AcDbCircle
 62
2
  6
CONTINUOUS
 10
13.4974076135
 20
2.5055452462
 40
0.0396099176
100
AcDbArc
 50
14.3201081283
 51
22.4984722084
  0
ARC
  5
24C
100
AcDbEntity
  8
0
100
AcDbCircle
 62
2
  6
CONTINUOUS
 10
13.5201739219
 20
2.5145168728
 40
0.0151491919
100
AcDbArc
 50
24.098260853
 51
63.0369451818
  0
ARC
  5
24D
100
AcDbEntity
  8
0
100
AcDbCircle
 62
2
  6
CONTINUOUS
 10
13.5161192671
 20
2.5062372524
 40
0.0243676582
100
AcDbArc
 50
63.3666028271
 51
90.3937697637
  0
LINE
  5
24E
100
AcDbEntity
  8
0
100
AcDbLine
 62
2
  6
CONTINUOUS
 10
13.5159517998
 20
2.5306043351
 11
13.4883447845
 21
2.5306043351
  0
ARC
  5
24F
100
AcDbEntity
  8
0
100
AcDbCircle
 62
2
  6
CONTINUOUS
 10
13.4883447827
 20
2.5281293355
 40
0.0024749995
100
AcDbArc
 50
89.9999571957
 51
180.0000428043
  0
LINE
  5
250
100
AcDbEntity
  8
0
100
AcDbLine
 62
2
  6
CONTINUOUS
 10
13.4858697831
 20
2.5281293337
 11
13.4858697831
 21
2.5184303283
  0
ARC
  5
251
100
AcDbEntity
  8
0
100
AcDbCircle
 62
2
  6
CONTINUOUS
 10
13.4883447827
 20
2.5184303265
 40
0.0024749995
100
AcDbArc
 50
179.9999571957
 51
270.0000428043
  0
LINE
  5
252
100
AcDbEntity
  8
0
100
AcDbLine
 62
2
  6
CONTINUOUS
 10
13.4883447845
 20
2.5159553269
 11
13.5130037982
 21
2.5159553269
  0
ARC
  5
253
100
AcDbEntity
  8
0
100
AcDbCircle
 62
2
  6
CONTINUOUS
 10
13.5130038
 20
2.5134803274
 40
0.0024749995
100
AcDbArc
 50
359.9999571957
 51
90.0000428043
  0
LINE
  5
254
100
AcDbEntity
  8
0
100
AcDbLine
 62
2
  6
CONTINUOUS
 10
13.5154787995
 20
2.5134803256
 11
13.5154787995
 21
2.4937023146
  0
ARC
  5
255
100
AcDbEntity
  8
0
100
AcDbCircle
 62
2
  6
CONTINUOUS
 10
13.5130038
 20
2.4937023128
 40
0.0024749995
100
AcDbArc
 50
269.9999571957
 51
0.0000428043
  0
LINE
  5
256
100
AcDbEntity
  8
0
100
AcDbLine
 62
2
  6
CONTINUOUS
 10
13.5130037982
 20
2.4912273132
 11
13.3994327352
 21
2.4912273132
  0
ARC
  5
257
100
AcDbEntity
  8
0
100
AcDbCircle
 62
2
  6
CONTINUOUS
 10
13.3994327333
 20
2.4937023128
 40
0.0024749995
100
AcDbArc
 50
179.9999571957
 51
270.0000428043
  0
LINE
  5
258
100
AcDbEntity
  8
0
100
AcDbLine
 62
2
  6
CONTINUOUS
 10
13.3969577338
 20
2.4937023146
 11
13.3969577338
 21
2.5135023256
  0
ARC
  5
259
100
AcDbEntity
  8
0
100
AcDbCircle
 62
2
  6
CONTINUOUS
 10
13.3994327333
 20
2.5135023274
 40
0.0024749995
100
AcDbArc
 50
89.9999571957
 51
180.0000428043
  0
LINE
  5
25A
100
AcDbEntity
  8
0
100
AcDbLine
 62
2
  6
CONTINUOUS
 10
13.3994327352
 20
2.515977327
 11
13.4221787478
 21
2.515977327
  0
ARC
  5
25B
100
AcDbEntity
  8
0
100
AcDbCircle
 62
2
  6
CONTINUOUS
 10
13.4221787497
 20
2.5184523265
 40
0.0024749995
100
AcDbArc
 50
269.9999571957
 51
0.0000428042
  0
LINE
  5
25C
100
AcDbEntity
  8
0
100
AcDbLine
 62
2
  6
CONTINUOUS
 10
13.4246537492
 20
2.5184523283
 11
13.4246537492
 21
2.564807354
  0
ARC
  5
25D
100
AcDbEntity
  8
0
100
AcDbCircle
 62
2
  6
CONTINUOUS
 10
13.4221787497
 20
2.5648073559
 40
0.0024749995
100
AcDbArc
 50
359.9999571957
 51
90.0000428043
  0
LINE
  5
25E
100
AcDbEntity
  8
0
100
AcDbLine
 62
2
  6
CONTINUOUS
 10
13.4221787478
 20
2.5672823554
 11
13.3994327352
 21
2.5672823554
  0
ARC
  5
25F
100
AcDbEntity
  8
0
100
AcDbCircle
 62
2
  6
CONTINUOUS
 10
13.3994327333
 20
2.5697573549
 40
0.0024749995
100
AcDbArc
 50
179.9999571957
 51
270.0000428043
  0
LINE
  5
260
100
AcDbEntity
  8
0
100
AcDbLine
 62
2
  6
CONTINUOUS
 10
13.3969577338
 20
2.5697573568
 11
13.3969577338
 21
2.5895573678
  0
ARC
  5
261
100
AcDbEntity
  8
0
100
AcDbCircle
 62
2
  6
CONTINUOUS
 10
13.3994327333
 20
2.5895573696
 40
0.0024749995
100
AcDbArc
 50
89.9999571957
 51
180.0000428043
  0
LINE
  5
262
100
AcDbEntity
  8
0
100
AcDbLine
 62
2
  6
CONTINUOUS
 10
13.3994327352
 20
2.5920323691
 11
13.5490138181
 21
2.5920323691
  0
ARC
  5
263
100
AcDbEntity
  8
0
100
AcDbCircle
 62
2
  6
CONTINUOUS
 10
13.5463505148
 20
2.4094934586
 40
0.1825583387
100
AcDbArc
 50
79.8618509324
 51
89.1640948679
  0
ARC
  5
264
100
AcDbEntity
  8
0
100
AcDbCircle
 62
2
  6
CONTINUOUS
 10
13.5726548052
 20
2.5503169747
 40
0.039319019
100
AcDbArc
 50
59.1202086415
 51
81.4730239328
  0
ARC
  5
265
100
AcDbEntity
  8
0
100
AcDbCircle
 62
2
  6
CONTINUOUS
 10
13.5783142014
 20
2.5566516438
 40
0.0310192946
100
AcDbArc
 50
34.7540871
 51
62.0879016178
  0
ARC
  5
266
100
AcDbEntity
  8
0
100
AcDbCircle
 62
2
  6
CONTINUOUS
 10
13.5900029525
 20
2.565201245
 40
0.0165459396
100
AcDbArc
 50
1.548452892
 51
33.5033152417
  0
ARC
  5
267
100
AcDbEntity
  8
0
100
AcDbCircle
 62
2
  6
CONTINUOUS
 10
13.5932995477
 20
2.5653696972
 40
0.0132462337
100
AcDbArc
 50
331.1510006998
 51
1.205404301
  0
ARC
  5
268
100
AcDbEntity
  8
0
100
AcDbCircle
 62
2
  6
CONTINUOUS
 10
13.5822888914
 20
2.5720482849
 40
0.0261183659
100
AcDbArc
 50
305.6373831893
 51
329.9727629745
  0
ARC
  5
269
100
AcDbEntity
  8
0
100
AcDbCircle
 62
2
  6
CONTINUOUS
 10
13.5519569538
 20
2.6152551345
 40
0.0789082104
100
AcDbArc
 50
292.906155071
 51
305.2574666259
  0
ARC
  5
26A
100
AcDbEntity
  8
0
100
AcDbCircle
 62
2
  6
CONTINUOUS
 10
13.5282557878
 20
2.4386010294
 40
0.117346916
100
AcDbArc
 50
58.614769177
 51
62.3737227606
  0
ARC
  5
26B
100
AcDbEntity
  8
0
100
AcDbCircle
 62
2
  6
CONTINUOUS
 10
13.5761387404
 20
2.5167282896
 40
0.0257145923
100
AcDbArc
 50
39.3804255939
 51
59.0361096173
  0
ARC
  5
26C
100
AcDbEntity
  8
0
100
AcDbCircle
 62
2
  6
CONTINUOUS
 10
13.5750183849
 20
2.5166552064
 40
0.0266349791
100
AcDbArc
 50
20.3630922153
 51
37.9727053099
  0
ARC
  5
26D
100
AcDbEntity
  8
0
100
AcDbCircle
 62
2
  6
CONTINUOUS
 10
13.5571178432
 20
2.509473798
 40
0.0459185159
100
AcDbArc
 50
15.6740290068
 51
20.9917271228
  0
ARC
  5
26E
100
AcDbEntity
  8
0
100
AcDbCircle
 62
2
  6
CONTINUOUS
 10
13.6156881783
 20
2.525116781
 40
0.0147197649
100
AcDbArc
 50
192.7054516565
 51
206.0594861022
  0
ARC
  5
26F
100
AcDbEntity
  8
0
100
AcDbCircle
 62
2
  6
CONTINUOUS
 10
13.6071938412
 20
2.5209082945
 40
0.0052403997
100
AcDbArc
 50
205.5232099488
 51
227.5054868079
  0
ARC
  5
270
100
AcDbEntity
  8
0
100
AcDbCircle
 62
2
  6
CONTINUOUS
 10
13.6054655419
 20
2.5190929218
 40
0.0027347709
100
AcDbArc
 50
228.5117626737
 51
266.1485845754
  0
LINE
  5
271
100
AcDbEntity
  8
0
100
AcDbLine
 62
2
  6
CONTINUOUS
 10
13.6052818493
 20
2.5163643272
 11
13.60639085
 21
2.5163643272
  0
ARC
  5
272
100
AcDbEntity
  8
0
100
AcDbCircle
 62
2
  6
CONTINUOUS
 10
13.6063292954
 20
2.5296129864
 40
0.0132488022
100
AcDbArc
 50
270.266200055
 51
281.2404888597
  0
ARC
  5
273
100
AcDbEntity
  8
0
100
AcDbCircle
 62
2
  6
CONTINUOUS
 10
13.6075235364
 20
2.5238762928
 40
0.0073895522
100
AcDbArc
 50
280.8288201977
 51
305.0837508495
  0
ARC
  5
274
100
AcDbEntity
  8
0
100
AcDbCircle
 62
2
  6
CONTINUOUS
 10
13.607924718
 20
2.5230254464
 40
0.0064647042
100
AcDbArc
 50
306.5086174083
 51
340.2162360092
  0
ARC
  5
275
100
AcDbEntity
  8
0
100
AcDbCircle
 62
2
  6
CONTINUOUS
 10
13.6027235414
 20
2.524769508
 40
0.0119498009
100
AcDbArc
 50
340.7883861657
 51
1.1691452593
  0
LINE
  5
276
100
AcDbEntity
  8
0
100
AcDbLine
 62
2
  6
CONTINUOUS
 10
13.6146708546
 20
2.525013332
 11
13.6146708546
 21
2.5276393334
  0
ARC
  5
277
100
AcDbEntity
  8
0
100
AcDbCircle
 62
2
  6
CONTINUOUS
 10
13.6171458541
 20
2.5276393353
 40
0.0024749995
100
AcDbArc
 50
89.9999571957
 51
180.0000428043
  0
LINE
  5
278
100
AcDbEntity
  8
0
100
AcDbLine
 62
2
  6
CONTINUOUS
 10
13.6171458559
 20
2.5301143348
 11
13.6292558626
 21
2.5301143348
  0
ARC
  5
279
100
AcDbEntity
  8
0
100
AcDbCircle
 62
2
  6
CONTINUOUS
 10
13.6292558645
 20
2.5276393353
 40
0.0024749995
100
AcDbArc
 50
359.9999571957
 51
90.0000428043
  0
LINE
  5
27A
100
AcDbEntity
  8
0
100
AcDbLine
 62
2
  6
CONTINUOUS
 10
13.631730864
 20
2.5276393334
 11
13.631730864
 21
2.516087327
  0
ARC
  5
27B
100
AcDbEntity
  8
0
100
AcDbCircle
 62
2
  6
CONTINUOUS
 10
13.6141751675
 20
2.5161916447
 40
0.0175560065
100
AcDbArc
 50
332.2279060967
 51
359.6595469939
  0
ARC
  5
27C
100
AcDbEntity
  8
0
100
AcDbCircle
 62
2
  6
CONTINUOUS
 10
13.6048681567
 20
2.5210861501
 40
0.0280715479
100
AcDbArc
 50
308.5071794988
 51
332.2400656899
  0
ARC
  5
27D
100
AcDbEntity
  8
0
100
AcDbCircle
 62
2
  6
CONTINUOUS
 10
13.5978759713
 20
2.5286873679
 40
0.0383802683
100
AcDbArc
 50
288.7656836787
 51
309.6104317088
  0
ARC
  5
27E
100
AcDbEntity
  8
0
100
AcDbCircle
 62
2
  6
CONTINUOUS
 10
13.6036139387
 20
2.5111006186
 40
0.0198837666
100
AcDbArc
 50
271.8586572978
 51
289.4131338543
  0
LINE
  5
27F
100
AcDbEntity
  8
0
100
AcDbLine
 62
2
  6
CONTINUOUS
 10
13.6042588488
 20
2.4912273132
 11
13.5568948225
 21
2.4912273132
  0
ARC
  5
280
100
AcDbEntity
  8
0
100
AcDbCircle
 62
2
  6
CONTINUOUS
 10
13.5577001432
 20
2.5085494649
 40
0.0173408616
100
AcDbArc
 50
232.4713476722
 51
267.338189944
  0
ARC
  5
281
100
AcDbEntity
  8
0
100
AcDbCircle
 62
2
  6
CONTINUOUS
 10
13.5607987082
 20
2.5143997688
 40
0.0238935861
100
AcDbArc
 50
209.8247607259
 51
235.1255079367
  0
ARC
  5
282
100
AcDbEntity
  8
0
100
AcDbCircle
 62
2
  6
CONTINUOUS
 10
13.5295131508
 20
2.5629115009
 40
0.0110815393
100
AcDbArc
 50
306.758405961
 51
320.4502234234
  0
ARC
  5
283
100
AcDbEntity
  8
0
100
AcDbCircle
 62
2
  6
CONTINUOUS
 10
13.5238839599
 20
2.5706523294
 40
0.0206523367
100
AcDbArc
 50
289.6883413472
 51
306.4184925496
  0
ARC
  5
284
100
AcDbEntity
  8
0
100
AcDbCircle
 62
2
  6
CONTINUOUS
 10
13.5219564542
 20
2.5750459767
 40
0.0254407115
100
AcDbArc
 50
270.7327484175
 51
290.441894219
  0
LINE
  5
285
100
AcDbEntity
  8
0
100
AcDbLine
 62
2
  6
CONTINUOUS
 10
13.5222818033
 20
2.5496073456
 11
13.4883447845
 21
2.5496073456
  0
ARC
  5
286
100
AcDbEntity
  8
0
100
AcDbCircle
 62
2
  6
CONTINUOUS
 10
13.4883447827
 20
2.5520823451
 40
0.0024749995
100
AcDbArc
 50
179.9999571957
 51
270.0000428043
  0
LINE
  5
287
100
AcDbEntity
  8
0
100
AcDbLine
 62
2
  6
CONTINUOUS
 10
13.4858697831
 20
2.552082347
 11
13.4858697831
 21
2.564807354
  0
ARC
  5
288
100
AcDbEntity
  8
0
100
AcDbCircle
 62
2
  6
CONTINUOUS
 10
13.4883447827
 20
2.5648073559
 40
0.0024749995
100
AcDbArc
 50
89.9999571957
 51
180.0000428043
  0
LINE
  5
289
100
AcDbEntity
  8
0
100
AcDbLine
 62
2
  6
CONTINUOUS
 10
13.4883447845
 20
2.5672823554
 11
13.5251458049
 21
2.5672823554
  0
ARC
  5
28A
100
AcDbEntity
  8
0
100
AcDbCircle
 62
2
  6
CONTINUOUS
 10
13.5236009174
 20
2.5388278764
 40
0.0284963867
100
AcDbArc
 50
70.3834917948
 51
86.8922743861
  0
ARC
  5
28B
100
AcDbEntity
  8
0
100
AcDbCircle
 62
2
  6
CONTINUOUS
 10
13.5284605274
 20
2.5518696094
 40
0.0145814632
100
AcDbArc
 50
54.6746025112
 51
71.1660573124
  0
ARC
  5
28C
100
AcDbEntity
  8
0
100
AcDbCircle
 62
2
  6
CONTINUOUS
 10
13.5335900184
 20
2.5587235346
 40
0.0060275915
100
AcDbArc
 50
20.9055592135
 51
56.7851676243
  0
ARC
  5
28D
100
AcDbEntity
  8
0
100
AcDbCircle
 62
2
  6
CONTINUOUS
 10
13.5348905773
 20
2.5593838168
 40
0.0045795888
100
AcDbArc
 50
355.6235353944
 51
18.9942678268
  0
ARC
  5
28E
100
AcDbEntity
  8
0
100
AcDbCircle
 62
2
  6
CONTINUOUS
 10
13.533683767
 20
2.559677593
 40
0.0058087709
100
AcDbArc
 50
318.8515287446
 51
353.6422345323
  0
LINE
  5
28F
100
AcDbEntity
  8
0
100
AcDbLine
 62
2
  6
CONTINUOUS
 10
12.672340332
 20
2.5920323691
 11
12.7727983877
 21
2.5920323691
  0
ARC
  5
290
100
AcDbEntity
  8
0
100
AcDbCircle
 62
2
  6
CONTINUOUS
 10
12.7727985224
 20
2.5895582013
 40
0.0024741678
100
AcDbArc
 50
46.3477981899
 51
90.0031206038
  0
LINE
  5
291
100
AcDbEntity
  8
0
100
AcDbLine
 62
2
  6
CONTINUOUS
 10
12.7745063886
 20
2.5913483688
 11
12.8345394219
 21
2.534068337
  0
ARC
  5
292
100
AcDbEntity
  8
0
100
AcDbCircle
 62
2
  6
CONTINUOUS
 10
12.8362481229
 20
2.5358592748
 40
0.0024753014
100
AcDbArc
 50
226.3461263059
 51
0.0014637321
  0
LINE
  5
293
100
AcDbEntity
  8
0
100
AcDbLine
 62
2
  6
CONTINUOUS
 10
12.8387234242
 20
2.535859338
 11
12.8387234242
 21
2.564807354
  0
ARC
  5
294
100
AcDbEntity
  8
0
100
AcDbCircle
 62
2
  6
CONTINUOUS
 10
12.8362484247
 20
2.5648073559
 40
0.0024749995
100
AcDbArc
 50
359.9999571957
 51
90.0000428043
  0
LINE
  5
295
100
AcDbEntity
  8
0
100
AcDbLine
 62
2
  6
CONTINUOUS
 10
12.8362484229
 20
2.5672823554
 11
12.8174724125
 21
2.5672823554
  0
ARC
  5
296
100
AcDbEntity
  8
0
100
AcDbCircle
 62
2
  6
CONTINUOUS
 10
12.8174724106
 20
2.5697573549
 40
0.0024749995
100
AcDbArc
 50
179.9999571957
 51
270.0000428043
  0
LINE
  5
297
100
AcDbEntity
  8
0
100
AcDbLine
 62
2
  6
CONTINUOUS
 10
12.8149974111
 20
2.5697573568
 11
12.8149974111
 21
2.5895573678
  0
ARC
  5
298
100
AcDbEntity
  8
0
100
AcDbCircle
 62
2
  6
CONTINUOUS
 10
12.8174724106
 20
2.5895573696
 40
0.0024749995
100
AcDbArc
 50
89.9999571957
 51
180.0000428043
  0
LINE
  5
299
100
AcDbEntity
  8
0
100
AcDbLine
 62
2
  6
CONTINUOUS
 10
12.8174724125
 20
2.5920323691
 11
12.8914734535
 21
2.5920323691
  0
ARC
  5
29A
100
AcDbEntity
  8
0
100
AcDbCircle
 62
2
  6
CONTINUOUS
 10
12.8914734553
 20
2.5895573696
 40
0.0024749995
100
AcDbArc
 50
359.9999571957
 51
90.0000428043
  0
LINE
  5
29B
100
AcDbEntity
  8
0
100
AcDbLine
 62
2
  6
CONTINUOUS
 10
12.8939484549
 20
2.5895573678
 11
12.8939484549
 21
2.5697573568
  0
ARC
  5
29C
100
AcDbEntity
  8
0
100
AcDbCircle
 62
2
  6
CONTINUOUS
 10
12.8914734553
 20
2.5697573549
 40
0.0024749995
100
AcDbArc
 50
269.9999571957
 51
0.0000428043
  0
LINE
  5
29D
100
AcDbEntity
  8
0
100
AcDbLine
 62
2
  6
CONTINUOUS
 10
12.8914734535
 20
2.5672823554
 11
12.8735404436
 21
2.5672823554
  0
ARC
  5
29E
100
AcDbEntity
  8
0
100
AcDbCircle
 62
2
  6
CONTINUOUS
 10
12.8735404417
 20
2.5648073559
 40
0.0024749995
100
AcDbArc
 50
89.9999571957
 51
180.0000428043
  0
LINE
  5
29F
100
AcDbEntity
  8
0
100
AcDbLine
 62
2
  6
CONTINUOUS
 10
12.8710654422
 20
2.564807354
 11
12.8710654422
 21
2.4937023146
  0
ARC
  5
2A0
100
AcDbEntity
  8
0
100
AcDbCircle
 62
2
  6
CONTINUOUS
 10
12.8685904427
 20
2.4937023128
 40
0.0024749995
100
AcDbArc
 50
269.9999571957
 51
0.0000428043
  0
LINE
  5
2A1
100
AcDbEntity
  8
0
100
AcDbLine
 62
2
  6
CONTINUOUS
 10
12.8685904408
 20
2.4912273132
 11
12.7943853997
 21
2.4912273132
  0
ARC
  5
2A2
100
AcDbEntity
  8
0
100
AcDbCircle
 62
2
  6
CONTINUOUS
 10
12.7943847649
 20
2.4937027294
 40
0.0024754162
100
AcDbArc
 50
226.3593695813
 51
270.0146919953
  0
LINE
  5
2A3
100
AcDbEntity
  8
0
100
AcDbLine
 62
2
  6
CONTINUOUS
 10
12.7926763987
 20
2.4919113136
 11
12.7293963636
 21
2.5522893471
  0
ARC
  5
2A4
100
AcDbEntity
  8
0
100
AcDbCircle
 62
2
  6
CONTINUOUS
 10
12.7276876627
 20
2.5504984093
 40
0.0024753014
100
AcDbArc
 50
46.3461263059
 51
180.0014637321
  0
LINE
  5
2A5
100
AcDbEntity
  8
0
100
AcDbLine
 62
2
  6
CONTINUOUS
 10
12.7252123613
 20
2.5504983461
 11
12.7252123613
 21
2.5184523283
  0
ARC
  5
2A6
100
AcDbEntity
  8
0
100
AcDbCircle
 62
2
  6
CONTINUOUS
 10
12.7276873608
 20
2.5184523265
 40
0.0024749995
100
AcDbArc
 50
179.9999571957
 51
270.0000428043
  0
LINE
  5
2A7
100
AcDbEntity
  8
0
100
AcDbLine
 62
2
  6
CONTINUOUS
 10
12.7276873627
 20
2.515977327
 11
12.7480043739
 21
2.515977327
  0
ARC
  5
2A8
100
AcDbEntity
  8
0
100
AcDbCircle
 62
2
  6
CONTINUOUS
 10
12.7480043758
 20
2.5135023274
 40
0.0024749995
100
AcDbArc
 50
359.9999571957
 51
90.0000428043
  0
LINE
  5
2A9
100
AcDbEntity
  8
0
100
AcDbLine
 62
2
  6
CONTINUOUS
 10
12.7504793753
 20
2.5135023256
 11
12.7504793753
 21
2.4937023146
  0
ARC
  5
2AA
100
AcDbEntity
  8
0
100
AcDbCircle
 62
2
  6
CONTINUOUS
 10
12.7480043758
 20
2.4937023128
 40
0.0024749995
100
AcDbArc
 50
269.9999571957
 51
0.0000428043
  0
LINE
  5
2AB
100
AcDbEntity
  8
0
100
AcDbLine
 62
2
  6
CONTINUOUS
 10
12.7480043739
 20
2.4912273132
 11
12.672340332
 21
2.4912273132
  0
ARC
  5
2AC
100
AcDbEntity
  8
0
100
AcDbCircle
 62
2
  6
CONTINUOUS
 10
12.6723403301
 20
2.4937023128
 40
0.0024749995
100
AcDbArc
 50
179.9999571957
 51
270.0000428043
  0
LINE
  5
2AD
100
AcDbEntity
  8
0
100
AcDbLine
 62
2
  6
CONTINUOUS
 10
12.6698653306
 20
2.4937023146
 11
12.6698653306
 21
2.5135023256
  0
ARC
  5
2AE
100
AcDbEntity
  8
0
100
AcDbCircle
 62
2
  6
CONTINUOUS
 10
12.6723403301
 20
2.5135023274
 40
0.0024749995
100
AcDbArc
 50
89.9999571957
 51
180.0000428043
  0
LINE
  5
2AF
100
AcDbEntity
  8
0
100
AcDbLine
 62
2
  6
CONTINUOUS
 10
12.672340332
 20
2.515977327
 11
12.6909873423
 21
2.515977327
  0
ARC
  5
2B0
100
AcDbEntity
  8
0
100
AcDbCircle
 62
2
  6
CONTINUOUS
 10
12.6909873442
 20
2.5184523265
 40
0.0024749995
100
AcDbArc
 50
269.9999571957
 51
0.0000428043
  0
LINE
  5
2B1
100
AcDbEntity
  8
0
100
AcDbLine
 62
2
  6
CONTINUOUS
 10
12.6934623437
 20
2.5184523283
 11
12.6934623437
 21
2.564807354
  0
ARC
  5
2B2
100
AcDbEntity
  8
0
100
AcDbCircle
 62
2
  6
CONTINUOUS
 10
12.6909873442
 20
2.5648073559
 40
0.0024749995
100
AcDbArc
 50
359.9999571957
 51
90.0000428043
  0
LINE
  5
2B3
100
AcDbEntity
  8
0
100
AcDbLine
 62
2
  6
CONTINUOUS
 10
12.6909873423
 20
2.5672823554
 11
12.672340332
 21
2.5672823554
  0
ARC
  5
2B4
100
AcDbEntity
  8
0
100
AcDbCircle
 62
2
  6
CONTINUOUS
 10
12.6723403301
 20
2.5697573549
 40
0.0024749995
100
AcDbArc
 50
179.9999571957
 51
270.0000428043
  0
LINE
  5
2B5
100
AcDbEntity
  8
0
100
AcDbLine
 62
2
  6
CONTINUOUS
 10
12.6698653306
 20
2.5697573568
 11
12.6698653306
 21
2.5895573678
  0
ARC
  5
2B6
100
AcDbEntity
  8
0
100
AcDbCircle
 62
2
  6
CONTINUOUS
 10
12.6723403301
 20
2.5895573696
 40
0.0024749995
100
AcDbArc
 50
89.9999571957
 51
180.0000428043
  0
LINE
  5
2B7
100
AcDbEntity
  8
0
100
AcDbLine
 62
2
  6
CONTINUOUS
 10
12.5246402501
 20
2.5655893545
 11
12.5175232461
 21
2.5543723483
  0
ARC
  5
2B8
100
AcDbEntity
  8
0
100
AcDbCircle
 62
2
  6
CONTINUOUS
 10
12.519613138
 20
2.5530463862
 40
0.0024750401
100
AcDbArc
 50
147.6063258012
 51
270.0025305754
  0
LINE
  5
2B9
100
AcDbEntity
  8
0
100
AcDbLine
 62
2
  6
CONTINUOUS
 10
12.5196132473
 20
2.5505713461
 11
12.5401702587
 21
2.5505713461
  0
ARC
  5
2BA
100
AcDbEntity
  8
0
100
AcDbCircle
 62
2
  6
CONTINUOUS
 10
12.5401702375
 20
2.5530465533
 40
0.0024752071
100
AcDbArc
 50
270.0004896793
 51
32.9089806818
  0
LINE
  5
2BB
100
AcDbEntity
  8
0
100
AcDbLine
 62
2
  6
CONTINUOUS
 10
12.5422482598
 20
2.5543913483
 11
12.5349892558
 21
2.5656073545
  0
ARC
  5
2BC
100
AcDbEntity
  8
0
100
AcDbCircle
 62
2
  6
CONTINUOUS
 10
12.532910715
 20
2.564262895
 40
0.0024754602
100
AcDbArc
 50
32.8959418573
 51
89.9875097202
  0
LINE
  5
2BD
100
AcDbEntity
  8
0
100
AcDbLine
 62
2
  6
CONTINUOUS
 10
12.5329112547
 20
2.5667383551
 11
12.5267302512
 21
2.5667383551
  0
ARC
  5
2BE
100
AcDbEntity
  8
0
100
AcDbCircle
 62
2
  6
CONTINUOUS
 10
12.5267301809
 20
2.5642631548
 40
0.0024752003
100
AcDbArc
 50
89.998372645
 51
147.602165307
  0
LINE
  5
2BF
100
AcDbEntity
  8
0
100
AcDbLine
 62
2
  6
CONTINUOUS
 10
12.548053263
 20
2.5284903339
 11
12.5536792662
 21
2.5197973291
  0
ARC
  5
2C0
100
AcDbEntity
  8
0
100
AcDbCircle
 62
2
  6
CONTINUOUS
 10
12.5516012439
 20
2.5184525341
 40
0.0024752071
100
AcDbArc
 50
270.0004896794
 51
32.9089806818
  0
LINE
  5
2C1
100
AcDbEntity
  8
0
100
AcDbLine
 62
2
  6
CONTINUOUS
 10
12.551601265
 20
2.515977327
 11
12.537150257
 21
2.515977327
  0
ARC
  5
2C2
100
AcDbEntity
  8
0
100
AcDbCircle
 62
2
  6
CONTINUOUS
 10
12.5371502552
 20
2.5135023274
 40
0.0024749995
100
AcDbArc
 50
89.9999571957
 51
180.0000428043
  0
LINE
  5
2C3
100
AcDbEntity
  8
0
100
AcDbLine
 62
2
  6
CONTINUOUS
 10
12.5346752556
 20
2.5135023256
 11
12.5346752556
 21
2.4937023146
  0
ARC
  5
2C4
100
AcDbEntity
  8
0
100
AcDbCircle
 62
2
  6
CONTINUOUS
 10
12.5371502552
 20
2.4937023128
 40
0.0024749995
100
AcDbArc
 50
179.9999571957
 51
270.0000428043
  0
LINE
  5
2C5
100
AcDbEntity
  8
0
100
AcDbLine
 62
2
  6
CONTINUOUS
 10
12.537150257
 20
2.4912273132
 11
12.6424313154
 21
2.4912273132
  0
ARC
  5
2C6
100
AcDbEntity
  8
0
100
AcDbCircle
 62
2
  6
CONTINUOUS
 10
12.6424313172
 20
2.4937023128
 40
0.0024749995
100
AcDbArc
 50
269.9999571957
 51
0.0000428043
  0
LINE
  5
2C7
100
AcDbEntity
  8
0
100
AcDbLine
 62
2
  6
CONTINUOUS
 10
12.6449063168
 20
2.4937023146
 11
12.6449063168
 21
2.5135023256
  0
ARC
  5
2C8
100
AcDbEntity
  8
0
100
AcDbCircle
 62
2
  6
CONTINUOUS
 10
12.6424313172
 20
2.5135023274
 40
0.0024749995
100
AcDbArc
 50
359.9999571957
 51
90.0000428043
  0
LINE
  5
2C9
100
AcDbEntity
  8
0
100
AcDbLine
 62
2
  6
CONTINUOUS
 10
12.6424313154
 20
2.515977327
 11
12.6224153043
 21
2.515977327
  0
ARC
  5
2CA
100
AcDbEntity
  8
0
100
AcDbCircle
 62
2
  6
CONTINUOUS
 10
12.6224154248
 20
2.518451368
 40
0.002474041
100
AcDbArc
 50
212.9056413127
 51
269.9972091756
  0
LINE
  5
2CB
100
AcDbEntity
  8
0
100
AcDbLine
 62
2
  6
CONTINUOUS
 10
12.6203383031
 20
2.5171073276
 11
12.5725822767
 21
2.5909023685
  0
ARC
  5
2CC
100
AcDbEntity
  8
0
100
AcDbCircle
 62
2
  6
CONTINUOUS
 10
12.570504655
 20
2.589557409
 40
0.0024749602
100
AcDbArc
 50
32.9172174468
 51
90.0087853097
  0
LINE
  5
2CD
100
AcDbEntity
  8
0
100
AcDbLine
 62
2
  6
CONTINUOUS
 10
12.5705042755
 20
2.5920323691
 11
12.5133292438
 21
2.5920323691
  0
ARC
  5
2CE
100
AcDbEntity
  8
0
100
AcDbCircle
 62
2
  6
CONTINUOUS
 10
12.5133291735
 20
2.5895571688
 40
0.0024752003
100
AcDbArc
 50
89.9983726451
 51
147.602165307
  0
LINE
  5
2CF
100
AcDbEntity
  8
0
100
AcDbLine
 62
2
  6
CONTINUOUS
 10
12.5112392426
 20
2.5908833685
 11
12.4644392167
 21
2.5171263276
  0
ARC
  5
2D0
100
AcDbEntity
  8
0
100
AcDbCircle
 62
2
  6
CONTINUOUS
 10
12.4623492858
 20
2.5184525273
 40
0.0024752003
100
AcDbArc
 50
269.9983726451
 51
327.602165307
  0
LINE
  5
2D1
100
AcDbEntity
  8
0
100
AcDbLine
 62
2
  6
CONTINUOUS
 10
12.4623492155
 20
2.515977327
 11
12.4394882028
 21
2.515977327
  0
ARC
  5
2D2
100
AcDbEntity
  8
0
100
AcDbCircle
 62
2
  6
CONTINUOUS
 10
12.439488201
 20
2.5135023274
 40
0.0024749995
100
AcDbArc
 50
89.9999571957
 51
180.0000428043
  0
LINE
  5
2D3
100
AcDbEntity
  8
0
100
AcDbLine
 62
2
  6
CONTINUOUS
 10
12.4370132015
 20
2.5135023256
 11
12.4370132015
 21
2.4937023146
  0
ARC
  5
2D4
100
AcDbEntity
  8
0
100
AcDbCircle
 62
2
  6
CONTINUOUS
 10
12.439488201
 20
2.4937023128
 40
0.0024749995
100
AcDbArc
 50
179.9999571957
 51
270.0000428043
  0
LINE
  5
2D5
100
AcDbEntity
  8
0
100
AcDbLine
 62
2
  6
CONTINUOUS
 10
12.4394882028
 20
2.4912273132
 11
12.5168642458
 21
2.4912273132
  0
ARC
  5
2D6
100
AcDbEntity
  8
0
100
AcDbCircle
 62
2
  6
CONTINUOUS
 10
12.5168642476
 20
2.4937023128
 40
0.0024749995
100
AcDbArc
 50
269.9999571957
 51
0.0000428043
  0
LINE
  5
2D7
100
AcDbEntity
  8
0
100
AcDbLine
 62
2
  6
CONTINUOUS
 10
12.5193392471
 20
2.4937023146
 11
12.5193392471
 21
2.5135023256
  0
ARC
  5
2D8
100
AcDbEntity
  8
0
100
AcDbCircle
 62
2
  6
CONTINUOUS
 10
12.5168642476
 20
2.5135023274
 40
0.0024749995
100
AcDbArc
 50
359.9999571957
 51
90.0000428043
  0
LINE
  5
2D9
100
AcDbEntity
  8
0
100
AcDbLine
 62
2
  6
CONTINUOUS
 10
12.5168642458
 20
2.515977327
 11
12.5055812395
 21
2.515977327
  0
ARC
  5
2DA
100
AcDbEntity
  8
0
100
AcDbCircle
 62
2
  6
CONTINUOUS
 10
12.5055811302
 20
2.518452367
 40
0.0024750401
100
AcDbArc
 50
147.6063258011
 51
270.0025305754
  0
LINE
  5
2DB
100
AcDbEntity
  8
0
100
AcDbLine
 62
2
  6
CONTINUOUS
 10
12.5034912383
 20
2.5197783291
 11
12.5090072414
 21
2.5284723339
  0
ARC
  5
2DC
100
AcDbEntity
  8
0
100
AcDbCircle
 62
2
  6
CONTINUOUS
 10
12.5110971723
 20
2.5271461342
 40
0.0024752003
100
AcDbArc
 50
89.998372645
 51
147.602165307
  0
LINE
  5
2DD
100
AcDbEntity
  8
0
100
AcDbLine
 62
2
  6
CONTINUOUS
 10
12.5110972426
 20
2.5296213345
 11
12.5459752619
 21
2.5296213345
  0
ARC
  5
2DE
100
AcDbEntity
  8
0
100
AcDbCircle
 62
2
  6
CONTINUOUS
 10
12.5459747223
 20
2.5271458744
 40
0.0024754602
100
AcDbArc
 50
32.8959418573
 51
89.9875097202
  0
LINE
  5
2DF
100
AcDbEntity
  8
0
100
AcDbLine
 62
2
  6
CONTINUOUS
 10
12.9205934696
 20
2.5920323691
 11
13.0210515254
 21
2.5920323691
  0
ARC
  5
2E0
100
AcDbEntity
  8
0
100
AcDbCircle
 62
2
  6
CONTINUOUS
 10
13.0210516601
 20
2.5895582013
 40
0.0024741678
100
AcDbArc
 50
46.3477981899
 51
90.0031206038
  0
LINE
  5
2E1
100
AcDbEntity
  8
0
100
AcDbLine
 62
2
  6
CONTINUOUS
 10
13.0227595263
 20
2.5913483688
 11
13.0827925596
 21
2.534068337
  0
ARC
  5
2E2
100
AcDbEntity
  8
0
100
AcDbCircle
 62
2
  6
CONTINUOUS
 10
13.0845012605
 20
2.5358592748
 40
0.0024753014
100
AcDbArc
 50
226.3461263059
 51
0.0014637321
  0
LINE
  5
2E3
100
AcDbEntity
  8
0
100
AcDbLine
 62
2
  6
CONTINUOUS
 10
13.0869765619
 20
2.535859338
 11
13.0869765619
 21
2.564807354
  0
ARC
  5
2E4
100
AcDbEntity
  8
0
100
AcDbCircle
 62
2
  6
CONTINUOUS
 10
13.0845015624
 20
2.5648073559
 40
0.0024749995
100
AcDbArc
 50
359.9999571957
 51
90.0000428043
  0
LINE
  5
2E5
100
AcDbEntity
  8
0
100
AcDbLine
 62
2
  6
CONTINUOUS
 10
13.0845015605
 20
2.5672823554
 11
13.0657255501
 21
2.5672823554
  0
ARC
  5
2E6
100
AcDbEntity
  8
0
100
AcDbCircle
 62
2
  6
CONTINUOUS
 10
13.0657255483
 20
2.5697573549
 40
0.0024749995
100
AcDbArc
 50
179.9999571957
 51
270.0000428043
  0
LINE
  5
2E7
100
AcDbEntity
  8
0
100
AcDbLine
 62
2
  6
CONTINUOUS
 10
13.0632505488
 20
2.5697573568
 11
13.0632505488
 21
2.5895573678
  0
ARC
  5
2E8
100
AcDbEntity
  8
0
100
AcDbCircle
 62
2
  6
CONTINUOUS
 10
13.0657255483
 20
2.5895573696
 40
0.0024749995
100
AcDbArc
 50
89.9999571957
 51
180.0000428043
  0
LINE
  5
2E9
100
AcDbEntity
  8
0
100
AcDbLine
 62
2
  6
CONTINUOUS
 10
13.0657255501
 20
2.5920323691
 11
13.1397265912
 21
2.5920323691
  0
ARC
  5
2EA
100
AcDbEntity
  8
0
100
AcDbCircle
 62
2
  6
CONTINUOUS
 10
13.139726593
 20
2.5895573696
 40
0.0024749995
100
AcDbArc
 50
359.9999571957
 51
90.0000428043
  0
LINE
  5
2EB
100
AcDbEntity
  8
0
100
AcDbLine
 62
2
  6
CONTINUOUS
 10
13.1422015925
 20
2.5895573678
 11
13.1422015925
 21
2.5697573568
  0
ARC
  5
2EC
100
AcDbEntity
  8
0
100
AcDbCircle
 62
2
  6
CONTINUOUS
 10
13.139726593
 20
2.5697573549
 40
0.0024749995
100
AcDbArc
 50
269.9999571957
 51
0.0000428042
  0
LINE
  5
2ED
100
AcDbEntity
  8
0
100
AcDbLine
 62
2
  6
CONTINUOUS
 10
13.1397265912
 20
2.5672823554
 11
13.1217935812
 21
2.5672823554
  0
ARC
  5
2EE
100
AcDbEntity
  8
0
100
AcDbCircle
 62
2
  6
CONTINUOUS
 10
13.1217935794
 20
2.5648073559
 40
0.0024749995
100
AcDbArc
 50
89.9999571957
 51
180.0000428042
  0
LINE
  5
2EF
100
AcDbEntity
  8
0
100
AcDbLine
 62
2
  6
CONTINUOUS
 10
13.1193185799
 20
2.564807354
 11
13.1193185799
 21
2.4937023146
  0
ARC
  5
2F0
100
AcDbEntity
  8
0
100
AcDbCircle
 62
2
  6
CONTINUOUS
 10
13.1168435803
 20
2.4937023128
 40
0.0024749995
100
AcDbArc
 50
269.9999571957
 51
0.0000428043
  0
LINE
  5
2F1
100
AcDbEntity
  8
0
100
AcDbLine
 62
2
  6
CONTINUOUS
 10
13.1168435785
 20
2.4912273132
 11
13.0426375373
 21
2.4912273132
  0
ARC
  5
2F2
100
AcDbEntity
  8
0
100
AcDbCircle
 62
2
  6
CONTINUOUS
 10
13.0426374026
 20
2.493701481
 40
0.0024741678
100
AcDbArc
 50
226.3477981898
 51
270.0031206038
  0
LINE
  5
2F3
100
AcDbEntity
  8
0
100
AcDbLine
 62
2
  6
CONTINUOUS
 10
13.0409295364
 20
2.4919113136
 11
12.9776495013
 21
2.5522893471
  0
ARC
  5
2F4
100
AcDbEntity
  8
0
100
AcDbCircle
 62
2
  6
CONTINUOUS
 10
12.9759408003
 20
2.5504984093
 40
0.0024753014
100
AcDbArc
 50
46.3461263059
 51
180.0014637321
  0
LINE
  5
2F5
100
AcDbEntity
  8
0
100
AcDbLine
 62
2
  6
CONTINUOUS
 10
12.973465499
 20
2.5504983461
 11
12.973465499
 21
2.5184523283
  0
ARC
  5
2F6
100
AcDbEntity
  8
0
100
AcDbCircle
 62
2
  6
CONTINUOUS
 10
12.9759404985
 20
2.5184523265
 40
0.0024749995
100
AcDbArc
 50
179.9999571957
 51
270.0000428043
  0
LINE
  5
2F7
100
AcDbEntity
  8
0
100
AcDbLine
 62
2
  6
CONTINUOUS
 10
12.9759405003
 20
2.515977327
 11
12.9962575116
 21
2.515977327
  0
ARC
  5
2F8
100
AcDbEntity
  8
0
100
AcDbCircle
 62
2
  6
CONTINUOUS
 10
12.9962575135
 20
2.5135023274
 40
0.0024749995
100
AcDbArc
 50
359.9999571957
 51
90.0000428043
  0
LINE
  5
2F9
100
AcDbEntity
  8
0
100
AcDbLine
 62
2
  6
CONTINUOUS
 10
12.998732513
 20
2.5135023256
 11
12.998732513
 21
2.4937023146
  0
ARC
  5
2FA
100
AcDbEntity
  8
0
100
AcDbCircle
 62
2
  6
CONTINUOUS
 10
12.9962575135
 20
2.4937023128
 40
0.0024749995
100
AcDbArc
 50
269.9999571957
 51
0.0000428043
  0
LINE
  5
2FB
100
AcDbEntity
  8
0
100
AcDbLine
 62
2
  6
CONTINUOUS
 10
12.9962575116
 20
2.4912273132
 11
12.9205934696
 21
2.4912273132
  0
ARC
  5
2FC
100
AcDbEntity
  8
0
100
AcDbCircle
 62
2
  6
CONTINUOUS
 10
12.9205934678
 20
2.4937023128
 40
0.0024749995
100
AcDbArc
 50
179.9999571957
 51
270.0000428043
  0
LINE
  5
2FD
100
AcDbEntity
  8
0
100
AcDbLine
 62
2
  6
CONTINUOUS
 10
12.9181184683
 20
2.4937023146
 11
12.9181184683
 21
2.5135023256
  0
ARC
  5
2FE
100
AcDbEntity
  8
0
100
AcDbCircle
 62
2
  6
CONTINUOUS
 10
12.9205934678
 20
2.5135023274
 40
0.0024749995
100
AcDbArc
 50
89.9999571957
 51
180.0000428042
  0
LINE
  5
2FF
100
AcDbEntity
  8
0
100
AcDbLine
 62
2
  6
CONTINUOUS
 10
12.9205934696
 20
2.515977327
 11
12.93923948
 21
2.515977327
  0
ARC
  5
300
100
AcDbEntity
  8
0
100
AcDbCircle
 62
2
  6
CONTINUOUS
 10
12.9392394818
 20
2.5184523265
 40
0.0024749995
100
AcDbArc
 50
269.9999571957
 51
0.0000428043
  0
LINE
  5
301
100
AcDbEntity
  8
0
100
AcDbLine
 62
2
  6
CONTINUOUS
 10
12.9417144814
 20
2.5184523283
 11
12.9417144814
 21
2.564807354
  0
ARC
  5
302
100
AcDbEntity
  8
0
100
AcDbCircle
 62
2
  6
CONTINUOUS
 10
12.9392394818
 20
2.5648073559
 40
0.0024749995
100
AcDbArc
 50
359.9999571957
 51
90.0000428043
  0
LINE
  5
303
100
AcDbEntity
  8
0
100
AcDbLine
 62
2
  6
CONTINUOUS
 10
12.93923948
 20
2.5672823554
 11
12.9205934696
 21
2.5672823554
  0
ARC
  5
304
100
AcDbEntity
  8
0
100
AcDbCircle
 62
2
  6
CONTINUOUS
 10
12.9205934678
 20
2.5697573549
 40
0.0024749995
100
AcDbArc
 50
179.9999571957
 51
270.0000428043
  0
LINE
  5
305
100
AcDbEntity
  8
0
100
AcDbLine
 62
2
  6
CONTINUOUS
 10
12.9181184683
 20
2.5697573568
 11
12.9181184683
 21
2.5895573678
  0
ARC
  5
306
100
AcDbEntity
  8
0
100
AcDbCircle
 62
2
  6
CONTINUOUS
 10
12.9205934678
 20
2.5895573696
 40
0.0024749995
100
AcDbArc
 50
89.9999571957
 51
180.0000428042
  0
LINE
  5
307
100
AcDbEntity
  8
0
100
AcDbLine
 62
2
  6
CONTINUOUS
 10
13.2934226764
 20
2.5324773361
 11
13.2582556569
 21
2.5324773361
  0
ARC
  5
308
100
AcDbEntity
  8
0
100
AcDbCircle
 62
2
  6
CONTINUOUS
 10
13.2582556551
 20
2.5300023366
 40
0.0024749995
100
AcDbArc
 50
89.9999571957
 51
180.0000428043
  0
LINE
  5
309
100
AcDbEntity
  8
0
100
AcDbLine
 62
2
  6
CONTINUOUS
 10
13.2557806555
 20
2.5300023347
 11
13.2557806555
 21
2.5184523283
  0
ARC
  5
30A
100
AcDbEntity
  8
0
100
AcDbCircle
 62
2
  6
CONTINUOUS
 10
13.2582556551
 20
2.5184523265
 40
0.0024749995
100
AcDbArc
 50
179.9999571957
 51
270.0000428043
  0
LINE
  5
30B
100
AcDbEntity
  8
0
100
AcDbLine
 62
2
  6
CONTINUOUS
 10
13.2582556569
 20
2.515977327
 11
13.3232596929
 21
2.515977327
  0
ARC
  5
30C
100
AcDbEntity
  8
0
100
AcDbCircle
 62
2
  6
CONTINUOUS
 10
13.3232596948
 20
2.5184523265
 40
0.0024749995
100
AcDbArc
 50
269.9999571957
 51
0.0000428043
  0
LINE
  5
30D
100
AcDbEntity
  8
0
100
AcDbLine
 62
2
  6
CONTINUOUS
 10
13.3257346943
 20
2.5184523283
 11
13.3257346943
 21
2.5267023329
  0
ARC
  5
30E
100
AcDbEntity
  8
0
100
AcDbCircle
 62
2
  6
CONTINUOUS
 10
13.3282096938
 20
2.5267023348
 40
0.0024749995
100
AcDbArc
 50
89.9999571957
 51
180.0000428043
  0
LINE
  5
30F
100
AcDbEntity
  8
0
100
AcDbLine
 62
2
  6
CONTINUOUS
 10
13.3282096957
 20
2.5291773343
 11
13.3705287192
 21
2.5291773343
  0
ARC
  5
310
100
AcDbEntity
  8
0
100
AcDbCircle
 62
2
  6
CONTINUOUS
 10
13.370528721
 20
2.5267023348
 40
0.0024749995
100
AcDbArc
 50
359.9999571957
 51
90.0000428043
  0
LINE
  5
311
100
AcDbEntity
  8
0
100
AcDbLine
 62
2
  6
CONTINUOUS
 10
13.3730037205
 20
2.5267023329
 11
13.3730037205
 21
2.4937023146
  0
ARC
  5
312
100
AcDbEntity
  8
0
100
AcDbCircle
 62
2
  6
CONTINUOUS
 10
13.370528721
 20
2.4937023128
 40
0.0024749995
100
AcDbArc
 50
269.9999571957
 51
0.0000428043
  0
LINE
  5
313
100
AcDbEntity
  8
0
100
AcDbLine
 62
2
  6
CONTINUOUS
 10
13.3705287192
 20
2.4912273132
 11
13.1673166065
 21
2.4912273132
  0
ARC
  5
314
100
AcDbEntity
  8
0
100
AcDbCircle
 62
2
  6
CONTINUOUS
 10
13.1673166046
 20
2.4937023128
 40
0.0024749995
100
AcDbArc
 50
179.9999571957
 51
270.0000428043
  0
LINE
  5
315
100
AcDbEntity
  8
0
100
AcDbLine
 62
2
  6
CONTINUOUS
 10
13.1648416051
 20
2.4937023146
 11
13.1648416051
 21
2.5135023256
  0
ARC
  5
316
100
AcDbEntity
  8
0
100
AcDbCircle
 62
2
  6
CONTINUOUS
 10
13.1673166046
 20
2.5135023274
 40
0.0024749995
100
AcDbArc
 50
89.9999571957
 51
180.0000428043
  0
LINE
  5
317
100
AcDbEntity
  8
0
100
AcDbLine
 62
2
  6
CONTINUOUS
 10
13.1673166065
 20
2.515977327
 11
13.1912396197
 21
2.515977327
  0
ARC
  5
318
100
AcDbEntity
  8
0
100
AcDbCircle
 62
2
  6
CONTINUOUS
 10
13.1912396216
 20
2.5184523265
 40
0.0024749995
100
AcDbArc
 50
269.9999571957
 51
0.0000428042
  0
LINE
  5
319
100
AcDbEntity
  8
0
100
AcDbLine
 62
2
  6
CONTINUOUS
 10
13.1937146211
 20
2.5184523283
 11
13.1937146211
 21
2.564807354
  0
ARC
  5
31A
100
AcDbEntity
  8
0
100
AcDbCircle
 62
2
  6
CONTINUOUS
 10
13.1912396216
 20
2.5648073559
 40
0.0024749995
100
AcDbArc
 50
359.9999571957
 51
90.0000428043
  0
LINE
  5
31B
100
AcDbEntity
  8
0
100
AcDbLine
 62
2
  6
CONTINUOUS
 10
13.1912396197
 20
2.5672823554
 11
13.1673166065
 21
2.5672823554
  0
ARC
  5
31C
100
AcDbEntity
  8
0
100
AcDbCircle
 62
2
  6
CONTINUOUS
 10
13.1673166046
 20
2.5697573549
 40
0.0024749995
100
AcDbArc
 50
179.9999571957
 51
270.0000428043
  0
LINE
  5
31D
100
AcDbEntity
  8
0
100
AcDbLine
 62
2
  6
CONTINUOUS
 10
13.1648416051
 20
2.5697573568
 11
13.1648416051
 21
2.5895573678
  0
ARC
  5
31E
100
AcDbEntity
  8
0
100
AcDbCircle
 62
2
  6
CONTINUOUS
 10
13.1673166046
 20
2.5895573696
 40
0.0024749995
100
AcDbArc
 50
89.9999571957
 51
180.0000428043
  0
LINE
  5
31F
100
AcDbEntity
  8
0
100
AcDbLine
 62
2
  6
CONTINUOUS
 10
13.1673166065
 20
2.5920323691
 11
13.3691097184
 21
2.5920323691
  0
ARC
  5
320
100
AcDbEntity
  8
0
100
AcDbCircle
 62
2
  6
CONTINUOUS
 10
13.3691097202
 20
2.5895573696
 40
0.0024749995
100
AcDbArc
 50
359.9999571957
 51
90.0000428043
  0
LINE
  5
321
100
AcDbEntity
  8
0
100
AcDbLine
 62
2
  6
CONTINUOUS
 10
13.3715847197
 20
2.5895573678
 11
13.3715847197
 21
2.5565573495
  0
ARC
  5
322
100
AcDbEntity
  8
0
100
AcDbCircle
 62
2
  6
CONTINUOUS
 10
13.3691097202
 20
2.5565573476
 40
0.0024749995
100
AcDbArc
 50
269.9999571957
 51
0.0000428042
  0
LINE
  5
323
100
AcDbEntity
  8
0
100
AcDbLine
 62
2
  6
CONTINUOUS
 10
13.3691097184
 20
2.5540823481
 11
13.3272456952
 21
2.5540823481
  0
ARC
  5
324
100
AcDbEntity
  8
0
100
AcDbCircle
 62
2
  6
CONTINUOUS
 10
13.3272456933
 20
2.5565573476
 40
0.0024749995
100
AcDbArc
 50
179.9999571957
 51
270.0000428043
  0
LINE
  5
325
100
AcDbEntity
  8
0
100
AcDbLine
 62
2
  6
CONTINUOUS
 10
13.3247706938
 20
2.5565573495
 11
13.3247706938
 21
2.564807354
  0
ARC
  5
326
100
AcDbEntity
  8
0
100
AcDbCircle
 62
2
  6
CONTINUOUS
 10
13.3222956943
 20
2.5648073559
 40
0.0024749995
100
AcDbArc
 50
359.9999571957
 51
90.0000428043
  0
LINE
  5
327
100
AcDbEntity
  8
0
100
AcDbLine
 62
2
  6
CONTINUOUS
 10
13.3222956924
 20
2.5672823554
 11
13.2582556569
 21
2.5672823554
  0
ARC
  5
328
100
AcDbEntity
  8
0
100
AcDbCircle
 62
2
  6
CONTINUOUS
 10
13.2582556551
 20
2.5648073559
 40
0.0024749995
100
AcDbArc
 50
89.9999571957
 51
180.0000428043
  0
LINE
  5
329
100
AcDbEntity
  8
0
100
AcDbLine
 62
2
  6
CONTINUOUS
 10
13.2557806555
 20
2.564807354
 11
13.2557806555
 21
2.5532573476
  0
ARC
  5
32A
100
AcDbEntity
  8
0
100
AcDbCircle
 62
2
  6
CONTINUOUS
 10
13.2582556551
 20
2.5532573458
 40
0.0024749995
100
AcDbArc
 50
179.9999571957
 51
270.0000428043
  0
LINE
  5
32B
100
AcDbEntity
  8
0
100
AcDbLine
 62
2
  6
CONTINUOUS
 10
13.2582556569
 20
2.5507823463
 11
13.2934226764
 21
2.5507823463
  0
ARC
  5
32C
100
AcDbEntity
  8
0
100
AcDbCircle
 62
2
  6
CONTINUOUS
 10
13.2934226783
 20
2.5483073467
 40
0.0024749995
100
AcDbArc
 50
359.9999571957
 51
90.0000428043
  0
LINE
  5
32D
100
AcDbEntity
  8
0
100
AcDbLine
 62
2
  6
CONTINUOUS
 10
13.2958976778
 20
2.5483073449
 11
13.2958976778
 21
2.5349523375
  0
ARC
  5
32E
100
AcDbEntity
  8
0
100
AcDbCircle
 62
2
  6
CONTINUOUS
 10
13.2934226783
 20
2.5349523356
 40
0.0024749995
100
AcDbArc
 50
269.9999571957
 51
0.0000428042
  0
LINE
  5
32F
100
AcDbEntity
  8
0
100
AcDbLine
 62
2
  6
CONTINUOUS
 10
13.7286871589
 20
2.5350697372
 11
13.7286871589
 21
2.5456869438
  0
LINE
  5
330
100
AcDbEntity
  8
0
100
AcDbLine
 62
2
  6
CONTINUOUS
 10
13.7086871478
 20
2.5004302075
 11
13.7086871478
 21
2.5803264735
  0
LINE
  5
331
100
AcDbEntity
  8
0
100
AcDbLine
 62
2
  6
CONTINUOUS
 10
13.6886871368
 20
2.4843919416
 11
13.6886871368
 21
2.5963647394
  0
LINE
  5
332
100
AcDbEntity
  8
0
100
AcDbLine
 62
2
  6
CONTINUOUS
 10
13.6686871257
 20
2.4726017898
 11
13.6686871257
 21
2.6081548911
  0
LINE
  5
333
100
AcDbEntity
  8
0
100
AcDbLine
 62
2
  6
CONTINUOUS
 10
13.6486871146
 20
2.4628062688
 11
13.6486871146
 21
2.6179504122
  0
LINE
  5
334
100
AcDbEntity
  8
0
100
AcDbLine
 62
2
  6
CONTINUOUS
 10
13.6286871035
 20
2.4541253507
 11
13.6286871035
 21
2.5062483056
  0
LINE
  5
335
100
AcDbEntity
  8
0
100
AcDbLine
 62
2
  6
CONTINUOUS
 10
13.6286871035
 20
2.5301143348
 11
13.6286871035
 21
2.6266313303
  0
LINE
  5
336
100
AcDbEntity
  8
0
100
AcDbLine
 62
2
  6
CONTINUOUS
 10
13.6086870924
 20
2.4465537903
 11
13.6086870924
 21
2.4918774918
  0
LINE
  5
337
100
AcDbEntity
  8
0
100
AcDbLine
 62
2
  6
CONTINUOUS
 10
13.6086870924
 20
2.5165781173
 11
13.6086870924
 21
2.6342028907
  0
LINE
  5
338
100
AcDbEntity
  8
0
100
AcDbLine
 62
2
  6
CONTINUOUS
 10
13.5886870813
 20
2.4398033466
 11
13.5886870813
 21
2.4912273132
  0
LINE
  5
339
100
AcDbEntity
  8
0
100
AcDbLine
 62
2
  6
CONTINUOUS
 10
13.5886870813
 20
2.5391840845
 11
13.5886870813
 21
2.5454298327
  0
LINE
  5
33A
100
AcDbEntity
  8
0
100
AcDbLine
 62
2
  6
CONTINUOUS
 10
13.5886870813
 20
2.5862063472
 11
13.5886870813
 21
2.6409533343
  0
LINE
  5
33B
100
AcDbEntity
  8
0
100
AcDbLine
 62
2
  6
CONTINUOUS
 10
13.5686870702
 20
2.4334702189
 11
13.5686870702
 21
2.4912273132
  0
LINE
  5
33C
100
AcDbEntity
  8
0
100
AcDbLine
 62
2
  6
CONTINUOUS
 10
13.5686870702
 20
2.5906587765
 11
13.5686870702
 21
2.647286462
  0
LINE
  5
33D
100
AcDbEntity
  8
0
100
AcDbLine
 62
2
  6
CONTINUOUS
 10
13.5486870591
 20
2.4278968124
 11
13.5486870591
 21
2.4937461006
  0
LINE
  5
33E
100
AcDbEntity
  8
0
100
AcDbLine
 62
2
  6
CONTINUOUS
 10
13.5486870591
 20
2.5920323691
 11
13.5486870591
 21
2.6528598686
  0
LINE
  5
33F
100
AcDbEntity
  8
0
100
AcDbLine
 62
2
  6
CONTINUOUS
 10
13.528687048
 20
2.4225427674
 11
13.528687048
 21
2.5270426993
  0
LINE
  5
340
100
AcDbEntity
  8
0
100
AcDbLine
 62
2
  6
CONTINUOUS
 10
13.528687048
 20
2.5505166259
 11
13.528687048
 21
2.5668657091
  0
LINE
  5
341
100
AcDbEntity
  8
0
100
AcDbLine
 62
2
  6
CONTINUOUS
 10
13.528687048
 20
2.5920323691
 11
13.528687048
 21
2.6582139136
  0
LINE
  5
342
100
AcDbEntity
  8
0
100
AcDbLine
 62
2
  6
CONTINUOUS
 10
13.5086870369
 20
2.4177306791
 11
13.5086870369
 21
2.4912273132
  0
LINE
  5
343
100
AcDbEntity
  8
0
100
AcDbLine
 62
2
  6
CONTINUOUS
 10
13.5086870369
 20
2.5159553269
 11
13.5086870369
 21
2.5306043351
  0
LINE
  5
344
100
AcDbEntity
  8
0
100
AcDbLine
 62
2
  6
CONTINUOUS
 10
13.5086870369
 20
2.5496073456
 11
13.5086870369
 21
2.5672823554
  0
LINE
  5
345
100
AcDbEntity
  8
0
100
AcDbLine
 62
2
  6
CONTINUOUS
 10
13.5086870369
 20
2.5920323691
 11
13.5086870369
 21
2.6630260019
  0
LINE
  5
346
100
AcDbEntity
  8
0
100
AcDbLine
 62
2
  6
CONTINUOUS
 10
13.4886870258
 20
2.4131795254
 11
13.4886870258
 21
2.4912273132
  0
LINE
  5
347
100
AcDbEntity
  8
0
100
AcDbLine
 62
2
  6
CONTINUOUS
 10
13.4886870258
 20
2.5159553269
 11
13.4886870258
 21
2.5306043351
  0
LINE
  5
348
100
AcDbEntity
  8
0
100
AcDbLine
 62
2
  6
CONTINUOUS
 10
13.4886870258
 20
2.5496073456
 11
13.4886870258
 21
2.5672823554
  0
LINE
  5
349
100
AcDbEntity
  8
0
100
AcDbLine
 62
2
  6
CONTINUOUS
 10
13.4886870258
 20
2.5920323691
 11
13.4886870258
 21
2.6675771555
  0
LINE
  5
34A
100
AcDbEntity
  8
0
100
AcDbLine
 62
2
  6
CONTINUOUS
 10
13.4686870147
 20
2.4088819672
 11
13.4686870147
 21
2.4912273132
  0
LINE
  5
34B
100
AcDbEntity
  8
0
100
AcDbLine
 62
2
  6
CONTINUOUS
 10
13.4686870147
 20
2.5920323691
 11
13.4686870147
 21
2.6718747138
  0
LINE
  5
34C
100
AcDbEntity
  8
0
100
AcDbLine
 62
2
  6
CONTINUOUS
 10
13.4486870037
 20
2.4050092072
 11
13.4486870037
 21
2.4912273132
  0
LINE
  5
34D
100
AcDbEntity
  8
0
100
AcDbLine
 62
2
  6
CONTINUOUS
 10
13.4486870037
 20
2.5920323691
 11
13.4486870037
 21
2.6757474738
  0
LINE
  5
34E
100
AcDbEntity
  8
0
100
AcDbLine
 62
2
  6
CONTINUOUS
 10
13.4286869926
 20
2.4011364471
 11
13.4286869926
 21
2.4912273132
  0
LINE
  5
34F
100
AcDbEntity
  8
0
100
AcDbLine
 62
2
  6
CONTINUOUS
 10
13.4286869926
 20
2.5920323691
 11
13.4286869926
 21
2.6796202339
  0
LINE
  5
350
100
AcDbEntity
  8
0
100
AcDbLine
 62
2
  6
CONTINUOUS
 10
13.4086869815
 20
2.3980226662
 11
13.4086869815
 21
2.4912273132
  0
LINE
  5
351
100
AcDbEntity
  8
0
100
AcDbLine
 62
2
  6
CONTINUOUS
 10
13.4086869815
 20
2.515977327
 11
13.4086869815
 21
2.5672823554
  0
LINE
  5
352
100
AcDbEntity
  8
0
100
AcDbLine
 62
2
  6
CONTINUOUS
 10
13.4086869815
 20
2.5920323691
 11
13.4086869815
 21
2.6827340148
  0
LINE
  5
353
100
AcDbEntity
  8
0
100
AcDbLine
 62
2
  6
CONTINUOUS
 10
13.3886869704
 20
2.3950052774
 11
13.3886869704
 21
2.6857514036
  0
LINE
  5
354
100
AcDbEntity
  8
0
100
AcDbLine
 62
2
  6
CONTINUOUS
 10
13.3686869593
 20
2.3919878885
 11
13.3686869593
 21
2.4912273132
  0
LINE
  5
355
100
AcDbEntity
  8
0
100
AcDbLine
 62
2
  6
CONTINUOUS
 10
13.3686869593
 20
2.5291773343
 11
13.3686869593
 21
2.5540823481
  0
LINE
  5
356
100
AcDbEntity
  8
0
100
AcDbLine
 62
2
  6
CONTINUOUS
 10
13.3686869593
 20
2.5920323691
 11
13.3686869593
 21
2.6887687924
  0
LINE
  5
357
100
AcDbEntity
  8
0
100
AcDbLine
 62
2
  6
CONTINUOUS
 10
13.3486869482
 20
2.3889704997
 11
13.3486869482
 21
2.4912273132
  0
LINE
  5
358
100
AcDbEntity
  8
0
100
AcDbLine
 62
2
  6
CONTINUOUS
 10
13.3486869482
 20
2.5291773343
 11
13.3486869482
 21
2.5540823481
  0
LINE
  5
359
100
AcDbEntity
  8
0
100
AcDbLine
 62
2
  6
CONTINUOUS
 10
13.3486869482
 20
2.5920323691
 11
13.3486869482
 21
2.6917861813
  0
LINE
  5
35A
100
AcDbEntity
  8
0
100
AcDbLine
 62
2
  6
CONTINUOUS
 10
13.3286869371
 20
2.3859531109
 11
13.3286869371
 21
2.4912273132
  0
LINE
  5
35B
100
AcDbEntity
  8
0
100
AcDbLine
 62
2
  6
CONTINUOUS
 10
13.3286869371
 20
2.5291773343
 11
13.3286869371
 21
2.5540823481
  0
LINE
  5
35C
100
AcDbEntity
  8
0
100
AcDbLine
 62
2
  6
CONTINUOUS
 10
13.3286869371
 20
2.5920323691
 11
13.3286869371
 21
2.6948035701
  0
LINE
  5
35D
100
AcDbEntity
  8
0
100
AcDbLine
 62
2
  6
CONTINUOUS
 10
13.308686926
 20
2.3833355437
 11
13.308686926
 21
2.4912273132
  0
LINE
  5
35E
100
AcDbEntity
  8
0
100
AcDbLine
 62
2
  6
CONTINUOUS
 10
13.308686926
 20
2.515977327
 11
13.308686926
 21
2.5672823554
  0
LINE
  5
35F
100
AcDbEntity
  8
0
100
AcDbLine
 62
2
  6
CONTINUOUS
 10
13.308686926
 20
2.5920323691
 11
13.308686926
 21
2.6974211373
  0
LINE
  5
360
100
AcDbEntity
  8
0
100
AcDbLine
 62
2
  6
CONTINUOUS
 10
13.2886869149
 20
2.3812612684
 11
13.2886869149
 21
2.4912273132
  0
LINE
  5
361
100
AcDbEntity
  8
0
100
AcDbLine
 62
2
  6
CONTINUOUS
 10
13.2886869149
 20
2.515977327
 11
13.2886869149
 21
2.5324773361
  0
LINE
  5
362
100
AcDbEntity
  8
0
100
AcDbLine
 62
2
  6
CONTINUOUS
 10
13.2886869149
 20
2.5507823463
 11
13.2886869149
 21
2.5672823554
  0
LINE
  5
363
100
AcDbEntity
  8
0
100
AcDbLine
 62
2
  6
CONTINUOUS
 10
13.2886869149
 20
2.5920323691
 11
13.2886869149
 21
2.6994954125
  0
LINE
  5
364
100
AcDbEntity
  8
0
100
AcDbLine
 62
2
  6
CONTINUOUS
 10
13.2686869038
 20
2.3791869932
 11
13.2686869038
 21
2.4912273132
  0
LINE
  5
365
100
AcDbEntity
  8
0
100
AcDbLine
 62
2
  6
CONTINUOUS
 10
13.2686869038
 20
2.515977327
 11
13.2686869038
 21
2.5324773361
  0
LINE
  5
366
100
AcDbEntity
  8
0
100
AcDbLine
 62
2
  6
CONTINUOUS
 10
13.2686869038
 20
2.5507823463
 11
13.2686869038
 21
2.5672823554
  0
LINE
  5
367
100
AcDbEntity
  8
0
100
AcDbLine
 62
2
  6
CONTINUOUS
 10
13.2686869038
 20
2.5920323691
 11
13.2686869038
 21
2.7015696878
  0
LINE
  5
368
100
AcDbEntity
  8
0
100
AcDbLine
 62
2
  6
CONTINUOUS
 10
13.2486868927
 20
2.377112718
 11
13.2486868927
 21
2.4912273132
  0
LINE
  5
369
100
AcDbEntity
  8
0
100
AcDbLine
 62
2
  6
CONTINUOUS
 10
13.2486868927
 20
2.5920323691
 11
13.2486868927
 21
2.703643963
  0
LINE
  5
36A
100
AcDbEntity
  8
0
100
AcDbLine
 62
2
  6
CONTINUOUS
 10
13.2286868817
 20
2.3750384428
 11
13.2286868817
 21
2.4912273132
  0
LINE
  5
36B
100
AcDbEntity
  8
0
100
AcDbLine
 62
2
  6
CONTINUOUS
 10
13.2286868817
 20
2.5920323691
 11
13.2286868817
 21
2.7057182382
  0
LINE
  5
36C
100
AcDbEntity
  8
0
100
AcDbLine
 62
2
  6
CONTINUOUS
 10
13.2086868706
 20
2.3729641676
 11
13.2086868706
 21
2.4912273132
  0
LINE
  5
36D
100
AcDbEntity
  8
0
100
AcDbLine
 62
2
  6
CONTINUOUS
 10
13.2086868706
 20
2.5920323691
 11
13.2086868706
 21
2.7077925134
  0
LINE
  5
36E
100
AcDbEntity
  8
0
100
AcDbLine
 62
2
  6
CONTINUOUS
 10
13.1886868595
 20
2.3712344456
 11
13.1886868595
 21
2.4912273132
  0
LINE
  5
36F
100
AcDbEntity
  8
0
100
AcDbLine
 62
2
  6
CONTINUOUS
 10
13.1886868595
 20
2.515977327
 11
13.1886868595
 21
2.5672823554
  0
LINE
  5
370
100
AcDbEntity
  8
0
100
AcDbLine
 62
2
  6
CONTINUOUS
 10
13.1886868595
 20
2.5920323691
 11
13.1886868595
 21
2.7095222354
  0
LINE
  5
371
100
AcDbEntity
  8
0
100
AcDbLine
 62
2
  6
CONTINUOUS
 10
13.1686868484
 20
2.3699682418
 11
13.1686868484
 21
2.4912273132
  0
LINE
  5
372
100
AcDbEntity
  8
0
100
AcDbLine
 62
2
  6
CONTINUOUS
 10
13.1686868484
 20
2.515977327
 11
13.1686868484
 21
2.5672823554
  0
LINE
  5
373
100
AcDbEntity
  8
0
100
AcDbLine
 62
2
  6
CONTINUOUS
 10
13.1686868484
 20
2.5920323691
 11
13.1686868484
 21
2.7107884392
  0
LINE
  5
374
100
AcDbEntity
  8
0
100
AcDbLine
 62
2
  6
CONTINUOUS
 10
13.1486868373
 20
2.3687020381
 11
13.1486868373
 21
2.7120546429
  0
LINE
  5
375
100
AcDbEntity
  8
0
100
AcDbLine
 62
2
  6
CONTINUOUS
 10
13.1286868262
 20
2.3674358343
 11
13.1286868262
 21
2.5672823554
  0
LINE
  5
376
100
AcDbEntity
  8
0
100
AcDbLine
 62
2
  6
CONTINUOUS
 10
13.1286868262
 20
2.5920323691
 11
13.1286868262
 21
2.7133208466
  0
LINE
  5
377
100
AcDbEntity
  8
0
100
AcDbLine
 62
2
  6
CONTINUOUS
 10
13.1086868151
 20
2.3661696306
 11
13.1086868151
 21
2.4912273132
  0
LINE
  5
378
100
AcDbEntity
  8
0
100
AcDbLine
 62
2
  6
CONTINUOUS
 10
13.1086868151
 20
2.5920323691
 11
13.1086868151
 21
2.7145870504
  0
LINE
  5
379
100
AcDbEntity
  8
0
100
AcDbLine
 62
2
  6
CONTINUOUS
 10
13.088686804
 20
2.3649034269
 11
13.088686804
 21
2.4912273132
  0
LINE
  5
37A
100
AcDbEntity
  8
0
100
AcDbLine
 62
2
  6
CONTINUOUS
 10
13.088686804
 20
2.5920323691
 11
13.088686804
 21
2.7158532541
  0
LINE
  5
37B
100
AcDbEntity
  8
0
100
AcDbLine
 62
2
  6
CONTINUOUS
 10
13.0686867929
 20
2.3636739922
 11
13.0686867929
 21
2.4912273132
  0
LINE
  5
37C
100
AcDbEntity
  8
0
100
AcDbLine
 62
2
  6
CONTINUOUS
 10
13.0686867929
 20
2.5475272398
 11
13.0686867929
 21
2.5672823554
  0
LINE
  5
37D
100
AcDbEntity
  8
0
100
AcDbLine
 62
2
  6
CONTINUOUS
 10
13.0686867929
 20
2.5920323691
 11
13.0686867929
 21
2.7170826887
  0
LINE
  5
37E
100
AcDbEntity
  8
0
100
AcDbLine
 62
2
  6
CONTINUOUS
 10
13.0486867818
 20
2.363143203
 11
13.0486867818
 21
2.4912273132
  0
LINE
  5
37F
100
AcDbEntity
  8
0
100
AcDbLine
 62
2
  6
CONTINUOUS
 10
13.0486867818
 20
2.5666100882
 11
13.0486867818
 21
2.717613478
  0
LINE
  5
380
100
AcDbEntity
  8
0
100
AcDbLine
 62
2
  6
CONTINUOUS
 10
13.0286867707
 20
2.3626124138
 11
13.0286867707
 21
2.50359263
  0
LINE
  5
381
100
AcDbEntity
  8
0
100
AcDbLine
 62
2
  6
CONTINUOUS
 10
13.0286867707
 20
2.5856929366
 11
13.0286867707
 21
2.7181442672
  0
LINE
  5
382
100
AcDbEntity
  8
0
100
AcDbLine
 62
2
  6
CONTINUOUS
 10
13.0086867596
 20
2.3620816246
 11
13.0086867596
 21
2.5226754472
  0
LINE
  5
383
100
AcDbEntity
  8
0
100
AcDbLine
 62
2
  6
CONTINUOUS
 10
13.0086867596
 20
2.5920323691
 11
13.0086867596
 21
2.7186750564
  0
LINE
  5
384
100
AcDbEntity
  8
0
100
AcDbLine
 62
2
  6
CONTINUOUS
 10
12.9886867486
 20
2.3615508354
 11
12.9886867486
 21
2.4912273132
  0
LINE
  5
385
100
AcDbEntity
  8
0
100
AcDbLine
 62
2
  6
CONTINUOUS
 10
12.9886867486
 20
2.515977327
 11
12.9886867486
 21
2.5417582644
  0
LINE
  5
386
100
AcDbEntity
  8
0
100
AcDbLine
 62
2
  6
CONTINUOUS
 10
12.9886867486
 20
2.5920323691
 11
12.9886867486
 21
2.7192058456
  0
LINE
  5
387
100
AcDbEntity
  8
0
100
AcDbLine
 62
2
  6
CONTINUOUS
 10
12.9686867375
 20
2.3610200462
 11
12.9686867375
 21
2.4912273132
  0
LINE
  5
388
100
AcDbEntity
  8
0
100
AcDbLine
 62
2
  6
CONTINUOUS
 10
12.9686867375
 20
2.5920323691
 11
12.9686867375
 21
2.7197366348
  0
LINE
  5
389
100
AcDbEntity
  8
0
100
AcDbLine
 62
2
  6
CONTINUOUS
 10
12.9486867264
 20
2.360489257
 11
12.9486867264
 21
2.4912273132
  0
LINE
  5
38A
100
AcDbEntity
  8
0
100
AcDbLine
 62
2
  6
CONTINUOUS
 10
12.9486867264
 20
2.5920323691
 11
12.9486867264
 21
2.720267424
  0
LINE
  5
38B
100
AcDbEntity
  8
0
100
AcDbLine
 62
2
  6
CONTINUOUS
 10
12.9286867153
 20
2.3602836008
 11
12.9286867153
 21
2.4912273132
  0
LINE
  5
38C
100
AcDbEntity
  8
0
100
AcDbLine
 62
2
  6
CONTINUOUS
 10
12.9286867153
 20
2.515977327
 11
12.9286867153
 21
2.5672823554
  0
LINE
  5
38D
100
AcDbEntity
  8
0
100
AcDbLine
 62
2
  6
CONTINUOUS
 10
12.9286867153
 20
2.5920323691
 11
12.9286867153
 21
2.7204730802
  0
LINE
  5
38E
100
AcDbEntity
  8
0
100
AcDbLine
 62
2
  6
CONTINUOUS
 10
12.9086867042
 20
2.3604597639
 11
12.9086867042
 21
2.7202969171
  0
LINE
  5
38F
100
AcDbEntity
  8
0
100
AcDbLine
 62
2
  6
CONTINUOUS
 10
12.8886866931
 20
2.360635927
 11
12.8886866931
 21
2.5672823554
  0
LINE
  5
390
100
AcDbEntity
  8
0
100
AcDbLine
 62
2
  6
CONTINUOUS
 10
12.8886866931
 20
2.5920323691
 11
12.8886866931
 21
2.720120754
  0
LINE
  5
391
100
AcDbEntity
  8
0
100
AcDbLine
 62
2
  6
CONTINUOUS
 10
12.868686682
 20
2.3608120901
 11
12.868686682
 21
2.491232357
  0
LINE
  5
392
100
AcDbEntity
  8
0
100
AcDbLine
 62
2
  6
CONTINUOUS
 10
12.868686682
 20
2.5920323691
 11
12.868686682
 21
2.7199445909
  0
LINE
  5
393
100
AcDbEntity
  8
0
100
AcDbLine
 62
2
  6
CONTINUOUS
 10
12.8486866709
 20
2.3609882532
 11
12.8486866709
 21
2.4912273132
  0
LINE
  5
394
100
AcDbEntity
  8
0
100
AcDbLine
 62
2
  6
CONTINUOUS
 10
12.8486866709
 20
2.5920323691
 11
12.8486866709
 21
2.7197684278
  0
LINE
  5
395
100
AcDbEntity
  8
0
100
AcDbLine
 62
2
  6
CONTINUOUS
 10
12.8286866598
 20
2.3611644163
 11
12.8286866598
 21
2.4912273132
  0
LINE
  5
396
100
AcDbEntity
  8
0
100
AcDbLine
 62
2
  6
CONTINUOUS
 10
12.8286866598
 20
2.5396527025
 11
12.8286866598
 21
2.5672823554
  0
LINE
  5
397
100
AcDbEntity
  8
0
100
AcDbLine
 62
2
  6
CONTINUOUS
 10
12.8286866598
 20
2.5920323691
 11
12.8286866598
 21
2.7195922647
  0
LINE
  5
398
100
AcDbEntity
  8
0
100
AcDbLine
 62
2
  6
CONTINUOUS
 10
12.8086866487
 20
2.3613405794
 11
12.8086866487
 21
2.4912273132
  0
LINE
  5
399
100
AcDbEntity
  8
0
100
AcDbLine
 62
2
  6
CONTINUOUS
 10
12.8086866487
 20
2.5587355508
 11
12.8086866487
 21
2.7194161016
  0
LINE
  5
39A
100
AcDbEntity
  8
0
100
AcDbLine
 62
2
  6
CONTINUOUS
 10
12.7886866376
 20
2.3621089572
 11
12.7886866376
 21
2.4957181055
  0
LINE
  5
39B
100
AcDbEntity
  8
0
100
AcDbLine
 62
2
  6
CONTINUOUS
 10
12.7886866376
 20
2.5778183992
 11
12.7886866376
 21
2.7186477238
  0
LINE
  5
39C
100
AcDbEntity
  8
0
100
AcDbLine
 62
2
  6
CONTINUOUS
 10
12.7686866266
 20
2.3630013935
 11
12.7686866266
 21
2.5148009227
  0
LINE
  5
39D
100
AcDbEntity
  8
0
100
AcDbLine
 62
2
  6
CONTINUOUS
 10
12.7686866266
 20
2.5920323691
 11
12.7686866266
 21
2.7177552874
  0
LINE
  5
39E
100
AcDbEntity
  8
0
100
AcDbLine
 62
2
  6
CONTINUOUS
 10
12.7486866155
 20
2.3638938299
 11
12.7486866155
 21
2.4913263218
  0
LINE
  5
39F
100
AcDbEntity
  8
0
100
AcDbLine
 62
2
  6
CONTINUOUS
 10
12.7486866155
 20
2.5158783184
 11
12.7486866155
 21
2.5338837399
  0
LINE
  5
3A0
100
AcDbEntity
  8
0
100
AcDbLine
 62
2
  6
CONTINUOUS
 10
12.7486866155
 20
2.5920323691
 11
12.7486866155
 21
2.7168628511
  0
LINE
  5
3A1
100
AcDbEntity
  8
0
100
AcDbLine
 62
2
  6
CONTINUOUS
 10
12.7286866044
 20
2.3647862663
 11
12.7286866044
 21
2.4912273132
  0
LINE
  5
3A2
100
AcDbEntity
  8
0
100
AcDbLine
 62
2
  6
CONTINUOUS
 10
12.7286866044
 20
2.515977327
 11
12.7286866044
 21
2.5527601554
  0
LINE
  5
3A3
100
AcDbEntity
  8
0
100
AcDbLine
 62
2
  6
CONTINUOUS
 10
12.7286866044
 20
2.5920323691
 11
12.7286866044
 21
2.7159704147
  0
LINE
  5
3A4
100
AcDbEntity
  8
0
100
AcDbLine
 62
2
  6
CONTINUOUS
 10
12.7086865933
 20
2.3656787026
 11
12.7086865933
 21
2.4912273132
  0
LINE
  5
3A5
100
AcDbEntity
  8
0
100
AcDbLine
 62
2
  6
CONTINUOUS
 10
12.7086865933
 20
2.5920323691
 11
12.7086865933
 21
2.7150779784
  0
LINE
  5
3A6
100
AcDbEntity
  8
0
100
AcDbLine
 62
2
  6
CONTINUOUS
 10
12.6886865822
 20
2.366571139
 11
12.6886865822
 21
2.4912273132
  0
LINE
  5
3A7
100
AcDbEntity
  8
0
100
AcDbLine
 62
2
  6
CONTINUOUS
 10
12.6886865822
 20
2.515977327
 11
12.6886865822
 21
2.5672823554
  0
LINE
  5
3A8
100
AcDbEntity
  8
0
100
AcDbLine
 62
2
  6
CONTINUOUS
 10
12.6886865822
 20
2.5920323691
 11
12.6886865822
 21
2.714185542
  0
LINE
  5
3A9
100
AcDbEntity
  8
0
100
AcDbLine
 62
2
  6
CONTINUOUS
 10
12.6686865711
 20
2.3677104027
 11
12.6686865711
 21
2.7130462783
  0
LINE
  5
3AA
100
AcDbEntity
  8
0
100
AcDbLine
 62
2
  6
CONTINUOUS
 10
12.64868656
 20
2.3693682721
 11
12.64868656
 21
2.7113884089
  0
LINE
  5
3AB
100
AcDbEntity
  8
0
100
AcDbLine
 62
2
  6
CONTINUOUS
 10
12.6286865489
 20
2.3710261415
 11
12.6286865489
 21
2.4912273132
  0
LINE
  5
3AC
100
AcDbEntity
  8
0
100
AcDbLine
 62
2
  6
CONTINUOUS
 10
12.6286865489
 20
2.515977327
 11
12.6286865489
 21
2.7097305395
  0
LINE
  5
3AD
100
AcDbEntity
  8
0
100
AcDbLine
 62
2
  6
CONTINUOUS
 10
12.6086865378
 20
2.372684011
 11
12.6086865378
 21
2.4912273132
  0
LINE
  5
3AE
100
AcDbEntity
  8
0
100
AcDbLine
 62
2
  6
CONTINUOUS
 10
12.6086865378
 20
2.5351122279
 11
12.6086865378
 21
2.70807267
  0
LINE
  5
3AF
100
AcDbEntity
  8
0
100
AcDbLine
 62
2
  6
CONTINUOUS
 10
12.5886865267
 20
2.3743418804
 11
12.5886865267
 21
2.4912273132
  0
LINE
  5
3B0
100
AcDbEntity
  8
0
100
AcDbLine
 62
2
  6
CONTINUOUS
 10
12.5886865267
 20
2.5660172622
 11
12.5886865267
 21
2.7064148006
  0
LINE
  5
3B1
100
AcDbEntity
  8
0
100
AcDbLine
 62
2
  6
CONTINUOUS
 10
12.5686865156
 20
2.3759997498
 11
12.5686865156
 21
2.4912273132
  0
LINE
  5
3B2
100
AcDbEntity
  8
0
100
AcDbLine
 62
2
  6
CONTINUOUS
 10
12.5686865156
 20
2.5920323691
 11
12.5686865156
 21
2.7047569312
  0
LINE
  5
3B3
100
AcDbEntity
  8
0
100
AcDbLine
 62
2
  6
CONTINUOUS
 10
12.5486865045
 20
2.3777575277
 11
12.5486865045
 21
2.4912273132
  0
LINE
  5
3B4
100
AcDbEntity
  8
0
100
AcDbLine
 62
2
  6
CONTINUOUS
 10
12.5486865045
 20
2.515977327
 11
12.5486865045
 21
2.5275118824
  0
LINE
  5
3B5
100
AcDbEntity
  8
0
100
AcDbLine
 62
2
  6
CONTINUOUS
 10
12.5486865045
 20
2.5920323691
 11
12.5486865045
 21
2.7029991533
  0
LINE
  5
3B6
100
AcDbEntity
  8
0
100
AcDbLine
 62
2
  6
CONTINUOUS
 10
12.5286864935
 20
2.3802813811
 11
12.5286864935
 21
2.5296213345
  0
LINE
  5
3B7
100
AcDbEntity
  8
0
100
AcDbLine
 62
2
  6
CONTINUOUS
 10
12.5286864935
 20
2.5505713461
 11
12.5286864935
 21
2.5667383551
  0
LINE
  5
3B8
100
AcDbEntity
  8
0
100
AcDbLine
 62
2
  6
CONTINUOUS
 10
12.5286864935
 20
2.5920323691
 11
12.5286864935
 21
2.7004752999
  0
LINE
  5
3B9
100
AcDbEntity
  8
0
100
AcDbLine
 62
2
  6
CONTINUOUS
 10
12.5086864824
 20
2.3828052346
 11
12.5086864824
 21
2.4912273132
  0
LINE
  5
3BA
100
AcDbEntity
  8
0
100
AcDbLine
 62
2
  6
CONTINUOUS
 10
12.5086864824
 20
2.515977327
 11
12.5086864824
 21
2.5279667721
  0
LINE
  5
3BB
100
AcDbEntity
  8
0
100
AcDbLine
 62
2
  6
CONTINUOUS
 10
12.5086864824
 20
2.5868602074
 11
12.5086864824
 21
2.6979514464
  0
LINE
  5
3BC
100
AcDbEntity
  8
0
100
AcDbLine
 62
2
  6
CONTINUOUS
 10
12.4886864713
 20
2.385329088
 11
12.4886864713
 21
2.4912273132
  0
LINE
  5
3BD
100
AcDbEntity
  8
0
100
AcDbLine
 62
2
  6
CONTINUOUS
 10
12.4886864713
 20
2.5553401045
 11
12.4886864713
 21
2.695427593
  0
LINE
  5
3BE
100
AcDbEntity
  8
0
100
AcDbLine
 62
2
  6
CONTINUOUS
 10
12.4686864602
 20
2.3878529415
 11
12.4686864602
 21
2.4912273132
  0
LINE
  5
3BF
100
AcDbEntity
  8
0
100
AcDbLine
 62
2
  6
CONTINUOUS
 10
12.4686864602
 20
2.5238200015
 11
12.4686864602
 21
2.6929037395
  0
LINE
  5
3C0
100
AcDbEntity
  8
0
100
AcDbLine
 62
2
  6
CONTINUOUS
 10
12.4486864491
 20
2.390376795
 11
12.4486864491
 21
2.4912273132
  0
LINE
  5
3C1
100
AcDbEntity
  8
0
100
AcDbLine
 62
2
  6
CONTINUOUS
 10
12.4486864491
 20
2.515977327
 11
12.4486864491
 21
2.690379886
  0
LINE
  5
3C2
100
AcDbEntity
  8
0
100
AcDbLine
 62
2
  6
CONTINUOUS
 10
12.428686438
 20
2.3931794042
 11
12.428686438
 21
2.6875772768
  0
LINE
  5
3C3
100
AcDbEntity
  8
0
100
AcDbLine
 62
2
  6
CONTINUOUS
 10
12.4086864269
 20
2.3964643301
 11
12.4086864269
 21
2.5013773986
  0
LINE
  5
3C4
100
AcDbEntity
  8
0
100
AcDbLine
 62
2
  6
CONTINUOUS
 10
12.4086864269
 20
2.5325739971
 11
12.4086864269
 21
2.5537224311
  0
LINE
  5
3C5
100
AcDbEntity
  8
0
100
AcDbLine
 62
2
  6
CONTINUOUS
 10
12.4086864269
 20
2.5791473398
 11
12.4086864269
 21
2.6842923509
  0
LINE
  5
3C6
100
AcDbEntity
  8
0
100
AcDbLine
 62
2
  6
CONTINUOUS
 10
12.3886864158
 20
2.399749256
 11
12.3886864158
 21
2.4921022658
  0
LINE
  5
3C7
100
AcDbEntity
  8
0
100
AcDbLine
 62
2
  6
CONTINUOUS
 10
12.3886864158
 20
2.5895929958
 11
12.3886864158
 21
2.681007425
  0
LINE
  5
3C8
100
AcDbEntity
  8
0
100
AcDbLine
 62
2
  6
CONTINUOUS
 10
12.3686864047
 20
2.403451877
 11
12.3686864047
 21
2.4912273132
  0
LINE
  5
3C9
100
AcDbEntity
  8
0
100
AcDbLine
 62
2
  6
CONTINUOUS
 10
12.3686864047
 20
2.5920323691
 11
12.3686864047
 21
2.677304804
  0
LINE
  5
3CA
100
AcDbEntity
  8
0
100
AcDbLine
 62
2
  6
CONTINUOUS
 10
12.3486863936
 20
2.407324637
 11
12.3486863936
 21
2.4912273132
  0
LINE
  5
3CB
100
AcDbEntity
  8
0
100
AcDbLine
 62
2
  6
CONTINUOUS
 10
12.3486863936
 20
2.5920323691
 11
12.3486863936
 21
2.673432044
  0
LINE
  5
3CC
100
AcDbEntity
  8
0
100
AcDbLine
 62
2
  6
CONTINUOUS
 10
12.3286863825
 20
2.4113493968
 11
12.3286863825
 21
2.4912273132
  0
LINE
  5
3CD
100
AcDbEntity
  8
0
100
AcDbLine
 62
2
  6
CONTINUOUS
 10
12.3286863825
 20
2.515977327
 11
12.3286863825
 21
2.5333023366
  0
LINE
  5
3CE
100
AcDbEntity
  8
0
100
AcDbLine
 62
2
  6
CONTINUOUS
 10
12.3286863825
 20
2.5499573458
 11
12.3286863825
 21
2.5672823554
  0
LINE
  5
3CF
100
AcDbEntity
  8
0
100
AcDbLine
 62
2
  6
CONTINUOUS
 10
12.3286863825
 20
2.5920323691
 11
12.3286863825
 21
2.6694072842
  0
LINE
  5
3D0
100
AcDbEntity
  8
0
100
AcDbLine
 62
2
  6
CONTINUOUS
 10
12.3086863715
 20
2.4159005505
 11
12.3086863715
 21
2.4912273132
  0
LINE
  5
3D1
100
AcDbEntity
  8
0
100
AcDbLine
 62
2
  6
CONTINUOUS
 10
12.3086863715
 20
2.515977327
 11
12.3086863715
 21
2.5333023366
  0
LINE
  5
3D2
100
AcDbEntity
  8
0
100
AcDbLine
 62
2
  6
CONTINUOUS
 10
12.3086863715
 20
2.5499573458
 11
12.3086863715
 21
2.5672823554
  0
LINE
  5
3D3
100
AcDbEntity
  8
0
100
AcDbLine
 62
2
  6
CONTINUOUS
 10
12.3086863715
 20
2.5920323691
 11
12.3086863715
 21
2.6648561305
  0
LINE
  5
3D4
100
AcDbEntity
  8
0
100
AcDbLine
 62
2
  6
CONTINUOUS
 10
12.2886863604
 20
2.4204517041
 11
12.2886863604
 21
2.4912273132
  0
LINE
  5
3D5
100
AcDbEntity
  8
0
100
AcDbLine
 62
2
  6
CONTINUOUS
 10
12.2886863604
 20
2.5920323691
 11
12.2886863604
 21
2.6603049769
  0
LINE
  5
3D6
100
AcDbEntity
  8
0
100
AcDbLine
 62
2
  6
CONTINUOUS
 10
12.2686863493
 20
2.4257438218
 11
12.2686863493
 21
2.4912273132
  0
LINE
  5
3D7
100
AcDbEntity
  8
0
100
AcDbLine
 62
2
  6
CONTINUOUS
 10
12.2686863493
 20
2.5920323691
 11
12.2686863493
 21
2.6550128592
  0
LINE
  5
3D8
100
AcDbEntity
  8
0
100
AcDbLine
 62
2
  6
CONTINUOUS
 10
12.2486863382
 20
2.4310978667
 11
12.2486863382
 21
2.4912273132
  0
LINE
  5
3D9
100
AcDbEntity
  8
0
100
AcDbLine
 62
2
  6
CONTINUOUS
 10
12.2486863382
 20
2.5920323691
 11
12.2486863382
 21
2.6496588142
  0
LINE
  5
3DA
100
AcDbEntity
  8
0
100
AcDbLine
 62
2
  6
CONTINUOUS
 10
12.2286863271
 20
2.4372566433
 11
12.2286863271
 21
2.4912273132
  0
LINE
  5
3DB
100
AcDbEntity
  8
0
100
AcDbLine
 62
2
  6
CONTINUOUS
 10
12.2286863271
 20
2.515977327
 11
12.2286863271
 21
2.5672823554
  0
LINE
  5
3DC
100
AcDbEntity
  8
0
100
AcDbLine
 62
2
  6
CONTINUOUS
 10
12.2286863271
 20
2.5920323691
 11
12.2286863271
 21
2.6435000377
  0
LINE
  5
3DD
100
AcDbEntity
  8
0
100
AcDbLine
 62
2
  6
CONTINUOUS
 10
12.208686316
 20
2.443589771
 11
12.208686316
 21
2.4912273132
  0
LINE
  5
3DE
100
AcDbEntity
  8
0
100
AcDbLine
 62
2
  6
CONTINUOUS
 10
12.208686316
 20
2.515977327
 11
12.208686316
 21
2.5672823554
  0
LINE
  5
3DF
100
AcDbEntity
  8
0
100
AcDbLine
 62
2
  6
CONTINUOUS
 10
12.208686316
 20
2.5920323691
 11
12.208686316
 21
2.63716691
  0
LINE
  5
3E0
100
AcDbEntity
  8
0
100
AcDbLine
 62
2
  6
CONTINUOUS
 10
12.1886863049
 20
2.4510806436
 11
12.1886863049
 21
2.6296760373
  0
LINE
  5
3E1
100
AcDbEntity
  8
0
100
AcDbLine
 62
2
  6
CONTINUOUS
 10
12.1686862938
 20
2.4591016523
 11
12.1686862938
 21
2.6216550287
  0
LINE
  5
3E2
100
AcDbEntity
  8
0
100
AcDbLine
 62
2
  6
CONTINUOUS
 10
12.1486862827
 20
2.468314272
 11
12.1486862827
 21
2.612442409
  0
LINE
  5
3E3
100
AcDbEntity
  8
0
100
AcDbLine
 62
2
  6
CONTINUOUS
 10
12.1286862716
 20
2.4794932339
 11
12.1286862716
 21
2.601263447
  0
LINE
  5
3E4
100
AcDbEntity
  8
0
100
AcDbLine
 62
2
  6
CONTINUOUS
 10
12.1086862605
 20
2.4934150665
 11
12.1086862605
 21
2.5873416144
  0
LINE
  5
3E5
100
AcDbEntity
  8
0
100
AcDbLine
 62
2
  6
CONTINUOUS
 10
12.0886862494
 20
2.5144449553
 11
12.0886862494
 21
2.5663117257
  0
ENDBLK
  5
3E6
100
AcDbEntity
  8
0
  6
BYBLOCK
 62
0
100
AcDbBlockEnd
  0
BLOCK
  5
3E7
100
AcDbEntity
  8
DRIVEN_DIMS
100
AcDbBlockBegin
 62
2
  6
CONTINUOUS
  2
*D0
 70
65
 10
0.0
 20
0.0
  3
*D0
  1

  0
TEXT
  5
3E8
100
AcDbEntity
  8
DRIVEN_DIMS
100
AcDbText
 62
2
  6
CONTINUOUS
 10
7.7608204229
 20
4.3181080485
  7
STANDARD
 40
0.1
  1
R
 41
1.0
 72
0
100
AcDbText
  0
TEXT
  5
3E9
100
AcDbEntity
  8
DRIVEN_DIMS
100
AcDbText
 62
2
  6
CONTINUOUS
 10
7.8608204229
 20
4.3181080485
  7
STANDARD
 40
0.1
  1
12,5
 41
1.0
 72
0
100
AcDbText
  0
TEXT
  5
3EA
100
AcDbEntity
  8
DRIVEN_DIMS
100
AcDbText
 62
2
  6
CONTINUOUS
 10
7.9608204229
 20
4.1681080485
  7
STANDARD
 40
0.1
  1
.49
 41
1.0
 72
0
100
AcDbText
  0
TEXT
  5
3EB
100
AcDbEntity
  8
DRIVEN_DIMS
100
AcDbText
 62
2
  6
CONTINUOUS
 10
7.8608204229
 20
4.1681080485
  7
STANDARD
 40
0.1
  1
[
 41
1.0
 72
0
100
AcDbText
  0
TEXT
  5
3EC
100
AcDbEntity
  8
DRIVEN_DIMS
100
AcDbText
 62
2
  6
CONTINUOUS
 10
8.2608204229
 20
4.1681080485
  7
STANDARD
 40
0.1
  1
]
 41
1.0
 72
0
100
AcDbText
  0
LINE
  5
3ED
100
AcDbEntity
  8
DRIVEN_DIMS
100
AcDbLine
 62
2
  6
CONTINUOUS
 10
6.4410234764
 20
4.6395143953
 11
7.5108204229
 21
4.3681080485
  0
LINE
  5
3EE
100
AcDbEntity
  8
DRIVEN_DIMS
100
AcDbLine
 62
2
  6
CONTINUOUS
 10
7.5108204229
 20
4.3681080485
 11
7.6608204229
 21
4.3681080485
  0
INSERT
  5
3EF
100
AcDbEntity
  8
DRIVEN_DIMS
100
AcDbBlockReference
 62
2
  6
CONTINUOUS
  2
_FILLED
 10
6.4410234764
 20
4.6395143953
 41
0.1875
 42
0.1875
 43
0.1875
 50
165.7644640515
  0
ENDBLK
  5
3F0
100
AcDbEntity
  8
0
  6
BYBLOCK
 62
0
100
AcDbBlockEnd
  0
BLOCK
  5
3F1
100
AcDbEntity
  8
SCHEME_DIMS
100
AcDbBlockBegin
 62
2
  6
CONTINUOUS
  2
*D1
 70
65
 10
0.0
 20
0.0
  3
*D1
  1

  0
TEXT
  5
3F2
100
AcDbEntity
  8
SCHEME_DIMS
100
AcDbText
 62
2
  6
CONTINUOUS
 10
4.1608992335
 20
3.3247056391
  7
STANDARD
 40
0.1
  1
15,2
 41
1.0
 72
0
100
AcDbText
  0
TEXT
  5
3F3
100
AcDbEntity
  8
SCHEME_DIMS
100
AcDbText
 62
2
  6
CONTINUOUS
 10
4.2608992335
 20
3.1747056391
  7
STANDARD
 40
0.1
  1
.60
 41
1.0
 72
0
100
AcDbText
  0
TEXT
  5
3F4
100
AcDbEntity
  8
SCHEME_DIMS
100
AcDbText
 62
2
  6
CONTINUOUS
 10
4.1608992335
 20
3.1747056391
  7
STANDARD
 40
0.1
  1
[
 41
1.0
 72
0
100
AcDbText
  0
TEXT
  5
3F5
100
AcDbEntity
  8
SCHEME_DIMS
100
AcDbText
 62
2
  6
CONTINUOUS
 10
4.5608992335
 20
3.1747056391
  7
STANDARD
 40
0.1
  1
]
 41
1.0
 72
0
100
AcDbText
  0
LINE
  5
3F6
100
AcDbEntity
  8
SCHEME_DIMS
100
AcDbLine
 62
2
  6
CONTINUOUS
 10
5.664421878
 20
4.0698073417
 11
5.664421878
 21
3.2497056391
  0
LINE
  5
3F7
100
AcDbEntity
  8
SCHEME_DIMS
100
AcDbLine
 62
2
  6
CONTINUOUS
 10
6.2635965128
 20
4.0698073417
 11
6.2635965128
 21
3.2497056391
  0
LINE
  5
3F8
100
AcDbEntity
  8
SCHEME_DIMS
100
AcDbLine
 62
2
  6
CONTINUOUS
 10
5.664421878
 20
3.3747056391
 11
5.9640091954
 21
3.3747056391
  0
LINE
  5
3F9
100
AcDbEntity
  8
SCHEME_DIMS
100
AcDbLine
 62
2
  6
CONTINUOUS
 10
5.9640091954
 20
3.3747056391
 11
4.7608992335
 21
3.3747056391
  0
LINE
  5
3FA
100
AcDbEntity
  8
SCHEME_DIMS
100
AcDbLine
 62
2
  6
CONTINUOUS
 10
6.2635965128
 20
3.3747056391
 11
5.9640091954
 21
3.3747056391
  0
INSERT
  5
3FB
100
AcDbEntity
  8
SCHEME_DIMS
100
AcDbBlockReference
 62
2
  6
CONTINUOUS
  2
_FILLED
 10
5.664421878
 20
3.3747056391
 41
0.1875
 42
0.1875
 43
0.1875
 50
180.0
  0
INSERT
  5
3FC
100
AcDbEntity
  8
SCHEME_DIMS
100
AcDbBlockReference
 62
2
  6
CONTINUOUS
  2
_FILLED
 10
6.2635965128
 20
3.3747056391
 41
0.1875
 42
0.1875
 43
0.1875
  0
ENDBLK
  5
3FD
100
AcDbEntity
  8
0
  6
BYBLOCK
 62
0
100
AcDbBlockEnd
  0
BLOCK
  5
3FE
100
AcDbEntity
  8
SCHEME_DIMS
100
AcDbBlockBegin
 62
2
  6
CONTINUOUS
  2
*D2
 70
65
 10
0.0
 20
0.0
  3
*D2
  1

  0
TEXT
  5
3FF
100
AcDbEntity
  8
SCHEME_DIMS
100
AcDbText
 62
2
  6
CONTINUOUS
 10
4.1903871482
 20
4.3426190249
  7
STANDARD
 40
0.1
  1
22,5
 41
1.0
 72
0
100
AcDbText
  0
TEXT
  5
400
100
AcDbEntity
  8
SCHEME_DIMS
100
AcDbText
 62
2
  6
CONTINUOUS
 10
4.2903871482
 20
4.1926190249
  7
STANDARD
 40
0.1
  1
.89
 41
1.0
 72
0
100
AcDbText
  0
TEXT
  5
401
100
AcDbEntity
  8
SCHEME_DIMS
100
AcDbText
 62
2
  6
CONTINUOUS
 10
4.1903871482
 20
4.1926190249
  7
STANDARD
 40
0.1
  1
[
 41
1.0
 72
0
100
AcDbText
  0
TEXT
  5
402
100
AcDbEntity
  8
SCHEME_DIMS
100
AcDbText
 62
2
  6
CONTINUOUS
 10
4.5903871482
 20
4.1926190249
  7
STANDARD
 40
0.1
  1
]
 41
1.0
 72
0
100
AcDbText
  0
LINE
  5
403
100
AcDbEntity
  8
SCHEME_DIMS
100
AcDbLine
 62
2
  6
CONTINUOUS
 10
4.986876159
 20
3.8747056391
 11
4.3153871482
 21
3.8747056391
  0
LINE
  5
404
100
AcDbEntity
  8
SCHEME_DIMS
100
AcDbLine
 62
2
  6
CONTINUOUS
 10
5.6729658883
 20
4.7605324108
 11
4.3153871482
 21
4.7605324108
  0
LINE
  5
405
100
AcDbEntity
  8
SCHEME_DIMS
100
AcDbLine
 62
2
  6
CONTINUOUS
 10
4.4403871482
 20
3.8747056391
 11
4.4403871482
 21
4.0926190249
  0
LINE
  5
406
100
AcDbEntity
  8
SCHEME_DIMS
100
AcDbLine
 62
2
  6
CONTINUOUS
 10
4.4403871482
 20
4.7605324108
 11
4.4403871482
 21
4.5426190249
  0
INSERT
  5
407
100
AcDbEntity
  8
SCHEME_DIMS
100
AcDbBlockReference
 62
2
  6
CONTINUOUS
  2
_FILLED
 10
4.4403871482
 20
3.8747056391
 41
0.1875
 42
0.1875
 43
0.1875
 50
270.0
  0
INSERT
  5
408
100
AcDbEntity
  8
SCHEME_DIMS
100
AcDbBlockReference
 62
2
  6
CONTINUOUS
  2
_FILLED
 10
4.4403871482
 20
4.7605324108
 41
0.1875
 42
0.1875
 43
0.1875
 50
90.0
  0
ENDBLK
  5
409
100
AcDbEntity
  8
0
  6
BYBLOCK
 62
0
100
AcDbBlockEnd
  0
BLOCK
  5
40A
100
AcDbEntity
  8
SCHEME_DIMS
100
AcDbBlockBegin
 62
2
  6
CONTINUOUS
  2
*D3
 70
65
 10
0.0
 20
0.0
  3
*D3
  1

  0
TEXT
  5
40B
100
AcDbEntity
  8
SCHEME_DIMS
100
AcDbText
 62
2
  6
CONTINUOUS
 10
3.0765953399
 20
5.36013871
  7
STANDARD
 40
0.1
  1
78
 41
1.0
 72
0
100
AcDbText
  0
TEXT
  5
40C
100
AcDbEntity
  8
SCHEME_DIMS
100
AcDbText
 62
2
  6
CONTINUOUS
 10
3.1765953399
 20
5.21013871
  7
STANDARD
 40
0.1
  1
3.07
 41
1.0
 72
0
100
AcDbText
  0
TEXT
  5
40D
100
AcDbEntity
  8
SCHEME_DIMS
100
AcDbText
 62
2
  6
CONTINUOUS
 10
3.0765953399
 20
5.21013871
  7
STANDARD
 40
0.1
  1
[
 41
1.0
 72
0
100
AcDbText
  0
TEXT
  5
40E
100
AcDbEntity
  8
SCHEME_DIMS
100
AcDbText
 62
2
  6
CONTINUOUS
 10
3.5765953399
 20
5.21013871
  7
STANDARD
 40
0.1
  1
]
 41
1.0
 72
0
100
AcDbText
  0
LINE
  5
40F
100
AcDbEntity
  8
SCHEME_DIMS
100
AcDbLine
 62
2
  6
CONTINUOUS
 10
4.9982608489
 20
3.8747056391
 11
3.2515953399
 21
3.8747056391
  0
LINE
  5
410
100
AcDbEntity
  8
SCHEME_DIMS
100
AcDbLine
 62
2
  6
CONTINUOUS
 10
5.1912729749
 20
6.9455717808
 11
3.2515953399
 21
6.9455717808
  0
LINE
  5
411
100
AcDbEntity
  8
SCHEME_DIMS
100
AcDbLine
 62
2
  6
CONTINUOUS
 10
3.3765953399
 20
3.8747056391
 11
3.3765953399
 21
5.11013871
  0
LINE
  5
412
100
AcDbEntity
  8
SCHEME_DIMS
100
AcDbLine
 62
2
  6
CONTINUOUS
 10
3.3765953399
 20
6.9455717808
 11
3.3765953399
 21
5.56013871
  0
INSERT
  5
413
100
AcDbEntity
  8
SCHEME_DIMS
100
AcDbBlockReference
 62
2
  6
CONTINUOUS
  2
_FILLED
 10
3.3765953399
 20
3.8747056391
 41
0.1875
 42
0.1875
 43
0.1875
 50
270.0
  0
INSERT
  5
414
100
AcDbEntity
  8
SCHEME_DIMS
100
AcDbBlockReference
 62
2
  6
CONTINUOUS
  2
_FILLED
 10
3.3765953399
 20
6.9455717808
 41
0.1875
 42
0.1875
 43
0.1875
 50
90.0
  0
ENDBLK
  5
415
100
AcDbEntity
  8
0
  6
BYBLOCK
 62
0
100
AcDbBlockEnd
  0
BLOCK
  5
416
100
AcDbEntity
  8
SCHEME_DIMS
100
AcDbBlockBegin
 62
2
  6
CONTINUOUS
  2
*D4
 70
65
 10
0.0
 20
0.0
  3
*D4
  1

  0
TEXT
  5
417
100
AcDbEntity
  8
SCHEME_DIMS
100
AcDbText
 62
2
  6
CONTINUOUS
 10
1.6517855707
 20
5.9469497336
  7
STANDARD
 40
0.1
  1
104
 41
1.0
 72
0
100
AcDbText
  0
TEXT
  5
418
100
AcDbEntity
  8
SCHEME_DIMS
100
AcDbText
 62
2
  6
CONTINUOUS
 10
1.7517855707
 20
5.7969497336
  7
STANDARD
 40
0.1
  1
4.09
 41
1.0
 72
0
100
AcDbText
  0
TEXT
  5
419
100
AcDbEntity
  8
SCHEME_DIMS
100
AcDbText
 62
2
  6
CONTINUOUS
 10
1.6517855707
 20
5.7969497336
  7
STANDARD
 40
0.1
  1
[
 41
1.0
 72
0
100
AcDbText
  0
TEXT
  5
41A
100
AcDbEntity
  8
SCHEME_DIMS
100
AcDbText
 62
2
  6
CONTINUOUS
 10
2.1517855707
 20
5.7969497336
  7
STANDARD
 40
0.1
  1
]
 41
1.0
 72
0
100
AcDbText
  0
LINE
  5
41B
100
AcDbEntity
  8
SCHEME_DIMS
100
AcDbLine
 62
2
  6
CONTINUOUS
 10
1.411923366
 20
7.9691938281
 11
2.0767855707
 21
7.9691938281
  0
LINE
  5
41C
100
AcDbEntity
  8
SCHEME_DIMS
100
AcDbLine
 62
2
  6
CONTINUOUS
 10
1.411923366
 20
3.8747056391
 11
2.0767855707
 21
3.8747056391
  0
LINE
  5
41D
100
AcDbEntity
  8
SCHEME_DIMS
100
AcDbLine
 62
2
  6
CONTINUOUS
 10
1.9517855707
 20
7.9691938281
 11
1.9517855707
 21
6.1469497336
  0
LINE
  5
41E
100
AcDbEntity
  8
SCHEME_DIMS
100
AcDbLine
 62
2
  6
CONTINUOUS
 10
1.9517855707
 20
3.8747056391
 11
1.9517855707
 21
5.6969497336
  0
INSERT
  5
41F
100
AcDbEntity
  8
SCHEME_DIMS
100
AcDbBlockReference
 62
2
  6
CONTINUOUS
  2
_FILLED
 10
1.9517855707
 20
7.9691938281
 41
0.1875
 42
0.1875
 43
0.1875
 50
90.0
  0
INSERT
  5
420
100
AcDbEntity
  8
SCHEME_DIMS
100
AcDbBlockReference
 62
2
  6
CONTINUOUS
  2
_FILLED
 10
1.9517855707
 20
3.8747056391
 41
0.1875
 42
0.1875
 43
0.1875
 50
270.0
  0
ENDBLK
  5
421
100
AcDbEntity
  8
0
  6
BYBLOCK
 62
0
100
AcDbBlockEnd
  0
BLOCK
  5
422
100
AcDbEntity
  8
SCHEME_DIMS
100
AcDbBlockBegin
 62
2
  6
CONTINUOUS
  2
*D5
 70
65
 10
0.0
 20
0.0
  3
*D5
  1

  0
TEXT
  5
423
100
AcDbEntity
  8
SCHEME_DIMS
100
AcDbText
 62
2
  6
CONTINUOUS
 10
3.5314766313
 20
5.9928702539
  7
STANDARD
 40
0.1
  1
4X 
 41
1.0
 72
0
100
AcDbText
  0
TEXT
  5
424
100
AcDbEntity
  8
SCHEME_DIMS
100
AcDbText
 62
2
  6
CONTINUOUS
 10
3.8314766313
 20
5.9928702539
  7
STANDARD
 40
0.1
  1
R
 41
1.0
 72
0
100
AcDbText
  0
TEXT
  5
425
100
AcDbEntity
  8
SCHEME_DIMS
100
AcDbText
 62
2
  6
CONTINUOUS
 10
3.9314766313
 20
5.9928702539
  7
STANDARD
 40
0.1
  1
3,5
 41
1.0
 72
0
100
AcDbText
  0
TEXT
  5
426
100
AcDbEntity
  8
SCHEME_DIMS
100
AcDbText
 62
2
  6
CONTINUOUS
 10
4.0314766313
 20
5.8428702539
  7
STANDARD
 40
0.1
  1
.14
 41
1.0
 72
0
100
AcDbText
  0
TEXT
  5
427
100
AcDbEntity
  8
SCHEME_DIMS
100
AcDbText
 62
2
  6
CONTINUOUS
 10
3.9314766313
 20
5.8428702539
  7
STANDARD
 40
0.1
  1
[
 41
1.0
 72
0
100
AcDbText
  0
TEXT
  5
428
100
AcDbEntity
  8
SCHEME_DIMS
100
AcDbText
 62
2
  6
CONTINUOUS
 10
4.3314766313
 20
5.8428702539
  7
STANDARD
 40
0.1
  1
]
 41
1.0
 72
0
100
AcDbText
  0
LINE
  5
429
100
AcDbEntity
  8
SCHEME_DIMS
100
AcDbLine
 62
2
  6
CONTINUOUS
 10
5.5681696558
 20
5.2495677198
 11
4.7937998728
 21
6.0428702539
  0
LINE
  5
42A
100
AcDbEntity
  8
SCHEME_DIMS
100
AcDbLine
 62
2
  6
CONTINUOUS
 10
4.7937998728
 20
6.0428702539
 11
4.5314766313
 21
6.0428702539
  0
INSERT
  5
42B
100
AcDbEntity
  8
SCHEME_DIMS
100
AcDbBlockReference
 62
2
  6
CONTINUOUS
  2
_FILLED
 10
5.5681696558
 20
5.2495677198
 41
0.1875
 42
0.1875
 43
0.1875
 50
314.3080735159
  0
ENDBLK
  5
42C
100
AcDbEntity
  8
0
  6
BYBLOCK
 62
0
100
AcDbBlockEnd
  0
BLOCK
  5
42D
100
AcDbEntity
  8
SCHEME_DIMS
100
AcDbBlockBegin
 62
2
  6
CONTINUOUS
  2
*D6
 70
65
 10
0.0
 20
0.0
  3
*D6
  1

  0
TEXT
  5
42E
100
AcDbEntity
  8
SCHEME_DIMS
100
AcDbText
 62
2
  6
CONTINUOUS
 10
7.5423929536
 20
5.4602261469
  7
STANDARD
 40
0.1
  1
%%c
 41
1.3333333333
 72
0
100
AcDbText
  0
TEXT
  5
42F
100
AcDbEntity
  8
SCHEME_DIMS
100
AcDbText
 62
2
  6
CONTINUOUS
 10
7.6757262869
 20
5.4602261469
  7
STANDARD
 40
0.1
  1
6,5
 41
1.0
 72
0
100
AcDbText
  0
TEXT
  5
430
100
AcDbEntity
  8
SCHEME_DIMS
100
AcDbText
 62
2
  6
CONTINUOUS
 10
7.7757262869
 20
5.3102261469
  7
STANDARD
 40
0.1
  1
.26
 41
1.0
 72
0
100
AcDbText
  0
TEXT
  5
431
100
AcDbEntity
  8
SCHEME_DIMS
100
AcDbText
 62
2
  6
CONTINUOUS
 10
7.6757262869
 20
5.3102261469
  7
STANDARD
 40
0.1
  1
[
 41
1.0
 72
0
100
AcDbText
  0
TEXT
  5
432
100
AcDbEntity
  8
SCHEME_DIMS
100
AcDbText
 62
2
  6
CONTINUOUS
 10
8.0757262869
 20
5.3102261469
  7
STANDARD
 40
0.1
  1
]
 41
1.0
 72
0
100
AcDbText
  0
LINE
  5
433
100
AcDbEntity
  8
SCHEME_DIMS
100
AcDbLine
 62
2
  6
CONTINUOUS
 10
6.0759550581
 20
4.8237107743
 11
7.2923929536
 21
5.5102261469
  0
LINE
  5
434
100
AcDbEntity
  8
SCHEME_DIMS
100
AcDbLine
 62
2
  6
CONTINUOUS
 10
7.2923929536
 20
5.5102261469
 11
7.4423929536
 21
5.5102261469
  0
INSERT
  5
435
100
AcDbEntity
  8
SCHEME_DIMS
100
AcDbBlockReference
 62
2
  6
CONTINUOUS
  2
_FILLED
 10
6.0759550581
 20
4.8237107743
 41
0.1875
 42
0.1875
 43
0.1875
 50
209.4388761194
  0
ENDBLK
  5
436
100
AcDbEntity
  8
0
  6
BYBLOCK
 62
0
100
AcDbBlockEnd
  0
BLOCK
  5
437
100
AcDbEntity
  8
SCHEME_DIMS
100
AcDbBlockBegin
 62
2
  6
CONTINUOUS
  2
*D7
 70
65
 10
0.0
 20
0.0
  3
*D7
  1

  0
TEXT
  5
438
100
AcDbEntity
  8
SCHEME_DIMS
100
AcDbText
 62
2
  6
CONTINUOUS
 10
5.1521981718
 20
8.4191938281
  7
STANDARD
 40
0.1
  1
26
 41
1.0
 72
0
100
AcDbText
  0
TEXT
  5
439
100
AcDbEntity
  8
SCHEME_DIMS
100
AcDbText
 62
2
  6
CONTINUOUS
 10
5.2521981718
 20
8.2691938281
  7
STANDARD
 40
0.1
  1
1.02
 41
1.0
 72
0
100
AcDbText
  0
TEXT
  5
43A
100
AcDbEntity
  8
SCHEME_DIMS
100
AcDbText
 62
2
  6
CONTINUOUS
 10
5.1521981718
 20
8.2691938281
  7
STANDARD
 40
0.1
  1
[
 41
1.0
 72
0
100
AcDbText
  0
TEXT
  5
43B
100
AcDbEntity
  8
SCHEME_DIMS
100
AcDbText
 62
2
  6
CONTINUOUS
 10
5.6521981718
 20
8.2691938281
  7
STANDARD
 40
0.1
  1
]
 41
1.0
 72
0
100
AcDbText
  0
LINE
  5
43C
100
AcDbEntity
  8
SCHEME_DIMS
100
AcDbLine
 62
2
  6
CONTINUOUS
 10
4.9403871482
 20
7.9482066046
 11
4.9403871482
 21
8.5941938281
  0
LINE
  5
43D
100
AcDbEntity
  8
SCHEME_DIMS
100
AcDbLine
 62
2
  6
CONTINUOUS
 10
5.9640091954
 20
5.06905381
 11
5.9640091954
 21
6.1892285121
  0
LINE
  5
43E
100
AcDbEntity
  8
SCHEME_DIMS
100
AcDbLine
 62
2
  6
CONTINUOUS
 10
5.9640091954
 20
7.7527707588
 11
5.9640091954
 21
8.5941938281
  0
LINE
  5
43F
100
AcDbEntity
  8
SCHEME_DIMS
100
AcDbLine
 62
2
  6
CONTINUOUS
 10
4.9403871482
 20
8.4691938281
 11
4.5403871482
 21
8.4691938281
  0
LINE
  5
440
100
AcDbEntity
  8
SCHEME_DIMS
100
AcDbLine
 62
2
  6
CONTINUOUS
 10
5.9640091954
 20
8.4691938281
 11
6.3640091954
 21
8.4691938281
  0
INSERT
  5
441
100
AcDbEntity
  8
SCHEME_DIMS
100
AcDbBlockReference
 62
2
  6
CONTINUOUS
  2
_FILLED
 10
4.9403871482
 20
8.4691938281
 41
0.1875
 42
0.1875
 43
0.1875
  0
INSERT
  5
442
100
AcDbEntity
  8
SCHEME_DIMS
100
AcDbBlockReference
 62
2
  6
CONTINUOUS
  2
_FILLED
 10
5.9640091954
 20
8.4691938281
 41
0.1875
 42
0.1875
 43
0.1875
 50
180.0
  0
ENDBLK
  5
443
100
AcDbEntity
  8
0
  6
BYBLOCK
 62
0
100
AcDbBlockEnd
  0
BLOCK
  5
444
100
AcDbEntity
  8
SCHEME_DIMS
100
AcDbBlockBegin
 62
2
  6
CONTINUOUS
  2
*D8
 70
65
 10
0.0
 20
0.0
  3
*D8
  1

  0
TEXT
  5
445
100
AcDbEntity
  8
SCHEME_DIMS
100
AcDbText
 62
2
  6
CONTINUOUS
 10
6.6876312426
 20
8.7941938281
  7
STANDARD
 40
0.1
  1
104
 41
1.0
 72
0
100
AcDbText
  0
TEXT
  5
446
100
AcDbEntity
  8
SCHEME_DIMS
100
AcDbText
 62
2
  6
CONTINUOUS
 10
6.7876312426
 20
8.6441938281
  7
STANDARD
 40
0.1
  1
4.09
 41
1.0
 72
0
100
AcDbText
  0
TEXT
  5
447
100
AcDbEntity
  8
SCHEME_DIMS
100
AcDbText
 62
2
  6
CONTINUOUS
 10
6.6876312426
 20
8.6441938281
  7
STANDARD
 40
0.1
  1
[
 41
1.0
 72
0
100
AcDbText
  0
TEXT
  5
448
100
AcDbEntity
  8
SCHEME_DIMS
100
AcDbText
 62
2
  6
CONTINUOUS
 10
7.1876312426
 20
8.6441938281
  7
STANDARD
 40
0.1
  1
]
 41
1.0
 72
0
100
AcDbText
  0
LINE
  5
449
100
AcDbEntity
  8
SCHEME_DIMS
100
AcDbLine
 62
2
  6
CONTINUOUS
 10
4.9403871482
 20
8.0516554273
 11
4.9403871482
 21
8.9691938281
  0
LINE
  5
44A
100
AcDbEntity
  8
SCHEME_DIMS
100
AcDbLine
 62
2
  6
CONTINUOUS
 10
9.0348753371
 20
7.9503248291
 11
9.0348753371
 21
8.9691938281
  0
LINE
  5
44B
100
AcDbEntity
  8
SCHEME_DIMS
100
AcDbLine
 62
2
  6
CONTINUOUS
 10
4.9403871482
 20
8.8441938281
 11
6.5876312426
 21
8.8441938281
  0
LINE
  5
44C
100
AcDbEntity
  8
SCHEME_DIMS
100
AcDbLine
 62
2
  6
CONTINUOUS
 10
9.0348753371
 20
8.8441938281
 11
7.3876312426
 21
8.8441938281
  0
INSERT
  5
44D
100
AcDbEntity
  8
SCHEME_DIMS
100
AcDbBlockReference
 62
2
  6
CONTINUOUS
  2
_FILLED
 10
4.9403871482
 20
8.8441938281
 41
0.1875
 42
0.1875
 43
0.1875
 50
180.0
  0
INSERT
  5
44E
100
AcDbEntity
  8
SCHEME_DIMS
100
AcDbBlockReference
 62
2
  6
CONTINUOUS
  2
_FILLED
 10
9.0348753371
 20
8.8441938281
 41
0.1875
 42
0.1875
 43
0.1875
  0
ENDBLK
  5
44F
100
AcDbEntity
  8
0
  6
BYBLOCK
 62
0
100
AcDbBlockEnd
  0
BLOCK
  5
450
100
AcDbEntity
  8
SCHEME_DIMS
100
AcDbBlockBegin
 62
2
  6
CONTINUOUS
  2
*D9
 70
65
 10
0.0
 20
0.0
  3
*D9
  1

  0
TEXT
  5
451
100
AcDbEntity
  8
SCHEME_DIMS
100
AcDbText
 62
2
  6
CONTINUOUS
 10
9.2348753371
 20
4.9233276864
  7
STANDARD
 40
0.1
  1
52
 41
1.0
 72
0
100
AcDbText
  0
TEXT
  5
452
100
AcDbEntity
  8
SCHEME_DIMS
100
AcDbText
 62
2
  6
CONTINUOUS
 10
9.3348753371
 20
4.7733276864
  7
STANDARD
 40
0.1
  1
2.05
 41
1.0
 72
0
100
AcDbText
  0
TEXT
  5
453
100
AcDbEntity
  8
SCHEME_DIMS
100
AcDbText
 62
2
  6
CONTINUOUS
 10
9.2348753371
 20
4.7733276864
  7
STANDARD
 40
0.1
  1
[
 41
1.0
 72
0
100
AcDbText
  0
TEXT
  5
454
100
AcDbEntity
  8
SCHEME_DIMS
100
AcDbText
 62
2
  6
CONTINUOUS
 10
9.7348753371
 20
4.7733276864
  7
STANDARD
 40
0.1
  1
]
 41
1.0
 72
0
100
AcDbText
  0
LINE
  5
455
100
AcDbEntity
  8
SCHEME_DIMS
100
AcDbLine
 62
2
  6
CONTINUOUS
 10
6.9229251468
 20
3.8747056391
 11
9.6598753371
 21
3.8747056391
  0
LINE
  5
456
100
AcDbEntity
  8
SCHEME_DIMS
100
AcDbLine
 62
2
  6
CONTINUOUS
 10
8.9808127184
 20
5.9219497336
 11
9.6598753371
 21
5.9219497336
  0
LINE
  5
457
100
AcDbEntity
  8
SCHEME_DIMS
100
AcDbLine
 62
2
  6
CONTINUOUS
 10
9.5348753371
 20
3.8747056391
 11
9.5348753371
 21
4.6733276864
  0
LINE
  5
458
100
AcDbEntity
  8
SCHEME_DIMS
100
AcDbLine
 62
2
  6
CONTINUOUS
 10
9.5348753371
 20
5.9219497336
 11
9.5348753371
 21
5.1233276864
  0
INSERT
  5
459
100
AcDbEntity
  8
SCHEME_DIMS
100
AcDbBlockReference
 62
2
  6
CONTINUOUS
  2
_FILLED
 10
9.5348753371
 20
3.8747056391
 41
0.1875
 42
0.1875
 43
0.1875
 50
270.0
  0
INSERT
  5
45A
100
AcDbEntity
  8
SCHEME_DIMS
100
AcDbBlockReference
 62
2
  6
CONTINUOUS
  2
_FILLED
 10
9.5348753371
 20
5.9219497336
 41
0.1875
 42
0.1875
 43
0.1875
 50
90.0
  0
ENDBLK
  5
45B
100
AcDbEntity
  8
0
  6
BYBLOCK
 62
0
100
AcDbBlockEnd
  0
BLOCK
  5
45C
100
AcDbEntity
  8
SCHEME_DIMS
100
AcDbBlockBegin
 62
2
  6
CONTINUOUS
  2
*D10
 70
65
 10
0.0
 20
0.0
  3
*D10
  1

  0
TEXT
  5
45D
100
AcDbEntity
  8
SCHEME_DIMS
100
AcDbText
 62
2
  6
CONTINUOUS
 10
5.6640091954
 20
2.9497056391
  7
STANDARD
 40
0.1
  1
52
 41
1.0
 72
0
100
AcDbText
  0
TEXT
  5
45E
100
AcDbEntity
  8
SCHEME_DIMS
100
AcDbText
 62
2
  6
CONTINUOUS
 10
5.7640091954
 20
2.7997056391
  7
STANDARD
 40
0.1
  1
2.05
 41
1.0
 72
0
100
AcDbText
  0
TEXT
  5
45F
100
AcDbEntity
  8
SCHEME_DIMS
100
AcDbText
 62
2
  6
CONTINUOUS
 10
5.6640091954
 20
2.7997056391
  7
STANDARD
 40
0.1
  1
[
 41
1.0
 72
0
100
AcDbText
  0
TEXT
  5
460
100
AcDbEntity
  8
SCHEME_DIMS
100
AcDbText
 62
2
  6
CONTINUOUS
 10
6.1640091954
 20
2.7997056391
  7
STANDARD
 40
0.1
  1
]
 41
1.0
 72
0
100
AcDbText
  0
LINE
  5
461
100
AcDbEntity
  8
SCHEME_DIMS
100
AcDbLine
 62
2
  6
CONTINUOUS
 10
4.9403871482
 20
4.0484261116
 11
4.9403871482
 21
3.9204623005
  0
LINE
  5
462
100
AcDbEntity
  8
SCHEME_DIMS
100
AcDbLine
 62
2
  6
CONTINUOUS
 10
4.9403871482
 20
3.8486055594
 11
4.9403871482
 21
3.4388505097
  0
LINE
  5
463
100
AcDbEntity
  8
SCHEME_DIMS
100
AcDbLine
 62
2
  6
CONTINUOUS
 10
4.9403871482
 20
3.3251979555
 11
4.9403871482
 21
2.8747056391
  0
LINE
  5
464
100
AcDbEntity
  8
SCHEME_DIMS
100
AcDbLine
 62
2
  6
CONTINUOUS
 10
6.9876312426
 20
4.0484261116
 11
6.9876312426
 21
3.9112232015
  0
LINE
  5
465
100
AcDbEntity
  8
SCHEME_DIMS
100
AcDbLine
 62
2
  6
CONTINUOUS
 10
6.9876312426
 20
3.8508224089
 11
6.9876312426
 21
2.8747056391
  0
LINE
  5
466
100
AcDbEntity
  8
SCHEME_DIMS
100
AcDbLine
 62
2
  6
CONTINUOUS
 10
4.9403871482
 20
2.9997056391
 11
5.5640091954
 21
2.9997056391
  0
LINE
  5
467
100
AcDbEntity
  8
SCHEME_DIMS
100
AcDbLine
 62
2
  6
CONTINUOUS
 10
6.9876312426
 20
2.9997056391
 11
6.3640091954
 21
2.9997056391
  0
INSERT
  5
468
100
AcDbEntity
  8
SCHEME_DIMS
100
AcDbBlockReference
 62
2
  6
CONTINUOUS
  2
_FILLED
 10
4.9403871482
 20
2.9997056391
 41
0.1875
 42
0.1875
 43
0.1875
 50
180.0
  0
INSERT
  5
469
100
AcDbEntity
  8
SCHEME_DIMS
100
AcDbBlockReference
 62
2
  6
CONTINUOUS
  2
_FILLED
 10
6.9876312426
 20
2.9997056391
 41
0.1875
 42
0.1875
 43
0.1875
  0
ENDBLK
  5
46A
100
AcDbEntity
  8
0
  6
BYBLOCK
 62
0
100
AcDbBlockEnd
  0
BLOCK
  5
46B
100
AcDbEntity
  8
SCHEME_DIMS
100
AcDbBlockBegin
 62
2
  6
CONTINUOUS
  2
*D11
 70
65
 10
0.0
 20
0.0
  3
*D11
  1

  0
TEXT
  5
46C
100
AcDbEntity
  8
SCHEME_DIMS
100
AcDbText
 62
2
  6
CONTINUOUS
 10
3.6111527378
 20
7.7660397348
  7
STANDARD
 40
0.1
  1
%%c
 41
1.3333333333
 72
0
100
AcDbText
  0
TEXT
  5
46D
100
AcDbEntity
  8
SCHEME_DIMS
100
AcDbText
 62
2
  6
CONTINUOUS
 10
3.7444860711
 20
7.7660397348
  7
STANDARD
 40
0.1
  1
31
 41
1.0
 72
0
100
AcDbText
  0
TEXT
  5
46E
100
AcDbEntity
  8
SCHEME_DIMS
100
AcDbText
 62
2
  6
CONTINUOUS
 10
3.8444860711
 20
7.6160397348
  7
STANDARD
 40
0.1
  1
1.22
 41
1.0
 72
0
100
AcDbText
  0
TEXT
  5
46F
100
AcDbEntity
  8
SCHEME_DIMS
100
AcDbText
 62
2
  6
CONTINUOUS
 10
3.7444860711
 20
7.6160397348
  7
STANDARD
 40
0.1
  1
[
 41
1.0
 72
0
100
AcDbText
  0
TEXT
  5
470
100
AcDbEntity
  8
SCHEME_DIMS
100
AcDbText
 62
2
  6
CONTINUOUS
 10
4.2444860711
 20
7.6160397348
  7
STANDARD
 40
0.1
  1
]
 41
1.0
 72
0
100
AcDbText
  0
LINE
  5
471
100
AcDbEntity
  8
SCHEME_DIMS
100
AcDbLine
 62
2
  6
CONTINUOUS
 10
5.44899818
 20
7.2729124273
 11
5.9640091954
 21
6.9455717808
  0
LINE
  5
472
100
AcDbEntity
  8
SCHEME_DIMS
100
AcDbLine
 62
2
  6
CONTINUOUS
 10
5.9640091954
 20
6.9455717808
 11
4.5944860711
 21
7.8160397348
  0
LINE
  5
473
100
AcDbEntity
  8
SCHEME_DIMS
100
AcDbLine
 62
2
  6
CONTINUOUS
 10
4.5944860711
 20
7.8160397348
 11
4.4444860711
 21
7.8160397348
  0
LINE
  5
474
100
AcDbEntity
  8
SCHEME_DIMS
100
AcDbLine
 62
2
  6
CONTINUOUS
 10
6.4790202108
 20
6.6182311344
 11
5.9640091954
 21
6.9455717808
  0
INSERT
  5
475
100
AcDbEntity
  8
SCHEME_DIMS
100
AcDbBlockReference
 62
2
  6
CONTINUOUS
  2
_FILLED
 10
5.44899818
 20
7.2729124273
 41
0.1875
 42
0.1875
 43
0.1875
 50
147.5599885468
  0
INSERT
  5
476
100
AcDbEntity
  8
SCHEME_DIMS
100
AcDbBlockReference
 62
2
  6
CONTINUOUS
  2
_FILLED
 10
6.4790202108
 20
6.6182311344
 41
0.1875
 42
0.1875
 43
0.1875
 50
327.5599885468
  0
ENDBLK
  5
477
100
AcDbEntity
  8
0
  6
BYBLOCK
 62
0
100
AcDbBlockEnd
  0
BLOCK
  5
478
100
AcDbEntity
  8
0
100
AcDbBlockBegin
  2
_FILLED
 70
64
 10
0.0
 20
0.0
  3
_FILLED
  1

  0
SOLID
  5
479
100
AcDbEntity
  8
0
  6
BYBLOCK
 62
0
100
AcDbTrace
 10
0.0
 20
0.0
 11
-1.0
 21
0.1666666667
 12
-1.0
 22
-0.1666666667
 13
-1.0
 23
-0.1666666667
  0
ENDBLK
  5
47A
100
AcDbEntity
  8
0
  6
BYBLOCK
 62
0
100
AcDbBlockEnd
  0
ENDSEC
  0
SECTION
  2
ENTITIES
  0
TEXT
  5
47B
100
AcDbEntity
  8
0
100
AcDbText
 62
2
  6
CONTINUOUS
 10
10.1487658475
 20
1.694867839
  7
STANDARD
 40
0.1
  1
%%uTHIRD ANGLE PROJECTION
 41
0.8
 72
1
 11
11.0287658475
 21
1.694867839
100
AcDbText
  0
TEXT
  5
47C
100
AcDbEntity
  8
0
100
AcDbText
 62
2
  6
CONTINUOUS
 10
12.88
 20
1.377
  7
STANDARD
 40
0.08
  1
DRAWING NO.
 41
1.0
 72
0
100
AcDbText
  0
TEXT
  5
47D
100
AcDbEntity
  8
0
100
AcDbText
 62
2
  6
CONTINUOUS
 10
10.044
 20
2.436432
  7
STANDARD
 40
0.08
  1
and is proprietary in general
 41
0.85
 72
1
 11
11.03
 21
2.436432
100
AcDbText
  0
TEXT
  5
47E
100
AcDbEntity
  8
0
100
AcDbText
 62
2
  6
CONTINUOUS
 10
10.078
 20
2.316432
  7
STANDARD
 40
0.08
  1
and in detail.  Its contents
 41
0.85
 72
1
 11
11.03
 21
2.316432
100
AcDbText
  0
TEXT
  5
47F
100
AcDbEntity
  8
0
100
AcDbText
 62
2
  6
CONTINUOUS
 10
10.214
 20
2.196432
  7
STANDARD
 40
0.08
  1
shall not be revealed to
 41
0.85
 72
1
 11
11.03
 21
2.196432
100
AcDbText
  0
TEXT
  5
480
100
AcDbEntity
  8
0
100
AcDbText
 62
2
  6
CONTINUOUS
 10
10.248
 20
2.076432
  7
STANDARD
 40
0.08
  1
outside parties without
 41
0.85
 72
1
 11
11.03
 21
2.076432
100
AcDbText
  0
TEXT
  5
481
100
AcDbEntity
  8
0
100
AcDbText
 62
2
  6
CONTINUOUS
 10
10.146
 20
1.956432
  7
STANDARD
 40
0.08
  1
written consent of BANNER.
 41
0.85
 72
1
 11
11.03
 21
1.956432
100
AcDbText
  0
TEXT
  5
482
100
AcDbEntity
  8
0
100
AcDbText
 62
2
  6
CONTINUOUS
 10
12.08
 20
2.117
  7
STANDARD
 40
0.1
  1
TITLE
 41
0.8
 72
0
100
AcDbText
  0
TEXT
  5
483
100
AcDbEntity
  8
0
100
AcDbText
 62
2
  6
CONTINUOUS
 10
12.08
 20
1.377
  7
STANDARD
 40
0.08
  1
SIZE
 41
1.0
 72
0
100
AcDbText
  0
TEXT
  5
484
100
AcDbEntity
  8
0
100
AcDbText
 62
2
  6
CONTINUOUS
 10
12.08
 20
1.007
  7
STANDARD
 40
0.08
  1
SCALE
 41
1.0
 72
0
100
AcDbText
  0
TEXT
  5
485
100
AcDbEntity
  8
0
100
AcDbText
 62
2
  6
CONTINUOUS
 10
12.46
 20
1.237
  7
STANDARD
 40
0.1
  1
B
 41
0.8
 72
1
 11
12.5
 21
1.237
100
AcDbText
  0
TEXT
  5
486
100
AcDbEntity
  8
0
100
AcDbText
 62
2
  6
CONTINUOUS
 10
10.112
 20
2.556432
  7
STANDARD
 40
0.08
  1
of BANNER ENGINEERING CORP.
 41
0.85
 72
1
 11
11.03
 21
2.556432
100
AcDbText
  0
TEXT
  5
487
100
AcDbEntity
  8
0
100
AcDbText
 62
2
  6
CONTINUOUS
 10
10.078
 20
2.676432
  7
STANDARD
 40
0.08
  1
This drawing is the property
 41
0.85
 72
1
 11
11.03
 21
2.676432
100
AcDbText
  0
TEXT
  5
488
100
AcDbEntity
  8
0
100
AcDbText
 62
2
  6
CONTINUOUS
 10
14.19
 20
2.3134
  7
STANDARD
 40
0.1
  1
MINNEAPOLIS, MN 55440
 41
0.8
 72
1
 11
15.03
 21
2.3134
100
AcDbText
  0
TEXT
  5
489
100
AcDbEntity
  8
0
100
AcDbText
 62
2
  6
CONTINUOUS
 10
14.255
 20
1.007
  7
STANDARD
 40
0.08
  1
SHEET
 41
1.0
 72
0
100
AcDbText
  0
TEXT
  5
48A
100
AcDbEntity
  8
0
100
AcDbText
 62
2
  6
CONTINUOUS
 10
15.63
 20
1.377
  7
STANDARD
 40
0.08
  1
REV.
 41
1.0
 72
0
100
AcDbText
  0
TEXT
  5
48B
100
AcDbEntity
  8
0
100
AcDbText
 62
2
  6
CONTINUOUS
 10
16.03
 20
0.765443
  7
STANDARD
 40
0.07
  1
PRO/E
 41
1.0
 72
2
 11
16.38
 21
0.765443
100
AcDbText
  0
TEXT
  5
48C
100
AcDbEntity
  8
0
100
AcDbText
 62
2
  6
CONTINUOUS
 10
13.7052
 20
2.631049
  7
STANDARD
 40
0.12
  1
BANNER ENGINEERING CORP.
 41
0.92
 72
1
 11
15.03
 21
2.631049
100
AcDbText
  0
TEXT
  5
48D
100
AcDbEntity
  8
0
100
AcDbText
 62
2
  6
CONTINUOUS
 10
14.51
 20
2.4724
  7
STANDARD
 40
0.1
  1
P.O. BOX 9414
 41
0.8
 72
1
 11
15.03
 21
2.4724
100
AcDbText
  0
TEXT
  5
48E
100
AcDbEntity
  8
0
100
AcDbText
 62
2
  6
CONTINUOUS
 10
9.445
 20
10.212
  7
STANDARD
 40
0.1
  1
4
 41
0.8
 72
1
 11
9.485
 21
10.212
100
AcDbText
  0
TEXT
  5
48F
100
AcDbEntity
  8
0
100
AcDbText
 62
2
  6
CONTINUOUS
 10
11.415
 20
10.212
  7
STANDARD
 40
0.1
  1
3
 41
0.8
 72
1
 11
11.455
 21
10.212
100
AcDbText
  0
TEXT
  5
490
100
AcDbEntity
  8
0
100
AcDbText
 62
2
  6
CONTINUOUS
 10
13.385
 20
10.212
  7
STANDARD
 40
0.1
  1
2
 41
0.8
 72
1
 11
13.425
 21
10.212
100
AcDbText
  0
TEXT
  5
491
100
AcDbEntity
  8
0
100
AcDbText
 62
2
  6
CONTINUOUS
 10
15.355
 20
10.212
  7
STANDARD
 40
0.1
  1
1
 41
0.8
 72
1
 11
15.395
 21
10.212
100
AcDbText
  0
TEXT
  5
492
100
AcDbEntity
  8
0
100
AcDbText
 62
2
  6
CONTINUOUS
 10
3.535
 20
10.212
  7
STANDARD
 40
0.1
  1
7
 41
0.8
 72
1
 11
3.575
 21
10.212
100
AcDbText
  0
TEXT
  5
493
100
AcDbEntity
  8
0
100
AcDbText
 62
2
  6
CONTINUOUS
 10
5.505
 20
10.212
  7
STANDARD
 40
0.1
  1
6
 41
0.8
 72
1
 11
5.545
 21
10.212
100
AcDbText
  0
TEXT
  5
494
100
AcDbEntity
  8
0
100
AcDbText
 62
2
  6
CONTINUOUS
 10
7.475
 20
10.212
  7
STANDARD
 40
0.1
  1
5
 41
0.8
 72
1
 11
7.515
 21
10.212
100
AcDbText
  0
TEXT
  5
495
100
AcDbEntity
  8
0
100
AcDbText
 62
2
  6
CONTINUOUS
 10
1.565
 20
10.212
  7
STANDARD
 40
0.1
  1
8
 41
0.8
 72
1
 11
1.605
 21
10.212
100
AcDbText
  0
TEXT
  5
496
100
AcDbEntity
  8
0
100
AcDbText
 62
2
  6
CONTINUOUS
 10
1.565
 20
0.687
  7
STANDARD
 40
0.1
  1
8
 41
0.8
 72
1
 11
1.605
 21
0.687
100
AcDbText
  0
TEXT
  5
497
100
AcDbEntity
  8
0
100
AcDbText
 62
2
  6
CONTINUOUS
 10
3.535
 20
0.687
  7
STANDARD
 40
0.1
  1
7
 41
0.8
 72
1
 11
3.575
 21
0.687
100
AcDbText
  0
TEXT
  5
498
100
AcDbEntity
  8
0
100
AcDbText
 62
2
  6
CONTINUOUS
 10
5.505
 20
0.687
  7
STANDARD
 40
0.1
  1
6
 41
0.8
 72
1
 11
5.545
 21
0.687
100
AcDbText
  0
TEXT
  5
499
100
AcDbEntity
  8
0
100
AcDbText
 62
2
  6
CONTINUOUS
 10
7.475
 20
0.687
  7
STANDARD
 40
0.1
  1
5
 41
0.8
 72
1
 11
7.515
 21
0.687
100
AcDbText
  0
TEXT
  5
49A
100
AcDbEntity
  8
0
100
AcDbText
 62
2
  6
CONTINUOUS
 10
9.445
 20
0.687
  7
STANDARD
 40
0.1
  1
4
 41
0.8
 72
1
 11
9.485
 21
0.687
100
AcDbText
  0
TEXT
  5
49B
100
AcDbEntity
  8
0
100
AcDbText
 62
2
  6
CONTINUOUS
 10
11.415
 20
0.687
  7
STANDARD
 40
0.1
  1
3
 41
0.8
 72
1
 11
11.455
 21
0.687
100
AcDbText
  0
TEXT
  5
49C
100
AcDbEntity
  8
0
100
AcDbText
 62
2
  6
CONTINUOUS
 10
13.385
 20
0.687
  7
STANDARD
 40
0.1
  1
2
 41
0.8
 72
1
 11
13.425
 21
0.687
100
AcDbText
  0
TEXT
  5
49D
100
AcDbEntity
  8
0
100
AcDbText
 62
2
  6
CONTINUOUS
 10
15.355
 20
0.687
  7
STANDARD
 40
0.1
  1
1
 41
0.8
 72
1
 11
15.395
 21
0.687
100
AcDbText
  0
TEXT
  5
49E
100
AcDbEntity
  8
0
100
AcDbText
 62
2
  6
CONTINUOUS
 10
0.44
 20
4.2995
  7
STANDARD
 40
0.1
  1
B
 41
0.8
 72
2
 11
0.52
 21
4.2995
100
AcDbText
  0
TEXT
  5
49F
100
AcDbEntity
  8
0
100
AcDbText
 62
2
  6
CONTINUOUS
 10
0.44
 20
1.9995
  7
STANDARD
 40
0.1
  1
A
 41
0.8
 72
2
 11
0.52
 21
1.9995
100
AcDbText
  0
TEXT
  5
4A0
100
AcDbEntity
  8
0
100
AcDbText
 62
2
  6
CONTINUOUS
 10
0.44
 20
8.8995
  7
STANDARD
 40
0.1
  1
D
 41
0.8
 72
2
 11
0.52
 21
8.8995
100
AcDbText
  0
TEXT
  5
4A1
100
AcDbEntity
  8
0
100
AcDbText
 62
2
  6
CONTINUOUS
 10
0.44
 20
6.5995
  7
STANDARD
 40
0.1
  1
C
 41
0.8
 72
2
 11
0.52
 21
6.5995
100
AcDbText
  0
TEXT
  5
4A2
100
AcDbEntity
  8
0
100
AcDbText
 62
2
  6
CONTINUOUS
 10
16.48
 20
8.8995
  7
STANDARD
 40
0.1
  1
D
 41
0.8
 72
0
100
AcDbText
  0
TEXT
  5
4A3
100
AcDbEntity
  8
0
100
AcDbText
 62
2
  6
CONTINUOUS
 10
16.48
 20
6.5995
  7
STANDARD
 40
0.1
  1
C
 41
0.8
 72
0
100
AcDbText
  0
TEXT
  5
4A4
100
AcDbEntity
  8
0
100
AcDbText
 62
2
  6
CONTINUOUS
 10
16.48
 20
4.2995
  7
STANDARD
 40
0.1
  1
B
 41
0.8
 72
0
100
AcDbText
  0
TEXT
  5
4A5
100
AcDbEntity
  8
0
100
AcDbText
 62
2
  6
CONTINUOUS
 10
16.48
 20
1.9995
  7
STANDARD
 40
0.1
  1
A
 41
0.8
 72
0
100
AcDbText
  0
MTEXT
  5
4A6
100
AcDbEntity
  8
0
100
AcDbMText
 62
2
  6
CONTINUOUS
  7
STANDARD
 71
1
 72
1
 10
14.819264911
 20
1.0627941725
 30
0.0
 11
1.0
 21
0.0
 31
0.0
  1
1 OF 1
 40
0.1
 41
0.6
  0
TEXT
  5
4A7
100
AcDbEntity
  8
0
100
AcDbText
 62
7
  6
CONTINUOUS
 10
13.8911999818
 20
1.2547321586
  7
STANDARD
 40
0.12
  1
141787
 41
1.0
 72
0
100
AcDbText
  0
TEXT
  5
4A8
100
AcDbEntity
  8
0
100
AcDbText
 62
2
  6
CONTINUOUS
 10
12.644264911
 20
0.9627941725
  7
STANDARD
 40
0.1
  1
1:1
 41
1.0
 72
0
100
AcDbText
  0
MTEXT
  5
4A9
100
AcDbEntity
  8
0
100
AcDbMText
 62
2
  6
CONTINUOUS
  7
STANDARD
 71
1
 72
1
 10
1.0597007627
 20
1.6202922458
 30
0.0
 11
1.0
 21
0.0
 31
0.0
  1
NOTES:\P1. ALL DIMENSIONS ARE MILLIMETERS [INCHES] UNLESS OTHERWISE NOTED.
 40
0.1
 41
6.6
  0
INSERT
  5
4AA
100
AcDbEntity
  8
0
100
AcDbBlockReference
 62
2
  6
CONTINUOUS
  2
BANNER_LOGO_TITLEBLOCK_BL0
 10
12.9046655056
 20
2.5403783448
  0
DIMENSION
  5
4AB
100
AcDbEntity
  8
DRIVEN_DIMS
100
AcDbDimension
 62
2
  6
CONTINUOUS
  2
*D0
 10
5.9640091954
 20
4.7605324108
 11
8.0608204229
 21
4.2931080485
 70
164
 42
12.5
  1
<>
  3
DIMSTYLE_1
100
AcDbRadialDimension
 15
6.4410234764
 25
4.6395143953
  0
DIMENSION
  5
4AC
100
AcDbEntity
  8
SCHEME_DIMS
100
AcDbDimension
 62
2
  6
CONTINUOUS
  2
*D1
 10
6.2635965128
 20
3.3747056391
 11
4.4108992335
 21
3.2997056391
 70
160
 42
15.2190357252
  3
DIMSTYLE_2
100
AcDbAlignedDimension
 13
5.664421878
 23
4.0698073417
 14
6.2635965128
 24
4.0698073417
100
AcDbRotatedDimension
  0
DIMENSION
  5
4AD
100
AcDbEntity
  8
SCHEME_DIMS
100
AcDbDimension
 62
2
  6
CONTINUOUS
  2
*D2
 10
4.4403871482
 20
4.7605324108
 11
4.4403871482
 21
4.3176190249
 70
160
 42
22.5
  3
DIMSTYLE_2
100
AcDbAlignedDimension
 13
4.986876159
 23
3.8747056391
 14
5.6729658883
 24
4.7605324108
 50
90.0
100
AcDbRotatedDimension
  0
DIMENSION
  5
4AE
100
AcDbEntity
  8
SCHEME_DIMS
100
AcDbDimension
 62
2
  6
CONTINUOUS
  2
*D3
 10
3.3765953399
 20
6.9455717808
 11
3.3765953399
 21
5.33513871
 70
160
 42
78.0
  3
DIMSTYLE_2
100
AcDbAlignedDimension
 13
4.9982608489
 23
3.8747056391
 14
5.1912729749
 24
6.9455717808
 50
90.0
100
AcDbRotatedDimension
  0
DIMENSION
  5
4AF
100
AcDbEntity
  8
SCHEME_DIMS
100
AcDbDimension
 62
2
  6
CONTINUOUS
  2
*D4
 10
1.9517855707
 20
3.8747056391
 11
1.9517855707
 21
5.9219497336
 70
160
 42
104.0
  3
DIMSTYLE_2
100
AcDbAlignedDimension
 13
1.411923366
 23
7.9691938281
 14
1.411923366
 24
3.8747056391
 50
270.0
100
AcDbRotatedDimension
  0
DIMENSION
  5
4B0
100
AcDbEntity
  8
SCHEME_DIMS
100
AcDbDimension
 62
2
  6
CONTINUOUS
  2
*D5
 10
5.664421878
 20
5.1509622042
 11
3.9814766313
 21
5.9678702539
 70
164
 42
3.5
  1
4X <>
  3
DIMSTYLE_3
100
AcDbRadialDimension
 15
5.5681696558
 25
5.2495677198
  0
DIMENSION
  5
4B1
100
AcDbEntity
  8
SCHEME_DIMS
100
AcDbDimension
 62
2
  6
CONTINUOUS
  2
*D6
 10
6.0759550581
 20
4.8237107743
 11
7.8590596202
 21
5.4352261469
 70
163
 42
6.53
  1
<>
  3
DIMSTYLE_4
100
AcDbDiametricDimension
 15
5.8520633327
 25
4.6973540472
  0
DIMENSION
  5
4B2
100
AcDbEntity
  8
SCHEME_DIMS
100
AcDbDimension
 62
2
  6
CONTINUOUS
  2
*D7
 10
5.9640091954
 20
8.4691938281
 11
5.4521981718
 21
8.3941938281
 70
160
 42
26.0
  3
DIMSTYLE_2
100
AcDbAlignedDimension
 13
4.9403871482
 23
7.9482066046
 14
5.9640091954
 24
5.06905381
100
AcDbRotatedDimension
  0
DIMENSION
  5
4B3
100
AcDbEntity
  8
SCHEME_DIMS
100
AcDbDimension
 62
2
  6
CONTINUOUS
  2
*D8
 10
9.0348753371
 20
8.8441938281
 11
6.9876312426
 21
8.7691938281
 70
160
 42
104.0
  3
DIMSTYLE_2
100
AcDbAlignedDimension
 13
4.9403871482
 23
8.0516554273
 14
9.0348753371
 24
7.9503248291
100
AcDbRotatedDimension
  0
DIMENSION
  5
4B4
100
AcDbEntity
  8
SCHEME_DIMS
100
AcDbDimension
 62
2
  6
CONTINUOUS
  2
*D9
 10
9.5348753371
 20
5.9219497336
 11
9.5348753371
 21
4.8983276864
 70
160
 42
52.0
  3
DIMSTYLE_2
100
AcDbAlignedDimension
 13
6.9229251468
 23
3.8747056391
 14
8.9808127184
 24
5.9219497336
 50
90.0
100
AcDbRotatedDimension
  0
DIMENSION
  5
4B5
100
AcDbEntity
  8
SCHEME_DIMS
100
AcDbDimension
 62
2
  6
CONTINUOUS
  2
*D10
 10
6.9876312426
 20
2.9997056391
 11
5.9640091954
 21
2.9247056391
 70
160
 42
52.0
  3
DIMSTYLE_2
100
AcDbAlignedDimension
 13
4.9403871482
 23
4.0484261116
 14
6.9876312426
 24
4.0484261116
100
AcDbRotatedDimension
  0
DIMENSION
  5
4B6
100
AcDbEntity
  8
SCHEME_DIMS
100
AcDbDimension
 62
2
  6
CONTINUOUS
  2
*D11
 10
5.44899818
 20
7.2729124273
 11
3.9778194045
 21
7.7410397348
 70
163
 42
31.0
  1
<>
  3
DIMSTYLE_4
100
AcDbDiametricDimension
 15
6.4790202108
 25
6.6182311344
  0
LINE
  5
4B7
100
AcDbEntity
  8
0
100
AcDbLine
 62
2
  6
CONTINUOUS
 10
16.38
 20
0.887
 11
12.03
 21
0.887
  0
LINE
  5
4B8
100
AcDbEntity
  8
0
100
AcDbLine
 62
2
  6
CONTINUOUS
 10
16.38
 20
0.887
 11
16.38
 21
2.807
  0
LINE
  5
4B9
100
AcDbEntity
  8
0
100
AcDbLine
 62
2
  6
CONTINUOUS
 10
16.38
 20
2.807
 11
12.03
 21
2.807
  0
LINE
  5
4BA
100
AcDbEntity
  8
0
100
AcDbLine
 62
2
  6
CONTINUOUS
 10
12.03
 20
0.887
 11
12.03
 21
2.807
  0
TEXT
  5
4BB
100
AcDbEntity
  8
0
100
AcDbText
 62
7
  6
CONTINUOUS
 10
16.105
 20
1.267
  7
STANDARD
 40
0.1
  1
1
 41
1.0
 72
1
 11
16.155
 21
1.267
100
AcDbText
  0
MTEXT
  5
4BC
100
AcDbEntity
  8
0
100
AcDbMText
 62
7
  6
CONTINUOUS
  7
STANDARD
 71
2
 72
1
 10
14.205
 20
1.967
 30
0.0
 11
1.0
 21
0.0
 31
0.0
  1
SMBAMS30PL52R\PWEB CAD DRAWINGS 2D/3D
 40
0.1
 41
2.2
  0
MTEXT
  5
4BD
100
AcDbEntity
  8
NOTES
100
AcDbMText
 62
2
  6
CONTINUOUS
  7
STANDARD
 71
2
 72
1
 10
13.7195323169
 20
3.4471466891
 30
0.0
 11
1.0
 21
0.0
 31
0.0
  1
ISOMETRIC VIEW\P\H0.1;SCALE  1:1
 40
0.125
 41
1.75
  0
LINE
  5
4BE
100
AcDbEntity
  8
0
100
AcDbLine
 62
2
  6
CONTINUOUS
 10
0.47
 20
5.586103
 11
0.47
 21
5.412897
  0
LINE
  5
4BF
100
AcDbEntity
  8
0
100
AcDbLine
 62
2
  6
CONTINUOUS
 10
0.62
 20
10.112
 11
0.62
 21
0.887
  0
LINE
  5
4C0
100
AcDbEntity
  8
0
100
AcDbLine
 62
2
  6
CONTINUOUS
 10
2.59
 20
0.887
 11
2.59
 21
0.637
  0
LINE
  5
4C1
100
AcDbEntity
  8
0
100
AcDbLine
 62
2
  6
CONTINUOUS
 10
2.59
 20
10.112
 11
2.59
 21
10.362
  0
LINE
  5
4C2
100
AcDbEntity
  8
0
100
AcDbLine
 62
2
  6
CONTINUOUS
 10
8.413397
 20
0.737
 11
8.586603
 21
0.737
  0
LINE
  5
4C3
100
AcDbEntity
  8
0
100
AcDbLine
 62
7
  6
CONTINUOUS
 10
11.1389508475
 20
1.425992839
 11
11.7453418475
 21
1.495385839
  0
LINE
  5
4C4
100
AcDbEntity
  8
0
100
AcDbLine
 62
2
  6
CONTINUOUS
 10
0.62
 20
0.887
 11
16.38
 21
0.887
  0
LINE
  5
4C5
100
AcDbEntity
  8
0
100
AcDbLine
 62
2
  6
CONTINUOUS
 10
12.03
 20
1.137
 11
16.38
 21
1.137
  0
LINE
  5
4C6
100
AcDbEntity
  8
0
100
AcDbLine
 62
7
  6
CONTINUOUS
 10
10.2121898475
 20
1.243294839
 11
10.4342808475
 21
1.243294839
  0
LINE
  5
4C7
100
AcDbEntity
  8
0
100
AcDbLine
 62
7
  6
CONTINUOUS
 10
10.4842808475
 20
1.243294839
 11
10.5842808475
 21
1.243294839
  0
LINE
  5
4C8
100
AcDbEntity
  8
0
100
AcDbLine
 62
7
  6
CONTINUOUS
 10
10.6342808475
 20
1.243294839
 11
10.8563718475
 21
1.243294839
  0
LINE
  5
4C9
100
AcDbEntity
  8
0
100
AcDbLine
 62
7
  6
CONTINUOUS
 10
11.0389508475
 20
1.243294839
 11
11.3171028475
 21
1.243294839
  0
LINE
  5
4CA
100
AcDbEntity
  8
0
100
AcDbLine
 62
7
  6
CONTINUOUS
 10
11.3671028475
 20
1.243294839
 11
11.5171888475
 21
1.243294839
  0
LINE
  5
4CB
100
AcDbEntity
  8
0
100
AcDbLine
 62
7
  6
CONTINUOUS
 10
11.5671888475
 20
1.243294839
 11
11.8453418475
 21
1.243294839
  0
LINE
  5
4CC
100
AcDbEntity
  8
0
100
AcDbLine
 62
7
  6
CONTINUOUS
 10
11.7453418475
 20
0.991203839
 11
11.1389508475
 21
1.060596839
  0
LINE
  5
4CD
100
AcDbEntity
  8
0
100
AcDbLine
 62
2
  6
CONTINUOUS
 10
4.56
 20
0.887
 11
4.56
 21
0.637
  0
LINE
  5
4CE
100
AcDbEntity
  8
0
100
AcDbLine
 62
2
  6
CONTINUOUS
 10
4.56
 20
10.112
 11
4.56
 21
10.362
  0
LINE
  5
4CF
100
AcDbEntity
  8
0
100
AcDbLine
 62
2
  6
CONTINUOUS
 10
0.47
 20
5.412897
 11
0.62
 21
5.4995
  0
LINE
  5
4D0
100
AcDbEntity
  8
0
100
AcDbLine
 62
2
  6
CONTINUOUS
 10
12.03
 20
1.507
 11
16.38
 21
1.507
  0
LINE
  5
4D1
100
AcDbEntity
  8
0
100
AcDbLine
 62
2
  6
CONTINUOUS
 10
10.03
 20
1.907
 11
12.03
 21
1.907
  0
LINE
  5
4D2
100
AcDbEntity
  8
0
100
AcDbLine
 62
2
  6
CONTINUOUS
 10
0.62
 20
5.4995
 11
0.47
 21
5.586103
  0
LINE
  5
4D3
100
AcDbEntity
  8
0
100
AcDbLine
 62
2
  6
CONTINUOUS
 10
12.03
 20
2.267
 11
16.38
 21
2.267
  0
LINE
  5
4D4
100
AcDbEntity
  8
0
100
AcDbLine
 62
2
  6
CONTINUOUS
 10
8.5
 20
10.112
 11
8.586603
 21
10.262
  0
LINE
  5
4D5
100
AcDbEntity
  8
0
100
AcDbLine
 62
2
  6
CONTINUOUS
 10
16.38
 20
2.807
 11
10.03
 21
2.807
  0
LINE
  5
4D6
100
AcDbEntity
  8
0
100
AcDbLine
 62
2
  6
CONTINUOUS
 10
0.62
 20
3.1995
 11
0.37
 21
3.1995
  0
LINE
  5
4D7
100
AcDbEntity
  8
0
100
AcDbLine
 62
2
  6
CONTINUOUS
 10
16.38
 20
3.1995
 11
16.63
 21
3.1995
  0
LINE
  5
4D8
100
AcDbEntity
  8
0
100
AcDbLine
 62
2
  6
CONTINUOUS
 10
8.586603
 20
0.737
 11
8.5
 21
0.887
  0
LINE
  5
4D9
100
AcDbEntity
  8
0
100
AcDbLine
 62
2
  6
CONTINUOUS
 10
6.53
 20
0.887
 11
6.53
 21
0.637
  0
LINE
  5
4DA
100
AcDbEntity
  8
0
100
AcDbLine
 62
2
  6
CONTINUOUS
 10
6.53
 20
10.112
 11
6.53
 21
10.362
  0
LINE
  5
4DB
100
AcDbEntity
  8
0
100
AcDbLine
 62
2
  6
CONTINUOUS
 10
8.5
 20
0.887
 11
8.5
 21
0.637
  0
LINE
  5
4DC
100
AcDbEntity
  8
0
100
AcDbLine
 62
2
  6
CONTINUOUS
 10
8.5
 20
10.112
 11
8.5
 21
10.362
  0
LINE
  5
4DD
100
AcDbEntity
  8
0
100
AcDbLine
 62
2
  6
CONTINUOUS
 10
0.62
 20
5.4995
 11
0.37
 21
5.4995
  0
LINE
  5
4DE
100
AcDbEntity
  8
0
100
AcDbLine
 62
2
  6
CONTINUOUS
 10
16.38
 20
5.4995
 11
16.63
 21
5.4995
  0
LINE
  5
4DF
100
AcDbEntity
  8
0
100
AcDbLine
 62
2
  6
CONTINUOUS
 10
10.03
 20
2.807
 11
10.03
 21
0.887
  0
LINE
  5
4E0
100
AcDbEntity
  8
0
100
AcDbLine
 62
2
  6
CONTINUOUS
 10
10.47
 20
0.887
 11
10.47
 21
0.637
  0
LINE
  5
4E1
100
AcDbEntity
  8
0
100
AcDbLine
 62
2
  6
CONTINUOUS
 10
10.47
 20
10.112
 11
10.47
 21
10.362
  0
LINE
  5
4E2
100
AcDbEntity
  8
0
100
AcDbLine
 62
7
  6
CONTINUOUS
 10
10.5342808475
 20
1.143294839
 11
10.5342808475
 21
0.921203839
  0
LINE
  5
4E3
100
AcDbEntity
  8
0
100
AcDbLine
 62
7
  6
CONTINUOUS
 10
10.5342808475
 20
1.193294839
 11
10.5342808475
 21
1.293294839
  0
LINE
  5
4E4
100
AcDbEntity
  8
0
100
AcDbLine
 62
7
  6
CONTINUOUS
 10
10.5342808475
 20
1.343294839
 11
10.5342808475
 21
1.565385839
  0
LINE
  5
4E5
100
AcDbEntity
  8
0
100
AcDbLine
 62
2
  6
CONTINUOUS
 10
8.5
 20
0.887
 11
8.413397
 21
0.737
  0
LINE
  5
4E6
100
AcDbEntity
  8
0
100
AcDbLine
 62
2
  6
CONTINUOUS
 10
0.62
 20
7.7995
 11
0.37
 21
7.7995
  0
LINE
  5
4E7
100
AcDbEntity
  8
0
100
AcDbLine
 62
2
  6
CONTINUOUS
 10
16.38
 20
7.7995
 11
16.63
 21
7.7995
  0
LINE
  5
4E8
100
AcDbEntity
  8
0
100
AcDbLine
 62
2
  6
CONTINUOUS
 10
8.413397
 20
10.262
 11
8.5
 21
10.112
  0
LINE
  5
4E9
100
AcDbEntity
  8
0
100
AcDbLine
 62
7
  6
CONTINUOUS
 10
11.1389508475
 20
1.060596839
 11
11.1389508475
 21
1.425992839
  0
LINE
  5
4EA
100
AcDbEntity
  8
0
100
AcDbLine
 62
7
  6
CONTINUOUS
 10
11.7453418475
 20
1.495385839
 11
11.7453418475
 21
0.991203839
  0
LINE
  5
4EB
100
AcDbEntity
  8
0
100
AcDbLine
 62
1
  6
CONTINUOUS
 10
12.03
 20
2.807
 11
12.03
 21
0.887
  0
LINE
  5
4EC
100
AcDbEntity
  8
0
100
AcDbLine
 62
2
  6
CONTINUOUS
 10
12.44
 20
0.887
 11
12.44
 21
0.637
  0
LINE
  5
4ED
100
AcDbEntity
  8
0
100
AcDbLine
 62
2
  6
CONTINUOUS
 10
12.44
 20
10.112
 11
12.44
 21
10.362
  0
LINE
  5
4EE
100
AcDbEntity
  8
0
100
AcDbLine
 62
2
  6
CONTINUOUS
 10
16.53
 20
5.586103
 11
16.38
 21
5.4995
  0
LINE
  5
4EF
100
AcDbEntity
  8
0
100
AcDbLine
 62
2
  6
CONTINUOUS
 10
16.38
 20
5.4995
 11
16.53
 21
5.412897
  0
LINE
  5
4F0
100
AcDbEntity
  8
0
100
AcDbLine
 62
2
  6
CONTINUOUS
 10
12.83
 20
1.507
 11
12.83
 21
1.137
  0
LINE
  5
4F1
100
AcDbEntity
  8
0
100
AcDbLine
 62
2
  6
CONTINUOUS
 10
16.38
 20
10.112
 11
0.62
 21
10.112
  0
LINE
  5
4F2
100
AcDbEntity
  8
0
100
AcDbLine
 62
2
  6
CONTINUOUS
 10
8.586603
 20
10.262
 11
8.413397
 21
10.262
  0
LINE
  5
4F3
100
AcDbEntity
  8
0
100
AcDbLine
 62
2
  6
CONTINUOUS
 10
14.205
 20
1.137
 11
14.205
 21
0.887
  0
LINE
  5
4F4
100
AcDbEntity
  8
0
100
AcDbLine
 62
2
  6
CONTINUOUS
 10
14.41
 20
0.887
 11
14.41
 21
0.637
  0
LINE
  5
4F5
100
AcDbEntity
  8
0
100
AcDbLine
 62
2
  6
CONTINUOUS
 10
14.41
 20
10.112
 11
14.41
 21
10.362
  0
LINE
  5
4F6
100
AcDbEntity
  8
0
100
AcDbLine
 62
2
  6
CONTINUOUS
 10
15.58
 20
1.507
 11
15.58
 21
1.137
  0
LINE
  5
4F7
100
AcDbEntity
  8
0
100
AcDbLine
 62
2
  6
CONTINUOUS
 10
16.38
 20
0.887
 11
16.38
 21
10.112
  0
LINE
  5
4F8
100
AcDbEntity
  8
0
100
AcDbLine
 62
2
  6
CONTINUOUS
 10
16.53
 20
5.412897
 11
16.53
 21
5.586103
  0
LWPOLYLINE
  5
4F9
100
AcDbEntity
  8
0
100
AcDbPolyline
 62
3
  6
CONTINUOUS
 90
5
 70
0
 10
10.3890715761
 20
4.5710768677
 10
10.3905430114
 20
4.5558065854
 10
10.4023138276
 20
4.5260328696
 10
10.4252650019
 20
4.4985178479
 10
10.4582456665
 20
4.4746412384
  0
LINE
  5
4FA
100
AcDbEntity
  8
0
100
AcDbLine
 62
7
  6
CONTINUOUS
 10
10.3890575966
 20
4.4874978777
 11
10.3890575966
 21
4.5710768653
  0
LINE
  5
4FB
100
AcDbEntity
  8
0
100
AcDbLine
 62
9
  6
CONTINUOUS
 10
10.4582456665
 20
4.3910622508
 11
10.4582456665
 21
4.4746412384
  0
LINE
  5
4FC
100
AcDbEntity
  8
0
100
AcDbLine
 62
7
  6
CONTINUOUS
 10
10.5885151615
 20
4.5477089035
 11
10.5885151615
 21
4.544494327
  0
LINE
  5
4FD
100
AcDbEntity
  8
0
100
AcDbLine
 62
7
  6
CONTINUOUS
 10
10.5942408421
 20
4.553157621
 11
10.5942408421
 21
4.5499430445
  0
LINE
  5
4FE
100
AcDbEntity
  8
0
100
AcDbLine
 62
7
  6
CONTINUOUS
 10
10.6014277332
 20
4.5358768109
 11
10.6014277332
 21
4.5326622344
  0
LINE
  5
4FF
100
AcDbEntity
  8
0
100
AcDbLine
 62
7
  6
CONTINUOUS
 10
10.606956054
 20
4.5304965141
 11
10.606956054
 21
4.5272819377
  0
LINE
  5
500
100
AcDbEntity
  8
0
100
AcDbLine
 62
7
  6
CONTINUOUS
 10
10.6218035041
 20
4.5219245287
 11
10.6218035041
 21
4.5187099523
  0
LINE
  5
501
100
AcDbEntity
  8
0
100
AcDbLine
 62
7
  6
CONTINUOUS
 10
10.631122632
 20
4.5187328409
 11
10.631122632
 21
4.5155182645
  0
LINE
  5
502
100
AcDbEntity
  8
0
100
AcDbLine
 62
7
  6
CONTINUOUS
 10
10.6358212935
 20
4.5707349206
 11
10.6358212935
 21
4.5675203442
  0
LINE
  5
503
100
AcDbEntity
  8
0
100
AcDbLine
 62
7
  6
CONTINUOUS
 10
10.6404812323
 20
4.5177069572
 11
10.6404812323
 21
4.5144923808
  0
LINE
  5
504
100
AcDbEntity
  8
0
100
AcDbLine
 62
7
  6
CONTINUOUS
 10
10.6434029105
 20
4.5751121431
 11
10.6434029105
 21
4.5718975667
  0
LINE
  5
505
100
AcDbEntity
  8
0
100
AcDbLine
 62
7
  6
CONTINUOUS
 10
10.6450220044
 20
4.5610458249
 11
10.6450220044
 21
4.5578312484
  0
LINE
  5
506
100
AcDbEntity
  8
0
100
AcDbLine
 62
7
  6
CONTINUOUS
 10
10.646798993
 20
4.5556427202
 11
10.646798993
 21
4.5524281438
  0
LINE
  5
507
100
AcDbEntity
  8
0
100
AcDbLine
 62
7
  6
CONTINUOUS
 10
10.6498792996
 20
4.5188468778
 11
10.6498792996
 21
4.5156323013
  0
LINE
  5
508
100
AcDbEntity
  8
0
100
AcDbLine
 62
7
  6
CONTINUOUS
 10
10.6504713832
 20
4.5513339213
 11
10.6504713832
 21
4.5481193448
  0
LINE
  5
509
100
AcDbEntity
  8
0
100
AcDbLine
 62
7
  6
CONTINUOUS
 10
10.6528404534
 20
4.5784178644
 11
10.6528404534
 21
4.5752032879
  0
LINE
  5
50A
100
AcDbEntity
  8
0
100
AcDbLine
 62
7
  6
CONTINUOUS
 10
10.6555655084
 20
4.5221297923
 11
10.6555655084
 21
4.5189152159
  0
LINE
  5
50B
100
AcDbEntity
  8
0
100
AcDbLine
 62
7
  6
CONTINUOUS
 10
10.6575398613
 20
4.5275557025
 11
10.6575398613
 21
4.524341126
  0
LINE
  5
50C
100
AcDbEntity
  8
0
100
AcDbLine
 62
7
  6
CONTINUOUS
 10
10.6616069694
 20
4.544904933
 11
10.6616069694
 21
4.5416903566
  0
LINE
  5
50D
100
AcDbEntity
  8
0
100
AcDbLine
 62
7
  6
CONTINUOUS
 10
10.6678457895
 20
4.5785090915
 11
10.6678457895
 21
4.575294515
  0
LINE
  5
50E
100
AcDbEntity
  8
0
100
AcDbLine
 62
7
  6
CONTINUOUS
 10
10.6689912208
 20
4.5384531384
 11
10.6689912208
 21
4.535238562
  0
LINE
  5
50F
100
AcDbEntity
  8
0
100
AcDbLine
 62
7
  6
CONTINUOUS
 10
10.679060319
 20
4.5764117093
 11
10.679060319
 21
4.5731971328
  0
LINE
  5
510
100
AcDbEntity
  8
0
100
AcDbLine
 62
7
  6
CONTINUOUS
 10
10.688379447
 20
4.5732200214
 11
10.688379447
 21
4.570005445
  0
LINE
  5
511
100
AcDbEntity
  8
0
100
AcDbLine
 62
7
  6
CONTINUOUS
 10
10.6917360612
 20
4.5515847998
 11
10.6917360612
 21
4.5483702233
  0
LINE
  5
512
100
AcDbEntity
  8
0
100
AcDbLine
 62
7
  6
CONTINUOUS
 10
10.6976591013
 20
4.5678625317
 11
10.6976591013
 21
4.5646479553
  0
LINE
  5
513
100
AcDbEntity
  8
0
100
AcDbLine
 62
7
  6
CONTINUOUS
 10
10.707136859
 20
4.4704698163
 11
10.707136859
 21
4.4672552399
  0
LINE
  5
514
100
AcDbEntity
  8
0
100
AcDbLine
 62
7
  6
CONTINUOUS
 10
10.7343830032
 20
4.5247745419
 11
10.7343830032
 21
4.5215599654
  0
LINE
  5
515
100
AcDbEntity
  8
0
100
AcDbLine
 62
7
  6
CONTINUOUS
 10
10.7422014462
 20
4.5421465787
 11
10.7422014462
 21
4.5389320022
  0
LINE
  5
516
100
AcDbEntity
  8
0
100
AcDbLine
 62
3
  6
CONTINUOUS
 10
10.6014277332
 20
4.5358768109
 11
10.6015461502
 21
4.5423742203
  0
LINE
  5
517
100
AcDbEntity
  8
0
100
AcDbLine
 62
3
  6
CONTINUOUS
 10
10.630095613
 20
4.565286203
 11
10.6299377257
 21
4.5566229913
  0
LINE
  5
518
100
AcDbEntity
  8
0
100
AcDbLine
 62
3
  6
CONTINUOUS
 10
10.6724662533
 20
4.5233153239
 11
10.6726241373
 21
4.5319785376
  0
LINE
  5
519
100
AcDbEntity
  8
0
100
AcDbLine
 62
3
  6
CONTINUOUS
 10
10.6918150032
 20
4.5559164066
 11
10.6917360612
 21
4.5515847998
  0
LINE
  5
51A
100
AcDbEntity
  8
0
100
AcDbLine
 62
3
  6
CONTINUOUS
 10
10.6299377257
 20
4.5566229913
 11
10.6335706436
 21
4.5501483897
  0
LINE
  5
51B
100
AcDbEntity
  8
0
100
AcDbLine
 62
3
  6
CONTINUOUS
 10
10.5846059382
 20
4.5390228838
 11
10.5881993839
 21
4.5303824789
  0
LINE
  5
51C
100
AcDbEntity
  8
0
100
AcDbLine
 62
7
  6
CONTINUOUS
 10
10.646798993
 20
4.5524281438
 11
10.6450220044
 21
4.5578312484
  0
LINE
  5
51D
100
AcDbEntity
  8
0
100
AcDbLine
 62
3
  6
CONTINUOUS
 10
10.646798993
 20
4.5556427202
 11
10.6450220044
 21
4.5610458249
  0
LINE
  5
51E
100
AcDbEntity
  8
0
100
AcDbLine
 62
3
  6
CONTINUOUS
 10
10.655762874
 20
4.5329588063
 11
10.6575398613
 21
4.5275557025
  0
LINE
  5
51F
100
AcDbEntity
  8
0
100
AcDbLine
 62
7
  6
CONTINUOUS
 10
10.7060798733
 20
4.5536809098
 11
10.7050433553
 21
4.5581961592
  0
LINE
  5
520
100
AcDbEntity
  8
0
100
AcDbLine
 62
3
  6
CONTINUOUS
 10
10.7067808689
 20
4.5538418299
 11
10.7050433553
 21
4.5614107356
  0
LINE
  5
521
100
AcDbEntity
  8
0
100
AcDbLine
 62
7
  6
CONTINUOUS
 10
10.7795576484
 20
4.4308471915
 11
10.7795576484
 21
4.427632615
  0
LINE
  5
522
100
AcDbEntity
  8
0
100
AcDbLine
 62
7
  6
CONTINUOUS
 10
10.8011965205
 20
4.4862006123
 11
10.8011965205
 21
4.4829860359
  0
LINE
  5
523
100
AcDbEntity
  8
0
100
AcDbLine
 62
7
  6
CONTINUOUS
 10
10.8145827566
 20
4.500358155
 11
10.8145827566
 21
4.4971435786
  0
LINE
  5
524
100
AcDbEntity
  8
0
100
AcDbLine
 62
7
  6
CONTINUOUS
 10
10.814820331
 20
4.4104887327
 11
10.814820331
 21
4.4072741563
  0
LINE
  5
525
100
AcDbEntity
  8
0
100
AcDbLine
 62
7
  6
CONTINUOUS
 10
10.8193611138
 20
4.4538275957
 11
10.8193611138
 21
4.4506130193
  0
LINE
  5
526
100
AcDbEntity
  8
0
100
AcDbLine
 62
7
  6
CONTINUOUS
 10
10.8222835271
 20
4.4083685435
 11
10.8222835271
 21
4.405153967
  0
LINE
  5
527
100
AcDbEntity
  8
0
100
AcDbLine
 62
7
  6
CONTINUOUS
 10
10.8297862034
 20
4.4084141538
 11
10.8297862034
 21
4.4051995773
  0
LINE
  5
528
100
AcDbEntity
  8
0
100
AcDbLine
 62
7
  6
CONTINUOUS
 10
10.8373283361
 20
4.4106255744
 11
10.8373283361
 21
4.4074109979
  0
LINE
  5
529
100
AcDbEntity
  8
0
100
AcDbLine
 62
7
  6
CONTINUOUS
 10
10.8430145449
 20
4.4139084889
 11
10.8430145449
 21
4.4106939125
  0
LINE
  5
52A
100
AcDbEntity
  8
0
100
AcDbLine
 62
7
  6
CONTINUOUS
 10
10.8461335913
 20
4.4821426842
 11
10.8461335913
 21
4.4789281077
  0
LINE
  5
52B
100
AcDbEntity
  8
0
100
AcDbLine
 62
7
  6
CONTINUOUS
 10
10.8468448324
 20
4.418262899
 11
10.8468448324
 21
4.4150483225
  0
LINE
  5
52C
100
AcDbEntity
  8
0
100
AcDbLine
 62
7
  6
CONTINUOUS
 10
10.8546237964
 20
4.433469137
 11
10.8546237964
 21
4.4302545606
  0
LINE
  5
52D
100
AcDbEntity
  8
0
100
AcDbLine
 62
7
  6
CONTINUOUS
 10
10.8600731739
 20
4.4237572342
 11
10.8600731739
 21
4.4205426577
  0
LINE
  5
52E
100
AcDbEntity
  8
0
100
AcDbLine
 62
7
  6
CONTINUOUS
 10
10.8620869924
 20
4.4313489477
 11
10.8620869924
 21
4.4281343713
  0
LINE
  5
52F
100
AcDbEntity
  8
0
100
AcDbLine
 62
7
  6
CONTINUOUS
 10
10.8695896674
 20
4.4313945573
 11
10.8695896674
 21
4.4281799808
  0
LINE
  5
530
100
AcDbEntity
  8
0
100
AcDbLine
 62
7
  6
CONTINUOUS
 10
10.8771318002
 20
4.4336059779
 11
10.8771318002
 21
4.4303914014
  0
LINE
  5
531
100
AcDbEntity
  8
0
100
AcDbLine
 62
7
  6
CONTINUOUS
 10
10.880922606
 20
4.4357945876
 11
10.880922606
 21
4.4325800111
  0
LINE
  5
532
100
AcDbEntity
  8
0
100
AcDbLine
 62
7
  6
CONTINUOUS
 10
10.8847528961
 20
4.4401489992
 11
10.8847528961
 21
4.4369344227
  0
LINE
  5
533
100
AcDbEntity
  8
0
100
AcDbLine
 62
7
  6
CONTINUOUS
 10
10.8906759362
 20
4.4564267311
 11
10.8906759362
 21
4.4532121547
  0
LINE
  5
534
100
AcDbEntity
  8
0
100
AcDbLine
 62
7
  6
CONTINUOUS
 10
10.8913082167
 20
4.3882153468
 11
10.8913082167
 21
4.3850007704
  0
LINE
  5
535
100
AcDbEntity
  8
0
100
AcDbLine
 62
7
  6
CONTINUOUS
 10
10.9189893088
 20
4.3634796564
 11
10.9189893088
 21
4.3602650799
  0
LINE
  5
536
100
AcDbEntity
  8
0
100
AcDbLine
 62
7
  6
CONTINUOUS
 10
10.9247149753
 20
4.368928382
 11
10.9247149753
 21
4.3657138056
  0
LINE
  5
537
100
AcDbEntity
  8
0
100
AcDbLine
 62
7
  6
CONTINUOUS
 10
10.9591874829
 20
4.4081181001
 11
10.9591874829
 21
4.4049035237
  0
LINE
  5
538
100
AcDbEntity
  8
0
100
AcDbLine
 62
7
  6
CONTINUOUS
 10
10.9593453775
 20
4.4167813076
 11
10.9593453775
 21
4.4135667312
  0
LINE
  5
539
100
AcDbEntity
  8
0
100
AcDbLine
 62
3
  6
CONTINUOUS
 10
10.8469237691
 20
4.4225945089
 11
10.8468448324
 21
4.418262899
  0
LINE
  5
53A
100
AcDbEntity
  8
0
100
AcDbLine
 62
3
  6
CONTINUOUS
 10
10.8848318328
 20
4.4444806091
 11
10.8847528961
 21
4.4401489992
  0
LINE
  5
53B
100
AcDbEntity
  8
0
100
AcDbLine
 62
3
  6
CONTINUOUS
 10
10.7047670503
 20
4.5462501164
 11
10.7067808689
 21
4.5538418299
  0
LINE
  5
53C
100
AcDbEntity
  8
0
100
AcDbLine
 62
3
  6
CONTINUOUS
 10
10.6575398613
 20
4.5275557025
 11
10.6555655084
 21
4.5221297923
  0
LINE
  5
53D
100
AcDbEntity
  8
0
100
AcDbLine
 62
7
  6
CONTINUOUS
 10
10.6575398613
 20
4.524341126
 11
10.6555655084
 21
4.5189152159
  0
LINE
  5
53E
100
AcDbEntity
  8
0
100
AcDbLine
 62
7
  6
CONTINUOUS
 10
10.6726241373
 20
4.5287639611
 11
10.6689912208
 21
4.535238562
  0
LINE
  5
53F
100
AcDbEntity
  8
0
100
AcDbLine
 62
3
  6
CONTINUOUS
 10
10.6726241373
 20
4.5319785376
 11
10.6689912208
 21
4.5384531384
  0
LINE
  5
540
100
AcDbEntity
  8
0
100
AcDbLine
 62
7
  6
CONTINUOUS
 10
10.8613106468
 20
4.4183372343
 11
10.8600731739
 21
4.4205426577
  0
LINE
  5
541
100
AcDbEntity
  8
0
100
AcDbLine
 62
3
  6
CONTINUOUS
 10
10.8618896401
 20
4.4205199291
 11
10.8600731739
 21
4.4237572342
  0
LINE
  5
542
100
AcDbEntity
  8
0
100
AcDbLine
 62
3
  6
CONTINUOUS
 10
11.0485886831
 20
4.2711483813
 11
11.0521821574
 21
4.2625079598
  0
LINE
  5
543
100
AcDbEntity
  8
0
100
AcDbLine
 62
7
  6
CONTINUOUS
 10
10.8990967033
 20
4.4422451068
 11
10.8980601743
 21
4.4467603678
  0
LINE
  5
544
100
AcDbEntity
  8
0
100
AcDbLine
 62
3
  6
CONTINUOUS
 10
10.8997977039
 20
4.4424060293
 11
10.8980601743
 21
4.4499749442
  0
LINE
  5
545
100
AcDbEntity
  8
0
100
AcDbLine
 62
7
  6
CONTINUOUS
 10
10.9836705694
 20
4.3108166161
 11
10.9836705694
 21
4.3076020396
  0
LINE
  5
546
100
AcDbEntity
  8
0
100
AcDbLine
 62
7
  6
CONTINUOUS
 10
11.0109167135
 20
4.3651213416
 11
11.0109167135
 21
4.3619067651
  0
LINE
  5
547
100
AcDbEntity
  8
0
100
AcDbLine
 62
7
  6
CONTINUOUS
 10
11.0187351565
 20
4.3824933784
 11
11.0187351565
 21
4.379278802
  0
LINE
  5
548
100
AcDbEntity
  8
0
100
AcDbLine
 62
7
  6
CONTINUOUS
 10
11.0524979066
 20
4.2798344008
 11
11.0524979066
 21
4.2766198244
  0
LINE
  5
549
100
AcDbEntity
  8
0
100
AcDbLine
 62
7
  6
CONTINUOUS
 10
11.0582236156
 20
4.2852831019
 11
11.0582236156
 21
4.2820685255
  0
LINE
  5
54A
100
AcDbEntity
  8
0
100
AcDbLine
 62
7
  6
CONTINUOUS
 10
11.0654104788
 20
4.268002308
 11
11.0654104788
 21
4.2647877315
  0
LINE
  5
54B
100
AcDbEntity
  8
0
100
AcDbLine
 62
7
  6
CONTINUOUS
 10
11.0709388142
 20
4.2626220027
 11
11.0709388142
 21
4.2594074263
  0
LINE
  5
54C
100
AcDbEntity
  8
0
100
AcDbLine
 62
7
  6
CONTINUOUS
 10
11.0777302309
 20
4.326547412
 11
11.0777302309
 21
4.3233328356
  0
LINE
  5
54D
100
AcDbEntity
  8
0
100
AcDbLine
 62
7
  6
CONTINUOUS
 10
11.0857862483
 20
4.2540500266
 11
11.0857862483
 21
4.2508354501
  0
LINE
  5
54E
100
AcDbEntity
  8
0
100
AcDbLine
 62
7
  6
CONTINUOUS
 10
11.091116467
 20
4.3407049547
 11
11.091116467
 21
4.3374903783
  0
LINE
  5
54F
100
AcDbEntity
  8
0
100
AcDbLine
 62
7
  6
CONTINUOUS
 10
11.0951053895
 20
4.2508583311
 11
11.0951053895
 21
4.2476437546
  0
LINE
  5
550
100
AcDbEntity
  8
0
100
AcDbLine
 62
7
  6
CONTINUOUS
 10
11.0998040669
 20
4.3028604016
 11
11.0998040669
 21
4.2996458252
  0
LINE
  5
551
100
AcDbEntity
  8
0
100
AcDbLine
 62
7
  6
CONTINUOUS
 10
11.1044639898
 20
4.2498324474
 11
11.1044639898
 21
4.246617871
  0
LINE
  5
552
100
AcDbEntity
  8
0
100
AcDbLine
 62
7
  6
CONTINUOUS
 10
11.1073856839
 20
4.3072376241
 11
11.1073856839
 21
4.3040230476
  0
LINE
  5
553
100
AcDbEntity
  8
0
100
AcDbLine
 62
7
  6
CONTINUOUS
 10
11.10900475
 20
4.2931713219
 11
11.10900475
 21
4.2899567455
  0
LINE
  5
554
100
AcDbEntity
  8
0
100
AcDbLine
 62
7
  6
CONTINUOUS
 10
11.1107817373
 20
4.2877682181
 11
11.1107817373
 21
4.2845536416
  0
LINE
  5
555
100
AcDbEntity
  8
0
100
AcDbLine
 62
7
  6
CONTINUOUS
 10
11.1138620465
 20
4.2509723741
 11
11.1138620465
 21
4.2477577976
  0
LINE
  5
556
100
AcDbEntity
  8
0
100
AcDbLine
 62
7
  6
CONTINUOUS
 10
11.1144541274
 20
4.2834594191
 11
11.1144541274
 21
4.2802448427
  0
LINE
  5
557
100
AcDbEntity
  8
0
100
AcDbLine
 62
7
  6
CONTINUOUS
 10
11.1168231983
 20
4.3105433618
 11
11.1168231983
 21
4.3073287854
  0
LINE
  5
558
100
AcDbEntity
  8
0
100
AcDbLine
 62
7
  6
CONTINUOUS
 10
11.1195482553
 20
4.2542552887
 11
11.1195482553
 21
4.2510407122
  0
LINE
  5
559
100
AcDbEntity
  8
0
100
AcDbLine
 62
7
  6
CONTINUOUS
 10
11.1215226188
 20
4.2596811927
 11
11.1215226188
 21
4.2564666162
  0
LINE
  5
55A
100
AcDbEntity
  8
0
100
AcDbLine
 62
7
  6
CONTINUOUS
 10
11.1255897137
 20
4.2770304308
 11
11.1255897137
 21
4.2738158544
  0
LINE
  5
55B
100
AcDbEntity
  8
0
100
AcDbLine
 62
7
  6
CONTINUOUS
 10
11.1318285483
 20
4.3106345809
 11
11.1318285483
 21
4.3074200044
  0
LINE
  5
55C
100
AcDbEntity
  8
0
100
AcDbLine
 62
7
  6
CONTINUOUS
 10
11.1329739942
 20
4.2705786194
 11
11.1329739942
 21
4.267364043
  0
LINE
  5
55D
100
AcDbEntity
  8
0
100
AcDbLine
 62
7
  6
CONTINUOUS
 10
11.134119399
 20
4.2305226832
 11
11.134119399
 21
4.2273081068
  0
LINE
  5
55E
100
AcDbEntity
  8
0
100
AcDbLine
 62
7
  6
CONTINUOUS
 10
11.1379497064
 20
4.2348770803
 11
11.1379497064
 21
4.2316625038
  0
LINE
  5
55F
100
AcDbEntity
  8
0
100
AcDbLine
 62
7
  6
CONTINUOUS
 10
11.1430430925
 20
4.3085371903
 11
11.1430430925
 21
4.3053226138
  0
LINE
  5
560
100
AcDbEntity
  8
0
100
AcDbLine
 62
7
  6
CONTINUOUS
 10
11.1452155275
 20
4.2219278839
 11
11.1452155275
 21
4.2187133075
  0
LINE
  5
561
100
AcDbEntity
  8
0
100
AcDbLine
 62
7
  6
CONTINUOUS
 10
11.1470319725
 20
4.2186905911
 11
11.1470319725
 21
4.2154760147
  0
LINE
  5
562
100
AcDbEntity
  8
0
100
AcDbLine
 62
7
  6
CONTINUOUS
 10
11.1523621912
 20
4.3053455193
 11
11.1523621912
 21
4.3021309428
  0
LINE
  5
563
100
AcDbEntity
  8
0
100
AcDbLine
 62
7
  6
CONTINUOUS
 10
11.1544162531
 20
4.2122387797
 11
11.1544162531
 21
4.2090242033
  0
LINE
  5
564
100
AcDbEntity
  8
0
100
AcDbLine
 62
7
  6
CONTINUOUS
 10
11.1557188346
 20
4.2837102808
 11
11.1557188346
 21
4.2804957043
  0
LINE
  5
565
100
AcDbEntity
  8
0
100
AcDbLine
 62
7
  6
CONTINUOUS
 10
11.1616418747
 20
4.2999880127
 11
11.1616418747
 21
4.2967734363
  0
LINE
  5
566
100
AcDbEntity
  8
0
100
AcDbLine
 62
7
  6
CONTINUOUS
 10
11.1655518393
 20
4.2058097915
 11
11.1655518393
 21
4.202595215
  0
LINE
  5
567
100
AcDbEntity
  8
0
100
AcDbLine
 62
3
  6
CONTINUOUS
 10
11.0654104788
 20
4.268002308
 11
11.0655288958
 21
4.2744997174
  0
LINE
  5
568
100
AcDbEntity
  8
0
100
AcDbLine
 62
3
  6
CONTINUOUS
 10
11.0940783579
 20
4.2974117005
 11
11.0939204845
 21
4.2887484807
  0
LINE
  5
569
100
AcDbEntity
  8
0
100
AcDbLine
 62
3
  6
CONTINUOUS
 10
11.1364490108
 20
4.2554408141
 11
11.1366068842
 21
4.2641040339
  0
LINE
  5
56A
100
AcDbEntity
  8
0
100
AcDbLine
 62
3
  6
CONTINUOUS
 10
11.1452155275
 20
4.2219278839
 11
11.1452944868
 21
4.2262594823
  0
LINE
  5
56B
100
AcDbEntity
  8
0
100
AcDbLine
 62
3
  6
CONTINUOUS
 10
11.1557977501
 20
4.2880419029
 11
11.1557188346
 21
4.2837102808
  0
LINE
  5
56C
100
AcDbEntity
  8
0
100
AcDbLine
 62
3
  6
CONTINUOUS
 10
10.8598758215
 20
4.4129282156
 11
10.8618896401
 21
4.4205199291
  0
LINE
  5
56D
100
AcDbEntity
  8
0
100
AcDbLine
 62
3
  6
CONTINUOUS
 10
10.8977838853
 20
4.4348143158
 11
10.8997977039
 21
4.4424060293
  0
LINE
  5
56E
100
AcDbEntity
  8
0
100
AcDbLine
 62
3
  6
CONTINUOUS
 10
10.5885151615
 20
4.5477089035
 11
10.5846059382
 21
4.5390228838
  0
LINE
  5
56F
100
AcDbEntity
  8
0
100
AcDbLine
 62
7
  6
CONTINUOUS
 10
10.5885151615
 20
4.544494327
 11
10.5858090032
 21
4.5384814333
  0
LWPOLYLINE
  5
570
100
AcDbEntity
  8
0
100
AcDbPolyline
 62
7
  6
CONTINUOUS
 90
5
 70
0
 10
10.4582456665
 20
4.3910622508
 10
10.4252650019
 20
4.4149388604
 10
10.4023138276
 20
4.4424538821
 10
10.3905430114
 20
4.4722275978
 10
10.3890715761
 20
4.4874978801
  0
LINE
  5
571
100
AcDbEntity
  8
0
100
AcDbLine
 62
3
  6
CONTINUOUS
 10
10.5881993839
 20
4.5303824789
 11
10.5955836351
 21
4.5239306842
  0
LINE
  5
572
100
AcDbEntity
  8
0
100
AcDbLine
 62
7
  6
CONTINUOUS
 10
10.606956054
 20
4.5272819377
 11
10.6014277332
 21
4.5326622344
  0
LINE
  5
573
100
AcDbEntity
  8
0
100
AcDbLine
 62
3
  6
CONTINUOUS
 10
10.606956054
 20
4.5304965141
 11
10.6014277332
 21
4.5358768109
  0
LINE
  5
574
100
AcDbEntity
  8
0
100
AcDbLine
 62
3
  6
CONTINUOUS
 10
10.6335706436
 20
4.5501483897
 11
10.6390989657
 21
4.5447680921
  0
LINE
  5
575
100
AcDbEntity
  8
0
100
AcDbLine
 62
3
  6
CONTINUOUS
 10
10.6502345519
 20
4.5383391039
 11
10.655762874
 21
4.5329588063
  0
LINE
  5
576
100
AcDbEntity
  8
0
100
AcDbLine
 62
7
  6
CONTINUOUS
 10
10.6504713832
 20
4.5481193448
 11
10.646798993
 21
4.5524281438
  0
LINE
  5
577
100
AcDbEntity
  8
0
100
AcDbLine
 62
3
  6
CONTINUOUS
 10
10.6504713832
 20
4.5513339213
 11
10.646798993
 21
4.5556427202
  0
LINE
  5
578
100
AcDbEntity
  8
0
100
AcDbLine
 62
3
  6
CONTINUOUS
 10
10.6881426157
 20
4.560225204
 11
10.6918150032
 21
4.5559164066
  0
LINE
  5
579
100
AcDbEntity
  8
0
100
AcDbLine
 62
3
  6
CONTINUOUS
 10
10.8432513789
 20
4.4269033079
 11
10.8469237691
 21
4.4225945089
  0
LINE
  5
57A
100
AcDbEntity
  8
0
100
AcDbLine
 62
3
  6
CONTINUOUS
 10
10.8811594426
 20
4.448789408
 11
10.8848318328
 21
4.4444806091
  0
LINE
  5
57B
100
AcDbEntity
  8
0
100
AcDbLine
 62
7
  6
CONTINUOUS
 10
11.219265193
 20
4.2094123181
 11
11.2145559878
 21
4.2158865396
  0
LINE
  5
57C
100
AcDbEntity
  8
0
100
AcDbLine
 62
3
  6
CONTINUOUS
 10
11.2200448654
 20
4.2115549998
 11
11.2145559878
 21
4.2191011161
  0
LINE
  5
57D
100
AcDbEntity
  8
0
100
AcDbLine
 62
3
  6
CONTINUOUS
 10
11.0939204845
 20
4.2887484807
 11
11.097553417
 21
4.2822738706
  0
LINE
  5
57E
100
AcDbEntity
  8
0
100
AcDbLine
 62
3
  6
CONTINUOUS
 10
11.1339220673
 20
4.219693652
 11
11.1375549568
 21
4.2132190662
  0
LINE
  5
57F
100
AcDbEntity
  8
0
100
AcDbLine
 62
7
  6
CONTINUOUS
 10
11.1470319725
 20
4.2154760147
 11
11.1452155275
 21
4.2187133075
  0
LINE
  5
580
100
AcDbEntity
  8
0
100
AcDbLine
 62
3
  6
CONTINUOUS
 10
11.1470319725
 20
4.2186905911
 11
11.1452155275
 21
4.2219278839
  0
LINE
  5
581
100
AcDbEntity
  8
0
100
AcDbLine
 62
7
  6
CONTINUOUS
 10
11.1366068842
 20
4.2608894574
 11
11.1329739942
 21
4.267364043
  0
LINE
  5
582
100
AcDbEntity
  8
0
100
AcDbLine
 62
3
  6
CONTINUOUS
 10
11.1366068842
 20
4.2641040339
 11
11.1329739942
 21
4.2705786194
  0
LINE
  5
583
100
AcDbEntity
  8
0
100
AcDbLine
 62
7
  6
CONTINUOUS
 10
11.256175942
 20
4.2356296274
 11
11.2525430095
 21
4.2421042374
  0
LINE
  5
584
100
AcDbEntity
  8
0
100
AcDbLine
 62
3
  6
CONTINUOUS
 10
11.256175942
 20
4.2388442038
 11
11.2525430095
 21
4.2453188139
  0
LWPOLYLINE
  5
585
100
AcDbEntity
  8
02___PRT_ALL_AXES
100
AcDbPolyline
 62
3
  6
CONTINUOUS
 90
13
 70
0
 10
11.0168646332
 20
4.4673541582
 10
11.0261749609
 20
4.4472938108
 10
11.0441609833
 20
4.4293082185
 10
11.0695969825
 20
4.4146230698
 10
11.1007495372
 20
4.4042391331
 10
11.1354956524
 20
4.3988640568
 10
11.1714674376
 20
4.3988641432
 10
11.2062134752
 20
4.4042393866
 10
11.2373658802
 20
4.414623473
 10
11.2628016676
 20
4.4293087441
 10
11.2807874305
 20
4.4472944228
 10
11.290097469
 20
4.4673548149
 10
11.2912611676
 20
4.4776500423
  0
LINE
  5
586
100
AcDbEntity
  8
0
100
AcDbLine
 62
3
  6
CONTINUOUS
 10
11.2193343669
 20
4.1725705449
 11
11.2229277986
 21
4.163930148
  0
LINE
  5
587
100
AcDbEntity
  8
0
100
AcDbLine
 62
7
  6
CONTINUOUS
 10
11.1107817373
 20
4.2845536416
 11
11.10900475
 21
4.2899567455
  0
LINE
  5
588
100
AcDbEntity
  8
0
100
AcDbLine
 62
3
  6
CONTINUOUS
 10
11.1107817373
 20
4.2877682181
 11
11.10900475
 21
4.2931713219
  0
LINE
  5
589
100
AcDbEntity
  8
0
100
AcDbLine
 62
3
  6
CONTINUOUS
 10
11.1321450807
 20
4.2250967562
 11
11.1339220673
 21
4.219693652
  0
LINE
  5
58A
100
AcDbEntity
  8
0
100
AcDbLine
 62
3
  6
CONTINUOUS
 10
11.1197456315
 20
4.2650842965
 11
11.1215226188
 21
4.2596811927
  0
LINE
  5
58B
100
AcDbEntity
  8
0
100
AcDbLine
 62
3
  6
CONTINUOUS
 10
11.2051579311
 20
4.2179611894
 11
11.2069349184
 21
4.2125580856
  0
LINE
  5
58C
100
AcDbEntity
  8
0
100
AcDbLine
 62
7
  6
CONTINUOUS
 10
11.2342607596
 20
4.1651155903
 11
11.2324837723
 21
4.1705186942
  0
LINE
  5
58D
100
AcDbEntity
  8
0
100
AcDbLine
 62
3
  6
CONTINUOUS
 10
11.2342607596
 20
4.1683301668
 11
11.2324837723
 21
4.1737332706
  0
LINE
  5
58E
100
AcDbEntity
  8
0
100
AcDbLine
 62
3
  6
CONTINUOUS
 10
11.2412100497
 20
4.2409187958
 11
11.2429870369
 21
4.235515692
  0
LINE
  5
58F
100
AcDbEntity
  8
0
100
AcDbLine
 62
7
  6
CONTINUOUS
 10
11.1700626418
 20
4.2858063883
 11
11.1690261128
 21
4.2903216494
  0
LINE
  5
590
100
AcDbEntity
  8
0
100
AcDbLine
 62
3
  6
CONTINUOUS
 10
11.1707636424
 20
4.2859673109
 11
11.1690261128
 21
4.2935362258
  0
LINE
  5
591
100
AcDbEntity
  8
02___PRT_ALL_AXES
100
AcDbLine
 62
3
  6
CONTINUOUS
 10
11.0114818697
 20
4.5149230604
 11
11.0168646332
 21
4.4673541582
  0
LINE
  5
592
100
AcDbEntity
  8
0
100
AcDbLine
 62
7
  6
CONTINUOUS
 10
11.1767268833
 20
4.2015466143
 11
11.1767268833
 21
4.1983320378
  0
LINE
  5
593
100
AcDbEntity
  8
0
100
AcDbLine
 62
7
  6
CONTINUOUS
 10
11.1823341341
 20
4.2004979312
 11
11.1823341341
 21
4.1972833548
  0
LINE
  5
594
100
AcDbEntity
  8
0
100
AcDbLine
 62
7
  6
CONTINUOUS
 10
11.1898368317
 20
4.2005435293
 11
11.1898368317
 21
4.1973289528
  0
LINE
  5
595
100
AcDbEntity
  8
0
100
AcDbLine
 62
7
  6
CONTINUOUS
 10
11.1954835402
 20
4.2016606573
 11
11.1954835402
 21
4.1984460808
  0
LINE
  5
596
100
AcDbEntity
  8
0
100
AcDbLine
 62
7
  6
CONTINUOUS
 10
11.1960756212
 20
4.2341477023
 11
11.1960756212
 21
4.2309331259
  0
LINE
  5
597
100
AcDbEntity
  8
0
100
AcDbLine
 62
7
  6
CONTINUOUS
 10
11.1966282471
 20
4.2644689378
 11
11.1966282471
 21
4.2612543613
  0
LINE
  5
598
100
AcDbEntity
  8
0
100
AcDbLine
 62
7
  6
CONTINUOUS
 10
11.2030651519
 20
4.2060378767
 11
11.2030651519
 21
4.2028233003
  0
LINE
  5
599
100
AcDbEntity
  8
0
100
AcDbLine
 62
7
  6
CONTINUOUS
 10
11.2034993595
 20
4.2298617019
 11
11.2034993595
 21
4.2266471255
  0
LINE
  5
59A
100
AcDbEntity
  8
0
100
AcDbLine
 62
7
  6
CONTINUOUS
 10
11.2069349184
 20
4.2125580856
 11
11.2069349184
 21
4.2093435091
  0
LINE
  5
59B
100
AcDbEntity
  8
0
100
AcDbLine
 62
7
  6
CONTINUOUS
 10
11.2116335971
 20
4.2645601568
 11
11.2116335971
 21
4.2613455804
  0
LINE
  5
59C
100
AcDbEntity
  8
0
100
AcDbLine
 62
7
  6
CONTINUOUS
 10
11.2145559878
 20
4.2191011161
 11
11.2145559878
 21
4.2158865396
  0
LINE
  5
59D
100
AcDbEntity
  8
0
100
AcDbLine
 62
7
  6
CONTINUOUS
 10
11.2184257516
 20
4.2256213234
 11
11.2184257516
 21
4.222406747
  0
LINE
  5
59E
100
AcDbEntity
  8
0
100
AcDbLine
 62
7
  6
CONTINUOUS
 10
11.2228480987
 20
4.2624627907
 11
11.2228480987
 21
4.2592482143
  0
LINE
  5
59F
100
AcDbEntity
  8
0
100
AcDbLine
 62
7
  6
CONTINUOUS
 10
11.2233225058
 20
4.1855881866
 11
11.2233225058
 21
4.1823736102
  0
LINE
  5
5A0
100
AcDbEntity
  8
0
100
AcDbLine
 62
7
  6
CONTINUOUS
 10
11.2259284053
 20
4.2256669452
 11
11.2259284053
 21
4.2224523688
  0
LINE
  5
5A1
100
AcDbEntity
  8
0
100
AcDbLine
 62
7
  6
CONTINUOUS
 10
11.2271528119
 20
4.1899425829
 11
11.2271528119
 21
4.1867280064
  0
LINE
  5
5A2
100
AcDbEntity
  8
0
100
AcDbLine
 62
7
  6
CONTINUOUS
 10
11.2324837723
 20
4.1737332706
 11
11.2324837723
 21
4.1705186942
  0
LINE
  5
5A3
100
AcDbEntity
  8
0
100
AcDbLine
 62
7
  6
CONTINUOUS
 10
11.2342607596
 20
4.1683301668
 11
11.2342607596
 21
4.1651155903
  0
LINE
  5
5A4
100
AcDbEntity
  8
0
100
AcDbLine
 62
7
  6
CONTINUOUS
 10
11.2347738839
 20
4.1964856149
 11
11.2347738839
 21
4.1932710385
  0
LINE
  5
5A5
100
AcDbEntity
  8
0
100
AcDbLine
 62
7
  6
CONTINUOUS
 10
11.2372219074
 20
4.2279011522
 11
11.2372219074
 21
4.2246865757
  0
LINE
  5
5A6
100
AcDbEntity
  8
0
100
AcDbLine
 62
7
  6
CONTINUOUS
 10
11.2377350331
 20
4.2560566011
 11
11.2377350331
 21
4.2528420247
  0
LINE
  5
5A7
100
AcDbEntity
  8
0
100
AcDbLine
 62
7
  6
CONTINUOUS
 10
11.2410127186
 20
4.230089765
 11
11.2410127186
 21
4.2268751885
  0
LINE
  5
5A8
100
AcDbEntity
  8
0
100
AcDbLine
 62
7
  6
CONTINUOUS
 10
11.241446881
 20
4.2539136132
 11
11.241446881
 21
4.2506990368
  0
LINE
  5
5A9
100
AcDbEntity
  8
0
100
AcDbLine
 62
7
  6
CONTINUOUS
 10
11.2416449977
 20
4.1618783799
 11
11.2416449977
 21
4.1586638034
  0
LINE
  5
5AA
100
AcDbEntity
  8
0
100
AcDbLine
 62
7
  6
CONTINUOUS
 10
11.2429870369
 20
4.235515692
 11
11.2429870369
 21
4.2323011155
  0
LINE
  5
5AB
100
AcDbEntity
  8
0
100
AcDbLine
 62
7
  6
CONTINUOUS
 10
11.2518325102
 20
4.2063343586
 11
11.2518325102
 21
4.2031197822
  0
LINE
  5
5AC
100
AcDbEntity
  8
0
100
AcDbLine
 62
7
  6
CONTINUOUS
 10
11.2525430095
 20
4.2453188139
 11
11.2525430095
 21
4.2421042374
  0
LINE
  5
5AD
100
AcDbEntity
  8
0
100
AcDbLine
 62
7
  6
CONTINUOUS
 10
11.2528200416
 20
4.1576152027
 11
11.2528200416
 21
4.1544006262
  0
LINE
  5
5AE
100
AcDbEntity
  8
0
100
AcDbLine
 62
7
  6
CONTINUOUS
 10
11.2621786406
 20
4.1565893183
 11
11.2621786406
 21
4.1533747418
  0
LINE
  5
5AF
100
AcDbEntity
  8
0
100
AcDbLine
 62
7
  6
CONTINUOUS
 10
11.26316547
 20
4.2107343767
 11
11.26316547
 21
4.2075198002
  0
LINE
  5
5B0
100
AcDbEntity
  8
0
100
AcDbLine
 62
7
  6
CONTINUOUS
 10
11.2707075868
 20
4.2129458126
 11
11.2707075868
 21
4.2097312362
  0
LINE
  5
5B1
100
AcDbEntity
  8
0
100
AcDbLine
 62
7
  6
CONTINUOUS
 10
11.2809747978
 20
4.1588691478
 11
11.2809747978
 21
4.1556545714
  0
LINE
  5
5B2
100
AcDbEntity
  8
0
100
AcDbLine
 62
7
  6
CONTINUOUS
 10
11.2820010889
 20
4.2151800196
 11
11.2820010889
 21
4.2119654432
  0
LINE
  5
5B3
100
AcDbEntity
  8
02___PRT_ALL_AXES
100
AcDbLine
 62
7
  6
CONTINUOUS
 10
11.2870657783
 20
4.4608224141
 11
11.2870657783
 21
4.4881228379
  0
LINE
  5
5B4
100
AcDbEntity
  8
02___PRT_ALL_AXES
100
AcDbLine
 62
9
  6
CONTINUOUS
 10
11.2900973192
 20
4.4881228379
 11
11.2900973192
 21
4.4673544922
  0
LINE
  5
5B5
100
AcDbEntity
  8
0
100
AcDbLine
 62
7
  6
CONTINUOUS
 10
11.2932550908
 20
4.21524844
 11
11.2932550908
 21
4.2120338636
  0
LINE
  5
5B6
100
AcDbEntity
  8
0
100
AcDbLine
 62
7
  6
CONTINUOUS
 10
11.2942031632
 20
4.1643634723
 11
11.2942031632
 21
4.1611488958
  0
LINE
  5
5B7
100
AcDbEntity
  8
0
100
AcDbLine
 62
7
  6
CONTINUOUS
 10
11.3074709836
 20
4.1720236062
 11
11.3074709836
 21
4.1688090298
  0
LINE
  5
5B8
100
AcDbEntity
  8
0
100
AcDbLine
 62
7
  6
CONTINUOUS
 10
11.3082209406
 20
4.2131738726
 11
11.3082209406
 21
4.2099592961
  0
LINE
  5
5B9
100
AcDbEntity
  8
0
100
AcDbLine
 62
7
  6
CONTINUOUS
 10
11.316987456
 20
4.1796609416
 11
11.316987456
 21
4.1764463652
  0
LINE
  5
5BA
100
AcDbEntity
  8
0
100
AcDbLine
 62
7
  6
CONTINUOUS
 10
11.3209361405
 20
4.1905127741
 11
11.3209361405
 21
4.1872981977
  0
LINE
  5
5BB
100
AcDbEntity
  8
0
100
AcDbLine
 62
7
  6
CONTINUOUS
 10
11.3212519297
 20
4.2078391892
 11
11.3212519297
 21
4.2046246127
  0
LINE
  5
5BC
100
AcDbEntity
  8
0
100
AcDbLine
 62
7
  6
CONTINUOUS
 10
11.330492113
 20
4.200315896
 11
11.330492113
 21
4.1971013196
  0
LINE
  5
5BD
100
AcDbEntity
  8
0
100
AcDbLine
 62
7
  6
CONTINUOUS
 10
11.3427336875
 20
4.1516651352
 11
11.3427336875
 21
4.1484505588
  0
LINE
  5
5BE
100
AcDbEntity
  8
0
100
AcDbLine
 62
7
  6
CONTINUOUS
 10
11.3695061226
 20
4.1799802482
 11
11.3695061226
 21
4.1767656718
  0
LINE
  5
5BF
100
AcDbEntity
  8
0
100
AcDbLine
 62
7
  6
CONTINUOUS
 10
11.3779963489
 20
4.1313066888
 11
11.3779963489
 21
4.1280921123
  0
LINE
  5
5C0
100
AcDbEntity
  8
0
100
AcDbLine
 62
3
  6
CONTINUOUS
 10
11.2194527832
 20
4.179067954
 11
11.2193343669
 21
4.1725705449
  0
LINE
  5
5C1
100
AcDbEntity
  8
0
100
AcDbLine
 62
3
  6
CONTINUOUS
 10
11.2560180261
 20
4.2301810086
 11
11.256175942
 21
4.2388442038
  0
LINE
  5
5C2
100
AcDbEntity
  8
0
100
AcDbLine
 62
3
  6
CONTINUOUS
 10
11.3339671296
 20
4.1851780907
 11
11.3340855453
 21
4.1916754994
  0
LINE
  5
5C3
100
AcDbEntity
  8
02___PRT_ALL_AXES
100
AcDbLine
 62
7
  6
CONTINUOUS
 10
11.0288793895
 20
4.5161443785
 11
11.0167907007
 21
4.4680075185
  0
LINE
  5
5C4
100
AcDbEntity
  8
0
100
AcDbLine
 62
3
  6
CONTINUOUS
 10
10.6685964975
 20
4.5167951089
 11
10.6724662533
 21
4.5233153239
  0
LINE
  5
5C5
100
AcDbEntity
  8
0
100
AcDbLine
 62
3
  6
CONTINUOUS
 10
10.6917360612
 20
4.5515847998
 11
10.6898011846
 21
4.548324693
  0
LINE
  5
5C6
100
AcDbEntity
  8
0
100
AcDbLine
 62
7
  6
CONTINUOUS
 10
10.4582456665
 20
4.3910622508
 11
11.5718042888
 21
3.7481634248
  0
LINE
  5
5C7
100
AcDbEntity
  8
0
100
AcDbLine
 62
3
  6
CONTINUOUS
 10
11.2229277986
 20
4.163930148
 11
11.2321679818
 21
4.1564068548
  0
LINE
  5
5C8
100
AcDbEntity
  8
0
100
AcDbLine
 62
3
  6
CONTINUOUS
 10
11.1959177478
 20
4.2254844825
 11
11.2051579311
 21
4.2179611894
  0
LINE
  5
5C9
100
AcDbEntity
  8
0
100
AcDbLine
 62
7
  6
CONTINUOUS
 10
10.6689912208
 20
4.535238562
 11
10.6616069694
 21
4.5416903566
  0
LINE
  5
5CA
100
AcDbEntity
  8
0
100
AcDbLine
 62
3
  6
CONTINUOUS
 10
10.6689912208
 20
4.5384531384
 11
10.6616069694
 21
4.544904933
  0
LINE
  5
5CB
100
AcDbEntity
  8
0
100
AcDbLine
 62
7
  6
CONTINUOUS
 10
10.7050433553
 20
4.5581961592
 11
10.6976591013
 21
4.5646479553
  0
LINE
  5
5CC
100
AcDbEntity
  8
0
100
AcDbLine
 62
3
  6
CONTINUOUS
 10
10.7050433553
 20
4.5614107356
 11
10.6976591013
 21
4.5678625317
  0
LINE
  5
5CD
100
AcDbEntity
  8
0
100
AcDbLine
 62
3
  6
CONTINUOUS
 10
11.0521821574
 20
4.2625079598
 11
11.0595663953
 21
4.2560561728
  0
LINE
  5
5CE
100
AcDbEntity
  8
0
100
AcDbLine
 62
7
  6
CONTINUOUS
 10
11.1544162531
 20
4.2090242033
 11
11.1470319725
 21
4.2154760147
  0
LINE
  5
5CF
100
AcDbEntity
  8
0
100
AcDbLine
 62
3
  6
CONTINUOUS
 10
11.1544162531
 20
4.2122387797
 11
11.1470319725
 21
4.2186905911
  0
LINE
  5
5D0
100
AcDbEntity
  8
0
100
AcDbLine
 62
7
  6
CONTINUOUS
 10
10.8980601743
 20
4.4467603678
 11
10.8906759362
 21
4.4532121547
  0
LINE
  5
5D1
100
AcDbEntity
  8
0
100
AcDbLine
 62
3
  6
CONTINUOUS
 10
10.8980601743
 20
4.4499749442
 11
10.8906759362
 21
4.4564267311
  0
LINE
  5
5D2
100
AcDbEntity
  8
0
100
AcDbLine
 62
7
  6
CONTINUOUS
 10
11.2416449977
 20
4.1586638034
 11
11.2342607596
 21
4.1651155903
  0
LINE
  5
5D3
100
AcDbEntity
  8
0
100
AcDbLine
 62
3
  6
CONTINUOUS
 10
11.2416449977
 20
4.1618783799
 11
11.2342607596
 21
4.1683301668
  0
LINE
  5
5D4
100
AcDbEntity
  8
0
100
AcDbLine
 62
7
  6
CONTINUOUS
 10
11.1329739942
 20
4.267364043
 11
11.1255897137
 21
4.2738158544
  0
LINE
  5
5D5
100
AcDbEntity
  8
0
100
AcDbLine
 62
3
  6
CONTINUOUS
 10
11.1329739942
 20
4.2705786194
 11
11.1255897137
 21
4.2770304308
  0
LINE
  5
5D6
100
AcDbEntity
  8
0
100
AcDbLine
 62
3
  6
CONTINUOUS
 10
11.4660547928
 20
4.023563888
 11
11.4734389883
 21
4.0171121255
  0
LINE
  5
5D7
100
AcDbEntity
  8
0
100
AcDbLine
 62
7
  6
CONTINUOUS
 10
11.1690261128
 20
4.2903216494
 11
11.1616418747
 21
4.2967734363
  0
LINE
  5
5D8
100
AcDbEntity
  8
0
100
AcDbLine
 62
3
  6
CONTINUOUS
 10
11.1690261128
 20
4.2935362258
 11
11.1616418747
 21
4.2999880127
  0
LINE
  5
5D9
100
AcDbEntity
  8
0
100
AcDbLine
 62
3
  6
CONTINUOUS
 10
11.2338258116
 20
4.2473705827
 11
11.2412100497
 21
4.2409187958
  0
LINE
  5
5DA
100
AcDbEntity
  8
0
100
AcDbLine
 62
7
  6
CONTINUOUS
 10
11.0709388142
 20
4.2594074263
 11
11.0654104788
 21
4.2647877315
  0
LINE
  5
5DB
100
AcDbEntity
  8
0
100
AcDbLine
 62
3
  6
CONTINUOUS
 10
11.0709388142
 20
4.2626220027
 11
11.0654104788
 21
4.268002308
  0
LINE
  5
5DC
100
AcDbEntity
  8
0
100
AcDbLine
 62
3
  6
CONTINUOUS
 10
11.1375549568
 20
4.2132190662
 11
11.143083292
 21
4.2078387609
  0
LINE
  5
5DD
100
AcDbEntity
  8
0
100
AcDbLine
 62
3
  6
CONTINUOUS
 10
11.097553417
 20
4.2822738706
 11
11.1030817099
 21
4.27689359
  0
LINE
  5
5DE
100
AcDbEntity
  8
0
100
AcDbLine
 62
3
  6
CONTINUOUS
 10
11.1142172961
 20
4.2704646017
 11
11.1197456315
 21
4.2650842965
  0
LINE
  5
5DF
100
AcDbEntity
  8
0
100
AcDbLine
 62
7
  6
CONTINUOUS
 10
11.4829160042
 20
4.0193690741
 11
11.4773877113
 21
4.0247493548
  0
LINE
  5
5E0
100
AcDbEntity
  8
0
100
AcDbLine
 62
3
  6
CONTINUOUS
 10
11.4829160042
 20
4.0225836506
 11
11.4773877113
 21
4.0279639313
  0
LINE
  5
5E1
100
AcDbEntity
  8
0
100
AcDbLine
 62
7
  6
CONTINUOUS
 10
11.1144541274
 20
4.2802448427
 11
11.1107817373
 21
4.2845536416
  0
LINE
  5
5E2
100
AcDbEntity
  8
0
100
AcDbLine
 62
3
  6
CONTINUOUS
 10
11.1144541274
 20
4.2834594191
 11
11.1107817373
 21
4.2877682181
  0
LINE
  5
5E3
100
AcDbEntity
  8
0
100
AcDbLine
 62
3
  6
CONTINUOUS
 10
11.1521253599
 20
4.2923507019
 11
11.1557977501
 21
4.2880419029
  0
LINE
  5
5E4
100
AcDbEntity
  8
0
100
AcDbLine
 62
3
  6
CONTINUOUS
 10
11.406427398
 20
4.1477212647
 11
11.4100997882
 21
4.1434124657
  0
LINE
  5
5E5
100
AcDbEntity
  8
0
100
AcDbLine
 62
7
  6
CONTINUOUS
 10
11.3340855453
 20
4.188460923
 11
11.330492113
 21
4.1971013196
  0
LINE
  5
5E6
100
AcDbEntity
  8
0
100
AcDbLine
 62
3
  6
CONTINUOUS
 10
11.3340855453
 20
4.1916754994
 11
11.330492113
 21
4.200315896
  0
LINE
  5
5E7
100
AcDbEntity
  8
0
100
AcDbLine
 62
3
  6
CONTINUOUS
 10
11.4624613186
 20
4.0322043094
 11
11.4660547928
 21
4.023563888
  0
LINE
  5
5E8
100
AcDbEntity
  8
0
100
AcDbLine
 62
7
  6
CONTINUOUS
 10
11.5518937834
 20
4.0264573417
 11
11.5488209481
 21
4.0338458981
  0
LINE
  5
5E9
100
AcDbEntity
  8
0
100
AcDbLine
 62
3
  6
CONTINUOUS
 10
11.5524144228
 20
4.0284200534
 11
11.5488209481
 21
4.0370604746
  0
LINE
  5
5EA
100
AcDbEntity
  8
0
100
AcDbLine
 62
3
  6
CONTINUOUS
 10
11.3191591532
 20
4.195915878
 11
11.3209361405
 21
4.1905127741
  0
LINE
  5
5EB
100
AcDbEntity
  8
0
100
AcDbLine
 62
7
  6
CONTINUOUS
 10
11.4773877113
 20
4.0247493548
 11
11.475610724
 21
4.0301524586
  0
LINE
  5
5EC
100
AcDbEntity
  8
0
100
AcDbLine
 62
3
  6
CONTINUOUS
 10
11.4773877113
 20
4.0279639313
 11
11.475610724
 21
4.0333670351
  0
LINE
  5
5ED
100
AcDbEntity
  8
0
100
AcDbLine
 62
3
  6
CONTINUOUS
 10
11.5374880307
 20
4.032660432
 11
11.539265018
 21
4.0272573282
  0
LINE
  5
5EE
100
AcDbEntity
  8
0
100
AcDbLine
 62
7
  6
CONTINUOUS
 10
11.4224692636
 20
4.1400826398
 11
11.4214327055
 21
4.1445979318
  0
LINE
  5
5EF
100
AcDbEntity
  8
0
100
AcDbLine
 62
3
  6
CONTINUOUS
 10
11.4231702776
 20
4.1402435688
 11
11.4214327055
 21
4.1478125083
  0
LWPOLYLINE
  5
5F0
100
AcDbEntity
  8
02___PRT_ALL_AXES
100
AcDbPolyline
 62
3
  6
CONTINUOUS
 90
7
 70
0
 10
11.4393829968
 20
4.2331309949
 10
11.4405468445
 20
4.2227466532
 10
11.4498571723
 20
4.2026863058
 10
11.4678431946
 20
4.1847007135
 10
11.4932791938
 20
4.1700155647
 10
11.5244317486
 20
4.1596316281
 10
11.5591778637
 20
4.1542565517
  0
LINE
  5
5F1
100
AcDbEntity
  8
02___PRT_ALL_AXES
100
AcDbLine
 62
3
  6
CONTINUOUS
 10
11.2912611676
 20
4.4776500423
 11
11.2870742261
 21
4.5149147852
  0
LINE
  5
5F2
100
AcDbEntity
  8
0
100
AcDbLine
 62
7
  6
CONTINUOUS
 10
11.3854595449
 20
4.1291864995
 11
11.3854595449
 21
4.1259719231
  0
LINE
  5
5F3
100
AcDbEntity
  8
0
100
AcDbLine
 62
7
  6
CONTINUOUS
 10
11.3864471188
 20
4.080467319
 11
11.3864471188
 21
4.0772527426
  0
LINE
  5
5F4
100
AcDbEntity
  8
0
100
AcDbLine
 62
7
  6
CONTINUOUS
 10
11.3929622411
 20
4.1292320968
 11
11.3929622411
 21
4.1260175203
  0
LINE
  5
5F5
100
AcDbEntity
  8
0
100
AcDbLine
 62
7
  6
CONTINUOUS
 10
11.4005043526
 20
4.1314435296
 11
11.4005043526
 21
4.1282289532
  0
LINE
  5
5F6
100
AcDbEntity
  8
0
100
AcDbLine
 62
7
  6
CONTINUOUS
 10
11.4061905667
 20
4.1347264473
 11
11.4061905667
 21
4.1315118708
  0
LINE
  5
5F7
100
AcDbEntity
  8
0
100
AcDbLine
 62
7
  6
CONTINUOUS
 10
11.4100208728
 20
4.1390808435
 11
11.4100208728
 21
4.1358662671
  0
LINE
  5
5F8
100
AcDbEntity
  8
0
100
AcDbLine
 62
7
  6
CONTINUOUS
 10
11.4140485099
 20
4.1542642706
 11
11.4140485099
 21
4.1510496942
  0
LINE
  5
5F9
100
AcDbEntity
  8
0
100
AcDbLine
 62
7
  6
CONTINUOUS
 10
11.4530230617
 20
4.1317628117
 11
11.4530230617
 21
4.1285482353
  0
LINE
  5
5FA
100
AcDbEntity
  8
0
100
AcDbLine
 62
7
  6
CONTINUOUS
 10
11.4683448604
 20
4.046316256
 11
11.4683448604
 21
4.0431016795
  0
LINE
  5
5FB
100
AcDbEntity
  8
0
100
AcDbLine
 62
7
  6
CONTINUOUS
 10
11.475610724
 20
4.0333670351
 11
11.475610724
 21
4.0301524586
  0
LINE
  5
5FC
100
AcDbEntity
  8
0
100
AcDbLine
 62
7
  6
CONTINUOUS
 10
11.4773877113
 20
4.0279639313
 11
11.4773877113
 21
4.0247493548
  0
LINE
  5
5FD
100
AcDbEntity
  8
0
100
AcDbLine
 62
7
  6
CONTINUOUS
 10
11.4829160042
 20
4.0225836506
 11
11.4829160042
 21
4.0193690741
  0
LINE
  5
5FE
100
AcDbEntity
  8
0
100
AcDbLine
 62
7
  6
CONTINUOUS
 10
11.4940515904
 20
4.0161546623
 11
11.4940515904
 21
4.0129400859
  0
LINE
  5
5FF
100
AcDbEntity
  8
0
100
AcDbLine
 62
7
  6
CONTINUOUS
 10
11.5033707741
 20
4.0129629423
 11
11.5033707741
 21
4.0097483658
  0
LINE
  5
600
100
AcDbEntity
  8
0
100
AcDbLine
 62
7
  6
CONTINUOUS
 10
11.5041601875
 20
4.0562790189
 11
11.5041601875
 21
4.0530644425
  0
LINE
  5
601
100
AcDbEntity
  8
0
100
AcDbLine
 62
7
  6
CONTINUOUS
 10
11.5127293731
 20
4.0119370579
 11
11.5127293731
 21
4.0087224814
  0
LINE
  5
602
100
AcDbEntity
  8
0
100
AcDbLine
 62
7
  6
CONTINUOUS
 10
11.5191260798
 20
4.0542044269
 11
11.5191260798
 21
4.0509898505
  0
LINE
  5
603
100
AcDbEntity
  8
0
100
AcDbLine
 62
7
  6
CONTINUOUS
 10
11.5221273886
 20
4.0130770098
 11
11.5221273886
 21
4.0098624334
  0
LINE
  5
604
100
AcDbEntity
  8
0
100
AcDbLine
 62
7
  6
CONTINUOUS
 10
11.5296695851
 20
4.0152883936
 11
11.5296695851
 21
4.0120738172
  0
LINE
  5
605
100
AcDbEntity
  8
0
100
AcDbLine
 62
7
  6
CONTINUOUS
 10
11.5303010813
 20
4.0499412743
 11
11.5303010813
 21
4.0467266978
  0
LINE
  5
606
100
AcDbEntity
  8
0
100
AcDbLine
 62
7
  6
CONTINUOUS
 10
11.5334603909
 20
4.0174770034
 11
11.5334603909
 21
4.0142624269
  0
LINE
  5
607
100
AcDbEntity
  8
0
100
AcDbLine
 62
7
  6
CONTINUOUS
 10
11.5346839707
 20
4.0846169305
 11
11.5346839707
 21
4.0814023541
  0
LINE
  5
608
100
AcDbEntity
  8
0
100
AcDbLine
 62
7
  6
CONTINUOUS
 10
11.5367380326
 20
3.991510191
 11
11.5367380326
 21
3.9882956145
  0
LINE
  5
609
100
AcDbEntity
  8
0
100
AcDbLine
 62
7
  6
CONTINUOUS
 10
11.5372906147
 20
4.0218314502
 11
11.5372906147
 21
4.0186168738
  0
LINE
  5
60A
100
AcDbEntity
  8
0
100
AcDbLine
 62
7
  6
CONTINUOUS
 10
11.539265018
 20
4.0272573282
 11
11.539265018
 21
4.0240427517
  0
LINE
  5
60B
100
AcDbEntity
  8
0
100
AcDbLine
 62
7
  6
CONTINUOUS
 10
11.5414366675
 20
4.043512286
 11
11.5414366675
 21
4.0402977096
  0
LINE
  5
60C
100
AcDbEntity
  8
0
100
AcDbLine
 62
7
  6
CONTINUOUS
 10
11.5488209481
 20
4.0370604746
 11
11.5488209481
 21
4.0338458981
  0
LINE
  5
60D
100
AcDbEntity
  8
0
100
AcDbLine
 62
7
  6
CONTINUOUS
 10
11.5515855092
 20
3.9829381903
 11
11.5515855092
 21
3.9797236138
  0
LINE
  5
60E
100
AcDbEntity
  8
0
100
AcDbLine
 62
9
  6
CONTINUOUS
 10
11.5718042888
 20
3.7481634248
 11
11.5718042888
 21
3.8317424123
  0
LINE
  5
60F
100
AcDbEntity
  8
0
100
AcDbLine
 62
3
  6
CONTINUOUS
 10
11.4100997882
 20
4.1434124657
 11
11.4100208728
 21
4.1390808435
  0
LINE
  5
610
100
AcDbEntity
  8
0
100
AcDbLine
 62
3
  6
CONTINUOUS
 10
11.1687498238
 20
4.2783755974
 11
11.1707636424
 21
4.2859673109
  0
LINE
  5
611
100
AcDbEntity
  8
0
100
AcDbLine
 62
3
  6
CONTINUOUS
 10
11.1215226188
 20
4.2596811927
 11
11.1195482553
 21
4.2542552887
  0
LINE
  5
612
100
AcDbEntity
  8
0
100
AcDbLine
 62
7
  6
CONTINUOUS
 10
11.1215226188
 20
4.2564666162
 11
11.1195482553
 21
4.2510407122
  0
LINE
  5
613
100
AcDbEntity
  8
0
100
AcDbLine
 62
3
  6
CONTINUOUS
 10
11.134119399
 20
4.2305226832
 11
11.1321450807
 21
4.2250967562
  0
LINE
  5
614
100
AcDbEntity
  8
0
100
AcDbLine
 62
7
  6
CONTINUOUS
 10
11.134119399
 20
4.2273081068
 11
11.1331780022
 21
4.2247209097
  0
LINE
  5
615
100
AcDbEntity
  8
0
100
AcDbLine
 62
3
  6
CONTINUOUS
 10
11.0524979066
 20
4.2798344008
 11
11.0485886831
 21
4.2711483813
  0
LINE
  5
616
100
AcDbEntity
  8
0
100
AcDbLine
 62
7
  6
CONTINUOUS
 10
11.0524979066
 20
4.2766198244
 11
11.0497917482
 21
4.2706069307
  0
LINE
  5
617
100
AcDbEntity
  8
0
100
AcDbLine
 62
3
  6
CONTINUOUS
 10
10.7343830032
 20
4.5247745419
 11
10.6902361154
 21
4.4692842855
  0
LINE
  5
618
100
AcDbEntity
  8
0
100
AcDbLine
 62
7
  6
CONTINUOUS
 10
10.7343830032
 20
4.5215599654
 11
10.6918022723
 21
4.4680382838
  0
LINE
  5
619
100
AcDbEntity
  8
0
100
AcDbLine
 62
3
  6
CONTINUOUS
 10
10.6015461502
 20
4.5423742203
 11
10.6053764284
 21
4.5467286327
  0
LINE
  5
61A
100
AcDbEntity
  8
0
100
AcDbLine
 62
3
  6
CONTINUOUS
 10
10.6450220044
 20
4.5610458249
 11
10.6488522826
 21
4.5654002372
  0
LWPOLYLINE
  5
61B
100
AcDbEntity
  8
0
100
AcDbPolyline
 62
3
  6
CONTINUOUS
 90
8
 70
0
 10
11.5718042888
 20
3.8317424123
 10
11.6131606555
 20
3.8127014878
 10
11.6608189435
 20
3.7994510397
 10
11.7123893671
 20
3.7926555009
 10
11.76528597
 20
3.792655628
 10
11.8168562956
 20
3.7994514147
 10
11.8645143925
 20
3.812702092
 10
11.9058704846
 20
3.8317432153
  0
LINE
  5
61C
100
AcDbEntity
  8
0
100
AcDbLine
 62
3
  6
CONTINUOUS
 10
10.4582456665
 20
4.4746412384
 11
11.5718042888
 21
3.8317424123
  0
LINE
  5
61D
100
AcDbEntity
  8
0
100
AcDbLine
 62
3
  6
CONTINUOUS
 10
10.5955836351
 20
4.5239306842
 11
10.6104310852
 21
4.5153586988
  0
LINE
  5
61E
100
AcDbEntity
  8
0
100
AcDbLine
 62
3
  6
CONTINUOUS
 10
10.6531174982
 20
4.4907142443
 11
10.6642530844
 21
4.4842852561
  0
LINE
  5
61F
100
AcDbEntity
  8
0
100
AcDbLine
 62
3
  6
CONTINUOUS
 10
10.6902361154
 20
4.4692842855
 11
10.7050835707
 21
4.4607122971
  0
LINE
  5
620
100
AcDbEntity
  8
0
100
AcDbLine
 62
3
  6
CONTINUOUS
 10
10.7310666017
 20
4.4457113265
 11
10.7422021879
 21
4.4392823383
  0
LINE
  5
621
100
AcDbEntity
  8
0
100
AcDbLine
 62
3
  6
CONTINUOUS
 10
10.7570496433
 20
4.4307103498
 11
10.8015919882
 21
4.4049943968
  0
LINE
  5
622
100
AcDbEntity
  8
0
100
AcDbLine
 62
3
  6
CONTINUOUS
 10
10.84056654
 20
4.3824929379
 11
10.8517021262
 21
4.3760639496
  0
LINE
  5
623
100
AcDbEntity
  8
0
100
AcDbLine
 62
3
  6
CONTINUOUS
 10
10.9036681882
 20
4.3460620085
 11
10.9148037744
 21
4.3396330202
  0
LINE
  5
624
100
AcDbEntity
  8
0
100
AcDbLine
 62
3
  6
CONTINUOUS
 10
10.9296512085
 20
4.3310610441
 11
10.9407867948
 21
4.3246320558
  0
LINE
  5
625
100
AcDbEntity
  8
0
100
AcDbLine
 62
3
  6
CONTINUOUS
 10
10.9667698576
 20
4.3096310668
 11
10.9816172917
 21
4.3010590907
  0
LINE
  5
626
100
AcDbEntity
  8
0
100
AcDbLine
 62
3
  6
CONTINUOUS
 10
11.0076003121
 20
4.2860581262
 11
11.0187358983
 21
4.279629138
  0
LINE
  5
627
100
AcDbEntity
  8
0
100
AcDbLine
 62
3
  6
CONTINUOUS
 10
11.0595663953
 20
4.2560561728
 11
11.0744138294
 21
4.2474841967
  0
LINE
  5
628
100
AcDbEntity
  8
0
100
AcDbLine
 62
3
  6
CONTINUOUS
 10
11.143083292
 20
4.2078387609
 11
11.1579307261
 21
4.1992667847
  0
LINE
  5
629
100
AcDbEntity
  8
0
100
AcDbLine
 62
3
  6
CONTINUOUS
 10
11.2804221746
 20
4.1285479139
 11
11.2915578033
 21
4.1221189011
  0
LINE
  5
62A
100
AcDbEntity
  8
0
100
AcDbLine
 62
3
  6
CONTINUOUS
 10
11.3639391137
 20
4.0803304774
 11
11.430752631
 21
4.0417565478
  0
LINE
  5
62B
100
AcDbEntity
  8
0
100
AcDbLine
 62
3
  6
CONTINUOUS
 10
11.4734389883
 20
4.0171121255
 11
11.4845745745
 21
4.0106831373
  0
LINE
  5
62C
100
AcDbEntity
  8
0
100
AcDbLine
 62
3
  6
CONTINUOUS
 10
11.5272610167
 20
3.9860386659
 11
11.594074534
 21
3.9474647364
  0
LINE
  5
62D
100
AcDbEntity
  8
0
100
AcDbLine
 62
3
  6
CONTINUOUS
 10
11.6089220106
 20
3.9388927357
 11
11.6200575968
 21
3.9324637474
  0
LINE
  5
62E
100
AcDbEntity
  8
0
100
AcDbLine
 62
3
  6
CONTINUOUS
 10
11.6664558444
 20
3.9056763127
 11
11.6794473334
 21
3.8981758427
  0
LINE
  5
62F
100
AcDbEntity
  8
0
100
AcDbLine
 62
7
  6
CONTINUOUS
 10
11.6007676053
 20
3.9513289598
 11
11.5515855092
 21
3.9797236138
  0
LINE
  5
630
100
AcDbEntity
  8
0
100
AcDbLine
 62
7
  6
CONTINUOUS
 10
11.4940515904
 20
4.0129400859
 11
11.4829160042
 21
4.0193690741
  0
LINE
  5
631
100
AcDbEntity
  8
0
100
AcDbLine
 62
7
  6
CONTINUOUS
 10
11.1655518393
 20
4.202595215
 11
11.1544162531
 21
4.2090242033
  0
LINE
  5
632
100
AcDbEntity
  8
0
100
AcDbLine
 62
7
  6
CONTINUOUS
 10
11.4393411052
 20
4.0467150761
 11
11.3864471188
 21
4.0772527426
  0
LINE
  5
633
100
AcDbEntity
  8
0
100
AcDbLine
 62
7
  6
CONTINUOUS
 10
11.0857862483
 20
4.2508354501
 11
11.0709388142
 21
4.2594074263
  0
LINE
  5
634
100
AcDbEntity
  8
0
100
AcDbLine
 62
7
  6
CONTINUOUS
 10
10.814820331
 20
4.4072741563
 11
10.7795576484
 21
4.427632615
  0
LINE
  5
635
100
AcDbEntity
  8
0
100
AcDbLine
 62
7
  6
CONTINUOUS
 10
10.6218035041
 20
4.5187099523
 11
10.606956054
 21
4.5272819377
  0
LINE
  5
636
100
AcDbEntity
  8
0
100
AcDbLine
 62
3
  6
CONTINUOUS
 10
11.6035515499
 20
3.9529362614
 11
11.5515855092
 21
3.9829381903
  0
LINE
  5
637
100
AcDbEntity
  8
0
100
AcDbLine
 62
3
  6
CONTINUOUS
 10
11.4940515904
 20
4.0161546623
 11
11.4829160042
 21
4.0225836506
  0
LINE
  5
638
100
AcDbEntity
  8
0
100
AcDbLine
 62
3
  6
CONTINUOUS
 10
11.1655518393
 20
4.2058097915
 11
11.1544162531
 21
4.2122387797
  0
LINE
  5
639
100
AcDbEntity
  8
0
100
AcDbLine
 62
3
  6
CONTINUOUS
 10
11.4421250499
 20
4.0483223777
 11
11.3864471188
 21
4.080467319
  0
LINE
  5
63A
100
AcDbEntity
  8
0
100
AcDbLine
 62
3
  6
CONTINUOUS
 10
11.0857862483
 20
4.2540500266
 11
11.0709388142
 21
4.2626220027
  0
LINE
  5
63B
100
AcDbEntity
  8
0
100
AcDbLine
 62
3
  6
CONTINUOUS
 10
10.814820331
 20
4.4104887327
 11
10.7795576484
 21
4.4308471915
  0
LINE
  5
63C
100
AcDbEntity
  8
0
100
AcDbLine
 62
3
  6
CONTINUOUS
 10
10.6218035041
 20
4.5219245287
 11
10.606956054
 21
4.5304965141
  0
LINE
  5
63D
100
AcDbEntity
  8
0
100
AcDbLine
 62
7
  6
CONTINUOUS
 10
11.1457979045
 20
4.2271314471
 11
11.1379497064
 21
4.2316625038
  0
LINE
  5
63E
100
AcDbEntity
  8
0
100
AcDbLine
 62
7
  6
CONTINUOUS
 10
11.4780094968
 20
4.0375219254
 11
11.4683448604
 21
4.0431016795
  0
LINE
  5
63F
100
AcDbEntity
  8
0
100
AcDbLine
 62
3
  6
CONTINUOUS
 10
11.1472293474
 20
4.2295195982
 11
11.1379497064
 21
4.2348770803
  0
LINE
  5
640
100
AcDbEntity
  8
0
100
AcDbLine
 62
7
  6
CONTINUOUS
 10
11.0669799907
 20
4.2770131444
 11
11.0582236156
 21
4.2820685255
  0
LINE
  5
641
100
AcDbEntity
  8
0
100
AcDbLine
 62
7
  6
CONTINUOUS
 10
10.6029972451
 20
4.5448876473
 11
10.5942408421
 21
4.5499430445
  0
LINE
  5
642
100
AcDbEntity
  8
0
100
AcDbLine
 62
3
  6
CONTINUOUS
 10
11.4794804467
 20
4.0398872677
 11
11.4683448604
 21
4.046316256
  0
LINE
  5
643
100
AcDbEntity
  8
0
100
AcDbLine
 62
3
  6
CONTINUOUS
 10
10.881870681
 20
4.3849096213
 11
10.9189893088
 21
4.3634796564
  0
LINE
  5
644
100
AcDbEntity
  8
0
100
AcDbLine
 62
3
  6
CONTINUOUS
 10
11.0693592018
 20
4.2788541137
 11
11.0582236156
 21
4.2852831019
  0
LINE
  5
645
100
AcDbEntity
  8
0
100
AcDbLine
 62
3
  6
CONTINUOUS
 10
10.6053764284
 20
4.5467286327
 11
10.5942408421
 21
4.553157621
  0
LINE
  5
646
100
AcDbEntity
  8
0
100
AcDbLine
 62
7
  6
CONTINUOUS
 10
10.9247149753
 20
4.3657138056
 11
10.8913082167
 21
4.3850007704
  0
LINE
  5
647
100
AcDbEntity
  8
0
100
AcDbLine
 62
3
  6
CONTINUOUS
 10
10.9247149753
 20
4.368928382
 11
10.8913082167
 21
4.3882153468
  0
LINE
  5
648
100
AcDbEntity
  8
0
100
AcDbLine
 62
3
  6
CONTINUOUS
 10
10.6390989657
 20
4.5447680921
 11
10.6502345519
 21
4.5383391039
  0
LINE
  5
649
100
AcDbEntity
  8
0
100
AcDbLine
 62
3
  6
CONTINUOUS
 10
10.8079886962
 20
4.4472617666
 11
10.8432513789
 21
4.4269033079
  0
LINE
  5
64A
100
AcDbEntity
  8
0
100
AcDbLine
 62
3
  6
CONTINUOUS
 10
11.1030817099
 20
4.27689359
 11
11.1142172961
 21
4.2704646017
  0
LINE
  5
64B
100
AcDbEntity
  8
0
100
AcDbLine
 62
3
  6
CONTINUOUS
 10
11.33136127
 20
4.1450993061
 11
11.3647680286
 21
4.1258123413
  0
LINE
  5
64C
100
AcDbEntity
  8
0
100
AcDbLine
 62
3
  6
CONTINUOUS
 10
11.4854034894
 20
4.0561650012
 11
11.4983950633
 21
4.0486644822
  0
LINE
  5
64D
100
AcDbEntity
  8
0
100
AcDbLine
 62
3
  6
CONTINUOUS
 10
11.6598610635
 20
3.9554441524
 11
11.6914118345
 21
3.9372287184
  0
LINE
  5
64E
100
AcDbEntity
  8
0
100
AcDbLine
 62
3
  6
CONTINUOUS
 10
11.1884940095
 20
4.2297704829
 11
11.1959177478
 21
4.2254844825
  0
LINE
  5
64F
100
AcDbEntity
  8
0
100
AcDbLine
 62
7
  6
CONTINUOUS
 10
11.2034993595
 20
4.2266471255
 11
11.1960756212
 21
4.2309331259
  0
LINE
  5
650
100
AcDbEntity
  8
0
100
AcDbLine
 62
3
  6
CONTINUOUS
 10
11.5208240666
 20
4.04446975
 11
11.5319596529
 21
4.0380407617
  0
LINE
  5
651
100
AcDbEntity
  8
0
100
AcDbLine
 62
7
  6
CONTINUOUS
 10
11.7064961424
 20
3.9384369587
 11
11.6712334811
 21
3.9587954051
  0
LINE
  5
652
100
AcDbEntity
  8
0
100
AcDbLine
 62
7
  6
CONTINUOUS
 10
11.3779963489
 20
4.1280921123
 11
11.3427336875
 21
4.1484505588
  0
LINE
  5
653
100
AcDbEntity
  8
0
100
AcDbLine
 62
7
  6
CONTINUOUS
 10
11.1255897137
 20
4.2738158544
 11
11.1144541274
 21
4.2802448427
  0
LINE
  5
654
100
AcDbEntity
  8
0
100
AcDbLine
 62
7
  6
CONTINUOUS
 10
10.8546237964
 20
4.4302545606
 11
10.8193611138
 21
4.4506130193
  0
LINE
  5
655
100
AcDbEntity
  8
0
100
AcDbLine
 62
7
  6
CONTINUOUS
 10
10.6616069694
 20
4.5416903566
 11
10.6504713832
 21
4.5481193448
  0
LINE
  5
656
100
AcDbEntity
  8
0
100
AcDbLine
 62
3
  6
CONTINUOUS
 10
11.2034993595
 20
4.2298617019
 11
11.1960756212
 21
4.2341477023
  0
LINE
  5
657
100
AcDbEntity
  8
0
100
AcDbLine
 62
3
  6
CONTINUOUS
 10
11.7064961424
 20
3.9416515351
 11
11.6712334811
 21
3.9620099816
  0
LINE
  5
658
100
AcDbEntity
  8
0
100
AcDbLine
 62
3
  6
CONTINUOUS
 10
11.3779963489
 20
4.1313066888
 11
11.3427336875
 21
4.1516651352
  0
LINE
  5
659
100
AcDbEntity
  8
0
100
AcDbLine
 62
3
  6
CONTINUOUS
 10
11.1255897137
 20
4.2770304308
 11
11.1144541274
 21
4.2834594191
  0
LINE
  5
65A
100
AcDbEntity
  8
0
100
AcDbLine
 62
3
  6
CONTINUOUS
 10
10.8546237964
 20
4.433469137
 11
10.8193611138
 21
4.4538275957
  0
LINE
  5
65B
100
AcDbEntity
  8
0
100
AcDbLine
 62
3
  6
CONTINUOUS
 10
10.6616069694
 20
4.544904933
 11
10.6504713832
 21
4.5513339213
  0
LINE
  5
65C
100
AcDbEntity
  8
0
100
AcDbLine
 62
7
  6
CONTINUOUS
 10
11.5414366675
 20
4.0402977096
 11
11.5303010813
 21
4.0467266978
  0
LINE
  5
65D
100
AcDbEntity
  8
0
100
AcDbLine
 62
3
  6
CONTINUOUS
 10
11.5414366675
 20
4.043512286
 11
11.5303010813
 21
4.0499412743
  0
LINE
  5
65E
100
AcDbEntity
  8
0
100
AcDbLine
 62
7
  6
CONTINUOUS
 10
11.2525430095
 20
4.2421042374
 11
11.241446881
 21
4.2506990368
  0
LINE
  5
65F
100
AcDbEntity
  8
0
100
AcDbLine
 62
3
  6
CONTINUOUS
 10
11.2525430095
 20
4.2453188139
 11
11.241446881
 21
4.2539136132
  0
LINE
  5
660
100
AcDbEntity
  8
0
100
AcDbLine
 62
7
  6
CONTINUOUS
 10
11.330492113
 20
4.1971013196
 11
11.3212519297
 21
4.2046246127
  0
LINE
  5
661
100
AcDbEntity
  8
0
100
AcDbLine
 62
3
  6
CONTINUOUS
 10
11.330492113
 20
4.200315896
 11
11.3212519297
 21
4.2078391892
  0
LINE
  5
662
100
AcDbEntity
  8
0
100
AcDbLine
 62
7
  6
CONTINUOUS
 10
11.6645596997
 20
4.0042316718
 11
11.6553195164
 21
4.0117549649
  0
LINE
  5
663
100
AcDbEntity
  8
0
100
AcDbLine
 62
3
  6
CONTINUOUS
 10
11.6645596997
 20
4.0074462482
 11
11.6553195164
 21
4.0149695414
  0
LINE
  5
664
100
AcDbEntity
  8
0
100
AcDbLine
 62
3
  6
CONTINUOUS
 10
11.3117749151
 20
4.2023676649
 11
11.3191591532
 21
4.195915878
  0
LINE
  5
665
100
AcDbEntity
  8
0
100
AcDbLine
 62
7
  6
CONTINUOUS
 10
11.4214327055
 20
4.1445979318
 11
11.4140485099
 21
4.1510496942
  0
LINE
  5
666
100
AcDbEntity
  8
0
100
AcDbLine
 62
7
  6
CONTINUOUS
 10
11.5488209481
 20
4.0338458981
 11
11.5414366675
 21
4.0402977096
  0
LINE
  5
667
100
AcDbEntity
  8
0
100
AcDbLine
 62
3
  6
CONTINUOUS
 10
11.4214327055
 20
4.1478125083
 11
11.4140485099
 21
4.1542642706
  0
LINE
  5
668
100
AcDbEntity
  8
0
100
AcDbLine
 62
3
  6
CONTINUOUS
 10
11.5488209481
 20
4.0370604746
 11
11.5414366675
 21
4.043512286
  0
LINE
  5
669
100
AcDbEntity
  8
0
100
AcDbLine
 62
3
  6
CONTINUOUS
 10
11.6439865991
 20
4.0105694988
 11
11.6513707947
 21
4.0041177364
  0
LINE
  5
66A
100
AcDbEntity
  8
0
100
AcDbLine
 62
7
  6
CONTINUOUS
 10
11.7499324991
 20
3.9549427782
 11
11.7425483035
 21
3.9613945405
  0
LINE
  5
66B
100
AcDbEntity
  8
0
100
AcDbLine
 62
3
  6
CONTINUOUS
 10
11.7499324991
 20
3.9581573546
 11
11.7425483035
 21
3.964609117
  0
LINE
  5
66C
100
AcDbEntity
  8
0
100
AcDbLine
 62
3
  6
CONTINUOUS
 10
11.5319596529
 20
4.0380407617
 11
11.5374880307
 21
4.032660432
  0
LINE
  5
66D
100
AcDbEntity
  8
0
100
AcDbLine
 62
3
  6
CONTINUOUS
 10
11.7349271916
 20
3.958066111
 11
11.7385995818
 21
3.953757312
  0
LINE
  5
66E
100
AcDbEntity
  8
0
100
AcDbLine
 62
7
  6
CONTINUOUS
 10
11.6681925897
 20
3.9977570863
 11
11.6645596997
 21
4.0042316718
  0
LINE
  5
66F
100
AcDbEntity
  8
0
100
AcDbLine
 62
3
  6
CONTINUOUS
 10
11.6681925897
 20
4.0009716627
 11
11.6645596997
 21
4.0074462482
  0
LINE
  5
670
100
AcDbEntity
  8
0
100
AcDbLine
 62
3
  6
CONTINUOUS
 10
11.6513707947
 20
4.0041177364
 11
11.653147782
 21
3.9987146326
  0
LINE
  5
671
100
AcDbEntity
  8
0
100
AcDbLine
 62
7
  6
CONTINUOUS
 10
11.7509690572
 20
3.9504274861
 11
11.7499324991
 21
3.9549427782
  0
LINE
  5
672
100
AcDbEntity
  8
0
100
AcDbLine
 62
3
  6
CONTINUOUS
 10
11.7516700711
 20
3.9505884152
 11
11.7499324991
 21
3.9581573546
  0
LWPOLYLINE
  5
673
100
AcDbEntity
  8
02___PRT_ALL_AXES
100
AcDbPolyline
 62
3
  6
CONTINUOUS
 90
4
 70
0
 10
11.5128531799
 20
4.5148254227
 10
11.5172333254
 20
4.495617273
 10
11.5300749852
 20
4.4777184326
 10
11.5505030213
 20
4.4623483726
  0
LINE
  5
674
100
AcDbEntity
  8
02___PRT_ALL_AXES
100
AcDbLine
 62
9
  6
CONTINUOUS
 10
11.5951485114
 20
4.3120054343
 11
11.5951485114
 21
4.2284264468
  0
LINE
  5
675
100
AcDbEntity
  8
0
100
AcDbLine
 62
7
  6
CONTINUOUS
 10
11.6067890346
 20
4.0276678538
 11
11.6067890346
 21
4.0244532774
  0
LINE
  5
676
100
AcDbEntity
  8
0
100
AcDbLine
 62
7
  6
CONTINUOUS
 10
11.6217943421
 20
4.0277590974
 11
11.6217943421
 21
4.024544521
  0
LINE
  5
677
100
AcDbEntity
  8
0
100
AcDbLine
 62
7
  6
CONTINUOUS
 10
11.6330088438
 20
4.0256617313
 11
11.6330088438
 21
4.0224471549
  0
LINE
  5
678
100
AcDbEntity
  8
0
100
AcDbLine
 62
7
  6
CONTINUOUS
 10
11.6360891504
 20
3.9888658858
 11
11.6360891504
 21
3.9856513093
  0
LINE
  5
679
100
AcDbEntity
  8
0
100
AcDbLine
 62
7
  6
CONTINUOUS
 10
11.6473826525
 20
3.9911000928
 11
11.6473826525
 21
3.9878855163
  0
LINE
  5
67A
100
AcDbEntity
  8
0
100
AcDbLine
 62
7
  6
CONTINUOUS
 10
11.6478958206
 20
4.0192555172
 11
11.6478958206
 21
4.0160409407
  0
LINE
  5
67B
100
AcDbEntity
  8
0
100
AcDbLine
 62
7
  6
CONTINUOUS
 10
11.6511734636
 20
3.9932887056
 11
11.6511734636
 21
3.9900741291
  0
LINE
  5
67C
100
AcDbEntity
  8
0
100
AcDbLine
 62
7
  6
CONTINUOUS
 10
11.653147782
 20
3.9987146326
 11
11.653147782
 21
3.9955000561
  0
LINE
  5
67D
100
AcDbEntity
  8
0
100
AcDbLine
 62
7
  6
CONTINUOUS
 10
11.6553195164
 20
4.0149695414
 11
11.6553195164
 21
4.0117549649
  0
LINE
  5
67E
100
AcDbEntity
  8
0
100
AcDbLine
 62
7
  6
CONTINUOUS
 10
11.6645596997
 20
4.0074462482
 11
11.6645596997
 21
4.0042316718
  0
LINE
  5
67F
100
AcDbEntity
  8
0
100
AcDbLine
 62
7
  6
CONTINUOUS
 10
11.6712334811
 20
3.9620099816
 11
11.6712334811
 21
3.9587954051
  0
LINE
  5
680
100
AcDbEntity
  8
0
100
AcDbLine
 62
7
  6
CONTINUOUS
 10
11.6914118345
 20
3.9372287184
 11
11.6914118345
 21
3.934014142
  0
LINE
  5
681
100
AcDbEntity
  8
0
100
AcDbLine
 62
7
  6
CONTINUOUS
 10
11.6980059586
 20
3.99032507
 11
11.6980059586
 21
3.9871104936
  0
LINE
  5
682
100
AcDbEntity
  8
0
100
AcDbLine
 62
7
  6
CONTINUOUS
 10
11.7064961424
 20
3.9416515351
 11
11.7064961424
 21
3.9384369587
  0
LINE
  5
683
100
AcDbEntity
  8
0
100
AcDbLine
 62
7
  6
CONTINUOUS
 10
11.7139593385
 20
3.9395313458
 11
11.7139593385
 21
3.9363167694
  0
LINE
  5
684
100
AcDbEntity
  8
0
100
AcDbLine
 62
7
  6
CONTINUOUS
 10
11.7214620347
 20
3.9395769431
 11
11.7214620347
 21
3.9363623667
  0
LINE
  5
685
100
AcDbEntity
  8
02___PRT_ALL_AXES
100
AcDbLine
 62
9
  6
CONTINUOUS
 10
11.7236151103
 20
4.8753943007
 11
11.7236151103
 21
4.7918153131
  0
LINE
  5
686
100
AcDbEntity
  8
0
100
AcDbLine
 62
7
  6
CONTINUOUS
 10
11.7290041462
 20
3.941788376
 11
11.7290041462
 21
3.9385737995
  0
LINE
  5
687
100
AcDbEntity
  8
02___PRT_ALL_AXES
100
AcDbLine
 62
9
  6
CONTINUOUS
 10
11.7322899527
 20
4.5673024799
 11
11.7322899527
 21
4.4837234923
  0
LINE
  5
688
100
AcDbEntity
  8
0
100
AcDbLine
 62
7
  6
CONTINUOUS
 10
11.7346903603
 20
3.9450712936
 11
11.7346903603
 21
3.9418567172
  0
LINE
  5
689
100
AcDbEntity
  8
0
100
AcDbLine
 62
7
  6
CONTINUOUS
 10
11.7385206663
 20
3.9494256899
 11
11.7385206663
 21
3.9462111134
  0
LINE
  5
68A
100
AcDbEntity
  8
0
100
AcDbLine
 62
7
  6
CONTINUOUS
 10
11.7425483035
 20
3.964609117
 11
11.7425483035
 21
3.9613945405
  0
LINE
  5
68B
100
AcDbEntity
  8
0
100
AcDbLine
 62
3
  6
CONTINUOUS
 10
11.6680347588
 20
3.9923084184
 11
11.6681925897
 21
4.0009716627
  0
LINE
  5
68C
100
AcDbEntity
  8
0
100
AcDbLine
 62
3
  6
CONTINUOUS
 10
11.7385995818
 20
3.953757312
 11
11.7385206663
 21
3.9494256899
  0
LINE
  5
68D
100
AcDbEntity
  8
0
100
AcDbLine
 62
3
  6
CONTINUOUS
 10
11.421156459
 20
4.1326518553
 11
11.4231702776
 21
4.1402435688
  0
LINE
  5
68E
100
AcDbEntity
  8
0
100
AcDbLine
 62
3
  6
CONTINUOUS
 10
11.4644751378
 20
4.0397960234
 11
11.4624613186
 21
4.0322043094
  0
LINE
  5
68F
100
AcDbEntity
  8
0
100
AcDbLine
 62
7
  6
CONTINUOUS
 10
11.4644751378
 20
4.0365814469
 11
11.4632579771
 21
4.0319929835
  0
LINE
  5
690
100
AcDbEntity
  8
0
100
AcDbLine
 62
3
  6
CONTINUOUS
 10
11.2180705046
 20
4.2061290973
 11
11.2200448654
 21
4.2115549998
  0
LINE
  5
691
100
AcDbEntity
  8
0
100
AcDbLine
 62
3
  6
CONTINUOUS
 10
11.2429870369
 20
4.235515692
 11
11.2410127186
 21
4.230089765
  0
LINE
  5
692
100
AcDbEntity
  8
0
100
AcDbLine
 62
7
  6
CONTINUOUS
 10
11.2429870369
 20
4.2323011155
 11
11.2410127186
 21
4.2268751885
  0
LINE
  5
693
100
AcDbEntity
  8
0
100
AcDbLine
 62
3
  6
CONTINUOUS
 10
11.2324837723
 20
4.1737332706
 11
11.2364324529
 21
4.1845851008
  0
LINE
  5
694
100
AcDbEntity
  8
0
100
AcDbLine
 62
3
  6
CONTINUOUS
 10
11.3209361405
 20
4.1905127741
 11
11.316987456
 21
4.1796609416
  0
LINE
  5
695
100
AcDbEntity
  8
0
100
AcDbLine
 62
7
  6
CONTINUOUS
 10
11.3209361405
 20
4.1872981977
 11
11.316987456
 21
4.1764463652
  0
LINE
  5
696
100
AcDbEntity
  8
0
100
AcDbLine
 62
3
  6
CONTINUOUS
 10
11.1325792444
 20
4.2489206052
 11
11.1364490108
 21
4.2554408141
  0
LINE
  5
697
100
AcDbEntity
  8
0
100
AcDbLine
 62
3
  6
CONTINUOUS
 10
11.1557188346
 20
4.2837102808
 11
11.1537839315
 21
4.2804501893
  0
LINE
  5
698
100
AcDbEntity
  8
0
100
AcDbLine
 62
3
  6
CONTINUOUS
 10
10.707136859
 20
4.4704698163
 11
10.7589048255
 21
4.5325030963
  0
LINE
  5
699
100
AcDbEntity
  8
0
100
AcDbLine
 62
3
  6
CONTINUOUS
 10
10.7009367708
 20
4.5418957048
 11
10.7047670503
 21
4.5462501164
  0
LINE
  5
69A
100
AcDbEntity
  8
0
100
AcDbLine
 62
3
  6
CONTINUOUS
 10
10.8468448324
 20
4.418262899
 11
10.8430145449
 21
4.4139084889
  0
LINE
  5
69B
100
AcDbEntity
  8
0
100
AcDbLine
 62
7
  6
CONTINUOUS
 10
10.8468448324
 20
4.4150483225
 11
10.8430145449
 21
4.4106939125
  0
LINE
  5
69C
100
AcDbEntity
  8
0
100
AcDbLine
 62
3
  6
CONTINUOUS
 10
10.5942408421
 20
4.553157621
 11
10.5885151615
 21
4.5477089035
  0
LINE
  5
69D
100
AcDbEntity
  8
0
100
AcDbLine
 62
7
  6
CONTINUOUS
 10
10.5942408421
 20
4.5499430445
 11
10.5885151615
 21
4.544494327
  0
LINE
  5
69E
100
AcDbEntity
  8
0
100
AcDbLine
 62
3
  6
CONTINUOUS
 10
10.6358212935
 20
4.5707349206
 11
10.630095613
 21
4.565286203
  0
LINE
  5
69F
100
AcDbEntity
  8
0
100
AcDbLine
 62
7
  6
CONTINUOUS
 10
10.6358212935
 20
4.5675203442
 11
10.630095613
 21
4.5620716266
  0
LINE
  5
6A0
100
AcDbEntity
  8
0
100
AcDbLine
 62
7
  6
CONTINUOUS
 10
11.5033707741
 20
4.0097483658
 11
11.4940515904
 21
4.0129400859
  0
LINE
  5
6A1
100
AcDbEntity
  8
0
100
AcDbLine
 62
3
  6
CONTINUOUS
 10
11.5033707741
 20
4.0129629423
 11
11.4940515904
 21
4.0161546623
  0
LINE
  5
6A2
100
AcDbEntity
  8
0
100
AcDbLine
 62
3
  6
CONTINUOUS
 10
11.4845745745
 20
4.0106831373
 11
11.4957496611
 21
4.0064199357
  0
LINE
  5
6A3
100
AcDbEntity
  8
0
100
AcDbLine
 62
7
  6
CONTINUOUS
 10
11.5303010813
 20
4.0467266978
 11
11.5191260798
 21
4.0509898505
  0
LINE
  5
6A4
100
AcDbEntity
  8
0
100
AcDbLine
 62
7
  6
CONTINUOUS
 10
11.2528200416
 20
4.1544006262
 11
11.2416449977
 21
4.1586638034
  0
LINE
  5
6A5
100
AcDbEntity
  8
0
100
AcDbLine
 62
3
  6
CONTINUOUS
 10
11.5303010813
 20
4.0499412743
 11
11.5191260798
 21
4.0542044269
  0
LINE
  5
6A6
100
AcDbEntity
  8
0
100
AcDbLine
 62
3
  6
CONTINUOUS
 10
11.2528200416
 20
4.1576152027
 11
11.2416449977
 21
4.1618783799
  0
LINE
  5
6A7
100
AcDbEntity
  8
0
100
AcDbLine
 62
3
  6
CONTINUOUS
 10
11.6253878168
 20
4.0191186763
 11
11.6365628183
 21
4.0148555236
  0
LINE
  5
6A8
100
AcDbEntity
  8
0
100
AcDbLine
 62
3
  6
CONTINUOUS
 10
11.3647680286
 20
4.1258123413
 11
11.3759430301
 21
4.1215491887
  0
LINE
  5
6A9
100
AcDbEntity
  8
0
100
AcDbLine
 62
7
  6
CONTINUOUS
 10
11.1767268833
 20
4.1983320378
 11
11.1655518393
 21
4.202595215
  0
LINE
  5
6AA
100
AcDbEntity
  8
0
100
AcDbLine
 62
3
  6
CONTINUOUS
 10
11.1767268833
 20
4.2015466143
 11
11.1655518393
 21
4.2058097915
  0
LINE
  5
6AB
100
AcDbEntity
  8
0
100
AcDbLine
 62
3
  6
CONTINUOUS
 10
11.0744138294
 20
4.2474841967
 11
11.085588916
 21
4.2432209951
  0
LINE
  5
6AC
100
AcDbEntity
  8
0
100
AcDbLine
 62
3
  6
CONTINUOUS
 10
11.2321679818
 20
4.1564068548
 11
11.2451989711
 21
4.1510721715
  0
LINE
  5
6AD
100
AcDbEntity
  8
0
100
AcDbLine
 62
7
  6
CONTINUOUS
 10
11.6478958206
 20
4.0160409407
 11
11.6330088438
 21
4.0224471549
  0
LINE
  5
6AE
100
AcDbEntity
  8
0
100
AcDbLine
 62
3
  6
CONTINUOUS
 10
11.6478958206
 20
4.0192555172
 11
11.6330088438
 21
4.0256617313
  0
LINE
  5
6AF
100
AcDbEntity
  8
0
100
AcDbLine
 62
7
  6
CONTINUOUS
 10
11.2377350331
 20
4.2528420247
 11
11.2228480987
 21
4.2592482143
  0
LINE
  5
6B0
100
AcDbEntity
  8
0
100
AcDbLine
 62
3
  6
CONTINUOUS
 10
11.2377350331
 20
4.2560566011
 11
11.2228480987
 21
4.2624627907
  0
LINE
  5
6B1
100
AcDbEntity
  8
0
100
AcDbLine
 62
3
  6
CONTINUOUS
 10
10.6898011846
 20
4.548324693
 11
10.7009367708
 21
4.5418957048
  0
LINE
  5
6B2
100
AcDbEntity
  8
0
100
AcDbLine
 62
3
  6
CONTINUOUS
 10
11.1537839315
 20
4.2804501893
 11
11.1649195177
 21
4.2740212011
  0
LINE
  5
6B3
100
AcDbEntity
  8
0
100
AcDbLine
 62
3
  6
CONTINUOUS
 10
11.1871906902
 20
4.2611632246
 11
11.1964703737
 21
4.255805718
  0
LINE
  5
6B4
100
AcDbEntity
  8
0
100
AcDbLine
 62
3
  6
CONTINUOUS
 10
11.5973514352
 20
4.0243621652
 11
11.6066311187
 21
4.0190046586
  0
LINE
  5
6B5
100
AcDbEntity
  8
0
100
AcDbLine
 62
3
  6
CONTINUOUS
 10
10.6770070294
 20
4.5666541923
 11
10.6881426157
 21
4.560225204
  0
LINE
  5
6B6
100
AcDbEntity
  8
0
100
AcDbLine
 62
3
  6
CONTINUOUS
 10
10.84589676
 20
4.4691478668
 11
10.8811594426
 21
4.448789408
  0
LINE
  5
6B7
100
AcDbEntity
  8
0
100
AcDbLine
 62
3
  6
CONTINUOUS
 10
11.1409897737
 20
4.2987796901
 11
11.1521253599
 21
4.2923507019
  0
LINE
  5
6B8
100
AcDbEntity
  8
0
100
AcDbLine
 62
3
  6
CONTINUOUS
 10
11.2264020733
 20
4.2516565831
 11
11.2338258116
 21
4.2473705827
  0
LINE
  5
6B9
100
AcDbEntity
  8
0
100
AcDbLine
 62
3
  6
CONTINUOUS
 10
11.3711647366
 20
4.1680797111
 11
11.406427398
 21
4.1477212647
  0
LINE
  5
6BA
100
AcDbEntity
  8
0
100
AcDbLine
 62
3
  6
CONTINUOUS
 10
11.5344866396
 20
4.0737878997
 11
11.588308668
 21
4.0427144401
  0
LINE
  5
6BB
100
AcDbEntity
  8
0
100
AcDbLine
 62
3
  6
CONTINUOUS
 10
11.6365628183
 20
4.0148555236
 11
11.6439865991
 21
4.0105694988
  0
LINE
  5
6BC
100
AcDbEntity
  8
0
100
AcDbLine
 62
3
  6
CONTINUOUS
 10
11.6996645302
 20
3.9784245575
 11
11.7349271916
 21
3.958066111
  0
LINE
  5
6BD
100
AcDbEntity
  8
0
100
AcDbLine
 62
7
  6
CONTINUOUS
 10
11.7425483035
 20
3.9613945405
 11
11.6980059586
 21
3.9871104936
  0
LINE
  5
6BE
100
AcDbEntity
  8
0
100
AcDbLine
 62
7
  6
CONTINUOUS
 10
11.6553195164
 20
4.0117549649
 11
11.6478958206
 21
4.0160409407
  0
LINE
  5
6BF
100
AcDbEntity
  8
0
100
AcDbLine
 62
7
  6
CONTINUOUS
 10
11.5950017379
 20
4.0465786627
 11
11.5346839707
 21
4.0814023541
  0
LINE
  5
6C0
100
AcDbEntity
  8
0
100
AcDbLine
 62
7
  6
CONTINUOUS
 10
11.4613747033
 20
4.1237265219
 11
11.4530230617
 21
4.1285482353
  0
LINE
  5
6C1
100
AcDbEntity
  8
0
100
AcDbLine
 62
7
  6
CONTINUOUS
 10
11.4140485099
 20
4.1510496942
 11
11.3695061226
 21
4.1767656718
  0
LINE
  5
6C2
100
AcDbEntity
  8
0
100
AcDbLine
 62
7
  6
CONTINUOUS
 10
11.241446881
 20
4.2506990368
 11
11.2377350331
 21
4.2528420247
  0
LINE
  5
6C3
100
AcDbEntity
  8
0
100
AcDbLine
 62
7
  6
CONTINUOUS
 10
11.1616418747
 20
4.2967734363
 11
11.1523621912
 21
4.3021309428
  0
LINE
  5
6C4
100
AcDbEntity
  8
0
100
AcDbLine
 62
7
  6
CONTINUOUS
 10
11.1050359017
 20
4.3294541707
 11
11.091116467
 21
4.3374903783
  0
LINE
  5
6C5
100
AcDbEntity
  8
0
100
AcDbLine
 62
7
  6
CONTINUOUS
 10
11.0340465992
 20
4.3704389364
 11
11.0187351565
 21
4.379278802
  0
LINE
  5
6C6
100
AcDbEntity
  8
0
100
AcDbLine
 62
7
  6
CONTINUOUS
 10
10.9728008962
 20
4.4057983596
 11
10.9593453775
 21
4.4135667312
  0
LINE
  5
6C7
100
AcDbEntity
  8
0
100
AcDbLine
 62
7
  6
CONTINUOUS
 10
10.8906759362
 20
4.4532121547
 11
10.8461335913
 21
4.4789281077
  0
LINE
  5
6C8
100
AcDbEntity
  8
0
100
AcDbLine
 62
7
  6
CONTINUOUS
 10
10.8285021913
 20
4.489107371
 11
10.8145827566
 21
4.4971435786
  0
LINE
  5
6C9
100
AcDbEntity
  8
0
100
AcDbLine
 62
7
  6
CONTINUOUS
 10
10.7575128888
 20
4.5300921367
 11
10.7422014462
 21
4.5389320022
  0
LINE
  5
6CA
100
AcDbEntity
  8
0
100
AcDbLine
 62
7
  6
CONTINUOUS
 10
10.6976591013
 20
4.5646479553
 11
10.688379447
 21
4.570005445
  0
LINE
  5
6CB
100
AcDbEntity
  8
0
100
AcDbLine
 62
3
  6
CONTINUOUS
 10
11.7425483035
 20
3.964609117
 11
11.6980059586
 21
3.99032507
  0
LINE
  5
6CC
100
AcDbEntity
  8
0
100
AcDbLine
 62
3
  6
CONTINUOUS
 10
11.6553195164
 20
4.0149695414
 11
11.6478958206
 21
4.0192555172
  0
LINE
  5
6CD
100
AcDbEntity
  8
0
100
AcDbLine
 62
3
  6
CONTINUOUS
 10
11.5977856826
 20
4.0481859644
 11
11.5346839707
 21
4.0846169305
  0
LINE
  5
6CE
100
AcDbEntity
  8
0
100
AcDbLine
 62
3
  6
CONTINUOUS
 10
11.4641586479
 20
4.1253338235
 11
11.4530230617
 21
4.1317628117
  0
LINE
  5
6CF
100
AcDbEntity
  8
0
100
AcDbLine
 62
3
  6
CONTINUOUS
 10
11.4140485099
 20
4.1542642706
 11
11.3695061226
 21
4.1799802482
  0
LINE
  5
6D0
100
AcDbEntity
  8
0
100
AcDbLine
 62
3
  6
CONTINUOUS
 10
11.241446881
 20
4.2539136132
 11
11.2377350331
 21
4.2560566011
  0
LINE
  5
6D1
100
AcDbEntity
  8
0
100
AcDbLine
 62
3
  6
CONTINUOUS
 10
11.1616418747
 20
4.2999880127
 11
11.1523621912
 21
4.3053455193
  0
LINE
  5
6D2
100
AcDbEntity
  8
0
100
AcDbLine
 62
3
  6
CONTINUOUS
 10
11.1078198463
 20
4.3310614723
 11
11.091116467
 21
4.3407049547
  0
LINE
  5
6D3
100
AcDbEntity
  8
0
100
AcDbLine
 62
3
  6
CONTINUOUS
 10
11.0354385359
 20
4.372849896
 11
11.0187351565
 21
4.3824933784
  0
LINE
  5
6D4
100
AcDbEntity
  8
0
100
AcDbLine
 62
3
  6
CONTINUOUS
 10
10.9741928329
 20
4.4082093192
 11
10.9593453775
 21
4.4167813076
  0
LINE
  5
6D5
100
AcDbEntity
  8
0
100
AcDbLine
 62
3
  6
CONTINUOUS
 10
10.8906759362
 20
4.4564267311
 11
10.8461335913
 21
4.4821426842
  0
LINE
  5
6D6
100
AcDbEntity
  8
0
100
AcDbLine
 62
3
  6
CONTINUOUS
 10
10.8312861359
 20
4.4907146726
 11
10.8145827566
 21
4.500358155
  0
LINE
  5
6D7
100
AcDbEntity
  8
0
100
AcDbLine
 62
3
  6
CONTINUOUS
 10
10.7589048255
 20
4.5325030963
 11
10.7422014462
 21
4.5421465787
  0
LINE
  5
6D8
100
AcDbEntity
  8
0
100
AcDbLine
 62
3
  6
CONTINUOUS
 10
10.6976591013
 20
4.5678625317
 11
10.688379447
 21
4.5732200214
  0
LWPOLYLINE
  5
6D9
100
AcDbEntity
  8
02___PRT_ALL_AXES
100
AcDbPolyline
 62
3
  6
CONTINUOUS
 90
4
 70
0
 10
11.7699397941
 20
4.5148254297
 10
11.7655596486
 20
4.5340335795
 10
11.7527179888
 20
4.5519324198
 10
11.7322899527
 20
4.5673024799
  0
LINE
  5
6DA
100
AcDbEntity
  8
0
100
AcDbLine
 62
9
  6
CONTINUOUS
 10
11.9058704846
 20
3.7481642278
 11
11.9058704846
 21
3.8317432153
  0
LINE
  5
6DB
100
AcDbEntity
  8
0
100
AcDbLine
 62
3
  6
CONTINUOUS
 10
11.5504006042
 20
4.0208283399
 11
11.5524144228
 21
4.0284200534
  0
LINE
  5
6DC
100
AcDbEntity
  8
0
100
AcDbLine
 62
3
  6
CONTINUOUS
 10
11.539265018
 20
4.0272573282
 11
11.5372906147
 21
4.0218314502
  0
LINE
  5
6DD
100
AcDbEntity
  8
0
100
AcDbLine
 62
7
  6
CONTINUOUS
 10
11.539265018
 20
4.0240427517
 11
11.5372906147
 21
4.0186168738
  0
LINE
  5
6DE
100
AcDbEntity
  8
0
100
AcDbLine
 62
3
  6
CONTINUOUS
 10
11.1452944868
 20
4.2262594823
 11
11.1472293474
 21
4.2295195982
  0
LINE
  5
6DF
100
AcDbEntity
  8
0
100
AcDbLine
 62
3
  6
CONTINUOUS
 10
11.2069349184
 20
4.2125580856
 11
11.2030651519
 21
4.2060378767
  0
LINE
  5
6E0
100
AcDbEntity
  8
0
100
AcDbLine
 62
7
  6
CONTINUOUS
 10
11.2069349184
 20
4.2093435091
 11
11.2030651519
 21
4.2028233003
  0
LINE
  5
6E1
100
AcDbEntity
  8
0
100
AcDbLine
 62
3
  6
CONTINUOUS
 10
11.2233225058
 20
4.1855881866
 11
11.2194527832
 21
4.179067954
  0
LINE
  5
6E2
100
AcDbEntity
  8
0
100
AcDbLine
 62
7
  6
CONTINUOUS
 10
11.2233225058
 20
4.1823736102
 11
11.2194527832
 21
4.1758533776
  0
LINE
  5
6E3
100
AcDbEntity
  8
0
100
AcDbLine
 62
3
  6
CONTINUOUS
 10
11.3300974083
 20
4.1786578589
 11
11.3339671296
 21
4.1851780907
  0
LINE
  5
6E4
100
AcDbEntity
  8
0
100
AcDbLine
 62
3
  6
CONTINUOUS
 10
11.0109167135
 20
4.3651213416
 11
10.9667698576
 21
4.3096310668
  0
LINE
  5
6E5
100
AcDbEntity
  8
0
100
AcDbLine
 62
7
  6
CONTINUOUS
 10
11.0109167135
 20
4.3619067651
 11
10.9683360141
 21
4.3083850668
  0
LINE
  5
6E6
100
AcDbEntity
  8
0
100
AcDbLine
 62
3
  6
CONTINUOUS
 10
10.9836705694
 20
4.3108166161
 11
11.0354385359
 21
4.372849896
  0
LINE
  5
6E7
100
AcDbEntity
  8
0
100
AcDbLine
 62
3
  6
CONTINUOUS
 10
10.9148037744
 20
4.3396330202
 11
10.9741928329
 21
4.4082093192
  0
LINE
  5
6E8
100
AcDbEntity
  8
0
100
AcDbLine
 62
3
  6
CONTINUOUS
 10
10.856045534
 20
4.4085738055
 11
10.8598758215
 21
4.4129282156
  0
LINE
  5
6E9
100
AcDbEntity
  8
0
100
AcDbLine
 62
3
  6
CONTINUOUS
 10
10.8847528961
 20
4.4401489992
 11
10.880922606
 21
4.4357945876
  0
LINE
  5
6EA
100
AcDbEntity
  8
0
100
AcDbLine
 62
7
  6
CONTINUOUS
 10
10.8847528961
 20
4.4369344227
 11
10.880922606
 21
4.4325800111
  0
LINE
  5
6EB
100
AcDbEntity
  8
0
100
AcDbLine
 62
3
  6
CONTINUOUS
 10
10.8939536005
 20
4.4304599072
 11
10.8977838853
 21
4.4348143158
  0
LINE
  5
6EC
100
AcDbEntity
  8
0
100
AcDbLine
 62
3
  6
CONTINUOUS
 10
10.9189893088
 20
4.3634796564
 11
10.9036681882
 21
4.3460620085
  0
LINE
  5
6ED
100
AcDbEntity
  8
0
100
AcDbLine
 62
3
  6
CONTINUOUS
 10
10.9591874829
 20
4.4081181001
 11
10.9247149753
 21
4.368928382
  0
LINE
  5
6EE
100
AcDbEntity
  8
0
100
AcDbLine
 62
7
  6
CONTINUOUS
 10
10.9189893088
 20
4.3602650799
 11
10.9052623477
 21
4.3446597348
  0
LINE
  5
6EF
100
AcDbEntity
  8
0
100
AcDbLine
 62
7
  6
CONTINUOUS
 10
10.9591874829
 20
4.4049035237
 11
10.9247149753
 21
4.3657138056
  0
LWPOLYLINE
  5
6F0
100
AcDbEntity
  8
0
100
AcDbPolyline
 62
3
  6
CONTINUOUS
 90
5
 70
0
 10
10.4582442757
 20
4.6675116892
 10
10.4252639554
 20
4.643634921
 10
10.402313178
 20
4.616119789
 10
10.3905427912
 20
4.5863460167
 10
10.3890715761
 20
4.5710768677
  0
LINE
  5
6F1
100
AcDbEntity
  8
0
100
AcDbLine
 62
3
  6
CONTINUOUS
 10
11.7063382266
 20
3.9329883399
 11
11.7175528132
 21
3.9308909247
  0
LINE
  5
6F2
100
AcDbEntity
  8
0
100
AcDbLine
 62
7
  6
CONTINUOUS
 10
11.7139593385
 20
3.9363167694
 11
11.7064961424
 21
3.9384369587
  0
LINE
  5
6F3
100
AcDbEntity
  8
0
100
AcDbLine
 62
3
  6
CONTINUOUS
 10
11.7139593385
 20
3.9395313458
 11
11.7064961424
 21
3.9416515351
  0
LINE
  5
6F4
100
AcDbEntity
  8
0
100
AcDbLine
 62
7
  6
CONTINUOUS
 10
11.3854595449
 20
4.1259719231
 11
11.3779963489
 21
4.1280921123
  0
LINE
  5
6F5
100
AcDbEntity
  8
0
100
AcDbLine
 62
3
  6
CONTINUOUS
 10
11.3854595449
 20
4.1291864995
 11
11.3779963489
 21
4.1313066888
  0
LINE
  5
6F6
100
AcDbEntity
  8
0
100
AcDbLine
 62
7
  6
CONTINUOUS
 10
11.2184257516
 20
4.222406747
 11
11.2034993595
 21
4.2266471255
  0
LINE
  5
6F7
100
AcDbEntity
  8
0
100
AcDbLine
 62
3
  6
CONTINUOUS
 10
11.2184257516
 20
4.2256213234
 11
11.2034993595
 21
4.2298617019
  0
LINE
  5
6F8
100
AcDbEntity
  8
0
100
AcDbLine
 62
3
  6
CONTINUOUS
 10
11.5115049679
 20
4.047661421
 11
11.5208240666
 21
4.04446975
  0
LINE
  5
6F9
100
AcDbEntity
  8
0
100
AcDbLine
 62
3
  6
CONTINUOUS
 10
11.1579307261
 20
4.1992667847
 11
11.1672498675
 21
4.1960750893
  0
LINE
  5
6FA
100
AcDbEntity
  8
0
100
AcDbLine
 62
7
  6
CONTINUOUS
 10
11.0951053895
 20
4.2476437546
 11
11.0857862483
 21
4.2508354501
  0
LINE
  5
6FB
100
AcDbEntity
  8
0
100
AcDbLine
 62
3
  6
CONTINUOUS
 10
11.0951053895
 20
4.2508583311
 11
11.0857862483
 21
4.2540500266
  0
LINE
  5
6FC
100
AcDbEntity
  8
0
100
AcDbLine
 62
7
  6
CONTINUOUS
 10
11.1523621912
 20
4.3021309428
 11
11.1430430925
 21
4.3053226138
  0
LINE
  5
6FD
100
AcDbEntity
  8
0
100
AcDbLine
 62
3
  6
CONTINUOUS
 10
11.1523621912
 20
4.3053455193
 11
11.1430430925
 21
4.3085371903
  0
LINE
  5
6FE
100
AcDbEntity
  8
0
100
AcDbLine
 62
7
  6
CONTINUOUS
 10
10.631122632
 20
4.5155182645
 11
10.6218035041
 21
4.5187099523
  0
LINE
  5
6FF
100
AcDbEntity
  8
0
100
AcDbLine
 62
3
  6
CONTINUOUS
 10
10.631122632
 20
4.5187328409
 11
10.6218035041
 21
4.5219245287
  0
LINE
  5
700
100
AcDbEntity
  8
0
100
AcDbLine
 62
3
  6
CONTINUOUS
 10
11.3005998712
 20
4.2066308421
 11
11.3117749151
 21
4.2023676649
  0
LINE
  5
701
100
AcDbEntity
  8
0
100
AcDbLine
 62
3
  6
CONTINUOUS
 10
10.8015919882
 20
4.4049943968
 11
10.8127670323
 21
4.4007312197
  0
LINE
  5
702
100
AcDbEntity
  8
0
100
AcDbLine
 62
3
  6
CONTINUOUS
 10
11.2152270293
 20
4.2559197602
 11
11.2264020733
 21
4.2516565831
  0
LINE
  5
703
100
AcDbEntity
  8
0
100
AcDbLine
 62
3
  6
CONTINUOUS
 10
10.6104310852
 20
4.5153586988
 11
10.6216061426
 21
4.5110955141
  0
LINE
  5
704
100
AcDbEntity
  8
0
100
AcDbLine
 62
7
  6
CONTINUOUS
 10
11.3212519297
 20
4.2046246127
 11
11.3082209406
 21
4.2099592961
  0
LINE
  5
705
100
AcDbEntity
  8
0
100
AcDbLine
 62
3
  6
CONTINUOUS
 10
11.3212519297
 20
4.2078391892
 11
11.3082209406
 21
4.2131738726
  0
LINE
  5
706
100
AcDbEntity
  8
02___PRT_ALL_AXES
100
AcDbLine
 62
7
  6
CONTINUOUS
 10
11.746494538
 20
4.4730359583
 11
11.7322899527
 21
4.4837234923
  0
LWPOLYLINE
  5
707
100
AcDbEntity
  8
02___PRT_ALL_AXES
100
AcDbPolyline
 62
3
  6
CONTINUOUS
 90
7
 70
0
 10
11.8434099772
 20
4.7965198575
 10
11.8422461294
 20
4.8069041993
 10
11.8329358017
 20
4.8269645467
 10
11.8149497793
 20
4.844950139
 10
11.7895137801
 20
4.8596352877
 10
11.7583612254
 20
4.8700192243
 10
11.7236151103
 20
4.8753943007
  0
LINE
  5
708
100
AcDbEntity
  8
02___PRT_ALL_AXES
100
AcDbLine
 62
3
  6
CONTINUOUS
 10
11.9915318063
 20
4.5520008101
 11
11.9957187479
 21
4.5147360672
  0
LINE
  5
709
100
AcDbEntity
  8
02___PRT_ALL_AXES
100
AcDbLine
 62
7
  6
CONTINUOUS
 10
11.9957271956
 20
4.4312464386
 11
11.9957271956
 21
4.5148254262
  0
LINE
  5
70A
100
AcDbEntity
  8
0
100
AcDbLine
 62
3
  6
CONTINUOUS
 10
11.7496562526
 20
3.9429967016
 11
11.7516700711
 21
3.9505884152
  0
LINE
  5
70B
100
AcDbEntity
  8
0
100
AcDbLine
 62
3
  6
CONTINUOUS
 10
11.653147782
 20
3.9987146326
 11
11.6511734636
 21
3.9932887056
  0
LINE
  5
70C
100
AcDbEntity
  8
0
100
AcDbLine
 62
7
  6
CONTINUOUS
 10
11.653147782
 20
3.9955000561
 11
11.6511734636
 21
3.9900741291
  0
LINE
  5
70D
100
AcDbEntity
  8
0
100
AcDbLine
 62
3
  6
CONTINUOUS
 10
11.4683448604
 20
4.046316256
 11
11.4644751378
 21
4.0397960234
  0
LINE
  5
70E
100
AcDbEntity
  8
0
100
AcDbLine
 62
7
  6
CONTINUOUS
 10
11.4683448604
 20
4.0431016795
 11
11.4644751378
 21
4.0365814469
  0
LINE
  5
70F
100
AcDbEntity
  8
0
100
AcDbLine
 62
3
  6
CONTINUOUS
 10
11.475610724
 20
4.0333670351
 11
11.4794804467
 21
4.0398872677
  0
LINE
  5
710
100
AcDbEntity
  8
0
100
AcDbLine
 62
3
  6
CONTINUOUS
 10
11.0655288958
 20
4.2744997174
 11
11.0693592018
 21
4.2788541137
  0
LINE
  5
711
100
AcDbEntity
  8
0
100
AcDbLine
 62
3
  6
CONTINUOUS
 10
11.10900475
 20
4.2931713219
 11
11.112835056
 21
4.2975257182
  0
LINE
  5
712
100
AcDbEntity
  8
0
100
AcDbLine
 62
3
  6
CONTINUOUS
 10
11.1649195177
 20
4.2740212011
 11
11.1687498238
 21
4.2783755974
  0
LINE
  5
713
100
AcDbEntity
  8
0
100
AcDbLine
 62
3
  6
CONTINUOUS
 10
11.1379497064
 20
4.2348770803
 11
11.134119399
 21
4.2305226832
  0
LINE
  5
714
100
AcDbEntity
  8
0
100
AcDbLine
 62
7
  6
CONTINUOUS
 10
11.1379497064
 20
4.2316625038
 11
11.134119399
 21
4.2273081068
  0
LINE
  5
715
100
AcDbEntity
  8
0
100
AcDbLine
 62
3
  6
CONTINUOUS
 10
13.0194077805
 20
6.1461913016
 11
10.4582442757
 21
4.6675116892
  0
LINE
  5
716
100
AcDbEntity
  8
0
100
AcDbLine
 62
7
  6
CONTINUOUS
 10
11.7214620347
 20
3.9363623667
 11
11.7139593385
 21
3.9363167694
  0
LINE
  5
717
100
AcDbEntity
  8
0
100
AcDbLine
 62
3
  6
CONTINUOUS
 10
11.7214620347
 20
3.9395769431
 11
11.7139593385
 21
3.9395313458
  0
LINE
  5
718
100
AcDbEntity
  8
0
100
AcDbLine
 62
7
  6
CONTINUOUS
 10
11.6360891504
 20
3.9856513093
 11
11.5367380326
 21
3.9882956145
  0
LINE
  5
719
100
AcDbEntity
  8
0
100
AcDbLine
 62
3
  6
CONTINUOUS
 10
11.6360891504
 20
3.9888658858
 11
11.5367380326
 21
3.991510191
  0
LINE
  5
71A
100
AcDbEntity
  8
0
100
AcDbLine
 62
3
  6
CONTINUOUS
 10
11.5515855092
 20
3.9829381903
 11
11.6396826251
 21
3.9802254647
  0
LINE
  5
71B
100
AcDbEntity
  8
0
100
AcDbLine
 62
3
  6
CONTINUOUS
 10
11.4983950633
 20
4.0486644822
 11
11.5115049679
 21
4.047661421
  0
LINE
  5
71C
100
AcDbEntity
  8
0
100
AcDbLine
 62
7
  6
CONTINUOUS
 10
11.5127293731
 20
4.0087224814
 11
11.5033707741
 21
4.0097483658
  0
LINE
  5
71D
100
AcDbEntity
  8
0
100
AcDbLine
 62
3
  6
CONTINUOUS
 10
11.5127293731
 20
4.0119370579
 11
11.5033707741
 21
4.0129629423
  0
LINE
  5
71E
100
AcDbEntity
  8
0
100
AcDbLine
 62
3
  6
CONTINUOUS
 10
11.6160292179
 20
4.0201445607
 11
11.6253878168
 21
4.0191186763
  0
LINE
  5
71F
100
AcDbEntity
  8
0
100
AcDbLine
 62
7
  6
CONTINUOUS
 10
11.2621786406
 20
4.1533747418
 11
11.2528200416
 21
4.1544006262
  0
LINE
  5
720
100
AcDbEntity
  8
0
100
AcDbLine
 62
3
  6
CONTINUOUS
 10
11.2621786406
 20
4.1565893183
 11
11.2528200416
 21
4.1576152027
  0
LINE
  5
721
100
AcDbEntity
  8
0
100
AcDbLine
 62
3
  6
CONTINUOUS
 10
11.4957496611
 20
4.0064199357
 11
11.5107155538
 21
4.0043453439
  0
LINE
  5
722
100
AcDbEntity
  8
0
100
AcDbLine
 62
7
  6
CONTINUOUS
 10
11.5191260798
 20
4.0509898505
 11
11.5041601875
 21
4.0530644425
  0
LINE
  5
723
100
AcDbEntity
  8
0
100
AcDbLine
 62
3
  6
CONTINUOUS
 10
11.5191260798
 20
4.0542044269
 11
11.5041601875
 21
4.0562790189
  0
LINE
  5
724
100
AcDbEntity
  8
0
100
AcDbLine
 62
3
  6
CONTINUOUS
 10
11.2451989711
 20
4.1510721715
 11
11.2601648214
 21
4.1489976043
  0
LINE
  5
725
100
AcDbEntity
  8
0
100
AcDbLine
 62
7
  6
CONTINUOUS
 10
11.6330088438
 20
4.0224471549
 11
11.6217943421
 21
4.024544521
  0
LINE
  5
726
100
AcDbEntity
  8
0
100
AcDbLine
 62
3
  6
CONTINUOUS
 10
11.6330088438
 20
4.0256617313
 11
11.6217943421
 21
4.0277590974
  0
LINE
  5
727
100
AcDbEntity
  8
0
100
AcDbLine
 62
3
  6
CONTINUOUS
 10
11.1672498675
 20
4.1960750893
 11
11.1784644122
 21
4.193977699
  0
LINE
  5
728
100
AcDbEntity
  8
0
100
AcDbLine
 62
7
  6
CONTINUOUS
 10
11.1823341341
 20
4.1972833548
 11
11.1767268833
 21
4.1983320378
  0
LINE
  5
729
100
AcDbEntity
  8
0
100
AcDbLine
 62
3
  6
CONTINUOUS
 10
11.1823341341
 20
4.2004979312
 11
11.1767268833
 21
4.2015466143
  0
LINE
  5
72A
100
AcDbEntity
  8
0
100
AcDbLine
 62
3
  6
CONTINUOUS
 10
11.085588916
 20
4.2432209951
 11
11.0968034182
 21
4.2411236292
  0
LINE
  5
72B
100
AcDbEntity
  8
0
100
AcDbLine
 62
7
  6
CONTINUOUS
 10
11.2228480987
 20
4.2592482143
 11
11.2116335971
 21
4.2613455804
  0
LINE
  5
72C
100
AcDbEntity
  8
0
100
AcDbLine
 62
3
  6
CONTINUOUS
 10
11.2228480987
 20
4.2624627907
 11
11.2116335971
 21
4.2645601568
  0
LINE
  5
72D
100
AcDbEntity
  8
0
100
AcDbLine
 62
7
  6
CONTINUOUS
 10
11.1430430925
 20
4.3053226138
 11
11.1318285483
 21
4.3074200044
  0
LINE
  5
72E
100
AcDbEntity
  8
0
100
AcDbLine
 62
3
  6
CONTINUOUS
 10
11.1430430925
 20
4.3085371903
 11
11.1318285483
 21
4.3106345809
  0
LINE
  5
72F
100
AcDbEntity
  8
0
100
AcDbLine
 62
3
  6
CONTINUOUS
 10
11.1335265776
 20
4.3008998794
 11
11.1409897737
 21
4.2987796901
  0
LINE
  5
730
100
AcDbEntity
  8
0
100
AcDbLine
 62
7
  6
CONTINUOUS
 10
10.8222835271
 20
4.405153967
 11
10.814820331
 21
4.4072741563
  0
LINE
  5
731
100
AcDbEntity
  8
0
100
AcDbLine
 62
3
  6
CONTINUOUS
 10
10.8222835271
 20
4.4083685435
 11
10.814820331
 21
4.4104887327
  0
LINE
  5
732
100
AcDbEntity
  8
0
100
AcDbLine
 62
7
  6
CONTINUOUS
 10
10.8620869924
 20
4.4281343713
 11
10.8546237964
 21
4.4302545606
  0
LINE
  5
733
100
AcDbEntity
  8
0
100
AcDbLine
 62
3
  6
CONTINUOUS
 10
10.8620869924
 20
4.4313489477
 11
10.8546237964
 21
4.433469137
  0
LINE
  5
734
100
AcDbEntity
  8
0
100
AcDbLine
 62
3
  6
CONTINUOUS
 10
10.6695438334
 20
4.5687743816
 11
10.6770070294
 21
4.5666541923
  0
LINE
  5
735
100
AcDbEntity
  8
0
100
AcDbLine
 62
7
  6
CONTINUOUS
 10
10.688379447
 20
4.570005445
 11
10.679060319
 21
4.5731971328
  0
LINE
  5
736
100
AcDbEntity
  8
0
100
AcDbLine
 62
3
  6
CONTINUOUS
 10
10.688379447
 20
4.5732200214
 11
10.679060319
 21
4.5764117093
  0
LWPOLYLINE
  5
737
100
AcDbEntity
  8
02___PRT_ALL_AXES
100
AcDbPolyline
 62
3
  6
CONTINUOUS
 90
10
 70
0
 10
11.5505030213
 20
4.4623483726
 10
11.5771252969
 20
4.450554537
 10
11.6081275479
 20
4.4431406563
 10
11.6413970222
 20
4.4406119742
 10
11.6746664599
 20
4.4431408163
 10
11.705668604
 20
4.450554846
 10
11.7322907095
 20
4.4623488096
 10
11.752718524
 20
4.4777189678
 10
11.7655599256
 20
4.4956178699
 10
11.7699397941
 20
4.5148254297
  0
LWPOLYLINE
  5
738
100
AcDbEntity
  8
02___PRT_ALL_AXES
100
AcDbPolyline
 62
7
  6
CONTINUOUS
 90
7
 70
0
 10
11.7322899527
 20
4.4837234923
 10
11.7056676771
 20
4.4955173279
 10
11.674665426
 20
4.5029312085
 10
11.6413959518
 20
4.5054598906
 10
11.608126514
 20
4.5029310486
 10
11.57712437
 20
4.4955170189
 10
11.5505022644
 20
4.4837230553
  0
LWPOLYLINE
  5
739
100
AcDbEntity
  8
02___PRT_ALL_AXES
100
AcDbPolyline
 62
7
  6
CONTINUOUS
 90
5
 70
0
 10
11.8215907465
 20
4.754730343
 10
11.8149497793
 20
4.7613711514
 10
11.7895137801
 20
4.7760563001
 10
11.7583612254
 20
4.7864402368
 10
11.7236151103
 20
4.7918153131
  0
LWPOLYLINE
  5
73A
100
AcDbEntity
  8
02___PRT_ALL_AXES
100
AcDbPolyline
 62
7
  6
CONTINUOUS
 90
12
 70
0
 10
12.2659283408
 20
4.4787177067
 10
12.256618013
 20
4.4987780541
 10
12.2386319907
 20
4.5167636464
 10
12.2131959915
 20
4.5314487951
 10
12.1820434368
 20
4.5418327317
 10
12.1472973216
 20
4.5472078081
 10
12.1113255364
 20
4.5472077216
 10
12.0765794987
 20
4.5418324782
 10
12.0454270938
 20
4.5314483919
 10
12.0199913064
 20
4.5167631208
 10
12.0020055434
 20
4.4987774421
 10
11.9957271956
 20
4.4852494508
  0
LWPOLYLINE
  5
73B
100
AcDbEntity
  8
02___PRT_ALL_AXES
100
AcDbPolyline
 62
3
  6
CONTINUOUS
 90
13
 70
0
 10
12.2659283408
 20
4.5622966943
 10
12.256618013
 20
4.5823570417
 10
12.2386319907
 20
4.6003426339
 10
12.2131959915
 20
4.6150277827
 10
12.1820434368
 20
4.6254117193
 10
12.1472973216
 20
4.6307867957
 10
12.1113255364
 20
4.6307867092
 10
12.0765794987
 20
4.6254114658
 10
12.0454270938
 20
4.6150273794
 10
12.0199913064
 20
4.6003421084
 10
12.0020055434
 20
4.5823564297
 10
11.992695505
 20
4.5622960375
 10
11.9915318063
 20
4.5520008101
  0
LINE
  5
73C
100
AcDbEntity
  8
02___PRT_ALL_AXES
100
AcDbLine
 62
9
  6
CONTINUOUS
 10
12.2659283408
 20
4.5622966943
 11
12.2659283408
 21
4.4787177067
  0
LINE
  5
73D
100
AcDbEntity
  8
0
100
AcDbLine
 62
3
  6
CONTINUOUS
 10
11.2271528119
 20
4.1899425829
 11
11.2233225058
 21
4.1855881866
  0
LINE
  5
73E
100
AcDbEntity
  8
0
100
AcDbLine
 62
7
  6
CONTINUOUS
 10
11.2271528119
 20
4.1867280064
 11
11.2233225058
 21
4.1823736102
  0
LINE
  5
73F
100
AcDbEntity
  8
0
100
AcDbLine
 62
3
  6
CONTINUOUS
 10
11.326267097
 20
4.1743034596
 11
11.3300974083
 21
4.1786578589
  0
LINE
  5
740
100
AcDbEntity
  8
0
100
AcDbLine
 62
3
  6
CONTINUOUS
 10
11.4100208728
 20
4.1390808435
 11
11.4061905667
 21
4.1347264473
  0
LINE
  5
741
100
AcDbEntity
  8
0
100
AcDbLine
 62
7
  6
CONTINUOUS
 10
11.4100208728
 20
4.1358662671
 11
11.4061905667
 21
4.1315118708
  0
LINE
  5
742
100
AcDbEntity
  8
0
100
AcDbLine
 62
3
  6
CONTINUOUS
 10
11.0582236156
 20
4.2852831019
 11
11.0524979066
 21
4.2798344008
  0
LINE
  5
743
100
AcDbEntity
  8
0
100
AcDbLine
 62
7
  6
CONTINUOUS
 10
11.0582236156
 20
4.2820685255
 11
11.0524979066
 21
4.2766198244
  0
LINE
  5
744
100
AcDbEntity
  8
0
100
AcDbLine
 62
3
  6
CONTINUOUS
 10
11.0998040669
 20
4.3028604016
 11
11.0940783579
 21
4.2974117005
  0
LINE
  5
745
100
AcDbEntity
  8
0
100
AcDbLine
 62
7
  6
CONTINUOUS
 10
11.0998040669
 20
4.2996458252
 11
11.0940783579
 21
4.294197124
  0
LINE
  5
746
100
AcDbEntity
  8
0
100
AcDbLine
 62
3
  6
CONTINUOUS
 10
11.2123448354
 20
4.2006803701
 11
11.2180705046
 21
4.2061290973
  0
LINE
  5
747
100
AcDbEntity
  8
0
100
AcDbLine
 62
3
  6
CONTINUOUS
 10
11.2502923596
 20
4.2247322829
 11
11.2560180261
 21
4.2301810086
  0
LINE
  5
748
100
AcDbEntity
  8
0
100
AcDbLine
 62
3
  6
CONTINUOUS
 10
10.6434029105
 20
4.5751121431
 11
10.6358212935
 21
4.5707349206
  0
LINE
  5
749
100
AcDbEntity
  8
0
100
AcDbLine
 62
7
  6
CONTINUOUS
 10
10.6434029105
 20
4.5718975667
 11
10.6358212935
 21
4.5675203442
  0
LINE
  5
74A
100
AcDbEntity
  8
0
100
AcDbLine
 62
3
  6
CONTINUOUS
 10
10.6488522826
 20
4.5654002372
 11
10.6526430884
 21
4.5675888469
  0
LINE
  5
74B
100
AcDbEntity
  8
0
100
AcDbLine
 62
3
  6
CONTINUOUS
 10
10.6555655084
 20
4.5221297923
 11
10.6498792996
 21
4.5188468778
  0
LINE
  5
74C
100
AcDbEntity
  8
0
100
AcDbLine
 62
7
  6
CONTINUOUS
 10
10.6555655084
 20
4.5189152159
 11
10.6498792996
 21
4.5156323013
  0
LINE
  5
74D
100
AcDbEntity
  8
0
100
AcDbLine
 62
3
  6
CONTINUOUS
 10
10.6591194829
 20
4.5113235847
 11
10.6685964975
 21
4.5167951089
  0
LINE
  5
74E
100
AcDbEntity
  8
0
100
AcDbLine
 62
3
  6
CONTINUOUS
 10
10.7422014462
 20
4.5421465787
 11
10.6531174982
 21
4.4907142443
  0
LINE
  5
74F
100
AcDbEntity
  8
0
100
AcDbLine
 62
7
  6
CONTINUOUS
 10
10.7422014462
 20
4.5389320022
 11
10.6559014428
 21
4.4891069695
  0
LINE
  5
750
100
AcDbEntity
  8
0
100
AcDbLine
 62
3
  6
CONTINUOUS
 10
10.6642530844
 20
4.4842852561
 11
10.7343830032
 21
4.5247745419
  0
LINE
  5
751
100
AcDbEntity
  8
0
100
AcDbLine
 62
3
  6
CONTINUOUS
 10
10.8011965205
 20
4.4862006123
 11
10.7310666017
 21
4.4457113265
  0
LINE
  5
752
100
AcDbEntity
  8
0
100
AcDbLine
 62
7
  6
CONTINUOUS
 10
10.8011965205
 20
4.4829860359
 11
10.7338505464
 21
4.4441040517
  0
LINE
  5
753
100
AcDbEntity
  8
0
100
AcDbLine
 62
3
  6
CONTINUOUS
 10
11.7175528132
 20
3.9308909247
 11
11.730702218
 21
3.93205365
  0
LINE
  5
754
100
AcDbEntity
  8
0
100
AcDbLine
 62
3
  6
CONTINUOUS
 10
11.5107155538
 20
4.0043453439
 11
11.5238649593
 21
4.0055080696
  0
LINE
  5
755
100
AcDbEntity
  8
0
100
AcDbLine
 62
7
  6
CONTINUOUS
 10
11.6217943421
 20
4.024544521
 11
11.6067890346
 21
4.0244532774
  0
LINE
  5
756
100
AcDbEntity
  8
0
100
AcDbLine
 62
3
  6
CONTINUOUS
 10
11.6217943421
 20
4.0277590974
 11
11.6067890346
 21
4.0276678538
  0
LINE
  5
757
100
AcDbEntity
  8
0
100
AcDbLine
 62
7
  6
CONTINUOUS
 10
11.3929622411
 20
4.1260175203
 11
11.3854595449
 21
4.1259719231
  0
LINE
  5
758
100
AcDbEntity
  8
0
100
AcDbLine
 62
3
  6
CONTINUOUS
 10
11.3929622411
 20
4.1292320968
 11
11.3854595449
 21
4.1291864995
  0
LWPOLYLINE
  5
759
100
AcDbEntity
  8
02___PRT_ALL_AXES
100
AcDbPolyline
 62
3
  6
CONTINUOUS
 90
11
 70
0
 10
11.5591778637
 20
4.1542565517
 10
11.6743666375
 20
4.1516439065
 10
11.7884512348
 20
4.1611942776
 10
11.8976109415
 20
4.1825878212
 10
11.9981899787
 20
4.2151080635
 10
12.0868199359
 20
4.2576658958
 10
12.1605325795
 20
4.3088360483
 10
12.2168592593
 20
4.3669048231
 10
12.2539135845
 20
4.4299274863
 10
12.2704545989
 20
4.4957933972
 10
12.2713111042
 20
4.5147277921
  0
LINE
  5
75A
100
AcDbEntity
  8
0
100
AcDbLine
 62
3
  6
CONTINUOUS
 10
11.3759430301
 20
4.1215491887
 11
11.3890530196
 21
4.1205460784
  0
LINE
  5
75B
100
AcDbEntity
  8
0
100
AcDbLine
 62
3
  6
CONTINUOUS
 10
11.2145559878
 20
4.2191011161
 11
11.2276659349
 21
4.2180980303
  0
LINE
  5
75C
100
AcDbEntity
  8
0
100
AcDbLine
 62
3
  6
CONTINUOUS
 10
11.1784644122
 20
4.193977699
 11
11.1878230118
 21
4.1929518149
  0
LINE
  5
75D
100
AcDbEntity
  8
0
100
AcDbLine
 62
3
  6
CONTINUOUS
 10
11.2912412722
 20
4.2076567265
 11
11.3005998712
 21
4.2066308421
  0
LINE
  5
75E
100
AcDbEntity
  8
0
100
AcDbLine
 62
7
  6
CONTINUOUS
 10
11.1044639898
 20
4.246617871
 11
11.0951053895
 21
4.2476437546
  0
LINE
  5
75F
100
AcDbEntity
  8
0
100
AcDbLine
 62
3
  6
CONTINUOUS
 10
11.1044639898
 20
4.2498324474
 11
11.0951053895
 21
4.2508583311
  0
LINE
  5
760
100
AcDbEntity
  8
0
100
AcDbLine
 62
3
  6
CONTINUOUS
 10
11.2058684304
 20
4.2569456447
 11
11.2152270293
 21
4.2559197602
  0
LINE
  5
761
100
AcDbEntity
  8
0
100
AcDbLine
 62
3
  6
CONTINUOUS
 10
11.1241679787
 20
4.3019257638
 11
11.1335265776
 21
4.3008998794
  0
LINE
  5
762
100
AcDbEntity
  8
0
100
AcDbLine
 62
7
  6
CONTINUOUS
 10
11.3082209406
 20
4.2099592961
 11
11.2932550908
 21
4.2120338636
  0
LINE
  5
763
100
AcDbEntity
  8
0
100
AcDbLine
 62
3
  6
CONTINUOUS
 10
11.3082209406
 20
4.2131738726
 11
11.2932550908
 21
4.21524844
  0
LINE
  5
764
100
AcDbEntity
  8
0
100
AcDbLine
 62
3
  6
CONTINUOUS
 10
10.8600731739
 20
4.4237572342
 11
10.8656804459
 21
4.4227085389
  0
LINE
  5
765
100
AcDbEntity
  8
0
100
AcDbLine
 62
3
  6
CONTINUOUS
 10
10.6216061426
 20
4.5110955141
 11
10.6328206713
 21
4.5089981329
  0
LINE
  5
766
100
AcDbEntity
  8
0
100
AcDbLine
 62
7
  6
CONTINUOUS
 10
10.679060319
 20
4.5731971328
 11
10.6678457895
 21
4.575294515
  0
LINE
  5
767
100
AcDbEntity
  8
0
100
AcDbLine
 62
3
  6
CONTINUOUS
 10
10.679060319
 20
4.5764117093
 11
10.6678457895
 21
4.5785090915
  0
LWPOLYLINE
  5
768
100
AcDbEntity
  8
02___PRT_ALL_AXES
100
AcDbPolyline
 62
3
  6
CONTINUOUS
 90
10
 70
0
 10
11.7322899527
 20
4.5673024799
 10
11.7056676771
 20
4.5790963154
 10
11.674665426
 20
4.5865101961
 10
11.6413959518
 20
4.5890388782
 10
11.608126514
 20
4.5865100362
 10
11.57712437
 20
4.5790960065
 10
11.5505022644
 20
4.5673020429
 10
11.53007445
 20
4.5519318846
 10
11.5172330484
 20
4.5340329825
 10
11.5128531799
 20
4.5148254227
  0
LINE
  5
769
100
AcDbEntity
  8
02___PRT_ALL_AXES
100
AcDbLine
 62
7
  6
CONTINUOUS
 10
12.2660022732
 20
4.4780643464
 11
12.2659283408
 21
4.4787177067
  0
LINE
  5
76A
100
AcDbEntity
  8
02___PRT_ALL_AXES
100
AcDbLine
 62
3
  6
CONTINUOUS
 10
12.2713111042
 20
4.5147277921
 11
12.2659283408
 21
4.5622966943
  0
LWPOLYLINE
  5
76B
100
AcDbEntity
  8
02___PRT_ALL_AXES
100
AcDbPolyline
 62
3
  6
CONTINUOUS
 90
6
 70
0
 10
12.5762193432
 20
5.4068201604
 10
12.5768612443
 20
5.3905823841
 10
12.5924196326
 20
5.326190832
 10
12.6282068834
 20
5.2645462006
 10
12.6830043051
 20
5.2077477237
 10
12.7549458369
 20
5.1577296055
  0
LINE
  5
76C
100
AcDbEntity
  8
0
100
AcDbLine
 62
3
  6
CONTINUOUS
 10
11.5446353924
 20
4.0132138507
 11
11.5504006042
 21
4.0208283399
  0
LINE
  5
76D
100
AcDbEntity
  8
0
100
AcDbLine
 62
3
  6
CONTINUOUS
 10
11.4173261529
 20
4.128297459
 11
11.421156459
 21
4.1326518553
  0
LINE
  5
76E
100
AcDbEntity
  8
0
100
AcDbLine
 62
3
  6
CONTINUOUS
 10
11.5372906147
 20
4.0218314502
 11
11.5334603909
 21
4.0174770034
  0
LINE
  5
76F
100
AcDbEntity
  8
0
100
AcDbLine
 62
7
  6
CONTINUOUS
 10
11.5372906147
 20
4.0186168738
 11
11.5334603909
 21
4.0142624269
  0
LINE
  5
770
100
AcDbEntity
  8
0
100
AcDbLine
 62
3
  6
CONTINUOUS
 10
11.2347738839
 20
4.1964856149
 11
11.2271528119
 21
4.1899425829
  0
LINE
  5
771
100
AcDbEntity
  8
0
100
AcDbLine
 62
7
  6
CONTINUOUS
 10
11.2347738839
 20
4.1932710385
 11
11.2271528119
 21
4.1867280064
  0
LINE
  5
772
100
AcDbEntity
  8
0
100
AcDbLine
 62
3
  6
CONTINUOUS
 10
11.3186460276
 20
4.1677604291
 11
11.326267097
 21
4.1743034596
  0
LINE
  5
773
100
AcDbEntity
  8
0
100
AcDbLine
 62
3
  6
CONTINUOUS
 10
11.2364324529
 20
4.1845851008
 11
11.2459489279
 21
4.1922224377
  0
LINE
  5
774
100
AcDbEntity
  8
02___PRT_ALL_AXES
100
AcDbLine
 62
7
  6
CONTINUOUS
 10
11.5505022644
 20
4.4837230553
 11
11.5362984359
 21
4.4730359066
  0
LINE
  5
775
100
AcDbEntity
  8
0
100
AcDbLine
 62
3
  6
CONTINUOUS
 10
10.7422021879
 20
4.4392823383
 11
10.8312861359
 21
4.4907146726
  0
LINE
  5
776
100
AcDbEntity
  8
0
100
AcDbLine
 62
3
  6
CONTINUOUS
 10
10.8461335913
 20
4.4821426842
 11
10.7570496433
 21
4.4307103498
  0
LINE
  5
777
100
AcDbEntity
  8
0
100
AcDbLine
 62
7
  6
CONTINUOUS
 10
10.8461335913
 20
4.4789281077
 11
10.759833588
 21
4.429103075
  0
LINE
  5
778
100
AcDbEntity
  8
0
100
AcDbLine
 62
3
  6
CONTINUOUS
 10
10.7795576484
 20
4.4308471915
 11
10.8079886962
 21
4.4472617666
  0
LINE
  5
779
100
AcDbEntity
  8
0
100
AcDbLine
 62
3
  6
CONTINUOUS
 10
10.8193611138
 20
4.4538275957
 11
10.84589676
 21
4.4691478668
  0
LINE
  5
77A
100
AcDbEntity
  8
0
100
AcDbLine
 62
3
  6
CONTINUOUS
 10
10.880922606
 20
4.4357945876
 11
10.8771318002
 21
4.4336059779
  0
LINE
  5
77B
100
AcDbEntity
  8
0
100
AcDbLine
 62
3
  6
CONTINUOUS
 10
10.8430145449
 20
4.4139084889
 11
10.8373283361
 21
4.4106255744
  0
LINE
  5
77C
100
AcDbEntity
  8
0
100
AcDbLine
 62
7
  6
CONTINUOUS
 10
10.880922606
 20
4.4325800111
 11
10.8771318002
 21
4.4303914014
  0
LINE
  5
77D
100
AcDbEntity
  8
0
100
AcDbLine
 62
7
  6
CONTINUOUS
 10
10.8430145449
 20
4.4106939125
 11
10.8373283361
 21
4.4074109979
  0
LINE
  5
77E
100
AcDbEntity
  8
0
100
AcDbLine
 62
3
  6
CONTINUOUS
 10
10.8465685194
 20
4.4031022813
 11
10.856045534
 21
4.4085738055
  0
LINE
  5
77F
100
AcDbEntity
  8
0
100
AcDbLine
 62
3
  6
CONTINUOUS
 10
10.8863719835
 20
4.4260826848
 11
10.8939536005
 21
4.4304599072
  0
LINE
  5
780
100
AcDbEntity
  8
0
100
AcDbLine
 62
3
  6
CONTINUOUS
 10
11.0187351565
 20
4.3824933784
 11
10.9296512085
 21
4.3310610441
  0
LINE
  5
781
100
AcDbEntity
  8
0
100
AcDbLine
 62
7
  6
CONTINUOUS
 10
11.0187351565
 20
4.379278802
 11
10.9324351532
 21
4.3294537692
  0
LINE
  5
782
100
AcDbEntity
  8
0
100
AcDbLine
 62
7
  6
CONTINUOUS
 10
11.6473826525
 20
3.9878855163
 11
11.6360891504
 21
3.9856513093
  0
LINE
  5
783
100
AcDbEntity
  8
0
100
AcDbLine
 62
3
  6
CONTINUOUS
 10
11.6473826525
 20
3.9911000928
 11
11.6360891504
 21
3.9888658858
  0
LINE
  5
784
100
AcDbEntity
  8
0
100
AcDbLine
 62
3
  6
CONTINUOUS
 10
11.6396826251
 20
3.9802254647
 11
11.6490807243
 21
3.9813653668
  0
LINE
  5
785
100
AcDbEntity
  8
0
100
AcDbLine
 62
3
  6
CONTINUOUS
 10
11.6066311187
 20
4.0190046586
 11
11.6160292179
 21
4.0201445607
  0
LINE
  5
786
100
AcDbEntity
  8
0
100
AcDbLine
 62
7
  6
CONTINUOUS
 10
11.5221273886
 20
4.0098624334
 11
11.5127293731
 21
4.0087224814
  0
LINE
  5
787
100
AcDbEntity
  8
0
100
AcDbLine
 62
3
  6
CONTINUOUS
 10
11.5221273886
 20
4.0130770098
 11
11.5127293731
 21
4.0119370579
  0
LINE
  5
788
100
AcDbEntity
  8
0
100
AcDbLine
 62
3
  6
CONTINUOUS
 10
11.3890530196
 20
4.1205460784
 11
11.4022024244
 21
4.1217088037
  0
LINE
  5
789
100
AcDbEntity
  8
0
100
AcDbLine
 62
3
  6
CONTINUOUS
 10
11.2601648214
 20
4.1489976043
 11
11.2714188239
 21
4.1490660251
  0
LINE
  5
78A
100
AcDbEntity
  8
0
100
AcDbLine
 62
7
  6
CONTINUOUS
 10
11.1898368317
 20
4.1973289528
 11
11.1823341341
 21
4.1972833548
  0
LINE
  5
78B
100
AcDbEntity
  8
0
100
AcDbLine
 62
3
  6
CONTINUOUS
 10
11.1898368317
 20
4.2005435293
 11
11.1823341341
 21
4.2004979312
  0
LINE
  5
78C
100
AcDbEntity
  8
0
100
AcDbLine
 62
7
  6
CONTINUOUS
 10
11.2932550908
 20
4.2120338636
 11
11.2820010889
 21
4.2119654432
  0
LINE
  5
78D
100
AcDbEntity
  8
0
100
AcDbLine
 62
3
  6
CONTINUOUS
 10
11.2932550908
 20
4.21524844
 11
11.2820010889
 21
4.2151800196
  0
LINE
  5
78E
100
AcDbEntity
  8
0
100
AcDbLine
 62
7
  6
CONTINUOUS
 10
11.2259284053
 20
4.2224523688
 11
11.2184257516
 21
4.222406747
  0
LINE
  5
78F
100
AcDbEntity
  8
0
100
AcDbLine
 62
3
  6
CONTINUOUS
 10
11.2259284053
 20
4.2256669452
 11
11.2184257516
 21
4.2256213234
  0
LINE
  5
790
100
AcDbEntity
  8
0
100
AcDbLine
 62
3
  6
CONTINUOUS
 10
11.0968034182
 20
4.2411236292
 11
11.1118087689
 21
4.2412148487
  0
LINE
  5
791
100
AcDbEntity
  8
0
100
AcDbLine
 62
7
  6
CONTINUOUS
 10
11.2116335971
 20
4.2613455804
 11
11.1966282471
 21
4.2612543613
  0
LINE
  5
792
100
AcDbEntity
  8
0
100
AcDbLine
 62
3
  6
CONTINUOUS
 10
11.2116335971
 20
4.2645601568
 11
11.1966282471
 21
4.2644689378
  0
LINE
  5
793
100
AcDbEntity
  8
0
100
AcDbLine
 62
7
  6
CONTINUOUS
 10
11.1318285483
 20
4.3074200044
 11
11.1168231983
 21
4.3073287854
  0
LINE
  5
794
100
AcDbEntity
  8
0
100
AcDbLine
 62
3
  6
CONTINUOUS
 10
11.1318285483
 20
4.3106345809
 11
11.1168231983
 21
4.3105433618
  0
LWPOLYLINE
  5
795
100
AcDbEntity
  8
02___PRT_ALL_AXES
100
AcDbPolyline
 62
7
  6
CONTINUOUS
 90
6
 70
0
 10
11.5951485114
 20
4.2284264468
 10
11.5591767261
 20
4.2284263603
 10
11.5244306885
 20
4.2230511169
 10
11.4932782835
 20
4.2126670305
 10
11.4678424961
 20
4.1979817595
 10
11.4612022275
 20
4.1913415219
  0
LWPOLYLINE
  5
796
100
AcDbEntity
  8
02___PRT_ALL_AXES
100
AcDbPolyline
 62
3
  6
CONTINUOUS
 90
8
 70
0
 10
11.5951485114
 20
4.3120054343
 10
11.5591767261
 20
4.3120053479
 10
11.5244306885
 20
4.3066301045
 10
11.4932782835
 20
4.2962460181
 10
11.4678424961
 20
4.281560747
 10
11.4498567332
 20
4.2635750683
 10
11.4405466948
 20
4.2435146762
 10
11.4393829968
 20
4.2331309949
  0
LWPOLYLINE
  5
797
100
AcDbEntity
  8
02___PRT_ALL_AXES
100
AcDbPolyline
 62
7
  6
CONTINUOUS
 90
10
 70
0
 10
11.5951485114
 20
4.2284264468
 10
11.6671429086
 20
4.2272171906
 10
11.7380734956
 20
4.2344381693
 10
11.8050095089
 20
4.2497910209
 10
11.8651852355
 20
4.2726413848
 10
11.9161142894
 20
4.3020451122
 10
11.9556923453
 20
4.3367872778
 10
11.9822840871
 20
4.3754323784
 10
11.9947907773
 20
4.4163836466
 10
11.9957187479
 20
4.4311570797
  0
LWPOLYLINE
  5
798
100
AcDbEntity
  8
02___PRT_ALL_AXES
100
AcDbPolyline
 62
3
  6
CONTINUOUS
 90
10
 70
0
 10
11.5951485114
 20
4.3120054343
 10
11.6671429086
 20
4.3107961782
 10
11.7380734956
 20
4.3180171569
 10
11.8050095089
 20
4.3333700085
 10
11.8651852355
 20
4.3562203723
 10
11.9161142894
 20
4.3856240998
 10
11.9556923453
 20
4.4203662654
 10
11.9822840871
 20
4.459011366
 10
11.9947907773
 20
4.4999626342
 10
11.9957187479
 20
4.5147360672
  0
LINE
  5
799
100
AcDbEntity
  8
0
100
AcDbLine
 62
3
  6
CONTINUOUS
 10
10.8127670323
 20
4.4007312197
 11
10.8258769799
 21
4.3997281342
  0
LINE
  5
79A
100
AcDbEntity
  8
0
100
AcDbLine
 62
7
  6
CONTINUOUS
 10
10.6404812323
 20
4.5144923808
 11
10.631122632
 21
4.5155182645
  0
LINE
  5
79B
100
AcDbEntity
  8
0
100
AcDbLine
 62
3
  6
CONTINUOUS
 10
10.6404812323
 20
4.5177069572
 11
10.631122632
 21
4.5187328409
  0
LINE
  5
79C
100
AcDbEntity
  8
0
100
AcDbLine
 62
3
  6
CONTINUOUS
 10
10.6601852331
 20
4.5698002668
 11
10.6695438334
 21
4.5687743816
  0
LINE
  5
79D
100
AcDbEntity
  8
0
100
AcDbLine
 62
3
  6
CONTINUOUS
 10
11.6794473334
 20
3.8981758427
 11
11.7063382266
 21
3.9329883399
  0
LINE
  5
79E
100
AcDbEntity
  8
0
100
AcDbLine
 62
3
  6
CONTINUOUS
 10
11.6914118345
 20
3.9372287184
 11
11.6664558444
 21
3.9056763127
  0
LINE
  5
79F
100
AcDbEntity
  8
0
100
AcDbLine
 62
7
  6
CONTINUOUS
 10
11.6914118345
 20
3.934014142
 11
11.6680199175
 21
3.9044392282
  0
LINE
  5
7A0
100
AcDbEntity
  8
0
100
AcDbLine
 62
3
  6
CONTINUOUS
 10
11.7385206663
 20
3.9494256899
 11
11.7346903603
 21
3.9450712936
  0
LINE
  5
7A1
100
AcDbEntity
  8
0
100
AcDbLine
 62
7
  6
CONTINUOUS
 10
11.7385206663
 20
3.9462111134
 11
11.7346903603
 21
3.9418567172
  0
LINE
  5
7A2
100
AcDbEntity
  8
0
100
AcDbLine
 62
3
  6
CONTINUOUS
 10
11.7458259465
 20
3.9386423053
 11
11.7496562526
 21
3.9429967016
  0
LINE
  5
7A3
100
AcDbEntity
  8
0
100
AcDbLine
 62
3
  6
CONTINUOUS
 10
11.316987456
 20
4.1796609416
 11
11.3074709836
 21
4.1720236062
  0
LINE
  5
7A4
100
AcDbEntity
  8
0
100
AcDbLine
 62
7
  6
CONTINUOUS
 10
11.316987456
 20
4.1764463652
 11
11.3074709836
 21
4.1688090298
  0
LINE
  5
7A5
100
AcDbEntity
  8
0
100
AcDbLine
 62
3
  6
CONTINUOUS
 10
10.9407867948
 20
4.3246320558
 11
11.0109167135
 21
4.3651213416
  0
LINE
  5
7A6
100
AcDbEntity
  8
0
100
AcDbLine
 62
3
  6
CONTINUOUS
 10
11.0777302309
 20
4.326547412
 11
11.0076003121
 21
4.2860581262
  0
LINE
  5
7A7
100
AcDbEntity
  8
0
100
AcDbLine
 62
7
  6
CONTINUOUS
 10
11.0777302309
 20
4.3233328356
 11
11.0103842568
 21
4.2844508514
  0
LINE
  5
7A8
100
AcDbEntity
  8
0
100
AcDbLine
 62
3
  6
CONTINUOUS
 10
11.0187358983
 20
4.279629138
 11
11.1078198463
 21
4.3310614723
  0
LINE
  5
7A9
100
AcDbEntity
  8
0
100
AcDbLine
 62
3
  6
CONTINUOUS
 10
11.1073856839
 20
4.3072376241
 11
11.0998040669
 21
4.3028604016
  0
LINE
  5
7AA
100
AcDbEntity
  8
0
100
AcDbLine
 62
7
  6
CONTINUOUS
 10
11.1073856839
 20
4.3040230476
 11
11.0998040669
 21
4.2996458252
  0
LINE
  5
7AB
100
AcDbEntity
  8
0
100
AcDbLine
 62
3
  6
CONTINUOUS
 10
11.112835056
 20
4.2975257182
 11
11.1166258619
 21
4.2997143279
  0
LINE
  5
7AC
100
AcDbEntity
  8
0
100
AcDbLine
 62
3
  6
CONTINUOUS
 10
11.1195482553
 20
4.2542552887
 11
11.1138620465
 21
4.2509723741
  0
LINE
  5
7AD
100
AcDbEntity
  8
0
100
AcDbLine
 62
7
  6
CONTINUOUS
 10
11.1195482553
 20
4.2510407122
 11
11.1138620465
 21
4.2477577976
  0
LINE
  5
7AE
100
AcDbEntity
  8
0
100
AcDbLine
 62
3
  6
CONTINUOUS
 10
11.1231022298
 20
4.243449081
 11
11.1325792444
 21
4.2489206052
  0
LINE
  5
7AF
100
AcDbEntity
  8
0
100
AcDbLine
 62
3
  6
CONTINUOUS
 10
10.6528404534
 20
4.5784178644
 11
10.6434029105
 21
4.5751121431
  0
LINE
  5
7B0
100
AcDbEntity
  8
0
100
AcDbLine
 62
7
  6
CONTINUOUS
 10
10.6528404534
 20
4.5752032879
 11
10.6434029105
 21
4.5718975667
  0
LINE
  5
7B1
100
AcDbEntity
  8
0
100
AcDbLine
 62
3
  6
CONTINUOUS
 10
11.5238649593
 20
4.0055080696
 11
11.5370537807
 21
4.0088366313
  0
LINE
  5
7B2
100
AcDbEntity
  8
0
100
AcDbLine
 62
3
  6
CONTINUOUS
 10
11.2714188239
 20
4.1490660251
 11
11.2827123273
 21
4.1513002329
  0
LINE
  5
7B3
100
AcDbEntity
  8
0
100
AcDbLine
 62
7
  6
CONTINUOUS
 10
11.2809747978
 20
4.1556545714
 11
11.2621786406
 21
4.1533747418
  0
LINE
  5
7B4
100
AcDbEntity
  8
0
100
AcDbLine
 62
3
  6
CONTINUOUS
 10
11.2809747978
 20
4.1588691478
 11
11.2621786406
 21
4.1565893183
  0
LINE
  5
7B5
100
AcDbEntity
  8
0
100
AcDbLine
 62
3
  6
CONTINUOUS
 10
11.1878230118
 20
4.1929518149
 11
11.1972210685
 21
4.1940917416
  0
LINE
  5
7B6
100
AcDbEntity
  8
0
100
AcDbLine
 62
3
  6
CONTINUOUS
 10
11.2724451111
 20
4.2053768946
 11
11.2912412722
 21
4.2076567265
  0
LINE
  5
7B7
100
AcDbEntity
  8
0
100
AcDbLine
 62
3
  6
CONTINUOUS
 10
11.2276659349
 20
4.2180980303
 11
11.2370639915
 21
4.2192379569
  0
LINE
  5
7B8
100
AcDbEntity
  8
0
100
AcDbLine
 62
3
  6
CONTINUOUS
 10
11.1964703737
 20
4.255805718
 11
11.2058684304
 21
4.2569456447
  0
LINE
  5
7B9
100
AcDbEntity
  8
0
100
AcDbLine
 62
7
  6
CONTINUOUS
 10
11.1138620465
 20
4.2477577976
 11
11.1044639898
 21
4.246617871
  0
LINE
  5
7BA
100
AcDbEntity
  8
0
100
AcDbLine
 62
3
  6
CONTINUOUS
 10
11.1138620465
 20
4.2509723741
 11
11.1044639898
 21
4.2498324474
  0
LINE
  5
7BB
100
AcDbEntity
  8
0
100
AcDbLine
 62
7
  6
CONTINUOUS
 10
10.8297862034
 20
4.4051995773
 11
10.8222835271
 21
4.405153967
  0
LINE
  5
7BC
100
AcDbEntity
  8
0
100
AcDbLine
 62
3
  6
CONTINUOUS
 10
10.8297862034
 20
4.4084141538
 11
10.8222835271
 21
4.4083685435
  0
LINE
  5
7BD
100
AcDbEntity
  8
0
100
AcDbLine
 62
7
  6
CONTINUOUS
 10
10.8695896674
 20
4.4281799808
 11
10.8620869924
 21
4.4281343713
  0
LINE
  5
7BE
100
AcDbEntity
  8
0
100
AcDbLine
 62
3
  6
CONTINUOUS
 10
10.8695896674
 20
4.4313945573
 11
10.8620869924
 21
4.4313489477
  0
LINE
  5
7BF
100
AcDbEntity
  8
0
100
AcDbLine
 62
3
  6
CONTINUOUS
 10
10.6328206713
 20
4.5089981329
 11
10.6478260114
 21
4.5090893585
  0
LWPOLYLINE
  5
7C0
100
AcDbEntity
  8
0
100
AcDbPolyline
 62
3
  6
CONTINUOUS
 90
8
 70
0
 10
14.4670446527
 20
3.8317493716
 10
14.5084010194
 20
3.8127084471
 10
14.5560593074
 20
3.799457999
 10
14.607629731
 20
3.7926624602
 10
14.6605263339
 20
3.7926625873
 10
14.7120966595
 20
3.799458374
 10
14.7597547564
 20
3.8127090513
 10
14.8011108485
 20
3.8317501746
  0
LWPOLYLINE
  5
7C1
100
AcDbEntity
  8
0
100
AcDbPolyline
 62
7
  6
CONTINUOUS
 90
8
 70
0
 10
13.3534860304
 20
4.3910692101
 10
13.3121296636
 20
4.4101101347
 10
13.2644713757
 20
4.4233605828
 10
13.212900952
 20
4.4301561216
 10
13.1600043492
 20
4.4301559944
 10
13.1084340236
 20
4.4233602077
 10
13.0607759267
 20
4.4101095305
 10
13.0194198346
 20
4.3910684071
  0
LINE
  5
7C2
100
AcDbEntity
  8
0
100
AcDbLine
 62
7
  6
CONTINUOUS
 10
13.3534860304
 20
4.3910692101
 11
14.4670446527
 21
3.7481703841
  0
LINE
  5
7C3
100
AcDbEntity
  8
0
100
AcDbLine
 62
3
  6
CONTINUOUS
 10
11.6623090498
 20
3.9868597173
 11
11.6680347588
 21
3.9923084184
  0
LINE
  5
7C4
100
AcDbEntity
  8
0
100
AcDbLine
 62
3
  6
CONTINUOUS
 10
11.1960756212
 20
4.2341477023
 11
11.1884940095
 21
4.2297704829
  0
LINE
  5
7C5
100
AcDbEntity
  8
0
100
AcDbLine
 62
7
  6
CONTINUOUS
 10
11.1960756212
 20
4.2309331259
 11
11.1912779542
 21
4.228163208
  0
LINE
  5
7C6
100
AcDbEntity
  8
0
100
AcDbLine
 62
3
  6
CONTINUOUS
 10
11.2410127186
 20
4.230089765
 11
11.2372219074
 21
4.2279011522
  0
LINE
  5
7C7
100
AcDbEntity
  8
0
100
AcDbLine
 62
3
  6
CONTINUOUS
 10
11.2030651519
 20
4.2060378767
 11
11.1954835402
 21
4.2016606573
  0
LINE
  5
7C8
100
AcDbEntity
  8
0
100
AcDbLine
 62
7
  6
CONTINUOUS
 10
11.2410127186
 20
4.2268751885
 11
11.2372219074
 21
4.2246865757
  0
LINE
  5
7C9
100
AcDbEntity
  8
0
100
AcDbLine
 62
7
  6
CONTINUOUS
 10
11.2030651519
 20
4.2028233003
 11
11.1954835402
 21
4.1984460808
  0
LINE
  5
7CA
100
AcDbEntity
  8
0
100
AcDbLine
 62
3
  6
CONTINUOUS
 10
11.2465015484
 20
4.2225436701
 11
11.2502923596
 21
4.2247322829
  0
LINE
  5
7CB
100
AcDbEntity
  8
0
100
AcDbLine
 62
3
  6
CONTINUOUS
 10
11.2047632238
 20
4.1963031507
 11
11.2123448354
 21
4.2006803701
  0
LINE
  5
7CC
100
AcDbEntity
  8
0
100
AcDbLine
 62
3
  6
CONTINUOUS
 10
11.2518325102
 20
4.2063343586
 11
11.2347738839
 21
4.1964856149
  0
LINE
  5
7CD
100
AcDbEntity
  8
0
100
AcDbLine
 62
7
  6
CONTINUOUS
 10
11.2518325102
 20
4.2031197822
 11
11.2347738839
 21
4.1932710385
  0
LINE
  5
7CE
100
AcDbEntity
  8
0
100
AcDbLine
 62
3
  6
CONTINUOUS
 10
11.2459489279
 20
4.1922224377
 11
11.2592167483
 21
4.1998825717
  0
LINE
  5
7CF
100
AcDbEntity
  8
0
100
AcDbLine
 62
3
  6
CONTINUOUS
 10
11.3074709836
 20
4.1720236062
 11
11.2942031632
 21
4.1643634723
  0
LINE
  5
7D0
100
AcDbEntity
  8
0
100
AcDbLine
 62
7
  6
CONTINUOUS
 10
11.3074709836
 20
4.1688090298
 11
11.2942031632
 21
4.1611488958
  0
LINE
  5
7D1
100
AcDbEntity
  8
0
100
AcDbLine
 62
3
  6
CONTINUOUS
 10
11.3015874013
 20
4.1579116854
 11
11.3186460276
 21
4.1677604291
  0
LINE
  5
7D2
100
AcDbEntity
  8
0
100
AcDbLine
 62
3
  6
CONTINUOUS
 10
11.3695061226
 20
4.1799802482
 11
11.2804221746
 21
4.1285479139
  0
LINE
  5
7D3
100
AcDbEntity
  8
0
100
AcDbLine
 62
7
  6
CONTINUOUS
 10
11.3695061226
 20
4.1767656718
 11
11.2832061192
 21
4.126940639
  0
LINE
  5
7D4
100
AcDbEntity
  8
0
100
AcDbLine
 62
3
  6
CONTINUOUS
 10
11.2915578033
 20
4.1221189011
 11
11.33136127
 21
4.1450993061
  0
LINE
  5
7D5
100
AcDbEntity
  8
0
100
AcDbLine
 62
3
  6
CONTINUOUS
 10
11.3427336875
 20
4.1516651352
 11
11.3711647366
 21
4.1680797111
  0
LINE
  5
7D6
100
AcDbEntity
  8
0
100
AcDbLine
 62
3
  6
CONTINUOUS
 10
11.4061905667
 20
4.1347264473
 11
11.4005043526
 21
4.1314435296
  0
LINE
  5
7D7
100
AcDbEntity
  8
0
100
AcDbLine
 62
7
  6
CONTINUOUS
 10
11.4061905667
 20
4.1315118708
 11
11.4005043526
 21
4.1282289532
  0
LINE
  5
7D8
100
AcDbEntity
  8
0
100
AcDbLine
 62
3
  6
CONTINUOUS
 10
10.6526430884
 20
4.5675888469
 11
10.6601852331
 21
4.5698002668
  0
LINE
  5
7D9
100
AcDbEntity
  8
0
100
AcDbLine
 62
7
  6
CONTINUOUS
 10
11.2820010889
 20
4.2119654432
 11
11.2707075868
 21
4.2097312362
  0
LINE
  5
7DA
100
AcDbEntity
  8
0
100
AcDbLine
 62
3
  6
CONTINUOUS
 10
11.2820010889
 20
4.2151800196
 11
11.2707075868
 21
4.2129458126
  0
LINE
  5
7DB
100
AcDbEntity
  8
0
100
AcDbLine
 62
7
  6
CONTINUOUS
 10
11.1954835402
 20
4.1984460808
 11
11.1898368317
 21
4.1973289528
  0
LINE
  5
7DC
100
AcDbEntity
  8
0
100
AcDbLine
 62
3
  6
CONTINUOUS
 10
11.1954835402
 20
4.2016606573
 11
11.1898368317
 21
4.2005435293
  0
LINE
  5
7DD
100
AcDbEntity
  8
0
100
AcDbLine
 62
7
  6
CONTINUOUS
 10
11.2372219074
 20
4.2246865757
 11
11.2259284053
 21
4.2224523688
  0
LINE
  5
7DE
100
AcDbEntity
  8
0
100
AcDbLine
 62
3
  6
CONTINUOUS
 10
11.2372219074
 20
4.2279011522
 11
11.2259284053
 21
4.2256669452
  0
LINE
  5
7DF
100
AcDbEntity
  8
0
100
AcDbLine
 62
3
  6
CONTINUOUS
 10
11.1118087689
 20
4.2412148487
 11
11.1231022298
 21
4.243449081
  0
LINE
  5
7E0
100
AcDbEntity
  8
0
100
AcDbLine
 62
3
  6
CONTINUOUS
 10
10.8258769799
 20
4.3997281342
 11
10.8390263854
 21
4.4008908599
  0
LINE
  5
7E1
100
AcDbEntity
  8
0
100
AcDbLine
 62
3
  6
CONTINUOUS
 10
10.8656804459
 20
4.4227085389
 11
10.8788298507
 21
4.4238712641
  0
LINE
  5
7E2
100
AcDbEntity
  8
0
100
AcDbLine
 62
7
  6
CONTINUOUS
 10
10.6678457895
 20
4.575294515
 11
10.6528404534
 21
4.5752032879
  0
LINE
  5
7E3
100
AcDbEntity
  8
0
100
AcDbLine
 62
3
  6
CONTINUOUS
 10
10.6678457895
 20
4.5785090915
 11
10.6528404534
 21
4.5784178644
  0
LWPOLYLINE
  5
7E4
100
AcDbEntity
  8
02___PRT_ALL_AXES
100
AcDbPolyline
 62
3
  6
CONTINUOUS
 90
8
 70
0
 10
11.6876444626
 20
4.7176454181
 10
11.7236162478
 20
4.7176455046
 10
11.7583622855
 20
4.723020748
 10
11.7895146904
 20
4.7334048344
 10
11.8149504778
 20
4.7480901054
 10
11.8329362408
 20
4.7660757841
 10
11.8422462792
 20
4.7861361763
 10
11.8434099772
 20
4.7965198575
  0
LWPOLYLINE
  5
7E5
100
AcDbEntity
  8
02___PRT_ALL_AXES
100
AcDbPolyline
 62
3
  6
CONTINUOUS
 90
10
 70
0
 10
11.6876444626
 20
4.7176454181
 10
11.6156500654
 20
4.7188546743
 10
11.5447194784
 20
4.7116336956
 10
11.4777834651
 20
4.696280844
 10
11.4176077384
 20
4.6734304801
 10
11.3666786846
 20
4.6440267527
 10
11.3271006287
 20
4.6092845871
 10
11.3005088868
 20
4.5706394864
 10
11.2880021967
 20
4.5296882182
 10
11.2870742261
 20
4.5149147852
  0
LWPOLYLINE
  5
7E6
100
AcDbEntity
  8
02___PRT_ALL_AXES
100
AcDbPolyline
 62
7
  6
CONTINUOUS
 90
9
 70
0
 10
11.7236151103
 20
4.7918153131
 10
11.6084263365
 20
4.7944279583
 10
11.4943417391
 20
4.7848775873
 10
11.3851820325
 20
4.7634840437
 10
11.2846029953
 20
4.7309638013
 10
11.1959730381
 20
4.6884059691
 10
11.1222603945
 20
4.6372358166
 10
11.0659337147
 20
4.5791670417
 10
11.0288793895
 20
4.5161443785
  0
LINE
  5
7E7
100
AcDbEntity
  8
0
100
AcDbLine
 62
3
  6
CONTINUOUS
 10
13.3534860304
 20
4.4746481977
 11
14.4670446527
 21
3.8317493716
  0
LINE
  5
7E8
100
AcDbEntity
  8
0
100
AcDbLine
 62
9
  6
CONTINUOUS
 10
13.0194198346
 20
4.4746473947
 11
13.0194198346
 21
4.3910684071
  0
LINE
  5
7E9
100
AcDbEntity
  8
0
100
AcDbLine
 62
3
  6
CONTINUOUS
 10
11.4097445359
 20
4.1239202365
 11
11.4173261529
 21
4.128297459
  0
LINE
  5
7EA
100
AcDbEntity
  8
0
100
AcDbLine
 62
3
  6
CONTINUOUS
 10
11.4530230617
 20
4.1317628117
 11
11.3639391137
 21
4.0803304774
  0
LINE
  5
7EB
100
AcDbEntity
  8
0
100
AcDbLine
 62
7
  6
CONTINUOUS
 10
11.4530230617
 20
4.1285482353
 11
11.3667230584
 21
4.0787232025
  0
LINE
  5
7EC
100
AcDbEntity
  8
0
100
AcDbLine
 62
3
  6
CONTINUOUS
 10
11.3864471188
 20
4.080467319
 11
11.4641586479
 21
4.1253338235
  0
LINE
  5
7ED
100
AcDbEntity
  8
0
100
AcDbLine
 62
3
  6
CONTINUOUS
 10
11.430752631
 20
4.0417565478
 11
11.4421250499
 21
4.0483223777
  0
LINE
  5
7EE
100
AcDbEntity
  8
0
100
AcDbLine
 62
3
  6
CONTINUOUS
 10
11.5346839707
 20
4.0846169305
 11
11.4854034894
 21
4.0561650012
  0
LINE
  5
7EF
100
AcDbEntity
  8
0
100
AcDbLine
 62
7
  6
CONTINUOUS
 10
11.5346839707
 20
4.0814023541
 11
11.4881874341
 21
4.0545577264
  0
LINE
  5
7F0
100
AcDbEntity
  8
0
100
AcDbLine
 62
3
  6
CONTINUOUS
 10
11.5041601875
 20
4.0562790189
 11
11.5344866396
 21
4.0737878997
  0
LINE
  5
7F1
100
AcDbEntity
  8
0
100
AcDbLine
 62
3
  6
CONTINUOUS
 10
11.5334603909
 20
4.0174770034
 11
11.5296695851
 21
4.0152883936
  0
LINE
  5
7F2
100
AcDbEntity
  8
0
100
AcDbLine
 62
7
  6
CONTINUOUS
 10
11.5334603909
 20
4.0142624269
 11
11.5296695851
 21
4.0120738172
  0
LINE
  5
7F3
100
AcDbEntity
  8
0
100
AcDbLine
 62
3
  6
CONTINUOUS
 10
11.588308668
 20
4.0427144401
 11
11.5977856826
 21
4.0481859644
  0
LINE
  5
7F4
100
AcDbEntity
  8
0
100
AcDbLine
 62
3
  6
CONTINUOUS
 10
11.5370537807
 20
4.0088366313
 11
11.5446353924
 21
4.0132138507
  0
LINE
  5
7F5
100
AcDbEntity
  8
0
100
AcDbLine
 62
3
  6
CONTINUOUS
 10
11.5367380326
 20
3.991510191
 11
11.5272610167
 21
3.9860386659
  0
LINE
  5
7F6
100
AcDbEntity
  8
0
100
AcDbLine
 62
7
  6
CONTINUOUS
 10
11.5367380326
 20
3.9882956145
 11
11.5300449613
 21
3.9844313911
  0
LINE
  5
7F7
100
AcDbEntity
  8
0
100
AcDbLine
 62
3
  6
CONTINUOUS
 10
11.2592167483
 20
4.1998825717
 11
11.2724451111
 21
4.2053768946
  0
LINE
  5
7F8
100
AcDbEntity
  8
0
100
AcDbLine
 62
3
  6
CONTINUOUS
 10
11.2942031632
 20
4.1643634723
 11
11.2809747978
 21
4.1588691478
  0
LINE
  5
7F9
100
AcDbEntity
  8
0
100
AcDbLine
 62
7
  6
CONTINUOUS
 10
11.2942031632
 20
4.1611488958
 11
11.2809747978
 21
4.1556545714
  0
LINE
  5
7FA
100
AcDbEntity
  8
0
100
AcDbLine
 62
3
  6
CONTINUOUS
 10
11.26316547
 20
4.2107343767
 11
11.2518325102
 21
4.2063343586
  0
LINE
  5
7FB
100
AcDbEntity
  8
0
100
AcDbLine
 62
7
  6
CONTINUOUS
 10
11.26316547
 20
4.2075198002
 11
11.2518325102
 21
4.2031197822
  0
LINE
  5
7FC
100
AcDbEntity
  8
0
100
AcDbLine
 62
3
  6
CONTINUOUS
 10
11.1168231983
 20
4.3105433618
 11
11.1073856839
 21
4.3072376241
  0
LINE
  5
7FD
100
AcDbEntity
  8
0
100
AcDbLine
 62
7
  6
CONTINUOUS
 10
11.1168231983
 20
4.3073287854
 11
11.1073856839
 21
4.3040230476
  0
LINE
  5
7FE
100
AcDbEntity
  8
0
100
AcDbLine
 62
3
  6
CONTINUOUS
 10
11.1966282471
 20
4.2644689378
 11
11.1871906902
 21
4.2611632246
  0
LINE
  5
7FF
100
AcDbEntity
  8
0
100
AcDbLine
 62
7
  6
CONTINUOUS
 10
11.1966282471
 20
4.2612543613
 11
11.1906561322
 21
4.2591624959
  0
LINE
  5
800
100
AcDbEntity
  8
0
100
AcDbLine
 62
3
  6
CONTINUOUS
 10
10.8771318002
 20
4.4336059779
 11
10.8695896674
 21
4.4313945573
  0
LINE
  5
801
100
AcDbEntity
  8
0
100
AcDbLine
 62
7
  6
CONTINUOUS
 10
10.8771318002
 20
4.4303914014
 11
10.8695896674
 21
4.4281799808
  0
LINE
  5
802
100
AcDbEntity
  8
0
100
AcDbLine
 62
3
  6
CONTINUOUS
 10
10.8788298507
 20
4.4238712641
 11
10.8863719835
 21
4.4260826848
  0
LINE
  5
803
100
AcDbEntity
  8
0
100
AcDbLine
 62
3
  6
CONTINUOUS
 10
10.8373283361
 20
4.4106255744
 11
10.8297862034
 21
4.4084141538
  0
LINE
  5
804
100
AcDbEntity
  8
0
100
AcDbLine
 62
7
  6
CONTINUOUS
 10
10.8373283361
 20
4.4074109979
 11
10.8297862034
 21
4.4051995773
  0
LINE
  5
805
100
AcDbEntity
  8
0
100
AcDbLine
 62
3
  6
CONTINUOUS
 10
10.8390263854
 20
4.4008908599
 11
10.8465685194
 21
4.4031022813
  0
LINE
  5
806
100
AcDbEntity
  8
0
100
AcDbLine
 62
3
  6
CONTINUOUS
 10
10.8913082167
 20
4.3882153468
 11
10.9591874829
 21
4.4081181001
  0
LINE
  5
807
100
AcDbEntity
  8
0
100
AcDbLine
 62
3
  6
CONTINUOUS
 10
10.8517021262
 20
4.3760639496
 11
10.881870681
 21
4.3849096213
  0
LINE
  5
808
100
AcDbEntity
  8
0
100
AcDbLine
 62
3
  6
CONTINUOUS
 10
10.9593453775
 20
4.4167813076
 11
10.84056654
 21
4.3824929379
  0
LINE
  5
809
100
AcDbEntity
  8
0
100
AcDbLine
 62
7
  6
CONTINUOUS
 10
10.9593453775
 20
4.4135667312
 11
10.8442784737
 21
4.3803499004
  0
LINE
  5
80A
100
AcDbEntity
  8
0
100
AcDbLine
 62
7
  6
CONTINUOUS
 10
11.091116467
 20
4.3374903783
 11
10.9836705694
 21
4.3076020396
  0
LINE
  5
80B
100
AcDbEntity
  8
0
100
AcDbLine
 62
3
  6
CONTINUOUS
 10
11.091116467
 20
4.3407049547
 11
10.9836705694
 21
4.3108166161
  0
LINE
  5
80C
100
AcDbEntity
  8
0
100
AcDbLine
 62
3
  6
CONTINUOUS
 10
10.9816172917
 20
4.3010590907
 11
11.0777302309
 21
4.326547412
  0
LINE
  5
80D
100
AcDbEntity
  8
0
100
AcDbLine
 62
7
  6
CONTINUOUS
 10
10.6498792996
 20
4.5156323013
 11
10.6404812323
 21
4.5144923808
  0
LINE
  5
80E
100
AcDbEntity
  8
0
100
AcDbLine
 62
3
  6
CONTINUOUS
 10
10.6498792996
 20
4.5188468778
 11
10.6404812323
 21
4.5177069572
  0
LWPOLYLINE
  5
80F
100
AcDbEntity
  8
02___PRT_ALL_AXES
100
AcDbPolyline
 62
3
  6
CONTINUOUS
 90
11
 70
0
 10
11.7236151103
 20
4.8753943007
 10
11.6084263365
 20
4.8780069459
 10
11.4943417391
 20
4.8684565749
 10
11.3851820325
 20
4.8470630313
 10
11.2846029953
 20
4.8145427889
 10
11.1959730381
 20
4.7719849566
 10
11.1222603945
 20
4.7208148041
 10
11.0659337147
 20
4.6627460293
 10
11.0288793895
 20
4.5997233661
 10
11.0123383751
 20
4.5338574552
 10
11.0114818697
 20
4.5149230604
  0
LWPOLYLINE
  5
810
100
AcDbEntity
  8
02___PRT_ALL_AXES
100
AcDbPolyline
 62
3
  6
CONTINUOUS
 90
14
 70
0
 10
12.7549458369
 20
5.1577296055
 10
12.8415815965
 20
5.116195153
 10
12.9399613068
 20
5.0845587721
 10
13.0467347649
 20
5.0638978019
 10
13.1582659287
 20
5.0549158269
 10
13.2707567382
 20
5.0579187174
 10
13.3803764538
 20
5.0728042137
 10
13.4833921075
 20
5.099065408
 10
13.5762956248
 20
5.1358080069
 10
13.6559232878
 20
5.1817807852
 10
13.7195634721
 20
5.235418195
 10
13.7650489874
 20
5.2948936788
 10
13.7908308791
 20
5.3581818703
 10
13.7966730769
 20
5.4068897897
  0
LINE
  5
811
100
AcDbEntity
  8
0
100
AcDbLine
 62
9
  6
CONTINUOUS
 10
13.3534860304
 20
4.4746481977
 11
13.3534860304
 21
4.3910692101
  0
LINE
  5
812
100
AcDbEntity
  8
0
100
AcDbLine
 62
3
  6
CONTINUOUS
 10
11.6511734636
 20
3.9932887056
 11
11.6473826525
 21
3.9911000928
  0
LINE
  5
813
100
AcDbEntity
  8
0
100
AcDbLine
 62
7
  6
CONTINUOUS
 10
11.6511734636
 20
3.9900741291
 11
11.6473826525
 21
3.9878855163
  0
LINE
  5
814
100
AcDbEntity
  8
0
100
AcDbLine
 62
3
  6
CONTINUOUS
 10
11.594074534
 20
3.9474647364
 11
11.6035515499
 21
3.9529362614
  0
LINE
  5
815
100
AcDbEntity
  8
0
100
AcDbLine
 62
3
  6
CONTINUOUS
 10
11.6585182387
 20
3.9846711045
 11
11.6623090498
 21
3.9868597173
  0
LINE
  5
816
100
AcDbEntity
  8
0
100
AcDbLine
 62
3
  6
CONTINUOUS
 10
11.6980059586
 20
3.99032507
 11
11.6089220106
 21
3.9388927357
  0
LINE
  5
817
100
AcDbEntity
  8
0
100
AcDbLine
 62
7
  6
CONTINUOUS
 10
11.6980059586
 20
3.9871104936
 11
11.6117059553
 21
3.9372854608
  0
LINE
  5
818
100
AcDbEntity
  8
0
100
AcDbLine
 62
3
  6
CONTINUOUS
 10
11.6200575968
 20
3.9324637474
 11
11.6598610635
 21
3.9554441524
  0
LINE
  5
819
100
AcDbEntity
  8
0
100
AcDbLine
 62
3
  6
CONTINUOUS
 10
11.6712334811
 20
3.9620099816
 11
11.6996645302
 21
3.9784245575
  0
LINE
  5
81A
100
AcDbEntity
  8
0
100
AcDbLine
 62
3
  6
CONTINUOUS
 10
11.7346903603
 20
3.9450712936
 11
11.7290041462
 21
3.941788376
  0
LINE
  5
81B
100
AcDbEntity
  8
0
100
AcDbLine
 62
7
  6
CONTINUOUS
 10
11.7346903603
 20
3.9418567172
 11
11.7290041462
 21
3.9385737995
  0
LINE
  5
81C
100
AcDbEntity
  8
0
100
AcDbLine
 62
3
  6
CONTINUOUS
 10
11.7382443295
 20
3.9342650829
 11
11.7458259465
 21
3.9386423053
  0
LINE
  5
81D
100
AcDbEntity
  8
0
100
AcDbLine
 62
3
  6
CONTINUOUS
 10
11.2902544388
 20
4.1535116658
 11
11.3015874013
 21
4.1579116854
  0
LINE
  5
81E
100
AcDbEntity
  8
0
100
AcDbLine
 62
3
  6
CONTINUOUS
 10
11.2370639915
 20
4.2192379569
 11
11.2465015484
 21
4.2225436701
  0
LINE
  5
81F
100
AcDbEntity
  8
0
100
AcDbLine
 62
3
  6
CONTINUOUS
 10
11.1166258619
 20
4.2997143279
 11
11.1241679787
 21
4.3019257638
  0
LINE
  5
820
100
AcDbEntity
  8
0
100
AcDbLine
 62
3
  6
CONTINUOUS
 10
11.1972210685
 20
4.1940917416
 11
11.2047632238
 21
4.1963031507
  0
LINE
  5
821
100
AcDbEntity
  8
0
100
AcDbLine
 62
3
  6
CONTINUOUS
 10
11.2707075868
 20
4.2129458126
 11
11.26316547
 21
4.2107343767
  0
LINE
  5
822
100
AcDbEntity
  8
0
100
AcDbLine
 62
7
  6
CONTINUOUS
 10
11.2707075868
 20
4.2097312362
 11
11.26316547
 21
4.2075198002
  0
LINE
  5
823
100
AcDbEntity
  8
0
100
AcDbLine
 62
3
  6
CONTINUOUS
 10
11.2827123273
 20
4.1513002329
 11
11.2902544388
 21
4.1535116658
  0
LINE
  5
824
100
AcDbEntity
  8
0
100
AcDbLine
 62
7
  6
CONTINUOUS
 10
10.8145827566
 20
4.4971435786
 11
10.707136859
 21
4.4672552399
  0
LINE
  5
825
100
AcDbEntity
  8
0
100
AcDbLine
 62
3
  6
CONTINUOUS
 10
10.8145827566
 20
4.500358155
 11
10.707136859
 21
4.4704698163
  0
LINE
  5
826
100
AcDbEntity
  8
0
100
AcDbLine
 62
3
  6
CONTINUOUS
 10
10.7050835707
 20
4.4607122971
 11
10.8011965205
 21
4.4862006123
  0
LINE
  5
827
100
AcDbEntity
  8
0
100
AcDbLine
 62
3
  6
CONTINUOUS
 10
10.6478260114
 20
4.5090893585
 11
10.6591194829
 21
4.5113235847
  0
LINE
  5
828
100
AcDbEntity
  8
02___PRT_ALL_AXES
100
AcDbLine
 62
9
  6
CONTINUOUS
 10
13.6179465831
 20
5.6559803445
 11
13.6179465831
 21
5.5724013569
  0
LINE
  5
829
100
AcDbEntity
  8
0
100
AcDbLine
 62
3
  6
CONTINUOUS
 10
11.9058704846
 20
3.8317432153
 11
13.0194198346
 21
4.4746473947
  0
LINE
  5
82A
100
AcDbEntity
  8
0
100
AcDbLine
 62
7
  6
CONTINUOUS
 10
11.9058704846
 20
3.7481642278
 11
13.0194198346
 21
4.3910684071
  0
LWPOLYLINE
  5
82B
100
AcDbEntity
  8
0
100
AcDbPolyline
 62
3
  6
CONTINUOUS
 90
8
 70
0
 10
13.0194198346
 20
4.4746473947
 10
13.0607759267
 20
4.4936885181
 10
13.1084340236
 20
4.5069391953
 10
13.1600043492
 20
4.513734982
 10
13.212900952
 20
4.5137351092
 10
13.2644713757
 20
4.5069395703
 10
13.3121296636
 20
4.4936891222
 10
13.3534860304
 20
4.4746481977
  0
LINE
  5
82C
100
AcDbEntity
  8
0
100
AcDbLine
 62
3
  6
CONTINUOUS
 10
11.6067890346
 20
4.0276678538
 11
11.5973514352
 21
4.0243621652
  0
LINE
  5
82D
100
AcDbEntity
  8
0
100
AcDbLine
 62
7
  6
CONTINUOUS
 10
11.6067890346
 20
4.0244532774
 11
11.6008168929
 21
4.0223614275
  0
LINE
  5
82E
100
AcDbEntity
  8
0
100
AcDbLine
 62
3
  6
CONTINUOUS
 10
11.6490807243
 20
3.9813653668
 11
11.6585182387
 21
3.9846711045
  0
LINE
  5
82F
100
AcDbEntity
  8
0
100
AcDbLine
 62
3
  6
CONTINUOUS
 10
11.4005043526
 20
4.1314435296
 11
11.3929622411
 21
4.1292320968
  0
LINE
  5
830
100
AcDbEntity
  8
0
100
AcDbLine
 62
7
  6
CONTINUOUS
 10
11.4005043526
 20
4.1282289532
 11
11.3929622411
 21
4.1260175203
  0
LINE
  5
831
100
AcDbEntity
  8
0
100
AcDbLine
 62
3
  6
CONTINUOUS
 10
11.4022024244
 20
4.1217088037
 11
11.4097445359
 21
4.1239202365
  0
LINE
  5
832
100
AcDbEntity
  8
0
100
AcDbLine
 62
3
  6
CONTINUOUS
 10
11.5296695851
 20
4.0152883936
 11
11.5221273886
 21
4.0130770098
  0
LINE
  5
833
100
AcDbEntity
  8
0
100
AcDbLine
 62
7
  6
CONTINUOUS
 10
11.5296695851
 20
4.0120738172
 11
11.5221273886
 21
4.0098624334
  0
LWPOLYLINE
  5
834
100
AcDbEntity
  8
02___PRT_ALL_AXES
100
AcDbPolyline
 62
3
  6
CONTINUOUS
 90
6
 70
0
 10
13.7966730769
 20
5.4068897897
 10
13.7960311757
 20
5.423127566
 10
13.7804727875
 20
5.4875191181
 10
13.7446855366
 20
5.5491637495
 10
13.689888115
 20
5.6059622263
 10
13.6179465831
 20
5.6559803445
  0
LWPOLYLINE
  5
835
100
AcDbEntity
  8
0
100
AcDbPolyline
 62
7
  6
CONTINUOUS
 90
8
 70
0
 10
11.9058704846
 20
3.7481642278
 10
11.8645143925
 20
3.7291231044
 10
11.8168562956
 20
3.7158724272
 10
11.76528597
 20
3.7090766404
 10
11.7123893671
 20
3.7090765133
 10
11.6608189435
 20
3.7158720521
 10
11.6131606555
 20
3.7291225002
 10
11.5718042888
 20
3.7481634248
  0
LINE
  5
836
100
AcDbEntity
  8
0
100
AcDbLine
 62
3
  6
CONTINUOUS
 10
11.7290041462
 20
3.941788376
 11
11.7214620347
 21
3.9395769431
  0
LINE
  5
837
100
AcDbEntity
  8
0
100
AcDbLine
 62
7
  6
CONTINUOUS
 10
11.7290041462
 20
3.9385737995
 11
11.7214620347
 21
3.9363623667
  0
LINE
  5
838
100
AcDbEntity
  8
0
100
AcDbLine
 62
3
  6
CONTINUOUS
 10
11.730702218
 20
3.93205365
 11
11.7382443295
 21
3.9342650829
  0
LWPOLYLINE
  5
839
100
AcDbEntity
  8
02___PRT_ALL_AXES
100
AcDbPolyline
 62
7
  6
CONTINUOUS
 90
14
 70
0
 10
13.6179465831
 20
5.5724013569
 10
13.5313108236
 20
5.6139358095
 10
13.4329311132
 20
5.6455721903
 10
13.3261576551
 20
5.6662331606
 10
13.2146264913
 20
5.6752151356
 10
13.1021356819
 20
5.6722122451
 10
12.9925159663
 20
5.6573267488
 10
12.8895003126
 20
5.6310655545
 10
12.7965967953
 20
5.5943229556
 10
12.7169691322
 20
5.5483501773
 10
12.653328948
 20
5.4947127675
 10
12.6078434327
 20
5.4352372837
 10
12.582061541
 20
5.3719490922
 10
12.5818299602
 20
5.3700183434
  0
LWPOLYLINE
  5
83A
100
AcDbEntity
  8
02___PRT_ALL_AXES
100
AcDbPolyline
 62
3
  6
CONTINUOUS
 90
14
 70
0
 10
13.6179465831
 20
5.6559803445
 10
13.5313108236
 20
5.697514797
 10
13.4329311132
 20
5.7291511779
 10
13.3261576551
 20
5.7498121482
 10
13.2146264913
 20
5.7587941232
 10
13.1021356819
 20
5.7557912327
 10
12.9925159663
 20
5.7409057364
 10
12.8895003126
 20
5.7146445421
 10
12.7965967953
 20
5.6779019432
 10
12.7169691322
 20
5.6319291649
 10
12.653328948
 20
5.578291755
 10
12.6078434327
 20
5.5188162712
 10
12.582061541
 20
5.4555280798
 10
12.5762193432
 20
5.4068201604
  0
LWPOLYLINE
  5
83B
100
AcDbEntity
  8
02___PRT_ALL_AXES
100
AcDbPolyline
 62
7
  6
CONTINUOUS
 90
5
 70
0
 10
13.7910624598
 20
5.3601126191
 10
13.7804727875
 20
5.4039401305
 10
13.7446855366
 20
5.4655847619
 10
13.689888115
 20
5.5223832388
 10
13.6179465831
 20
5.5724013569
  0
LWPOLYLINE
  5
83C
100
AcDbEntity
  8
0
100
AcDbPolyline
 62
3
  6
CONTINUOUS
 90
8
 70
0
 10
13.3534739764
 20
6.1461921046
 10
13.3121176096
 20
6.1652330292
 10
13.2644593216
 20
6.1784834773
 10
13.212888898
 20
6.1852790161
 10
13.1599922951
 20
6.1852788889
 10
13.1084219695
 20
6.1784831022
 10
13.0607638727
 20
6.165232425
 10
13.0194077805
 20
6.1461913016
  0
LINE
  5
83D
100
AcDbEntity
  8
0
100
AcDbLine
 62
3
  6
CONTINUOUS
 10
15.9146588076
 20
4.6675248048
 11
13.3534739764
 21
6.1461921046
  0
LINE
  5
83E
100
AcDbEntity
  8
0
100
AcDbLine
 62
9
  6
CONTINUOUS
 10
14.4670446527
 20
3.7481703841
 11
14.4670446527
 21
3.8317493716
  0
LINE
  5
83F
100
AcDbEntity
  8
0
100
AcDbLine
 62
9
  6
CONTINUOUS
 10
14.8011108485
 20
3.7481711871
 11
14.8011108485
 21
3.8317501746
  0
LINE
  5
840
100
AcDbEntity
  8
0
100
AcDbLine
 62
3
  6
CONTINUOUS
 10
14.8011108485
 20
3.8317501746
 11
15.9146601984
 21
4.474654354
  0
LINE
  5
841
100
AcDbEntity
  8
0
100
AcDbLine
 62
7
  6
CONTINUOUS
 10
14.8011108485
 20
3.7481711871
 11
15.9146601984
 21
4.3910753664
  0
LWPOLYLINE
  5
842
100
AcDbEntity
  8
0
100
AcDbPolyline
 62
7
  6
CONTINUOUS
 90
8
 70
0
 10
14.8011108485
 20
3.7481711871
 10
14.7597547564
 20
3.7291300637
 10
14.7120966595
 20
3.7158793865
 10
14.6605263339
 20
3.7090835997
 10
14.607629731
 20
3.7090834726
 10
14.5560593074
 20
3.7158790114
 10
14.5084010194
 20
3.7291294595
 10
14.4670446527
 20
3.7481703841
  0
LWPOLYLINE
  5
843
100
AcDbEntity
  8
0
100
AcDbPolyline
 62
3
  6
CONTINUOUS
 90
5
 70
0
 10
15.9146601984
 20
4.474654354
 10
15.9476405187
 20
4.4985311221
 10
15.9705912961
 20
4.5260462541
 10
15.9823616829
 20
4.5558200264
 10
15.983832898
 20
4.5710891755
  0
LWPOLYLINE
  5
844
100
AcDbEntity
  8
0
100
AcDbPolyline
 62
3
  6
CONTINUOUS
 90
5
 70
0
 10
15.983832898
 20
4.5710891755
 10
15.9823614627
 20
4.5863594578
 10
15.9705906465
 20
4.6161331735
 10
15.9476394722
 20
4.6436481952
 10
15.9146588076
 20
4.6675248048
  0
LINE
  5
845
100
AcDbEntity
  8
0
100
AcDbLine
 62
9
  6
CONTINUOUS
 10
15.9146601984
 20
4.3910753664
 11
15.9146601984
 21
4.474654354
  0
LINE
  5
846
100
AcDbEntity
  8
0
100
AcDbLine
 62
7
  6
CONTINUOUS
 10
15.9838468775
 20
4.4875101903
 11
15.9838468775
 21
4.5710891779
  0
LWPOLYLINE
  5
847
100
AcDbEntity
  8
0
100
AcDbPolyline
 62
7
  6
CONTINUOUS
 90
5
 70
0
 10
15.983832898
 20
4.4875101879
 10
15.9823616829
 20
4.4722410389
 10
15.9705912961
 20
4.4424672666
 10
15.9476405187
 20
4.4149521345
 10
15.9146601984
 20
4.3910753664
  0
LINE
  5
848
100
AcDbEntity
  8
0
100
AcDbLine
 62
3
  6
CONTINUOUS
 10
5.1871063086
 20
4.0429080177
 11
5.2002296678
 21
4.03486647
  0
LINE
  5
849
100
AcDbEntity
  8
0
100
AcDbLine
 62
3
  6
CONTINUOUS
 10
5.2107283568
 20
4.1072404006
 11
5.2028543391
 21
4.112601432
  0
LINE
  5
84A
100
AcDbEntity
  8
0
100
AcDbLine
 62
3
  6
CONTINUOUS
 10
5.2448490929
 20
4.0857962752
 11
5.2527231087
 21
4.0804352438
  0
LINE
  5
84B
100
AcDbEntity
  8
0
100
AcDbLine
 62
3
  6
CONTINUOUS
 10
5.2028543391
 20
4.0509495657
 11
5.1949803234
 21
4.0589911146
  0
LINE
  5
84C
100
AcDbEntity
  8
0
100
AcDbLine
 62
3
  6
CONTINUOUS
 10
5.1871063086
 20
4.1072404006
 11
5.1976049966
 21
4.0965183379
  0
LINE
  5
84D
100
AcDbEntity
  8
0
100
AcDbLine
 62
3
  6
CONTINUOUS
 10
5.2684711402
 20
4.0857962752
 11
5.2579724475
 21
4.0965183379
  0
LINE
  5
84E
100
AcDbEntity
  8
0
100
AcDbLine
 62
3
  6
CONTINUOUS
 10
5.242224416
 20
4.1394065963
 11
5.2474737623
 21
4.1340455649
  0
LINE
  5
84F
100
AcDbEntity
  8
0
100
AcDbLine
 62
3
  6
CONTINUOUS
 10
5.1792322926
 20
4.0563105989
 11
5.1871063086
 21
4.0429080177
  0
LINE
  5
850
100
AcDbEntity
  8
0
100
AcDbLine
 62
3
  6
CONTINUOUS
 10
5.2186023725
 20
4.1045598849
 11
5.2107283568
 21
4.1072404006
  0
LINE
  5
851
100
AcDbEntity
  8
0
100
AcDbLine
 62
3
  6
CONTINUOUS
 10
5.1976049966
 20
4.0965183379
 11
5.2081036836
 21
4.0911573065
  0
LINE
  5
852
100
AcDbEntity
  8
0
100
AcDbLine
 62
3
  6
CONTINUOUS
 10
5.2579724475
 20
4.0965183379
 11
5.2474737623
 21
4.1018793693
  0
LINE
  5
853
100
AcDbEntity
  8
0
100
AcDbLine
 62
3
  6
CONTINUOUS
 10
5.5283136674
 20
4.0938378222
 11
5.5230643135
 21
4.0965183379
  0
LINE
  5
854
100
AcDbEntity
  8
0
100
AcDbLine
 62
3
  6
CONTINUOUS
 10
5.2553477781
 20
4.1474481433
 11
5.2448490929
 21
4.1554896904
  0
LINE
  5
855
100
AcDbEntity
  8
0
100
AcDbLine
 62
3
  6
CONTINUOUS
 10
5.5283136674
 20
4.1474481433
 11
5.5178149597
 21
4.1554896904
  0
LINE
  5
856
100
AcDbEntity
  8
0
100
AcDbLine
 62
3
  6
CONTINUOUS
 10
5.5151902978
 20
4.0857962752
 11
5.5204396516
 21
4.0804352438
  0
LINE
  5
857
100
AcDbEntity
  8
0
100
AcDbLine
 62
3
  6
CONTINUOUS
 10
5.5151902978
 20
4.1394065963
 11
5.5204396516
 21
4.1340455649
  0
LINE
  5
858
100
AcDbEntity
  8
0
100
AcDbLine
 62
3
  6
CONTINUOUS
 10
5.2632217938
 20
4.1367260806
 11
5.2553477781
 21
4.1474481433
  0
LINE
  5
859
100
AcDbEntity
  8
0
100
AcDbLine
 62
3
  6
CONTINUOUS
 10
5.2527231087
 20
4.0804352438
 11
5.2579724475
 21
4.072393693
  0
LINE
  5
85A
100
AcDbEntity
  8
0
100
AcDbLine
 62
3
  6
CONTINUOUS
 10
5.273720479
 20
4.0750742087
 11
5.2684711402
 21
4.0857962752
  0
LINE
  5
85B
100
AcDbEntity
  8
0
100
AcDbLine
 62
3
  6
CONTINUOUS
 10
5.2474737623
 20
4.1340455649
 11
5.2500984317
 21
4.1286845336
  0
LINE
  5
85C
100
AcDbEntity
  8
0
100
AcDbLine
 62
3
  6
CONTINUOUS
 10
5.2002296678
 20
4.03486647
 11
5.2133530262
 21
4.0321859541
  0
LINE
  5
85D
100
AcDbEntity
  8
0
100
AcDbLine
 62
3
  6
CONTINUOUS
 10
5.2474737623
 20
4.1018793693
 11
5.234350404
 21
4.1045598849
  0
LINE
  5
85E
100
AcDbEntity
  8
0
100
AcDbLine
 62
3
  6
CONTINUOUS
 10
5.2133530262
 20
4.04826905
 11
5.2028543391
 21
4.0509495657
  0
LINE
  5
85F
100
AcDbEntity
  8
0
100
AcDbLine
 62
3
  6
CONTINUOUS
 10
5.2081036836
 20
4.0911573065
 11
5.2186023725
 21
4.0884767909
  0
LINE
  5
860
100
AcDbEntity
  8
0
100
AcDbLine
 62
3
  6
CONTINUOUS
 10
5.234350404
 20
4.0884767909
 11
5.2448490929
 21
4.0857962752
  0
LINE
  5
861
100
AcDbEntity
  8
0
100
AcDbLine
 62
3
  6
CONTINUOUS
 10
5.234350404
 20
4.142087112
 11
5.242224416
 21
4.1394065963
  0
LINE
  5
862
100
AcDbEntity
  8
0
100
AcDbLine
 62
3
  6
CONTINUOUS
 10
5.507316282
 20
4.0884767909
 11
5.5151902978
 21
4.0857962752
  0
LINE
  5
863
100
AcDbEntity
  8
0
100
AcDbLine
 62
3
  6
CONTINUOUS
 10
5.507316282
 20
4.142087112
 11
5.5151902978
 21
4.1394065963
  0
LINE
  5
864
100
AcDbEntity
  8
0
100
AcDbLine
 62
3
  6
CONTINUOUS
 10
5.8537729749
 20
4.0965183379
 11
5.8642716826
 21
4.0911573065
  0
LINE
  5
865
100
AcDbEntity
  8
0
100
AcDbLine
 62
3
  6
CONTINUOUS
 10
5.9666338873
 20
4.0402275021
 11
5.977132535
 21
4.03486647
  0
LINE
  5
866
100
AcDbEntity
  8
0
100
AcDbLine
 62
3
  6
CONTINUOUS
 10
5.977132535
 20
4.04826905
 11
5.9718832112
 21
4.0509495657
  0
LINE
  5
867
100
AcDbEntity
  8
0
100
AcDbLine
 62
3
  6
CONTINUOUS
 10
5.914140409
 20
4.0965183379
 11
5.9036417614
 21
4.1018793693
  0
LINE
  5
868
100
AcDbEntity
  8
0
100
AcDbLine
 62
3
  6
CONTINUOUS
 10
5.8432742672
 20
4.0429080177
 11
5.8563976669
 21
4.03486647
  0
LINE
  5
869
100
AcDbEntity
  8
0
100
AcDbLine
 62
3
  6
CONTINUOUS
 10
5.8668963145
 20
4.1072404006
 11
5.8590222987
 21
4.112601432
  0
LINE
  5
86A
100
AcDbEntity
  8
0
100
AcDbLine
 62
3
  6
CONTINUOUS
 10
5.9587598716
 20
4.0455885344
 11
5.9666338873
 21
4.0402275021
  0
LINE
  5
86B
100
AcDbEntity
  8
0
100
AcDbLine
 62
3
  6
CONTINUOUS
 10
5.9010170694
 20
4.0857962752
 11
5.9088910852
 21
4.0804352438
  0
LINE
  5
86C
100
AcDbEntity
  8
0
100
AcDbLine
 62
3
  6
CONTINUOUS
 10
5.8590222987
 20
4.0509495657
 11
5.851148283
 21
4.0589911146
  0
LINE
  5
86D
100
AcDbEntity
  8
0
100
AcDbLine
 62
3
  6
CONTINUOUS
 10
5.5361876831
 20
4.0831157595
 11
5.5283136674
 21
4.0938378222
  0
LINE
  5
86E
100
AcDbEntity
  8
0
100
AcDbLine
 62
3
  6
CONTINUOUS
 10
5.5361876831
 20
4.1367260806
 11
5.5283136674
 21
4.1474481433
  0
LINE
  5
86F
100
AcDbEntity
  8
0
100
AcDbLine
 62
3
  6
CONTINUOUS
 10
5.3104658883
 20
4.1313650492
 11
5.3472112901
 21
4.0321859541
  0
LINE
  5
870
100
AcDbEntity
  8
0
100
AcDbLine
 62
3
  6
CONTINUOUS
 10
5.3577099828
 20
4.0455885344
 11
5.3183399041
 21
4.158170206
  0
LINE
  5
871
100
AcDbEntity
  8
0
100
AcDbLine
 62
3
  6
CONTINUOUS
 10
5.1949803234
 20
4.0589911146
 11
5.1923556521
 21
4.0670326617
  0
LINE
  5
872
100
AcDbEntity
  8
0
100
AcDbLine
 62
3
  6
CONTINUOUS
 10
5.2028543391
 20
4.112601432
 11
5.2002296678
 21
4.120642979
  0
LINE
  5
873
100
AcDbEntity
  8
0
100
AcDbLine
 62
3
  6
CONTINUOUS
 10
5.2658464632
 20
4.1286845336
 11
5.2632217938
 21
4.1367260806
  0
LINE
  5
874
100
AcDbEntity
  8
0
100
AcDbLine
 62
3
  6
CONTINUOUS
 10
5.1766076206
 20
4.0670326617
 11
5.1792322926
 21
4.0563105989
  0
LINE
  5
875
100
AcDbEntity
  8
0
100
AcDbLine
 62
3
  6
CONTINUOUS
 10
5.1844816363
 20
4.1179624633
 11
5.1871063086
 21
4.1072404006
  0
LINE
  5
876
100
AcDbEntity
  8
0
100
AcDbLine
 62
3
  6
CONTINUOUS
 10
4.9403871482
 20
7.7329733556
 11
4.9403871482
 21
4.1109261116
  0
LINE
  5
877
100
AcDbEntity
  8
0
100
AcDbLine
 62
3
  6
CONTINUOUS
 10
5.1766076206
 20
3.8747056391
 11
6.7514107702
 21
3.8747056391
  0
LINE
  5
878
100
AcDbEntity
  8
0
100
AcDbLine
 62
3
  6
CONTINUOUS
 10
6.0978674631
 20
4.03486647
 11
6.1136154946
 21
4.0321859541
  0
LINE
  5
879
100
AcDbEntity
  8
0
100
AcDbLine
 62
3
  6
CONTINUOUS
 10
6.0033792741
 20
4.0911573065
 11
6.0191273056
 21
4.0884767909
  0
LINE
  5
87A
100
AcDbEntity
  8
0
100
AcDbLine
 62
3
  6
CONTINUOUS
 10
5.2448490929
 20
4.1554896904
 11
5.2317257308
 21
4.158170206
  0
LINE
  5
87B
100
AcDbEntity
  8
0
100
AcDbLine
 62
3
  6
CONTINUOUS
 10
5.8563976669
 20
4.03486647
 11
5.8695210064
 21
4.0321859541
  0
LINE
  5
87C
100
AcDbEntity
  8
0
100
AcDbLine
 62
3
  6
CONTINUOUS
 10
5.9902559346
 20
4.0455885344
 11
5.977132535
 21
4.04826905
  0
LINE
  5
87D
100
AcDbEntity
  8
0
100
AcDbLine
 62
3
  6
CONTINUOUS
 10
5.5178149597
 20
4.1554896904
 11
5.5046916201
 21
4.158170206
  0
LINE
  5
87E
100
AcDbEntity
  8
0
100
AcDbLine
 62
3
  6
CONTINUOUS
 10
6.1136154946
 20
4.0455885344
 11
6.1004921551
 21
4.04826905
  0
LINE
  5
87F
100
AcDbEntity
  8
0
100
AcDbLine
 62
3
  6
CONTINUOUS
 10
5.9036417614
 20
4.1018793693
 11
5.8905183617
 21
4.1045598849
  0
LINE
  5
880
100
AcDbEntity
  8
0
100
AcDbLine
 62
3
  6
CONTINUOUS
 10
6.4416995242
 20
4.03486647
 11
6.4548228036
 21
4.0321859541
  0
LINE
  5
881
100
AcDbEntity
  8
0
100
AcDbLine
 62
3
  6
CONTINUOUS
 10
5.9010170694
 20
4.1554896904
 11
5.8878937299
 21
4.158170206
  0
LINE
  5
882
100
AcDbEntity
  8
0
100
AcDbLine
 62
3
  6
CONTINUOUS
 10
6.0033792741
 20
4.1447676276
 11
6.0165026137
 21
4.142087112
  0
LINE
  5
883
100
AcDbEntity
  8
0
100
AcDbLine
 62
3
  6
CONTINUOUS
 10
6.1136154946
 20
4.1447676276
 11
6.1267388342
 21
4.142087112
  0
LINE
  5
884
100
AcDbEntity
  8
0
100
AcDbLine
 62
3
  6
CONTINUOUS
 10
5.8695210064
 20
4.04826905
 11
5.8590222987
 21
4.0509495657
  0
LINE
  5
885
100
AcDbEntity
  8
0
100
AcDbLine
 62
3
  6
CONTINUOUS
 10
5.977132535
 20
4.03486647
 11
5.9876312426
 21
4.0321859541
  0
LINE
  5
886
100
AcDbEntity
  8
0
100
AcDbLine
 62
3
  6
CONTINUOUS
 10
5.8642716826
 20
4.0911573065
 11
5.8747703302
 21
4.0884767909
  0
LINE
  5
887
100
AcDbEntity
  8
0
100
AcDbLine
 62
3
  6
CONTINUOUS
 10
5.8905183617
 20
4.0884767909
 11
5.9010170694
 21
4.0857962752
  0
LINE
  5
888
100
AcDbEntity
  8
0
100
AcDbLine
 62
3
  6
CONTINUOUS
 10
6.4548228036
 20
4.0455885344
 11
6.444324156
 21
4.04826905
  0
LINE
  5
889
100
AcDbEntity
  8
0
100
AcDbLine
 62
3
  6
CONTINUOUS
 10
5.8747703302
 20
4.1045598849
 11
5.8668963145
 21
4.1072404006
  0
LINE
  5
88A
100
AcDbEntity
  8
0
100
AcDbLine
 62
3
  6
CONTINUOUS
 10
5.8905183617
 20
4.142087112
 11
5.8983923775
 21
4.1394065963
  0
LINE
  5
88B
100
AcDbEntity
  8
0
100
AcDbLine
 62
3
  6
CONTINUOUS
 10
6.2474737623
 20
4.1447676276
 11
6.2553477781
 21
4.142087112
  0
LINE
  5
88C
100
AcDbEntity
  8
0
100
AcDbLine
 62
3
  6
CONTINUOUS
 10
6.0375000291
 20
4.0911573065
 11
6.0243766294
 21
4.0965183379
  0
LINE
  5
88D
100
AcDbEntity
  8
0
100
AcDbLine
 62
3
  6
CONTINUOUS
 10
6.0296260133
 20
4.150128659
 11
6.0191273056
 21
4.1554896904
  0
LINE
  5
88E
100
AcDbEntity
  8
0
100
AcDbLine
 62
3
  6
CONTINUOUS
 10
6.0847441236
 20
4.0429080177
 11
6.0978674631
 21
4.03486647
  0
LINE
  5
88F
100
AcDbEntity
  8
0
100
AcDbLine
 62
3
  6
CONTINUOUS
 10
6.1424868657
 20
4.1474481433
 11
6.1293635261
 21
4.1554896904
  0
LINE
  5
890
100
AcDbEntity
  8
0
100
AcDbLine
 62
3
  6
CONTINUOUS
 10
6.0191273056
 20
4.0884767909
 11
6.0270013214
 21
4.0831157595
  0
LINE
  5
891
100
AcDbEntity
  8
0
100
AcDbLine
 62
3
  6
CONTINUOUS
 10
6.1004921551
 20
4.04826905
 11
6.0926181393
 21
4.0536300814
  0
LINE
  5
892
100
AcDbEntity
  8
0
100
AcDbLine
 62
3
  6
CONTINUOUS
 10
6.0165026137
 20
4.142087112
 11
6.0243766294
 21
4.1367260806
  0
LINE
  5
893
100
AcDbEntity
  8
0
100
AcDbLine
 62
3
  6
CONTINUOUS
 10
6.1267388342
 20
4.142087112
 11
6.1346128499
 21
4.1367260806
  0
LINE
  5
894
100
AcDbEntity
  8
0
100
AcDbLine
 62
3
  6
CONTINUOUS
 10
5.9115157771
 20
4.1474481433
 11
5.9010170694
 21
4.1554896904
  0
LINE
  5
895
100
AcDbEntity
  8
0
100
AcDbLine
 62
3
  6
CONTINUOUS
 10
5.8432742672
 20
4.1072404006
 11
5.8537729749
 21
4.0965183379
  0
LINE
  5
896
100
AcDbEntity
  8
0
100
AcDbLine
 62
3
  6
CONTINUOUS
 10
5.9246391167
 20
4.0857962752
 11
5.914140409
 21
4.0965183379
  0
LINE
  5
897
100
AcDbEntity
  8
0
100
AcDbLine
 62
3
  6
CONTINUOUS
 10
5.9718832112
 20
4.0509495657
 11
5.9666338873
 21
4.0563105989
  0
LINE
  5
898
100
AcDbEntity
  8
0
100
AcDbLine
 62
3
  6
CONTINUOUS
 10
5.8983923775
 20
4.1394065963
 11
5.9036417614
 21
4.1340455649
  0
LINE
  5
899
100
AcDbEntity
  8
0
100
AcDbLine
 62
3
  6
CONTINUOUS
 10
6.0768701078
 20
4.0509495657
 11
6.0847441236
 21
4.0429080177
  0
LINE
  5
89A
100
AcDbEntity
  8
0
100
AcDbLine
 62
3
  6
CONTINUOUS
 10
6.0401246609
 20
4.1394065963
 11
6.0296260133
 21
4.150128659
  0
LINE
  5
89B
100
AcDbEntity
  8
0
100
AcDbLine
 62
3
  6
CONTINUOUS
 10
5.9193897929
 20
4.1367260806
 11
5.9115157771
 21
4.1474481433
  0
LINE
  5
89C
100
AcDbEntity
  8
0
100
AcDbLine
 62
3
  6
CONTINUOUS
 10
5.9088910852
 20
4.0804352438
 11
5.914140409
 21
4.072393693
  0
LINE
  5
89D
100
AcDbEntity
  8
0
100
AcDbLine
 62
3
  6
CONTINUOUS
 10
5.8354002515
 20
4.0563105989
 11
5.8432742672
 21
4.0429080177
  0
LINE
  5
89E
100
AcDbEntity
  8
0
100
AcDbLine
 62
3
  6
CONTINUOUS
 10
5.5204396516
 20
4.0804352438
 11
5.5230643135
 21
4.072393693
  0
LINE
  5
89F
100
AcDbEntity
  8
0
100
AcDbLine
 62
3
  6
CONTINUOUS
 10
5.538812345
 20
4.0750742087
 11
5.5361876831
 21
4.0831157595
  0
LINE
  5
8A0
100
AcDbEntity
  8
0
100
AcDbLine
 62
3
  6
CONTINUOUS
 10
5.5204396516
 20
4.1340455649
 11
5.5230643135
 21
4.1260040104
  0
LINE
  5
8A1
100
AcDbEntity
  8
0
100
AcDbLine
 62
3
  6
CONTINUOUS
 10
5.538812345
 20
4.1286845336
 11
5.5361876831
 21
4.1367260806
  0
LINE
  5
8A2
100
AcDbEntity
  8
0
100
AcDbLine
 62
3
  6
CONTINUOUS
 10
5.1844816363
 20
4.1286845336
 11
5.1844816363
 21
4.1179624633
  0
LINE
  5
8A3
100
AcDbEntity
  8
0
100
AcDbLine
 62
3
  6
CONTINUOUS
 10
5.2002296678
 20
4.120642979
 11
5.2002296678
 21
4.1260040104
  0
LINE
  5
8A4
100
AcDbEntity
  8
0
100
AcDbLine
 62
3
  6
CONTINUOUS
 10
5.2579724475
 20
4.072393693
 11
5.2579724475
 21
4.064352146
  0
LINE
  5
8A5
100
AcDbEntity
  8
0
100
AcDbLine
 62
3
  6
CONTINUOUS
 10
5.273720479
 20
4.0616716303
 11
5.273720479
 21
4.0750742087
  0
LINE
  5
8A6
100
AcDbEntity
  8
0
100
AcDbLine
 62
3
  6
CONTINUOUS
 10
6.4705708351
 20
4.0321859541
 11
6.4836942348
 21
4.03486647
  0
LINE
  5
8A7
100
AcDbEntity
  8
0
100
AcDbLine
 62
3
  6
CONTINUOUS
 10
6.1136154946
 20
4.0321859541
 11
6.1293635261
 21
4.03486647
  0
LINE
  5
8A8
100
AcDbEntity
  8
0
100
AcDbLine
 62
3
  6
CONTINUOUS
 10
5.2133530262
 20
4.0321859541
 11
5.234350404
 21
4.0321859541
  0
LINE
  5
8A9
100
AcDbEntity
  8
0
100
AcDbLine
 62
3
  6
CONTINUOUS
 10
5.2947178568
 20
4.0321859541
 11
5.3104658883
 21
4.0321859541
  0
LINE
  5
8AA
100
AcDbEntity
  8
0
100
AcDbLine
 62
3
  6
CONTINUOUS
 10
5.3472112901
 20
4.0321859541
 11
5.3682086755
 21
4.0321859541
  0
LINE
  5
8AB
100
AcDbEntity
  8
0
100
AcDbLine
 62
3
  6
CONTINUOUS
 10
5.4049540773
 20
4.0321859541
 11
5.4207021088
 21
4.0321859541
  0
LINE
  5
8AC
100
AcDbEntity
  8
0
100
AcDbLine
 62
3
  6
CONTINUOUS
 10
5.4416994941
 20
4.0321859541
 11
5.5046916201
 21
4.0321859541
  0
LINE
  5
8AD
100
AcDbEntity
  8
0
100
AcDbLine
 62
3
  6
CONTINUOUS
 10
5.5598097304
 20
4.0321859541
 11
5.5755577618
 21
4.0321859541
  0
LINE
  5
8AE
100
AcDbEntity
  8
0
100
AcDbLine
 62
3
  6
CONTINUOUS
 10
5.6490485655
 20
4.0321859541
 11
5.664796597
 21
4.0321859541
  0
LINE
  5
8AF
100
AcDbEntity
  8
0
100
AcDbLine
 62
3
  6
CONTINUOUS
 10
5.6857939523
 20
4.0321859541
 11
5.7015419838
 21
4.0321859541
  0
LINE
  5
8B0
100
AcDbEntity
  8
0
100
AcDbLine
 62
3
  6
CONTINUOUS
 10
5.7382874307
 20
4.0321859541
 11
5.759284786
 21
4.0321859541
  0
LINE
  5
8B1
100
AcDbEntity
  8
0
100
AcDbLine
 62
3
  6
CONTINUOUS
 10
5.7960301728
 20
4.0321859541
 11
5.8117782043
 21
4.0321859541
  0
LINE
  5
8B2
100
AcDbEntity
  8
0
100
AcDbLine
 62
3
  6
CONTINUOUS
 10
5.8695210064
 20
4.0321859541
 11
5.8905183617
 21
4.0321859541
  0
LINE
  5
8B3
100
AcDbEntity
  8
0
100
AcDbLine
 62
3
  6
CONTINUOUS
 10
5.9876312426
 20
4.0321859541
 11
6.008628598
 21
4.0321859541
  0
LINE
  5
8B4
100
AcDbEntity
  8
0
100
AcDbLine
 62
3
  6
CONTINUOUS
 10
6.1818569444
 20
4.0321859541
 11
6.197605036
 21
4.0321859541
  0
LINE
  5
8B5
100
AcDbEntity
  8
0
100
AcDbLine
 62
3
  6
CONTINUOUS
 10
6.2999672407
 20
4.0321859541
 11
6.3944554297
 21
4.0321859541
  0
LINE
  5
8B6
100
AcDbEntity
  8
0
100
AcDbLine
 62
3
  6
CONTINUOUS
 10
6.4548228036
 20
4.0321859541
 11
6.4705708351
 21
4.0321859541
  0
LINE
  5
8B7
100
AcDbEntity
  8
0
100
AcDbLine
 62
3
  6
CONTINUOUS
 10
6.5309383293
 20
4.0321859541
 11
6.6254265182
 21
4.0321859541
  0
LINE
  5
8B8
100
AcDbEntity
  8
0
100
AcDbLine
 62
3
  6
CONTINUOUS
 10
6.6464239336
 20
4.0321859541
 11
6.6621719651
 21
4.0321859541
  0
LINE
  5
8B9
100
AcDbEntity
  8
0
100
AcDbLine
 62
3
  6
CONTINUOUS
 10
6.727788723
 20
4.0321859541
 11
6.7461613863
 21
4.0321859541
  0
LINE
  5
8BA
100
AcDbEntity
  8
0
100
AcDbLine
 62
3
  6
CONTINUOUS
 10
6.6254265182
 20
4.0455885344
 11
6.5519357446
 21
4.0455885344
  0
LINE
  5
8BB
100
AcDbEntity
  8
0
100
AcDbLine
 62
3
  6
CONTINUOUS
 10
6.4705708351
 20
4.0455885344
 11
6.4548228036
 21
4.0455885344
  0
LINE
  5
8BC
100
AcDbEntity
  8
0
100
AcDbLine
 62
3
  6
CONTINUOUS
 10
6.0060039661
 20
4.0455885344
 11
5.9902559346
 21
4.0455885344
  0
LINE
  5
8BD
100
AcDbEntity
  8
0
100
AcDbLine
 62
3
  6
CONTINUOUS
 10
6.3944554297
 20
4.04826905
 11
6.3157152722
 21
4.04826905
  0
LINE
  5
8BE
100
AcDbEntity
  8
0
100
AcDbLine
 62
3
  6
CONTINUOUS
 10
5.8905183617
 20
4.04826905
 11
5.8695210064
 21
4.04826905
  0
LINE
  5
8BF
100
AcDbEntity
  8
0
100
AcDbLine
 62
3
  6
CONTINUOUS
 10
5.507316282
 20
4.04826905
 11
5.4574475256
 21
4.04826905
  0
LINE
  5
8C0
100
AcDbEntity
  8
0
100
AcDbLine
 62
3
  6
CONTINUOUS
 10
5.234350404
 20
4.04826905
 11
5.2133530262
 21
4.04826905
  0
LINE
  5
8C1
100
AcDbEntity
  8
0
100
AcDbLine
 62
3
  6
CONTINUOUS
 10
5.9640091954
 20
4.0616716303
 11
5.9508858558
 21
4.0616716303
  0
LINE
  5
8C2
100
AcDbEntity
  8
0
100
AcDbLine
 62
3
  6
CONTINUOUS
 10
6.4312007564
 20
4.064352146
 11
6.4154527249
 21
4.064352146
  0
LINE
  5
8C3
100
AcDbEntity
  8
0
100
AcDbLine
 62
3
  6
CONTINUOUS
 10
5.5860564395
 20
4.064352146
 11
5.6385498878
 21
4.064352146
  0
LINE
  5
8C4
100
AcDbEntity
  8
0
100
AcDbLine
 62
3
  6
CONTINUOUS
 10
5.8485236511
 20
4.0670326617
 11
5.8327756196
 21
4.0670326617
  0
LINE
  5
8C5
100
AcDbEntity
  8
0
100
AcDbLine
 62
3
  6
CONTINUOUS
 10
5.1923556521
 20
4.0670326617
 11
5.1766076206
 21
4.0670326617
  0
LINE
  5
8C6
100
AcDbEntity
  8
0
100
AcDbLine
 62
3
  6
CONTINUOUS
 10
5.6359251959
 20
4.0750742087
 11
5.5886811014
 21
4.0750742087
  0
LINE
  5
8C7
100
AcDbEntity
  8
0
100
AcDbLine
 62
3
  6
CONTINUOUS
 10
5.2186023725
 20
4.0884767909
 11
5.234350404
 21
4.0884767909
  0
LINE
  5
8C8
100
AcDbEntity
  8
0
100
AcDbLine
 62
3
  6
CONTINUOUS
 10
5.4574475256
 20
4.0884767909
 11
5.507316282
 21
4.0884767909
  0
LINE
  5
8C9
100
AcDbEntity
  8
0
100
AcDbLine
 62
3
  6
CONTINUOUS
 10
5.8747703302
 20
4.0884767909
 11
5.8905183617
 21
4.0884767909
  0
LINE
  5
8CA
100
AcDbEntity
  8
0
100
AcDbLine
 62
3
  6
CONTINUOUS
 10
6.197605036
 20
4.0884767909
 11
6.2448491305
 21
4.0884767909
  0
LINE
  5
8CB
100
AcDbEntity
  8
0
100
AcDbLine
 62
3
  6
CONTINUOUS
 10
6.4154527249
 20
4.0884767909
 11
6.4338255084
 21
4.0884767909
  0
LINE
  5
8CC
100
AcDbEntity
  8
0
100
AcDbLine
 62
3
  6
CONTINUOUS
 10
6.6621719651
 20
4.0884767909
 11
6.7067913076
 21
4.0884767909
  0
LINE
  5
8CD
100
AcDbEntity
  8
0
100
AcDbLine
 62
3
  6
CONTINUOUS
 10
5.9928805665
 20
4.0911573065
 11
6.0033792741
 21
4.0911573065
  0
LINE
  5
8CE
100
AcDbEntity
  8
0
100
AcDbLine
 62
3
  6
CONTINUOUS
 10
6.4548228036
 20
4.0991988536
 11
6.4705708351
 21
4.0991988536
  0
LINE
  5
8CF
100
AcDbEntity
  8
0
100
AcDbLine
 62
3
  6
CONTINUOUS
 10
6.0033792741
 20
4.1018793693
 11
5.9928805665
 21
4.1018793693
  0
LINE
  5
8D0
100
AcDbEntity
  8
0
100
AcDbLine
 62
3
  6
CONTINUOUS
 10
6.7120406915
 20
4.1045598849
 11
6.6621719651
 21
4.1045598849
  0
LINE
  5
8D1
100
AcDbEntity
  8
0
100
AcDbLine
 62
3
  6
CONTINUOUS
 10
6.2474737623
 20
4.1045598849
 11
6.197605036
 21
4.1045598849
  0
LINE
  5
8D2
100
AcDbEntity
  8
0
100
AcDbLine
 62
3
  6
CONTINUOUS
 10
5.8905183617
 20
4.1045598849
 11
5.8747703302
 21
4.1045598849
  0
LINE
  5
8D3
100
AcDbEntity
  8
0
100
AcDbLine
 62
3
  6
CONTINUOUS
 10
5.507316282
 20
4.1045598849
 11
5.4574475256
 21
4.1045598849
  0
LINE
  5
8D4
100
AcDbEntity
  8
0
100
AcDbLine
 62
3
  6
CONTINUOUS
 10
5.234350404
 20
4.1045598849
 11
5.2186023725
 21
4.1045598849
  0
LINE
  5
8D5
100
AcDbEntity
  8
0
100
AcDbLine
 62
3
  6
CONTINUOUS
 10
6.4705708351
 20
4.112601432
 11
6.4548228036
 21
4.112601432
  0
LINE
  5
8D6
100
AcDbEntity
  8
0
100
AcDbLine
 62
3
  6
CONTINUOUS
 10
5.2500984317
 20
4.1286845336
 11
5.2658464632
 21
4.1286845336
  0
LINE
  5
8D7
100
AcDbEntity
  8
0
100
AcDbLine
 62
3
  6
CONTINUOUS
 10
5.9062663932
 20
4.1286845336
 11
5.9220144247
 21
4.1286845336
  0
LINE
  5
8D8
100
AcDbEntity
  8
0
100
AcDbLine
 62
3
  6
CONTINUOUS
 10
5.9535104877
 20
4.1286845336
 11
5.9666338873
 21
4.1286845336
  0
LINE
  5
8D9
100
AcDbEntity
  8
0
100
AcDbLine
 62
3
  6
CONTINUOUS
 10
6.5335629611
 20
4.1286845336
 11
6.5466863608
 21
4.1286845336
  0
LINE
  5
8DA
100
AcDbEntity
  8
0
100
AcDbLine
 62
3
  6
CONTINUOUS
 10
5.2186023725
 20
4.142087112
 11
5.234350404
 21
4.142087112
  0
LINE
  5
8DB
100
AcDbEntity
  8
0
100
AcDbLine
 62
3
  6
CONTINUOUS
 10
5.4574475256
 20
4.142087112
 11
5.507316282
 21
4.142087112
  0
LINE
  5
8DC
100
AcDbEntity
  8
0
100
AcDbLine
 62
3
  6
CONTINUOUS
 10
5.8747703302
 20
4.142087112
 11
5.8905183617
 21
4.142087112
  0
LINE
  5
8DD
100
AcDbEntity
  8
0
100
AcDbLine
 62
3
  6
CONTINUOUS
 10
5.9928805665
 20
4.1447676276
 11
6.0033792741
 21
4.1447676276
  0
LINE
  5
8DE
100
AcDbEntity
  8
0
100
AcDbLine
 62
3
  6
CONTINUOUS
 10
6.197605036
 20
4.1447676276
 11
6.2474737623
 21
4.1447676276
  0
LINE
  5
8DF
100
AcDbEntity
  8
0
100
AcDbLine
 62
3
  6
CONTINUOUS
 10
6.4285761245
 20
4.1447676276
 11
6.5046916502
 21
4.1447676276
  0
LINE
  5
8E0
100
AcDbEntity
  8
0
100
AcDbLine
 62
3
  6
CONTINUOUS
 10
6.5729330399
 20
4.1447676276
 11
6.5834318076
 21
4.1447676276
  0
LINE
  5
8E1
100
AcDbEntity
  8
0
100
AcDbLine
 62
3
  6
CONTINUOUS
 10
6.6621719651
 20
4.1447676276
 11
6.7120406915
 21
4.1447676276
  0
LINE
  5
8E2
100
AcDbEntity
  8
0
100
AcDbLine
 62
3
  6
CONTINUOUS
 10
6.7094160596
 20
4.158170206
 11
6.6464239336
 21
4.158170206
  0
LINE
  5
8E3
100
AcDbEntity
  8
0
100
AcDbLine
 62
3
  6
CONTINUOUS
 10
6.5860564395
 20
4.158170206
 11
6.5755577919
 21
4.158170206
  0
LINE
  5
8E4
100
AcDbEntity
  8
0
100
AcDbLine
 62
3
  6
CONTINUOUS
 10
6.5046916502
 20
4.158170206
 11
6.4154527249
 21
4.158170206
  0
LINE
  5
8E5
100
AcDbEntity
  8
0
100
AcDbLine
 62
3
  6
CONTINUOUS
 10
6.3157152722
 20
4.158170206
 11
6.2999672407
 21
4.158170206
  0
LINE
  5
8E6
100
AcDbEntity
  8
0
100
AcDbLine
 62
3
  6
CONTINUOUS
 10
6.2448491305
 20
4.158170206
 11
6.1818569444
 21
4.158170206
  0
LINE
  5
8E7
100
AcDbEntity
  8
0
100
AcDbLine
 62
3
  6
CONTINUOUS
 10
6.0007545822
 20
4.158170206
 11
5.9955052584
 21
4.158170206
  0
LINE
  5
8E8
100
AcDbEntity
  8
0
100
AcDbLine
 62
3
  6
CONTINUOUS
 10
5.8878937299
 20
4.158170206
 11
5.8747703302
 21
4.158170206
  0
LINE
  5
8E9
100
AcDbEntity
  8
0
100
AcDbLine
 62
3
  6
CONTINUOUS
 10
5.8117782043
 20
4.158170206
 11
5.788156157
 21
4.158170206
  0
LINE
  5
8EA
100
AcDbEntity
  8
0
100
AcDbLine
 62
3
  6
CONTINUOUS
 10
5.7094159995
 20
4.158170206
 11
5.6857939523
 21
4.158170206
  0
LINE
  5
8EB
100
AcDbEntity
  8
0
100
AcDbLine
 62
3
  6
CONTINUOUS
 10
5.6228018563
 20
4.158170206
 11
5.601804471
 21
4.158170206
  0
LINE
  5
8EC
100
AcDbEntity
  8
0
100
AcDbLine
 62
3
  6
CONTINUOUS
 10
5.5046916201
 20
4.158170206
 11
5.4416994941
 21
4.158170206
  0
LINE
  5
8ED
100
AcDbEntity
  8
0
100
AcDbLine
 62
3
  6
CONTINUOUS
 10
5.4207021088
 20
4.158170206
 11
5.3970800615
 21
4.158170206
  0
LINE
  5
8EE
100
AcDbEntity
  8
0
100
AcDbLine
 62
3
  6
CONTINUOUS
 10
5.3183399041
 20
4.158170206
 11
5.2947178568
 21
4.158170206
  0
LINE
  5
8EF
100
AcDbEntity
  8
0
100
AcDbLine
 62
3
  6
CONTINUOUS
 10
5.2317257308
 20
4.158170206
 11
5.2186023725
 21
4.158170206
  0
LINE
  5
8F0
100
AcDbEntity
  8
0
100
AcDbLine
 62
3
  6
CONTINUOUS
 10
6.0191273056
 20
4.1554896904
 11
6.0007545822
 21
4.158170206
  0
LINE
  5
8F1
100
AcDbEntity
  8
0
100
AcDbLine
 62
3
  6
CONTINUOUS
 10
6.1293635261
 20
4.1554896904
 11
6.1136154946
 21
4.158170206
  0
LINE
  5
8F2
100
AcDbEntity
  8
0
100
AcDbLine
 62
3
  6
CONTINUOUS
 10
6.601804471
 20
4.1554896904
 11
6.5860564395
 21
4.158170206
  0
LINE
  5
8F3
100
AcDbEntity
  8
0
100
AcDbLine
 62
3
  6
CONTINUOUS
 10
6.2579724099
 20
4.1554896904
 11
6.2448491305
 21
4.158170206
  0
LINE
  5
8F4
100
AcDbEntity
  8
0
100
AcDbLine
 62
3
  6
CONTINUOUS
 10
6.4836942348
 20
4.1099209163
 11
6.4705708351
 21
4.112601432
  0
LINE
  5
8F5
100
AcDbEntity
  8
0
100
AcDbLine
 62
3
  6
CONTINUOUS
 10
6.5834318076
 20
4.1447676276
 11
6.5965550871
 21
4.142087112
  0
LINE
  5
8F6
100
AcDbEntity
  8
0
100
AcDbLine
 62
3
  6
CONTINUOUS
 10
6.7225393391
 20
4.1554896904
 11
6.7094160596
 21
4.158170206
  0
LINE
  5
8F7
100
AcDbEntity
  8
0
100
AcDbLine
 62
3
  6
CONTINUOUS
 10
6.4705708351
 20
4.0991988536
 11
6.4810696029
 21
4.0965183379
  0
LINE
  5
8F8
100
AcDbEntity
  8
0
100
AcDbLine
 62
3
  6
CONTINUOUS
 10
6.7120406915
 20
4.1447676276
 11
6.7199147072
 21
4.142087112
  0
LINE
  5
8F9
100
AcDbEntity
  8
0
100
AcDbLine
 62
3
  6
CONTINUOUS
 10
6.6123031186
 20
4.150128659
 11
6.601804471
 21
4.1554896904
  0
LINE
  5
8FA
100
AcDbEntity
  8
0
100
AcDbLine
 62
3
  6
CONTINUOUS
 10
6.4285761245
 20
4.0429080177
 11
6.4416995242
 21
4.03486647
  0
LINE
  5
8FB
100
AcDbEntity
  8
0
100
AcDbLine
 62
3
  6
CONTINUOUS
 10
6.4968176344
 20
4.1018793693
 11
6.4836942348
 21
4.1099209163
  0
LINE
  5
8FC
100
AcDbEntity
  8
0
100
AcDbLine
 62
3
  6
CONTINUOUS
 10
6.444324156
 20
4.04826905
 11
6.4364501403
 21
4.0536300814
  0
LINE
  5
8FD
100
AcDbEntity
  8
0
100
AcDbLine
 62
3
  6
CONTINUOUS
 10
6.4810696029
 20
4.0965183379
 11
6.4889436187
 21
4.0911573065
  0
LINE
  5
8FE
100
AcDbEntity
  8
0
100
AcDbLine
 62
3
  6
CONTINUOUS
 10
6.2684711777
 20
4.1474481433
 11
6.2579724099
 21
4.1554896904
  0
LINE
  5
8FF
100
AcDbEntity
  8
0
100
AcDbLine
 62
3
  6
CONTINUOUS
 10
6.1503608814
 20
4.1394065963
 11
6.1424868657
 21
4.1474481433
  0
LINE
  5
900
100
AcDbEntity
  8
0
100
AcDbLine
 62
3
  6
CONTINUOUS
 10
6.2553477781
 20
4.142087112
 11
6.260597162
 21
4.1367260806
  0
LINE
  5
901
100
AcDbEntity
  8
0
100
AcDbLine
 62
3
  6
CONTINUOUS
 10
5.9535104877
 20
4.0536300814
 11
5.9587598716
 21
4.0455885344
  0
LINE
  5
902
100
AcDbEntity
  8
0
100
AcDbLine
 62
3
  6
CONTINUOUS
 10
6.0427493529
 20
4.0831157595
 11
6.0375000291
 21
4.0911573065
  0
LINE
  5
903
100
AcDbEntity
  8
0
100
AcDbLine
 62
3
  6
CONTINUOUS
 10
6.0243766294
 20
4.1367260806
 11
6.0296260133
 21
4.1286845336
  0
LINE
  5
904
100
AcDbEntity
  8
0
100
AcDbLine
 62
3
  6
CONTINUOUS
 10
6.0926181393
 20
4.0536300814
 11
6.0821194316
 21
4.0697131773
  0
LINE
  5
905
100
AcDbEntity
  8
0
100
AcDbLine
 62
3
  6
CONTINUOUS
 10
5.9298884405
 20
4.0750742087
 11
5.9246391167
 21
4.0857962752
  0
LINE
  5
906
100
AcDbEntity
  8
0
100
AcDbLine
 62
3
  6
CONTINUOUS
 10
5.9036417614
 20
4.1340455649
 11
5.9062663932
 21
4.1286845336
  0
LINE
  5
907
100
AcDbEntity
  8
0
100
AcDbLine
 62
3
  6
CONTINUOUS
 10
5.9666338873
 20
4.0563105989
 11
5.9640091954
 21
4.0616716303
  0
LINE
  5
908
100
AcDbEntity
  8
0
100
AcDbLine
 62
3
  6
CONTINUOUS
 10
5.7015419838
 20
4.1313650492
 11
5.7382874307
 21
4.0321859541
  0
LINE
  5
909
100
AcDbEntity
  8
0
100
AcDbLine
 62
3
  6
CONTINUOUS
 10
5.7487860783
 20
4.0455885344
 11
5.7094159995
 21
4.158170206
  0
LINE
  5
90A
100
AcDbEntity
  8
0
100
AcDbLine
 62
3
  6
CONTINUOUS
 10
5.664796597
 20
4.0321859541
 11
5.6228018563
 21
4.158170206
  0
LINE
  5
90B
100
AcDbEntity
  8
0
100
AcDbLine
 62
3
  6
CONTINUOUS
 10
5.6385498878
 20
4.064352146
 11
5.6490485655
 21
4.0321859541
  0
LINE
  5
90C
100
AcDbEntity
  8
0
100
AcDbLine
 62
3
  6
CONTINUOUS
 10
5.6123031486
 20
4.1474481433
 11
5.6359251959
 21
4.0750742087
  0
LINE
  5
90D
100
AcDbEntity
  8
0
100
AcDbLine
 62
3
  6
CONTINUOUS
 10
5.2947178568
 20
4.158170206
 11
5.2947178568
 21
4.0321859541
  0
LINE
  5
90E
100
AcDbEntity
  8
0
100
AcDbLine
 62
3
  6
CONTINUOUS
 10
5.3104658883
 20
4.0321859541
 11
5.3104658883
 21
4.1313650492
  0
LINE
  5
90F
100
AcDbEntity
  8
0
100
AcDbLine
 62
3
  6
CONTINUOUS
 10
5.4049540773
 20
4.1313650492
 11
5.4049540773
 21
4.0321859541
  0
LINE
  5
910
100
AcDbEntity
  8
0
100
AcDbLine
 62
3
  6
CONTINUOUS
 10
5.4207021088
 20
4.0321859541
 11
5.4207021088
 21
4.158170206
  0
LINE
  5
911
100
AcDbEntity
  8
0
100
AcDbLine
 62
3
  6
CONTINUOUS
 10
5.4416994941
 20
4.158170206
 11
5.4416994941
 21
4.0321859541
  0
LINE
  5
912
100
AcDbEntity
  8
0
100
AcDbLine
 62
3
  6
CONTINUOUS
 10
5.4574475256
 20
4.04826905
 11
5.4574475256
 21
4.0884767909
  0
LINE
  5
913
100
AcDbEntity
  8
0
100
AcDbLine
 62
3
  6
CONTINUOUS
 10
5.4574475256
 20
4.1045598849
 11
5.4574475256
 21
4.142087112
  0
LINE
  5
914
100
AcDbEntity
  8
0
100
AcDbLine
 62
3
  6
CONTINUOUS
 10
6.4810696029
 20
4.04826905
 11
6.4705708351
 21
4.0455885344
  0
LINE
  5
915
100
AcDbEntity
  8
0
100
AcDbLine
 62
3
  6
CONTINUOUS
 10
6.444324156
 20
4.0965183379
 11
6.4548228036
 21
4.0991988536
  0
LINE
  5
916
100
AcDbEntity
  8
0
100
AcDbLine
 62
3
  6
CONTINUOUS
 10
6.008628598
 20
4.0321859541
 11
6.0191273056
 21
4.03486647
  0
LINE
  5
917
100
AcDbEntity
  8
0
100
AcDbLine
 62
3
  6
CONTINUOUS
 10
5.9010170694
 20
4.0509495657
 11
5.8905183617
 21
4.04826905
  0
LINE
  5
918
100
AcDbEntity
  8
0
100
AcDbLine
 62
3
  6
CONTINUOUS
 10
6.4548228036
 20
4.112601432
 11
6.4416995242
 21
4.1099209163
  0
LINE
  5
919
100
AcDbEntity
  8
0
100
AcDbLine
 62
3
  6
CONTINUOUS
 10
6.1267388342
 20
4.04826905
 11
6.1136154946
 21
4.0455885344
  0
LINE
  5
91A
100
AcDbEntity
  8
0
100
AcDbLine
 62
3
  6
CONTINUOUS
 10
6.5598097604
 20
4.142087112
 11
6.5729330399
 21
4.1447676276
  0
LINE
  5
91B
100
AcDbEntity
  8
0
100
AcDbLine
 62
3
  6
CONTINUOUS
 10
6.2448491305
 20
4.0884767909
 11
6.2579724099
 21
4.0911573065
  0
LINE
  5
91C
100
AcDbEntity
  8
0
100
AcDbLine
 62
3
  6
CONTINUOUS
 10
6.0191273056
 20
4.04826905
 11
6.0060039661
 21
4.0455885344
  0
LINE
  5
91D
100
AcDbEntity
  8
0
100
AcDbLine
 62
3
  6
CONTINUOUS
 10
5.8905183617
 20
4.0321859541
 11
5.9036417614
 21
4.03486647
  0
LINE
  5
91E
100
AcDbEntity
  8
0
100
AcDbLine
 62
3
  6
CONTINUOUS
 10
6.1004921551
 20
4.142087112
 11
6.1136154946
 21
4.1447676276
  0
LINE
  5
91F
100
AcDbEntity
  8
0
100
AcDbLine
 62
3
  6
CONTINUOUS
 10
5.5046916201
 20
4.0321859541
 11
5.5178149597
 21
4.03486647
  0
LINE
  5
920
100
AcDbEntity
  8
0
100
AcDbLine
 62
3
  6
CONTINUOUS
 10
5.9797572269
 20
4.142087112
 11
5.9928805665
 21
4.1447676276
  0
LINE
  5
921
100
AcDbEntity
  8
0
100
AcDbLine
 62
3
  6
CONTINUOUS
 10
6.1136154946
 20
4.158170206
 11
6.0978674631
 21
4.1554896904
  0
LINE
  5
922
100
AcDbEntity
  8
0
100
AcDbLine
 62
3
  6
CONTINUOUS
 10
6.5755577919
 20
4.158170206
 11
6.5571850084
 21
4.1554896904
  0
LINE
  5
923
100
AcDbEntity
  8
0
100
AcDbLine
 62
3
  6
CONTINUOUS
 10
5.9955052584
 20
4.158170206
 11
5.977132535
 21
4.1554896904
  0
LINE
  5
924
100
AcDbEntity
  8
02___PRT_ALL_AXES
100
AcDbLine
 62
7
  6
CENTER
 10
6.2635965128
 20
4.3701026173
 11
6.0258012372
 21
4.3701026173
  0
LINE
  5
925
100
AcDbEntity
  8
02___PRT_ALL_AXES
100
AcDbLine
 62
7
  6
CENTER
 10
5.664421878
 20
4.3701026173
 11
5.4266266024
 21
4.3701026173
  0
LINE
  5
926
100
AcDbEntity
  8
02___PRT_ALL_AXES
100
AcDbLine
 62
7
  6
CENTER
 10
5.664421878
 20
4.3701026173
 11
5.9022171536
 21
4.3701026173
  0
LINE
  5
927
100
AcDbEntity
  8
02___PRT_ALL_AXES
100
AcDbLine
 62
7
  6
CENTER
 10
6.2635965128
 20
4.3701026173
 11
6.5013917884
 21
4.3701026173
  0
LINE
  5
928
100
AcDbEntity
  8
0
100
AcDbLine
 62
3
  6
CONTINUOUS
 10
6.5965550871
 20
4.142087112
 11
6.6044291029
 21
4.1367260806
  0
LINE
  5
929
100
AcDbEntity
  8
0
100
AcDbLine
 62
3
  6
CONTINUOUS
 10
6.7330381068
 20
4.1474481433
 11
6.7225393391
 21
4.1554896904
  0
LINE
  5
92A
100
AcDbEntity
  8
0
100
AcDbLine
 62
3
  6
CONTINUOUS
 10
6.2763451935
 20
4.1367260806
 11
6.2684711777
 21
4.1474481433
  0
LINE
  5
92B
100
AcDbEntity
  8
0
100
AcDbLine
 62
3
  6
CONTINUOUS
 10
6.4207021088
 20
4.0536300814
 11
6.4285761245
 21
4.0429080177
  0
LINE
  5
92C
100
AcDbEntity
  8
0
100
AcDbLine
 62
3
  6
CONTINUOUS
 10
6.1346128499
 20
4.1367260806
 11
6.1451115576
 21
4.120642979
  0
LINE
  5
92D
100
AcDbEntity
  8
0
100
AcDbLine
 62
3
  6
CONTINUOUS
 10
6.0270013214
 20
4.0831157595
 11
6.0322506452
 21
4.072393693
  0
LINE
  5
92E
100
AcDbEntity
  8
0
100
AcDbLine
 62
3
  6
CONTINUOUS
 10
6.0716207239
 20
4.0616716303
 11
6.0768701078
 21
4.0509495657
  0
LINE
  5
92F
100
AcDbEntity
  8
0
100
AcDbLine
 62
3
  6
CONTINUOUS
 10
6.1556102653
 20
4.1286845336
 11
6.1503608814
 21
4.1394065963
  0
LINE
  5
930
100
AcDbEntity
  8
0
100
AcDbLine
 62
3
  6
CONTINUOUS
 10
5.851148283
 20
4.0589911146
 11
5.8485236511
 21
4.0670326617
  0
LINE
  5
931
100
AcDbEntity
  8
0
100
AcDbLine
 62
3
  6
CONTINUOUS
 10
5.8590222987
 20
4.112601432
 11
5.8563976669
 21
4.120642979
  0
LINE
  5
932
100
AcDbEntity
  8
0
100
AcDbLine
 62
3
  6
CONTINUOUS
 10
5.9220144247
 20
4.1286845336
 11
5.9193897929
 21
4.1367260806
  0
LINE
  5
933
100
AcDbEntity
  8
0
100
AcDbLine
 62
3
  6
CONTINUOUS
 10
5.9508858558
 20
4.0616716303
 11
5.9535104877
 21
4.0536300814
  0
LINE
  5
934
100
AcDbEntity
  8
0
100
AcDbLine
 62
3
  6
CONTINUOUS
 10
5.8327756196
 20
4.0670326617
 11
5.8354002515
 21
4.0563105989
  0
LINE
  5
935
100
AcDbEntity
  8
0
100
AcDbLine
 62
3
  6
CONTINUOUS
 10
5.8406496354
 20
4.1179624633
 11
5.8432742672
 21
4.1072404006
  0
LINE
  5
936
100
AcDbEntity
  8
0
100
AcDbLine
 62
3
  6
CONTINUOUS
 10
5.5230643135
 20
4.1260040104
 11
5.5230643135
 21
4.120642979
  0
LINE
  5
937
100
AcDbEntity
  8
0
100
AcDbLine
 62
3
  6
CONTINUOUS
 10
5.5230643135
 20
4.072393693
 11
5.5230643135
 21
4.064352146
  0
LINE
  5
938
100
AcDbEntity
  8
0
100
AcDbLine
 62
3
  6
CONTINUOUS
 10
5.538812345
 20
4.0616716303
 11
5.538812345
 21
4.0750742087
  0
LINE
  5
939
100
AcDbEntity
  8
0
100
AcDbLine
 62
3
  6
CONTINUOUS
 10
5.538812345
 20
4.1179624633
 11
5.538812345
 21
4.1286845336
  0
LINE
  5
93A
100
AcDbEntity
  8
0
100
AcDbLine
 62
3
  6
CONTINUOUS
 10
5.8747703302
 20
4.158170206
 11
5.8642716826
 21
4.1554896904
  0
LINE
  5
93B
100
AcDbEntity
  8
0
100
AcDbLine
 62
3
  6
CONTINUOUS
 10
5.2448490929
 20
4.0509495657
 11
5.234350404
 21
4.04826905
  0
LINE
  5
93C
100
AcDbEntity
  8
0
100
AcDbLine
 62
3
  6
CONTINUOUS
 10
5.234350404
 20
4.0321859541
 11
5.2474737623
 21
4.03486647
  0
LINE
  5
93D
100
AcDbEntity
  8
0
100
AcDbLine
 62
3
  6
CONTINUOUS
 10
6.6228018864
 20
4.1394065963
 11
6.6123031186
 21
4.150128659
  0
LINE
  5
93E
100
AcDbEntity
  8
0
100
AcDbLine
 62
3
  6
CONTINUOUS
 10
6.7199147072
 20
4.142087112
 11
6.7251640911
 21
4.1367260806
  0
LINE
  5
93F
100
AcDbEntity
  8
0
100
AcDbLine
 62
3
  6
CONTINUOUS
 10
6.5046916502
 20
4.0911573065
 11
6.4968176344
 21
4.1018793693
  0
LINE
  5
940
100
AcDbEntity
  8
0
100
AcDbLine
 62
3
  6
CONTINUOUS
 10
6.4889436187
 20
4.0911573065
 11
6.4941928824
 21
4.0831157595
  0
LINE
  5
941
100
AcDbEntity
  8
0
100
AcDbLine
 62
3
  6
CONTINUOUS
 10
6.4154527249
 20
4.064352146
 11
6.4207021088
 21
4.0536300814
  0
LINE
  5
942
100
AcDbEntity
  8
0
100
AcDbLine
 62
3
  6
CONTINUOUS
 10
6.0689960921
 20
4.0697131773
 11
6.0716207239
 21
4.0616716303
  0
LINE
  5
943
100
AcDbEntity
  8
0
100
AcDbLine
 62
3
  6
CONTINUOUS
 10
6.1582348972
 20
4.120642979
 11
6.1556102653
 21
4.1286845336
  0
LINE
  5
944
100
AcDbEntity
  8
0
100
AcDbLine
 62
3
  6
CONTINUOUS
 10
6.0453740448
 20
4.072393693
 11
6.0427493529
 21
4.0831157595
  0
LINE
  5
945
100
AcDbEntity
  8
0
100
AcDbLine
 62
3
  6
CONTINUOUS
 10
6.0427493529
 20
4.1286845336
 11
6.0401246609
 21
4.1394065963
  0
LINE
  5
946
100
AcDbEntity
  8
02___PRT_ALL_AXES
100
AcDbLine
 62
7
  6
CENTER
 10
5.664421878
 20
5.1509622042
 11
5.664421878
 21
4.9131669286
  0
LINE
  5
947
100
AcDbEntity
  8
02___PRT_ALL_AXES
100
AcDbLine
 62
7
  6
CENTER
 10
5.664421878
 20
4.3701026173
 11
5.664421878
 21
4.1323073417
  0
LINE
  5
948
100
AcDbEntity
  8
02___PRT_ALL_AXES
100
AcDbLine
 62
7
  6
CENTER
 10
5.664421878
 20
4.3701026173
 11
5.664421878
 21
4.6078978929
  0
LINE
  5
949
100
AcDbEntity
  8
02___PRT_ALL_AXES
100
AcDbLine
 62
7
  6
CENTER
 10
5.664421878
 20
5.1509622042
 11
5.664421878
 21
5.3887574798
  0
LINE
  5
94A
100
AcDbEntity
  8
0
100
AcDbLine
 62
3
  6
CONTINUOUS
 10
5.6857939523
 20
4.158170206
 11
5.6857939523
 21
4.0321859541
  0
LINE
  5
94B
100
AcDbEntity
  8
0
100
AcDbLine
 62
3
  6
CONTINUOUS
 10
5.7015419838
 20
4.0321859541
 11
5.7015419838
 21
4.1313650492
  0
LINE
  5
94C
100
AcDbEntity
  8
0
100
AcDbLine
 62
3
  6
CONTINUOUS
 10
5.7960301728
 20
4.1313650492
 11
5.7960301728
 21
4.0321859541
  0
LINE
  5
94D
100
AcDbEntity
  8
0
100
AcDbLine
 62
3
  6
CONTINUOUS
 10
5.8117782043
 20
4.0321859541
 11
5.8117782043
 21
4.158170206
  0
LINE
  5
94E
100
AcDbEntity
  8
0
100
AcDbLine
 62
3
  6
CONTINUOUS
 10
5.8406496354
 20
4.1286845336
 11
5.8406496354
 21
4.1179624633
  0
LINE
  5
94F
100
AcDbEntity
  8
0
100
AcDbLine
 62
3
  6
CONTINUOUS
 10
5.1871063086
 20
4.1394065963
 11
5.1844816363
 21
4.1286845336
  0
LINE
  5
950
100
AcDbEntity
  8
0
100
AcDbLine
 62
3
  6
CONTINUOUS
 10
5.2002296678
 20
4.1260040104
 11
5.2028543391
 21
4.1340455649
  0
LINE
  5
951
100
AcDbEntity
  8
0
100
AcDbLine
 62
3
  6
CONTINUOUS
 10
5.2186023725
 20
4.158170206
 11
5.2081036836
 21
4.1554896904
  0
LINE
  5
952
100
AcDbEntity
  8
02___PRT_ALL_AXES
100
AcDbLine
 62
7
  6
CENTER
 10
5.9640091954
 20
4.7605324108
 11
5.7354658883
 21
4.7605324108
  0
LINE
  5
953
100
AcDbEntity
  8
02___PRT_ALL_AXES
100
AcDbLine
 62
7
  6
CENTER
 10
5.9640091954
 20
4.7605324108
 11
6.1925525025
 21
4.7605324108
  0
LINE
  5
954
100
AcDbEntity
  8
0
100
AcDbLine
 62
3
  6
CONTINUOUS
 10
6.7409121226
 20
4.1367260806
 11
6.7330381068
 21
4.1474481433
  0
LINE
  5
955
100
AcDbEntity
  8
0
100
AcDbLine
 62
3
  6
CONTINUOUS
 10
6.6044291029
 20
4.1367260806
 11
6.6096784867
 21
4.1286845336
  0
LINE
  5
956
100
AcDbEntity
  8
0
100
AcDbLine
 62
3
  6
CONTINUOUS
 10
6.4364501403
 20
4.0536300814
 11
6.4312007564
 21
4.064352146
  0
LINE
  5
957
100
AcDbEntity
  8
0
100
AcDbLine
 62
3
  6
CONTINUOUS
 10
6.260597162
 20
4.1367260806
 11
6.2632217938
 21
4.1286845336
  0
LINE
  5
958
100
AcDbEntity
  8
0
100
AcDbLine
 62
3
  6
CONTINUOUS
 10
6.2789698253
 20
4.1286845336
 11
6.2763451935
 21
4.1367260806
  0
LINE
  5
959
100
AcDbEntity
  8
0
100
AcDbLine
 62
3
  6
CONTINUOUS
 10
6.0663714001
 20
4.0831157595
 11
6.0689960921
 21
4.0697131773
  0
LINE
  5
95A
100
AcDbEntity
  8
0
100
AcDbLine
 62
3
  6
CONTINUOUS
 10
6.1608595891
 20
4.1072404006
 11
6.1582348972
 21
4.120642979
  0
LINE
  5
95B
100
AcDbEntity
  8
0
100
AcDbLine
 62
3
  6
CONTINUOUS
 10
6.0821194316
 20
4.0697131773
 11
6.0794947397
 21
4.0857962752
  0
LINE
  5
95C
100
AcDbEntity
  8
0
100
AcDbLine
 62
3
  6
CONTINUOUS
 10
5.8563976669
 20
4.120642979
 11
5.8563976669
 21
4.1260040104
  0
LINE
  5
95D
100
AcDbEntity
  8
0
100
AcDbLine
 62
3
  6
CONTINUOUS
 10
5.914140409
 20
4.072393693
 11
5.914140409
 21
4.064352146
  0
LINE
  5
95E
100
AcDbEntity
  8
0
100
AcDbLine
 62
3
  6
CONTINUOUS
 10
5.9298884405
 20
4.0616716303
 11
5.9298884405
 21
4.0750742087
  0
LINE
  5
95F
100
AcDbEntity
  8
02___PRT_ALL_AXES
100
AcDbLine
 62
7
  6
CENTER
 10
5.9640091954
 20
6.9455717808
 11
5.9640091954
 21
6.2353355604
  0
LINE
  5
960
100
AcDbEntity
  8
02___PRT_ALL_AXES
100
AcDbLine
 62
7
  6
CENTER
 10
5.9640091954
 20
4.7605324108
 11
5.9640091954
 21
4.5319891037
  0
LINE
  5
961
100
AcDbEntity
  8
02___PRT_ALL_AXES
100
AcDbLine
 62
7
  6
CENTER
 10
5.9640091954
 20
4.7605324108
 11
5.9640091954
 21
4.9890757179
  0
LINE
  5
962
100
AcDbEntity
  8
02___PRT_ALL_AXES
100
AcDbLine
 62
7
  6
CENTER
 10
5.9640091954
 20
6.9455717808
 11
5.9640091954
 21
7.6558080013
  0
LINE
  5
963
100
AcDbEntity
  8
0
100
AcDbLine
 62
3
  6
CONTINUOUS
 10
5.9928805665
 20
4.1018793693
 11
5.9928805665
 21
4.0911573065
  0
LINE
  5
964
100
AcDbEntity
  8
0
100
AcDbLine
 62
3
  6
CONTINUOUS
 10
6.0296260133
 20
4.1286845336
 11
6.0296260133
 21
4.1233234947
  0
LINE
  5
965
100
AcDbEntity
  8
0
100
AcDbLine
 62
3
  6
CONTINUOUS
 10
6.0322506452
 20
4.072393693
 11
6.0322506452
 21
4.0616716303
  0
LINE
  5
966
100
AcDbEntity
  8
0
100
AcDbLine
 62
3
  6
CONTINUOUS
 10
6.0427493529
 20
4.1233234947
 11
6.0427493529
 21
4.1286845336
  0
LINE
  5
967
100
AcDbEntity
  8
0
100
AcDbLine
 62
3
  6
CONTINUOUS
 10
6.0453740448
 20
4.0616716303
 11
6.0453740448
 21
4.072393693
  0
LINE
  5
968
100
AcDbEntity
  8
0
100
AcDbLine
 62
3
  6
CONTINUOUS
 10
6.5099409139
 20
4.0777547244
 11
6.5046916502
 21
4.0911573065
  0
LINE
  5
969
100
AcDbEntity
  8
0
100
AcDbLine
 62
3
  6
CONTINUOUS
 10
6.4941928824
 20
4.0831157595
 11
6.4968176344
 21
4.0750742087
  0
LINE
  5
96A
100
AcDbEntity
  8
0
100
AcDbLine
 62
3
  6
CONTINUOUS
 10
6.1451115576
 20
4.120642979
 11
6.1477362495
 21
4.1045598849
  0
LINE
  5
96B
100
AcDbEntity
  8
0
100
AcDbLine
 62
3
  6
CONTINUOUS
 10
6.0663714001
 20
4.1072404006
 11
6.0663714001
 21
4.0831157595
  0
LINE
  5
96C
100
AcDbEntity
  8
0
100
AcDbLine
 62
3
  6
CONTINUOUS
 10
6.0794947397
 20
4.0857962752
 11
6.0794947397
 21
4.1045598849
  0
LINE
  5
96D
100
AcDbEntity
  8
0
100
AcDbLine
 62
3
  6
CONTINUOUS
 10
6.1477362495
 20
4.1045598849
 11
6.1477362495
 21
4.0857962752
  0
LINE
  5
96E
100
AcDbEntity
  8
0
100
AcDbLine
 62
3
  6
CONTINUOUS
 10
6.1608595891
 20
4.0831157595
 11
6.1608595891
 21
4.1072404006
  0
LINE
  5
96F
100
AcDbEntity
  8
0
100
AcDbLine
 62
3
  6
CONTINUOUS
 10
6.1818569444
 20
4.158170206
 11
6.1818569444
 21
4.0321859541
  0
LINE
  5
970
100
AcDbEntity
  8
0
100
AcDbLine
 62
3
  6
CONTINUOUS
 10
6.197605036
 20
4.0321859541
 11
6.197605036
 21
4.0884767909
  0
LINE
  5
971
100
AcDbEntity
  8
0
100
AcDbLine
 62
3
  6
CONTINUOUS
 10
6.197605036
 20
4.1045598849
 11
6.197605036
 21
4.1447676276
  0
LINE
  5
972
100
AcDbEntity
  8
0
100
AcDbLine
 62
3
  6
CONTINUOUS
 10
5.5230643135
 20
4.120642979
 11
5.5204396516
 21
4.112601432
  0
LINE
  5
973
100
AcDbEntity
  8
0
100
AcDbLine
 62
3
  6
CONTINUOUS
 10
5.5361876831
 20
4.1099209163
 11
5.538812345
 21
4.1179624633
  0
LINE
  5
974
100
AcDbEntity
  8
0
100
AcDbLine
 62
3
  6
CONTINUOUS
 10
5.5230643135
 20
4.064352146
 11
5.5204396516
 21
4.0563105989
  0
LINE
  5
975
100
AcDbEntity
  8
0
100
AcDbLine
 62
3
  6
CONTINUOUS
 10
5.5361876831
 20
4.0536300814
 11
5.538812345
 21
4.0616716303
  0
LINE
  5
976
100
AcDbEntity
  8
0
100
AcDbLine
 62
3
  6
CONTINUOUS
 10
5.5886811014
 20
4.0750742087
 11
5.6123031486
 21
4.1474481433
  0
LINE
  5
977
100
AcDbEntity
  8
0
100
AcDbLine
 62
3
  6
CONTINUOUS
 10
5.5755577618
 20
4.0321859541
 11
5.5860564395
 21
4.064352146
  0
LINE
  5
978
100
AcDbEntity
  8
0
100
AcDbLine
 62
3
  6
CONTINUOUS
 10
5.601804471
 20
4.158170206
 11
5.5598097304
 21
4.0321859541
  0
LINE
  5
979
100
AcDbEntity
  8
0
100
AcDbLine
 62
3
  6
CONTINUOUS
 10
5.3970800615
 20
4.158170206
 11
5.3577099828
 21
4.0455885344
  0
LINE
  5
97A
100
AcDbEntity
  8
0
100
AcDbLine
 62
3
  6
CONTINUOUS
 10
5.3682086755
 20
4.0321859541
 11
5.4049540773
 21
4.1313650492
  0
LINE
  5
97B
100
AcDbEntity
  8
02___PRT_ALL_AXES
100
AcDbLine
 62
7
  6
CENTER
 10
6.2635965128
 20
5.1509622042
 11
6.0258012372
 21
5.1509622042
  0
LINE
  5
97C
100
AcDbEntity
  8
02___PRT_ALL_AXES
100
AcDbLine
 62
7
  6
CENTER
 10
5.664421878
 20
5.1509622042
 11
5.4266266024
 21
5.1509622042
  0
LINE
  5
97D
100
AcDbEntity
  8
02___PRT_ALL_AXES
100
AcDbLine
 62
7
  6
CENTER
 10
5.664421878
 20
5.1509622042
 11
5.9022171536
 21
5.1509622042
  0
LINE
  5
97E
100
AcDbEntity
  8
02___PRT_ALL_AXES
100
AcDbLine
 62
7
  6
CENTER
 10
6.2635965128
 20
5.1509622042
 11
6.5013917884
 21
5.1509622042
  0
LINE
  5
97F
100
AcDbEntity
  8
0
100
AcDbLine
 62
3
  6
CONTINUOUS
 10
6.7461613863
 20
4.0321859541
 11
6.7225393391
 21
4.0938378222
  0
LINE
  5
980
100
AcDbEntity
  8
0
100
AcDbLine
 62
3
  6
CONTINUOUS
 10
6.7067913076
 20
4.0884767909
 11
6.727788723
 21
4.0321859541
  0
LINE
  5
981
100
AcDbEntity
  8
0
100
AcDbLine
 62
3
  6
CONTINUOUS
 10
6.7251640911
 20
4.1367260806
 11
6.727788723
 21
4.1286845336
  0
LINE
  5
982
100
AcDbEntity
  8
0
100
AcDbLine
 62
3
  6
CONTINUOUS
 10
6.7435367545
 20
4.1286845336
 11
6.7409121226
 21
4.1367260806
  0
LINE
  5
983
100
AcDbEntity
  8
0
100
AcDbLine
 62
3
  6
CONTINUOUS
 10
6.6254265182
 20
4.1286845336
 11
6.6228018864
 21
4.1394065963
  0
LINE
  5
984
100
AcDbEntity
  8
0
100
AcDbLine
 62
3
  6
CONTINUOUS
 10
6.2632217938
 20
4.1286845336
 11
6.2632217938
 21
4.120642979
  0
LINE
  5
985
100
AcDbEntity
  8
02___PRT_ALL_AXES
100
AcDbLine
 62
7
  6
CENTER
 10
6.2635965128
 20
5.1509622042
 11
6.2635965128
 21
4.9131669286
  0
LINE
  5
986
100
AcDbEntity
  8
02___PRT_ALL_AXES
100
AcDbLine
 62
7
  6
CENTER
 10
6.2635965128
 20
4.3701026173
 11
6.2635965128
 21
4.1323073417
  0
LINE
  5
987
100
AcDbEntity
  8
02___PRT_ALL_AXES
100
AcDbLine
 62
7
  6
CENTER
 10
6.2635965128
 20
4.3701026173
 11
6.2635965128
 21
4.6078978929
  0
LINE
  5
988
100
AcDbEntity
  8
02___PRT_ALL_AXES
100
AcDbLine
 62
7
  6
CENTER
 10
6.2635965128
 20
5.1509622042
 11
6.2635965128
 21
5.3887574798
  0
LINE
  5
989
100
AcDbEntity
  8
0
100
AcDbLine
 62
3
  6
CONTINUOUS
 10
6.2789698253
 20
4.1179624633
 11
6.2789698253
 21
4.1286845336
  0
LINE
  5
98A
100
AcDbEntity
  8
0
100
AcDbLine
 62
3
  6
CONTINUOUS
 10
6.2999672407
 20
4.158170206
 11
6.2999672407
 21
4.0321859541
  0
LINE
  5
98B
100
AcDbEntity
  8
0
100
AcDbLine
 62
3
  6
CONTINUOUS
 10
6.3157152722
 20
4.04826905
 11
6.3157152722
 21
4.158170206
  0
LINE
  5
98C
100
AcDbEntity
  8
0
100
AcDbLine
 62
3
  6
CONTINUOUS
 10
6.3944554297
 20
4.0321859541
 11
6.3944554297
 21
4.04826905
  0
LINE
  5
98D
100
AcDbEntity
  8
0
100
AcDbLine
 62
3
  6
CONTINUOUS
 10
6.4154527249
 20
4.158170206
 11
6.4154527249
 21
4.0884767909
  0
LINE
  5
98E
100
AcDbEntity
  8
0
100
AcDbLine
 62
3
  6
CONTINUOUS
 10
6.4285761245
 20
4.1018793693
 11
6.4285761245
 21
4.1447676276
  0
LINE
  5
98F
100
AcDbEntity
  8
0
100
AcDbLine
 62
3
  6
CONTINUOUS
 10
6.0794947397
 20
4.1045598849
 11
6.0821194316
 21
4.120642979
  0
LINE
  5
990
100
AcDbEntity
  8
0
100
AcDbLine
 62
3
  6
CONTINUOUS
 10
6.0689960921
 20
4.120642979
 11
6.0663714001
 21
4.1072404006
  0
LINE
  5
991
100
AcDbEntity
  8
0
100
AcDbLine
 62
3
  6
CONTINUOUS
 10
5.8432742672
 20
4.1394065963
 11
5.8406496354
 21
4.1286845336
  0
LINE
  5
992
100
AcDbEntity
  8
0
100
AcDbLine
 62
3
  6
CONTINUOUS
 10
5.9561351797
 20
4.1394065963
 11
5.9535104877
 21
4.1286845336
  0
LINE
  5
993
100
AcDbEntity
  8
0
100
AcDbLine
 62
3
  6
CONTINUOUS
 10
5.2684711402
 20
4.0509495657
 11
5.273720479
 21
4.0616716303
  0
LINE
  5
994
100
AcDbEntity
  8
0
100
AcDbLine
 62
3
  6
CONTINUOUS
 10
6.4968176344
 20
4.0750742087
 11
6.4968176344
 21
4.0697131773
  0
LINE
  5
995
100
AcDbEntity
  8
0
100
AcDbLine
 62
3
  6
CONTINUOUS
 10
6.5046916502
 20
4.1447676276
 11
6.5046916502
 21
4.158170206
  0
LINE
  5
996
100
AcDbEntity
  8
0
100
AcDbLine
 62
3
  6
CONTINUOUS
 10
6.5099409139
 20
4.0670326617
 11
6.5099409139
 21
4.0777547244
  0
LINE
  5
997
100
AcDbEntity
  8
0
100
AcDbLine
 62
3
  6
CONTINUOUS
 10
6.5309383293
 20
4.0455885344
 11
6.5309383293
 21
4.0321859541
  0
LINE
  5
998
100
AcDbEntity
  8
0
100
AcDbLine
 62
3
  6
CONTINUOUS
 10
6.6096784867
 20
4.1286845336
 11
6.6096784867
 21
4.1233234947
  0
LINE
  5
999
100
AcDbEntity
  8
0
100
AcDbLine
 62
3
  6
CONTINUOUS
 10
6.6254265182
 20
4.0321859541
 11
6.6254265182
 21
4.0455885344
  0
LINE
  5
99A
100
AcDbEntity
  8
0
100
AcDbLine
 62
3
  6
CONTINUOUS
 10
6.6254265182
 20
4.1233234947
 11
6.6254265182
 21
4.1286845336
  0
LINE
  5
99B
100
AcDbEntity
  8
0
100
AcDbLine
 62
3
  6
CONTINUOUS
 10
6.1477362495
 20
4.0857962752
 11
6.1451115576
 21
4.0697131773
  0
LINE
  5
99C
100
AcDbEntity
  8
0
100
AcDbLine
 62
3
  6
CONTINUOUS
 10
6.1582348972
 20
4.0697131773
 11
6.1608595891
 21
4.0831157595
  0
LINE
  5
99D
100
AcDbEntity
  8
0
100
AcDbLine
 62
3
  6
CONTINUOUS
 10
6.0401246609
 20
4.112601432
 11
6.0427493529
 21
4.1233234947
  0
LINE
  5
99E
100
AcDbEntity
  8
0
100
AcDbLine
 62
3
  6
CONTINUOUS
 10
5.8563976669
 20
4.1260040104
 11
5.8590222987
 21
4.1340455649
  0
LINE
  5
99F
100
AcDbEntity
  8
0
100
AcDbLine
 62
3
  6
CONTINUOUS
 10
5.788156157
 20
4.158170206
 11
5.7487860783
 21
4.0455885344
  0
LINE
  5
9A0
100
AcDbEntity
  8
0
100
AcDbLine
 62
3
  6
CONTINUOUS
 10
5.759284786
 20
4.0321859541
 11
5.7960301728
 21
4.1313650492
  0
LINE
  5
9A1
100
AcDbEntity
  8
0
100
AcDbLine
 62
3
  6
CONTINUOUS
 10
5.2579724475
 20
4.064352146
 11
5.2527231087
 21
4.0563105989
  0
LINE
  5
9A2
100
AcDbEntity
  8
0
100
AcDbLine
 62
3
  6
CONTINUOUS
 10
6.6464239336
 20
4.158170206
 11
6.6464239336
 21
4.0321859541
  0
LINE
  5
9A3
100
AcDbEntity
  8
0
100
AcDbLine
 62
3
  6
CONTINUOUS
 10
6.6621719651
 20
4.0321859541
 11
6.6621719651
 21
4.0884767909
  0
LINE
  5
9A4
100
AcDbEntity
  8
0
100
AcDbLine
 62
3
  6
CONTINUOUS
 10
6.6621719651
 20
4.1045598849
 11
6.6621719651
 21
4.1447676276
  0
LINE
  5
9A5
100
AcDbEntity
  8
0
100
AcDbLine
 62
3
  6
CONTINUOUS
 10
6.727788723
 20
4.1286845336
 11
6.727788723
 21
4.120642979
  0
LINE
  5
9A6
100
AcDbEntity
  8
0
100
AcDbLine
 62
3
  6
CONTINUOUS
 10
6.7435367545
 20
4.1179624633
 11
6.7435367545
 21
4.1286845336
  0
LINE
  5
9A7
100
AcDbEntity
  8
0
100
AcDbLine
 62
3
  6
CONTINUOUS
 10
6.0427493529
 20
4.0536300814
 11
6.0453740448
 21
4.0616716303
  0
LINE
  5
9A8
100
AcDbEntity
  8
0
100
AcDbLine
 62
3
  6
CONTINUOUS
 10
6.0716207239
 20
4.1286845336
 11
6.0689960921
 21
4.120642979
  0
LINE
  5
9A9
100
AcDbEntity
  8
0
100
AcDbLine
 62
3
  6
CONTINUOUS
 10
6.1556102653
 20
4.0616716303
 11
6.1582348972
 21
4.0697131773
  0
LINE
  5
9AA
100
AcDbEntity
  8
0
100
AcDbLine
 62
3
  6
CONTINUOUS
 10
6.9876312426
 20
4.1109261116
 11
6.9876312426
 21
5.6857292612
  0
LINE
  5
9AB
100
AcDbEntity
  8
0
100
AcDbLine
 62
3
  6
CONTINUOUS
 10
6.5361877131
 20
4.1394065963
 11
6.5335629611
 21
4.1286845336
  0
LINE
  5
9AC
100
AcDbEntity
  8
0
100
AcDbLine
 62
3
  6
CONTINUOUS
 10
6.2632217938
 20
4.120642979
 11
6.260597162
 21
4.112601432
  0
LINE
  5
9AD
100
AcDbEntity
  8
0
100
AcDbLine
 62
3
  6
CONTINUOUS
 10
6.2763451935
 20
4.1099209163
 11
6.2789698253
 21
4.1179624633
  0
LINE
  5
9AE
100
AcDbEntity
  8
0
100
AcDbLine
 62
3
  6
CONTINUOUS
 10
5.9246391167
 20
4.0509495657
 11
5.9298884405
 21
4.0616716303
  0
LINE
  5
9AF
100
AcDbEntity
  8
0
100
AcDbLine
 62
3
  6
CONTINUOUS
 10
6.0296260133
 20
4.1233234947
 11
6.0243766294
 21
4.112601432
  0
LINE
  5
9B0
100
AcDbEntity
  8
0
100
AcDbLine
 62
3
  6
CONTINUOUS
 10
6.0322506452
 20
4.0616716303
 11
6.0296260133
 21
4.0563105989
  0
LINE
  5
9B1
100
AcDbEntity
  8
0
100
AcDbLine
 62
3
  6
CONTINUOUS
 10
6.0768701078
 20
4.1394065963
 11
6.0716207239
 21
4.1286845336
  0
LINE
  5
9B2
100
AcDbEntity
  8
0
100
AcDbLine
 62
3
  6
CONTINUOUS
 10
5.5283136674
 20
4.0991988536
 11
5.5361876831
 21
4.1099209163
  0
LINE
  5
9B3
100
AcDbEntity
  8
0
100
AcDbLine
 62
3
  6
CONTINUOUS
 10
5.5283136674
 20
4.0429080177
 11
5.5361876831
 21
4.0536300814
  0
LINE
  5
9B4
100
AcDbEntity
  8
0
100
AcDbLine
 62
3
  6
CONTINUOUS
 10
5.1976049966
 20
4.150128659
 11
5.1871063086
 21
4.1394065963
  0
LINE
  5
9B5
100
AcDbEntity
  8
0
100
AcDbLine
 62
3
  6
CONTINUOUS
 10
7.2238517151
 20
5.9219497336
 11
8.7986548647
 21
5.9219497336
  0
LINE
  5
9B6
100
AcDbEntity
  8
0
100
AcDbLine
 62
3
  6
CONTINUOUS
 10
6.6228018864
 20
4.112601432
 11
6.6254265182
 21
4.1233234947
  0
LINE
  5
9B7
100
AcDbEntity
  8
0
100
AcDbLine
 62
3
  6
CONTINUOUS
 10
6.4968176344
 20
4.0697131773
 11
6.4941928824
 21
4.0616716303
  0
LINE
  5
9B8
100
AcDbEntity
  8
0
100
AcDbLine
 62
3
  6
CONTINUOUS
 10
6.1503608814
 20
4.0509495657
 11
6.1556102653
 21
4.0616716303
  0
LINE
  5
9B9
100
AcDbEntity
  8
0
100
AcDbLine
 62
3
  6
CONTINUOUS
 10
5.914140409
 20
4.064352146
 11
5.9088910852
 21
4.0563105989
  0
LINE
  5
9BA
100
AcDbEntity
  8
0
100
AcDbLine
 62
3
  6
CONTINUOUS
 10
5.9666338873
 20
4.1286845336
 11
5.9718832112
 21
4.1367260806
  0
LINE
  5
9BB
100
AcDbEntity
  8
0
100
AcDbLine
 62
3
  6
CONTINUOUS
 10
6.0348753371
 20
4.1045598849
 11
6.0401246609
 21
4.112601432
  0
LINE
  5
9BC
100
AcDbEntity
  8
0
100
AcDbLine
 62
3
  6
CONTINUOUS
 10
5.2579724475
 20
4.0402275021
 11
5.2684711402
 21
4.0509495657
  0
LINE
  5
9BD
100
AcDbEntity
  8
0
100
AcDbLine
 62
3
  6
CONTINUOUS
 10
5.5204396516
 20
4.112601432
 11
5.5151902978
 21
4.1072404006
  0
LINE
  5
9BE
100
AcDbEntity
  8
0
100
AcDbLine
 62
3
  6
CONTINUOUS
 10
6.727788723
 20
4.120642979
 11
6.7251640911
 21
4.112601432
  0
LINE
  5
9BF
100
AcDbEntity
  8
0
100
AcDbLine
 62
3
  6
CONTINUOUS
 10
6.7409121226
 20
4.1099209163
 11
6.7435367545
 21
4.1179624633
  0
LINE
  5
9C0
100
AcDbEntity
  8
0
100
AcDbLine
 62
3
  6
CONTINUOUS
 10
6.5046916502
 20
4.0536300814
 11
6.5099409139
 21
4.0670326617
  0
LINE
  5
9C1
100
AcDbEntity
  8
0
100
AcDbLine
 62
3
  6
CONTINUOUS
 10
6.0821194316
 20
4.120642979
 11
6.0926181393
 21
4.1367260806
  0
LINE
  5
9C2
100
AcDbEntity
  8
0
100
AcDbLine
 62
3
  6
CONTINUOUS
 10
6.0375000291
 20
4.0455885344
 11
6.0427493529
 21
4.0536300814
  0
LINE
  5
9C3
100
AcDbEntity
  8
0
100
AcDbLine
 62
3
  6
CONTINUOUS
 10
6.1451115576
 20
4.0697131773
 11
6.1346128499
 21
4.0536300814
  0
LINE
  5
9C4
100
AcDbEntity
  8
0
100
AcDbLine
 62
3
  6
CONTINUOUS
 10
5.5204396516
 20
4.0563105989
 11
5.5151902978
 21
4.0509495657
  0
LINE
  5
9C5
100
AcDbEntity
  8
0
100
AcDbLine
 62
3
  6
CONTINUOUS
 10
6.6096784867
 20
4.1233234947
 11
6.6044291029
 21
4.112601432
  0
LINE
  5
9C6
100
AcDbEntity
  8
0
100
AcDbLine
 62
3
  6
CONTINUOUS
 10
6.4941928824
 20
4.0616716303
 11
6.4889436187
 21
4.0536300814
  0
LINE
  5
9C7
100
AcDbEntity
  8
0
100
AcDbLine
 62
3
  6
CONTINUOUS
 10
6.2684711777
 20
4.0991988536
 11
6.2763451935
 21
4.1099209163
  0
LINE
  5
9C8
100
AcDbEntity
  8
0
100
AcDbLine
 62
3
  6
CONTINUOUS
 10
5.8537729749
 20
4.150128659
 11
5.8432742672
 21
4.1394065963
  0
LINE
  5
9C9
100
AcDbEntity
  8
0
100
AcDbLine
 62
3
  6
CONTINUOUS
 10
5.9666338873
 20
4.150128659
 11
5.9561351797
 21
4.1394065963
  0
LINE
  5
9CA
100
AcDbEntity
  8
0
100
AcDbLine
 62
3
  6
CONTINUOUS
 10
5.914140409
 20
4.0402275021
 11
5.9246391167
 21
4.0509495657
  0
LINE
  5
9CB
100
AcDbEntity
  8
0
100
AcDbLine
 62
3
  6
CONTINUOUS
 10
6.0243766294
 20
4.112601432
 11
6.0191273056
 21
4.1072404006
  0
LINE
  5
9CC
100
AcDbEntity
  8
0
100
AcDbLine
 62
3
  6
CONTINUOUS
 10
6.0847441236
 20
4.1474481433
 11
6.0768701078
 21
4.1394065963
  0
LINE
  5
9CD
100
AcDbEntity
  8
0
100
AcDbLine
 62
3
  6
CONTINUOUS
 10
5.5178149597
 20
4.03486647
 11
5.5283136674
 21
4.0429080177
  0
LINE
  5
9CE
100
AcDbEntity
  8
0
100
AcDbLine
 62
3
  6
CONTINUOUS
 10
5.2028543391
 20
4.1340455649
 11
5.2107283568
 21
4.1394065963
  0
LINE
  5
9CF
100
AcDbEntity
  8
0
100
AcDbLine
 62
3
  6
CONTINUOUS
 10
5.2527231087
 20
4.0563105989
 11
5.2448490929
 21
4.0509495657
  0
LINE
  5
9D0
100
AcDbEntity
  8
0
100
AcDbLine
 62
3
  6
CONTINUOUS
 10
6.5466863608
 20
4.1286845336
 11
6.5519357446
 21
4.1367260806
  0
LINE
  5
9D1
100
AcDbEntity
  8
0
100
AcDbLine
 62
3
  6
CONTINUOUS
 10
6.6175525025
 20
4.1045598849
 11
6.6228018864
 21
4.112601432
  0
LINE
  5
9D2
100
AcDbEntity
  8
0
100
AcDbLine
 62
3
  6
CONTINUOUS
 10
6.4968176344
 20
4.0429080177
 11
6.5046916502
 21
4.0536300814
  0
LINE
  5
9D3
100
AcDbEntity
  8
0
100
AcDbLine
 62
3
  6
CONTINUOUS
 10
6.0296260133
 20
4.0563105989
 11
6.0243766294
 21
4.0509495657
  0
LINE
  5
9D4
100
AcDbEntity
  8
0
100
AcDbLine
 62
3
  6
CONTINUOUS
 10
6.1424868657
 20
4.0429080177
 11
6.1503608814
 21
4.0509495657
  0
LINE
  5
9D5
100
AcDbEntity
  8
0
100
AcDbLine
 62
3
  6
CONTINUOUS
 10
6.260597162
 20
4.112601432
 11
6.2553477781
 21
4.1072404006
  0
LINE
  5
9D6
100
AcDbEntity
  8
0
100
AcDbLine
 62
3
  6
CONTINUOUS
 10
5.2081036836
 20
4.1554896904
 11
5.1976049966
 21
4.150128659
  0
LINE
  5
9D7
100
AcDbEntity
  8
0
100
AcDbLine
 62
3
  6
CONTINUOUS
 10
6.7330381068
 20
4.0991988536
 11
6.7409121226
 21
4.1099209163
  0
LINE
  5
9D8
100
AcDbEntity
  8
0
100
AcDbLine
 62
3
  6
CONTINUOUS
 10
6.5466863608
 20
4.150128659
 11
6.5361877131
 21
4.1394065963
  0
LINE
  5
9D9
100
AcDbEntity
  8
0
100
AcDbLine
 62
3
  6
CONTINUOUS
 10
6.0243766294
 20
4.0965183379
 11
6.0348753371
 21
4.1045598849
  0
LINE
  5
9DA
100
AcDbEntity
  8
0
100
AcDbLine
 62
3
  6
CONTINUOUS
 10
5.8590222987
 20
4.1340455649
 11
5.8668963145
 21
4.1394065963
  0
LINE
  5
9DB
100
AcDbEntity
  8
0
100
AcDbLine
 62
3
  6
CONTINUOUS
 10
5.9718832112
 20
4.1367260806
 11
5.9797572269
 21
4.142087112
  0
LINE
  5
9DC
100
AcDbEntity
  8
0
100
AcDbLine
 62
3
  6
CONTINUOUS
 10
5.9088910852
 20
4.0563105989
 11
5.9010170694
 21
4.0509495657
  0
LINE
  5
9DD
100
AcDbEntity
  8
0
100
AcDbLine
 62
3
  6
CONTINUOUS
 10
6.0926181393
 20
4.1367260806
 11
6.1004921551
 21
4.142087112
  0
LINE
  5
9DE
100
AcDbEntity
  8
0
100
AcDbLine
 62
3
  6
CONTINUOUS
 10
5.2474737623
 20
4.03486647
 11
5.2579724475
 21
4.0402275021
  0
LINE
  5
9DF
100
AcDbEntity
  8
0
100
AcDbLine
 62
3
  6
CONTINUOUS
 10
5.5230643135
 20
4.0965183379
 11
5.5283136674
 21
4.0991988536
  0
LINE
  5
9E0
100
AcDbEntity
  8
0
100
AcDbLine
 62
3
  6
CONTINUOUS
 10
6.7251640911
 20
4.112601432
 11
6.7199147072
 21
4.1072404006
  0
LINE
  5
9E1
100
AcDbEntity
  8
0
100
AcDbLine
 62
3
  6
CONTINUOUS
 10
6.6044291029
 20
4.112601432
 11
6.5309383293
 21
4.0455885344
  0
LINE
  5
9E2
100
AcDbEntity
  8
0
100
AcDbLine
 62
3
  6
CONTINUOUS
 10
6.5519357446
 20
4.0455885344
 11
6.6175525025
 21
4.1045598849
  0
LINE
  5
9E3
100
AcDbEntity
  8
0
100
AcDbLine
 62
3
  6
CONTINUOUS
 10
6.2579724099
 20
4.0911573065
 11
6.2684711777
 21
4.0991988536
  0
LINE
  5
9E4
100
AcDbEntity
  8
0
100
AcDbLine
 62
3
  6
CONTINUOUS
 10
6.4338255084
 20
4.0884767909
 11
6.444324156
 21
4.0965183379
  0
LINE
  5
9E5
100
AcDbEntity
  8
0
100
AcDbLine
 62
3
  6
CONTINUOUS
 10
6.0296260133
 20
4.0402275021
 11
6.0375000291
 21
4.0455885344
  0
LINE
  5
9E6
100
AcDbEntity
  8
0
100
AcDbLine
 62
3
  6
CONTINUOUS
 10
6.1346128499
 20
4.0536300814
 11
6.1267388342
 21
4.04826905
  0
LINE
  5
9E7
100
AcDbEntity
  8
0
100
AcDbLine
 62
3
  6
CONTINUOUS
 10
6.0978674631
 20
4.1554896904
 11
6.0847441236
 21
4.1474481433
  0
LINE
  5
9E8
100
AcDbEntity
  8
0
100
AcDbLine
 62
3
  6
CONTINUOUS
 10
6.1293635261
 20
4.03486647
 11
6.1424868657
 21
4.0429080177
  0
LINE
  5
9E9
100
AcDbEntity
  8
0
100
AcDbLine
 62
3
  6
CONTINUOUS
 10
5.8642716826
 20
4.1554896904
 11
5.8537729749
 21
4.150128659
  0
LINE
  5
9EA
100
AcDbEntity
  8
0
100
AcDbLine
 62
3
  6
CONTINUOUS
 10
5.977132535
 20
4.1554896904
 11
5.9666338873
 21
4.150128659
  0
LINE
  5
9EB
100
AcDbEntity
  8
0
100
AcDbLine
 62
3
  6
CONTINUOUS
 10
5.2107283568
 20
4.1394065963
 11
5.2186023725
 21
4.142087112
  0
LINE
  5
9EC
100
AcDbEntity
  8
02___PRT_ALL_AXES
100
AcDbLine
 62
7
  6
CENTER
 10
5.9640091954
 20
6.9455717808
 11
5.2537729749
 21
6.9455717808
  0
LINE
  5
9ED
100
AcDbEntity
  8
02___PRT_ALL_AXES
100
AcDbLine
 62
7
  6
CENTER
 10
5.9640091954
 20
6.9455717808
 11
6.6742454159
 21
6.9455717808
  0
LINE
  5
9EE
100
AcDbEntity
  8
0
100
AcDbLine
 62
3
  6
CONTINUOUS
 10
6.5519357446
 20
4.1367260806
 11
6.5598097604
 21
4.142087112
  0
LINE
  5
9EF
100
AcDbEntity
  8
0
100
AcDbLine
 62
3
  6
CONTINUOUS
 10
6.4889436187
 20
4.0536300814
 11
6.4810696029
 21
4.04826905
  0
LINE
  5
9F0
100
AcDbEntity
  8
0
100
AcDbLine
 62
3
  6
CONTINUOUS
 10
6.4416995242
 20
4.1099209163
 11
6.4285761245
 21
4.1018793693
  0
LINE
  5
9F1
100
AcDbEntity
  8
0
100
AcDbLine
 62
3
  6
CONTINUOUS
 10
6.4836942348
 20
4.03486647
 11
6.4968176344
 21
4.0429080177
  0
LINE
  5
9F2
100
AcDbEntity
  8
0
100
AcDbLine
 62
3
  6
CONTINUOUS
 10
5.9036417614
 20
4.03486647
 11
5.914140409
 21
4.0402275021
  0
LINE
  5
9F3
100
AcDbEntity
  8
0
100
AcDbLine
 62
3
  6
CONTINUOUS
 10
6.0243766294
 20
4.0509495657
 11
6.0191273056
 21
4.04826905
  0
LINE
  5
9F4
100
AcDbEntity
  8
0
100
AcDbLine
 62
3
  6
CONTINUOUS
 10
6.0191273056
 20
4.03486647
 11
6.0296260133
 21
4.0402275021
  0
LINE
  5
9F5
100
AcDbEntity
  8
0
100
AcDbLine
 62
3
  6
CONTINUOUS
 10
5.5151902978
 20
4.1072404006
 11
5.507316282
 21
4.1045598849
  0
LINE
  5
9F6
100
AcDbEntity
  8
0
100
AcDbLine
 62
3
  6
CONTINUOUS
 10
5.5151902978
 20
4.0509495657
 11
5.507316282
 21
4.04826905
  0
LINE
  5
9F7
100
AcDbEntity
  8
0
100
AcDbLine
 62
3
  6
CONTINUOUS
 10
5.8668963145
 20
4.1394065963
 11
5.8747703302
 21
4.142087112
  0
LINE
  5
9F8
100
AcDbEntity
  8
0
100
AcDbLine
 62
3
  6
CONTINUOUS
 10
6.5571850084
 20
4.1554896904
 11
6.5466863608
 21
4.150128659
  0
LINE
  5
9F9
100
AcDbEntity
  8
0
100
AcDbLine
 62
3
  6
CONTINUOUS
 10
6.7225393391
 20
4.0938378222
 11
6.7330381068
 21
4.0991988536
  0
LINE
  5
9FA
100
AcDbEntity
  8
0
100
AcDbLine
 62
3
  6
CONTINUOUS
 10
6.0191273056
 20
4.1072404006
 11
6.0033792741
 21
4.1018793693
  0
LINE
  5
9FB
100
AcDbEntity
  8
0
100
AcDbLine
 62
3
  6
CONTINUOUS
 10
6.2553477781
 20
4.1072404006
 11
6.2474737623
 21
4.1045598849
  0
LINE
  5
9FC
100
AcDbEntity
  8
0
100
AcDbLine
 62
3
  6
CONTINUOUS
 10
6.7199147072
 20
4.1072404006
 11
6.7120406915
 21
4.1045598849
  0
LINE
  5
9FD
100
AcDbEntity
  8
0
100
AcDbLine
 62
3
  6
CONTINUOUS
 10
9.0348753371
 20
6.158170206
 11
9.0348753371
 21
7.7329733556
  0
LINE
  5
9FE
100
AcDbEntity
  8
0
100
AcDbLine
 62
3
  6
CONTINUOUS
 10
8.7986548647
 20
7.9691938281
 11
5.1766076206
 21
7.9691938281
  0
LINE
  5
9FF
100
AcDbEntity
  8
0
100
AcDbLine
 62
7
  6
CONTINUOUS
 10
1.349423366
 20
3.8747056391
 11
1.4517855707
 21
3.8747056391
  0
LINE
  5
A00
100
AcDbEntity
  8
0
100
AcDbLine
 62
9
  6
CONTINUOUS
 10
1.349423366
 20
4.1109261116
 11
1.4517855707
 21
4.1109261116
  0
LINE
  5
A01
100
AcDbEntity
  8
0
100
AcDbLine
 62
7
  6
CONTINUOUS
 10
1.349423366
 20
3.8747056391
 11
1.349423366
 21
7.9691938281
  0
LINE
  5
A02
100
AcDbEntity
  8
0
100
AcDbLine
 62
3
  6
CONTINUOUS
 10
1.4517855707
 20
7.9691938281
 11
1.4517855707
 21
3.8747056391
  0
LINE
  5
A03
100
AcDbEntity
  8
0
100
AcDbLine
 62
9
  6
CONTINUOUS
 10
1.349423366
 20
7.7329733556
 11
1.4517855707
 21
7.7329733556
  0
LINE
  5
A04
100
AcDbEntity
  8
0
100
AcDbLine
 62
7
  6
CONTINUOUS
 10
1.349423366
 20
7.9691938281
 11
1.4517855707
 21
7.9691938281
  0
CIRCLE
  5
A05
100
AcDbEntity
  8
SKETCHED_ENT
100
AcDbCircle
 62
2
  6
CENTER
 10
5.9640091954
 20
4.7605324108
 40
0.4921259843
  0
CIRCLE
  5
A06
100
AcDbEntity
  8
0
100
AcDbCircle
 62
7
  6
CONTINUOUS
 10
10.5342808475
 20
1.243294839
 40
0.252091
  0
CIRCLE
  5
A07
100
AcDbEntity
  8
0
100
AcDbCircle
 62
7
  6
CONTINUOUS
 10
10.5342808475
 20
1.243294839
 40
0.182698
  0
ARC
  5
A08
100
AcDbEntity
  8
02___PRT_ALL_AXES
100
AcDbCircle
 62
3
  6
CONTINUOUS
 10
5.9640091954
 20
4.7605324108
 40
0.6299212598
100
AcDbArc
 50
127.5
 51
232.5
  0
ARC
  5
A09
100
AcDbEntity
  8
02___PRT_ALL_AXES
100
AcDbCircle
 62
3
  6
CONTINUOUS
 10
5.9640091954
 20
4.7605324108
 40
0.6299212598
100
AcDbArc
 50
307.5
 51
52.5
  0
CIRCLE
  5
A0A
100
AcDbEntity
  8
02___PRT_ALL_AXES
100
AcDbCircle
 62
3
  6
CONTINUOUS
 10
5.9640091954
 20
6.9455717808
 40
0.6102362205
  0
ARC
  5
A0B
100
AcDbEntity
  8
02___PRT_ALL_AXES
100
AcDbCircle
 62
3
  6
CONTINUOUS
 10
5.9640091954
 20
4.7605324108
 40
0.3543307087
100
AcDbArc
 50
127.5
 51
232.5
  0
ARC
  5
A0C
100
AcDbEntity
  8
02___PRT_ALL_AXES
100
AcDbCircle
 62
3
  6
CONTINUOUS
 10
5.9640091954
 20
4.7605324108
 40
0.3543307087
100
AcDbArc
 50
307.5
 51
52.5
  0
ARC
  5
A0D
100
AcDbEntity
  8
0
100
AcDbCircle
 62
3
  6
CONTINUOUS
 10
6.7514107702
 20
4.1109261116
 40
0.2362204724
100
AcDbArc
 50
270.0
 51
360.0
  0
ARC
  5
A0E
100
AcDbEntity
  8
0
100
AcDbCircle
 62
3
  6
CONTINUOUS
 10
5.1766076206
 20
4.1109261116
 40
0.2362204724
100
AcDbArc
 50
180.0
 51
270.0
  0
ARC
  5
A0F
100
AcDbEntity
  8
0
100
AcDbCircle
 62
3
  6
CONTINUOUS
 10
5.1766076206
 20
7.7329733556
 40
0.2362204724
100
AcDbArc
 50
90.0
 51
180.0
  0
ARC
  5
A10
100
AcDbEntity
  8
0
100
AcDbCircle
 62
3
  6
CONTINUOUS
 10
8.7986548647
 20
7.7329733556
 40
0.2362204724
100
AcDbArc
 50
0.0
 51
90.0
  0
ARC
  5
A11
100
AcDbEntity
  8
0
100
AcDbCircle
 62
3
  6
CONTINUOUS
 10
8.7986548647
 20
6.158170206
 40
0.2362204724
100
AcDbArc
 50
270.0
 51
360.0
  0
ARC
  5
A12
100
AcDbEntity
  8
0
100
AcDbCircle
 62
3
  6
CONTINUOUS
 10
7.2238517151
 20
5.6857292612
 40
0.2362204724
100
AcDbArc
 50
90.0
 51
180.0
  0
ARC
  5
A13
100
AcDbEntity
  8
02___PRT_ALL_AXES
100
AcDbCircle
 62
3
  6
CONTINUOUS
 10
5.664421878
 20
5.1509622042
 40
0.1377952756
100
AcDbArc
 50
307.5
 51
127.5
  0
ARC
  5
A14
100
AcDbEntity
  8
02___PRT_ALL_AXES
100
AcDbCircle
 62
3
  6
CONTINUOUS
 10
5.664421878
 20
4.3701026173
 40
0.1377952756
100
AcDbArc
 50
232.5
 51
52.5
  0
ARC
  5
A15
100
AcDbEntity
  8
02___PRT_ALL_AXES
100
AcDbCircle
 62
3
  6
CONTINUOUS
 10
6.2635965128
 20
5.1509622042
 40
0.1377952756
100
AcDbArc
 50
52.5
 51
232.5
  0
ARC
  5
A16
100
AcDbEntity
  8
02___PRT_ALL_AXES
100
AcDbCircle
 62
3
  6
CONTINUOUS
 10
6.2635965128
 20
4.3701026173
 40
0.1377952756
100
AcDbArc
 50
127.5
 51
307.5
  0
CIRCLE
  5
A17
100
AcDbEntity
  8
02___PRT_ALL_AXES
100
AcDbCircle
 62
3
  6
CONTINUOUS
 10
5.9640091954
 20
4.7605324108
 40
0.1285433071
  0
ENDSEC
  0
SECTION
  2
OBJECTS
  0
DICTIONARY
  5
C
100
AcDbDictionary
280
0
281
1
  3
ACAD_GROUP
350
D
  3
ACAD_MLINESTYLE
350
17
  3
ACAD_LAYOUT
350
1A
  3
ACAD_PLOTSETTINGS
350
19
  3
ACAD_PLOTSTYLENAME
350
E
  0
DICTIONARY
  5
D
102
{ACAD_REACTORS
330
C
102
}
100
AcDbDictionary
280
0
281
1
  0
ACDBDICTIONARYWDFLT
  5
E
102
{ACAD_REACTORS
330
C
102
}
100
AcDbDictionary
281
1
  3
Normal
350
F
100
AcDbDictionaryWithDefault
340
F
  0
DICTIONARY
  5
17
102
{ACAD_REACTORS
330
C
102
}
100
AcDbDictionary
280
0
281
1
  3
Standard
350
18
  0
DICTIONARY
  5
19
102
{ACAD_REACTORS
330
C
102
}
100
AcDbDictionary
281
1
  0
DICTIONARY
  5
1A
102
{ACAD_REACTORS
330
C
102
}
100
AcDbDictionary
281
1
  3
Layout1
350
1E
  3
Model
350
22
  0
ACDBPLACEHOLDER
  5
F
102
{ACAD_REACTORS
330
E
102
}
  0
MLINESTYLE
  5
18
102
{ACAD_REACTORS
330
17
102
}
100
AcDbMlineStyle
  2
STANDARD
 70
0
  3

 62
256
 51
90.0
 52
90.0
 71
2
 49
0.5
 62
256
  6
BYLAYER
 49
-0.5
 62
256
  6
BYLAYER
  0
LAYOUT
  5
1E
102
{ACAD_REACTORS
330
1A
102
}
100
AcDbPlotSettings
  1

  2

  4

  6

 40
0.0
 41
0.0
 42
0.0
 43
0.0
 44
0.0
 45
0.0
 46
0.0
 47
0.0
 48
0.0
 49
0.0
140
0.0
141
0.0
142
1.0
143
1.0
 70
0
 72
0
 73
0
 74
0
  7

 75
0
147
1.0
148
0.0
149
0.0
100
AcDbLayout
  1
Layout1
 70
0
 71
0
 10
0.0
 20
0.0
 11
0.0
 21
0.0
 12
0.0
 22
0.0
 32
0.0
 14
0.0
 24
0.0
 34
0.0
 15
0.0
 25
0.0
 35
0.0
146
0.0
 13
0.0
 23
0.0
 33
0.0
 16
0.0
 26
0.0
 36
0.0
 17
0.0
 27
0.0
 37
0.0
 76
0
330
1B
331
0
345
0
346
0
  0
LAYOUT
  5
22
102
{ACAD_REACTORS
330
1A
102
}
100
AcDbPlotSettings
  1

  2

  4

  6

 40
0.0
 41
0.0
 42
0.0
 43
0.0
 44
0.0
 45
0.0
 46
0.0
 47
0.0
 48
0.0
 49
0.0
140
0.0
141
0.0
142
1.0
143
1.0
 70
0
 72
0
 73
0
 74
0
  7

 75
0
147
1.0
148
0.0
149
0.0
100
AcDbLayout
  1
Model
 70
0
 71
0
 10
0.0
 20
0.0
 11
0.0
 21
0.0
 12
0.0
 22
0.0
 32
0.0
 14
0.0
 24
0.0
 34
0.0
 15
0.0
 25
0.0
 35
0.0
146
0.0
 13
0.0
 23
0.0
 33
0.0
 16
0.0
 26
0.0
 36
0.0
 17
0.0
 27
0.0
 37
0.0
 76
0
330
1F
331
0
345
0
346
0
  0
ENDSEC
  0
EOF
