999
DXF file: 141764_1.dxf
999
Pro/ENGINEER 2006170 by Parametric Technology Corporation
  0
SECTION
  2
HEADER
  9
$ACADVER
  1
AC1015
  9
$DWGCODEPAGE
  3
ANSI_1252
  9
$EXTMAX
 10
17.0
 20
11.0
 30
0.0
  9
$EXTMIN
 10
0.0
 20
0.0
 30
0.0
  9
$LIMMIN
 10
0.0
 20
0.0
  9
$LIMMAX
 10
17.0
 20
11.0
  9
$VIEWCTR
 10
8.5
 20
5.5
  9
$VIEWSIZE
 40
11.0
  9
$CLAYER
  8
0
  9
$LTSCALE
 40
0.935
  9
$CELTYPE
  6
BYLAYER
  9
$DIMSCALE
 40
1.0
  9
$DIMASZ
 40
0.1875
  9
$DIMEXO
 40
0.10625
  9
$DIMDLI
 40
0.646
  9
$DIMEXE
 40
0.306
  9
$DIMCEN
 40
0.153
  9
$DIMLFAC
 40
1.0
  9
$DIMBLK
  1
_FILLED
  9
$DIMTXT
 40
0.1
  9
$DIMTOL
 70
1
  9
$DIMLIM
 70
0
  9
$DIMTFAC
 40
1.0
  9
$DIMTP
 40
0.005
  9
$DIMTM
 40
0.005
  9
$PDMODE
 70
3
  9
$PDSIZE
 40
0.3125
  9
$HANDSEED
  5
61F
  9
$MEASUREMENT
 70
0
  9
$INSUNITS
 70
1
  0
ENDSEC
  0
SECTION
  2
CLASSES
  0
CLASS
  1
ACDBDICTIONARYWDFLT
  2
AcDbDictionaryWithDefault
  3
AutoCAD 2000
 90
0
280
0
281
0
  0
CLASS
  1
ACDBPLACEHOLDER
  2
AcDbPlaceHolder
  3
AutoCAD 2000
 90
0
280
0
281
0
  0
CLASS
  1
LAYOUT
  2
AcDbLayout
  3
AutoCAD 2000
 90
0
280
0
281
0
  0
ENDSEC
  0
SECTION
  2
TABLES
  0
TABLE
  2
VPORT
  5
8
100
AcDbSymbolTable
 70
2
  0
VPORT
  5
1F4
100
AcDbSymbolTableRecord
100
AcDbViewportTableRecord
  2
*ACTIVE
 70
0
 10
0.0
 20
0.0
 11
1.0
 21
1.0
 12
8.5
 22
5.5
 13
0.0
 23
0.0
 14
1.0
 24
1.0
 15
0.0
 25
0.0
 16
0.0
 26
0.0
 36
1.0
 17
0.0
 27
0.0
 37
0.0
 40
11.0
 41
1.5454545455
 42
50.0
 43
0.0
 44
0.0
 50
0.0
 51
0.0
 71
0
 72
100
 73
1
 74
1
 75
0
 76
0
 77
0
 78
0
  0
ENDTAB
  0
TABLE
  2
LTYPE
  5
5
100
AcDbSymbolTable
 70
6
  0
LTYPE
  5
14
100
AcDbSymbolTableRecord
100
AcDbLinetypeTableRecord
  2
BYBLOCK
 70
0
  3

 72
65
 73
0
 40
0.0
  0
LTYPE
  5
15
100
AcDbSymbolTableRecord
100
AcDbLinetypeTableRecord
  2
BYLAYER
 70
0
  3

 72
65
 73
0
 40
0.0
  0
LTYPE
  5
16
100
AcDbSymbolTableRecord
100
AcDbLinetypeTableRecord
  2
CONTINUOUS
 70
64
  3
Solid line
 72
65
 73
0
 40
0.0
  0
LTYPE
  5
1F5
100
AcDbSymbolTableRecord
100
AcDbLinetypeTableRecord
  2
CENTER
 70
64
  3
____ _ ____ _ ____ _ ____ _ ____ _ ____ _ ____
 72
65
 73
4
 40
0.6
 49
0.375
 74
0
 49
-0.075
 74
0
 49
0.075
 74
0
 49
-0.075
 74
0
  0
LTYPE
  5
1F6
100
AcDbSymbolTableRecord
100
AcDbLinetypeTableRecord
  2
HIDDEN
 70
64
  3
- - - - - - - - - - - - - - - - - - - -
 72
65
 73
2
 40
0.2
 49
0.1
 74
0
 49
-0.1
 74
0
  0
LTYPE
  5
1F7
100
AcDbSymbolTableRecord
100
AcDbLinetypeTableRecord
  2
PHANTOM
 70
64
  3
_____ _ _ _____ _ _ _____ _ _ _____
 72
65
 73
6
 40
0.8
 49
0.45
 74
0
 49
-0.05
 74
0
 49
0.1
 74
0
 49
-0.05
 74
0
 49
0.1
 74
0
 49
-0.05
 74
0
  0
LTYPE
  5
1F8
100
AcDbSymbolTableRecord
100
AcDbLinetypeTableRecord
  2
DOT
 70
64
  3
. . . . . . . . . . . . . . . . . . . .
 72
65
 73
2
 40
0.2
 49
0.1
 74
0
 49
-0.1
 74
0
  0
LTYPE
  5
1F9
100
AcDbSymbolTableRecord
100
AcDbLinetypeTableRecord
  2
DASHED
 70
64
  3
- - - - - - - - - - - - - - - - - - - -
 72
65
 73
2
 40
0.2
 49
0.1
 74
0
 49
-0.1
 74
0
  0
ENDTAB
  0
TABLE
  2
LAYER
  5
2
100
AcDbSymbolTable
 70
36
  0
LAYER
  5
10
100
AcDbSymbolTableRecord
100
AcDbLayerTableRecord
  2
0
 70
0
 62
7
  6
CONTINUOUS
370
-3
390
F
  0
LAYER
  5
1FA
100
AcDbSymbolTableRecord
100
AcDbLayerTableRecord
  2
DEFAULT_1
 70
0
 62
7
  6
CENTER
370
-3
390
F
  0
LAYER
  5
1FB
100
AcDbSymbolTableRecord
100
AcDbLayerTableRecord
  2
DEFAULT_2
 70
0
 62
8
  6
HIDDEN
370
-3
390
F
  0
LAYER
  5
1FC
100
AcDbSymbolTableRecord
100
AcDbLayerTableRecord
  2
DEFAULT_3
 70
0
 62
7
  6
PHANTOM
370
-3
390
F
  0
LAYER
  5
1FD
100
AcDbSymbolTableRecord
100
AcDbLayerTableRecord
  2
_2D_DELETED_OBJS
 70
0
 62
7
  6
CONTINUOUS
370
-3
390
F
  0
LAYER
  5
1FE
100
AcDbSymbolTableRecord
100
AcDbLayerTableRecord
  2
01___PRT_ALL_DTM_PLN
 70
0
 62
7
  6
CONTINUOUS
370
-3
390
F
  0
LAYER
  5
1FF
100
AcDbSymbolTableRecord
100
AcDbLayerTableRecord
  2
01___PRT_DEF_DTM_PLN
 70
0
 62
7
  6
CONTINUOUS
370
-3
390
F
  0
LAYER
  5
200
100
AcDbSymbolTableRecord
100
AcDbLayerTableRecord
  2
02___PRT_ALL_AXES
 70
0
 62
7
  6
CONTINUOUS
370
-3
390
F
  0
LAYER
  5
201
100
AcDbSymbolTableRecord
100
AcDbLayerTableRecord
  2
03___PRT_ALL_CURVES
 70
0
 62
7
  6
CONTINUOUS
370
-3
390
F
  0
LAYER
  5
202
100
AcDbSymbolTableRecord
100
AcDbLayerTableRecord
  2
04___PRT_ALL_DTM_PNT
 70
0
 62
7
  6
CONTINUOUS
370
-3
390
F
  0
LAYER
  5
203
100
AcDbSymbolTableRecord
100
AcDbLayerTableRecord
  2
05___PRT_ALL_DTM_CSYS
 70
0
 62
7
  6
CONTINUOUS
370
-3
390
F
  0
LAYER
  5
204
100
AcDbSymbolTableRecord
100
AcDbLayerTableRecord
  2
05___PRT_DEF_DTM_CSYS
 70
0
 62
7
  6
CONTINUOUS
370
-3
390
F
  0
LAYER
  5
205
100
AcDbSymbolTableRecord
100
AcDbLayerTableRecord
  2
06___PRT_ALL_SURFS
 70
0
 62
7
  6
CONTINUOUS
370
-3
390
F
  0
LAYER
  5
206
100
AcDbSymbolTableRecord
100
AcDbLayerTableRecord
  2
AXIS_COSMETIC_THREADS
 70
0
 62
7
  6
CONTINUOUS
370
-3
390
F
  0
LAYER
  5
207
100
AcDbSymbolTableRecord
100
AcDbLayerTableRecord
  2
DATUM_CURVES
 70
0
 62
7
  6
CONTINUOUS
370
-3
390
F
  0
LAYER
  5
208
100
AcDbSymbolTableRecord
100
AcDbLayerTableRecord
  2
DATUM_PLANES
 70
0
 62
7
  6
CONTINUOUS
370
-3
390
F
  0
LAYER
  5
209
100
AcDbSymbolTableRecord
100
AcDbLayerTableRecord
  2
DRIVEN_DIMS
 70
0
 62
7
  6
CONTINUOUS
370
-3
390
F
  0
LAYER
  5
20A
100
AcDbSymbolTableRecord
100
AcDbLayerTableRecord
  2
NOTES
 70
0
 62
7
  6
CONTINUOUS
370
-3
390
F
  0
LAYER
  5
20B
100
AcDbSymbolTableRecord
100
AcDbLayerTableRecord
  2
QUILTS
 70
0
 62
7
  6
CONTINUOUS
370
-3
390
F
  0
LAYER
  5
20C
100
AcDbSymbolTableRecord
100
AcDbLayerTableRecord
  2
SCHEME_DIMS
 70
0
 62
7
  6
CONTINUOUS
370
-3
390
F
  0
LAYER
  5
20D
100
AcDbSymbolTableRecord
100
AcDbLayerTableRecord
  2
SKETCHED_ENT
 70
0
 62
7
  6
CONTINUOUS
370
-3
390
F
  0
LAYER
  5
20E
100
AcDbSymbolTableRecord
100
AcDbLayerTableRecord
  2
SYMBOLS
 70
0
 62
7
  6
CONTINUOUS
370
-3
390
F
  0
ENDTAB
  0
TABLE
  2
STYLE
  5
3
100
AcDbSymbolTable
 70
1
  0
STYLE
  5
11
100
AcDbSymbolTableRecord
100
AcDbTextStyleTableRecord
  2
STANDARD
 70
0
 40
0.0
 41
1.0
 50
0.0
 71
0
 42
0.2
  3
txt
  4

  0
ENDTAB
  0
TABLE
  2
VIEW
  5
6
100
AcDbSymbolTable
 70
0
  0
ENDTAB
  0
TABLE
  2
UCS
  5
7
100
AcDbSymbolTable
 70
0
  0
ENDTAB
  0
TABLE
  2
APPID
  5
9
100
AcDbSymbolTable
 70
1
  0
APPID
  5
20F
100
AcDbSymbolTableRecord
100
AcDbRegAppTableRecord
  2
ACAD
 70
0
  0
ENDTAB
  0
TABLE
  2
BLOCK_RECORD
  5
1
100
AcDbSymbolTable
 70
0
  0
BLOCK_RECORD
  5
1F
100
AcDbSymbolTableRecord
100
AcDbBlockTableRecord
  2
*MODEL_SPACE
  0
BLOCK_RECORD
  5
1B
100
AcDbSymbolTableRecord
100
AcDbBlockTableRecord
  2
*PAPER_SPACE
  0
BLOCK_RECORD
  5
210
100
AcDbSymbolTableRecord
100
AcDbBlockTableRecord
  2
_FILLED
  0
BLOCK_RECORD
  5
211
100
AcDbSymbolTableRecord
100
AcDbBlockTableRecord
  2
BANNER_LOGO_TITLEBLOCK_BL0
  0
BLOCK_RECORD
  5
212
100
AcDbSymbolTableRecord
100
AcDbBlockTableRecord
  2
*D0
  0
BLOCK_RECORD
  5
213
100
AcDbSymbolTableRecord
100
AcDbBlockTableRecord
  2
*D1
  0
BLOCK_RECORD
  5
214
100
AcDbSymbolTableRecord
100
AcDbBlockTableRecord
  2
*D2
  0
BLOCK_RECORD
  5
215
100
AcDbSymbolTableRecord
100
AcDbBlockTableRecord
  2
*D3
  0
BLOCK_RECORD
  5
216
100
AcDbSymbolTableRecord
100
AcDbBlockTableRecord
  2
*D4
  0
BLOCK_RECORD
  5
217
100
AcDbSymbolTableRecord
100
AcDbBlockTableRecord
  2
*D5
  0
BLOCK_RECORD
  5
218
100
AcDbSymbolTableRecord
100
AcDbBlockTableRecord
  2
*D6
  0
BLOCK_RECORD
  5
219
100
AcDbSymbolTableRecord
100
AcDbBlockTableRecord
  2
*D7
  0
BLOCK_RECORD
  5
21A
100
AcDbSymbolTableRecord
100
AcDbBlockTableRecord
  2
*D8
  0
BLOCK_RECORD
  5
21B
100
AcDbSymbolTableRecord
100
AcDbBlockTableRecord
  2
*D9
  0
BLOCK_RECORD
  5
21C
100
AcDbSymbolTableRecord
100
AcDbBlockTableRecord
  2
*D10
  0
BLOCK_RECORD
  5
21D
100
AcDbSymbolTableRecord
100
AcDbBlockTableRecord
  2
*D11
  0
BLOCK_RECORD
  5
21E
100
AcDbSymbolTableRecord
100
AcDbBlockTableRecord
  2
*D12
  0
BLOCK_RECORD
  5
21F
100
AcDbSymbolTableRecord
100
AcDbBlockTableRecord
  2
*D13
  0
BLOCK_RECORD
  5
220
100
AcDbSymbolTableRecord
100
AcDbBlockTableRecord
  2
*D14
  0
BLOCK_RECORD
  5
221
100
AcDbSymbolTableRecord
100
AcDbBlockTableRecord
  2
*D15
  0
BLOCK_RECORD
  5
222
100
AcDbSymbolTableRecord
100
AcDbBlockTableRecord
  2
*D16
  0
BLOCK_RECORD
  5
223
100
AcDbSymbolTableRecord
100
AcDbBlockTableRecord
  2
*D17
  0
ENDTAB
  0
TABLE
  2
DIMSTYLE
  5
A
100
AcDbSymbolTable
 70
1
100
AcDbDimStyleTable
 71
0
  0
DIMSTYLE
105
224
100
AcDbSymbolTableRecord
100
AcDbDimStyleTableRecord
  2
STANDARD
 70
0
  3

  4

 40
1.0
 41
0.1875
 42
0.0625
 43
0.38
 44
0.18
 45
0.0
 46
0.0
 47
0.005
 48
0.005
140
0.1
141
0.09
142
0.0
143
25.4
144
1.0
145
0.0
146
1.0
147
0.09
 71
1.0
 72
0.0
 73
1
 74
1
 75
0
 76
0
 77
0
 78
4
170
0
171
2
172
0
173
0
174
0
175
0
176
0
177
0
178
0
270
2
271
3
272
3
273
2
274
2
275
0
280
0
281
0
282
0
283
1
284
4
285
0
286
0
287
3
288
0
340
11
341
210
342
210
343
210
344
210
  0
DIMSTYLE
105
225
100
AcDbSymbolTableRecord
100
AcDbDimStyleTableRecord
  2
DIMSTYLE_1
 70
0
  3

  4

 40
1.0
 41
0.1875
 42
0.0625
 43
0.38
 44
0.18
 45
0.0
 46
0.0
 47
0.02
 48
0.02
140
0.1
141
0.09
142
0.0
143
25.4
144
1.0
145
0.0
146
1.0
147
0.09
 71
0.0
 72
0.0
 73
1
 74
1
 75
0
 76
0
 77
0
 78
4
170
0
171
2
172
0
173
0
174
0
175
0
176
0
177
0
178
0
270
2
271
1
272
1
273
2
274
2
275
0
280
0
281
0
282
0
283
1
284
4
285
0
286
0
287
3
288
0
340
11
341
210
342
210
343
210
344
210
  0
DIMSTYLE
105
226
100
AcDbSymbolTableRecord
100
AcDbDimStyleTableRecord
  2
DIMSTYLE_2
 70
0
  3

  4

 40
1.0
 41
0.1875
 42
0.0625
 43
0.38
 44
0.18
 45
0.0
 46
0.0
 47
0.1
 48
0.1
140
0.1
141
0.09
142
0.0
143
25.4
144
1.0
145
0.0
146
1.0
147
0.09
 71
0.0
 72
0.0
 73
1
 74
1
 75
0
 76
0
 77
0
 78
4
170
0
171
2
172
0
173
0
174
0
175
0
176
0
177
0
178
0
270
2
271
1
272
1
273
2
274
2
275
0
280
0
281
0
282
0
283
1
284
4
285
0
286
0
287
3
288
0
340
11
341
210
342
210
343
210
344
210
  0
DIMSTYLE
105
227
100
AcDbSymbolTableRecord
100
AcDbDimStyleTableRecord
  2
DIMSTYLE_3
 70
0
  3

  4

 40
1.0
 41
0.1875
 42
0.0625
 43
0.38
 44
0.18
 45
0.0
 46
0.0
 47
0.1
 48
0.1
140
0.1
141
0.09
142
0.0
143
25.4
144
1.0
145
0.0
146
1.0
147
0.09
 71
0.0
 72
0.0
 73
1
 74
1
 75
0
 76
0
 77
0
 78
4
170
0
171
2
172
0
173
0
174
0
175
0
176
0
177
0
178
0
270
2
271
1
272
1
273
2
274
2
275
0
280
0
281
0
282
0
283
1
284
4
285
0
286
0
287
3
288
0
340
11
341
210
342
210
343
210
344
210
  0
DIMSTYLE
105
228
100
AcDbSymbolTableRecord
100
AcDbDimStyleTableRecord
  2
DIMSTYLE_4
 70
0
  3

  4

 40
1.0
 41
0.1875
 42
0.0625
 43
0.38
 44
0.18
 45
0.0
 46
0.0
 47
0.1
 48
0.1
140
0.1
141
0.09
142
0.0
143
25.4
144
1.0
145
0.0
146
1.0
147
0.09
 71
0.0
 72
0.0
 73
1
 74
1
 75
0
 76
0
 77
0
 78
4
170
0
171
2
172
0
173
0
174
0
175
0
176
0
177
0
178
0
270
2
271
1
272
1
273
2
274
2
275
0
280
0
281
0
282
0
283
1
284
4
285
0
286
0
287
3
288
0
340
11
341
210
342
210
343
210
344
210
  0
ENDTAB
  0
ENDSEC
  0
SECTION
  2
BLOCKS
  0
BLOCK
  5
20
100
AcDbEntity
  8
0
100
AcDbBlockBegin
  2
*MODEL_SPACE
 70
0
 10
0.0
 20
0.0
 30
0.0
  3
*MODEL_SPACE
  1

  0
ENDBLK
  5
21
100
AcDbEntity
  8
0
100
AcDbBlockEnd
  0
BLOCK
  5
1C
100
AcDbEntity
  8
0
100
AcDbBlockBegin
  2
*PAPER_SPACE
 70
0
 10
0.0
 20
0.0
 30
0.0
  3
*PAPER_SPACE
  1

  0
ENDBLK
  5
1D
100
AcDbEntity
  8
0
100
AcDbBlockEnd
  0
BLOCK
  5
229
100
AcDbEntity
  8
0
100
AcDbBlockBegin
 62
2
  6
CONTINUOUS
  2
BANNER_LOGO_TITLEBLOCK_BL0
 70
64
 10
12.9046655056
 20
2.5403783448
  3
BANNER_LOGO_TITLEBLOCK_BL0
  1

  0
LWPOLYLINE
  5
22A
100
AcDbEntity
  8
0
100
AcDbPolyline
 62
2
  6
CONTINUOUS
 90
29
 70
0
 10
12.0796650004
 20
2.5403783448
 10
12.1000078385
 20
2.5005819703
 10
12.1615890075
 20
2.4620382478
 10
12.2590135686
 20
2.4281250935
 10
12.3910903821
 20
2.3992568791
 10
12.5462480343
 20
2.3779627503
 10
12.7225901426
 20
2.3645025835
 10
12.9046652672
 20
2.3600565514
 10
13.0867408686
 20
2.3645025835
 10
13.2630829769
 20
2.3779627503
 10
13.4182401522
 20
2.3992568791
 10
13.5503174426
 20
2.4281250935
 10
13.6477415269
 20
2.4620382478
 10
13.7093231727
 20
2.5005819703
 10
13.7296660108
 20
2.5403783448
 10
13.7093231727
 20
2.5801747193
 10
13.6477415269
 20
2.6187184418
 10
13.5503174426
 20
2.6526315961
 10
13.4182401522
 20
2.6814998105
 10
13.2630829769
 20
2.7027939393
 10
13.0867408686
 20
2.7162541061
 10
12.9046652672
 20
2.7207001382
 10
12.7225901426
 20
2.7162541061
 10
12.5462480343
 20
2.7027939393
 10
12.3910903821
 20
2.6814998105
 10
12.2590135686
 20
2.6526315961
 10
12.1615890075
 20
2.6187184418
 10
12.1000078385
 20
2.5801747193
 10
12.0796650004
 20
2.5403783448
  0
ARC
  5
22B
100
AcDbEntity
  8
0
100
AcDbCircle
 62
2
  6
CONTINUOUS
 10
12.400005721
 20
2.5168763464
 40
0.0153945295
100
AcDbArc
 50
354.0454548824
 51
5.1878013979
  0
ARC
  5
22C
100
AcDbEntity
  8
0
100
AcDbCircle
 62
2
  6
CONTINUOUS
 10
12.3931760319
 20
2.5166878286
 40
0.0222174455
100
AcDbArc
 50
4.0793399388
 51
69.834329283
  0
LINE
  5
22D
100
AcDbEntity
  8
0
100
AcDbLine
 62
2
  6
CONTINUOUS
 10
12.4008351814
 20
2.5375433389
 11
12.3907841758
 21
2.5410923409
  0
LINE
  5
22E
100
AcDbEntity
  8
0
100
AcDbLine
 62
2
  6
CONTINUOUS
 10
12.3907841758
 20
2.5410923409
 11
12.3990241804
 21
2.5458683435
  0
ARC
  5
22F
100
AcDbEntity
  8
0
100
AcDbCircle
 62
2
  6
CONTINUOUS
 10
12.3771587979
 20
2.5826952352
 40
0.0428289026
100
AcDbArc
 50
300.6990502959
 51
319.0591802498
  0
ARC
  5
230
100
AcDbEntity
  8
0
100
AcDbCircle
 62
2
  6
CONTINUOUS
 10
12.3971873948
 20
2.5665668817
 40
0.0171568255
100
AcDbArc
 50
315.9145124245
 51
16.0049121282
  0
ARC
  5
231
100
AcDbEntity
  8
0
100
AcDbCircle
 62
2
  6
CONTINUOUS
 10
12.3922357827
 20
2.5632132173
 40
0.0229166529
100
AcDbArc
 50
20.6563876465
 51
62.3316896973
  0
ARC
  5
232
100
AcDbEntity
  8
0
100
AcDbCircle
 62
2
  6
CONTINUOUS
 10
12.371573659
 20
2.5302846524
 40
0.061747717
100
AcDbArc
 50
59.5385584989
 51
90.0050977555
  0
LINE
  5
233
100
AcDbEntity
  8
0
100
AcDbLine
 62
2
  6
CONTINUOUS
 10
12.3715681652
 20
2.5920323691
 11
12.2055050731
 21
2.5920323691
  0
ARC
  5
234
100
AcDbEntity
  8
0
100
AcDbCircle
 62
2
  6
CONTINUOUS
 10
12.2055050712
 20
2.5895573696
 40
0.0024749995
100
AcDbArc
 50
89.9999571957
 51
180.0000428043
  0
LINE
  5
235
100
AcDbEntity
  8
0
100
AcDbLine
 62
2
  6
CONTINUOUS
 10
12.2030300717
 20
2.5895573678
 11
12.2030300717
 21
2.5697573568
  0
ARC
  5
236
100
AcDbEntity
  8
0
100
AcDbCircle
 62
2
  6
CONTINUOUS
 10
12.2055050712
 20
2.5697573549
 40
0.0024749995
100
AcDbArc
 50
179.9999571957
 51
270.0000428043
  0
LINE
  5
237
100
AcDbEntity
  8
0
100
AcDbLine
 62
2
  6
CONTINUOUS
 10
12.2055050731
 20
2.5672823554
 11
12.2294470864
 21
2.5672823554
  0
ARC
  5
238
100
AcDbEntity
  8
0
100
AcDbCircle
 62
2
  6
CONTINUOUS
 10
12.2294470882
 20
2.5648073559
 40
0.0024749995
100
AcDbArc
 50
359.9999571957
 51
90.0000428043
  0
LINE
  5
239
100
AcDbEntity
  8
0
100
AcDbLine
 62
2
  6
CONTINUOUS
 10
12.2319220877
 20
2.564807354
 11
12.2319220877
 21
2.5184523283
  0
ARC
  5
23A
100
AcDbEntity
  8
0
100
AcDbCircle
 62
2
  6
CONTINUOUS
 10
12.2294470882
 20
2.5184523265
 40
0.0024749995
100
AcDbArc
 50
269.9999571957
 51
0.0000428043
  0
LINE
  5
23B
100
AcDbEntity
  8
0
100
AcDbLine
 62
2
  6
CONTINUOUS
 10
12.2294470864
 20
2.515977327
 11
12.2055050731
 21
2.515977327
  0
ARC
  5
23C
100
AcDbEntity
  8
0
100
AcDbCircle
 62
2
  6
CONTINUOUS
 10
12.2055050712
 20
2.5135023274
 40
0.0024749995
100
AcDbArc
 50
89.9999571957
 51
180.0000428043
  0
LINE
  5
23D
100
AcDbEntity
  8
0
100
AcDbLine
 62
2
  6
CONTINUOUS
 10
12.2030300717
 20
2.5135023256
 11
12.2030300717
 21
2.4937023146
  0
ARC
  5
23E
100
AcDbEntity
  8
0
100
AcDbCircle
 62
2
  6
CONTINUOUS
 10
12.2055050712
 20
2.4937023128
 40
0.0024749995
100
AcDbArc
 50
179.9999571957
 51
270.0000428043
  0
LINE
  5
23F
100
AcDbEntity
  8
0
100
AcDbLine
 62
2
  6
CONTINUOUS
 10
12.2055050731
 20
2.4912273132
 11
12.3819511709
 21
2.4912273132
  0
ARC
  5
240
100
AcDbEntity
  8
0
100
AcDbCircle
 62
2
  6
CONTINUOUS
 10
12.3792298263
 20
2.539634765
 40
0.048483885
100
AcDbArc
 50
273.21763719
 51
303.0749121182
  0
ARC
  5
241
100
AcDbEntity
  8
0
100
AcDbCircle
 62
2
  6
CONTINUOUS
 10
12.3940692204
 20
2.5168671561
 40
0.0213072145
100
AcDbArc
 50
303.0488228549
 51
355.7263138674
  0
LINE
  5
242
100
AcDbEntity
  8
0
100
AcDbLine
 62
2
  6
CONTINUOUS
 10
12.2949101227
 20
2.5499573458
 11
12.3362731456
 21
2.5499573458
  0
ARC
  5
243
100
AcDbEntity
  8
0
100
AcDbCircle
 62
2
  6
CONTINUOUS
 10
12.3362731456
 20
2.5586198506
 40
0.0086625048
100
AcDbArc
 50
270.0
 51
90.0
  0
LINE
  5
244
100
AcDbEntity
  8
0
100
AcDbLine
 62
2
  6
CONTINUOUS
 10
12.3362731456
 20
2.5672823554
 11
12.2949101227
 21
2.5672823554
  0
ARC
  5
245
100
AcDbEntity
  8
0
100
AcDbCircle
 62
2
  6
CONTINUOUS
 10
12.2949101208
 20
2.5648073559
 40
0.0024749995
100
AcDbArc
 50
89.9999571957
 51
180.0000428043
  0
LINE
  5
246
100
AcDbEntity
  8
0
100
AcDbLine
 62
2
  6
CONTINUOUS
 10
12.2924351213
 20
2.564807354
 11
12.2924351213
 21
2.5524323472
  0
ARC
  5
247
100
AcDbEntity
  8
0
100
AcDbCircle
 62
2
  6
CONTINUOUS
 10
12.2949101208
 20
2.5524323453
 40
0.0024749995
100
AcDbArc
 50
179.9999571957
 51
270.0000428043
  0
LINE
  5
248
100
AcDbEntity
  8
0
100
AcDbLine
 62
2
  6
CONTINUOUS
 10
12.2924351213
 20
2.5184523283
 11
12.2924351213
 21
2.5308273352
  0
ARC
  5
249
100
AcDbEntity
  8
0
100
AcDbCircle
 62
2
  6
CONTINUOUS
 10
12.2949101208
 20
2.530827337
 40
0.0024749995
100
AcDbArc
 50
89.9999571957
 51
180.0000428043
  0
LINE
  5
24A
100
AcDbEntity
  8
0
100
AcDbLine
 62
2
  6
CONTINUOUS
 10
12.2949101227
 20
2.5333023366
 11
12.3362731456
 21
2.5333023366
  0
ARC
  5
24B
100
AcDbEntity
  8
0
100
AcDbCircle
 62
2
  6
CONTINUOUS
 10
12.3362731456
 20
2.5246398318
 40
0.0086625048
100
AcDbArc
 50
270.0
 51
90.0
  0
LINE
  5
24C
100
AcDbEntity
  8
0
100
AcDbLine
 62
2
  6
CONTINUOUS
 10
12.3362731456
 20
2.515977327
 11
12.2949101227
 21
2.515977327
  0
ARC
  5
24D
100
AcDbEntity
  8
0
100
AcDbCircle
 62
2
  6
CONTINUOUS
 10
12.2949101208
 20
2.5184523265
 40
0.0024749995
100
AcDbArc
 50
179.9999571957
 51
270.0000428043
  0
ARC
  5
24E
100
AcDbEntity
  8
0
100
AcDbCircle
 62
2
  6
CONTINUOUS
 10
13.5806801742
 20
2.5212486481
 40
0.044722495
100
AcDbArc
 50
195.531588407
 51
204.7624440448
  0
LINE
  5
24F
100
AcDbEntity
  8
0
100
AcDbLine
 62
2
  6
CONTINUOUS
 10
13.5375908118
 20
2.5092733232
 11
13.5357868108
 21
2.5153423266
  0
ARC
  5
250
100
AcDbEntity
  8
0
100
AcDbCircle
 62
2
  6
CONTINUOUS
 10
13.4974076135
 20
2.5055452462
 40
0.0396099176
100
AcDbArc
 50
14.3201081283
 51
22.4984722084
  0
ARC
  5
251
100
AcDbEntity
  8
0
100
AcDbCircle
 62
2
  6
CONTINUOUS
 10
13.5201739219
 20
2.5145168728
 40
0.0151491919
100
AcDbArc
 50
24.098260853
 51
63.0369451818
  0
ARC
  5
252
100
AcDbEntity
  8
0
100
AcDbCircle
 62
2
  6
CONTINUOUS
 10
13.5161192671
 20
2.5062372524
 40
0.0243676582
100
AcDbArc
 50
63.3666028271
 51
90.3937697637
  0
LINE
  5
253
100
AcDbEntity
  8
0
100
AcDbLine
 62
2
  6
CONTINUOUS
 10
13.5159517998
 20
2.5306043351
 11
13.4883447845
 21
2.5306043351
  0
ARC
  5
254
100
AcDbEntity
  8
0
100
AcDbCircle
 62
2
  6
CONTINUOUS
 10
13.4883447827
 20
2.5281293355
 40
0.0024749995
100
AcDbArc
 50
89.9999571957
 51
180.0000428043
  0
LINE
  5
255
100
AcDbEntity
  8
0
100
AcDbLine
 62
2
  6
CONTINUOUS
 10
13.4858697831
 20
2.5281293337
 11
13.4858697831
 21
2.5184303283
  0
ARC
  5
256
100
AcDbEntity
  8
0
100
AcDbCircle
 62
2
  6
CONTINUOUS
 10
13.4883447827
 20
2.5184303265
 40
0.0024749995
100
AcDbArc
 50
179.9999571957
 51
270.0000428043
  0
LINE
  5
257
100
AcDbEntity
  8
0
100
AcDbLine
 62
2
  6
CONTINUOUS
 10
13.4883447845
 20
2.5159553269
 11
13.5130037982
 21
2.5159553269
  0
ARC
  5
258
100
AcDbEntity
  8
0
100
AcDbCircle
 62
2
  6
CONTINUOUS
 10
13.5130038
 20
2.5134803274
 40
0.0024749995
100
AcDbArc
 50
359.9999571957
 51
90.0000428043
  0
LINE
  5
259
100
AcDbEntity
  8
0
100
AcDbLine
 62
2
  6
CONTINUOUS
 10
13.5154787995
 20
2.5134803256
 11
13.5154787995
 21
2.4937023146
  0
ARC
  5
25A
100
AcDbEntity
  8
0
100
AcDbCircle
 62
2
  6
CONTINUOUS
 10
13.5130038
 20
2.4937023128
 40
0.0024749995
100
AcDbArc
 50
269.9999571957
 51
0.0000428043
  0
LINE
  5
25B
100
AcDbEntity
  8
0
100
AcDbLine
 62
2
  6
CONTINUOUS
 10
13.5130037982
 20
2.4912273132
 11
13.3994327352
 21
2.4912273132
  0
ARC
  5
25C
100
AcDbEntity
  8
0
100
AcDbCircle
 62
2
  6
CONTINUOUS
 10
13.3994327333
 20
2.4937023128
 40
0.0024749995
100
AcDbArc
 50
179.9999571957
 51
270.0000428043
  0
LINE
  5
25D
100
AcDbEntity
  8
0
100
AcDbLine
 62
2
  6
CONTINUOUS
 10
13.3969577338
 20
2.4937023146
 11
13.3969577338
 21
2.5135023256
  0
ARC
  5
25E
100
AcDbEntity
  8
0
100
AcDbCircle
 62
2
  6
CONTINUOUS
 10
13.3994327333
 20
2.5135023274
 40
0.0024749995
100
AcDbArc
 50
89.9999571957
 51
180.0000428043
  0
LINE
  5
25F
100
AcDbEntity
  8
0
100
AcDbLine
 62
2
  6
CONTINUOUS
 10
13.3994327352
 20
2.515977327
 11
13.4221787478
 21
2.515977327
  0
ARC
  5
260
100
AcDbEntity
  8
0
100
AcDbCircle
 62
2
  6
CONTINUOUS
 10
13.4221787497
 20
2.5184523265
 40
0.0024749995
100
AcDbArc
 50
269.9999571957
 51
0.0000428042
  0
LINE
  5
261
100
AcDbEntity
  8
0
100
AcDbLine
 62
2
  6
CONTINUOUS
 10
13.4246537492
 20
2.5184523283
 11
13.4246537492
 21
2.564807354
  0
ARC
  5
262
100
AcDbEntity
  8
0
100
AcDbCircle
 62
2
  6
CONTINUOUS
 10
13.4221787497
 20
2.5648073559
 40
0.0024749995
100
AcDbArc
 50
359.9999571957
 51
90.0000428043
  0
LINE
  5
263
100
AcDbEntity
  8
0
100
AcDbLine
 62
2
  6
CONTINUOUS
 10
13.4221787478
 20
2.5672823554
 11
13.3994327352
 21
2.5672823554
  0
ARC
  5
264
100
AcDbEntity
  8
0
100
AcDbCircle
 62
2
  6
CONTINUOUS
 10
13.3994327333
 20
2.5697573549
 40
0.0024749995
100
AcDbArc
 50
179.9999571957
 51
270.0000428043
  0
LINE
  5
265
100
AcDbEntity
  8
0
100
AcDbLine
 62
2
  6
CONTINUOUS
 10
13.3969577338
 20
2.5697573568
 11
13.3969577338
 21
2.5895573678
  0
ARC
  5
266
100
AcDbEntity
  8
0
100
AcDbCircle
 62
2
  6
CONTINUOUS
 10
13.3994327333
 20
2.5895573696
 40
0.0024749995
100
AcDbArc
 50
89.9999571957
 51
180.0000428043
  0
LINE
  5
267
100
AcDbEntity
  8
0
100
AcDbLine
 62
2
  6
CONTINUOUS
 10
13.3994327352
 20
2.5920323691
 11
13.5490138181
 21
2.5920323691
  0
ARC
  5
268
100
AcDbEntity
  8
0
100
AcDbCircle
 62
2
  6
CONTINUOUS
 10
13.5463505148
 20
2.4094934586
 40
0.1825583387
100
AcDbArc
 50
79.8618509324
 51
89.1640948679
  0
ARC
  5
269
100
AcDbEntity
  8
0
100
AcDbCircle
 62
2
  6
CONTINUOUS
 10
13.5726548052
 20
2.5503169747
 40
0.039319019
100
AcDbArc
 50
59.1202086415
 51
81.4730239328
  0
ARC
  5
26A
100
AcDbEntity
  8
0
100
AcDbCircle
 62
2
  6
CONTINUOUS
 10
13.5783142014
 20
2.5566516438
 40
0.0310192946
100
AcDbArc
 50
34.7540871
 51
62.0879016178
  0
ARC
  5
26B
100
AcDbEntity
  8
0
100
AcDbCircle
 62
2
  6
CONTINUOUS
 10
13.5900029525
 20
2.565201245
 40
0.0165459396
100
AcDbArc
 50
1.548452892
 51
33.5033152417
  0
ARC
  5
26C
100
AcDbEntity
  8
0
100
AcDbCircle
 62
2
  6
CONTINUOUS
 10
13.5932995477
 20
2.5653696972
 40
0.0132462337
100
AcDbArc
 50
331.1510006998
 51
1.205404301
  0
ARC
  5
26D
100
AcDbEntity
  8
0
100
AcDbCircle
 62
2
  6
CONTINUOUS
 10
13.5822888914
 20
2.5720482849
 40
0.0261183659
100
AcDbArc
 50
305.6373831893
 51
329.9727629745
  0
ARC
  5
26E
100
AcDbEntity
  8
0
100
AcDbCircle
 62
2
  6
CONTINUOUS
 10
13.5519569538
 20
2.6152551345
 40
0.0789082104
100
AcDbArc
 50
292.906155071
 51
305.2574666259
  0
ARC
  5
26F
100
AcDbEntity
  8
0
100
AcDbCircle
 62
2
  6
CONTINUOUS
 10
13.5282557878
 20
2.4386010294
 40
0.117346916
100
AcDbArc
 50
58.614769177
 51
62.3737227606
  0
ARC
  5
270
100
AcDbEntity
  8
0
100
AcDbCircle
 62
2
  6
CONTINUOUS
 10
13.5761387404
 20
2.5167282896
 40
0.0257145923
100
AcDbArc
 50
39.3804255939
 51
59.0361096173
  0
ARC
  5
271
100
AcDbEntity
  8
0
100
AcDbCircle
 62
2
  6
CONTINUOUS
 10
13.5750183849
 20
2.5166552064
 40
0.0266349791
100
AcDbArc
 50
20.3630922153
 51
37.9727053099
  0
ARC
  5
272
100
AcDbEntity
  8
0
100
AcDbCircle
 62
2
  6
CONTINUOUS
 10
13.5571178432
 20
2.509473798
 40
0.0459185159
100
AcDbArc
 50
15.6740290068
 51
20.9917271228
  0
ARC
  5
273
100
AcDbEntity
  8
0
100
AcDbCircle
 62
2
  6
CONTINUOUS
 10
13.6156881783
 20
2.525116781
 40
0.0147197649
100
AcDbArc
 50
192.7054516565
 51
206.0594861022
  0
ARC
  5
274
100
AcDbEntity
  8
0
100
AcDbCircle
 62
2
  6
CONTINUOUS
 10
13.6071938412
 20
2.5209082945
 40
0.0052403997
100
AcDbArc
 50
205.5232099488
 51
227.5054868079
  0
ARC
  5
275
100
AcDbEntity
  8
0
100
AcDbCircle
 62
2
  6
CONTINUOUS
 10
13.6054655419
 20
2.5190929218
 40
0.0027347709
100
AcDbArc
 50
228.5117626737
 51
266.1485845754
  0
LINE
  5
276
100
AcDbEntity
  8
0
100
AcDbLine
 62
2
  6
CONTINUOUS
 10
13.6052818493
 20
2.5163643272
 11
13.60639085
 21
2.5163643272
  0
ARC
  5
277
100
AcDbEntity
  8
0
100
AcDbCircle
 62
2
  6
CONTINUOUS
 10
13.6063292954
 20
2.5296129864
 40
0.0132488022
100
AcDbArc
 50
270.266200055
 51
281.2404888597
  0
ARC
  5
278
100
AcDbEntity
  8
0
100
AcDbCircle
 62
2
  6
CONTINUOUS
 10
13.6075235364
 20
2.5238762928
 40
0.0073895522
100
AcDbArc
 50
280.8288201977
 51
305.0837508495
  0
ARC
  5
279
100
AcDbEntity
  8
0
100
AcDbCircle
 62
2
  6
CONTINUOUS
 10
13.607924718
 20
2.5230254464
 40
0.0064647042
100
AcDbArc
 50
306.5086174083
 51
340.2162360092
  0
ARC
  5
27A
100
AcDbEntity
  8
0
100
AcDbCircle
 62
2
  6
CONTINUOUS
 10
13.6027235414
 20
2.524769508
 40
0.0119498009
100
AcDbArc
 50
340.7883861657
 51
1.1691452593
  0
LINE
  5
27B
100
AcDbEntity
  8
0
100
AcDbLine
 62
2
  6
CONTINUOUS
 10
13.6146708546
 20
2.525013332
 11
13.6146708546
 21
2.5276393334
  0
ARC
  5
27C
100
AcDbEntity
  8
0
100
AcDbCircle
 62
2
  6
CONTINUOUS
 10
13.6171458541
 20
2.5276393353
 40
0.0024749995
100
AcDbArc
 50
89.9999571957
 51
180.0000428043
  0
LINE
  5
27D
100
AcDbEntity
  8
0
100
AcDbLine
 62
2
  6
CONTINUOUS
 10
13.6171458559
 20
2.5301143348
 11
13.6292558626
 21
2.5301143348
  0
ARC
  5
27E
100
AcDbEntity
  8
0
100
AcDbCircle
 62
2
  6
CONTINUOUS
 10
13.6292558645
 20
2.5276393353
 40
0.0024749995
100
AcDbArc
 50
359.9999571957
 51
90.0000428043
  0
LINE
  5
27F
100
AcDbEntity
  8
0
100
AcDbLine
 62
2
  6
CONTINUOUS
 10
13.631730864
 20
2.5276393334
 11
13.631730864
 21
2.516087327
  0
ARC
  5
280
100
AcDbEntity
  8
0
100
AcDbCircle
 62
2
  6
CONTINUOUS
 10
13.6141751675
 20
2.5161916447
 40
0.0175560065
100
AcDbArc
 50
332.2279060967
 51
359.6595469939
  0
ARC
  5
281
100
AcDbEntity
  8
0
100
AcDbCircle
 62
2
  6
CONTINUOUS
 10
13.6048681567
 20
2.5210861501
 40
0.0280715479
100
AcDbArc
 50
308.5071794988
 51
332.2400656899
  0
ARC
  5
282
100
AcDbEntity
  8
0
100
AcDbCircle
 62
2
  6
CONTINUOUS
 10
13.5978759713
 20
2.5286873679
 40
0.0383802683
100
AcDbArc
 50
288.7656836787
 51
309.6104317088
  0
ARC
  5
283
100
AcDbEntity
  8
0
100
AcDbCircle
 62
2
  6
CONTINUOUS
 10
13.6036139387
 20
2.5111006186
 40
0.0198837666
100
AcDbArc
 50
271.8586572978
 51
289.4131338543
  0
LINE
  5
284
100
AcDbEntity
  8
0
100
AcDbLine
 62
2
  6
CONTINUOUS
 10
13.6042588488
 20
2.4912273132
 11
13.5568948225
 21
2.4912273132
  0
ARC
  5
285
100
AcDbEntity
  8
0
100
AcDbCircle
 62
2
  6
CONTINUOUS
 10
13.5577001432
 20
2.5085494649
 40
0.0173408616
100
AcDbArc
 50
232.4713476722
 51
267.338189944
  0
ARC
  5
286
100
AcDbEntity
  8
0
100
AcDbCircle
 62
2
  6
CONTINUOUS
 10
13.5607987082
 20
2.5143997688
 40
0.0238935861
100
AcDbArc
 50
209.8247607259
 51
235.1255079367
  0
ARC
  5
287
100
AcDbEntity
  8
0
100
AcDbCircle
 62
2
  6
CONTINUOUS
 10
13.5295131508
 20
2.5629115009
 40
0.0110815393
100
AcDbArc
 50
306.758405961
 51
320.4502234234
  0
ARC
  5
288
100
AcDbEntity
  8
0
100
AcDbCircle
 62
2
  6
CONTINUOUS
 10
13.5238839599
 20
2.5706523294
 40
0.0206523367
100
AcDbArc
 50
289.6883413472
 51
306.4184925496
  0
ARC
  5
289
100
AcDbEntity
  8
0
100
AcDbCircle
 62
2
  6
CONTINUOUS
 10
13.5219564542
 20
2.5750459767
 40
0.0254407115
100
AcDbArc
 50
270.7327484175
 51
290.441894219
  0
LINE
  5
28A
100
AcDbEntity
  8
0
100
AcDbLine
 62
2
  6
CONTINUOUS
 10
13.5222818033
 20
2.5496073456
 11
13.4883447845
 21
2.5496073456
  0
ARC
  5
28B
100
AcDbEntity
  8
0
100
AcDbCircle
 62
2
  6
CONTINUOUS
 10
13.4883447827
 20
2.5520823451
 40
0.0024749995
100
AcDbArc
 50
179.9999571957
 51
270.0000428043
  0
LINE
  5
28C
100
AcDbEntity
  8
0
100
AcDbLine
 62
2
  6
CONTINUOUS
 10
13.4858697831
 20
2.552082347
 11
13.4858697831
 21
2.564807354
  0
ARC
  5
28D
100
AcDbEntity
  8
0
100
AcDbCircle
 62
2
  6
CONTINUOUS
 10
13.4883447827
 20
2.5648073559
 40
0.0024749995
100
AcDbArc
 50
89.9999571957
 51
180.0000428043
  0
LINE
  5
28E
100
AcDbEntity
  8
0
100
AcDbLine
 62
2
  6
CONTINUOUS
 10
13.4883447845
 20
2.5672823554
 11
13.5251458049
 21
2.5672823554
  0
ARC
  5
28F
100
AcDbEntity
  8
0
100
AcDbCircle
 62
2
  6
CONTINUOUS
 10
13.5236009174
 20
2.5388278764
 40
0.0284963867
100
AcDbArc
 50
70.3834917948
 51
86.8922743861
  0
ARC
  5
290
100
AcDbEntity
  8
0
100
AcDbCircle
 62
2
  6
CONTINUOUS
 10
13.5284605274
 20
2.5518696094
 40
0.0145814632
100
AcDbArc
 50
54.6746025112
 51
71.1660573124
  0
ARC
  5
291
100
AcDbEntity
  8
0
100
AcDbCircle
 62
2
  6
CONTINUOUS
 10
13.5335900184
 20
2.5587235346
 40
0.0060275915
100
AcDbArc
 50
20.9055592135
 51
56.7851676243
  0
ARC
  5
292
100
AcDbEntity
  8
0
100
AcDbCircle
 62
2
  6
CONTINUOUS
 10
13.5348905773
 20
2.5593838168
 40
0.0045795888
100
AcDbArc
 50
355.6235353944
 51
18.9942678268
  0
ARC
  5
293
100
AcDbEntity
  8
0
100
AcDbCircle
 62
2
  6
CONTINUOUS
 10
13.533683767
 20
2.559677593
 40
0.0058087709
100
AcDbArc
 50
318.8515287446
 51
353.6422345323
  0
LINE
  5
294
100
AcDbEntity
  8
0
100
AcDbLine
 62
2
  6
CONTINUOUS
 10
12.672340332
 20
2.5920323691
 11
12.7727983877
 21
2.5920323691
  0
ARC
  5
295
100
AcDbEntity
  8
0
100
AcDbCircle
 62
2
  6
CONTINUOUS
 10
12.7727985224
 20
2.5895582013
 40
0.0024741678
100
AcDbArc
 50
46.3477981899
 51
90.0031206038
  0
LINE
  5
296
100
AcDbEntity
  8
0
100
AcDbLine
 62
2
  6
CONTINUOUS
 10
12.7745063886
 20
2.5913483688
 11
12.8345394219
 21
2.534068337
  0
ARC
  5
297
100
AcDbEntity
  8
0
100
AcDbCircle
 62
2
  6
CONTINUOUS
 10
12.8362481229
 20
2.5358592748
 40
0.0024753014
100
AcDbArc
 50
226.3461263059
 51
0.0014637321
  0
LINE
  5
298
100
AcDbEntity
  8
0
100
AcDbLine
 62
2
  6
CONTINUOUS
 10
12.8387234242
 20
2.535859338
 11
12.8387234242
 21
2.564807354
  0
ARC
  5
299
100
AcDbEntity
  8
0
100
AcDbCircle
 62
2
  6
CONTINUOUS
 10
12.8362484247
 20
2.5648073559
 40
0.0024749995
100
AcDbArc
 50
359.9999571957
 51
90.0000428043
  0
LINE
  5
29A
100
AcDbEntity
  8
0
100
AcDbLine
 62
2
  6
CONTINUOUS
 10
12.8362484229
 20
2.5672823554
 11
12.8174724125
 21
2.5672823554
  0
ARC
  5
29B
100
AcDbEntity
  8
0
100
AcDbCircle
 62
2
  6
CONTINUOUS
 10
12.8174724106
 20
2.5697573549
 40
0.0024749995
100
AcDbArc
 50
179.9999571957
 51
270.0000428043
  0
LINE
  5
29C
100
AcDbEntity
  8
0
100
AcDbLine
 62
2
  6
CONTINUOUS
 10
12.8149974111
 20
2.5697573568
 11
12.8149974111
 21
2.5895573678
  0
ARC
  5
29D
100
AcDbEntity
  8
0
100
AcDbCircle
 62
2
  6
CONTINUOUS
 10
12.8174724106
 20
2.5895573696
 40
0.0024749995
100
AcDbArc
 50
89.9999571957
 51
180.0000428043
  0
LINE
  5
29E
100
AcDbEntity
  8
0
100
AcDbLine
 62
2
  6
CONTINUOUS
 10
12.8174724125
 20
2.5920323691
 11
12.8914734535
 21
2.5920323691
  0
ARC
  5
29F
100
AcDbEntity
  8
0
100
AcDbCircle
 62
2
  6
CONTINUOUS
 10
12.8914734553
 20
2.5895573696
 40
0.0024749995
100
AcDbArc
 50
359.9999571957
 51
90.0000428043
  0
LINE
  5
2A0
100
AcDbEntity
  8
0
100
AcDbLine
 62
2
  6
CONTINUOUS
 10
12.8939484549
 20
2.5895573678
 11
12.8939484549
 21
2.5697573568
  0
ARC
  5
2A1
100
AcDbEntity
  8
0
100
AcDbCircle
 62
2
  6
CONTINUOUS
 10
12.8914734553
 20
2.5697573549
 40
0.0024749995
100
AcDbArc
 50
269.9999571957
 51
0.0000428043
  0
LINE
  5
2A2
100
AcDbEntity
  8
0
100
AcDbLine
 62
2
  6
CONTINUOUS
 10
12.8914734535
 20
2.5672823554
 11
12.8735404436
 21
2.5672823554
  0
ARC
  5
2A3
100
AcDbEntity
  8
0
100
AcDbCircle
 62
2
  6
CONTINUOUS
 10
12.8735404417
 20
2.5648073559
 40
0.0024749995
100
AcDbArc
 50
89.9999571957
 51
180.0000428043
  0
LINE
  5
2A4
100
AcDbEntity
  8
0
100
AcDbLine
 62
2
  6
CONTINUOUS
 10
12.8710654422
 20
2.564807354
 11
12.8710654422
 21
2.4937023146
  0
ARC
  5
2A5
100
AcDbEntity
  8
0
100
AcDbCircle
 62
2
  6
CONTINUOUS
 10
12.8685904427
 20
2.4937023128
 40
0.0024749995
100
AcDbArc
 50
269.9999571957
 51
0.0000428043
  0
LINE
  5
2A6
100
AcDbEntity
  8
0
100
AcDbLine
 62
2
  6
CONTINUOUS
 10
12.8685904408
 20
2.4912273132
 11
12.7943853997
 21
2.4912273132
  0
ARC
  5
2A7
100
AcDbEntity
  8
0
100
AcDbCircle
 62
2
  6
CONTINUOUS
 10
12.7943847649
 20
2.4937027294
 40
0.0024754162
100
AcDbArc
 50
226.3593695813
 51
270.0146919953
  0
LINE
  5
2A8
100
AcDbEntity
  8
0
100
AcDbLine
 62
2
  6
CONTINUOUS
 10
12.7926763987
 20
2.4919113136
 11
12.7293963636
 21
2.5522893471
  0
ARC
  5
2A9
100
AcDbEntity
  8
0
100
AcDbCircle
 62
2
  6
CONTINUOUS
 10
12.7276876627
 20
2.5504984093
 40
0.0024753014
100
AcDbArc
 50
46.3461263059
 51
180.0014637321
  0
LINE
  5
2AA
100
AcDbEntity
  8
0
100
AcDbLine
 62
2
  6
CONTINUOUS
 10
12.7252123613
 20
2.5504983461
 11
12.7252123613
 21
2.5184523283
  0
ARC
  5
2AB
100
AcDbEntity
  8
0
100
AcDbCircle
 62
2
  6
CONTINUOUS
 10
12.7276873608
 20
2.5184523265
 40
0.0024749995
100
AcDbArc
 50
179.9999571957
 51
270.0000428043
  0
LINE
  5
2AC
100
AcDbEntity
  8
0
100
AcDbLine
 62
2
  6
CONTINUOUS
 10
12.7276873627
 20
2.515977327
 11
12.7480043739
 21
2.515977327
  0
ARC
  5
2AD
100
AcDbEntity
  8
0
100
AcDbCircle
 62
2
  6
CONTINUOUS
 10
12.7480043758
 20
2.5135023274
 40
0.0024749995
100
AcDbArc
 50
359.9999571957
 51
90.0000428043
  0
LINE
  5
2AE
100
AcDbEntity
  8
0
100
AcDbLine
 62
2
  6
CONTINUOUS
 10
12.7504793753
 20
2.5135023256
 11
12.7504793753
 21
2.4937023146
  0
ARC
  5
2AF
100
AcDbEntity
  8
0
100
AcDbCircle
 62
2
  6
CONTINUOUS
 10
12.7480043758
 20
2.4937023128
 40
0.0024749995
100
AcDbArc
 50
269.9999571957
 51
0.0000428043
  0
LINE
  5
2B0
100
AcDbEntity
  8
0
100
AcDbLine
 62
2
  6
CONTINUOUS
 10
12.7480043739
 20
2.4912273132
 11
12.672340332
 21
2.4912273132
  0
ARC
  5
2B1
100
AcDbEntity
  8
0
100
AcDbCircle
 62
2
  6
CONTINUOUS
 10
12.6723403301
 20
2.4937023128
 40
0.0024749995
100
AcDbArc
 50
179.9999571957
 51
270.0000428043
  0
LINE
  5
2B2
100
AcDbEntity
  8
0
100
AcDbLine
 62
2
  6
CONTINUOUS
 10
12.6698653306
 20
2.4937023146
 11
12.6698653306
 21
2.5135023256
  0
ARC
  5
2B3
100
AcDbEntity
  8
0
100
AcDbCircle
 62
2
  6
CONTINUOUS
 10
12.6723403301
 20
2.5135023274
 40
0.0024749995
100
AcDbArc
 50
89.9999571957
 51
180.0000428043
  0
LINE
  5
2B4
100
AcDbEntity
  8
0
100
AcDbLine
 62
2
  6
CONTINUOUS
 10
12.672340332
 20
2.515977327
 11
12.6909873423
 21
2.515977327
  0
ARC
  5
2B5
100
AcDbEntity
  8
0
100
AcDbCircle
 62
2
  6
CONTINUOUS
 10
12.6909873442
 20
2.5184523265
 40
0.0024749995
100
AcDbArc
 50
269.9999571957
 51
0.0000428043
  0
LINE
  5
2B6
100
AcDbEntity
  8
0
100
AcDbLine
 62
2
  6
CONTINUOUS
 10
12.6934623437
 20
2.5184523283
 11
12.6934623437
 21
2.564807354
  0
ARC
  5
2B7
100
AcDbEntity
  8
0
100
AcDbCircle
 62
2
  6
CONTINUOUS
 10
12.6909873442
 20
2.5648073559
 40
0.0024749995
100
AcDbArc
 50
359.9999571957
 51
90.0000428043
  0
LINE
  5
2B8
100
AcDbEntity
  8
0
100
AcDbLine
 62
2
  6
CONTINUOUS
 10
12.6909873423
 20
2.5672823554
 11
12.672340332
 21
2.5672823554
  0
ARC
  5
2B9
100
AcDbEntity
  8
0
100
AcDbCircle
 62
2
  6
CONTINUOUS
 10
12.6723403301
 20
2.5697573549
 40
0.0024749995
100
AcDbArc
 50
179.9999571957
 51
270.0000428043
  0
LINE
  5
2BA
100
AcDbEntity
  8
0
100
AcDbLine
 62
2
  6
CONTINUOUS
 10
12.6698653306
 20
2.5697573568
 11
12.6698653306
 21
2.5895573678
  0
ARC
  5
2BB
100
AcDbEntity
  8
0
100
AcDbCircle
 62
2
  6
CONTINUOUS
 10
12.6723403301
 20
2.5895573696
 40
0.0024749995
100
AcDbArc
 50
89.9999571957
 51
180.0000428043
  0
LINE
  5
2BC
100
AcDbEntity
  8
0
100
AcDbLine
 62
2
  6
CONTINUOUS
 10
12.5246402501
 20
2.5655893545
 11
12.5175232461
 21
2.5543723483
  0
ARC
  5
2BD
100
AcDbEntity
  8
0
100
AcDbCircle
 62
2
  6
CONTINUOUS
 10
12.519613138
 20
2.5530463862
 40
0.0024750401
100
AcDbArc
 50
147.6063258012
 51
270.0025305754
  0
LINE
  5
2BE
100
AcDbEntity
  8
0
100
AcDbLine
 62
2
  6
CONTINUOUS
 10
12.5196132473
 20
2.5505713461
 11
12.5401702587
 21
2.5505713461
  0
ARC
  5
2BF
100
AcDbEntity
  8
0
100
AcDbCircle
 62
2
  6
CONTINUOUS
 10
12.5401702375
 20
2.5530465533
 40
0.0024752071
100
AcDbArc
 50
270.0004896793
 51
32.9089806818
  0
LINE
  5
2C0
100
AcDbEntity
  8
0
100
AcDbLine
 62
2
  6
CONTINUOUS
 10
12.5422482598
 20
2.5543913483
 11
12.5349892558
 21
2.5656073545
  0
ARC
  5
2C1
100
AcDbEntity
  8
0
100
AcDbCircle
 62
2
  6
CONTINUOUS
 10
12.532910715
 20
2.564262895
 40
0.0024754602
100
AcDbArc
 50
32.8959418573
 51
89.9875097202
  0
LINE
  5
2C2
100
AcDbEntity
  8
0
100
AcDbLine
 62
2
  6
CONTINUOUS
 10
12.5329112547
 20
2.5667383551
 11
12.5267302512
 21
2.5667383551
  0
ARC
  5
2C3
100
AcDbEntity
  8
0
100
AcDbCircle
 62
2
  6
CONTINUOUS
 10
12.5267301809
 20
2.5642631548
 40
0.0024752003
100
AcDbArc
 50
89.998372645
 51
147.602165307
  0
LINE
  5
2C4
100
AcDbEntity
  8
0
100
AcDbLine
 62
2
  6
CONTINUOUS
 10
12.548053263
 20
2.5284903339
 11
12.5536792662
 21
2.5197973291
  0
ARC
  5
2C5
100
AcDbEntity
  8
0
100
AcDbCircle
 62
2
  6
CONTINUOUS
 10
12.5516012439
 20
2.5184525341
 40
0.0024752071
100
AcDbArc
 50
270.0004896794
 51
32.9089806818
  0
LINE
  5
2C6
100
AcDbEntity
  8
0
100
AcDbLine
 62
2
  6
CONTINUOUS
 10
12.551601265
 20
2.515977327
 11
12.537150257
 21
2.515977327
  0
ARC
  5
2C7
100
AcDbEntity
  8
0
100
AcDbCircle
 62
2
  6
CONTINUOUS
 10
12.5371502552
 20
2.5135023274
 40
0.0024749995
100
AcDbArc
 50
89.9999571957
 51
180.0000428043
  0
LINE
  5
2C8
100
AcDbEntity
  8
0
100
AcDbLine
 62
2
  6
CONTINUOUS
 10
12.5346752556
 20
2.5135023256
 11
12.5346752556
 21
2.4937023146
  0
ARC
  5
2C9
100
AcDbEntity
  8
0
100
AcDbCircle
 62
2
  6
CONTINUOUS
 10
12.5371502552
 20
2.4937023128
 40
0.0024749995
100
AcDbArc
 50
179.9999571957
 51
270.0000428043
  0
LINE
  5
2CA
100
AcDbEntity
  8
0
100
AcDbLine
 62
2
  6
CONTINUOUS
 10
12.537150257
 20
2.4912273132
 11
12.6424313154
 21
2.4912273132
  0
ARC
  5
2CB
100
AcDbEntity
  8
0
100
AcDbCircle
 62
2
  6
CONTINUOUS
 10
12.6424313172
 20
2.4937023128
 40
0.0024749995
100
AcDbArc
 50
269.9999571957
 51
0.0000428043
  0
LINE
  5
2CC
100
AcDbEntity
  8
0
100
AcDbLine
 62
2
  6
CONTINUOUS
 10
12.6449063168
 20
2.4937023146
 11
12.6449063168
 21
2.5135023256
  0
ARC
  5
2CD
100
AcDbEntity
  8
0
100
AcDbCircle
 62
2
  6
CONTINUOUS
 10
12.6424313172
 20
2.5135023274
 40
0.0024749995
100
AcDbArc
 50
359.9999571957
 51
90.0000428043
  0
LINE
  5
2CE
100
AcDbEntity
  8
0
100
AcDbLine
 62
2
  6
CONTINUOUS
 10
12.6424313154
 20
2.515977327
 11
12.6224153043
 21
2.515977327
  0
ARC
  5
2CF
100
AcDbEntity
  8
0
100
AcDbCircle
 62
2
  6
CONTINUOUS
 10
12.6224154248
 20
2.518451368
 40
0.002474041
100
AcDbArc
 50
212.9056413127
 51
269.9972091756
  0
LINE
  5
2D0
100
AcDbEntity
  8
0
100
AcDbLine
 62
2
  6
CONTINUOUS
 10
12.6203383031
 20
2.5171073276
 11
12.5725822767
 21
2.5909023685
  0
ARC
  5
2D1
100
AcDbEntity
  8
0
100
AcDbCircle
 62
2
  6
CONTINUOUS
 10
12.570504655
 20
2.589557409
 40
0.0024749602
100
AcDbArc
 50
32.9172174468
 51
90.0087853097
  0
LINE
  5
2D2
100
AcDbEntity
  8
0
100
AcDbLine
 62
2
  6
CONTINUOUS
 10
12.5705042755
 20
2.5920323691
 11
12.5133292438
 21
2.5920323691
  0
ARC
  5
2D3
100
AcDbEntity
  8
0
100
AcDbCircle
 62
2
  6
CONTINUOUS
 10
12.5133291735
 20
2.5895571688
 40
0.0024752003
100
AcDbArc
 50
89.9983726451
 51
147.602165307
  0
LINE
  5
2D4
100
AcDbEntity
  8
0
100
AcDbLine
 62
2
  6
CONTINUOUS
 10
12.5112392426
 20
2.5908833685
 11
12.4644392167
 21
2.5171263276
  0
ARC
  5
2D5
100
AcDbEntity
  8
0
100
AcDbCircle
 62
2
  6
CONTINUOUS
 10
12.4623492858
 20
2.5184525273
 40
0.0024752003
100
AcDbArc
 50
269.9983726451
 51
327.602165307
  0
LINE
  5
2D6
100
AcDbEntity
  8
0
100
AcDbLine
 62
2
  6
CONTINUOUS
 10
12.4623492155
 20
2.515977327
 11
12.4394882028
 21
2.515977327
  0
ARC
  5
2D7
100
AcDbEntity
  8
0
100
AcDbCircle
 62
2
  6
CONTINUOUS
 10
12.439488201
 20
2.5135023274
 40
0.0024749995
100
AcDbArc
 50
89.9999571957
 51
180.0000428043
  0
LINE
  5
2D8
100
AcDbEntity
  8
0
100
AcDbLine
 62
2
  6
CONTINUOUS
 10
12.4370132015
 20
2.5135023256
 11
12.4370132015
 21
2.4937023146
  0
ARC
  5
2D9
100
AcDbEntity
  8
0
100
AcDbCircle
 62
2
  6
CONTINUOUS
 10
12.439488201
 20
2.4937023128
 40
0.0024749995
100
AcDbArc
 50
179.9999571957
 51
270.0000428043
  0
LINE
  5
2DA
100
AcDbEntity
  8
0
100
AcDbLine
 62
2
  6
CONTINUOUS
 10
12.4394882028
 20
2.4912273132
 11
12.5168642458
 21
2.4912273132
  0
ARC
  5
2DB
100
AcDbEntity
  8
0
100
AcDbCircle
 62
2
  6
CONTINUOUS
 10
12.5168642476
 20
2.4937023128
 40
0.0024749995
100
AcDbArc
 50
269.9999571957
 51
0.0000428043
  0
LINE
  5
2DC
100
AcDbEntity
  8
0
100
AcDbLine
 62
2
  6
CONTINUOUS
 10
12.5193392471
 20
2.4937023146
 11
12.5193392471
 21
2.5135023256
  0
ARC
  5
2DD
100
AcDbEntity
  8
0
100
AcDbCircle
 62
2
  6
CONTINUOUS
 10
12.5168642476
 20
2.5135023274
 40
0.0024749995
100
AcDbArc
 50
359.9999571957
 51
90.0000428043
  0
LINE
  5
2DE
100
AcDbEntity
  8
0
100
AcDbLine
 62
2
  6
CONTINUOUS
 10
12.5168642458
 20
2.515977327
 11
12.5055812395
 21
2.515977327
  0
ARC
  5
2DF
100
AcDbEntity
  8
0
100
AcDbCircle
 62
2
  6
CONTINUOUS
 10
12.5055811302
 20
2.518452367
 40
0.0024750401
100
AcDbArc
 50
147.6063258011
 51
270.0025305754
  0
LINE
  5
2E0
100
AcDbEntity
  8
0
100
AcDbLine
 62
2
  6
CONTINUOUS
 10
12.5034912383
 20
2.5197783291
 11
12.5090072414
 21
2.5284723339
  0
ARC
  5
2E1
100
AcDbEntity
  8
0
100
AcDbCircle
 62
2
  6
CONTINUOUS
 10
12.5110971723
 20
2.5271461342
 40
0.0024752003
100
AcDbArc
 50
89.998372645
 51
147.602165307
  0
LINE
  5
2E2
100
AcDbEntity
  8
0
100
AcDbLine
 62
2
  6
CONTINUOUS
 10
12.5110972426
 20
2.5296213345
 11
12.5459752619
 21
2.5296213345
  0
ARC
  5
2E3
100
AcDbEntity
  8
0
100
AcDbCircle
 62
2
  6
CONTINUOUS
 10
12.5459747223
 20
2.5271458744
 40
0.0024754602
100
AcDbArc
 50
32.8959418573
 51
89.9875097202
  0
LINE
  5
2E4
100
AcDbEntity
  8
0
100
AcDbLine
 62
2
  6
CONTINUOUS
 10
12.9205934696
 20
2.5920323691
 11
13.0210515254
 21
2.5920323691
  0
ARC
  5
2E5
100
AcDbEntity
  8
0
100
AcDbCircle
 62
2
  6
CONTINUOUS
 10
13.0210516601
 20
2.5895582013
 40
0.0024741678
100
AcDbArc
 50
46.3477981899
 51
90.0031206038
  0
LINE
  5
2E6
100
AcDbEntity
  8
0
100
AcDbLine
 62
2
  6
CONTINUOUS
 10
13.0227595263
 20
2.5913483688
 11
13.0827925596
 21
2.534068337
  0
ARC
  5
2E7
100
AcDbEntity
  8
0
100
AcDbCircle
 62
2
  6
CONTINUOUS
 10
13.0845012605
 20
2.5358592748
 40
0.0024753014
100
AcDbArc
 50
226.3461263059
 51
0.0014637321
  0
LINE
  5
2E8
100
AcDbEntity
  8
0
100
AcDbLine
 62
2
  6
CONTINUOUS
 10
13.0869765619
 20
2.535859338
 11
13.0869765619
 21
2.564807354
  0
ARC
  5
2E9
100
AcDbEntity
  8
0
100
AcDbCircle
 62
2
  6
CONTINUOUS
 10
13.0845015624
 20
2.5648073559
 40
0.0024749995
100
AcDbArc
 50
359.9999571957
 51
90.0000428043
  0
LINE
  5
2EA
100
AcDbEntity
  8
0
100
AcDbLine
 62
2
  6
CONTINUOUS
 10
13.0845015605
 20
2.5672823554
 11
13.0657255501
 21
2.5672823554
  0
ARC
  5
2EB
100
AcDbEntity
  8
0
100
AcDbCircle
 62
2
  6
CONTINUOUS
 10
13.0657255483
 20
2.5697573549
 40
0.0024749995
100
AcDbArc
 50
179.9999571957
 51
270.0000428043
  0
LINE
  5
2EC
100
AcDbEntity
  8
0
100
AcDbLine
 62
2
  6
CONTINUOUS
 10
13.0632505488
 20
2.5697573568
 11
13.0632505488
 21
2.5895573678
  0
ARC
  5
2ED
100
AcDbEntity
  8
0
100
AcDbCircle
 62
2
  6
CONTINUOUS
 10
13.0657255483
 20
2.5895573696
 40
0.0024749995
100
AcDbArc
 50
89.9999571957
 51
180.0000428043
  0
LINE
  5
2EE
100
AcDbEntity
  8
0
100
AcDbLine
 62
2
  6
CONTINUOUS
 10
13.0657255501
 20
2.5920323691
 11
13.1397265912
 21
2.5920323691
  0
ARC
  5
2EF
100
AcDbEntity
  8
0
100
AcDbCircle
 62
2
  6
CONTINUOUS
 10
13.139726593
 20
2.5895573696
 40
0.0024749995
100
AcDbArc
 50
359.9999571957
 51
90.0000428043
  0
LINE
  5
2F0
100
AcDbEntity
  8
0
100
AcDbLine
 62
2
  6
CONTINUOUS
 10
13.1422015925
 20
2.5895573678
 11
13.1422015925
 21
2.5697573568
  0
ARC
  5
2F1
100
AcDbEntity
  8
0
100
AcDbCircle
 62
2
  6
CONTINUOUS
 10
13.139726593
 20
2.5697573549
 40
0.0024749995
100
AcDbArc
 50
269.9999571957
 51
0.0000428042
  0
LINE
  5
2F2
100
AcDbEntity
  8
0
100
AcDbLine
 62
2
  6
CONTINUOUS
 10
13.1397265912
 20
2.5672823554
 11
13.1217935812
 21
2.5672823554
  0
ARC
  5
2F3
100
AcDbEntity
  8
0
100
AcDbCircle
 62
2
  6
CONTINUOUS
 10
13.1217935794
 20
2.5648073559
 40
0.0024749995
100
AcDbArc
 50
89.9999571957
 51
180.0000428042
  0
LINE
  5
2F4
100
AcDbEntity
  8
0
100
AcDbLine
 62
2
  6
CONTINUOUS
 10
13.1193185799
 20
2.564807354
 11
13.1193185799
 21
2.4937023146
  0
ARC
  5
2F5
100
AcDbEntity
  8
0
100
AcDbCircle
 62
2
  6
CONTINUOUS
 10
13.1168435803
 20
2.4937023128
 40
0.0024749995
100
AcDbArc
 50
269.9999571957
 51
0.0000428043
  0
LINE
  5
2F6
100
AcDbEntity
  8
0
100
AcDbLine
 62
2
  6
CONTINUOUS
 10
13.1168435785
 20
2.4912273132
 11
13.0426375373
 21
2.4912273132
  0
ARC
  5
2F7
100
AcDbEntity
  8
0
100
AcDbCircle
 62
2
  6
CONTINUOUS
 10
13.0426374026
 20
2.493701481
 40
0.0024741678
100
AcDbArc
 50
226.3477981898
 51
270.0031206038
  0
LINE
  5
2F8
100
AcDbEntity
  8
0
100
AcDbLine
 62
2
  6
CONTINUOUS
 10
13.0409295364
 20
2.4919113136
 11
12.9776495013
 21
2.5522893471
  0
ARC
  5
2F9
100
AcDbEntity
  8
0
100
AcDbCircle
 62
2
  6
CONTINUOUS
 10
12.9759408003
 20
2.5504984093
 40
0.0024753014
100
AcDbArc
 50
46.3461263059
 51
180.0014637321
  0
LINE
  5
2FA
100
AcDbEntity
  8
0
100
AcDbLine
 62
2
  6
CONTINUOUS
 10
12.973465499
 20
2.5504983461
 11
12.973465499
 21
2.5184523283
  0
ARC
  5
2FB
100
AcDbEntity
  8
0
100
AcDbCircle
 62
2
  6
CONTINUOUS
 10
12.9759404985
 20
2.5184523265
 40
0.0024749995
100
AcDbArc
 50
179.9999571957
 51
270.0000428043
  0
LINE
  5
2FC
100
AcDbEntity
  8
0
100
AcDbLine
 62
2
  6
CONTINUOUS
 10
12.9759405003
 20
2.515977327
 11
12.9962575116
 21
2.515977327
  0
ARC
  5
2FD
100
AcDbEntity
  8
0
100
AcDbCircle
 62
2
  6
CONTINUOUS
 10
12.9962575135
 20
2.5135023274
 40
0.0024749995
100
AcDbArc
 50
359.9999571957
 51
90.0000428043
  0
LINE
  5
2FE
100
AcDbEntity
  8
0
100
AcDbLine
 62
2
  6
CONTINUOUS
 10
12.998732513
 20
2.5135023256
 11
12.998732513
 21
2.4937023146
  0
ARC
  5
2FF
100
AcDbEntity
  8
0
100
AcDbCircle
 62
2
  6
CONTINUOUS
 10
12.9962575135
 20
2.4937023128
 40
0.0024749995
100
AcDbArc
 50
269.9999571957
 51
0.0000428043
  0
LINE
  5
300
100
AcDbEntity
  8
0
100
AcDbLine
 62
2
  6
CONTINUOUS
 10
12.9962575116
 20
2.4912273132
 11
12.9205934696
 21
2.4912273132
  0
ARC
  5
301
100
AcDbEntity
  8
0
100
AcDbCircle
 62
2
  6
CONTINUOUS
 10
12.9205934678
 20
2.4937023128
 40
0.0024749995
100
AcDbArc
 50
179.9999571957
 51
270.0000428043
  0
LINE
  5
302
100
AcDbEntity
  8
0
100
AcDbLine
 62
2
  6
CONTINUOUS
 10
12.9181184683
 20
2.4937023146
 11
12.9181184683
 21
2.5135023256
  0
ARC
  5
303
100
AcDbEntity
  8
0
100
AcDbCircle
 62
2
  6
CONTINUOUS
 10
12.9205934678
 20
2.5135023274
 40
0.0024749995
100
AcDbArc
 50
89.9999571957
 51
180.0000428042
  0
LINE
  5
304
100
AcDbEntity
  8
0
100
AcDbLine
 62
2
  6
CONTINUOUS
 10
12.9205934696
 20
2.515977327
 11
12.93923948
 21
2.515977327
  0
ARC
  5
305
100
AcDbEntity
  8
0
100
AcDbCircle
 62
2
  6
CONTINUOUS
 10
12.9392394818
 20
2.5184523265
 40
0.0024749995
100
AcDbArc
 50
269.9999571957
 51
0.0000428043
  0
LINE
  5
306
100
AcDbEntity
  8
0
100
AcDbLine
 62
2
  6
CONTINUOUS
 10
12.9417144814
 20
2.5184523283
 11
12.9417144814
 21
2.564807354
  0
ARC
  5
307
100
AcDbEntity
  8
0
100
AcDbCircle
 62
2
  6
CONTINUOUS
 10
12.9392394818
 20
2.5648073559
 40
0.0024749995
100
AcDbArc
 50
359.9999571957
 51
90.0000428043
  0
LINE
  5
308
100
AcDbEntity
  8
0
100
AcDbLine
 62
2
  6
CONTINUOUS
 10
12.93923948
 20
2.5672823554
 11
12.9205934696
 21
2.5672823554
  0
ARC
  5
309
100
AcDbEntity
  8
0
100
AcDbCircle
 62
2
  6
CONTINUOUS
 10
12.9205934678
 20
2.5697573549
 40
0.0024749995
100
AcDbArc
 50
179.9999571957
 51
270.0000428043
  0
LINE
  5
30A
100
AcDbEntity
  8
0
100
AcDbLine
 62
2
  6
CONTINUOUS
 10
12.9181184683
 20
2.5697573568
 11
12.9181184683
 21
2.5895573678
  0
ARC
  5
30B
100
AcDbEntity
  8
0
100
AcDbCircle
 62
2
  6
CONTINUOUS
 10
12.9205934678
 20
2.5895573696
 40
0.0024749995
100
AcDbArc
 50
89.9999571957
 51
180.0000428042
  0
LINE
  5
30C
100
AcDbEntity
  8
0
100
AcDbLine
 62
2
  6
CONTINUOUS
 10
13.2934226764
 20
2.5324773361
 11
13.2582556569
 21
2.5324773361
  0
ARC
  5
30D
100
AcDbEntity
  8
0
100
AcDbCircle
 62
2
  6
CONTINUOUS
 10
13.2582556551
 20
2.5300023366
 40
0.0024749995
100
AcDbArc
 50
89.9999571957
 51
180.0000428043
  0
LINE
  5
30E
100
AcDbEntity
  8
0
100
AcDbLine
 62
2
  6
CONTINUOUS
 10
13.2557806555
 20
2.5300023347
 11
13.2557806555
 21
2.5184523283
  0
ARC
  5
30F
100
AcDbEntity
  8
0
100
AcDbCircle
 62
2
  6
CONTINUOUS
 10
13.2582556551
 20
2.5184523265
 40
0.0024749995
100
AcDbArc
 50
179.9999571957
 51
270.0000428043
  0
LINE
  5
310
100
AcDbEntity
  8
0
100
AcDbLine
 62
2
  6
CONTINUOUS
 10
13.2582556569
 20
2.515977327
 11
13.3232596929
 21
2.515977327
  0
ARC
  5
311
100
AcDbEntity
  8
0
100
AcDbCircle
 62
2
  6
CONTINUOUS
 10
13.3232596948
 20
2.5184523265
 40
0.0024749995
100
AcDbArc
 50
269.9999571957
 51
0.0000428043
  0
LINE
  5
312
100
AcDbEntity
  8
0
100
AcDbLine
 62
2
  6
CONTINUOUS
 10
13.3257346943
 20
2.5184523283
 11
13.3257346943
 21
2.5267023329
  0
ARC
  5
313
100
AcDbEntity
  8
0
100
AcDbCircle
 62
2
  6
CONTINUOUS
 10
13.3282096938
 20
2.5267023348
 40
0.0024749995
100
AcDbArc
 50
89.9999571957
 51
180.0000428043
  0
LINE
  5
314
100
AcDbEntity
  8
0
100
AcDbLine
 62
2
  6
CONTINUOUS
 10
13.3282096957
 20
2.5291773343
 11
13.3705287192
 21
2.5291773343
  0
ARC
  5
315
100
AcDbEntity
  8
0
100
AcDbCircle
 62
2
  6
CONTINUOUS
 10
13.370528721
 20
2.5267023348
 40
0.0024749995
100
AcDbArc
 50
359.9999571957
 51
90.0000428043
  0
LINE
  5
316
100
AcDbEntity
  8
0
100
AcDbLine
 62
2
  6
CONTINUOUS
 10
13.3730037205
 20
2.5267023329
 11
13.3730037205
 21
2.4937023146
  0
ARC
  5
317
100
AcDbEntity
  8
0
100
AcDbCircle
 62
2
  6
CONTINUOUS
 10
13.370528721
 20
2.4937023128
 40
0.0024749995
100
AcDbArc
 50
269.9999571957
 51
0.0000428043
  0
LINE
  5
318
100
AcDbEntity
  8
0
100
AcDbLine
 62
2
  6
CONTINUOUS
 10
13.3705287192
 20
2.4912273132
 11
13.1673166065
 21
2.4912273132
  0
ARC
  5
319
100
AcDbEntity
  8
0
100
AcDbCircle
 62
2
  6
CONTINUOUS
 10
13.1673166046
 20
2.4937023128
 40
0.0024749995
100
AcDbArc
 50
179.9999571957
 51
270.0000428043
  0
LINE
  5
31A
100
AcDbEntity
  8
0
100
AcDbLine
 62
2
  6
CONTINUOUS
 10
13.1648416051
 20
2.4937023146
 11
13.1648416051
 21
2.5135023256
  0
ARC
  5
31B
100
AcDbEntity
  8
0
100
AcDbCircle
 62
2
  6
CONTINUOUS
 10
13.1673166046
 20
2.5135023274
 40
0.0024749995
100
AcDbArc
 50
89.9999571957
 51
180.0000428043
  0
LINE
  5
31C
100
AcDbEntity
  8
0
100
AcDbLine
 62
2
  6
CONTINUOUS
 10
13.1673166065
 20
2.515977327
 11
13.1912396197
 21
2.515977327
  0
ARC
  5
31D
100
AcDbEntity
  8
0
100
AcDbCircle
 62
2
  6
CONTINUOUS
 10
13.1912396216
 20
2.5184523265
 40
0.0024749995
100
AcDbArc
 50
269.9999571957
 51
0.0000428042
  0
LINE
  5
31E
100
AcDbEntity
  8
0
100
AcDbLine
 62
2
  6
CONTINUOUS
 10
13.1937146211
 20
2.5184523283
 11
13.1937146211
 21
2.564807354
  0
ARC
  5
31F
100
AcDbEntity
  8
0
100
AcDbCircle
 62
2
  6
CONTINUOUS
 10
13.1912396216
 20
2.5648073559
 40
0.0024749995
100
AcDbArc
 50
359.9999571957
 51
90.0000428043
  0
LINE
  5
320
100
AcDbEntity
  8
0
100
AcDbLine
 62
2
  6
CONTINUOUS
 10
13.1912396197
 20
2.5672823554
 11
13.1673166065
 21
2.5672823554
  0
ARC
  5
321
100
AcDbEntity
  8
0
100
AcDbCircle
 62
2
  6
CONTINUOUS
 10
13.1673166046
 20
2.5697573549
 40
0.0024749995
100
AcDbArc
 50
179.9999571957
 51
270.0000428043
  0
LINE
  5
322
100
AcDbEntity
  8
0
100
AcDbLine
 62
2
  6
CONTINUOUS
 10
13.1648416051
 20
2.5697573568
 11
13.1648416051
 21
2.5895573678
  0
ARC
  5
323
100
AcDbEntity
  8
0
100
AcDbCircle
 62
2
  6
CONTINUOUS
 10
13.1673166046
 20
2.5895573696
 40
0.0024749995
100
AcDbArc
 50
89.9999571957
 51
180.0000428043
  0
LINE
  5
324
100
AcDbEntity
  8
0
100
AcDbLine
 62
2
  6
CONTINUOUS
 10
13.1673166065
 20
2.5920323691
 11
13.3691097184
 21
2.5920323691
  0
ARC
  5
325
100
AcDbEntity
  8
0
100
AcDbCircle
 62
2
  6
CONTINUOUS
 10
13.3691097202
 20
2.5895573696
 40
0.0024749995
100
AcDbArc
 50
359.9999571957
 51
90.0000428043
  0
LINE
  5
326
100
AcDbEntity
  8
0
100
AcDbLine
 62
2
  6
CONTINUOUS
 10
13.3715847197
 20
2.5895573678
 11
13.3715847197
 21
2.5565573495
  0
ARC
  5
327
100
AcDbEntity
  8
0
100
AcDbCircle
 62
2
  6
CONTINUOUS
 10
13.3691097202
 20
2.5565573476
 40
0.0024749995
100
AcDbArc
 50
269.9999571957
 51
0.0000428042
  0
LINE
  5
328
100
AcDbEntity
  8
0
100
AcDbLine
 62
2
  6
CONTINUOUS
 10
13.3691097184
 20
2.5540823481
 11
13.3272456952
 21
2.5540823481
  0
ARC
  5
329
100
AcDbEntity
  8
0
100
AcDbCircle
 62
2
  6
CONTINUOUS
 10
13.3272456933
 20
2.5565573476
 40
0.0024749995
100
AcDbArc
 50
179.9999571957
 51
270.0000428043
  0
LINE
  5
32A
100
AcDbEntity
  8
0
100
AcDbLine
 62
2
  6
CONTINUOUS
 10
13.3247706938
 20
2.5565573495
 11
13.3247706938
 21
2.564807354
  0
ARC
  5
32B
100
AcDbEntity
  8
0
100
AcDbCircle
 62
2
  6
CONTINUOUS
 10
13.3222956943
 20
2.5648073559
 40
0.0024749995
100
AcDbArc
 50
359.9999571957
 51
90.0000428043
  0
LINE
  5
32C
100
AcDbEntity
  8
0
100
AcDbLine
 62
2
  6
CONTINUOUS
 10
13.3222956924
 20
2.5672823554
 11
13.2582556569
 21
2.5672823554
  0
ARC
  5
32D
100
AcDbEntity
  8
0
100
AcDbCircle
 62
2
  6
CONTINUOUS
 10
13.2582556551
 20
2.5648073559
 40
0.0024749995
100
AcDbArc
 50
89.9999571957
 51
180.0000428043
  0
LINE
  5
32E
100
AcDbEntity
  8
0
100
AcDbLine
 62
2
  6
CONTINUOUS
 10
13.2557806555
 20
2.564807354
 11
13.2557806555
 21
2.5532573476
  0
ARC
  5
32F
100
AcDbEntity
  8
0
100
AcDbCircle
 62
2
  6
CONTINUOUS
 10
13.2582556551
 20
2.5532573458
 40
0.0024749995
100
AcDbArc
 50
179.9999571957
 51
270.0000428043
  0
LINE
  5
330
100
AcDbEntity
  8
0
100
AcDbLine
 62
2
  6
CONTINUOUS
 10
13.2582556569
 20
2.5507823463
 11
13.2934226764
 21
2.5507823463
  0
ARC
  5
331
100
AcDbEntity
  8
0
100
AcDbCircle
 62
2
  6
CONTINUOUS
 10
13.2934226783
 20
2.5483073467
 40
0.0024749995
100
AcDbArc
 50
359.9999571957
 51
90.0000428043
  0
LINE
  5
332
100
AcDbEntity
  8
0
100
AcDbLine
 62
2
  6
CONTINUOUS
 10
13.2958976778
 20
2.5483073449
 11
13.2958976778
 21
2.5349523375
  0
ARC
  5
333
100
AcDbEntity
  8
0
100
AcDbCircle
 62
2
  6
CONTINUOUS
 10
13.2934226783
 20
2.5349523356
 40
0.0024749995
100
AcDbArc
 50
269.9999571957
 51
0.0000428042
  0
LINE
  5
334
100
AcDbEntity
  8
0
100
AcDbLine
 62
2
  6
CONTINUOUS
 10
13.7286871589
 20
2.5350697372
 11
13.7286871589
 21
2.5456869438
  0
LINE
  5
335
100
AcDbEntity
  8
0
100
AcDbLine
 62
2
  6
CONTINUOUS
 10
13.7086871478
 20
2.5004302075
 11
13.7086871478
 21
2.5803264735
  0
LINE
  5
336
100
AcDbEntity
  8
0
100
AcDbLine
 62
2
  6
CONTINUOUS
 10
13.6886871368
 20
2.4843919416
 11
13.6886871368
 21
2.5963647394
  0
LINE
  5
337
100
AcDbEntity
  8
0
100
AcDbLine
 62
2
  6
CONTINUOUS
 10
13.6686871257
 20
2.4726017898
 11
13.6686871257
 21
2.6081548911
  0
LINE
  5
338
100
AcDbEntity
  8
0
100
AcDbLine
 62
2
  6
CONTINUOUS
 10
13.6486871146
 20
2.4628062688
 11
13.6486871146
 21
2.6179504122
  0
LINE
  5
339
100
AcDbEntity
  8
0
100
AcDbLine
 62
2
  6
CONTINUOUS
 10
13.6286871035
 20
2.4541253507
 11
13.6286871035
 21
2.5062483056
  0
LINE
  5
33A
100
AcDbEntity
  8
0
100
AcDbLine
 62
2
  6
CONTINUOUS
 10
13.6286871035
 20
2.5301143348
 11
13.6286871035
 21
2.6266313303
  0
LINE
  5
33B
100
AcDbEntity
  8
0
100
AcDbLine
 62
2
  6
CONTINUOUS
 10
13.6086870924
 20
2.4465537903
 11
13.6086870924
 21
2.4918774918
  0
LINE
  5
33C
100
AcDbEntity
  8
0
100
AcDbLine
 62
2
  6
CONTINUOUS
 10
13.6086870924
 20
2.5165781173
 11
13.6086870924
 21
2.6342028907
  0
LINE
  5
33D
100
AcDbEntity
  8
0
100
AcDbLine
 62
2
  6
CONTINUOUS
 10
13.5886870813
 20
2.4398033466
 11
13.5886870813
 21
2.4912273132
  0
LINE
  5
33E
100
AcDbEntity
  8
0
100
AcDbLine
 62
2
  6
CONTINUOUS
 10
13.5886870813
 20
2.5391840845
 11
13.5886870813
 21
2.5454298327
  0
LINE
  5
33F
100
AcDbEntity
  8
0
100
AcDbLine
 62
2
  6
CONTINUOUS
 10
13.5886870813
 20
2.5862063472
 11
13.5886870813
 21
2.6409533343
  0
LINE
  5
340
100
AcDbEntity
  8
0
100
AcDbLine
 62
2
  6
CONTINUOUS
 10
13.5686870702
 20
2.4334702189
 11
13.5686870702
 21
2.4912273132
  0
LINE
  5
341
100
AcDbEntity
  8
0
100
AcDbLine
 62
2
  6
CONTINUOUS
 10
13.5686870702
 20
2.5906587765
 11
13.5686870702
 21
2.647286462
  0
LINE
  5
342
100
AcDbEntity
  8
0
100
AcDbLine
 62
2
  6
CONTINUOUS
 10
13.5486870591
 20
2.4278968124
 11
13.5486870591
 21
2.4937461006
  0
LINE
  5
343
100
AcDbEntity
  8
0
100
AcDbLine
 62
2
  6
CONTINUOUS
 10
13.5486870591
 20
2.5920323691
 11
13.5486870591
 21
2.6528598686
  0
LINE
  5
344
100
AcDbEntity
  8
0
100
AcDbLine
 62
2
  6
CONTINUOUS
 10
13.528687048
 20
2.4225427674
 11
13.528687048
 21
2.5270426993
  0
LINE
  5
345
100
AcDbEntity
  8
0
100
AcDbLine
 62
2
  6
CONTINUOUS
 10
13.528687048
 20
2.5505166259
 11
13.528687048
 21
2.5668657091
  0
LINE
  5
346
100
AcDbEntity
  8
0
100
AcDbLine
 62
2
  6
CONTINUOUS
 10
13.528687048
 20
2.5920323691
 11
13.528687048
 21
2.6582139136
  0
LINE
  5
347
100
AcDbEntity
  8
0
100
AcDbLine
 62
2
  6
CONTINUOUS
 10
13.5086870369
 20
2.4177306791
 11
13.5086870369
 21
2.4912273132
  0
LINE
  5
348
100
AcDbEntity
  8
0
100
AcDbLine
 62
2
  6
CONTINUOUS
 10
13.5086870369
 20
2.5159553269
 11
13.5086870369
 21
2.5306043351
  0
LINE
  5
349
100
AcDbEntity
  8
0
100
AcDbLine
 62
2
  6
CONTINUOUS
 10
13.5086870369
 20
2.5496073456
 11
13.5086870369
 21
2.5672823554
  0
LINE
  5
34A
100
AcDbEntity
  8
0
100
AcDbLine
 62
2
  6
CONTINUOUS
 10
13.5086870369
 20
2.5920323691
 11
13.5086870369
 21
2.6630260019
  0
LINE
  5
34B
100
AcDbEntity
  8
0
100
AcDbLine
 62
2
  6
CONTINUOUS
 10
13.4886870258
 20
2.4131795254
 11
13.4886870258
 21
2.4912273132
  0
LINE
  5
34C
100
AcDbEntity
  8
0
100
AcDbLine
 62
2
  6
CONTINUOUS
 10
13.4886870258
 20
2.5159553269
 11
13.4886870258
 21
2.5306043351
  0
LINE
  5
34D
100
AcDbEntity
  8
0
100
AcDbLine
 62
2
  6
CONTINUOUS
 10
13.4886870258
 20
2.5496073456
 11
13.4886870258
 21
2.5672823554
  0
LINE
  5
34E
100
AcDbEntity
  8
0
100
AcDbLine
 62
2
  6
CONTINUOUS
 10
13.4886870258
 20
2.5920323691
 11
13.4886870258
 21
2.6675771555
  0
LINE
  5
34F
100
AcDbEntity
  8
0
100
AcDbLine
 62
2
  6
CONTINUOUS
 10
13.4686870147
 20
2.4088819672
 11
13.4686870147
 21
2.4912273132
  0
LINE
  5
350
100
AcDbEntity
  8
0
100
AcDbLine
 62
2
  6
CONTINUOUS
 10
13.4686870147
 20
2.5920323691
 11
13.4686870147
 21
2.6718747138
  0
LINE
  5
351
100
AcDbEntity
  8
0
100
AcDbLine
 62
2
  6
CONTINUOUS
 10
13.4486870037
 20
2.4050092072
 11
13.4486870037
 21
2.4912273132
  0
LINE
  5
352
100
AcDbEntity
  8
0
100
AcDbLine
 62
2
  6
CONTINUOUS
 10
13.4486870037
 20
2.5920323691
 11
13.4486870037
 21
2.6757474738
  0
LINE
  5
353
100
AcDbEntity
  8
0
100
AcDbLine
 62
2
  6
CONTINUOUS
 10
13.4286869926
 20
2.4011364471
 11
13.4286869926
 21
2.4912273132
  0
LINE
  5
354
100
AcDbEntity
  8
0
100
AcDbLine
 62
2
  6
CONTINUOUS
 10
13.4286869926
 20
2.5920323691
 11
13.4286869926
 21
2.6796202339
  0
LINE
  5
355
100
AcDbEntity
  8
0
100
AcDbLine
 62
2
  6
CONTINUOUS
 10
13.4086869815
 20
2.3980226662
 11
13.4086869815
 21
2.4912273132
  0
LINE
  5
356
100
AcDbEntity
  8
0
100
AcDbLine
 62
2
  6
CONTINUOUS
 10
13.4086869815
 20
2.515977327
 11
13.4086869815
 21
2.5672823554
  0
LINE
  5
357
100
AcDbEntity
  8
0
100
AcDbLine
 62
2
  6
CONTINUOUS
 10
13.4086869815
 20
2.5920323691
 11
13.4086869815
 21
2.6827340148
  0
LINE
  5
358
100
AcDbEntity
  8
0
100
AcDbLine
 62
2
  6
CONTINUOUS
 10
13.3886869704
 20
2.3950052774
 11
13.3886869704
 21
2.6857514036
  0
LINE
  5
359
100
AcDbEntity
  8
0
100
AcDbLine
 62
2
  6
CONTINUOUS
 10
13.3686869593
 20
2.3919878885
 11
13.3686869593
 21
2.4912273132
  0
LINE
  5
35A
100
AcDbEntity
  8
0
100
AcDbLine
 62
2
  6
CONTINUOUS
 10
13.3686869593
 20
2.5291773343
 11
13.3686869593
 21
2.5540823481
  0
LINE
  5
35B
100
AcDbEntity
  8
0
100
AcDbLine
 62
2
  6
CONTINUOUS
 10
13.3686869593
 20
2.5920323691
 11
13.3686869593
 21
2.6887687924
  0
LINE
  5
35C
100
AcDbEntity
  8
0
100
AcDbLine
 62
2
  6
CONTINUOUS
 10
13.3486869482
 20
2.3889704997
 11
13.3486869482
 21
2.4912273132
  0
LINE
  5
35D
100
AcDbEntity
  8
0
100
AcDbLine
 62
2
  6
CONTINUOUS
 10
13.3486869482
 20
2.5291773343
 11
13.3486869482
 21
2.5540823481
  0
LINE
  5
35E
100
AcDbEntity
  8
0
100
AcDbLine
 62
2
  6
CONTINUOUS
 10
13.3486869482
 20
2.5920323691
 11
13.3486869482
 21
2.6917861813
  0
LINE
  5
35F
100
AcDbEntity
  8
0
100
AcDbLine
 62
2
  6
CONTINUOUS
 10
13.3286869371
 20
2.3859531109
 11
13.3286869371
 21
2.4912273132
  0
LINE
  5
360
100
AcDbEntity
  8
0
100
AcDbLine
 62
2
  6
CONTINUOUS
 10
13.3286869371
 20
2.5291773343
 11
13.3286869371
 21
2.5540823481
  0
LINE
  5
361
100
AcDbEntity
  8
0
100
AcDbLine
 62
2
  6
CONTINUOUS
 10
13.3286869371
 20
2.5920323691
 11
13.3286869371
 21
2.6948035701
  0
LINE
  5
362
100
AcDbEntity
  8
0
100
AcDbLine
 62
2
  6
CONTINUOUS
 10
13.308686926
 20
2.3833355437
 11
13.308686926
 21
2.4912273132
  0
LINE
  5
363
100
AcDbEntity
  8
0
100
AcDbLine
 62
2
  6
CONTINUOUS
 10
13.308686926
 20
2.515977327
 11
13.308686926
 21
2.5672823554
  0
LINE
  5
364
100
AcDbEntity
  8
0
100
AcDbLine
 62
2
  6
CONTINUOUS
 10
13.308686926
 20
2.5920323691
 11
13.308686926
 21
2.6974211373
  0
LINE
  5
365
100
AcDbEntity
  8
0
100
AcDbLine
 62
2
  6
CONTINUOUS
 10
13.2886869149
 20
2.3812612684
 11
13.2886869149
 21
2.4912273132
  0
LINE
  5
366
100
AcDbEntity
  8
0
100
AcDbLine
 62
2
  6
CONTINUOUS
 10
13.2886869149
 20
2.515977327
 11
13.2886869149
 21
2.5324773361
  0
LINE
  5
367
100
AcDbEntity
  8
0
100
AcDbLine
 62
2
  6
CONTINUOUS
 10
13.2886869149
 20
2.5507823463
 11
13.2886869149
 21
2.5672823554
  0
LINE
  5
368
100
AcDbEntity
  8
0
100
AcDbLine
 62
2
  6
CONTINUOUS
 10
13.2886869149
 20
2.5920323691
 11
13.2886869149
 21
2.6994954125
  0
LINE
  5
369
100
AcDbEntity
  8
0
100
AcDbLine
 62
2
  6
CONTINUOUS
 10
13.2686869038
 20
2.3791869932
 11
13.2686869038
 21
2.4912273132
  0
LINE
  5
36A
100
AcDbEntity
  8
0
100
AcDbLine
 62
2
  6
CONTINUOUS
 10
13.2686869038
 20
2.515977327
 11
13.2686869038
 21
2.5324773361
  0
LINE
  5
36B
100
AcDbEntity
  8
0
100
AcDbLine
 62
2
  6
CONTINUOUS
 10
13.2686869038
 20
2.5507823463
 11
13.2686869038
 21
2.5672823554
  0
LINE
  5
36C
100
AcDbEntity
  8
0
100
AcDbLine
 62
2
  6
CONTINUOUS
 10
13.2686869038
 20
2.5920323691
 11
13.2686869038
 21
2.7015696878
  0
LINE
  5
36D
100
AcDbEntity
  8
0
100
AcDbLine
 62
2
  6
CONTINUOUS
 10
13.2486868927
 20
2.377112718
 11
13.2486868927
 21
2.4912273132
  0
LINE
  5
36E
100
AcDbEntity
  8
0
100
AcDbLine
 62
2
  6
CONTINUOUS
 10
13.2486868927
 20
2.5920323691
 11
13.2486868927
 21
2.703643963
  0
LINE
  5
36F
100
AcDbEntity
  8
0
100
AcDbLine
 62
2
  6
CONTINUOUS
 10
13.2286868817
 20
2.3750384428
 11
13.2286868817
 21
2.4912273132
  0
LINE
  5
370
100
AcDbEntity
  8
0
100
AcDbLine
 62
2
  6
CONTINUOUS
 10
13.2286868817
 20
2.5920323691
 11
13.2286868817
 21
2.7057182382
  0
LINE
  5
371
100
AcDbEntity
  8
0
100
AcDbLine
 62
2
  6
CONTINUOUS
 10
13.2086868706
 20
2.3729641676
 11
13.2086868706
 21
2.4912273132
  0
LINE
  5
372
100
AcDbEntity
  8
0
100
AcDbLine
 62
2
  6
CONTINUOUS
 10
13.2086868706
 20
2.5920323691
 11
13.2086868706
 21
2.7077925134
  0
LINE
  5
373
100
AcDbEntity
  8
0
100
AcDbLine
 62
2
  6
CONTINUOUS
 10
13.1886868595
 20
2.3712344456
 11
13.1886868595
 21
2.4912273132
  0
LINE
  5
374
100
AcDbEntity
  8
0
100
AcDbLine
 62
2
  6
CONTINUOUS
 10
13.1886868595
 20
2.515977327
 11
13.1886868595
 21
2.5672823554
  0
LINE
  5
375
100
AcDbEntity
  8
0
100
AcDbLine
 62
2
  6
CONTINUOUS
 10
13.1886868595
 20
2.5920323691
 11
13.1886868595
 21
2.7095222354
  0
LINE
  5
376
100
AcDbEntity
  8
0
100
AcDbLine
 62
2
  6
CONTINUOUS
 10
13.1686868484
 20
2.3699682418
 11
13.1686868484
 21
2.4912273132
  0
LINE
  5
377
100
AcDbEntity
  8
0
100
AcDbLine
 62
2
  6
CONTINUOUS
 10
13.1686868484
 20
2.515977327
 11
13.1686868484
 21
2.5672823554
  0
LINE
  5
378
100
AcDbEntity
  8
0
100
AcDbLine
 62
2
  6
CONTINUOUS
 10
13.1686868484
 20
2.5920323691
 11
13.1686868484
 21
2.7107884392
  0
LINE
  5
379
100
AcDbEntity
  8
0
100
AcDbLine
 62
2
  6
CONTINUOUS
 10
13.1486868373
 20
2.3687020381
 11
13.1486868373
 21
2.7120546429
  0
LINE
  5
37A
100
AcDbEntity
  8
0
100
AcDbLine
 62
2
  6
CONTINUOUS
 10
13.1286868262
 20
2.3674358343
 11
13.1286868262
 21
2.5672823554
  0
LINE
  5
37B
100
AcDbEntity
  8
0
100
AcDbLine
 62
2
  6
CONTINUOUS
 10
13.1286868262
 20
2.5920323691
 11
13.1286868262
 21
2.7133208466
  0
LINE
  5
37C
100
AcDbEntity
  8
0
100
AcDbLine
 62
2
  6
CONTINUOUS
 10
13.1086868151
 20
2.3661696306
 11
13.1086868151
 21
2.4912273132
  0
LINE
  5
37D
100
AcDbEntity
  8
0
100
AcDbLine
 62
2
  6
CONTINUOUS
 10
13.1086868151
 20
2.5920323691
 11
13.1086868151
 21
2.7145870504
  0
LINE
  5
37E
100
AcDbEntity
  8
0
100
AcDbLine
 62
2
  6
CONTINUOUS
 10
13.088686804
 20
2.3649034269
 11
13.088686804
 21
2.4912273132
  0
LINE
  5
37F
100
AcDbEntity
  8
0
100
AcDbLine
 62
2
  6
CONTINUOUS
 10
13.088686804
 20
2.5920323691
 11
13.088686804
 21
2.7158532541
  0
LINE
  5
380
100
AcDbEntity
  8
0
100
AcDbLine
 62
2
  6
CONTINUOUS
 10
13.0686867929
 20
2.3636739922
 11
13.0686867929
 21
2.4912273132
  0
LINE
  5
381
100
AcDbEntity
  8
0
100
AcDbLine
 62
2
  6
CONTINUOUS
 10
13.0686867929
 20
2.5475272398
 11
13.0686867929
 21
2.5672823554
  0
LINE
  5
382
100
AcDbEntity
  8
0
100
AcDbLine
 62
2
  6
CONTINUOUS
 10
13.0686867929
 20
2.5920323691
 11
13.0686867929
 21
2.7170826887
  0
LINE
  5
383
100
AcDbEntity
  8
0
100
AcDbLine
 62
2
  6
CONTINUOUS
 10
13.0486867818
 20
2.363143203
 11
13.0486867818
 21
2.4912273132
  0
LINE
  5
384
100
AcDbEntity
  8
0
100
AcDbLine
 62
2
  6
CONTINUOUS
 10
13.0486867818
 20
2.5666100882
 11
13.0486867818
 21
2.717613478
  0
LINE
  5
385
100
AcDbEntity
  8
0
100
AcDbLine
 62
2
  6
CONTINUOUS
 10
13.0286867707
 20
2.3626124138
 11
13.0286867707
 21
2.50359263
  0
LINE
  5
386
100
AcDbEntity
  8
0
100
AcDbLine
 62
2
  6
CONTINUOUS
 10
13.0286867707
 20
2.5856929366
 11
13.0286867707
 21
2.7181442672
  0
LINE
  5
387
100
AcDbEntity
  8
0
100
AcDbLine
 62
2
  6
CONTINUOUS
 10
13.0086867596
 20
2.3620816246
 11
13.0086867596
 21
2.5226754472
  0
LINE
  5
388
100
AcDbEntity
  8
0
100
AcDbLine
 62
2
  6
CONTINUOUS
 10
13.0086867596
 20
2.5920323691
 11
13.0086867596
 21
2.7186750564
  0
LINE
  5
389
100
AcDbEntity
  8
0
100
AcDbLine
 62
2
  6
CONTINUOUS
 10
12.9886867486
 20
2.3615508354
 11
12.9886867486
 21
2.4912273132
  0
LINE
  5
38A
100
AcDbEntity
  8
0
100
AcDbLine
 62
2
  6
CONTINUOUS
 10
12.9886867486
 20
2.515977327
 11
12.9886867486
 21
2.5417582644
  0
LINE
  5
38B
100
AcDbEntity
  8
0
100
AcDbLine
 62
2
  6
CONTINUOUS
 10
12.9886867486
 20
2.5920323691
 11
12.9886867486
 21
2.7192058456
  0
LINE
  5
38C
100
AcDbEntity
  8
0
100
AcDbLine
 62
2
  6
CONTINUOUS
 10
12.9686867375
 20
2.3610200462
 11
12.9686867375
 21
2.4912273132
  0
LINE
  5
38D
100
AcDbEntity
  8
0
100
AcDbLine
 62
2
  6
CONTINUOUS
 10
12.9686867375
 20
2.5920323691
 11
12.9686867375
 21
2.7197366348
  0
LINE
  5
38E
100
AcDbEntity
  8
0
100
AcDbLine
 62
2
  6
CONTINUOUS
 10
12.9486867264
 20
2.360489257
 11
12.9486867264
 21
2.4912273132
  0
LINE
  5
38F
100
AcDbEntity
  8
0
100
AcDbLine
 62
2
  6
CONTINUOUS
 10
12.9486867264
 20
2.5920323691
 11
12.9486867264
 21
2.720267424
  0
LINE
  5
390
100
AcDbEntity
  8
0
100
AcDbLine
 62
2
  6
CONTINUOUS
 10
12.9286867153
 20
2.3602836008
 11
12.9286867153
 21
2.4912273132
  0
LINE
  5
391
100
AcDbEntity
  8
0
100
AcDbLine
 62
2
  6
CONTINUOUS
 10
12.9286867153
 20
2.515977327
 11
12.9286867153
 21
2.5672823554
  0
LINE
  5
392
100
AcDbEntity
  8
0
100
AcDbLine
 62
2
  6
CONTINUOUS
 10
12.9286867153
 20
2.5920323691
 11
12.9286867153
 21
2.7204730802
  0
LINE
  5
393
100
AcDbEntity
  8
0
100
AcDbLine
 62
2
  6
CONTINUOUS
 10
12.9086867042
 20
2.3604597639
 11
12.9086867042
 21
2.7202969171
  0
LINE
  5
394
100
AcDbEntity
  8
0
100
AcDbLine
 62
2
  6
CONTINUOUS
 10
12.8886866931
 20
2.360635927
 11
12.8886866931
 21
2.5672823554
  0
LINE
  5
395
100
AcDbEntity
  8
0
100
AcDbLine
 62
2
  6
CONTINUOUS
 10
12.8886866931
 20
2.5920323691
 11
12.8886866931
 21
2.720120754
  0
LINE
  5
396
100
AcDbEntity
  8
0
100
AcDbLine
 62
2
  6
CONTINUOUS
 10
12.868686682
 20
2.3608120901
 11
12.868686682
 21
2.491232357
  0
LINE
  5
397
100
AcDbEntity
  8
0
100
AcDbLine
 62
2
  6
CONTINUOUS
 10
12.868686682
 20
2.5920323691
 11
12.868686682
 21
2.7199445909
  0
LINE
  5
398
100
AcDbEntity
  8
0
100
AcDbLine
 62
2
  6
CONTINUOUS
 10
12.8486866709
 20
2.3609882532
 11
12.8486866709
 21
2.4912273132
  0
LINE
  5
399
100
AcDbEntity
  8
0
100
AcDbLine
 62
2
  6
CONTINUOUS
 10
12.8486866709
 20
2.5920323691
 11
12.8486866709
 21
2.7197684278
  0
LINE
  5
39A
100
AcDbEntity
  8
0
100
AcDbLine
 62
2
  6
CONTINUOUS
 10
12.8286866598
 20
2.3611644163
 11
12.8286866598
 21
2.4912273132
  0
LINE
  5
39B
100
AcDbEntity
  8
0
100
AcDbLine
 62
2
  6
CONTINUOUS
 10
12.8286866598
 20
2.5396527025
 11
12.8286866598
 21
2.5672823554
  0
LINE
  5
39C
100
AcDbEntity
  8
0
100
AcDbLine
 62
2
  6
CONTINUOUS
 10
12.8286866598
 20
2.5920323691
 11
12.8286866598
 21
2.7195922647
  0
LINE
  5
39D
100
AcDbEntity
  8
0
100
AcDbLine
 62
2
  6
CONTINUOUS
 10
12.8086866487
 20
2.3613405794
 11
12.8086866487
 21
2.4912273132
  0
LINE
  5
39E
100
AcDbEntity
  8
0
100
AcDbLine
 62
2
  6
CONTINUOUS
 10
12.8086866487
 20
2.5587355508
 11
12.8086866487
 21
2.7194161016
  0
LINE
  5
39F
100
AcDbEntity
  8
0
100
AcDbLine
 62
2
  6
CONTINUOUS
 10
12.7886866376
 20
2.3621089572
 11
12.7886866376
 21
2.4957181055
  0
LINE
  5
3A0
100
AcDbEntity
  8
0
100
AcDbLine
 62
2
  6
CONTINUOUS
 10
12.7886866376
 20
2.5778183992
 11
12.7886866376
 21
2.7186477238
  0
LINE
  5
3A1
100
AcDbEntity
  8
0
100
AcDbLine
 62
2
  6
CONTINUOUS
 10
12.7686866266
 20
2.3630013935
 11
12.7686866266
 21
2.5148009227
  0
LINE
  5
3A2
100
AcDbEntity
  8
0
100
AcDbLine
 62
2
  6
CONTINUOUS
 10
12.7686866266
 20
2.5920323691
 11
12.7686866266
 21
2.7177552874
  0
LINE
  5
3A3
100
AcDbEntity
  8
0
100
AcDbLine
 62
2
  6
CONTINUOUS
 10
12.7486866155
 20
2.3638938299
 11
12.7486866155
 21
2.4913263218
  0
LINE
  5
3A4
100
AcDbEntity
  8
0
100
AcDbLine
 62
2
  6
CONTINUOUS
 10
12.7486866155
 20
2.5158783184
 11
12.7486866155
 21
2.5338837399
  0
LINE
  5
3A5
100
AcDbEntity
  8
0
100
AcDbLine
 62
2
  6
CONTINUOUS
 10
12.7486866155
 20
2.5920323691
 11
12.7486866155
 21
2.7168628511
  0
LINE
  5
3A6
100
AcDbEntity
  8
0
100
AcDbLine
 62
2
  6
CONTINUOUS
 10
12.7286866044
 20
2.3647862663
 11
12.7286866044
 21
2.4912273132
  0
LINE
  5
3A7
100
AcDbEntity
  8
0
100
AcDbLine
 62
2
  6
CONTINUOUS
 10
12.7286866044
 20
2.515977327
 11
12.7286866044
 21
2.5527601554
  0
LINE
  5
3A8
100
AcDbEntity
  8
0
100
AcDbLine
 62
2
  6
CONTINUOUS
 10
12.7286866044
 20
2.5920323691
 11
12.7286866044
 21
2.7159704147
  0
LINE
  5
3A9
100
AcDbEntity
  8
0
100
AcDbLine
 62
2
  6
CONTINUOUS
 10
12.7086865933
 20
2.3656787026
 11
12.7086865933
 21
2.4912273132
  0
LINE
  5
3AA
100
AcDbEntity
  8
0
100
AcDbLine
 62
2
  6
CONTINUOUS
 10
12.7086865933
 20
2.5920323691
 11
12.7086865933
 21
2.7150779784
  0
LINE
  5
3AB
100
AcDbEntity
  8
0
100
AcDbLine
 62
2
  6
CONTINUOUS
 10
12.6886865822
 20
2.366571139
 11
12.6886865822
 21
2.4912273132
  0
LINE
  5
3AC
100
AcDbEntity
  8
0
100
AcDbLine
 62
2
  6
CONTINUOUS
 10
12.6886865822
 20
2.515977327
 11
12.6886865822
 21
2.5672823554
  0
LINE
  5
3AD
100
AcDbEntity
  8
0
100
AcDbLine
 62
2
  6
CONTINUOUS
 10
12.6886865822
 20
2.5920323691
 11
12.6886865822
 21
2.714185542
  0
LINE
  5
3AE
100
AcDbEntity
  8
0
100
AcDbLine
 62
2
  6
CONTINUOUS
 10
12.6686865711
 20
2.3677104027
 11
12.6686865711
 21
2.7130462783
  0
LINE
  5
3AF
100
AcDbEntity
  8
0
100
AcDbLine
 62
2
  6
CONTINUOUS
 10
12.64868656
 20
2.3693682721
 11
12.64868656
 21
2.7113884089
  0
LINE
  5
3B0
100
AcDbEntity
  8
0
100
AcDbLine
 62
2
  6
CONTINUOUS
 10
12.6286865489
 20
2.3710261415
 11
12.6286865489
 21
2.4912273132
  0
LINE
  5
3B1
100
AcDbEntity
  8
0
100
AcDbLine
 62
2
  6
CONTINUOUS
 10
12.6286865489
 20
2.515977327
 11
12.6286865489
 21
2.7097305395
  0
LINE
  5
3B2
100
AcDbEntity
  8
0
100
AcDbLine
 62
2
  6
CONTINUOUS
 10
12.6086865378
 20
2.372684011
 11
12.6086865378
 21
2.4912273132
  0
LINE
  5
3B3
100
AcDbEntity
  8
0
100
AcDbLine
 62
2
  6
CONTINUOUS
 10
12.6086865378
 20
2.5351122279
 11
12.6086865378
 21
2.70807267
  0
LINE
  5
3B4
100
AcDbEntity
  8
0
100
AcDbLine
 62
2
  6
CONTINUOUS
 10
12.5886865267
 20
2.3743418804
 11
12.5886865267
 21
2.4912273132
  0
LINE
  5
3B5
100
AcDbEntity
  8
0
100
AcDbLine
 62
2
  6
CONTINUOUS
 10
12.5886865267
 20
2.5660172622
 11
12.5886865267
 21
2.7064148006
  0
LINE
  5
3B6
100
AcDbEntity
  8
0
100
AcDbLine
 62
2
  6
CONTINUOUS
 10
12.5686865156
 20
2.3759997498
 11
12.5686865156
 21
2.4912273132
  0
LINE
  5
3B7
100
AcDbEntity
  8
0
100
AcDbLine
 62
2
  6
CONTINUOUS
 10
12.5686865156
 20
2.5920323691
 11
12.5686865156
 21
2.7047569312
  0
LINE
  5
3B8
100
AcDbEntity
  8
0
100
AcDbLine
 62
2
  6
CONTINUOUS
 10
12.5486865045
 20
2.3777575277
 11
12.5486865045
 21
2.4912273132
  0
LINE
  5
3B9
100
AcDbEntity
  8
0
100
AcDbLine
 62
2
  6
CONTINUOUS
 10
12.5486865045
 20
2.515977327
 11
12.5486865045
 21
2.5275118824
  0
LINE
  5
3BA
100
AcDbEntity
  8
0
100
AcDbLine
 62
2
  6
CONTINUOUS
 10
12.5486865045
 20
2.5920323691
 11
12.5486865045
 21
2.7029991533
  0
LINE
  5
3BB
100
AcDbEntity
  8
0
100
AcDbLine
 62
2
  6
CONTINUOUS
 10
12.5286864935
 20
2.3802813811
 11
12.5286864935
 21
2.5296213345
  0
LINE
  5
3BC
100
AcDbEntity
  8
0
100
AcDbLine
 62
2
  6
CONTINUOUS
 10
12.5286864935
 20
2.5505713461
 11
12.5286864935
 21
2.5667383551
  0
LINE
  5
3BD
100
AcDbEntity
  8
0
100
AcDbLine
 62
2
  6
CONTINUOUS
 10
12.5286864935
 20
2.5920323691
 11
12.5286864935
 21
2.7004752999
  0
LINE
  5
3BE
100
AcDbEntity
  8
0
100
AcDbLine
 62
2
  6
CONTINUOUS
 10
12.5086864824
 20
2.3828052346
 11
12.5086864824
 21
2.4912273132
  0
LINE
  5
3BF
100
AcDbEntity
  8
0
100
AcDbLine
 62
2
  6
CONTINUOUS
 10
12.5086864824
 20
2.515977327
 11
12.5086864824
 21
2.5279667721
  0
LINE
  5
3C0
100
AcDbEntity
  8
0
100
AcDbLine
 62
2
  6
CONTINUOUS
 10
12.5086864824
 20
2.5868602074
 11
12.5086864824
 21
2.6979514464
  0
LINE
  5
3C1
100
AcDbEntity
  8
0
100
AcDbLine
 62
2
  6
CONTINUOUS
 10
12.4886864713
 20
2.385329088
 11
12.4886864713
 21
2.4912273132
  0
LINE
  5
3C2
100
AcDbEntity
  8
0
100
AcDbLine
 62
2
  6
CONTINUOUS
 10
12.4886864713
 20
2.5553401045
 11
12.4886864713
 21
2.695427593
  0
LINE
  5
3C3
100
AcDbEntity
  8
0
100
AcDbLine
 62
2
  6
CONTINUOUS
 10
12.4686864602
 20
2.3878529415
 11
12.4686864602
 21
2.4912273132
  0
LINE
  5
3C4
100
AcDbEntity
  8
0
100
AcDbLine
 62
2
  6
CONTINUOUS
 10
12.4686864602
 20
2.5238200015
 11
12.4686864602
 21
2.6929037395
  0
LINE
  5
3C5
100
AcDbEntity
  8
0
100
AcDbLine
 62
2
  6
CONTINUOUS
 10
12.4486864491
 20
2.390376795
 11
12.4486864491
 21
2.4912273132
  0
LINE
  5
3C6
100
AcDbEntity
  8
0
100
AcDbLine
 62
2
  6
CONTINUOUS
 10
12.4486864491
 20
2.515977327
 11
12.4486864491
 21
2.690379886
  0
LINE
  5
3C7
100
AcDbEntity
  8
0
100
AcDbLine
 62
2
  6
CONTINUOUS
 10
12.428686438
 20
2.3931794042
 11
12.428686438
 21
2.6875772768
  0
LINE
  5
3C8
100
AcDbEntity
  8
0
100
AcDbLine
 62
2
  6
CONTINUOUS
 10
12.4086864269
 20
2.3964643301
 11
12.4086864269
 21
2.5013773986
  0
LINE
  5
3C9
100
AcDbEntity
  8
0
100
AcDbLine
 62
2
  6
CONTINUOUS
 10
12.4086864269
 20
2.5325739971
 11
12.4086864269
 21
2.5537224311
  0
LINE
  5
3CA
100
AcDbEntity
  8
0
100
AcDbLine
 62
2
  6
CONTINUOUS
 10
12.4086864269
 20
2.5791473398
 11
12.4086864269
 21
2.6842923509
  0
LINE
  5
3CB
100
AcDbEntity
  8
0
100
AcDbLine
 62
2
  6
CONTINUOUS
 10
12.3886864158
 20
2.399749256
 11
12.3886864158
 21
2.4921022658
  0
LINE
  5
3CC
100
AcDbEntity
  8
0
100
AcDbLine
 62
2
  6
CONTINUOUS
 10
12.3886864158
 20
2.5895929958
 11
12.3886864158
 21
2.681007425
  0
LINE
  5
3CD
100
AcDbEntity
  8
0
100
AcDbLine
 62
2
  6
CONTINUOUS
 10
12.3686864047
 20
2.403451877
 11
12.3686864047
 21
2.4912273132
  0
LINE
  5
3CE
100
AcDbEntity
  8
0
100
AcDbLine
 62
2
  6
CONTINUOUS
 10
12.3686864047
 20
2.5920323691
 11
12.3686864047
 21
2.677304804
  0
LINE
  5
3CF
100
AcDbEntity
  8
0
100
AcDbLine
 62
2
  6
CONTINUOUS
 10
12.3486863936
 20
2.407324637
 11
12.3486863936
 21
2.4912273132
  0
LINE
  5
3D0
100
AcDbEntity
  8
0
100
AcDbLine
 62
2
  6
CONTINUOUS
 10
12.3486863936
 20
2.5920323691
 11
12.3486863936
 21
2.673432044
  0
LINE
  5
3D1
100
AcDbEntity
  8
0
100
AcDbLine
 62
2
  6
CONTINUOUS
 10
12.3286863825
 20
2.4113493968
 11
12.3286863825
 21
2.4912273132
  0
LINE
  5
3D2
100
AcDbEntity
  8
0
100
AcDbLine
 62
2
  6
CONTINUOUS
 10
12.3286863825
 20
2.515977327
 11
12.3286863825
 21
2.5333023366
  0
LINE
  5
3D3
100
AcDbEntity
  8
0
100
AcDbLine
 62
2
  6
CONTINUOUS
 10
12.3286863825
 20
2.5499573458
 11
12.3286863825
 21
2.5672823554
  0
LINE
  5
3D4
100
AcDbEntity
  8
0
100
AcDbLine
 62
2
  6
CONTINUOUS
 10
12.3286863825
 20
2.5920323691
 11
12.3286863825
 21
2.6694072842
  0
LINE
  5
3D5
100
AcDbEntity
  8
0
100
AcDbLine
 62
2
  6
CONTINUOUS
 10
12.3086863715
 20
2.4159005505
 11
12.3086863715
 21
2.4912273132
  0
LINE
  5
3D6
100
AcDbEntity
  8
0
100
AcDbLine
 62
2
  6
CONTINUOUS
 10
12.3086863715
 20
2.515977327
 11
12.3086863715
 21
2.5333023366
  0
LINE
  5
3D7
100
AcDbEntity
  8
0
100
AcDbLine
 62
2
  6
CONTINUOUS
 10
12.3086863715
 20
2.5499573458
 11
12.3086863715
 21
2.5672823554
  0
LINE
  5
3D8
100
AcDbEntity
  8
0
100
AcDbLine
 62
2
  6
CONTINUOUS
 10
12.3086863715
 20
2.5920323691
 11
12.3086863715
 21
2.6648561305
  0
LINE
  5
3D9
100
AcDbEntity
  8
0
100
AcDbLine
 62
2
  6
CONTINUOUS
 10
12.2886863604
 20
2.4204517041
 11
12.2886863604
 21
2.4912273132
  0
LINE
  5
3DA
100
AcDbEntity
  8
0
100
AcDbLine
 62
2
  6
CONTINUOUS
 10
12.2886863604
 20
2.5920323691
 11
12.2886863604
 21
2.6603049769
  0
LINE
  5
3DB
100
AcDbEntity
  8
0
100
AcDbLine
 62
2
  6
CONTINUOUS
 10
12.2686863493
 20
2.4257438218
 11
12.2686863493
 21
2.4912273132
  0
LINE
  5
3DC
100
AcDbEntity
  8
0
100
AcDbLine
 62
2
  6
CONTINUOUS
 10
12.2686863493
 20
2.5920323691
 11
12.2686863493
 21
2.6550128592
  0
LINE
  5
3DD
100
AcDbEntity
  8
0
100
AcDbLine
 62
2
  6
CONTINUOUS
 10
12.2486863382
 20
2.4310978667
 11
12.2486863382
 21
2.4912273132
  0
LINE
  5
3DE
100
AcDbEntity
  8
0
100
AcDbLine
 62
2
  6
CONTINUOUS
 10
12.2486863382
 20
2.5920323691
 11
12.2486863382
 21
2.6496588142
  0
LINE
  5
3DF
100
AcDbEntity
  8
0
100
AcDbLine
 62
2
  6
CONTINUOUS
 10
12.2286863271
 20
2.4372566433
 11
12.2286863271
 21
2.4912273132
  0
LINE
  5
3E0
100
AcDbEntity
  8
0
100
AcDbLine
 62
2
  6
CONTINUOUS
 10
12.2286863271
 20
2.515977327
 11
12.2286863271
 21
2.5672823554
  0
LINE
  5
3E1
100
AcDbEntity
  8
0
100
AcDbLine
 62
2
  6
CONTINUOUS
 10
12.2286863271
 20
2.5920323691
 11
12.2286863271
 21
2.6435000377
  0
LINE
  5
3E2
100
AcDbEntity
  8
0
100
AcDbLine
 62
2
  6
CONTINUOUS
 10
12.208686316
 20
2.443589771
 11
12.208686316
 21
2.4912273132
  0
LINE
  5
3E3
100
AcDbEntity
  8
0
100
AcDbLine
 62
2
  6
CONTINUOUS
 10
12.208686316
 20
2.515977327
 11
12.208686316
 21
2.5672823554
  0
LINE
  5
3E4
100
AcDbEntity
  8
0
100
AcDbLine
 62
2
  6
CONTINUOUS
 10
12.208686316
 20
2.5920323691
 11
12.208686316
 21
2.63716691
  0
LINE
  5
3E5
100
AcDbEntity
  8
0
100
AcDbLine
 62
2
  6
CONTINUOUS
 10
12.1886863049
 20
2.4510806436
 11
12.1886863049
 21
2.6296760373
  0
LINE
  5
3E6
100
AcDbEntity
  8
0
100
AcDbLine
 62
2
  6
CONTINUOUS
 10
12.1686862938
 20
2.4591016523
 11
12.1686862938
 21
2.6216550287
  0
LINE
  5
3E7
100
AcDbEntity
  8
0
100
AcDbLine
 62
2
  6
CONTINUOUS
 10
12.1486862827
 20
2.468314272
 11
12.1486862827
 21
2.612442409
  0
LINE
  5
3E8
100
AcDbEntity
  8
0
100
AcDbLine
 62
2
  6
CONTINUOUS
 10
12.1286862716
 20
2.4794932339
 11
12.1286862716
 21
2.601263447
  0
LINE
  5
3E9
100
AcDbEntity
  8
0
100
AcDbLine
 62
2
  6
CONTINUOUS
 10
12.1086862605
 20
2.4934150665
 11
12.1086862605
 21
2.5873416144
  0
LINE
  5
3EA
100
AcDbEntity
  8
0
100
AcDbLine
 62
2
  6
CONTINUOUS
 10
12.0886862494
 20
2.5144449553
 11
12.0886862494
 21
2.5663117257
  0
ENDBLK
  5
3EB
100
AcDbEntity
  8
0
  6
BYBLOCK
 62
0
100
AcDbBlockEnd
  0
BLOCK
  5
3EC
100
AcDbEntity
  8
DRIVEN_DIMS
100
AcDbBlockBegin
 62
2
  6
CONTINUOUS
  2
*D0
 70
65
 10
0.0
 20
0.0
  3
*D0
  1

  0
TEXT
  5
3ED
100
AcDbEntity
  8
DRIVEN_DIMS
100
AcDbText
 62
2
  6
CONTINUOUS
 10
1.8724914937
 20
5.4753550739
  7
STANDARD
 40
0.1
  1
%%c
 41
1.3333333333
 72
0
100
AcDbText
  0
TEXT
  5
3EE
100
AcDbEntity
  8
DRIVEN_DIMS
100
AcDbText
 62
2
  6
CONTINUOUS
 10
2.0058248271
 20
5.4753550739
  7
STANDARD
 40
0.1
  1
50,8
 41
1.0
 72
0
100
AcDbText
  0
TEXT
  5
3EF
100
AcDbEntity
  8
DRIVEN_DIMS
100
AcDbText
 62
2
  6
CONTINUOUS
 10
2.1058248271
 20
5.3253550739
  7
STANDARD
 40
0.1
  1
2.00
 41
1.0
 72
0
100
AcDbText
  0
TEXT
  5
3F0
100
AcDbEntity
  8
DRIVEN_DIMS
100
AcDbText
 62
2
  6
CONTINUOUS
 10
2.0058248271
 20
5.3253550739
  7
STANDARD
 40
0.1
  1
[
 41
1.0
 72
0
100
AcDbText
  0
TEXT
  5
3F1
100
AcDbEntity
  8
DRIVEN_DIMS
100
AcDbText
 62
2
  6
CONTINUOUS
 10
2.5058248271
 20
5.3253550739
  7
STANDARD
 40
0.1
  1
]
 41
1.0
 72
0
100
AcDbText
  0
LINE
  5
3F2
100
AcDbEntity
  8
DRIVEN_DIMS
100
AcDbLine
 62
2
  6
CONTINUOUS
 10
3.0868005356
 20
5.0950064282
 11
2.8558248271
 21
5.5253550739
  0
LINE
  5
3F3
100
AcDbEntity
  8
DRIVEN_DIMS
100
AcDbLine
 62
2
  6
CONTINUOUS
 10
2.8558248271
 20
5.5253550739
 11
2.7058248271
 21
5.5253550739
  0
INSERT
  5
3F4
100
AcDbEntity
  8
DRIVEN_DIMS
100
AcDbBlockReference
 62
2
  6
CONTINUOUS
  2
_FILLED
 10
3.0868005356
 20
5.0950064282
 41
0.1875
 42
0.1875
 43
0.1875
 50
298.2232399027
  0
ENDBLK
  5
3F5
100
AcDbEntity
  8
0
  6
BYBLOCK
 62
0
100
AcDbBlockEnd
  0
BLOCK
  5
3F6
100
AcDbEntity
  8
SCHEME_DIMS
100
AcDbBlockBegin
 62
2
  6
CONTINUOUS
  2
*D1
 70
65
 10
0.0
 20
0.0
  3
*D1
  1

  0
TEXT
  5
3F7
100
AcDbEntity
  8
SCHEME_DIMS
100
AcDbText
 62
2
  6
CONTINUOUS
 10
6.7186881857
 20
4.1138947212
  7
STANDARD
 40
0.1
  1
57,2
 41
1.0
 72
0
100
AcDbText
  0
TEXT
  5
3F8
100
AcDbEntity
  8
SCHEME_DIMS
100
AcDbText
 62
2
  6
CONTINUOUS
 10
6.8186881857
 20
3.9638947212
  7
STANDARD
 40
0.1
  1
2.25
 41
1.0
 72
0
100
AcDbText
  0
TEXT
  5
3F9
100
AcDbEntity
  8
SCHEME_DIMS
100
AcDbText
 62
2
  6
CONTINUOUS
 10
6.7186881857
 20
3.9638947212
  7
STANDARD
 40
0.1
  1
[
 41
1.0
 72
0
100
AcDbText
  0
TEXT
  5
3FA
100
AcDbEntity
  8
SCHEME_DIMS
100
AcDbText
 62
2
  6
CONTINUOUS
 10
7.2186881857
 20
3.9638947212
  7
STANDARD
 40
0.1
  1
]
 41
1.0
 72
0
100
AcDbText
  0
LINE
  5
3FB
100
AcDbEntity
  8
SCHEME_DIMS
100
AcDbLine
 62
2
  6
CONTINUOUS
 10
7.4606125533
 20
2.9638947212
 11
6.8936881857
 21
2.9638947212
  0
LINE
  5
3FC
100
AcDbEntity
  8
SCHEME_DIMS
100
AcDbLine
 62
2
  6
CONTINUOUS
 10
9.6015881857
 20
5.2138947212
 11
7.5786086071
 21
5.2138947212
  0
LINE
  5
3FD
100
AcDbEntity
  8
SCHEME_DIMS
100
AcDbLine
 62
2
  6
CONTINUOUS
 10
7.454589209
 20
5.2138947212
 11
6.8936881857
 21
5.2138947212
  0
LINE
  5
3FE
100
AcDbEntity
  8
SCHEME_DIMS
100
AcDbLine
 62
2
  6
CONTINUOUS
 10
7.0186881857
 20
2.9638947212
 11
7.0186881857
 21
3.8638947212
  0
LINE
  5
3FF
100
AcDbEntity
  8
SCHEME_DIMS
100
AcDbLine
 62
2
  6
CONTINUOUS
 10
7.0186881857
 20
5.2138947212
 11
7.0186881857
 21
4.3138947212
  0
INSERT
  5
400
100
AcDbEntity
  8
SCHEME_DIMS
100
AcDbBlockReference
 62
2
  6
CONTINUOUS
  2
_FILLED
 10
7.0186881857
 20
2.9638947212
 41
0.1875
 42
0.1875
 43
0.1875
 50
270.0
  0
INSERT
  5
401
100
AcDbEntity
  8
SCHEME_DIMS
100
AcDbBlockReference
 62
2
  6
CONTINUOUS
  2
_FILLED
 10
7.0186881857
 20
5.2138947212
 41
0.1875
 42
0.1875
 43
0.1875
 50
90.0
  0
ENDBLK
  5
402
100
AcDbEntity
  8
0
  6
BYBLOCK
 62
0
100
AcDbBlockEnd
  0
BLOCK
  5
403
100
AcDbEntity
  8
SCHEME_DIMS
100
AcDbBlockBegin
 62
2
  6
CONTINUOUS
  2
*D2
 70
65
 10
0.0
 20
0.0
  3
*D2
  1

  0
TEXT
  5
404
100
AcDbEntity
  8
SCHEME_DIMS
100
AcDbText
 62
2
  6
CONTINUOUS
 10
8.3436881857
 20
5.6638947212
  7
STANDARD
 40
0.1
  1
57,2
 41
1.0
 72
0
100
AcDbText
  0
TEXT
  5
405
100
AcDbEntity
  8
SCHEME_DIMS
100
AcDbText
 62
2
  6
CONTINUOUS
 10
8.4436881857
 20
5.5138947212
  7
STANDARD
 40
0.1
  1
2.25
 41
1.0
 72
0
100
AcDbText
  0
TEXT
  5
406
100
AcDbEntity
  8
SCHEME_DIMS
100
AcDbText
 62
2
  6
CONTINUOUS
 10
8.3436881857
 20
5.5138947212
  7
STANDARD
 40
0.1
  1
[
 41
1.0
 72
0
100
AcDbText
  0
TEXT
  5
407
100
AcDbEntity
  8
SCHEME_DIMS
100
AcDbText
 62
2
  6
CONTINUOUS
 10
8.8436881857
 20
5.5138947212
  7
STANDARD
 40
0.1
  1
]
 41
1.0
 72
0
100
AcDbText
  0
LINE
  5
408
100
AcDbEntity
  8
SCHEME_DIMS
100
AcDbLine
 62
2
  6
CONTINUOUS
 10
9.7686881857
 20
5.2577991305
 11
9.7686881857
 21
5.8388947212
  0
LINE
  5
409
100
AcDbEntity
  8
SCHEME_DIMS
100
AcDbLine
 62
2
  6
CONTINUOUS
 10
7.5186881857
 20
3.1309947212
 11
7.5186881857
 21
5.8388947212
  0
LINE
  5
40A
100
AcDbEntity
  8
SCHEME_DIMS
100
AcDbLine
 62
2
  6
CONTINUOUS
 10
9.7686881857
 20
5.7138947212
 11
9.0436881857
 21
5.7138947212
  0
LINE
  5
40B
100
AcDbEntity
  8
SCHEME_DIMS
100
AcDbLine
 62
2
  6
CONTINUOUS
 10
7.5186881857
 20
5.7138947212
 11
8.2436881857
 21
5.7138947212
  0
INSERT
  5
40C
100
AcDbEntity
  8
SCHEME_DIMS
100
AcDbBlockReference
 62
2
  6
CONTINUOUS
  2
_FILLED
 10
9.7686881857
 20
5.7138947212
 41
0.1875
 42
0.1875
 43
0.1875
  0
INSERT
  5
40D
100
AcDbEntity
  8
SCHEME_DIMS
100
AcDbBlockReference
 62
2
  6
CONTINUOUS
  2
_FILLED
 10
7.5186881857
 20
5.7138947212
 41
0.1875
 42
0.1875
 43
0.1875
 50
180.0
  0
ENDBLK
  5
40E
100
AcDbEntity
  8
0
  6
BYBLOCK
 62
0
100
AcDbBlockEnd
  0
BLOCK
  5
40F
100
AcDbEntity
  8
SCHEME_DIMS
100
AcDbBlockBegin
 62
2
  6
CONTINUOUS
  2
*D3
 70
65
 10
0.0
 20
0.0
  3
*D3
  1

  0
TEXT
  5
410
100
AcDbEntity
  8
SCHEME_DIMS
100
AcDbText
 62
2
  6
CONTINUOUS
 10
3.2597087296
 20
2.0388947212
  7
STANDARD
 40
0.1
  1
69,9
 41
1.0
 72
0
100
AcDbText
  0
TEXT
  5
411
100
AcDbEntity
  8
SCHEME_DIMS
100
AcDbText
 62
2
  6
CONTINUOUS
 10
3.3597087296
 20
1.8888947212
  7
STANDARD
 40
0.1
  1
2.75
 41
1.0
 72
0
100
AcDbText
  0
TEXT
  5
412
100
AcDbEntity
  8
SCHEME_DIMS
100
AcDbText
 62
2
  6
CONTINUOUS
 10
3.2597087296
 20
1.8888947212
  7
STANDARD
 40
0.1
  1
[
 41
1.0
 72
0
100
AcDbText
  0
TEXT
  5
413
100
AcDbEntity
  8
SCHEME_DIMS
100
AcDbText
 62
2
  6
CONTINUOUS
 10
3.7597087296
 20
1.8888947212
  7
STANDARD
 40
0.1
  1
]
 41
1.0
 72
0
100
AcDbText
  0
LINE
  5
414
100
AcDbEntity
  8
SCHEME_DIMS
100
AcDbLine
 62
2
  6
CONTINUOUS
 10
4.9347087296
 20
2.9071484009
 11
4.9347087296
 21
1.9638947212
  0
LINE
  5
415
100
AcDbEntity
  8
SCHEME_DIMS
100
AcDbLine
 62
2
  6
CONTINUOUS
 10
2.1847087296
 20
3.0513947212
 11
2.1847087296
 21
1.9638947212
  0
LINE
  5
416
100
AcDbEntity
  8
SCHEME_DIMS
100
AcDbLine
 62
2
  6
CONTINUOUS
 10
4.9347087296
 20
2.0888947212
 11
3.9597087296
 21
2.0888947212
  0
LINE
  5
417
100
AcDbEntity
  8
SCHEME_DIMS
100
AcDbLine
 62
2
  6
CONTINUOUS
 10
2.1847087296
 20
2.0888947212
 11
3.1597087296
 21
2.0888947212
  0
INSERT
  5
418
100
AcDbEntity
  8
SCHEME_DIMS
100
AcDbBlockReference
 62
2
  6
CONTINUOUS
  2
_FILLED
 10
4.9347087296
 20
2.0888947212
 41
0.1875
 42
0.1875
 43
0.1875
  0
INSERT
  5
419
100
AcDbEntity
  8
SCHEME_DIMS
100
AcDbBlockReference
 62
2
  6
CONTINUOUS
  2
_FILLED
 10
2.1847087296
 20
2.0888947212
 41
0.1875
 42
0.1875
 43
0.1875
 50
180.0
  0
ENDBLK
  5
41A
100
AcDbEntity
  8
0
  6
BYBLOCK
 62
0
100
AcDbBlockEnd
  0
BLOCK
  5
41B
100
AcDbEntity
  8
SCHEME_DIMS
100
AcDbBlockBegin
 62
2
  6
CONTINUOUS
  2
*D4
 70
65
 10
0.0
 20
0.0
  3
*D4
  1

  0
TEXT
  5
41C
100
AcDbEntity
  8
SCHEME_DIMS
100
AcDbText
 62
2
  6
CONTINUOUS
 10
5.0409145108
 20
5.5211291223
  7
STANDARD
 40
0.1
  1
2X 
 41
1.0
 72
0
100
AcDbText
  0
TEXT
  5
41D
100
AcDbEntity
  8
SCHEME_DIMS
100
AcDbText
 62
2
  6
CONTINUOUS
 10
5.3409145108
 20
5.5211291223
  7
STANDARD
 40
0.1
  1
R
 41
1.0
 72
0
100
AcDbText
  0
TEXT
  5
41E
100
AcDbEntity
  8
SCHEME_DIMS
100
AcDbText
 62
2
  6
CONTINUOUS
 10
5.4409145108
 20
5.5211291223
  7
STANDARD
 40
0.1
  1
3,6
 41
1.0
 72
0
100
AcDbText
  0
TEXT
  5
41F
100
AcDbEntity
  8
SCHEME_DIMS
100
AcDbText
 62
2
  6
CONTINUOUS
 10
5.5409145108
 20
5.3711291223
  7
STANDARD
 40
0.1
  1
.14
 41
1.0
 72
0
100
AcDbText
  0
TEXT
  5
420
100
AcDbEntity
  8
SCHEME_DIMS
100
AcDbText
 62
2
  6
CONTINUOUS
 10
5.4409145108
 20
5.3711291223
  7
STANDARD
 40
0.1
  1
[
 41
1.0
 72
0
100
AcDbText
  0
TEXT
  5
421
100
AcDbEntity
  8
SCHEME_DIMS
100
AcDbText
 62
2
  6
CONTINUOUS
 10
5.8409145108
 20
5.3711291223
  7
STANDARD
 40
0.1
  1
]
 41
1.0
 72
0
100
AcDbText
  0
LINE
  5
422
100
AcDbEntity
  8
SCHEME_DIMS
100
AcDbLine
 62
2
  6
CONTINUOUS
 10
4.3549945975
 20
5.0303847674
 11
4.7909145108
 21
5.5711291223
  0
LINE
  5
423
100
AcDbEntity
  8
SCHEME_DIMS
100
AcDbLine
 62
2
  6
CONTINUOUS
 10
4.7909145108
 20
5.5711291223
 11
4.9409145108
 21
5.5711291223
  0
INSERT
  5
424
100
AcDbEntity
  8
SCHEME_DIMS
100
AcDbBlockReference
 62
2
  6
CONTINUOUS
  2
_FILLED
 10
4.3549945975
 20
5.0303847674
 41
0.1875
 42
0.1875
 43
0.1875
 50
231.1260499706
  0
ENDBLK
  5
425
100
AcDbEntity
  8
0
  6
BYBLOCK
 62
0
100
AcDbBlockEnd
  0
BLOCK
  5
426
100
AcDbEntity
  8
SCHEME_DIMS
100
AcDbBlockBegin
 62
2
  6
CONTINUOUS
  2
*D5
 70
65
 10
0.0
 20
0.0
  3
*D5
  1

  0
TEXT
  5
427
100
AcDbEntity
  8
SCHEME_DIMS
100
AcDbText
 62
2
  6
CONTINUOUS
 10
5.364210354
 20
3.3496408111
  7
STANDARD
 40
0.1
  1
%%c
 41
1.3333333333
 72
0
100
AcDbText
  0
TEXT
  5
428
100
AcDbEntity
  8
SCHEME_DIMS
100
AcDbText
 62
2
  6
CONTINUOUS
 10
5.4975436874
 20
3.3496408111
  7
STANDARD
 40
0.1
  1
6,4
 41
1.0
 72
0
100
AcDbText
  0
TEXT
  5
429
100
AcDbEntity
  8
SCHEME_DIMS
100
AcDbText
 62
2
  6
CONTINUOUS
 10
5.5975436874
 20
3.1996408111
  7
STANDARD
 40
0.1
  1
.25
 41
1.0
 72
0
100
AcDbText
  0
TEXT
  5
42A
100
AcDbEntity
  8
SCHEME_DIMS
100
AcDbText
 62
2
  6
CONTINUOUS
 10
5.4975436874
 20
3.1996408111
  7
STANDARD
 40
0.1
  1
[
 41
1.0
 72
0
100
AcDbText
  0
TEXT
  5
42B
100
AcDbEntity
  8
SCHEME_DIMS
100
AcDbText
 62
2
  6
CONTINUOUS
 10
5.8975436874
 20
3.1996408111
  7
STANDARD
 40
0.1
  1
]
 41
1.0
 72
0
100
AcDbText
  0
LINE
  5
42C
100
AcDbEntity
  8
SCHEME_DIMS
100
AcDbLine
 62
2
  6
CONTINUOUS
 10
3.6704379305
 20
4.1558943413
 11
5.114210354
 21
3.3996408111
  0
LINE
  5
42D
100
AcDbEntity
  8
SCHEME_DIMS
100
AcDbLine
 62
2
  6
CONTINUOUS
 10
5.114210354
 20
3.3996408111
 11
5.264210354
 21
3.3996408111
  0
INSERT
  5
42E
100
AcDbEntity
  8
SCHEME_DIMS
100
AcDbBlockReference
 62
2
  6
CONTINUOUS
  2
_FILLED
 10
3.6704379305
 20
4.1558943413
 41
0.1875
 42
0.1875
 43
0.1875
 50
152.3542804717
  0
ENDBLK
  5
42F
100
AcDbEntity
  8
0
  6
BYBLOCK
 62
0
100
AcDbBlockEnd
  0
BLOCK
  5
430
100
AcDbEntity
  8
SCHEME_DIMS
100
AcDbBlockBegin
 62
2
  6
CONTINUOUS
  2
*D6
 70
65
 10
0.0
 20
0.0
  3
*D6
  1

  0
TEXT
  5
431
100
AcDbEntity
  8
SCHEME_DIMS
100
AcDbText
 62
2
  6
CONTINUOUS
 10
5.5092447597
 20
6.7735198834
  7
STANDARD
 40
0.1
  1
6X 
 41
1.0
 72
0
100
AcDbText
  0
TEXT
  5
432
100
AcDbEntity
  8
SCHEME_DIMS
100
AcDbText
 62
2
  6
CONTINUOUS
 10
5.8092447597
 20
6.7735198834
  7
STANDARD
 40
0.1
  1
%%c
 41
1.3333333333
 72
0
100
AcDbText
  0
TEXT
  5
433
100
AcDbEntity
  8
SCHEME_DIMS
100
AcDbText
 62
2
  6
CONTINUOUS
 10
5.942578093
 20
6.7735198834
  7
STANDARD
 40
0.1
  1
5,1
 41
1.0
 72
0
100
AcDbText
  0
TEXT
  5
434
100
AcDbEntity
  8
SCHEME_DIMS
100
AcDbText
 62
2
  6
CONTINUOUS
 10
6.042578093
 20
6.6235198834
  7
STANDARD
 40
0.1
  1
.20
 41
1.0
 72
0
100
AcDbText
  0
TEXT
  5
435
100
AcDbEntity
  8
SCHEME_DIMS
100
AcDbText
 62
2
  6
CONTINUOUS
 10
5.942578093
 20
6.6235198834
  7
STANDARD
 40
0.1
  1
[
 41
1.0
 72
0
100
AcDbText
  0
TEXT
  5
436
100
AcDbEntity
  8
SCHEME_DIMS
100
AcDbText
 62
2
  6
CONTINUOUS
 10
6.342578093
 20
6.6235198834
  7
STANDARD
 40
0.1
  1
]
 41
1.0
 72
0
100
AcDbText
  0
LINE
  5
437
100
AcDbEntity
  8
SCHEME_DIMS
100
AcDbLine
 62
2
  6
CONTINUOUS
 10
4.7520940412
 20
7.3069200539
 11
5.2592447597
 21
6.8235198834
  0
LINE
  5
438
100
AcDbEntity
  8
SCHEME_DIMS
100
AcDbLine
 62
2
  6
CONTINUOUS
 10
5.2592447597
 20
6.8235198834
 11
5.4092447597
 21
6.8235198834
  0
INSERT
  5
439
100
AcDbEntity
  8
SCHEME_DIMS
100
AcDbBlockReference
 62
2
  6
CONTINUOUS
  2
_FILLED
 10
4.7520940412
 20
7.3069200539
 41
0.1875
 42
0.1875
 43
0.1875
 50
136.3735240574
  0
ENDBLK
  5
43A
100
AcDbEntity
  8
0
  6
BYBLOCK
 62
0
100
AcDbBlockEnd
  0
BLOCK
  5
43B
100
AcDbEntity
  8
SCHEME_DIMS
100
AcDbBlockBegin
 62
2
  6
CONTINUOUS
  2
*D7
 70
65
 10
0.0
 20
0.0
  3
*D7
  1

  0
TEXT
  5
43C
100
AcDbEntity
  8
SCHEME_DIMS
100
AcDbText
 62
2
  6
CONTINUOUS
 10
5.4319561402
 20
9.0810184287
  7
STANDARD
 40
0.1
  1
%%c
 41
1.3333333333
 72
0
100
AcDbText
  0
TEXT
  5
43D
100
AcDbEntity
  8
SCHEME_DIMS
100
AcDbText
 62
2
  6
CONTINUOUS
 10
5.5652894735
 20
9.0810184287
  7
STANDARD
 40
0.1
  1
30,1
 41
1.0
 72
0
100
AcDbText
  0
TEXT
  5
43E
100
AcDbEntity
  8
SCHEME_DIMS
100
AcDbText
 62
2
  6
CONTINUOUS
 10
5.6652894735
 20
8.9310184287
  7
STANDARD
 40
0.1
  1
1.19
 41
1.0
 72
0
100
AcDbText
  0
TEXT
  5
43F
100
AcDbEntity
  8
SCHEME_DIMS
100
AcDbText
 62
2
  6
CONTINUOUS
 10
5.5652894735
 20
8.9310184287
  7
STANDARD
 40
0.1
  1
[
 41
1.0
 72
0
100
AcDbText
  0
TEXT
  5
440
100
AcDbEntity
  8
SCHEME_DIMS
100
AcDbText
 62
2
  6
CONTINUOUS
 10
6.0652894735
 20
8.9310184287
  7
STANDARD
 40
0.1
  1
]
 41
1.0
 72
0
100
AcDbText
  0
LINE
  5
441
100
AcDbEntity
  8
SCHEME_DIMS
100
AcDbLine
 62
2
  6
CONTINUOUS
 10
4.0642221157
 20
8.4384990423
 11
3.5597087296
 21
8.1259154643
  0
LINE
  5
442
100
AcDbEntity
  8
SCHEME_DIMS
100
AcDbLine
 62
2
  6
CONTINUOUS
 10
3.5597087296
 20
8.1259154643
 11
5.1819561402
 21
9.1310184287
  0
LINE
  5
443
100
AcDbEntity
  8
SCHEME_DIMS
100
AcDbLine
 62
2
  6
CONTINUOUS
 10
5.1819561402
 20
9.1310184287
 11
5.3319561402
 21
9.1310184287
  0
LINE
  5
444
100
AcDbEntity
  8
SCHEME_DIMS
100
AcDbLine
 62
2
  6
CONTINUOUS
 10
3.0551953434
 20
7.8133318863
 11
3.5597087296
 21
8.1259154643
  0
INSERT
  5
445
100
AcDbEntity
  8
SCHEME_DIMS
100
AcDbBlockReference
 62
2
  6
CONTINUOUS
  2
_FILLED
 10
4.0642221157
 20
8.4384990423
 41
0.1875
 42
0.1875
 43
0.1875
 50
31.7812952348
  0
INSERT
  5
446
100
AcDbEntity
  8
SCHEME_DIMS
100
AcDbBlockReference
 62
2
  6
CONTINUOUS
  2
_FILLED
 10
3.0551953434
 20
7.8133318863
 41
0.1875
 42
0.1875
 43
0.1875
 50
211.7812952348
  0
ENDBLK
  5
447
100
AcDbEntity
  8
0
  6
BYBLOCK
 62
0
100
AcDbBlockEnd
  0
BLOCK
  5
448
100
AcDbEntity
  8
SCHEME_DIMS
100
AcDbBlockBegin
 62
2
  6
CONTINUOUS
  2
*D8
 70
65
 10
0.0
 20
0.0
  3
*D8
  1

  0
TEXT
  5
449
100
AcDbEntity
  8
SCHEME_DIMS
100
AcDbText
 62
2
  6
CONTINUOUS
 10
1.3847087296
 20
4.2388947212
  7
STANDARD
 40
0.1
  1
35,9
 41
1.0
 72
0
100
AcDbText
  0
TEXT
  5
44A
100
AcDbEntity
  8
SCHEME_DIMS
100
AcDbText
 62
2
  6
CONTINUOUS
 10
1.4847087296
 20
4.0888947212
  7
STANDARD
 40
0.1
  1
1.41
 41
1.0
 72
0
100
AcDbText
  0
TEXT
  5
44B
100
AcDbEntity
  8
SCHEME_DIMS
100
AcDbText
 62
2
  6
CONTINUOUS
 10
1.3847087296
 20
4.0888947212
  7
STANDARD
 40
0.1
  1
[
 41
1.0
 72
0
100
AcDbText
  0
TEXT
  5
44C
100
AcDbEntity
  8
SCHEME_DIMS
100
AcDbText
 62
2
  6
CONTINUOUS
 10
1.8847087296
 20
4.0888947212
  7
STANDARD
 40
0.1
  1
]
 41
1.0
 72
0
100
AcDbText
  0
LINE
  5
44D
100
AcDbEntity
  8
SCHEME_DIMS
100
AcDbLine
 62
2
  6
CONTINUOUS
 10
2.5496019484
 20
4.9210015024
 11
1.5597087296
 21
4.9210015024
  0
LINE
  5
44E
100
AcDbEntity
  8
SCHEME_DIMS
100
AcDbLine
 62
2
  6
CONTINUOUS
 10
2.5496019484
 20
3.5067879401
 11
1.5597087296
 21
3.5067879401
  0
LINE
  5
44F
100
AcDbEntity
  8
SCHEME_DIMS
100
AcDbLine
 62
2
  6
CONTINUOUS
 10
1.6847087296
 20
4.9210015024
 11
1.6847087296
 21
4.4388947212
  0
LINE
  5
450
100
AcDbEntity
  8
SCHEME_DIMS
100
AcDbLine
 62
2
  6
CONTINUOUS
 10
1.6847087296
 20
3.5067879401
 11
1.6847087296
 21
3.9888947212
  0
INSERT
  5
451
100
AcDbEntity
  8
SCHEME_DIMS
100
AcDbBlockReference
 62
2
  6
CONTINUOUS
  2
_FILLED
 10
1.6847087296
 20
4.9210015024
 41
0.1875
 42
0.1875
 43
0.1875
 50
90.0
  0
INSERT
  5
452
100
AcDbEntity
  8
SCHEME_DIMS
100
AcDbBlockReference
 62
2
  6
CONTINUOUS
  2
_FILLED
 10
1.6847087296
 20
3.5067879401
 41
0.1875
 42
0.1875
 43
0.1875
 50
270.0
  0
ENDBLK
  5
453
100
AcDbEntity
  8
0
  6
BYBLOCK
 62
0
100
AcDbBlockEnd
  0
BLOCK
  5
454
100
AcDbEntity
  8
SCHEME_DIMS
100
AcDbBlockBegin
 62
2
  6
CONTINUOUS
  2
*D9
 70
65
 10
0.0
 20
0.0
  3
*D9
  1

  0
TEXT
  5
455
100
AcDbEntity
  8
SCHEME_DIMS
100
AcDbText
 62
2
  6
CONTINUOUS
 10
5.1347087296
 20
4.7388947212
  7
STANDARD
 40
0.1
  1
25,4
 41
1.0
 72
0
100
AcDbText
  0
TEXT
  5
456
100
AcDbEntity
  8
SCHEME_DIMS
100
AcDbText
 62
2
  6
CONTINUOUS
 10
5.2347087296
 20
4.5888947212
  7
STANDARD
 40
0.1
  1
1.00
 41
1.0
 72
0
100
AcDbText
  0
TEXT
  5
457
100
AcDbEntity
  8
SCHEME_DIMS
100
AcDbText
 62
2
  6
CONTINUOUS
 10
5.1347087296
 20
4.5888947212
  7
STANDARD
 40
0.1
  1
[
 41
1.0
 72
0
100
AcDbText
  0
TEXT
  5
458
100
AcDbEntity
  8
SCHEME_DIMS
100
AcDbText
 62
2
  6
CONTINUOUS
 10
5.6347087296
 20
4.5888947212
  7
STANDARD
 40
0.1
  1
]
 41
1.0
 72
0
100
AcDbText
  0
LINE
  5
459
100
AcDbEntity
  8
SCHEME_DIMS
100
AcDbLine
 62
2
  6
CONTINUOUS
 10
4.7222087296
 20
4.2138947212
 11
5.5597087296
 21
4.2138947212
  0
LINE
  5
45A
100
AcDbEntity
  8
SCHEME_DIMS
100
AcDbLine
 62
2
  6
CONTINUOUS
 10
4.8176261833
 20
5.2138947212
 11
5.5597087296
 21
5.2138947212
  0
LINE
  5
45B
100
AcDbEntity
  8
SCHEME_DIMS
100
AcDbLine
 62
2
  6
CONTINUOUS
 10
5.4347087296
 20
4.2138947212
 11
5.4347087296
 21
4.4888947212
  0
LINE
  5
45C
100
AcDbEntity
  8
SCHEME_DIMS
100
AcDbLine
 62
2
  6
CONTINUOUS
 10
5.4347087296
 20
5.2138947212
 11
5.4347087296
 21
4.9388947212
  0
INSERT
  5
45D
100
AcDbEntity
  8
SCHEME_DIMS
100
AcDbBlockReference
 62
2
  6
CONTINUOUS
  2
_FILLED
 10
5.4347087296
 20
4.2138947212
 41
0.1875
 42
0.1875
 43
0.1875
 50
270.0
  0
INSERT
  5
45E
100
AcDbEntity
  8
SCHEME_DIMS
100
AcDbBlockReference
 62
2
  6
CONTINUOUS
  2
_FILLED
 10
5.4347087296
 20
5.2138947212
 41
0.1875
 42
0.1875
 43
0.1875
 50
90.0
  0
ENDBLK
  5
45F
100
AcDbEntity
  8
0
  6
BYBLOCK
 62
0
100
AcDbBlockEnd
  0
BLOCK
  5
460
100
AcDbEntity
  8
SCHEME_DIMS
100
AcDbBlockBegin
 62
2
  6
CONTINUOUS
  2
*D10
 70
65
 10
0.0
 20
0.0
  3
*D10
  1

  0
TEXT
  5
461
100
AcDbEntity
  8
SCHEME_DIMS
100
AcDbText
 62
2
  6
CONTINUOUS
 10
3.9472087296
 20
2.4138947212
  7
STANDARD
 40
0.1
  1
34,9
 41
1.0
 72
0
100
AcDbText
  0
TEXT
  5
462
100
AcDbEntity
  8
SCHEME_DIMS
100
AcDbText
 62
2
  6
CONTINUOUS
 10
4.0472087296
 20
2.2638947212
  7
STANDARD
 40
0.1
  1
1.38
 41
1.0
 72
0
100
AcDbText
  0
TEXT
  5
463
100
AcDbEntity
  8
SCHEME_DIMS
100
AcDbText
 62
2
  6
CONTINUOUS
 10
3.9472087296
 20
2.2638947212
  7
STANDARD
 40
0.1
  1
[
 41
1.0
 72
0
100
AcDbText
  0
TEXT
  5
464
100
AcDbEntity
  8
SCHEME_DIMS
100
AcDbText
 62
2
  6
CONTINUOUS
 10
4.4472087296
 20
2.2638947212
  7
STANDARD
 40
0.1
  1
]
 41
1.0
 72
0
100
AcDbText
  0
LINE
  5
465
100
AcDbEntity
  8
SCHEME_DIMS
100
AcDbLine
 62
2
  6
CONTINUOUS
 10
4.9347087296
 20
2.8901494462
 11
4.9347087296
 21
2.3388947212
  0
LINE
  5
466
100
AcDbEntity
  8
SCHEME_DIMS
100
AcDbLine
 62
2
  6
CONTINUOUS
 10
3.5597087296
 20
3.0397171178
 11
3.5597087296
 21
2.3388947212
  0
LINE
  5
467
100
AcDbEntity
  8
SCHEME_DIMS
100
AcDbLine
 62
2
  6
CONTINUOUS
 10
4.9347087296
 20
2.4638947212
 11
5.3347087296
 21
2.4638947212
  0
LINE
  5
468
100
AcDbEntity
  8
SCHEME_DIMS
100
AcDbLine
 62
2
  6
CONTINUOUS
 10
3.5597087296
 20
2.4638947212
 11
3.1597087296
 21
2.4638947212
  0
INSERT
  5
469
100
AcDbEntity
  8
SCHEME_DIMS
100
AcDbBlockReference
 62
2
  6
CONTINUOUS
  2
_FILLED
 10
4.9347087296
 20
2.4638947212
 41
0.1875
 42
0.1875
 43
0.1875
 50
180.0
  0
INSERT
  5
46A
100
AcDbEntity
  8
SCHEME_DIMS
100
AcDbBlockReference
 62
2
  6
CONTINUOUS
  2
_FILLED
 10
3.5597087296
 20
2.4638947212
 41
0.1875
 42
0.1875
 43
0.1875
  0
ENDBLK
  5
46B
100
AcDbEntity
  8
0
  6
BYBLOCK
 62
0
100
AcDbBlockEnd
  0
BLOCK
  5
46C
100
AcDbEntity
  8
SCHEME_DIMS
100
AcDbBlockBegin
 62
2
  6
CONTINUOUS
  2
*D11
 70
65
 10
0.0
 20
0.0
  3
*D11
  1

  0
TEXT
  5
46D
100
AcDbEntity
  8
SCHEME_DIMS
100
AcDbText
 62
2
  6
CONTINUOUS
 10
5.1347087296
 20
7.6509154643
  7
STANDARD
 40
0.1
  1
25,4
 41
1.0
 72
0
100
AcDbText
  0
TEXT
  5
46E
100
AcDbEntity
  8
SCHEME_DIMS
100
AcDbText
 62
2
  6
CONTINUOUS
 10
5.2347087296
 20
7.5009154643
  7
STANDARD
 40
0.1
  1
1.00
 41
1.0
 72
0
100
AcDbText
  0
TEXT
  5
46F
100
AcDbEntity
  8
SCHEME_DIMS
100
AcDbText
 62
2
  6
CONTINUOUS
 10
5.1347087296
 20
7.5009154643
  7
STANDARD
 40
0.1
  1
[
 41
1.0
 72
0
100
AcDbText
  0
TEXT
  5
470
100
AcDbEntity
  8
SCHEME_DIMS
100
AcDbText
 62
2
  6
CONTINUOUS
 10
5.6347087296
 20
7.5009154643
  7
STANDARD
 40
0.1
  1
]
 41
1.0
 72
0
100
AcDbText
  0
LINE
  5
471
100
AcDbEntity
  8
SCHEME_DIMS
100
AcDbLine
 62
2
  6
CONTINUOUS
 10
4.8361753815
 20
7.1259154643
 11
4.9155089464
 21
7.1259154643
  0
LINE
  5
472
100
AcDbEntity
  8
SCHEME_DIMS
100
AcDbLine
 62
2
  6
CONTINUOUS
 10
4.9724381462
 20
7.1259154643
 11
5.5597087296
 21
7.1259154643
  0
LINE
  5
473
100
AcDbEntity
  8
SCHEME_DIMS
100
AcDbLine
 62
2
  6
CONTINUOUS
 10
4.3157087296
 20
8.1259154643
 11
5.5597087296
 21
8.1259154643
  0
LINE
  5
474
100
AcDbEntity
  8
SCHEME_DIMS
100
AcDbLine
 62
2
  6
CONTINUOUS
 10
5.4347087296
 20
7.1259154643
 11
5.4347087296
 21
7.4009154643
  0
LINE
  5
475
100
AcDbEntity
  8
SCHEME_DIMS
100
AcDbLine
 62
2
  6
CONTINUOUS
 10
5.4347087296
 20
8.1259154643
 11
5.4347087296
 21
7.8509154643
  0
INSERT
  5
476
100
AcDbEntity
  8
SCHEME_DIMS
100
AcDbBlockReference
 62
2
  6
CONTINUOUS
  2
_FILLED
 10
5.4347087296
 20
7.1259154643
 41
0.1875
 42
0.1875
 43
0.1875
 50
270.0
  0
INSERT
  5
477
100
AcDbEntity
  8
SCHEME_DIMS
100
AcDbBlockReference
 62
2
  6
CONTINUOUS
  2
_FILLED
 10
5.4347087296
 20
8.1259154643
 41
0.1875
 42
0.1875
 43
0.1875
 50
90.0
  0
ENDBLK
  5
478
100
AcDbEntity
  8
0
  6
BYBLOCK
 62
0
100
AcDbBlockEnd
  0
BLOCK
  5
479
100
AcDbEntity
  8
SCHEME_DIMS
100
AcDbBlockBegin
 62
2
  6
CONTINUOUS
  2
*D12
 70
65
 10
0.0
 20
0.0
  3
*D12
  1

  0
TEXT
  5
47A
100
AcDbEntity
  8
SCHEME_DIMS
100
AcDbText
 62
2
  6
CONTINUOUS
 10
3.9472087296
 20
9.8259154643
  7
STANDARD
 40
0.1
  1
34,9
 41
1.0
 72
0
100
AcDbText
  0
TEXT
  5
47B
100
AcDbEntity
  8
SCHEME_DIMS
100
AcDbText
 62
2
  6
CONTINUOUS
 10
4.0472087296
 20
9.6759154643
  7
STANDARD
 40
0.1
  1
1.38
 41
1.0
 72
0
100
AcDbText
  0
TEXT
  5
47C
100
AcDbEntity
  8
SCHEME_DIMS
100
AcDbText
 62
2
  6
CONTINUOUS
 10
3.9472087296
 20
9.6759154643
  7
STANDARD
 40
0.1
  1
[
 41
1.0
 72
0
100
AcDbText
  0
TEXT
  5
47D
100
AcDbEntity
  8
SCHEME_DIMS
100
AcDbText
 62
2
  6
CONTINUOUS
 10
4.4472087296
 20
9.6759154643
  7
STANDARD
 40
0.1
  1
]
 41
1.0
 72
0
100
AcDbText
  0
LINE
  5
47E
100
AcDbEntity
  8
SCHEME_DIMS
100
AcDbLine
 62
2
  6
CONTINUOUS
 10
4.9347087296
 20
9.4127365938
 11
4.9347087296
 21
10.0009154643
  0
LINE
  5
47F
100
AcDbEntity
  8
SCHEME_DIMS
100
AcDbLine
 62
2
  6
CONTINUOUS
 10
3.5597087296
 20
8.8654923166
 11
3.5597087296
 21
10.0009154643
  0
LINE
  5
480
100
AcDbEntity
  8
SCHEME_DIMS
100
AcDbLine
 62
2
  6
CONTINUOUS
 10
4.9347087296
 20
9.8759154643
 11
5.3347087296
 21
9.8759154643
  0
LINE
  5
481
100
AcDbEntity
  8
SCHEME_DIMS
100
AcDbLine
 62
2
  6
CONTINUOUS
 10
3.5597087296
 20
9.8759154643
 11
3.1597087296
 21
9.8759154643
  0
INSERT
  5
482
100
AcDbEntity
  8
SCHEME_DIMS
100
AcDbBlockReference
 62
2
  6
CONTINUOUS
  2
_FILLED
 10
4.9347087296
 20
9.8759154643
 41
0.1875
 42
0.1875
 43
0.1875
 50
180.0
  0
INSERT
  5
483
100
AcDbEntity
  8
SCHEME_DIMS
100
AcDbBlockReference
 62
2
  6
CONTINUOUS
  2
_FILLED
 10
3.5597087296
 20
9.8759154643
 41
0.1875
 42
0.1875
 43
0.1875
  0
ENDBLK
  5
484
100
AcDbEntity
  8
0
  6
BYBLOCK
 62
0
100
AcDbBlockEnd
  0
BLOCK
  5
485
100
AcDbEntity
  8
SCHEME_DIMS
100
AcDbBlockBegin
 62
2
  6
CONTINUOUS
  2
*D13
 70
65
 10
0.0
 20
0.0
  3
*D13
  1

  0
TEXT
  5
486
100
AcDbEntity
  8
SCHEME_DIMS
100
AcDbText
 62
2
  6
CONTINUOUS
 10
3.2597087296
 20
6.2009154643
  7
STANDARD
 40
0.1
  1
30
 41
1.0
 72
0
100
AcDbText
  0
TEXT
  5
487
100
AcDbEntity
  8
SCHEME_DIMS
100
AcDbText
 62
2
  6
CONTINUOUS
 10
3.3597087296
 20
6.0509154643
  7
STANDARD
 40
0.1
  1
1.18
 41
1.0
 72
0
100
AcDbText
  0
TEXT
  5
488
100
AcDbEntity
  8
SCHEME_DIMS
100
AcDbText
 62
2
  6
CONTINUOUS
 10
3.2597087296
 20
6.0509154643
  7
STANDARD
 40
0.1
  1
[
 41
1.0
 72
0
100
AcDbText
  0
TEXT
  5
489
100
AcDbEntity
  8
SCHEME_DIMS
100
AcDbText
 62
2
  6
CONTINUOUS
 10
3.7597087296
 20
6.0509154643
  7
STANDARD
 40
0.1
  1
]
 41
1.0
 72
0
100
AcDbText
  0
LINE
  5
48A
100
AcDbEntity
  8
SCHEME_DIMS
100
AcDbLine
 62
2
  6
CONTINUOUS
 10
4.1497087296
 20
7.1134154643
 11
4.1497087296
 21
6.1259154643
  0
LINE
  5
48B
100
AcDbEntity
  8
SCHEME_DIMS
100
AcDbLine
 62
2
  6
CONTINUOUS
 10
2.9697087296
 20
7.1134154643
 11
2.9697087296
 21
6.6779495686
  0
LINE
  5
48C
100
AcDbEntity
  8
SCHEME_DIMS
100
AcDbLine
 62
2
  6
CONTINUOUS
 10
2.9697087296
 20
6.5692075403
 11
2.9697087296
 21
6.1259154643
  0
LINE
  5
48D
100
AcDbEntity
  8
SCHEME_DIMS
100
AcDbLine
 62
2
  6
CONTINUOUS
 10
4.1497087296
 20
6.2509154643
 11
4.5497087296
 21
6.2509154643
  0
LINE
  5
48E
100
AcDbEntity
  8
SCHEME_DIMS
100
AcDbLine
 62
2
  6
CONTINUOUS
 10
2.9697087296
 20
6.2509154643
 11
2.5697087296
 21
6.2509154643
  0
INSERT
  5
48F
100
AcDbEntity
  8
SCHEME_DIMS
100
AcDbBlockReference
 62
2
  6
CONTINUOUS
  2
_FILLED
 10
4.1497087296
 20
6.2509154643
 41
0.1875
 42
0.1875
 43
0.1875
 50
180.0
  0
INSERT
  5
490
100
AcDbEntity
  8
SCHEME_DIMS
100
AcDbBlockReference
 62
2
  6
CONTINUOUS
  2
_FILLED
 10
2.9697087296
 20
6.2509154643
 41
0.1875
 42
0.1875
 43
0.1875
  0
ENDBLK
  5
491
100
AcDbEntity
  8
0
  6
BYBLOCK
 62
0
100
AcDbBlockEnd
  0
BLOCK
  5
492
100
AcDbEntity
  8
SCHEME_DIMS
100
AcDbBlockBegin
 62
2
  6
CONTINUOUS
  2
*D14
 70
65
 10
0.0
 20
0.0
  3
*D14
  1

  0
TEXT
  5
493
100
AcDbEntity
  8
SCHEME_DIMS
100
AcDbText
 62
2
  6
CONTINUOUS
 10
3.2547087296
 20
5.8259154643
  7
STANDARD
 40
0.1
  1
57,2
 41
1.0
 72
0
100
AcDbText
  0
TEXT
  5
494
100
AcDbEntity
  8
SCHEME_DIMS
100
AcDbText
 62
2
  6
CONTINUOUS
 10
3.3547087296
 20
5.6759154643
  7
STANDARD
 40
0.1
  1
2.25
 41
1.0
 72
0
100
AcDbText
  0
TEXT
  5
495
100
AcDbEntity
  8
SCHEME_DIMS
100
AcDbText
 62
2
  6
CONTINUOUS
 10
3.2547087296
 20
5.6759154643
  7
STANDARD
 40
0.1
  1
[
 41
1.0
 72
0
100
AcDbText
  0
TEXT
  5
496
100
AcDbEntity
  8
SCHEME_DIMS
100
AcDbText
 62
2
  6
CONTINUOUS
 10
3.7547087296
 20
5.6759154643
  7
STANDARD
 40
0.1
  1
]
 41
1.0
 72
0
100
AcDbText
  0
LINE
  5
497
100
AcDbEntity
  8
SCHEME_DIMS
100
AcDbLine
 62
2
  6
CONTINUOUS
 10
4.6797087296
 20
7.1134154643
 11
4.6797087296
 21
5.7509154643
  0
LINE
  5
498
100
AcDbEntity
  8
SCHEME_DIMS
100
AcDbLine
 62
2
  6
CONTINUOUS
 10
2.4297087296
 20
7.1134154643
 11
2.4297087296
 21
5.7509154643
  0
LINE
  5
499
100
AcDbEntity
  8
SCHEME_DIMS
100
AcDbLine
 62
2
  6
CONTINUOUS
 10
4.6797087296
 20
5.8759154643
 11
3.9547087296
 21
5.8759154643
  0
LINE
  5
49A
100
AcDbEntity
  8
SCHEME_DIMS
100
AcDbLine
 62
2
  6
CONTINUOUS
 10
2.4297087296
 20
5.8759154643
 11
3.1547087296
 21
5.8759154643
  0
INSERT
  5
49B
100
AcDbEntity
  8
SCHEME_DIMS
100
AcDbBlockReference
 62
2
  6
CONTINUOUS
  2
_FILLED
 10
4.6797087296
 20
5.8759154643
 41
0.1875
 42
0.1875
 43
0.1875
  0
INSERT
  5
49C
100
AcDbEntity
  8
SCHEME_DIMS
100
AcDbBlockReference
 62
2
  6
CONTINUOUS
  2
_FILLED
 10
2.4297087296
 20
5.8759154643
 41
0.1875
 42
0.1875
 43
0.1875
 50
180.0
  0
ENDBLK
  5
49D
100
AcDbEntity
  8
0
  6
BYBLOCK
 62
0
100
AcDbBlockEnd
  0
BLOCK
  5
49E
100
AcDbEntity
  8
SCHEME_DIMS
100
AcDbBlockBegin
 62
2
  6
CONTINUOUS
  2
*D15
 70
65
 10
0.0
 20
0.0
  3
*D15
  1

  0
TEXT
  5
49F
100
AcDbEntity
  8
SCHEME_DIMS
100
AcDbText
 62
2
  6
CONTINUOUS
 10
1.0097087296
 20
7.9909154643
  7
STANDARD
 40
0.1
  1
30
 41
1.0
 72
0
100
AcDbText
  0
TEXT
  5
4A0
100
AcDbEntity
  8
SCHEME_DIMS
100
AcDbText
 62
2
  6
CONTINUOUS
 10
1.1097087296
 20
7.8409154643
  7
STANDARD
 40
0.1
  1
1.18
 41
1.0
 72
0
100
AcDbText
  0
TEXT
  5
4A1
100
AcDbEntity
  8
SCHEME_DIMS
100
AcDbText
 62
2
  6
CONTINUOUS
 10
1.0097087296
 20
7.8409154643
  7
STANDARD
 40
0.1
  1
[
 41
1.0
 72
0
100
AcDbText
  0
TEXT
  5
4A2
100
AcDbEntity
  8
SCHEME_DIMS
100
AcDbText
 62
2
  6
CONTINUOUS
 10
1.5097087296
 20
7.8409154643
  7
STANDARD
 40
0.1
  1
]
 41
1.0
 72
0
100
AcDbText
  0
LINE
  5
4A3
100
AcDbEntity
  8
SCHEME_DIMS
100
AcDbLine
 62
2
  6
CONTINUOUS
 10
2.1672087296
 20
7.3759154643
 11
1.1847087296
 21
7.3759154643
  0
LINE
  5
4A4
100
AcDbEntity
  8
SCHEME_DIMS
100
AcDbLine
 62
2
  6
CONTINUOUS
 10
2.1672087296
 20
8.5559154643
 11
1.1847087296
 21
8.5559154643
  0
LINE
  5
4A5
100
AcDbEntity
  8
SCHEME_DIMS
100
AcDbLine
 62
2
  6
CONTINUOUS
 10
1.3097087296
 20
7.3759154643
 11
1.3097087296
 21
7.7409154643
  0
LINE
  5
4A6
100
AcDbEntity
  8
SCHEME_DIMS
100
AcDbLine
 62
2
  6
CONTINUOUS
 10
1.3097087296
 20
8.5559154643
 11
1.3097087296
 21
8.1909154643
  0
INSERT
  5
4A7
100
AcDbEntity
  8
SCHEME_DIMS
100
AcDbBlockReference
 62
2
  6
CONTINUOUS
  2
_FILLED
 10
1.3097087296
 20
7.3759154643
 41
0.1875
 42
0.1875
 43
0.1875
 50
270.0
  0
INSERT
  5
4A8
100
AcDbEntity
  8
SCHEME_DIMS
100
AcDbBlockReference
 62
2
  6
CONTINUOUS
  2
_FILLED
 10
1.3097087296
 20
8.5559154643
 41
0.1875
 42
0.1875
 43
0.1875
 50
90.0
  0
ENDBLK
  5
4A9
100
AcDbEntity
  8
0
  6
BYBLOCK
 62
0
100
AcDbBlockEnd
  0
BLOCK
  5
4AA
100
AcDbEntity
  8
SCHEME_DIMS
100
AcDbBlockBegin
 62
2
  6
CONTINUOUS
  2
*D16
 70
65
 10
0.0
 20
0.0
  3
*D16
  1

  0
TEXT
  5
4AB
100
AcDbEntity
  8
SCHEME_DIMS
100
AcDbText
 62
2
  6
CONTINUOUS
 10
0.932593466
 20
6.6788587262
  7
STANDARD
 40
0.1
  1
6,4
 41
1.0
 72
0
100
AcDbText
  0
TEXT
  5
4AC
100
AcDbEntity
  8
SCHEME_DIMS
100
AcDbText
 62
2
  6
CONTINUOUS
 10
1.032593466
 20
6.5288587262
  7
STANDARD
 40
0.1
  1
.25
 41
1.0
 72
0
100
AcDbText
  0
TEXT
  5
4AD
100
AcDbEntity
  8
SCHEME_DIMS
100
AcDbText
 62
2
  6
CONTINUOUS
 10
0.932593466
 20
6.5288587262
  7
STANDARD
 40
0.1
  1
[
 41
1.0
 72
0
100
AcDbText
  0
TEXT
  5
4AE
100
AcDbEntity
  8
SCHEME_DIMS
100
AcDbText
 62
2
  6
CONTINUOUS
 10
1.332593466
 20
6.5288587262
  7
STANDARD
 40
0.1
  1
]
 41
1.0
 72
0
100
AcDbText
  0
LINE
  5
4AF
100
AcDbEntity
  8
SCHEME_DIMS
100
AcDbLine
 62
2
  6
CONTINUOUS
 10
2.1672087296
 20
7.3759154643
 11
1.55209028
 21
7.3759154643
  0
LINE
  5
4B0
100
AcDbEntity
  8
SCHEME_DIMS
100
AcDbLine
 62
2
  6
CONTINUOUS
 10
2.3722087296
 20
7.1259154643
 11
2.2107736623
 21
7.1259154643
  0
LINE
  5
4B1
100
AcDbEntity
  8
SCHEME_DIMS
100
AcDbLine
 62
2
  6
CONTINUOUS
 10
2.1541739598
 20
7.1259154643
 11
1.55209028
 21
7.1259154643
  0
LINE
  5
4B2
100
AcDbEntity
  8
SCHEME_DIMS
100
AcDbLine
 62
2
  6
CONTINUOUS
 10
1.67709028
 20
7.3759154643
 11
1.67709028
 21
7.7759154643
  0
LINE
  5
4B3
100
AcDbEntity
  8
SCHEME_DIMS
100
AcDbLine
 62
2
  6
CONTINUOUS
 10
1.67709028
 20
7.1259154643
 11
1.67709028
 21
6.7288587262
  0
LINE
  5
4B4
100
AcDbEntity
  8
SCHEME_DIMS
100
AcDbLine
 62
2
  6
CONTINUOUS
 10
1.67709028
 20
6.7288587262
 11
1.532593466
 21
6.7288587262
  0
INSERT
  5
4B5
100
AcDbEntity
  8
SCHEME_DIMS
100
AcDbBlockReference
 62
2
  6
CONTINUOUS
  2
_FILLED
 10
1.67709028
 20
7.3759154643
 41
0.1875
 42
0.1875
 43
0.1875
 50
270.0
  0
INSERT
  5
4B6
100
AcDbEntity
  8
SCHEME_DIMS
100
AcDbBlockReference
 62
2
  6
CONTINUOUS
  2
_FILLED
 10
1.67709028
 20
7.1259154643
 41
0.1875
 42
0.1875
 43
0.1875
 50
90.0
  0
ENDBLK
  5
4B7
100
AcDbEntity
  8
0
  6
BYBLOCK
 62
0
100
AcDbBlockEnd
  0
BLOCK
  5
4B8
100
AcDbEntity
  8
SCHEME_DIMS
100
AcDbBlockBegin
 62
2
  6
CONTINUOUS
  2
*D17
 70
65
 10
0.0
 20
0.0
  3
*D17
  1

  0
TEXT
  5
4B9
100
AcDbEntity
  8
SCHEME_DIMS
100
AcDbText
 62
2
  6
CONTINUOUS
 10
3.2740032445
 20
6.5759154643
  7
STANDARD
 40
0.1
  1
6,2
 41
1.0
 72
0
100
AcDbText
  0
TEXT
  5
4BA
100
AcDbEntity
  8
SCHEME_DIMS
100
AcDbText
 62
2
  6
CONTINUOUS
 10
3.3740032445
 20
6.4259154643
  7
STANDARD
 40
0.1
  1
.25
 41
1.0
 72
0
100
AcDbText
  0
TEXT
  5
4BB
100
AcDbEntity
  8
SCHEME_DIMS
100
AcDbText
 62
2
  6
CONTINUOUS
 10
3.2740032445
 20
6.4259154643
  7
STANDARD
 40
0.1
  1
[
 41
1.0
 72
0
100
AcDbText
  0
TEXT
  5
4BC
100
AcDbEntity
  8
SCHEME_DIMS
100
AcDbText
 62
2
  6
CONTINUOUS
 10
3.6740032445
 20
6.4259154643
  7
STANDARD
 40
0.1
  1
]
 41
1.0
 72
0
100
AcDbText
  0
LINE
  5
4BD
100
AcDbEntity
  8
SCHEME_DIMS
100
AcDbLine
 62
2
  6
CONTINUOUS
 10
2.1847087296
 20
7.2575552938
 11
2.1847087296
 21
6.5009154643
  0
LINE
  5
4BE
100
AcDbEntity
  8
SCHEME_DIMS
100
AcDbLine
 62
2
  6
CONTINUOUS
 10
2.4297087296
 20
7.1134154643
 11
2.4297087296
 21
6.5009154643
  0
LINE
  5
4BF
100
AcDbEntity
  8
SCHEME_DIMS
100
AcDbLine
 62
2
  6
CONTINUOUS
 10
2.1847087296
 20
6.6259154643
 11
1.7847087296
 21
6.6259154643
  0
LINE
  5
4C0
100
AcDbEntity
  8
SCHEME_DIMS
100
AcDbLine
 62
2
  6
CONTINUOUS
 10
2.4297087296
 20
6.6259154643
 11
3.1740032445
 21
6.6259154643
  0
INSERT
  5
4C1
100
AcDbEntity
  8
SCHEME_DIMS
100
AcDbBlockReference
 62
2
  6
CONTINUOUS
  2
_FILLED
 10
2.1847087296
 20
6.6259154643
 41
0.1875
 42
0.1875
 43
0.1875
  0
INSERT
  5
4C2
100
AcDbEntity
  8
SCHEME_DIMS
100
AcDbBlockReference
 62
2
  6
CONTINUOUS
  2
_FILLED
 10
2.4297087296
 20
6.6259154643
 41
0.1875
 42
0.1875
 43
0.1875
 50
180.0
  0
ENDBLK
  5
4C3
100
AcDbEntity
  8
0
  6
BYBLOCK
 62
0
100
AcDbBlockEnd
  0
BLOCK
  5
4C4
100
AcDbEntity
  8
0
100
AcDbBlockBegin
  2
_FILLED
 70
64
 10
0.0
 20
0.0
  3
_FILLED
  1

  0
SOLID
  5
4C5
100
AcDbEntity
  8
0
  6
BYBLOCK
 62
0
100
AcDbTrace
 10
0.0
 20
0.0
 11
-1.0
 21
0.1666666667
 12
-1.0
 22
-0.1666666667
 13
-1.0
 23
-0.1666666667
  0
ENDBLK
  5
4C6
100
AcDbEntity
  8
0
  6
BYBLOCK
 62
0
100
AcDbBlockEnd
  0
ENDSEC
  0
SECTION
  2
ENTITIES
  0
TEXT
  5
4C7
100
AcDbEntity
  8
0
100
AcDbText
 62
2
  6
CONTINUOUS
 10
10.1487658475
 20
1.694867839
  7
STANDARD
 40
0.1
  1
%%uTHIRD ANGLE PROJECTION
 41
0.8
 72
1
 11
11.0287658475
 21
1.694867839
100
AcDbText
  0
TEXT
  5
4C8
100
AcDbEntity
  8
0
100
AcDbText
 62
2
  6
CONTINUOUS
 10
12.88
 20
1.377
  7
STANDARD
 40
0.08
  1
DRAWING NO.
 41
1.0
 72
0
100
AcDbText
  0
TEXT
  5
4C9
100
AcDbEntity
  8
0
100
AcDbText
 62
2
  6
CONTINUOUS
 10
10.044
 20
2.436432
  7
STANDARD
 40
0.08
  1
and is proprietary in general
 41
0.85
 72
1
 11
11.03
 21
2.436432
100
AcDbText
  0
TEXT
  5
4CA
100
AcDbEntity
  8
0
100
AcDbText
 62
2
  6
CONTINUOUS
 10
10.078
 20
2.316432
  7
STANDARD
 40
0.08
  1
and in detail.  Its contents
 41
0.85
 72
1
 11
11.03
 21
2.316432
100
AcDbText
  0
TEXT
  5
4CB
100
AcDbEntity
  8
0
100
AcDbText
 62
2
  6
CONTINUOUS
 10
10.214
 20
2.196432
  7
STANDARD
 40
0.08
  1
shall not be revealed to
 41
0.85
 72
1
 11
11.03
 21
2.196432
100
AcDbText
  0
TEXT
  5
4CC
100
AcDbEntity
  8
0
100
AcDbText
 62
2
  6
CONTINUOUS
 10
10.248
 20
2.076432
  7
STANDARD
 40
0.08
  1
outside parties without
 41
0.85
 72
1
 11
11.03
 21
2.076432
100
AcDbText
  0
TEXT
  5
4CD
100
AcDbEntity
  8
0
100
AcDbText
 62
2
  6
CONTINUOUS
 10
10.146
 20
1.956432
  7
STANDARD
 40
0.08
  1
written consent of BANNER.
 41
0.85
 72
1
 11
11.03
 21
1.956432
100
AcDbText
  0
TEXT
  5
4CE
100
AcDbEntity
  8
0
100
AcDbText
 62
2
  6
CONTINUOUS
 10
12.08
 20
2.117
  7
STANDARD
 40
0.1
  1
TITLE
 41
0.8
 72
0
100
AcDbText
  0
TEXT
  5
4CF
100
AcDbEntity
  8
0
100
AcDbText
 62
2
  6
CONTINUOUS
 10
12.08
 20
1.377
  7
STANDARD
 40
0.08
  1
SIZE
 41
1.0
 72
0
100
AcDbText
  0
TEXT
  5
4D0
100
AcDbEntity
  8
0
100
AcDbText
 62
2
  6
CONTINUOUS
 10
12.08
 20
1.007
  7
STANDARD
 40
0.08
  1
SCALE
 41
1.0
 72
0
100
AcDbText
  0
TEXT
  5
4D1
100
AcDbEntity
  8
0
100
AcDbText
 62
2
  6
CONTINUOUS
 10
12.46
 20
1.237
  7
STANDARD
 40
0.1
  1
B
 41
0.8
 72
1
 11
12.5
 21
1.237
100
AcDbText
  0
TEXT
  5
4D2
100
AcDbEntity
  8
0
100
AcDbText
 62
2
  6
CONTINUOUS
 10
10.112
 20
2.556432
  7
STANDARD
 40
0.08
  1
of BANNER ENGINEERING CORP.
 41
0.85
 72
1
 11
11.03
 21
2.556432
100
AcDbText
  0
TEXT
  5
4D3
100
AcDbEntity
  8
0
100
AcDbText
 62
2
  6
CONTINUOUS
 10
10.078
 20
2.676432
  7
STANDARD
 40
0.08
  1
This drawing is the property
 41
0.85
 72
1
 11
11.03
 21
2.676432
100
AcDbText
  0
TEXT
  5
4D4
100
AcDbEntity
  8
0
100
AcDbText
 62
2
  6
CONTINUOUS
 10
14.19
 20
2.3134
  7
STANDARD
 40
0.1
  1
MINNEAPOLIS, MN 55440
 41
0.8
 72
1
 11
15.03
 21
2.3134
100
AcDbText
  0
TEXT
  5
4D5
100
AcDbEntity
  8
0
100
AcDbText
 62
2
  6
CONTINUOUS
 10
14.255
 20
1.007
  7
STANDARD
 40
0.08
  1
SHEET
 41
1.0
 72
0
100
AcDbText
  0
TEXT
  5
4D6
100
AcDbEntity
  8
0
100
AcDbText
 62
2
  6
CONTINUOUS
 10
15.63
 20
1.377
  7
STANDARD
 40
0.08
  1
REV.
 41
1.0
 72
0
100
AcDbText
  0
TEXT
  5
4D7
100
AcDbEntity
  8
0
100
AcDbText
 62
2
  6
CONTINUOUS
 10
16.03
 20
0.765443
  7
STANDARD
 40
0.07
  1
PRO/E
 41
1.0
 72
2
 11
16.38
 21
0.765443
100
AcDbText
  0
TEXT
  5
4D8
100
AcDbEntity
  8
0
100
AcDbText
 62
2
  6
CONTINUOUS
 10
13.7052
 20
2.631049
  7
STANDARD
 40
0.12
  1
BANNER ENGINEERING CORP.
 41
0.92
 72
1
 11
15.03
 21
2.631049
100
AcDbText
  0
TEXT
  5
4D9
100
AcDbEntity
  8
0
100
AcDbText
 62
2
  6
CONTINUOUS
 10
14.51
 20
2.4724
  7
STANDARD
 40
0.1
  1
P.O. BOX 9414
 41
0.8
 72
1
 11
15.03
 21
2.4724
100
AcDbText
  0
TEXT
  5
4DA
100
AcDbEntity
  8
0
100
AcDbText
 62
2
  6
CONTINUOUS
 10
9.445
 20
10.212
  7
STANDARD
 40
0.1
  1
4
 41
0.8
 72
1
 11
9.485
 21
10.212
100
AcDbText
  0
TEXT
  5
4DB
100
AcDbEntity
  8
0
100
AcDbText
 62
2
  6
CONTINUOUS
 10
11.415
 20
10.212
  7
STANDARD
 40
0.1
  1
3
 41
0.8
 72
1
 11
11.455
 21
10.212
100
AcDbText
  0
TEXT
  5
4DC
100
AcDbEntity
  8
0
100
AcDbText
 62
2
  6
CONTINUOUS
 10
13.385
 20
10.212
  7
STANDARD
 40
0.1
  1
2
 41
0.8
 72
1
 11
13.425
 21
10.212
100
AcDbText
  0
TEXT
  5
4DD
100
AcDbEntity
  8
0
100
AcDbText
 62
2
  6
CONTINUOUS
 10
15.355
 20
10.212
  7
STANDARD
 40
0.1
  1
1
 41
0.8
 72
1
 11
15.395
 21
10.212
100
AcDbText
  0
TEXT
  5
4DE
100
AcDbEntity
  8
0
100
AcDbText
 62
2
  6
CONTINUOUS
 10
3.535
 20
10.212
  7
STANDARD
 40
0.1
  1
7
 41
0.8
 72
1
 11
3.575
 21
10.212
100
AcDbText
  0
TEXT
  5
4DF
100
AcDbEntity
  8
0
100
AcDbText
 62
2
  6
CONTINUOUS
 10
5.505
 20
10.212
  7
STANDARD
 40
0.1
  1
6
 41
0.8
 72
1
 11
5.545
 21
10.212
100
AcDbText
  0
TEXT
  5
4E0
100
AcDbEntity
  8
0
100
AcDbText
 62
2
  6
CONTINUOUS
 10
7.475
 20
10.212
  7
STANDARD
 40
0.1
  1
5
 41
0.8
 72
1
 11
7.515
 21
10.212
100
AcDbText
  0
TEXT
  5
4E1
100
AcDbEntity
  8
0
100
AcDbText
 62
2
  6
CONTINUOUS
 10
1.565
 20
10.212
  7
STANDARD
 40
0.1
  1
8
 41
0.8
 72
1
 11
1.605
 21
10.212
100
AcDbText
  0
TEXT
  5
4E2
100
AcDbEntity
  8
0
100
AcDbText
 62
2
  6
CONTINUOUS
 10
1.565
 20
0.687
  7
STANDARD
 40
0.1
  1
8
 41
0.8
 72
1
 11
1.605
 21
0.687
100
AcDbText
  0
TEXT
  5
4E3
100
AcDbEntity
  8
0
100
AcDbText
 62
2
  6
CONTINUOUS
 10
3.535
 20
0.687
  7
STANDARD
 40
0.1
  1
7
 41
0.8
 72
1
 11
3.575
 21
0.687
100
AcDbText
  0
TEXT
  5
4E4
100
AcDbEntity
  8
0
100
AcDbText
 62
2
  6
CONTINUOUS
 10
5.505
 20
0.687
  7
STANDARD
 40
0.1
  1
6
 41
0.8
 72
1
 11
5.545
 21
0.687
100
AcDbText
  0
TEXT
  5
4E5
100
AcDbEntity
  8
0
100
AcDbText
 62
2
  6
CONTINUOUS
 10
7.475
 20
0.687
  7
STANDARD
 40
0.1
  1
5
 41
0.8
 72
1
 11
7.515
 21
0.687
100
AcDbText
  0
TEXT
  5
4E6
100
AcDbEntity
  8
0
100
AcDbText
 62
2
  6
CONTINUOUS
 10
9.445
 20
0.687
  7
STANDARD
 40
0.1
  1
4
 41
0.8
 72
1
 11
9.485
 21
0.687
100
AcDbText
  0
TEXT
  5
4E7
100
AcDbEntity
  8
0
100
AcDbText
 62
2
  6
CONTINUOUS
 10
11.415
 20
0.687
  7
STANDARD
 40
0.1
  1
3
 41
0.8
 72
1
 11
11.455
 21
0.687
100
AcDbText
  0
TEXT
  5
4E8
100
AcDbEntity
  8
0
100
AcDbText
 62
2
  6
CONTINUOUS
 10
13.385
 20
0.687
  7
STANDARD
 40
0.1
  1
2
 41
0.8
 72
1
 11
13.425
 21
0.687
100
AcDbText
  0
TEXT
  5
4E9
100
AcDbEntity
  8
0
100
AcDbText
 62
2
  6
CONTINUOUS
 10
15.355
 20
0.687
  7
STANDARD
 40
0.1
  1
1
 41
0.8
 72
1
 11
15.395
 21
0.687
100
AcDbText
  0
TEXT
  5
4EA
100
AcDbEntity
  8
0
100
AcDbText
 62
2
  6
CONTINUOUS
 10
0.44
 20
4.2995
  7
STANDARD
 40
0.1
  1
B
 41
0.8
 72
2
 11
0.52
 21
4.2995
100
AcDbText
  0
TEXT
  5
4EB
100
AcDbEntity
  8
0
100
AcDbText
 62
2
  6
CONTINUOUS
 10
0.44
 20
1.9995
  7
STANDARD
 40
0.1
  1
A
 41
0.8
 72
2
 11
0.52
 21
1.9995
100
AcDbText
  0
TEXT
  5
4EC
100
AcDbEntity
  8
0
100
AcDbText
 62
2
  6
CONTINUOUS
 10
0.44
 20
8.8995
  7
STANDARD
 40
0.1
  1
D
 41
0.8
 72
2
 11
0.52
 21
8.8995
100
AcDbText
  0
TEXT
  5
4ED
100
AcDbEntity
  8
0
100
AcDbText
 62
2
  6
CONTINUOUS
 10
0.44
 20
6.5995
  7
STANDARD
 40
0.1
  1
C
 41
0.8
 72
2
 11
0.52
 21
6.5995
100
AcDbText
  0
TEXT
  5
4EE
100
AcDbEntity
  8
0
100
AcDbText
 62
2
  6
CONTINUOUS
 10
16.48
 20
8.8995
  7
STANDARD
 40
0.1
  1
D
 41
0.8
 72
0
100
AcDbText
  0
TEXT
  5
4EF
100
AcDbEntity
  8
0
100
AcDbText
 62
2
  6
CONTINUOUS
 10
16.48
 20
6.5995
  7
STANDARD
 40
0.1
  1
C
 41
0.8
 72
0
100
AcDbText
  0
TEXT
  5
4F0
100
AcDbEntity
  8
0
100
AcDbText
 62
2
  6
CONTINUOUS
 10
16.48
 20
4.2995
  7
STANDARD
 40
0.1
  1
B
 41
0.8
 72
0
100
AcDbText
  0
TEXT
  5
4F1
100
AcDbEntity
  8
0
100
AcDbText
 62
2
  6
CONTINUOUS
 10
16.48
 20
1.9995
  7
STANDARD
 40
0.1
  1
A
 41
0.8
 72
0
100
AcDbText
  0
MTEXT
  5
4F2
100
AcDbEntity
  8
0
100
AcDbMText
 62
2
  6
CONTINUOUS
  7
STANDARD
 71
1
 72
1
 10
14.819264911
 20
1.0627941725
 30
0.0
 11
1.0
 21
0.0
 31
0.0
  1
1 OF 1
 40
0.1
 41
0.6
  0
TEXT
  5
4F3
100
AcDbEntity
  8
0
100
AcDbText
 62
7
  6
CONTINUOUS
 10
13.8911999818
 20
1.2547321586
  7
STANDARD
 40
0.12
  1
141764
 41
1.0
 72
0
100
AcDbText
  0
TEXT
  5
4F4
100
AcDbEntity
  8
0
100
AcDbText
 62
2
  6
CONTINUOUS
 10
12.644264911
 20
0.9627941725
  7
STANDARD
 40
0.1
  1
1:1
 41
1.0
 72
0
100
AcDbText
  0
MTEXT
  5
4F5
100
AcDbEntity
  8
0
100
AcDbMText
 62
2
  6
CONTINUOUS
  7
STANDARD
 71
1
 72
1
 10
1.0597007627
 20
1.6202922458
 30
0.0
 11
1.0
 21
0.0
 31
0.0
  1
NOTES:\P1. ALL DIMENSIONS ARE MILLIMETERS [INCHES] UNLESS OTHERWISE NOTED.
 40
0.1
 41
6.6
  0
INSERT
  5
4F6
100
AcDbEntity
  8
0
100
AcDbBlockReference
 62
2
  6
CONTINUOUS
  2
BANNER_LOGO_TITLEBLOCK_BL0
 10
12.9046655056
 20
2.5403783448
  0
DIMENSION
  5
4F7
100
AcDbEntity
  8
DRIVEN_DIMS
100
AcDbDimension
 62
2
  6
CONTINUOUS
  2
*D0
 10
3.0868005356
 20
5.0950064282
 11
2.2391581604
 21
5.4503550739
 70
163
 42
50.8
  1
<>
  3
DIMSTYLE_1
100
AcDbDiametricDimension
 15
4.0326169235
 25
3.3327830143
  0
DIMENSION
  5
4F8
100
AcDbEntity
  8
SCHEME_DIMS
100
AcDbDimension
 62
2
  6
CONTINUOUS
  2
*D1
 10
7.0186881857
 20
5.2138947212
 11
7.0186881857
 21
4.0888947212
 70
160
 42
57.15
  3
DIMSTYLE_2
100
AcDbAlignedDimension
 13
7.4606125533
 23
2.9638947212
 14
9.6015881857
 24
5.2138947212
 50
90.0
100
AcDbRotatedDimension
  0
DIMENSION
  5
4F9
100
AcDbEntity
  8
SCHEME_DIMS
100
AcDbDimension
 62
2
  6
CONTINUOUS
  2
*D2
 10
7.5186881857
 20
5.7138947212
 11
8.6436881857
 21
5.6388947212
 70
160
 42
57.15
  3
DIMSTYLE_2
100
AcDbAlignedDimension
 13
9.7686881857
 23
5.2577991305
 14
7.5186881857
 24
3.1309947212
 50
180.0
100
AcDbRotatedDimension
  0
DIMENSION
  5
4FA
100
AcDbEntity
  8
SCHEME_DIMS
100
AcDbDimension
 62
2
  6
CONTINUOUS
  2
*D3
 10
2.1847087296
 20
2.0888947212
 11
3.5597087296
 21
2.0138947212
 70
160
 42
69.85
  3
DIMSTYLE_2
100
AcDbAlignedDimension
 13
4.9347087296
 23
2.9071484009
 14
2.1847087296
 24
3.0513947212
 50
180.0
100
AcDbRotatedDimension
  0
DIMENSION
  5
4FB
100
AcDbEntity
  8
SCHEME_DIMS
100
AcDbDimension
 62
2
  6
CONTINUOUS
  2
*D4
 10
4.2668155107
 20
4.9210015024
 11
5.4909145108
 21
5.4961291223
 70
164
 42
3.5687
  1
2X <>
  3
DIMSTYLE_3
100
AcDbRadialDimension
 15
4.3549945975
 25
5.0303847674
  0
DIMENSION
  5
4FC
100
AcDbEntity
  8
SCHEME_DIMS
100
AcDbDimension
 62
2
  6
CONTINUOUS
  2
*D5
 10
3.6704379305
 20
4.1558943413
 11
5.6808770207
 21
3.3246408111
 70
163
 42
6.35
  1
<>
  3
DIMSTYLE_4
100
AcDbDiametricDimension
 15
3.4489795287
 25
4.2718951012
  0
DIMENSION
  5
4FD
100
AcDbEntity
  8
SCHEME_DIMS
100
AcDbDimension
 62
2
  6
CONTINUOUS
  2
*D6
 10
4.7520940412
 20
7.3069200539
 11
5.9759114264
 21
6.7485198834
 70
163
 42
5.08
  1
6X <>
  3
DIMSTYLE_4
100
AcDbDiametricDimension
 15
4.6073234179
 25
7.4449108747
  0
DIMENSION
  5
4FE
100
AcDbEntity
  8
SCHEME_DIMS
100
AcDbDimension
 62
2
  6
CONTINUOUS
  2
*D7
 10
4.0642221157
 20
8.4384990423
 11
5.7986228069
 21
9.0560184287
 70
163
 42
30.1498
  1
<>
  3
DIMSTYLE_4
100
AcDbDiametricDimension
 15
3.0551953434
 25
7.8133318863
  0
DIMENSION
  5
4FF
100
AcDbEntity
  8
SCHEME_DIMS
100
AcDbDimension
 62
2
  6
CONTINUOUS
  2
*D8
 10
1.6847087296
 20
3.5067879401
 11
1.6847087296
 21
4.2138947212
 70
160
 42
35.9210244843
  3
DIMSTYLE_2
100
AcDbAlignedDimension
 13
2.5496019484
 23
4.9210015024
 14
2.5496019484
 24
3.5067879401
 50
270.0
100
AcDbRotatedDimension
  0
DIMENSION
  5
500
100
AcDbEntity
  8
SCHEME_DIMS
100
AcDbDimension
 62
2
  6
CONTINUOUS
  2
*D9
 10
5.4347087296
 20
5.2138947212
 11
5.4347087296
 21
4.7138947212
 70
160
 42
25.4
  3
DIMSTYLE_2
100
AcDbAlignedDimension
 13
4.7222087296
 23
4.2138947212
 14
4.8176261833
 24
5.2138947212
 50
90.0
100
AcDbRotatedDimension
  0
DIMENSION
  5
501
100
AcDbEntity
  8
SCHEME_DIMS
100
AcDbDimension
 62
2
  6
CONTINUOUS
  2
*D10
 10
3.5597087296
 20
2.4638947212
 11
4.2472087296
 21
2.3888947212
 70
160
 42
34.925
  3
DIMSTYLE_2
100
AcDbAlignedDimension
 13
4.9347087296
 23
2.8901494462
 14
3.5597087296
 24
3.0397171178
 50
180.0
100
AcDbRotatedDimension
  0
DIMENSION
  5
502
100
AcDbEntity
  8
SCHEME_DIMS
100
AcDbDimension
 62
2
  6
CONTINUOUS
  2
*D11
 10
5.4347087296
 20
8.1259154643
 11
5.4347087296
 21
7.6259154643
 70
160
 42
25.4
  3
DIMSTYLE_2
100
AcDbAlignedDimension
 13
4.8361753815
 23
7.1259154643
 14
4.3157087296
 24
8.1259154643
 50
90.0
100
AcDbRotatedDimension
  0
DIMENSION
  5
503
100
AcDbEntity
  8
SCHEME_DIMS
100
AcDbDimension
 62
2
  6
CONTINUOUS
  2
*D12
 10
3.5597087296
 20
9.8759154643
 11
4.2472087296
 21
9.8009154643
 70
160
 42
34.925
  3
DIMSTYLE_2
100
AcDbAlignedDimension
 13
4.9347087296
 23
9.4127365938
 14
3.5597087296
 24
8.8654923166
 50
180.0
100
AcDbRotatedDimension
  0
DIMENSION
  5
504
100
AcDbEntity
  8
SCHEME_DIMS
100
AcDbDimension
 62
2
  6
CONTINUOUS
  2
*D13
 10
2.9697087296
 20
6.2509154643
 11
3.5597087296
 21
6.1759154643
 70
160
 42
29.972
  3
DIMSTYLE_2
100
AcDbAlignedDimension
 13
4.1497087296
 23
7.1134154643
 14
2.9697087296
 24
7.1134154643
 50
180.0
100
AcDbRotatedDimension
  0
DIMENSION
  5
505
100
AcDbEntity
  8
SCHEME_DIMS
100
AcDbDimension
 62
2
  6
CONTINUOUS
  2
*D14
 10
2.4297087296
 20
5.8759154643
 11
3.5547087296
 21
5.8009154643
 70
160
 42
57.15
  3
DIMSTYLE_2
100
AcDbAlignedDimension
 13
4.6797087296
 23
7.1134154643
 14
2.4297087296
 24
7.1134154643
 50
180.0
100
AcDbRotatedDimension
  0
DIMENSION
  5
506
100
AcDbEntity
  8
SCHEME_DIMS
100
AcDbDimension
 62
2
  6
CONTINUOUS
  2
*D15
 10
1.3097087296
 20
8.5559154643
 11
1.3097087296
 21
7.9659154643
 70
160
 42
29.972
  3
DIMSTYLE_2
100
AcDbAlignedDimension
 13
2.1672087296
 23
7.3759154643
 14
2.1672087296
 24
8.5559154643
 50
90.0
100
AcDbRotatedDimension
  0
DIMENSION
  5
507
100
AcDbEntity
  8
SCHEME_DIMS
100
AcDbDimension
 62
2
  6
CONTINUOUS
  2
*D16
 10
1.67709028
 20
7.1259154643
 11
1.182593466
 21
6.6538587262
 70
160
 42
6.35
  3
DIMSTYLE_2
100
AcDbAlignedDimension
 13
2.1672087296
 23
7.3759154643
 14
2.3722087296
 24
7.1259154643
 50
270.0
100
AcDbRotatedDimension
  0
DIMENSION
  5
508
100
AcDbEntity
  8
SCHEME_DIMS
100
AcDbDimension
 62
2
  6
CONTINUOUS
  2
*D17
 10
2.4297087296
 20
6.6259154643
 11
3.5240032445
 21
6.5509154643
 70
160
 42
6.223
  3
DIMSTYLE_2
100
AcDbAlignedDimension
 13
2.1847087296
 23
7.2575552938
 14
2.4297087296
 24
7.1134154643
100
AcDbRotatedDimension
  0
LINE
  5
509
100
AcDbEntity
  8
0
100
AcDbLine
 62
2
  6
CONTINUOUS
 10
16.38
 20
0.887
 11
12.03
 21
0.887
  0
LINE
  5
50A
100
AcDbEntity
  8
0
100
AcDbLine
 62
2
  6
CONTINUOUS
 10
16.38
 20
0.887
 11
16.38
 21
2.807
  0
LINE
  5
50B
100
AcDbEntity
  8
0
100
AcDbLine
 62
2
  6
CONTINUOUS
 10
16.38
 20
2.807
 11
12.03
 21
2.807
  0
LINE
  5
50C
100
AcDbEntity
  8
0
100
AcDbLine
 62
2
  6
CONTINUOUS
 10
12.03
 20
0.887
 11
12.03
 21
2.807
  0
TEXT
  5
50D
100
AcDbEntity
  8
0
100
AcDbText
 62
7
  6
CONTINUOUS
 10
16.105
 20
1.267
  7
STANDARD
 40
0.1
  1
-
 41
1.0
 72
1
 11
16.155
 21
1.267
100
AcDbText
  0
MTEXT
  5
50E
100
AcDbEntity
  8
0
100
AcDbMText
 62
7
  6
CONTINUOUS
  7
STANDARD
 71
2
 72
1
 10
14.205
 20
1.967
 30
0.0
 11
1.0
 21
0.0
 31
0.0
  1
SMB30MM\PWEB CAD DRAWINGS 2D/3D
 40
0.1
 41
2.2
  0
MTEXT
  5
50F
100
AcDbEntity
  8
NOTES
100
AcDbMText
 62
2
  6
CONTINUOUS
  7
STANDARD
 71
2
 72
1
 10
14.3922903378
 20
3.2216241658
 30
0.0
 11
1.0
 21
0.0
 31
0.0
  1
ISOMETRIC VIEW\P\H0.1;SCALE  1:1
 40
0.125
 41
1.75
  0
LINE
  5
510
100
AcDbEntity
  8
0
100
AcDbLine
 62
2
  6
CONTINUOUS
 10
0.47
 20
5.586103
 11
0.47
 21
5.412897
  0
LINE
  5
511
100
AcDbEntity
  8
0
100
AcDbLine
 62
2
  6
CONTINUOUS
 10
0.62
 20
10.112
 11
0.62
 21
0.887
  0
LINE
  5
512
100
AcDbEntity
  8
0
100
AcDbLine
 62
2
  6
CONTINUOUS
 10
2.59
 20
0.887
 11
2.59
 21
0.637
  0
LINE
  5
513
100
AcDbEntity
  8
0
100
AcDbLine
 62
2
  6
CONTINUOUS
 10
2.59
 20
10.112
 11
2.59
 21
10.362
  0
LINE
  5
514
100
AcDbEntity
  8
0
100
AcDbLine
 62
2
  6
CONTINUOUS
 10
8.413397
 20
0.737
 11
8.586603
 21
0.737
  0
LINE
  5
515
100
AcDbEntity
  8
0
100
AcDbLine
 62
7
  6
CONTINUOUS
 10
11.1389508475
 20
1.425992839
 11
11.7453418475
 21
1.495385839
  0
LINE
  5
516
100
AcDbEntity
  8
0
100
AcDbLine
 62
2
  6
CONTINUOUS
 10
0.62
 20
0.887
 11
16.38
 21
0.887
  0
LINE
  5
517
100
AcDbEntity
  8
0
100
AcDbLine
 62
2
  6
CONTINUOUS
 10
12.03
 20
1.137
 11
16.38
 21
1.137
  0
LINE
  5
518
100
AcDbEntity
  8
0
100
AcDbLine
 62
7
  6
CONTINUOUS
 10
10.2121898475
 20
1.243294839
 11
10.4342808475
 21
1.243294839
  0
LINE
  5
519
100
AcDbEntity
  8
0
100
AcDbLine
 62
7
  6
CONTINUOUS
 10
10.4842808475
 20
1.243294839
 11
10.5842808475
 21
1.243294839
  0
LINE
  5
51A
100
AcDbEntity
  8
0
100
AcDbLine
 62
7
  6
CONTINUOUS
 10
10.6342808475
 20
1.243294839
 11
10.8563718475
 21
1.243294839
  0
LINE
  5
51B
100
AcDbEntity
  8
0
100
AcDbLine
 62
7
  6
CONTINUOUS
 10
11.0389508475
 20
1.243294839
 11
11.3171028475
 21
1.243294839
  0
LINE
  5
51C
100
AcDbEntity
  8
0
100
AcDbLine
 62
7
  6
CONTINUOUS
 10
11.3671028475
 20
1.243294839
 11
11.5171888475
 21
1.243294839
  0
LINE
  5
51D
100
AcDbEntity
  8
0
100
AcDbLine
 62
7
  6
CONTINUOUS
 10
11.5671888475
 20
1.243294839
 11
11.8453418475
 21
1.243294839
  0
LINE
  5
51E
100
AcDbEntity
  8
0
100
AcDbLine
 62
7
  6
CONTINUOUS
 10
11.7453418475
 20
0.991203839
 11
11.1389508475
 21
1.060596839
  0
LINE
  5
51F
100
AcDbEntity
  8
0
100
AcDbLine
 62
2
  6
CONTINUOUS
 10
4.56
 20
0.887
 11
4.56
 21
0.637
  0
LINE
  5
520
100
AcDbEntity
  8
0
100
AcDbLine
 62
2
  6
CONTINUOUS
 10
4.56
 20
10.112
 11
4.56
 21
10.362
  0
LINE
  5
521
100
AcDbEntity
  8
0
100
AcDbLine
 62
2
  6
CONTINUOUS
 10
0.47
 20
5.412897
 11
0.62
 21
5.4995
  0
LINE
  5
522
100
AcDbEntity
  8
0
100
AcDbLine
 62
2
  6
CONTINUOUS
 10
12.03
 20
1.507
 11
16.38
 21
1.507
  0
LINE
  5
523
100
AcDbEntity
  8
0
100
AcDbLine
 62
2
  6
CONTINUOUS
 10
10.03
 20
1.907
 11
12.03
 21
1.907
  0
LINE
  5
524
100
AcDbEntity
  8
0
100
AcDbLine
 62
2
  6
CONTINUOUS
 10
0.62
 20
5.4995
 11
0.47
 21
5.586103
  0
LINE
  5
525
100
AcDbEntity
  8
0
100
AcDbLine
 62
2
  6
CONTINUOUS
 10
12.03
 20
2.267
 11
16.38
 21
2.267
  0
LINE
  5
526
100
AcDbEntity
  8
0
100
AcDbLine
 62
2
  6
CONTINUOUS
 10
8.5
 20
10.112
 11
8.586603
 21
10.262
  0
LINE
  5
527
100
AcDbEntity
  8
0
100
AcDbLine
 62
2
  6
CONTINUOUS
 10
16.38
 20
2.807
 11
10.03
 21
2.807
  0
LINE
  5
528
100
AcDbEntity
  8
0
100
AcDbLine
 62
2
  6
CONTINUOUS
 10
0.62
 20
3.1995
 11
0.37
 21
3.1995
  0
LINE
  5
529
100
AcDbEntity
  8
0
100
AcDbLine
 62
2
  6
CONTINUOUS
 10
16.38
 20
3.1995
 11
16.63
 21
3.1995
  0
LINE
  5
52A
100
AcDbEntity
  8
0
100
AcDbLine
 62
2
  6
CONTINUOUS
 10
8.586603
 20
0.737
 11
8.5
 21
0.887
  0
LINE
  5
52B
100
AcDbEntity
  8
0
100
AcDbLine
 62
2
  6
CONTINUOUS
 10
6.53
 20
0.887
 11
6.53
 21
0.637
  0
LINE
  5
52C
100
AcDbEntity
  8
0
100
AcDbLine
 62
2
  6
CONTINUOUS
 10
6.53
 20
10.112
 11
6.53
 21
10.362
  0
LINE
  5
52D
100
AcDbEntity
  8
0
100
AcDbLine
 62
2
  6
CONTINUOUS
 10
8.5
 20
0.887
 11
8.5
 21
0.637
  0
LINE
  5
52E
100
AcDbEntity
  8
0
100
AcDbLine
 62
2
  6
CONTINUOUS
 10
8.5
 20
10.112
 11
8.5
 21
10.362
  0
LINE
  5
52F
100
AcDbEntity
  8
0
100
AcDbLine
 62
2
  6
CONTINUOUS
 10
0.62
 20
5.4995
 11
0.37
 21
5.4995
  0
LINE
  5
530
100
AcDbEntity
  8
0
100
AcDbLine
 62
2
  6
CONTINUOUS
 10
16.38
 20
5.4995
 11
16.63
 21
5.4995
  0
LINE
  5
531
100
AcDbEntity
  8
0
100
AcDbLine
 62
2
  6
CONTINUOUS
 10
10.03
 20
2.807
 11
10.03
 21
0.887
  0
LINE
  5
532
100
AcDbEntity
  8
0
100
AcDbLine
 62
2
  6
CONTINUOUS
 10
10.47
 20
0.887
 11
10.47
 21
0.637
  0
LINE
  5
533
100
AcDbEntity
  8
0
100
AcDbLine
 62
2
  6
CONTINUOUS
 10
10.47
 20
10.112
 11
10.47
 21
10.362
  0
LINE
  5
534
100
AcDbEntity
  8
0
100
AcDbLine
 62
7
  6
CONTINUOUS
 10
10.5342808475
 20
1.143294839
 11
10.5342808475
 21
0.921203839
  0
LINE
  5
535
100
AcDbEntity
  8
0
100
AcDbLine
 62
7
  6
CONTINUOUS
 10
10.5342808475
 20
1.193294839
 11
10.5342808475
 21
1.293294839
  0
LINE
  5
536
100
AcDbEntity
  8
0
100
AcDbLine
 62
7
  6
CONTINUOUS
 10
10.5342808475
 20
1.343294839
 11
10.5342808475
 21
1.565385839
  0
LINE
  5
537
100
AcDbEntity
  8
0
100
AcDbLine
 62
2
  6
CONTINUOUS
 10
8.5
 20
0.887
 11
8.413397
 21
0.737
  0
LINE
  5
538
100
AcDbEntity
  8
0
100
AcDbLine
 62
2
  6
CONTINUOUS
 10
0.62
 20
7.7995
 11
0.37
 21
7.7995
  0
LINE
  5
539
100
AcDbEntity
  8
0
100
AcDbLine
 62
2
  6
CONTINUOUS
 10
16.38
 20
7.7995
 11
16.63
 21
7.7995
  0
LINE
  5
53A
100
AcDbEntity
  8
0
100
AcDbLine
 62
2
  6
CONTINUOUS
 10
8.413397
 20
10.262
 11
8.5
 21
10.112
  0
LINE
  5
53B
100
AcDbEntity
  8
0
100
AcDbLine
 62
7
  6
CONTINUOUS
 10
11.1389508475
 20
1.060596839
 11
11.1389508475
 21
1.425992839
  0
LINE
  5
53C
100
AcDbEntity
  8
0
100
AcDbLine
 62
7
  6
CONTINUOUS
 10
11.7453418475
 20
1.495385839
 11
11.7453418475
 21
0.991203839
  0
LINE
  5
53D
100
AcDbEntity
  8
0
100
AcDbLine
 62
1
  6
CONTINUOUS
 10
12.03
 20
2.807
 11
12.03
 21
0.887
  0
LINE
  5
53E
100
AcDbEntity
  8
0
100
AcDbLine
 62
2
  6
CONTINUOUS
 10
12.44
 20
0.887
 11
12.44
 21
0.637
  0
LINE
  5
53F
100
AcDbEntity
  8
0
100
AcDbLine
 62
2
  6
CONTINUOUS
 10
12.44
 20
10.112
 11
12.44
 21
10.362
  0
LINE
  5
540
100
AcDbEntity
  8
0
100
AcDbLine
 62
2
  6
CONTINUOUS
 10
16.53
 20
5.586103
 11
16.38
 21
5.4995
  0
LINE
  5
541
100
AcDbEntity
  8
0
100
AcDbLine
 62
2
  6
CONTINUOUS
 10
16.38
 20
5.4995
 11
16.53
 21
5.412897
  0
LINE
  5
542
100
AcDbEntity
  8
0
100
AcDbLine
 62
2
  6
CONTINUOUS
 10
12.83
 20
1.507
 11
12.83
 21
1.137
  0
LINE
  5
543
100
AcDbEntity
  8
0
100
AcDbLine
 62
2
  6
CONTINUOUS
 10
16.38
 20
10.112
 11
0.62
 21
10.112
  0
LINE
  5
544
100
AcDbEntity
  8
0
100
AcDbLine
 62
2
  6
CONTINUOUS
 10
8.586603
 20
10.262
 11
8.413397
 21
10.262
  0
LINE
  5
545
100
AcDbEntity
  8
0
100
AcDbLine
 62
2
  6
CONTINUOUS
 10
14.205
 20
1.137
 11
14.205
 21
0.887
  0
LINE
  5
546
100
AcDbEntity
  8
0
100
AcDbLine
 62
2
  6
CONTINUOUS
 10
14.41
 20
0.887
 11
14.41
 21
0.637
  0
LINE
  5
547
100
AcDbEntity
  8
0
100
AcDbLine
 62
2
  6
CONTINUOUS
 10
14.41
 20
10.112
 11
14.41
 21
10.362
  0
LINE
  5
548
100
AcDbEntity
  8
0
100
AcDbLine
 62
2
  6
CONTINUOUS
 10
15.58
 20
1.507
 11
15.58
 21
1.137
  0
LINE
  5
549
100
AcDbEntity
  8
0
100
AcDbLine
 62
2
  6
CONTINUOUS
 10
16.38
 20
0.887
 11
16.38
 21
10.112
  0
LINE
  5
54A
100
AcDbEntity
  8
0
100
AcDbLine
 62
2
  6
CONTINUOUS
 10
16.53
 20
5.412897
 11
16.53
 21
5.586103
  0
LWPOLYLINE
  5
54B
100
AcDbEntity
  8
0
100
AcDbPolyline
 62
7
  6
CONTINUOUS
 90
7
 70
0
 10
12.5627089028
 20
4.7472577211
 10
12.5633444073
 20
4.7369675666
 10
12.5684279964
 20
4.7165598711
 10
12.5784711787
 20
4.6968170843
 10
12.5932985703
 20
4.6780744392
 10
12.6125721065
 20
4.6607613237
 10
12.6359322968
 20
4.6451966819
  0
LINE
  5
54C
100
AcDbEntity
  8
0
100
AcDbLine
 62
7
  6
CONTINUOUS
 10
12.5627082562
 20
4.7472577203
 11
12.5627082562
 21
4.6618515675
  0
LINE
  5
54D
100
AcDbEntity
  8
0
100
AcDbLine
 62
7
  6
CONTINUOUS
 10
14.0279534288
 20
7.2851490451
 11
14.1019164902
 21
7.3278513835
  0
LWPOLYLINE
  5
54E
100
AcDbEntity
  8
0
100
AcDbPolyline
 62
3
  6
CONTINUOUS
 90
7
 70
0
 10
14.1019168149
 20
7.3278508243
 10
14.1111446299
 20
7.3324449212
 10
14.131360281
 20
7.3382468715
 10
14.1534799133
 20
7.3394212257
 10
14.1771255097
 20
7.3359522441
 10
14.2017561702
 20
7.3279179916
 10
14.2269159306
 20
7.3154703138
  0
LINE
  5
54F
100
AcDbEntity
  8
0
100
AcDbLine
 62
9
  6
CONTINUOUS
 10
12.6359322968
 20
4.6451966819
 11
12.6359322968
 21
4.559790529
  0
LWPOLYLINE
  5
550
100
AcDbEntity
  8
0
100
AcDbPolyline
 62
7
  6
CONTINUOUS
 90
7
 70
0
 10
14.0279537535
 20
7.2851484858
 10
14.0193592087
 20
7.2794525443
 10
14.0042270206
 20
7.2648458265
 10
13.99215047
 20
7.2462764409
 10
13.9833321918
 20
7.2240638967
 10
13.977975023
 20
7.1987156678
 10
13.9761754379
 20
7.1707025596
  0
LINE
  5
551
100
AcDbEntity
  8
0
100
AcDbLine
 62
9
  6
CONTINUOUS
 10
14.1529528692
 20
7.2727679753
 11
14.2269159306
 21
7.3154703138
  0
LWPOLYLINE
  5
552
100
AcDbEntity
  8
0
100
AcDbPolyline
 62
7
  6
CONTINUOUS
 90
12
 70
0
 10
14.2269291784
 20
3.7266549842
 10
14.2538885089
 20
3.7131682945
 10
14.2838762936
 20
3.7020410163
 10
14.3163400947
 20
3.6934806963
 10
14.3505361771
 20
3.6876825095
 10
14.3858838903
 20
3.6847477099
 10
14.4215284616
 20
3.6847477956
 10
14.4568761324
 20
3.6876827651
 10
14.4910721312
 20
3.6934811163
 10
14.5235358088
 20
3.7020415924
 10
14.5535234331
 20
3.7131690147
 10
14.580482569
 20
3.726655834
  0
LINE
  5
553
100
AcDbEntity
  8
0
100
AcDbLine
 62
3
  6
CONTINUOUS
 10
12.6359322968
 20
4.559790529
 11
14.2269291784
 21
3.6412488314
  0
LINE
  5
554
100
AcDbEntity
  8
0
100
AcDbLine
 62
7
  6
CONTINUOUS
 10
12.6359322968
 20
4.6451966819
 11
14.2269291784
 21
3.7266549842
  0
LWPOLYLINE
  5
555
100
AcDbEntity
  8
0
100
AcDbPolyline
 62
3
  6
CONTINUOUS
 90
7
 70
0
 10
12.6359322968
 20
4.559790529
 10
12.6125721065
 20
4.5753551709
 10
12.5932985703
 20
4.5926682863
 10
12.5784711787
 20
4.6114109314
 10
12.5684279964
 20
4.6311537183
 10
12.5633444073
 20
4.6515614138
 10
12.5627089028
 20
4.6618515682
  0
LWPOLYLINE
  5
556
100
AcDbEntity
  8
02___PRT_ALL_AXES
100
AcDbPolyline
 62
7
  6
CONTINUOUS
 90
4
 70
0
 10
12.7384623238
 20
4.7084745087
 10
12.7225703753
 20
4.7204316152
 10
12.7125802327
 20
4.734355981
 10
12.7091727075
 20
4.7492989214
  0
LINE
  5
557
100
AcDbEntity
  8
02___PRT_ALL_AXES
100
AcDbLine
 62
9
  6
CONTINUOUS
 10
12.8798830912
 20
4.7084745878
 11
12.8798830912
 21
4.7901233395
  0
LWPOLYLINE
  5
558
100
AcDbEntity
  8
02___PRT_ALL_AXES
100
AcDbPolyline
 62
7
  6
CONTINUOUS
 90
10
 70
0
 10
12.7091727075
 20
4.7492989214
 10
12.7125800171
 20
4.7642414028
 10
12.722569959
 20
4.7781658167
 10
12.738461735
 20
4.7901229996
 10
12.759172347
 20
4.7992980891
 10
12.7832904009
 20
4.8050658182
 10
12.8091722912
 20
4.8070331257
 10
12.8350542099
 20
4.8050659427
 10
12.859172347
 20
4.7992983295
 10
12.8798830912
 20
4.7901233395
  0
LWPOLYLINE
  5
559
100
AcDbEntity
  8
02___PRT_ALL_AXES
100
AcDbPolyline
 62
7
  6
CONTINUOUS
 90
14
 70
0
 10
14.3781995565
 20
6.984695665
 10
14.3970522771
 20
6.9908663041
 10
14.4188926223
 20
6.9896072709
 10
14.44245069
 20
6.9809913823
 10
14.466357371
 20
6.9655193626
 10
14.4892232958
 20
6.9440903891
 10
14.50971958
 20
6.9179498361
 10
14.5266550541
 20
6.8886168974
 10
14.5390454899
 20
6.8577962967
 10
14.5461708002
 20
6.8272792154
 10
14.547616888
 20
6.7988391954
 10
14.5432997118
 20
6.7741290671
 10
14.5334701704
 20
6.7545848935
 10
14.5186995208
 20
6.7413425109
  0
LWPOLYLINE
  5
55A
100
AcDbEntity
  8
02___PRT_ALL_AXES
100
AcDbPolyline
 62
7
  6
CONTINUOUS
 90
4
 70
0
 10
13.1203015754
 20
4.4880245013
 10
13.1044096269
 20
4.4999816077
 10
13.0944194842
 20
4.5139059736
 10
13.0910119591
 20
4.5288489139
  0
LWPOLYLINE
  5
55B
100
AcDbEntity
  8
02___PRT_ALL_AXES
100
AcDbPolyline
 62
7
  6
CONTINUOUS
 90
4
 70
0
 10
12.8798830912
 20
4.7901233395
 10
12.8957750397
 20
4.7781662331
 10
12.9057651824
 20
4.7642418672
 10
12.9091727075
 20
4.7492989268
  0
LWPOLYLINE
  5
55C
100
AcDbEntity
  8
02___PRT_ALL_AXES
100
AcDbPolyline
 62
7
  6
CONTINUOUS
 90
4
 70
0
 10
13.9546910511
 20
4.0063004109
 10
13.9387991026
 20
4.0182575174
 10
13.9288089599
 20
4.0321818832
 10
13.9254014348
 20
4.0471248236
  0
LWPOLYLINE
  5
55D
100
AcDbEntity
  8
02___PRT_ALL_AXES
100
AcDbPolyline
 62
7
  6
CONTINUOUS
 90
10
 70
0
 10
12.9091727075
 20
4.7492989268
 10
12.9057653979
 20
4.7343564454
 10
12.8957754561
 20
4.7204320315
 10
12.87988368
 20
4.7084748487
 10
12.8591730681
 20
4.6992997591
 10
12.8350550142
 20
4.69353203
 10
12.8091731239
 20
4.6915647226
 10
12.7832912052
 20
4.6935319056
 10
12.7591730681
 20
4.6992995187
 10
12.7384623238
 20
4.7084745087
  0
LWPOLYLINE
  5
55E
100
AcDbEntity
  8
02___PRT_ALL_AXES
100
AcDbPolyline
 62
7
  6
CONTINUOUS
 90
6
 70
0
 10
13.7188684475
 20
4.3518770816
 10
13.655516797
 20
4.3950614104
 10
13.6053406123
 20
4.4436769022
 10
13.5697085691
 20
4.496397453
 10
13.5495926164
 20
4.5517849836
 10
13.5450404073
 20
4.5941942315
  0
LWPOLYLINE
  5
55F
100
AcDbEntity
  8
02___PRT_ALL_AXES
100
AcDbPolyline
 62
7
  6
CONTINUOUS
 90
4
 70
0
 10
13.2617223428
 20
4.5696733321
 10
13.2776142913
 20
4.5577162256
 10
13.287604434
 20
4.5437918598
 10
13.2910119591
 20
4.5288489194
  0
LWPOLYLINE
  5
560
100
AcDbEntity
  8
02___PRT_ALL_AXES
100
AcDbPolyline
 62
7
  6
CONTINUOUS
 90
4
 70
0
 10
14.3294592054
 20
3.7899328111
 10
14.3135672569
 20
3.8018899175
 10
14.3035771142
 20
3.8158142833
 10
14.3001695891
 20
3.8307572237
  0
LWPOLYLINE
  5
561
100
AcDbEntity
  8
02___PRT_ALL_AXES
100
AcDbPolyline
 62
7
  6
CONTINUOUS
 90
4
 70
0
 10
14.0961118185
 20
4.0879492417
 10
14.112003767
 20
4.0759921353
 10
14.1219939096
 20
4.0620677694
 10
14.1254014348
 20
4.0471248291
  0
LINE
  5
562
100
AcDbEntity
  8
02___PRT_ALL_AXES
100
AcDbLine
 62
9
  6
CONTINUOUS
 10
13.2617223428
 20
4.4880245804
 11
13.2617223428
 21
4.5696733321
  0
LINE
  5
563
100
AcDbEntity
  8
02___PRT_ALL_AXES
100
AcDbLine
 62
3
  6
CONTINUOUS
 10
14.3768109697
 20
6.9704878652
 11
14.4033148991
 21
6.9905052819
  0
LWPOLYLINE
  5
564
100
AcDbEntity
  8
02___PRT_ALL_AXES
100
AcDbPolyline
 62
7
  6
CONTINUOUS
 90
4
 70
0
 10
14.4708799728
 20
3.8715816418
 10
14.4867719213
 20
3.8596245354
 10
14.496762064
 20
3.8457001695
 10
14.5001695891
 20
3.8307572292
  0
LWPOLYLINE
  5
565
100
AcDbEntity
  8
02___PRT_ALL_AXES
100
AcDbPolyline
 62
7
  6
CONTINUOUS
 90
10
 70
0
 10
13.0910119591
 20
4.5288489139
 10
13.0944192687
 20
4.5437913954
 10
13.1044092106
 20
4.5577158093
 10
13.1203009866
 20
4.5696729921
 10
13.1410115985
 20
4.5788480817
 10
13.1651296524
 20
4.5846158108
 10
13.1910115428
 20
4.5865831182
 10
13.2168934615
 20
4.5846159352
 10
13.2410115985
 20
4.5788483221
 10
13.2617223428
 20
4.5696733321
  0
LWPOLYLINE
  5
566
100
AcDbEntity
  8
02___PRT_ALL_AXES
100
AcDbPolyline
 62
7
  6
CONTINUOUS
 90
16
 70
0
 10
13.5450404073
 20
4.5941942315
 10
13.5455414651
 20
4.6083286667
 10
13.5576656201
 20
4.6644861379
 10
13.5856343659
 20
4.7187255678
 10
13.6286847881
 20
4.7695674461
 10
13.6856425834
 20
4.815624939
 10
13.7549540916
 20
4.855641718
 10
13.8347286755
 20
4.8885262299
 10
13.9227902924
 20
4.9133814707
 10
14.0167368509
 20
4.9295294545
 10
14.1140057338
 20
4.9365297061
 10
14.2119436995
 20
4.9341912771
 10
14.3078792557
 20
4.9225779537
 10
14.3991955304
 20
4.902006517
 10
14.4834016538
 20
4.8730381022
 10
14.5582007022
 20
4.8364628922
  0
LWPOLYLINE
  5
567
100
AcDbEntity
  8
02___PRT_ALL_AXES
100
AcDbPolyline
 62
7
  6
CONTINUOUS
 90
10
 70
0
 10
13.2910119591
 20
4.5288489194
 10
13.2876046495
 20
4.5139064379
 10
13.2776147077
 20
4.4999820241
 10
13.2617229316
 20
4.4880248412
 10
13.2410123197
 20
4.4788497516
 10
13.2168942658
 20
4.4730820225
 10
13.1910123754
 20
4.4711147151
 10
13.1651304567
 20
4.4730818981
 10
13.1410123197
 20
4.4788495113
 10
13.1203015754
 20
4.4880245013
  0
LWPOLYLINE
  5
568
100
AcDbEntity
  8
02___PRT_ALL_AXES
100
AcDbPolyline
 62
7
  6
CONTINUOUS
 90
10
 70
0
 10
13.5435552354
 20
5.2310270229
 10
13.5469625451
 20
5.2459695044
 10
13.5569524869
 20
5.2598939183
 10
13.5728442629
 20
5.2718511011
 10
13.5935548749
 20
5.2810261907
 10
13.6176729288
 20
5.2867939198
 10
13.6435548191
 20
5.2887612272
 10
13.6694367378
 20
5.2867940442
 10
13.6935548749
 20
5.2810264311
 10
13.7142656192
 20
5.2718514411
  0
LINE
  5
569
100
AcDbEntity
  8
02___PRT_ALL_AXES
100
AcDbLine
 62
9
  6
CONTINUOUS
 10
13.7142656192
 20
5.1902026894
 11
13.7142656192
 21
5.2718514411
  0
LWPOLYLINE
  5
56A
100
AcDbEntity
  8
02___PRT_ALL_AXES
100
AcDbPolyline
 62
3
  6
CONTINUOUS
 90
15
 70
0
 10
13.5509599412
 20
4.5480201735
 10
13.5576656201
 20
4.579079985
 10
13.5856343659
 20
4.6333194149
 10
13.6286847881
 20
4.6841612933
 10
13.6856425834
 20
4.7302187861
 10
13.7549540916
 20
4.7702355652
 10
13.8347286755
 20
4.803120077
 10
13.9227902924
 20
4.8279753179
 10
14.0167368509
 20
4.8441233016
 10
14.1140057338
 20
4.8511235533
 10
14.2119436995
 20
4.8487851243
 10
14.3078792557
 20
4.8371718008
 10
14.3991955304
 20
4.8166003641
 10
14.4834016538
 20
4.7876319494
 10
14.5582007022
 20
4.7510567394
  0
LWPOLYLINE
  5
56B
100
AcDbEntity
  8
02___PRT_ALL_AXES
100
AcDbPolyline
 62
7
  6
CONTINUOUS
 90
4
 70
0
 10
13.5728448517
 20
5.1902026103
 10
13.5569529032
 20
5.2021597167
 10
13.5469627606
 20
5.2160840826
 10
13.5435552354
 20
5.2310270229
  0
LWPOLYLINE
  5
56C
100
AcDbEntity
  8
02___PRT_ALL_AXES
100
AcDbPolyline
 62
7
  6
CONTINUOUS
 90
4
 70
0
 10
13.7142656192
 20
5.2718514411
 10
13.7301575676
 20
5.2598943346
 10
13.7401477103
 20
5.2459699688
 10
13.7435552354
 20
5.2310270284
  0
LWPOLYLINE
  5
56D
100
AcDbEntity
  8
0
100
AcDbPolyline
 62
7
  6
CONTINUOUS
 90
7
 70
0
 10
13.9761754379
 20
5.660173088
 10
13.9750815713
 20
5.6499473301
 10
13.9718745165
 20
5.6391553598
 10
13.9667728292
 20
5.6285326321
 10
13.9601241808
 20
5.6188030683
 10
13.9523816658
 20
5.6106297222
 10
13.9440729237
 20
5.6045695936
  0
LWPOLYLINE
  5
56E
100
AcDbEntity
  8
02___PRT_ALL_AXES
100
AcDbPolyline
 62
7
  6
CONTINUOUS
 90
10
 70
0
 10
13.7435552354
 20
5.2310270284
 10
13.7401479258
 20
5.2160845469
 10
13.730157984
 20
5.2021601331
 10
13.714266208
 20
5.1902029502
 10
13.693555596
 20
5.1810278607
 10
13.6694375421
 20
5.1752601316
 10
13.6435556518
 20
5.1732928241
 10
13.6176737331
 20
5.1752600071
 10
13.593555596
 20
5.1810276203
 10
13.5728448517
 20
5.1902026103
  0
LWPOLYLINE
  5
56F
100
AcDbEntity
  8
0
100
AcDbPolyline
 62
7
  6
CONTINUOUS
 90
7
 70
0
 10
12.6359308249
 20
4.849317909
 10
12.612570859
 20
4.8337531548
 10
12.5932975725
 20
4.8164399467
 10
12.5784704512
 20
4.7976972303
 10
12.5684275536
 20
4.7779543952
 10
12.5633442589
 20
4.7575466752
 10
12.5627089028
 20
4.7472577211
  0
LWPOLYLINE
  5
570
100
AcDbEntity
  8
02___PRT_ALL_AXES
100
AcDbPolyline
 62
7
  6
CONTINUOUS
 90
8
 70
0
 10
15.3782092973
 20
6.407346373
 10
15.38718304
 20
6.4113575319
 10
15.4076793242
 20
6.4138315499
 10
15.430545249
 20
6.408857825
 10
15.45445193
 20
6.3967254119
 10
15.4780099977
 20
6.3781394023
 10
15.4998503429
 20
6.3541799477
 10
15.5187036842
 20
6.3262394844
  0
LWPOLYLINE
  5
571
100
AcDbEntity
  8
02___PRT_ALL_AXES
100
AcDbPolyline
 62
3
  6
CONTINUOUS
 90
13
 70
0
 10
15.5675507823
 20
5.0461864752
 10
15.5519730591
 20
5.0470844863
 10
15.5284149914
 20
5.0557003748
 10
15.5045083104
 20
5.0711723946
 10
15.4816423856
 20
5.092601368
 10
15.4611461014
 20
5.1187419211
 10
15.4442106273
 20
5.1480748598
 10
15.4318201915
 20
5.1788954604
 10
15.4246948812
 20
5.2094125417
 10
15.4232487934
 20
5.2378525618
 10
15.4275659695
 20
5.26256269
 10
15.437395511
 20
5.2821068637
 10
15.4521661606
 20
5.2953492463
  0
LWPOLYLINE
  5
572
100
AcDbEntity
  8
02___PRT_ALL_AXES
100
AcDbPolyline
 62
3
  6
CONTINUOUS
 90
5
 70
0
 10
14.5582007022
 20
4.7510567394
 10
14.6215523527
 20
4.7078724106
 10
14.6717285374
 20
4.6592569188
 10
14.7073605806
 20
4.606536368
 10
14.7261092085
 20
4.5549136475
  0
LWPOLYLINE
  5
573
100
AcDbEntity
  8
02___PRT_ALL_AXES
100
AcDbPolyline
 62
7
  6
CONTINUOUS
 90
6
 70
0
 10
14.5582007022
 20
4.8364628922
 10
14.6215523527
 20
4.7932785634
 10
14.6717285374
 20
4.7446630716
 10
14.7073605806
 20
4.6919425208
 10
14.7274765333
 20
4.6365549902
 10
14.7320287424
 20
4.5941457423
  0
LWPOLYLINE
  5
574
100
AcDbEntity
  8
02___PRT_ALL_AXES
100
AcDbPolyline
 62
7
  6
CONTINUOUS
 90
4
 70
0
 10
15.1638417333
 20
4.2716609126
 10
15.1479497848
 20
4.2836180191
 10
15.1379596421
 20
4.2975423849
 10
15.134552117
 20
4.3124853253
  0
LINE
  5
575
100
AcDbEntity
  8
0
100
AcDbLine
 62
7
  6
CONTINUOUS
 10
13.9761754379
 20
7.1707025596
 11
13.9761754379
 21
5.660173088
  0
LINE
  5
576
100
AcDbEntity
  8
02___PRT_ALL_AXES
100
AcDbLine
 62
9
  6
CONTINUOUS
 10
14.0961118185
 20
4.00630049
 11
14.0961118185
 21
4.0879492417
  0
LINE
  5
577
100
AcDbEntity
  8
0
100
AcDbLine
 62
7
  6
CONTINUOUS
 10
13.9440729237
 20
5.6045695936
 11
12.6359308249
 21
4.849317909
  0
LWPOLYLINE
  5
578
100
AcDbEntity
  8
02___PRT_ALL_AXES
100
AcDbPolyline
 62
7
  6
CONTINUOUS
 90
5
 70
0
 10
14.8859682168
 20
6.1052511931
 10
14.8898387499
 20
6.1072290255
 10
14.9073750257
 20
6.1110816998
 10
14.9272985058
 20
6.1083040529
 10
14.94845131
 20
6.0990575115
  0
LINE
  5
579
100
AcDbEntity
  8
0
100
AcDbLine
 62
7
  6
CONTINUOUS
 10
14.3895539347
 20
5.0861027476
 11
14.9905972011
 21
4.7390981063
  0
LINE
  5
57A
100
AcDbEntity
  8
0
100
AcDbLine
 62
7
  6
CONTINUOUS
 10
15.0789851807
 20
4.7901286255
 11
14.4779419143
 21
5.1371332668
  0
LWPOLYLINE
  5
57B
100
AcDbEntity
  8
02___PRT_ALL_AXES
100
AcDbPolyline
 62
7
  6
CONTINUOUS
 90
4
 70
0
 10
15.3052625007
 20
4.3533097434
 10
15.3211544492
 20
4.3413526369
 10
15.3311445919
 20
4.3274282711
 10
15.334552117
 20
4.3124853307
  0
LINE
  5
57C
100
AcDbEntity
  8
0
100
AcDbLine
 62
9
  6
CONTINUOUS
 10
14.2269291784
 20
3.7266549842
 11
14.2269291784
 21
3.6412488314
  0
LWPOLYLINE
  5
57D
100
AcDbEntity
  8
02___PRT_ALL_AXES
100
AcDbPolyline
 62
7
  6
CONTINUOUS
 90
10
 70
0
 10
13.9254014348
 20
4.0471248236
 10
13.9288087444
 20
4.0620673051
 10
13.9387986862
 20
4.0759917189
 10
13.9546904623
 20
4.0879489018
 10
13.9754010742
 20
4.0971239914
 10
13.9995191281
 20
4.1028917205
 10
14.0254010184
 20
4.1048590279
 10
14.0512829371
 20
4.1028918449
 10
14.0754010742
 20
4.0971242317
 10
14.0961118185
 20
4.0879492417
  0
LINE
  5
57E
100
AcDbEntity
  8
02___PRT_ALL_AXES
100
AcDbLine
 62
9
  6
CONTINUOUS
 10
15.4521661606
 20
6.287821453
 11
15.3782030992
 21
6.2451191145
  0
LINE
  5
57F
100
AcDbEntity
  8
02___PRT_ALL_AXES
100
AcDbLine
 62
9
  6
CONTINUOUS
 10
14.4521619972
 20
5.7104522728
 11
14.3781989358
 21
5.6677499343
  0
LINE
  5
580
100
AcDbEntity
  8
0
100
AcDbLine
 62
9
  6
CONTINUOUS
 10
15.7439497508
 20
6.3542262776
 11
15.8179128122
 21
6.3969286161
  0
LINE
  5
581
100
AcDbEntity
  8
02___PRT_ALL_AXES
100
AcDbLine
 62
9
  6
CONTINUOUS
 10
15.0224143714
 20
5.9376342457
 11
14.94845131
 21
5.8949319072
  0
LWPOLYLINE
  5
582
100
AcDbEntity
  8
02___PRT_ALL_AXES
100
AcDbPolyline
 62
7
  6
CONTINUOUS
 90
5
 70
0
 10
15.0109344032
 20
5.8887382256
 10
15.0070638701
 20
5.8867603931
 10
14.9895275943
 20
5.8829077189
 10
14.9696041142
 20
5.8856853658
 10
14.94845131
 20
5.8949319072
  0
LWPOLYLINE
  5
583
100
AcDbEntity
  8
02___PRT_ALL_AXES
100
AcDbPolyline
 62
7
  6
CONTINUOUS
 90
8
 70
0
 10
14.5186933227
 20
5.5866430457
 10
14.50971958
 20
5.5826318868
 10
14.4892232958
 20
5.5801578687
 10
14.466357371
 20
5.5851315937
 10
14.44245069
 20
5.5972640068
 10
14.4188926223
 20
5.6158500163
 10
14.3970522771
 20
5.639809471
 10
14.3781989358
 20
5.6677499343
  0
LWPOLYLINE
  5
584
100
AcDbEntity
  8
02___PRT_ALL_AXES
100
AcDbPolyline
 62
3
  6
CONTINUOUS
 90
7
 70
0
 10
13.577085614
 20
5.1883239259
 10
13.5935548749
 20
5.1956200379
 10
13.6176729288
 20
5.201387767
 10
13.6435548191
 20
5.2033550744
 10
13.6694367378
 20
5.2013878914
 10
13.6935548749
 20
5.1956202782
 10
13.7100248569
 20
5.1883239726
  0
LINE
  5
585
100
AcDbEntity
  8
0
100
AcDbLine
 62
9
  6
CONTINUOUS
 10
13.9440729237
 20
5.6045695936
 11
15.8886246679
 21
4.4819075187
  0
LINE
  5
586
100
AcDbEntity
  8
0
100
AcDbLine
 62
9
  6
CONTINUOUS
 10
13.9761754379
 20
5.660173088
 11
15.9207271821
 21
4.537511013
  0
LINE
  5
587
100
AcDbEntity
  8
02___PRT_ALL_AXES
100
AcDbLine
 62
9
  6
CONTINUOUS
 10
14.4708799728
 20
3.7899328901
 11
14.4708799728
 21
3.8715816418
  0
LWPOLYLINE
  5
588
100
AcDbEntity
  8
02___PRT_ALL_AXES
100
AcDbPolyline
 62
7
  6
CONTINUOUS
 90
10
 70
0
 10
14.1254014348
 20
4.0471248291
 10
14.1219941252
 20
4.0321823476
 10
14.1120041833
 20
4.0182579337
 10
14.0961124073
 20
4.0063007509
 10
14.0754017953
 20
3.9971256613
 10
14.0512837414
 20
3.9913579322
 10
14.0254018511
 20
3.9893906248
 10
13.9995199324
 20
3.9913578078
 10
13.9754017953
 20
3.9971254209
 10
13.9546910511
 20
4.0063004109
  0
LWPOLYLINE
  5
589
100
AcDbEntity
  8
02___PRT_ALL_AXES
100
AcDbPolyline
 62
3
  6
CONTINUOUS
 90
7
 70
0
 10
12.7427030861
 20
4.7065958243
 10
12.759172347
 20
4.7138919363
 10
12.7832904009
 20
4.7196596654
 10
12.8091722912
 20
4.7216269728
 10
12.8350542099
 20
4.7196597898
 10
12.859172347
 20
4.7138921767
 10
12.8756423289
 20
4.706595871
  0
LWPOLYLINE
  5
58A
100
AcDbEntity
  8
02___PRT_ALL_AXES
100
AcDbPolyline
 62
7
  6
CONTINUOUS
 90
12
 70
0
 10
14.3781989358
 20
5.6677499343
 10
14.3028479084
 20
5.8116656228
 10
14.2406395044
 20
5.9593540771
 10
14.1928401076
 20
6.1078087862
 10
14.1604227759
 20
6.2540076402
 10
14.1440474327
 20
6.394974452
 10
14.1440474327
 20
6.527839544
 10
14.1604227759
 20
6.649898166
 10
14.1928401076
 20
6.7586655565
 10
14.2406395044
 20
6.8519275249
 10
14.3028479084
 20
6.9277855267
 10
14.3781989358
 20
6.9846953116
  0
LINE
  5
58B
100
AcDbEntity
  8
02___PRT_ALL_AXES
100
AcDbLine
 62
9
  6
CONTINUOUS
 10
14.5582007022
 20
4.7510567394
 11
14.5582007022
 21
4.8364628922
  0
LINE
  5
58C
100
AcDbEntity
  8
0
100
AcDbLine
 62
9
  6
CONTINUOUS
 10
14.580482569
 20
3.726655834
 11
14.580482569
 21
3.6412496812
  0
LINE
  5
58D
100
AcDbEntity
  8
0
100
AcDbLine
 62
9
  6
CONTINUOUS
 10
15.9207271821
 20
6.0480404847
 11
15.9946902434
 21
6.0907428232
  0
LWPOLYLINE
  5
58E
100
AcDbEntity
  8
02___PRT_ALL_AXES
100
AcDbPolyline
 62
3
  6
CONTINUOUS
 90
6
 70
0
 10
14.5447804301
 20
5.6268638073
 10
14.5403204324
 20
5.6278339322
 10
14.5164137514
 20
5.6399663453
 10
14.4928556837
 20
5.6585523548
 10
14.4710153384
 20
5.6825118095
 10
14.4521619972
 20
5.7104522728
  0
LWPOLYLINE
  5
58F
100
AcDbEntity
  8
02___PRT_ALL_AXES
100
AcDbPolyline
 62
3
  6
CONTINUOUS
 90
11
 70
0
 10
14.4521619972
 20
5.7104522728
 10
14.3768109697
 20
5.8543679613
 10
14.3146025657
 20
6.0020564156
 10
14.266803169
 20
6.1505111247
 10
14.2343858373
 20
6.2967099787
 10
14.218010494
 20
6.4376767905
 10
14.218010494
 20
6.5705418825
 10
14.2343858373
 20
6.6926005045
 10
14.266803169
 20
6.801367895
 10
14.3146025657
 20
6.8946298634
 10
14.3768109697
 20
6.9704878652
  0
LWPOLYLINE
  5
590
100
AcDbEntity
  8
02___PRT_ALL_AXES
100
AcDbPolyline
 62
7
  6
CONTINUOUS
 90
11
 70
0
 10
14.5186995208
 20
5.7488703041
 10
14.4567624872
 20
5.8683667774
 10
14.4069324642
 20
5.9910304973
 10
14.3704364325
 20
6.1138410759
 10
14.3481730453
 20
6.2337745091
 10
14.3406905012
 20
6.3478776378
 10
14.3481730453
 20
6.4533408644
 10
14.3704364325
 20
6.547567334
 10
14.4069324642
 20
6.6282368784
 10
14.4567624872
 20
6.6933631456
 10
14.5186995208
 20
6.7413425109
  0
LWPOLYLINE
  5
591
100
AcDbEntity
  8
02___PRT_ALL_AXES
100
AcDbPolyline
 62
7
  6
CONTINUOUS
 90
8
 70
0
 10
14.5186995208
 20
5.7488703041
 10
14.5334701704
 20
5.7185726303
 10
14.5432997118
 20
5.6876785366
 10
14.547616888
 20
5.6579834755
 10
14.5461708002
 20
5.631213216
 10
14.5390454899
 20
5.6089235483
 10
14.5266550541
 20
5.5924098668
 10
14.5186933227
 20
5.5866430457
  0
LWPOLYLINE
  5
592
100
AcDbEntity
  8
02___PRT_ALL_AXES
100
AcDbPolyline
 62
7
  6
CONTINUOUS
 90
16
 70
0
 10
14.7320287424
 20
4.5941457423
 10
14.7315276846
 20
4.5800113071
 10
14.7194035296
 20
4.5238538359
 10
14.6914347838
 20
4.4696144061
 10
14.6483843616
 20
4.4187725277
 10
14.5914265663
 20
4.3727150349
 10
14.5221150581
 20
4.3326982558
 10
14.4423404742
 20
4.2998137439
 10
14.3542788573
 20
4.2749585031
 10
14.2603322988
 20
4.2588105194
 10
14.1630634159
 20
4.2518102677
 10
14.0651254502
 20
4.2541486967
 10
13.969189894
 20
4.2657620202
 10
13.8778736193
 20
4.2863334568
 10
13.7936674959
 20
4.3153018716
 10
13.7188684475
 20
4.3518770816
  0
LWPOLYLINE
  5
593
100
AcDbEntity
  8
02___PRT_ALL_AXES
100
AcDbPolyline
 62
7
  6
CONTINUOUS
 90
10
 70
0
 10
14.3001695891
 20
3.8307572237
 10
14.3035768987
 20
3.8456997052
 10
14.3135668406
 20
3.859624119
 10
14.3294586166
 20
3.8715813019
 10
14.3501692285
 20
3.8807563915
 10
14.3742872824
 20
3.8865241206
 10
14.4001691728
 20
3.888491428
 10
14.4260510915
 20
3.886524245
 10
14.4501692285
 20
3.8807566318
 10
14.4708799728
 20
3.8715816418
  0
LINE
  5
594
100
AcDbEntity
  8
0
100
AcDbLine
 62
7
  6
CONTINUOUS
 10
14.4779419143
 20
5.1371332668
 11
14.3895539347
 21
5.0861027476
  0
LWPOLYLINE
  5
595
100
AcDbEntity
  8
02___PRT_ALL_AXES
100
AcDbPolyline
 62
3
  6
CONTINUOUS
 90
7
 70
0
 10
13.1245423377
 20
4.4861458169
 10
13.1410115985
 20
4.4934419289
 10
13.1651296524
 20
4.499209658
 10
13.1910115428
 20
4.5011769654
 10
13.2168934615
 20
4.4992097824
 10
13.2410115985
 20
4.4934421692
 10
13.2574815805
 20
4.4861458636
  0
LWPOLYLINE
  5
596
100
AcDbEntity
  8
02___PRT_ALL_AXES
100
AcDbPolyline
 62
7
  6
CONTINUOUS
 90
10
 70
0
 10
14.5001695891
 20
3.8307572292
 10
14.4967622795
 20
3.8158147477
 10
14.4867723377
 20
3.8018903338
 10
14.4708805616
 20
3.789933151
 10
14.4501699497
 20
3.7807580614
 10
14.4260518958
 20
3.7749903323
 10
14.4001700054
 20
3.7730230249
 10
14.3742880867
 20
3.7749902079
 10
14.3501699497
 20
3.780757821
 10
14.3294592054
 20
3.7899328111
  0
LINE
  5
597
100
AcDbEntity
  8
02___PRT_ALL_AXES
100
AcDbLine
 62
7
  6
CONTINUOUS
 10
15.4521661606
 20
5.2953492463
 11
15.3782030992
 21
5.2526469078
  0
LWPOLYLINE
  5
598
100
AcDbEntity
  8
02___PRT_ALL_AXES
100
AcDbPolyline
 62
7
  6
CONTINUOUS
 90
14
 70
0
 10
15.5187030635
 20
5.0092937536
 10
15.4998503429
 20
5.0031231145
 10
15.4780099977
 20
5.0043821478
 10
15.45445193
 20
5.0129980363
 10
15.430545249
 20
5.0284700561
 10
15.4076793242
 20
5.0498990295
 10
15.38718304
 20
5.0760395826
 10
15.3702475659
 20
5.1053725213
 10
15.3578571301
 20
5.136193122
 10
15.3507318198
 20
5.1667102032
 10
15.349285732
 20
5.1951502233
 10
15.3536029082
 20
5.2198603515
 10
15.3634324496
 20
5.2394045252
 10
15.3782030992
 20
5.2526469078
  0
LINE
  5
599
100
AcDbEntity
  8
02___PRT_ALL_AXES
100
AcDbLine
 62
3
  6
CONTINUOUS
 10
15.0356621249
 20
5.9318432451
 11
15.0224143714
 21
5.9376342457
  0
LWPOLYLINE
  5
59A
100
AcDbEntity
  8
02___PRT_ALL_AXES
100
AcDbPolyline
 62
7
  6
CONTINUOUS
 90
11
 70
0
 10
14.94845131
 20
5.8949319072
 10
14.9272985058
 20
5.9101099676
 10
14.9073750257
 20
5.9303374535
 10
14.8898387499
 20
5.9544388167
 10
14.8757088231
 20
5.9810133738
 10
14.8658064252
 20
6.008516708
 10
14.8607070476
 20
6.0353504255
 10
14.8607070476
 20
6.0599550482
 10
14.8658064252
 20
6.0809006448
 10
14.8757088231
 20
6.0969699335
 10
14.8859682168
 20
6.1052511931
  0
LWPOLYLINE
  5
59B
100
AcDbEntity
  8
02___PRT_ALL_AXES
100
AcDbPolyline
 62
3
  6
CONTINUOUS
 90
9
 70
0
 10
15.0224143714
 20
5.9376342457
 10
15.0012615672
 20
5.9528123061
 10
14.9813380871
 20
5.973039792
 10
14.9638018113
 20
5.9971411552
 10
14.9496718845
 20
6.0237157123
 10
14.9397694866
 20
6.0512190465
 10
14.934670109
 20
6.078052764
 10
14.934670109
 20
6.1026573866
 10
14.9352035565
 20
6.104848512
  0
LINE
  5
59C
100
AcDbEntity
  8
02___PRT_ALL_AXES
100
AcDbLine
 62
9
  6
CONTINUOUS
 10
15.3052625007
 20
4.2716609917
 11
15.3052625007
 21
4.3533097434
  0
LWPOLYLINE
  5
59D
100
AcDbEntity
  8
02___PRT_ALL_AXES
100
AcDbPolyline
 62
7
  6
CONTINUOUS
 90
3
 70
0
 10
15.4899701558
 20
5.3657525402
 10
15.4401401328
 20
5.300626273
 10
15.3782030992
 20
5.2526469078
  0
LINE
  5
59E
100
AcDbEntity
  8
0
100
AcDbLine
 62
7
  6
CONTINUOUS
 10
14.9905972011
 20
4.7390981063
 11
15.0789851807
 21
4.7901286255
  0
LWPOLYLINE
  5
59F
100
AcDbEntity
  8
02___PRT_ALL_AXES
100
AcDbPolyline
 62
7
  6
CONTINUOUS
 90
11
 70
0
 10
14.94845131
 20
6.0990575115
 10
14.9696041142
 20
6.083879451
 10
14.9895275943
 20
6.0636519652
 10
15.0070638701
 20
6.0395506019
 10
15.0211937969
 20
6.0129760449
 10
15.0310961948
 20
5.9854727107
 10
15.0361955724
 20
5.9586389932
 10
15.0361955724
 20
5.9340343705
 10
15.0310961948
 20
5.9130887739
 10
15.0211937969
 20
5.8970194852
 10
15.0109344032
 20
5.8887382256
  0
LWPOLYLINE
  5
5A0
100
AcDbEntity
  8
02___PRT_ALL_AXES
100
AcDbPolyline
 62
7
  6
CONTINUOUS
 90
10
 70
0
 10
15.134552117
 20
4.3124853253
 10
15.1379594266
 20
4.3274278067
 10
15.1479493685
 20
4.3413522206
 10
15.1638411445
 20
4.3533094035
 10
15.1845517565
 20
4.362484493
 10
15.2086698104
 20
4.3682522221
 10
15.2345517007
 20
4.3702195296
 10
15.2604336194
 20
4.3682523466
 10
15.2845517565
 20
4.3624847334
 10
15.3052625007
 20
4.3533097434
  0
LWPOLYLINE
  5
5A1
100
AcDbEntity
  8
02___PRT_ALL_AXES
100
AcDbPolyline
 62
7
  6
CONTINUOUS
 90
10
 70
0
 10
15.334552117
 20
4.3124853307
 10
15.3311448074
 20
4.2975428493
 10
15.3211548656
 20
4.2836184354
 10
15.3052630895
 20
4.2716612526
 10
15.2845524776
 20
4.262486163
 10
15.2604344237
 20
4.2567184339
 10
15.2345525334
 20
4.2547511265
 10
15.2086706147
 20
4.2567183095
 10
15.1845524776
 20
4.2624859226
 10
15.1638417333
 20
4.2716609126
  0
LWPOLYLINE
  5
5A2
100
AcDbEntity
  8
02___PRT_ALL_AXES
100
AcDbPolyline
 62
3
  6
CONTINUOUS
 90
7
 70
0
 10
13.9589318134
 20
4.0044217266
 10
13.9754010742
 20
4.0117178385
 10
13.9995191281
 20
4.0174855676
 10
14.0254010184
 20
4.0194528751
 10
14.0512829371
 20
4.0174856921
 10
14.0754010742
 20
4.0117180789
 10
14.0918710562
 20
4.0044217733
  0
LWPOLYLINE
  5
5A3
100
AcDbEntity
  8
02___PRT_ALL_AXES
100
AcDbPolyline
 62
7
  6
CONTINUOUS
 90
9
 70
0
 10
15.3782030992
 20
6.2451191145
 10
15.4401401328
 20
6.1256226412
 10
15.4899701558
 20
6.0029589214
 10
15.5264661875
 20
5.8801483428
 10
15.5487295747
 20
5.7602149096
 10
15.5562121188
 20
5.6461117808
 10
15.5487295747
 20
5.5406485543
 10
15.5264661875
 20
5.4464220846
 10
15.4899701558
 20
5.3657525402
  0
LWPOLYLINE
  5
5A4
100
AcDbEntity
  8
02___PRT_ALL_AXES
100
AcDbPolyline
 62
7
  6
CONTINUOUS
 90
8
 70
0
 10
15.3782030992
 20
6.2451191145
 10
15.3634324496
 20
6.2754167884
 10
15.3536029082
 20
6.3063108821
 10
15.349285732
 20
6.3360059432
 10
15.3507318198
 20
6.3627762027
 10
15.3578571301
 20
6.3850658704
 10
15.3702475659
 20
6.4015795518
 10
15.3782092973
 20
6.407346373
  0
LWPOLYLINE
  5
5A5
100
AcDbEntity
  8
02___PRT_ALL_AXES
100
AcDbPolyline
 62
3
  6
CONTINUOUS
 90
7
 70
0
 10
15.1680824956
 20
4.2697822282
 10
15.1845517565
 20
4.2770783402
 10
15.2086698104
 20
4.2828460693
 10
15.2345517007
 20
4.2848133767
 10
15.2604336194
 20
4.2828461937
 10
15.2845517565
 20
4.2770785806
 10
15.3010217384
 20
4.2697822749
  0
LINE
  5
5A6
100
AcDbEntity
  8
0
100
AcDbLine
 62
7
  6
CONTINUOUS
 10
14.1529528692
 20
7.2727679753
 11
15.7439497508
 21
6.3542262776
  0
LWPOLYLINE
  5
5A7
100
AcDbEntity
  8
02___PRT_ALL_AXES
100
AcDbPolyline
 62
7
  6
CONTINUOUS
 90
12
 70
0
 10
15.5187036842
 20
6.3262394844
 10
15.5940547116
 20
6.1823237958
 10
15.6562631156
 20
6.0346353415
 10
15.7040625124
 20
5.8861806325
 10
15.7364798441
 20
5.7399817785
 10
15.7528551873
 20
5.5990149666
 10
15.7528551873
 20
5.4661498746
 10
15.7364798441
 20
5.3440912526
 10
15.7040625124
 20
5.2353238622
 10
15.6562631156
 20
5.1420618937
 10
15.5940547116
 20
5.066203892
 10
15.5187036842
 20
5.0092941071
  0
LWPOLYLINE
  5
5A8
100
AcDbEntity
  8
02___PRT_ALL_AXES
100
AcDbPolyline
 62
3
  6
CONTINUOUS
 90
11
 70
0
 10
15.4521661606
 20
6.287821453
 10
15.5141031942
 20
6.1683249797
 10
15.5639332171
 20
6.0456612599
 10
15.6004292489
 20
5.9228506813
 10
15.6226926361
 20
5.8029172481
 10
15.6301751801
 20
5.6888141193
 10
15.6226926361
 20
5.5833508928
 10
15.6004292489
 20
5.4891244231
 10
15.5639332171
 20
5.4084548787
 10
15.5141031942
 20
5.3433286115
 10
15.4521661606
 20
5.2953492463
  0
LWPOLYLINE
  5
5A9
100
AcDbEntity
  8
02___PRT_ALL_AXES
100
AcDbPolyline
 62
3
  6
CONTINUOUS
 90
6
 70
0
 10
15.4521661606
 20
6.287821453
 10
15.437395511
 20
6.3181191269
 10
15.4275659695
 20
6.3490132206
 10
15.4232487934
 20
6.3787082817
 10
15.4246948812
 20
6.4054785411
 10
15.4260852512
 20
6.4098279499
  0
LWPOLYLINE
  5
5AA
100
AcDbEntity
  8
0
100
AcDbPolyline
 62
7
  6
CONTINUOUS
 90
12
 70
0
 10
15.9207271821
 20
6.0480404847
 10
15.918927597
 20
6.0781315277
 10
15.9135704282
 20
6.1096655424
 10
15.90475215
 20
6.1420603269
 10
15.8926755994
 20
6.1745741965
 10
15.8775434113
 20
6.2066536646
 10
15.8597210515
 20
6.237522726
 10
15.8395054004
 20
6.2666671714
 10
15.817385768
 20
6.2933824992
 10
15.7937401717
 20
6.3172164828
 10
15.7691095112
 20
6.3376226238
 10
15.7439497508
 20
6.3542262776
  0
LINE
  5
5AB
100
AcDbEntity
  8
0
100
AcDbLine
 62
9
  6
CONTINUOUS
 10
15.8886246679
 20
4.3965013659
 11
15.8886246679
 21
4.4819075187
  0
LINE
  5
5AC
100
AcDbEntity
  8
0
100
AcDbLine
 62
7
  6
CONTINUOUS
 10
15.9207271821
 20
6.0480404847
 11
15.9207271821
 21
4.537511013
  0
LINE
  5
5AD
100
AcDbEntity
  8
0
100
AcDbLine
 62
9
  6
CONTINUOUS
 10
15.9946902434
 20
4.5802133515
 11
15.9207271821
 21
4.537511013
  0
LINE
  5
5AE
100
AcDbEntity
  8
0
100
AcDbLine
 62
7
  6
CONTINUOUS
 10
15.8886246679
 20
4.4819075187
 11
14.580482569
 21
3.726655834
  0
LWPOLYLINE
  5
5AF
100
AcDbEntity
  8
02___PRT_ALL_AXES
100
AcDbPolyline
 62
3
  6
CONTINUOUS
 90
7
 70
0
 10
14.3336999677
 20
3.7880541267
 10
14.3501692285
 20
3.7953502386
 10
14.3742872824
 20
3.8011179677
 10
14.4001691728
 20
3.8030852752
 10
14.4260510915
 20
3.8011180922
 10
14.4501692285
 20
3.795350479
 10
14.4666392105
 20
3.7880541734
  0
LWPOLYLINE
  5
5B0
100
AcDbEntity
  8
0
100
AcDbPolyline
 62
7
  6
CONTINUOUS
 90
7
 70
0
 10
14.1529528692
 20
7.2727679753
 10
14.1277931088
 20
7.2852156531
 10
14.1031624483
 20
7.2932499056
 10
14.079516852
 20
7.2967188872
 10
14.0573972196
 20
7.295544533
 10
14.0371815685
 20
7.2897425827
 10
14.0279537535
 20
7.2851484858
  0
LINE
  5
5B1
100
AcDbEntity
  8
0
100
AcDbLine
 62
3
  6
CONTINUOUS
 10
14.2269159306
 20
7.3154703138
 11
15.8179128122
 21
6.3969286161
  0
LWPOLYLINE
  5
5B2
100
AcDbEntity
  8
0
100
AcDbPolyline
 62
3
  6
CONTINUOUS
 90
12
 70
0
 10
15.8179128122
 20
6.3969286161
 10
15.8430725725
 20
6.3803249623
 10
15.867703233
 20
6.3599188213
 10
15.8913488294
 20
6.3360848377
 10
15.9134684617
 20
6.3093695099
 10
15.9336841129
 20
6.2802250645
 10
15.9515064727
 20
6.2493560031
 10
15.9666386608
 20
6.2172765349
 10
15.9787152113
 20
6.1847626654
 10
15.9875334896
 20
6.1523678809
 10
15.9928906584
 20
6.1208338662
 10
15.9946902434
 20
6.0907428232
  0
LINE
  5
5B3
100
AcDbEntity
  8
0
100
AcDbLine
 62
3
  6
CONTINUOUS
 10
15.9946902434
 20
6.0907428232
 11
15.9946902434
 21
4.5802133515
  0
LWPOLYLINE
  5
5B4
100
AcDbEntity
  8
0
100
AcDbPolyline
 62
7
  6
CONTINUOUS
 90
7
 70
0
 10
15.9207271821
 20
4.537511013
 10
15.9196333154
 20
4.5272852551
 10
15.9164262607
 20
4.5164932849
 10
15.9113245734
 20
4.5058705572
 10
15.904675925
 20
4.4961409934
 10
15.8969334099
 20
4.4879676472
 10
15.8886246679
 20
4.4819075187
  0
LWPOLYLINE
  5
5B5
100
AcDbEntity
  8
0
100
AcDbPolyline
 62
3
  6
CONTINUOUS
 90
7
 70
0
 10
15.9946902434
 20
4.5802133515
 10
15.9910761466
 20
4.5464278078
 10
15.9804801508
 20
4.5107715184
 10
15.9636243556
 20
4.4756744005
 10
15.9416574557
 20
4.4435282647
 10
15.9160764589
 20
4.416523817
 10
15.8886246679
 20
4.3965013659
  0
LINE
  5
5B6
100
AcDbEntity
  8
0
100
AcDbLine
 62
3
  6
CONTINUOUS
 10
15.8886246679
 20
4.3965013659
 11
14.580482569
 21
3.6412496812
  0
LWPOLYLINE
  5
5B7
100
AcDbEntity
  8
0
100
AcDbPolyline
 62
3
  6
CONTINUOUS
 90
12
 70
0
 10
14.580482569
 20
3.6412496812
 10
14.5535234331
 20
3.6277628619
 10
14.5235358088
 20
3.6166354396
 10
14.4910721312
 20
3.6080749634
 10
14.4568761324
 20
3.6022766123
 10
14.4215284616
 20
3.5993416427
 10
14.3858838903
 20
3.5993415571
 10
14.3505361771
 20
3.6022763567
 10
14.3163400947
 20
3.6080745434
 10
14.2838762936
 20
3.6166348635
 10
14.2538885089
 20
3.6277621416
 10
14.2269291784
 20
3.6412488314
  0
LINE
  5
5B8
100
AcDbEntity
  8
0
100
AcDbLine
 62
7
  6
CONTINUOUS
 10
2.1847087296
 20
4.9638947212
 11
2.1847087296
 21
2.9638947212
  0
LINE
  5
5B9
100
AcDbEntity
  8
0
100
AcDbLine
 62
9
  6
CONTINUOUS
 10
2.4347087296
 20
3.0684947212
 11
2.4347087296
 21
2.9638947212
  0
LINE
  5
5BA
100
AcDbEntity
  8
0
100
AcDbLine
 62
3
  6
CONTINUOUS
 10
2.1847087296
 20
2.9638947212
 11
4.9347087296
 21
2.9638947212
  0
LINE
  5
5BB
100
AcDbEntity
  8
0
100
AcDbLine
 62
7
  6
CONTINUOUS
 10
2.1847087296
 20
3.0684947212
 11
4.9347087296
 21
3.0684947212
  0
LINE
  5
5BC
100
AcDbEntity
  8
0
100
AcDbLine
 62
9
  6
CONTINUOUS
 10
2.1847087296
 20
3.1138947212
 11
4.9347087296
 21
3.1138947212
  0
LINE
  5
5BD
100
AcDbEntity
  8
02___PRT_ALL_AXES
100
AcDbLine
 62
7
  6
CENTER
 10
2.8526019484
 20
4.9210015024
 11
2.8526019484
 21
4.6805015024
  0
LINE
  5
5BE
100
AcDbEntity
  8
02___PRT_ALL_AXES
100
AcDbLine
 62
7
  6
CENTER
 10
2.8526019484
 20
3.5067879401
 11
2.8526019484
 21
3.2662879401
  0
LINE
  5
5BF
100
AcDbEntity
  8
02___PRT_ALL_AXES
100
AcDbLine
 62
7
  6
CENTER
 10
2.8526019484
 20
3.5067879401
 11
2.8526019484
 21
3.7472879401
  0
LINE
  5
5C0
100
AcDbEntity
  8
02___PRT_ALL_AXES
100
AcDbLine
 62
7
  6
CENTER
 10
2.8526019484
 20
4.9210015024
 11
2.8526019484
 21
5.1615015024
  0
LINE
  5
5C1
100
AcDbEntity
  8
02___PRT_ALL_AXES
100
AcDbLine
 62
7
  6
CENTER
 10
4.2668155107
 20
3.5067879401
 11
4.0263155107
 21
3.5067879401
  0
LINE
  5
5C2
100
AcDbEntity
  8
02___PRT_ALL_AXES
100
AcDbLine
 62
7
  6
CENTER
 10
2.8526019484
 20
3.5067879401
 11
2.6121019484
 21
3.5067879401
  0
LINE
  5
5C3
100
AcDbEntity
  8
02___PRT_ALL_AXES
100
AcDbLine
 62
7
  6
CENTER
 10
2.8526019484
 20
3.5067879401
 11
4.0036344776
 21
3.5067879401
  0
LINE
  5
5C4
100
AcDbEntity
  8
02___PRT_ALL_AXES
100
AcDbLine
 62
7
  6
CENTER
 10
4.2668155107
 20
3.5067879401
 11
4.5073155107
 21
3.5067879401
  0
LINE
  5
5C5
100
AcDbEntity
  8
02___PRT_ALL_AXES
100
AcDbLine
 62
7
  6
CENTER
 10
3.5597087296
 20
4.2138947212
 11
3.5597087296
 21
3.1138947212
  0
LINE
  5
5C6
100
AcDbEntity
  8
02___PRT_ALL_AXES
100
AcDbLine
 62
7
  6
CENTER
 10
3.5597087296
 20
4.2138947212
 11
3.5597087296
 21
5.3138947212
  0
LINE
  5
5C7
100
AcDbEntity
  8
02___PRT_ALL_AXES
100
AcDbLine
 62
7
  6
CENTER
 10
3.5597087296
 20
4.2138947212
 11
2.4597087296
 21
4.2138947212
  0
LINE
  5
5C8
100
AcDbEntity
  8
02___PRT_ALL_AXES
100
AcDbLine
 62
7
  6
CENTER
 10
3.5597087296
 20
4.2138947212
 11
4.6597087296
 21
4.2138947212
  0
LINE
  5
5C9
100
AcDbEntity
  8
02___PRT_ALL_AXES
100
AcDbLine
 62
7
  6
CENTER
 10
4.2668155107
 20
4.9210015024
 11
4.2668155107
 21
4.6805015024
  0
LINE
  5
5CA
100
AcDbEntity
  8
02___PRT_ALL_AXES
100
AcDbLine
 62
7
  6
CENTER
 10
4.2668155107
 20
3.5067879401
 11
4.2668155107
 21
3.2662879401
  0
LINE
  5
5CB
100
AcDbEntity
  8
02___PRT_ALL_AXES
100
AcDbLine
 62
7
  6
CENTER
 10
4.2668155107
 20
3.5067879401
 11
4.2668155107
 21
3.7472879401
  0
LINE
  5
5CC
100
AcDbEntity
  8
02___PRT_ALL_AXES
100
AcDbLine
 62
7
  6
CENTER
 10
4.2668155107
 20
4.9210015024
 11
4.2668155107
 21
5.1615015024
  0
LINE
  5
5CD
100
AcDbEntity
  8
02___PRT_ALL_AXES
100
AcDbLine
 62
7
  6
CENTER
 10
4.2668155107
 20
4.9210015024
 11
4.0263155107
 21
4.9210015024
  0
LINE
  5
5CE
100
AcDbEntity
  8
02___PRT_ALL_AXES
100
AcDbLine
 62
7
  6
CENTER
 10
2.8526019484
 20
4.9210015024
 11
2.6121019484
 21
4.9210015024
  0
LINE
  5
5CF
100
AcDbEntity
  8
02___PRT_ALL_AXES
100
AcDbLine
 62
7
  6
CENTER
 10
2.8526019484
 20
4.9210015024
 11
4.0263155107
 21
4.9210015024
  0
LINE
  5
5D0
100
AcDbEntity
  8
02___PRT_ALL_AXES
100
AcDbLine
 62
7
  6
CENTER
 10
4.2668155107
 20
4.9210015024
 11
4.5073155107
 21
4.9210015024
  0
LINE
  5
5D1
100
AcDbEntity
  8
0
100
AcDbLine
 62
9
  6
CONTINUOUS
 10
4.6847087296
 20
3.0684947212
 11
4.6847087296
 21
2.9638947212
  0
LINE
  5
5D2
100
AcDbEntity
  8
0
100
AcDbLine
 62
7
  6
CONTINUOUS
 10
2.4347087296
 20
5.2138947212
 11
4.6847087296
 21
5.2138947212
  0
LINE
  5
5D3
100
AcDbEntity
  8
0
100
AcDbLine
 62
7
  6
CONTINUOUS
 10
4.9347087296
 20
4.9638947212
 11
4.9347087296
 21
2.9638947212
  0
LINE
  5
5D4
100
AcDbEntity
  8
0
100
AcDbLine
 62
7
  6
CONTINUOUS
 10
7.5186881857
 20
3.0684947212
 11
7.5186881857
 21
2.9638947212
  0
LINE
  5
5D5
100
AcDbEntity
  8
0
100
AcDbLine
 62
3
  6
CONTINUOUS
 10
9.6186881857
 20
2.9638947212
 11
7.5186881857
 21
2.9638947212
  0
LINE
  5
5D6
100
AcDbEntity
  8
0
100
AcDbLine
 62
7
  6
CONTINUOUS
 10
7.5186881857
 20
3.0684947212
 11
9.6186881857
 21
3.0684947212
  0
LINE
  5
5D7
100
AcDbEntity
  8
0
100
AcDbLine
 62
9
  6
CONTINUOUS
 10
9.7686881857
 20
3.1138947212
 11
9.6640881857
 21
3.1138947212
  0
LINE
  5
5D8
100
AcDbEntity
  8
0
100
AcDbLine
 62
9
  6
CONTINUOUS
 10
7.7686881857
 20
3.0684947212
 11
7.7686881857
 21
2.9638947212
  0
LINE
  5
5D9
100
AcDbEntity
  8
0
100
AcDbLine
 62
9
  6
CONTINUOUS
 10
9.6640881857
 20
4.9638947212
 11
9.7686881857
 21
4.9638947212
  0
LINE
  5
5DA
100
AcDbEntity
  8
0
100
AcDbLine
 62
9
  6
CONTINUOUS
 10
9.6186881857
 20
2.9638947212
 11
9.6186881857
 21
3.0684947212
  0
LINE
  5
5DB
100
AcDbEntity
  8
0
100
AcDbLine
 62
7
  6
CONTINUOUS
 10
9.6640881857
 20
3.1138947212
 11
9.6640881857
 21
5.2138947212
  0
LINE
  5
5DC
100
AcDbEntity
  8
0
100
AcDbLine
 62
3
  6
CONTINUOUS
 10
9.7686881857
 20
5.2138947212
 11
9.7686881857
 21
3.1138947212
  0
LINE
  5
5DD
100
AcDbEntity
  8
0
100
AcDbLine
 62
7
  6
CONTINUOUS
 10
9.6640881857
 20
5.2138947212
 11
9.7686881857
 21
5.2138947212
  0
LINE
  5
5DE
100
AcDbEntity
  8
0
100
AcDbLine
 62
7
  6
CONTINUOUS
 10
2.1847087296
 20
7.3759154643
 11
2.1847087296
 21
9.3759154643
  0
LINE
  5
5DF
100
AcDbEntity
  8
02___PRT_ALL_AXES
100
AcDbLine
 62
7
  6
CENTER
 10
2.4297087296
 20
8.5559154643
 11
2.4297087296
 21
8.3559154643
  0
LINE
  5
5E0
100
AcDbEntity
  8
02___PRT_ALL_AXES
100
AcDbLine
 62
7
  6
CENTER
 10
2.4297087296
 20
7.3759154643
 11
2.4297087296
 21
7.1759154643
  0
LINE
  5
5E1
100
AcDbEntity
  8
02___PRT_ALL_AXES
100
AcDbLine
 62
7
  6
CENTER
 10
2.4297087296
 20
7.3759154643
 11
2.4297087296
 21
8.3474612518
  0
LINE
  5
5E2
100
AcDbEntity
  8
02___PRT_ALL_AXES
100
AcDbLine
 62
7
  6
CENTER
 10
2.4297087296
 20
8.5559154643
 11
2.4297087296
 21
8.7559154643
  0
LINE
  5
5E3
100
AcDbEntity
  8
0
100
AcDbLine
 62
9
  6
CONTINUOUS
 10
2.4347087296
 20
9.2713154643
 11
2.4347087296
 21
9.3759154643
  0
LINE
  5
5E4
100
AcDbEntity
  8
0
100
AcDbLine
 62
7
  6
CONTINUOUS
 10
2.4347087296
 20
7.1259154643
 11
4.6847087296
 21
7.1259154643
  0
LINE
  5
5E5
100
AcDbEntity
  8
02___PRT_ALL_AXES
100
AcDbLine
 62
7
  6
CENTER
 10
4.6797087296
 20
7.3759154643
 11
4.4797087296
 21
7.3759154643
  0
LINE
  5
5E6
100
AcDbEntity
  8
02___PRT_ALL_AXES
100
AcDbLine
 62
7
  6
CENTER
 10
4.1497087296
 20
7.3759154643
 11
3.1981670476
 21
7.3759154643
  0
LINE
  5
5E7
100
AcDbEntity
  8
02___PRT_ALL_AXES
100
AcDbLine
 62
7
  6
CENTER
 10
2.9697087296
 20
7.3759154643
 11
2.7697087296
 21
7.3759154643
  0
LINE
  5
5E8
100
AcDbEntity
  8
02___PRT_ALL_AXES
100
AcDbLine
 62
7
  6
CENTER
 10
2.4297087296
 20
7.3759154643
 11
2.2297087296
 21
7.3759154643
  0
LINE
  5
5E9
100
AcDbEntity
  8
02___PRT_ALL_AXES
100
AcDbLine
 62
7
  6
CENTER
 10
2.4297087296
 20
7.3759154643
 11
2.6297087296
 21
7.3759154643
  0
LINE
  5
5EA
100
AcDbEntity
  8
02___PRT_ALL_AXES
100
AcDbLine
 62
7
  6
CENTER
 10
2.9697087296
 20
7.3759154643
 11
3.1697087296
 21
7.3759154643
  0
LINE
  5
5EB
100
AcDbEntity
  8
02___PRT_ALL_AXES
100
AcDbLine
 62
7
  6
CENTER
 10
4.1497087296
 20
7.3759154643
 11
4.3497087296
 21
7.3759154643
  0
LINE
  5
5EC
100
AcDbEntity
  8
02___PRT_ALL_AXES
100
AcDbLine
 62
7
  6
CENTER
 10
4.6797087296
 20
7.3759154643
 11
4.8797087296
 21
7.3759154643
  0
LINE
  5
5ED
100
AcDbEntity
  8
02___PRT_ALL_AXES
100
AcDbLine
 62
7
  6
CENTER
 10
2.9697087296
 20
7.3759154643
 11
2.9697087296
 21
7.1759154643
  0
LINE
  5
5EE
100
AcDbEntity
  8
02___PRT_ALL_AXES
100
AcDbLine
 62
7
  6
CENTER
 10
2.9697087296
 20
7.3759154643
 11
2.9697087296
 21
7.5759154643
  0
LINE
  5
5EF
100
AcDbEntity
  8
0
100
AcDbLine
 62
7
  6
CONTINUOUS
 10
3.1347087296
 20
9.0309154643
 11
3.1347087296
 21
8.9059154643
  0
LINE
  5
5F0
100
AcDbEntity
  8
02___PRT_ALL_AXES
100
AcDbLine
 62
7
  6
CENTER
 10
3.5597087296
 20
8.1259154643
 11
2.8662087296
 21
8.1259154643
  0
LINE
  5
5F1
100
AcDbEntity
  8
02___PRT_ALL_AXES
100
AcDbLine
 62
7
  6
CENTER
 10
3.5597087296
 20
8.1259154643
 11
4.2532087296
 21
8.1259154643
  0
LINE
  5
5F2
100
AcDbEntity
  8
02___PRT_ALL_AXES
100
AcDbLine
 62
7
  6
CENTER
 10
3.5597087296
 20
8.1259154643
 11
3.5597087296
 21
7.4324154643
  0
LINE
  5
5F3
100
AcDbEntity
  8
02___PRT_ALL_AXES
100
AcDbLine
 62
7
  6
CENTER
 10
3.5597087296
 20
8.1259154643
 11
3.5597087296
 21
8.8194154643
  0
LINE
  5
5F4
100
AcDbEntity
  8
02___PRT_ALL_AXES
100
AcDbLine
 62
7
  6
CENTER
 10
4.6797087296
 20
8.5559154643
 11
4.4797087296
 21
8.5559154643
  0
LINE
  5
5F5
100
AcDbEntity
  8
02___PRT_ALL_AXES
100
AcDbLine
 62
7
  6
CENTER
 10
2.4297087296
 20
8.5559154643
 11
2.2297087296
 21
8.5559154643
  0
LINE
  5
5F6
100
AcDbEntity
  8
02___PRT_ALL_AXES
100
AcDbLine
 62
7
  6
CENTER
 10
2.4297087296
 20
8.5559154643
 11
4.4638621816
 21
8.5559154643
  0
LINE
  5
5F7
100
AcDbEntity
  8
02___PRT_ALL_AXES
100
AcDbLine
 62
7
  6
CENTER
 10
4.6797087296
 20
8.5559154643
 11
4.8797087296
 21
8.5559154643
  0
LINE
  5
5F8
100
AcDbEntity
  8
0
100
AcDbLine
 62
7
  6
CONTINUOUS
 10
3.9847087296
 20
8.9059154643
 11
3.9847087296
 21
9.0309154643
  0
LINE
  5
5F9
100
AcDbEntity
  8
02___PRT_ALL_AXES
100
AcDbLine
 62
7
  6
CENTER
 10
4.1497087296
 20
7.3759154643
 11
4.1497087296
 21
7.1759154643
  0
LINE
  5
5FA
100
AcDbEntity
  8
02___PRT_ALL_AXES
100
AcDbLine
 62
7
  6
CENTER
 10
4.1497087296
 20
7.3759154643
 11
4.1497087296
 21
7.5759154643
  0
LINE
  5
5FB
100
AcDbEntity
  8
0
100
AcDbLine
 62
7
  6
CONTINUOUS
 10
3.1347087296
 20
8.9059154643
 11
3.9847087296
 21
8.9059154643
  0
LINE
  5
5FC
100
AcDbEntity
  8
0
100
AcDbLine
 62
7
  6
CONTINUOUS
 10
3.9847087296
 20
9.0309154643
 11
3.1347087296
 21
9.0309154643
  0
LINE
  5
5FD
100
AcDbEntity
  8
0
100
AcDbLine
 62
9
  6
CONTINUOUS
 10
2.1847087296
 20
9.2259154643
 11
4.9347087296
 21
9.2259154643
  0
LINE
  5
5FE
100
AcDbEntity
  8
0
100
AcDbLine
 62
7
  6
CONTINUOUS
 10
2.1847087296
 20
9.2713154643
 11
4.9347087296
 21
9.2713154643
  0
LINE
  5
5FF
100
AcDbEntity
  8
02___PRT_ALL_AXES
100
AcDbLine
 62
7
  6
CENTER
 10
4.6797087296
 20
8.5559154643
 11
4.6797087296
 21
8.3559154643
  0
LINE
  5
600
100
AcDbEntity
  8
02___PRT_ALL_AXES
100
AcDbLine
 62
7
  6
CENTER
 10
4.6797087296
 20
7.3759154643
 11
4.6797087296
 21
7.1759154643
  0
LINE
  5
601
100
AcDbEntity
  8
02___PRT_ALL_AXES
100
AcDbLine
 62
7
  6
CENTER
 10
4.6797087296
 20
7.3759154643
 11
4.6797087296
 21
8.3411694391
  0
LINE
  5
602
100
AcDbEntity
  8
02___PRT_ALL_AXES
100
AcDbLine
 62
7
  6
CENTER
 10
4.6797087296
 20
8.5559154643
 11
4.6797087296
 21
8.7559154643
  0
LINE
  5
603
100
AcDbEntity
  8
0
100
AcDbLine
 62
9
  6
CONTINUOUS
 10
4.6847087296
 20
9.2713154643
 11
4.6847087296
 21
9.3759154643
  0
LINE
  5
604
100
AcDbEntity
  8
0
100
AcDbLine
 62
3
  6
CONTINUOUS
 10
2.1847087296
 20
9.3759154643
 11
4.9347087296
 21
9.3759154643
  0
LINE
  5
605
100
AcDbEntity
  8
0
100
AcDbLine
 62
7
  6
CONTINUOUS
 10
4.9347087296
 20
7.3759154643
 11
4.9347087296
 21
9.3759154643
  0
CIRCLE
  5
606
100
AcDbEntity
  8
SKETCHED_ENT
100
AcDbCircle
 62
2
  6
CENTER
 10
3.5597087296
 20
4.2138947212
 40
1.0
  0
CIRCLE
  5
607
100
AcDbEntity
  8
0
100
AcDbCircle
 62
7
  6
CONTINUOUS
 10
10.5342808475
 20
1.243294839
 40
0.252091
  0
CIRCLE
  5
608
100
AcDbEntity
  8
0
100
AcDbCircle
 62
7
  6
CONTINUOUS
 10
10.5342808475
 20
1.243294839
 40
0.182698
  0
ARC
  5
609
100
AcDbEntity
  8
02___PRT_ALL_AXES
100
AcDbCircle
 62
7
  6
CONTINUOUS
 10
3.5597087296
 20
4.2138947212
 40
1.1405
100
AcDbArc
 50
135.0
 51
225.0
  0
ARC
  5
60A
100
AcDbEntity
  8
02___PRT_ALL_AXES
100
AcDbCircle
 62
7
  6
CONTINUOUS
 10
3.5597087296
 20
4.2138947212
 40
1.1405
100
AcDbArc
 50
315.0
 51
45.0
  0
ARC
  5
60B
100
AcDbEntity
  8
02___PRT_ALL_AXES
100
AcDbCircle
 62
7
  6
CONTINUOUS
 10
3.5597087296
 20
4.2138947212
 40
0.8595
100
AcDbArc
 50
135.0
 51
225.0
  0
ARC
  5
60C
100
AcDbEntity
  8
02___PRT_ALL_AXES
100
AcDbCircle
 62
7
  6
CONTINUOUS
 10
3.5597087296
 20
4.2138947212
 40
0.8595
100
AcDbArc
 50
315.0
 51
45.0
  0
ARC
  5
60D
100
AcDbEntity
  8
0
100
AcDbCircle
 62
7
  6
CONTINUOUS
 10
2.4347087296
 20
4.9638947212
 40
0.25
100
AcDbArc
 50
90.0
 51
180.0
  0
ARC
  5
60E
100
AcDbEntity
  8
0
100
AcDbCircle
 62
7
  6
CONTINUOUS
 10
4.6847087296
 20
4.9638947212
 40
0.25
100
AcDbArc
 50
0.0
 51
90.0
  0
ARC
  5
60F
100
AcDbEntity
  8
02___PRT_ALL_AXES
100
AcDbCircle
 62
7
  6
CONTINUOUS
 10
2.8526019484
 20
3.5067879401
 40
0.1405
100
AcDbArc
 50
225.0
 51
45.0
  0
ARC
  5
610
100
AcDbEntity
  8
02___PRT_ALL_AXES
100
AcDbCircle
 62
7
  6
CONTINUOUS
 10
4.2668155107
 20
4.9210015024
 40
0.1405
100
AcDbArc
 50
45.0
 51
225.0
  0
ARC
  5
611
100
AcDbEntity
  8
02___PRT_ALL_AXES
100
AcDbCircle
 62
7
  6
CONTINUOUS
 10
2.8526019484
 20
4.9210015024
 40
0.1405
100
AcDbArc
 50
315.0
 51
135.0
  0
ARC
  5
612
100
AcDbEntity
  8
02___PRT_ALL_AXES
100
AcDbCircle
 62
7
  6
CONTINUOUS
 10
4.2668155107
 20
3.5067879401
 40
0.1405
100
AcDbArc
 50
135.0
 51
315.0
  0
CIRCLE
  5
613
100
AcDbEntity
  8
02___PRT_ALL_AXES
100
AcDbCircle
 62
7
  6
CONTINUOUS
 10
3.5597087296
 20
4.2138947212
 40
0.125
  0
ARC
  5
614
100
AcDbEntity
  8
0
100
AcDbCircle
 62
3
  6
CONTINUOUS
 10
9.6186881857
 20
3.1138947212
 40
0.15
100
AcDbArc
 50
270.0
 51
360.0
  0
ARC
  5
615
100
AcDbEntity
  8
0
100
AcDbCircle
 62
7
  6
CONTINUOUS
 10
9.6186881857
 20
3.1138947212
 40
0.0454
100
AcDbArc
 50
270.0
 51
360.0
  0
CIRCLE
  5
616
100
AcDbEntity
  8
02___PRT_ALL_AXES
100
AcDbCircle
 62
7
  6
CONTINUOUS
 10
3.5597087296
 20
8.1259154643
 40
0.5935
  0
ARC
  5
617
100
AcDbEntity
  8
0
100
AcDbCircle
 62
7
  6
CONTINUOUS
 10
4.6847087296
 20
7.3759154643
 40
0.25
100
AcDbArc
 50
270.0
 51
360.0
  0
ARC
  5
618
100
AcDbEntity
  8
0
100
AcDbCircle
 62
7
  6
CONTINUOUS
 10
2.4347087296
 20
7.3759154643
 40
0.25
100
AcDbArc
 50
180.0
 51
270.0
  0
CIRCLE
  5
619
100
AcDbEntity
  8
02___PRT_ALL_AXES
100
AcDbCircle
 62
7
  6
CONTINUOUS
 10
2.4297087296
 20
7.3759154643
 40
0.1
  0
CIRCLE
  5
61A
100
AcDbEntity
  8
02___PRT_ALL_AXES
100
AcDbCircle
 62
7
  6
CONTINUOUS
 10
2.4297087296
 20
8.5559154643
 40
0.1
  0
CIRCLE
  5
61B
100
AcDbEntity
  8
02___PRT_ALL_AXES
100
AcDbCircle
 62
7
  6
CONTINUOUS
 10
2.9697087296
 20
7.3759154643
 40
0.1
  0
CIRCLE
  5
61C
100
AcDbEntity
  8
02___PRT_ALL_AXES
100
AcDbCircle
 62
7
  6
CONTINUOUS
 10
4.1497087296
 20
7.3759154643
 40
0.1
  0
CIRCLE
  5
61D
100
AcDbEntity
  8
02___PRT_ALL_AXES
100
AcDbCircle
 62
7
  6
CONTINUOUS
 10
4.6797087296
 20
7.3759154643
 40
0.1
  0
CIRCLE
  5
61E
100
AcDbEntity
  8
02___PRT_ALL_AXES
100
AcDbCircle
 62
7
  6
CONTINUOUS
 10
4.6797087296
 20
8.5559154643
 40
0.1
  0
ENDSEC
  0
SECTION
  2
OBJECTS
  0
DICTIONARY
  5
C
100
AcDbDictionary
280
0
281
1
  3
ACAD_GROUP
350
D
  3
ACAD_MLINESTYLE
350
17
  3
ACAD_LAYOUT
350
1A
  3
ACAD_PLOTSETTINGS
350
19
  3
ACAD_PLOTSTYLENAME
350
E
  0
DICTIONARY
  5
D
102
{ACAD_REACTORS
330
C
102
}
100
AcDbDictionary
280
0
281
1
  0
ACDBDICTIONARYWDFLT
  5
E
102
{ACAD_REACTORS
330
C
102
}
100
AcDbDictionary
281
1
  3
Normal
350
F
100
AcDbDictionaryWithDefault
340
F
  0
DICTIONARY
  5
17
102
{ACAD_REACTORS
330
C
102
}
100
AcDbDictionary
280
0
281
1
  3
Standard
350
18
  0
DICTIONARY
  5
19
102
{ACAD_REACTORS
330
C
102
}
100
AcDbDictionary
281
1
  0
DICTIONARY
  5
1A
102
{ACAD_REACTORS
330
C
102
}
100
AcDbDictionary
281
1
  3
Layout1
350
1E
  3
Model
350
22
  0
ACDBPLACEHOLDER
  5
F
102
{ACAD_REACTORS
330
E
102
}
  0
MLINESTYLE
  5
18
102
{ACAD_REACTORS
330
17
102
}
100
AcDbMlineStyle
  2
STANDARD
 70
0
  3

 62
256
 51
90.0
 52
90.0
 71
2
 49
0.5
 62
256
  6
BYLAYER
 49
-0.5
 62
256
  6
BYLAYER
  0
LAYOUT
  5
1E
102
{ACAD_REACTORS
330
1A
102
}
100
AcDbPlotSettings
  1

  2

  4

  6

 40
0.0
 41
0.0
 42
0.0
 43
0.0
 44
0.0
 45
0.0
 46
0.0
 47
0.0
 48
0.0
 49
0.0
140
0.0
141
0.0
142
1.0
143
1.0
 70
0
 72
0
 73
0
 74
0
  7

 75
0
147
1.0
148
0.0
149
0.0
100
AcDbLayout
  1
Layout1
 70
0
 71
0
 10
0.0
 20
0.0
 11
0.0
 21
0.0
 12
0.0
 22
0.0
 32
0.0
 14
0.0
 24
0.0
 34
0.0
 15
0.0
 25
0.0
 35
0.0
146
0.0
 13
0.0
 23
0.0
 33
0.0
 16
0.0
 26
0.0
 36
0.0
 17
0.0
 27
0.0
 37
0.0
 76
0
330
1B
331
0
345
0
346
0
  0
LAYOUT
  5
22
102
{ACAD_REACTORS
330
1A
102
}
100
AcDbPlotSettings
  1

  2

  4

  6

 40
0.0
 41
0.0
 42
0.0
 43
0.0
 44
0.0
 45
0.0
 46
0.0
 47
0.0
 48
0.0
 49
0.0
140
0.0
141
0.0
142
1.0
143
1.0
 70
0
 72
0
 73
0
 74
0
  7

 75
0
147
1.0
148
0.0
149
0.0
100
AcDbLayout
  1
Model
 70
0
 71
0
 10
0.0
 20
0.0
 11
0.0
 21
0.0
 12
0.0
 22
0.0
 32
0.0
 14
0.0
 24
0.0
 34
0.0
 15
0.0
 25
0.0
 35
0.0
146
0.0
 13
0.0
 23
0.0
 33
0.0
 16
0.0
 26
0.0
 36
0.0
 17
0.0
 27
0.0
 37
0.0
 76
0
330
1F
331
0
345
0
346
0
  0
ENDSEC
  0
EOF
