999
DXF file: 141610_1.dxf
999
Pro/ENGINEER 2006170 by Parametric Technology Corporation
  0
SECTION
  2
HEADER
  9
$ACADVER
  1
AC1015
  9
$DWGCODEPAGE
  3
ANSI_1252
  9
$EXTMAX
 10
22.0
 20
17.0
 30
0.0
  9
$EXTMIN
 10
0.0
 20
0.0
 30
0.0
  9
$LIMMIN
 10
0.0
 20
0.0
  9
$LIMMAX
 10
22.0
 20
17.0
  9
$VIEWCTR
 10
11.0
 20
8.5
  9
$VIEWSIZE
 40
17.0
  9
$CLAYER
  8
0
  9
$LTSCALE
 40
1.21
  9
$CELTYPE
  6
BYLAYER
  9
$DIMSCALE
 40
1.0
  9
$DIMASZ
 40
0.1875
  9
$DIMEXO
 40
0.1375
  9
$DIMDLI
 40
0.836
  9
$DIMEXE
 40
0.396
  9
$DIMCEN
 40
0.198
  9
$DIMLFAC
 40
1.0
  9
$DIMBLK
  1
_FILLED
  9
$DIMTXT
 40
0.1
  9
$DIMTOL
 70
1
  9
$DIMLIM
 70
0
  9
$DIMTFAC
 40
1.0
  9
$DIMTP
 40
0.005
  9
$DIMTM
 40
0.005
  9
$PDMODE
 70
3
  9
$PDSIZE
 40
0.3125
  9
$HANDSEED
  5
846
  9
$MEASUREMENT
 70
0
  9
$INSUNITS
 70
1
  0
ENDSEC
  0
SECTION
  2
CLASSES
  0
CLASS
  1
ACDBDICTIONARYWDFLT
  2
AcDbDictionaryWithDefault
  3
AutoCAD 2000
 90
0
280
0
281
0
  0
CLASS
  1
ACDBPLACEHOLDER
  2
AcDbPlaceHolder
  3
AutoCAD 2000
 90
0
280
0
281
0
  0
CLASS
  1
LAYOUT
  2
AcDbLayout
  3
AutoCAD 2000
 90
0
280
0
281
0
  0
ENDSEC
  0
SECTION
  2
TABLES
  0
TABLE
  2
VPORT
  5
8
100
AcDbSymbolTable
 70
2
  0
VPORT
  5
1F4
100
AcDbSymbolTableRecord
100
AcDbViewportTableRecord
  2
*ACTIVE
 70
0
 10
0.0
 20
0.0
 11
1.0
 21
1.0
 12
11.0
 22
8.5
 13
0.0
 23
0.0
 14
1.0
 24
1.0
 15
0.0
 25
0.0
 16
0.0
 26
0.0
 36
1.0
 17
0.0
 27
0.0
 37
0.0
 40
17.0
 41
1.2941176471
 42
50.0
 43
0.0
 44
0.0
 50
0.0
 51
0.0
 71
0
 72
100
 73
1
 74
1
 75
0
 76
0
 77
0
 78
0
  0
ENDTAB
  0
TABLE
  2
LTYPE
  5
5
100
AcDbSymbolTable
 70
6
  0
LTYPE
  5
14
100
AcDbSymbolTableRecord
100
AcDbLinetypeTableRecord
  2
BYBLOCK
 70
0
  3

 72
65
 73
0
 40
0.0
  0
LTYPE
  5
15
100
AcDbSymbolTableRecord
100
AcDbLinetypeTableRecord
  2
BYLAYER
 70
0
  3

 72
65
 73
0
 40
0.0
  0
LTYPE
  5
16
100
AcDbSymbolTableRecord
100
AcDbLinetypeTableRecord
  2
CONTINUOUS
 70
64
  3
Solid line
 72
65
 73
0
 40
0.0
  0
LTYPE
  5
1F5
100
AcDbSymbolTableRecord
100
AcDbLinetypeTableRecord
  2
CENTER
 70
64
  3
____ _ ____ _ ____ _ ____ _ ____ _ ____ _ ____
 72
65
 73
4
 40
0.6
 49
0.375
 74
0
 49
-0.075
 74
0
 49
0.075
 74
0
 49
-0.075
 74
0
  0
LTYPE
  5
1F6
100
AcDbSymbolTableRecord
100
AcDbLinetypeTableRecord
  2
HIDDEN
 70
64
  3
- - - - - - - - - - - - - - - - - - - -
 72
65
 73
2
 40
0.2
 49
0.1
 74
0
 49
-0.1
 74
0
  0
LTYPE
  5
1F7
100
AcDbSymbolTableRecord
100
AcDbLinetypeTableRecord
  2
PHANTOM
 70
64
  3
_____ _ _ _____ _ _ _____ _ _ _____
 72
65
 73
6
 40
0.8
 49
0.45
 74
0
 49
-0.05
 74
0
 49
0.1
 74
0
 49
-0.05
 74
0
 49
0.1
 74
0
 49
-0.05
 74
0
  0
LTYPE
  5
1F8
100
AcDbSymbolTableRecord
100
AcDbLinetypeTableRecord
  2
DOT
 70
64
  3
. . . . . . . . . . . . . . . . . . . .
 72
65
 73
2
 40
0.2
 49
0.1
 74
0
 49
-0.1
 74
0
  0
LTYPE
  5
1F9
100
AcDbSymbolTableRecord
100
AcDbLinetypeTableRecord
  2
DASHED
 70
64
  3
- - - - - - - - - - - - - - - - - - - -
 72
65
 73
2
 40
0.2
 49
0.1
 74
0
 49
-0.1
 74
0
  0
ENDTAB
  0
TABLE
  2
LAYER
  5
2
100
AcDbSymbolTable
 70
36
  0
LAYER
  5
10
100
AcDbSymbolTableRecord
100
AcDbLayerTableRecord
  2
0
 70
0
 62
7
  6
CONTINUOUS
370
-3
390
F
  0
LAYER
  5
1FA
100
AcDbSymbolTableRecord
100
AcDbLayerTableRecord
  2
DEFAULT_1
 70
0
 62
7
  6
CENTER
370
-3
390
F
  0
LAYER
  5
1FB
100
AcDbSymbolTableRecord
100
AcDbLayerTableRecord
  2
DEFAULT_2
 70
0
 62
8
  6
HIDDEN
370
-3
390
F
  0
LAYER
  5
1FC
100
AcDbSymbolTableRecord
100
AcDbLayerTableRecord
  2
DEFAULT_3
 70
0
 62
7
  6
PHANTOM
370
-3
390
F
  0
LAYER
  5
1FD
100
AcDbSymbolTableRecord
100
AcDbLayerTableRecord
  2
_2D_DELETED_OBJS
 70
0
 62
7
  6
CONTINUOUS
370
-3
390
F
  0
LAYER
  5
1FE
100
AcDbSymbolTableRecord
100
AcDbLayerTableRecord
  2
DATUM_PLANES
 70
0
 62
7
  6
CONTINUOUS
370
-3
390
F
  0
LAYER
  5
1FF
100
AcDbSymbolTableRecord
100
AcDbLayerTableRecord
  2
DRIVEN_DIMS
 70
0
 62
7
  6
CONTINUOUS
370
-3
390
F
  0
LAYER
  5
200
100
AcDbSymbolTableRecord
100
AcDbLayerTableRecord
  2
NOTES
 70
0
 62
7
  6
CONTINUOUS
370
-3
390
F
  0
LAYER
  5
201
100
AcDbSymbolTableRecord
100
AcDbLayerTableRecord
  2
SCHEME_DIMS
 70
0
 62
7
  6
CONTINUOUS
370
-3
390
F
  0
LAYER
  5
202
100
AcDbSymbolTableRecord
100
AcDbLayerTableRecord
  2
SKETCHED_ENT
 70
0
 62
7
  6
CONTINUOUS
370
-3
390
F
  0
LAYER
  5
203
100
AcDbSymbolTableRecord
100
AcDbLayerTableRecord
  2
SYMBOLS
 70
0
 62
7
  6
CONTINUOUS
370
-3
390
F
  0
ENDTAB
  0
TABLE
  2
STYLE
  5
3
100
AcDbSymbolTable
 70
1
  0
STYLE
  5
11
100
AcDbSymbolTableRecord
100
AcDbTextStyleTableRecord
  2
STANDARD
 70
0
 40
0.0
 41
1.0
 50
0.0
 71
0
 42
0.2
  3
txt
  4

  0
ENDTAB
  0
TABLE
  2
VIEW
  5
6
100
AcDbSymbolTable
 70
0
  0
ENDTAB
  0
TABLE
  2
UCS
  5
7
100
AcDbSymbolTable
 70
0
  0
ENDTAB
  0
TABLE
  2
APPID
  5
9
100
AcDbSymbolTable
 70
1
  0
APPID
  5
204
100
AcDbSymbolTableRecord
100
AcDbRegAppTableRecord
  2
ACAD
 70
0
  0
ENDTAB
  0
TABLE
  2
BLOCK_RECORD
  5
1
100
AcDbSymbolTable
 70
0
  0
BLOCK_RECORD
  5
1F
100
AcDbSymbolTableRecord
100
AcDbBlockTableRecord
  2
*MODEL_SPACE
  0
BLOCK_RECORD
  5
1B
100
AcDbSymbolTableRecord
100
AcDbBlockTableRecord
  2
*PAPER_SPACE
  0
BLOCK_RECORD
  5
205
100
AcDbSymbolTableRecord
100
AcDbBlockTableRecord
  2
_FILLED
  0
BLOCK_RECORD
  5
206
100
AcDbSymbolTableRecord
100
AcDbBlockTableRecord
  2
BANNER_LOGO_TITLEBLOCK_BL0
  0
BLOCK_RECORD
  5
207
100
AcDbSymbolTableRecord
100
AcDbBlockTableRecord
  2
*D0
  0
BLOCK_RECORD
  5
208
100
AcDbSymbolTableRecord
100
AcDbBlockTableRecord
  2
*D1
  0
BLOCK_RECORD
  5
209
100
AcDbSymbolTableRecord
100
AcDbBlockTableRecord
  2
*D2
  0
BLOCK_RECORD
  5
20A
100
AcDbSymbolTableRecord
100
AcDbBlockTableRecord
  2
*D3
  0
BLOCK_RECORD
  5
20B
100
AcDbSymbolTableRecord
100
AcDbBlockTableRecord
  2
*D4
  0
BLOCK_RECORD
  5
20C
100
AcDbSymbolTableRecord
100
AcDbBlockTableRecord
  2
*D5
  0
BLOCK_RECORD
  5
20D
100
AcDbSymbolTableRecord
100
AcDbBlockTableRecord
  2
*D6
  0
BLOCK_RECORD
  5
20E
100
AcDbSymbolTableRecord
100
AcDbBlockTableRecord
  2
*D7
  0
BLOCK_RECORD
  5
20F
100
AcDbSymbolTableRecord
100
AcDbBlockTableRecord
  2
*D8
  0
BLOCK_RECORD
  5
210
100
AcDbSymbolTableRecord
100
AcDbBlockTableRecord
  2
*D9
  0
BLOCK_RECORD
  5
211
100
AcDbSymbolTableRecord
100
AcDbBlockTableRecord
  2
*D10
  0
BLOCK_RECORD
  5
212
100
AcDbSymbolTableRecord
100
AcDbBlockTableRecord
  2
*D11
  0
BLOCK_RECORD
  5
213
100
AcDbSymbolTableRecord
100
AcDbBlockTableRecord
  2
*D12
  0
BLOCK_RECORD
  5
214
100
AcDbSymbolTableRecord
100
AcDbBlockTableRecord
  2
*D13
  0
BLOCK_RECORD
  5
215
100
AcDbSymbolTableRecord
100
AcDbBlockTableRecord
  2
*D14
  0
BLOCK_RECORD
  5
216
100
AcDbSymbolTableRecord
100
AcDbBlockTableRecord
  2
*D15
  0
BLOCK_RECORD
  5
217
100
AcDbSymbolTableRecord
100
AcDbBlockTableRecord
  2
*D16
  0
BLOCK_RECORD
  5
218
100
AcDbSymbolTableRecord
100
AcDbBlockTableRecord
  2
*D17
  0
BLOCK_RECORD
  5
219
100
AcDbSymbolTableRecord
100
AcDbBlockTableRecord
  2
*D18
  0
BLOCK_RECORD
  5
21A
100
AcDbSymbolTableRecord
100
AcDbBlockTableRecord
  2
*D19
  0
BLOCK_RECORD
  5
21B
100
AcDbSymbolTableRecord
100
AcDbBlockTableRecord
  2
*D20
  0
BLOCK_RECORD
  5
21C
100
AcDbSymbolTableRecord
100
AcDbBlockTableRecord
  2
*D21
  0
BLOCK_RECORD
  5
21D
100
AcDbSymbolTableRecord
100
AcDbBlockTableRecord
  2
*D22
  0
BLOCK_RECORD
  5
21E
100
AcDbSymbolTableRecord
100
AcDbBlockTableRecord
  2
*D23
  0
BLOCK_RECORD
  5
21F
100
AcDbSymbolTableRecord
100
AcDbBlockTableRecord
  2
*D24
  0
BLOCK_RECORD
  5
220
100
AcDbSymbolTableRecord
100
AcDbBlockTableRecord
  2
*D25
  0
BLOCK_RECORD
  5
221
100
AcDbSymbolTableRecord
100
AcDbBlockTableRecord
  2
*D26
  0
ENDTAB
  0
TABLE
  2
DIMSTYLE
  5
A
100
AcDbSymbolTable
 70
1
100
AcDbDimStyleTable
 71
0
  0
DIMSTYLE
105
222
100
AcDbSymbolTableRecord
100
AcDbDimStyleTableRecord
  2
STANDARD
 70
0
  3

  4

 40
1.0
 41
0.1875
 42
0.0625
 43
0.38
 44
0.18
 45
0.0
 46
0.0
 47
0.005
 48
0.005
140
0.1
141
0.09
142
0.0
143
25.4
144
1.0
145
0.0
146
1.0
147
0.09
 71
1.0
 72
0.0
 73
1
 74
1
 75
0
 76
0
 77
0
 78
4
170
0
171
2
172
0
173
0
174
0
175
0
176
0
177
0
178
0
270
2
271
3
272
3
273
2
274
2
275
0
280
0
281
0
282
0
283
1
284
4
285
0
286
0
287
3
288
0
340
11
341
205
342
205
343
205
344
205
  0
DIMSTYLE
105
223
100
AcDbSymbolTableRecord
100
AcDbDimStyleTableRecord
  2
DIMSTYLE_1
 70
0
  3

  4

 40
1.0
 41
0.1875
 42
0.0625
 43
0.38
 44
0.18
 45
0.0
 46
0.0
 47
0.02
 48
0.02
140
0.1
141
0.09
142
0.0
143
25.4
144
1.0
145
0.0
146
1.0
147
0.09
 71
0.0
 72
0.0
 73
1
 74
1
 75
0
 76
0
 77
0
 78
4
170
0
171
2
172
0
173
0
174
0
175
0
176
0
177
0
178
0
270
2
271
1
272
1
273
2
274
2
275
0
280
0
281
0
282
0
283
1
284
4
285
0
286
0
287
3
288
0
340
11
341
205
342
205
343
205
344
205
  0
DIMSTYLE
105
224
100
AcDbSymbolTableRecord
100
AcDbDimStyleTableRecord
  2
DIMSTYLE_2
 70
0
  3

  4

 40
1.0
 41
0.1875
 42
0.0625
 43
0.38
 44
0.18
 45
0.0
 46
0.0
 47
0.1
 48
0.1
140
0.1
141
0.09
142
0.0
143
25.4
144
1.0
145
0.0
146
1.0
147
0.09
 71
0.0
 72
0.0
 73
1
 74
1
 75
0
 76
0
 77
0
 78
4
170
0
171
2
172
0
173
0
174
0
175
0
176
0
177
0
178
0
270
2
271
1
272
1
273
2
274
2
275
0
280
0
281
0
282
0
283
1
284
4
285
0
286
0
287
3
288
0
340
11
341
205
342
205
343
205
344
205
  0
DIMSTYLE
105
225
100
AcDbSymbolTableRecord
100
AcDbDimStyleTableRecord
  2
DIMSTYLE_3
 70
0
  3

  4

 40
1.0
 41
0.1875
 42
0.0625
 43
0.38
 44
0.18
 45
0.0
 46
0.0
 47
0.1
 48
0.1
140
0.1
141
0.09
142
0.0
143
25.4
144
1.0
145
0.0
146
1.0
147
0.09
 71
0.0
 72
0.0
 73
1
 74
1
 75
0
 76
0
 77
0
 78
4
170
0
171
2
172
0
173
0
174
0
175
0
176
0
177
0
178
0
270
2
271
1
272
1
273
2
274
2
275
0
280
0
281
0
282
0
283
1
284
4
285
0
286
0
287
3
288
0
340
11
341
205
342
205
343
205
344
205
  0
DIMSTYLE
105
226
100
AcDbSymbolTableRecord
100
AcDbDimStyleTableRecord
  2
DIMSTYLE_4
 70
0
  3

  4

 40
1.0
 41
0.1875
 42
0.0625
 43
0.38
 44
0.18
 45
0.0
 46
0.0
 47
0.1
 48
0.1
140
0.1
141
0.09
142
0.0
143
25.4
144
1.0
145
0.0
146
1.0
147
0.09
 71
0.0
 72
0.0
 73
1
 74
1
 75
0
 76
0
 77
0
 78
4
170
0
171
2
172
0
173
0
174
0
175
0
176
0
177
0
178
0
270
2
271
1
272
1
273
2
274
2
275
0
280
0
281
0
282
0
283
1
284
4
285
0
286
0
287
3
288
0
340
11
341
205
342
205
343
205
344
205
  0
ENDTAB
  0
ENDSEC
  0
SECTION
  2
BLOCKS
  0
BLOCK
  5
20
100
AcDbEntity
  8
0
100
AcDbBlockBegin
  2
*MODEL_SPACE
 70
0
 10
0.0
 20
0.0
 30
0.0
  3
*MODEL_SPACE
  1

  0
ENDBLK
  5
21
100
AcDbEntity
  8
0
100
AcDbBlockEnd
  0
BLOCK
  5
1C
100
AcDbEntity
  8
0
100
AcDbBlockBegin
  2
*PAPER_SPACE
 70
0
 10
0.0
 20
0.0
 30
0.0
  3
*PAPER_SPACE
  1

  0
ENDBLK
  5
1D
100
AcDbEntity
  8
0
100
AcDbBlockEnd
  0
BLOCK
  5
227
100
AcDbEntity
  8
0
100
AcDbBlockBegin
 62
2
  6
CONTINUOUS
  2
BANNER_LOGO_TITLEBLOCK_BL0
 70
64
 10
17.5737928667
 20
2.4016160592
  3
BANNER_LOGO_TITLEBLOCK_BL0
  1

  0
LWPOLYLINE
  5
228
100
AcDbEntity
  8
0
100
AcDbPolyline
 62
2
  6
CONTINUOUS
 90
29
 70
0
 10
16.7487923615
 20
2.4016160592
 10
16.7691351996
 20
2.3618196847
 10
16.8307163685
 20
2.3232759622
 10
16.9281409297
 20
2.2893628079
 10
17.0602177432
 20
2.2604945935
 10
17.2153753953
 20
2.2392004647
 10
17.3917175036
 20
2.2257402979
 10
17.5737926282
 20
2.2212942658
 10
17.7558682297
 20
2.2257402979
 10
17.932210338
 20
2.2392004647
 10
18.0873675133
 20
2.2604945935
 10
18.2194448036
 20
2.2893628079
 10
18.316868888
 20
2.3232759622
 10
18.3784505337
 20
2.3618196847
 10
18.3987933719
 20
2.4016160592
 10
18.3784505337
 20
2.4414124337
 10
18.316868888
 20
2.4799561562
 10
18.2194448036
 20
2.5138693105
 10
18.0873675133
 20
2.5427375249
 10
17.932210338
 20
2.5640316537
 10
17.7558682297
 20
2.5774918205
 10
17.5737926282
 20
2.5819378526
 10
17.3917175036
 20
2.5774918205
 10
17.2153753953
 20
2.5640316537
 10
17.0602177432
 20
2.5427375249
 10
16.9281409297
 20
2.5138693105
 10
16.8307163685
 20
2.4799561562
 10
16.7691351996
 20
2.4414124337
 10
16.7487923615
 20
2.4016160592
  0
ARC
  5
229
100
AcDbEntity
  8
0
100
AcDbCircle
 62
2
  6
CONTINUOUS
 10
17.0691330821
 20
2.3781140608
 40
0.0153945295
100
AcDbArc
 50
354.0454548824
 51
5.1878013979
  0
ARC
  5
22A
100
AcDbEntity
  8
0
100
AcDbCircle
 62
2
  6
CONTINUOUS
 10
17.062303393
 20
2.377925543
 40
0.0222174455
100
AcDbArc
 50
4.0793399388
 51
69.834329283
  0
LINE
  5
22B
100
AcDbEntity
  8
0
100
AcDbLine
 62
2
  6
CONTINUOUS
 10
17.0699625425
 20
2.3987810533
 11
17.0599115369
 21
2.4023300553
  0
LINE
  5
22C
100
AcDbEntity
  8
0
100
AcDbLine
 62
2
  6
CONTINUOUS
 10
17.0599115369
 20
2.4023300553
 11
17.0681515415
 21
2.4071060579
  0
ARC
  5
22D
100
AcDbEntity
  8
0
100
AcDbCircle
 62
2
  6
CONTINUOUS
 10
17.046286159
 20
2.4439329496
 40
0.0428289026
100
AcDbArc
 50
300.6990502959
 51
319.0591802498
  0
ARC
  5
22E
100
AcDbEntity
  8
0
100
AcDbCircle
 62
2
  6
CONTINUOUS
 10
17.0663147559
 20
2.4278045961
 40
0.0171568255
100
AcDbArc
 50
315.9145124245
 51
16.0049121282
  0
ARC
  5
22F
100
AcDbEntity
  8
0
100
AcDbCircle
 62
2
  6
CONTINUOUS
 10
17.0613631438
 20
2.4244509317
 40
0.0229166529
100
AcDbArc
 50
20.6563876465
 51
62.3316896973
  0
ARC
  5
230
100
AcDbEntity
  8
0
100
AcDbCircle
 62
2
  6
CONTINUOUS
 10
17.0407010201
 20
2.3915223668
 40
0.061747717
100
AcDbArc
 50
59.5385584989
 51
90.0050977555
  0
LINE
  5
231
100
AcDbEntity
  8
0
100
AcDbLine
 62
2
  6
CONTINUOUS
 10
17.0406955262
 20
2.4532700835
 11
16.8746324342
 21
2.4532700835
  0
ARC
  5
232
100
AcDbEntity
  8
0
100
AcDbCircle
 62
2
  6
CONTINUOUS
 10
16.8746324323
 20
2.450795084
 40
0.0024749995
100
AcDbArc
 50
89.9999571957
 51
180.0000428043
  0
LINE
  5
233
100
AcDbEntity
  8
0
100
AcDbLine
 62
2
  6
CONTINUOUS
 10
16.8721574328
 20
2.4507950822
 11
16.8721574328
 21
2.4309950712
  0
ARC
  5
234
100
AcDbEntity
  8
0
100
AcDbCircle
 62
2
  6
CONTINUOUS
 10
16.8746324323
 20
2.4309950693
 40
0.0024749995
100
AcDbArc
 50
179.9999571957
 51
270.0000428043
  0
LINE
  5
235
100
AcDbEntity
  8
0
100
AcDbLine
 62
2
  6
CONTINUOUS
 10
16.8746324342
 20
2.4285200698
 11
16.8985744474
 21
2.4285200698
  0
ARC
  5
236
100
AcDbEntity
  8
0
100
AcDbCircle
 62
2
  6
CONTINUOUS
 10
16.8985744493
 20
2.4260450703
 40
0.0024749995
100
AcDbArc
 50
359.9999571957
 51
90.0000428043
  0
LINE
  5
237
100
AcDbEntity
  8
0
100
AcDbLine
 62
2
  6
CONTINUOUS
 10
16.9010494488
 20
2.4260450684
 11
16.9010494488
 21
2.3796900427
  0
ARC
  5
238
100
AcDbEntity
  8
0
100
AcDbCircle
 62
2
  6
CONTINUOUS
 10
16.8985744493
 20
2.3796900409
 40
0.0024749995
100
AcDbArc
 50
269.9999571957
 51
0.0000428043
  0
LINE
  5
239
100
AcDbEntity
  8
0
100
AcDbLine
 62
2
  6
CONTINUOUS
 10
16.8985744474
 20
2.3772150414
 11
16.8746324342
 21
2.3772150414
  0
ARC
  5
23A
100
AcDbEntity
  8
0
100
AcDbCircle
 62
2
  6
CONTINUOUS
 10
16.8746324323
 20
2.3747400418
 40
0.0024749995
100
AcDbArc
 50
89.9999571957
 51
180.0000428043
  0
LINE
  5
23B
100
AcDbEntity
  8
0
100
AcDbLine
 62
2
  6
CONTINUOUS
 10
16.8721574328
 20
2.37474004
 11
16.8721574328
 21
2.354940029
  0
ARC
  5
23C
100
AcDbEntity
  8
0
100
AcDbCircle
 62
2
  6
CONTINUOUS
 10
16.8746324323
 20
2.3549400272
 40
0.0024749995
100
AcDbArc
 50
179.9999571957
 51
270.0000428043
  0
LINE
  5
23D
100
AcDbEntity
  8
0
100
AcDbLine
 62
2
  6
CONTINUOUS
 10
16.8746324342
 20
2.3524650276
 11
17.051078532
 21
2.3524650276
  0
ARC
  5
23E
100
AcDbEntity
  8
0
100
AcDbCircle
 62
2
  6
CONTINUOUS
 10
17.0483571873
 20
2.4008724794
 40
0.048483885
100
AcDbArc
 50
273.21763719
 51
303.0749121182
  0
ARC
  5
23F
100
AcDbEntity
  8
0
100
AcDbCircle
 62
2
  6
CONTINUOUS
 10
17.0631965815
 20
2.3781048705
 40
0.0213072145
100
AcDbArc
 50
303.0488228549
 51
355.7263138674
  0
LINE
  5
240
100
AcDbEntity
  8
0
100
AcDbLine
 62
2
  6
CONTINUOUS
 10
16.9640374837
 20
2.4111950602
 11
17.0054005067
 21
2.4111950602
  0
ARC
  5
241
100
AcDbEntity
  8
0
100
AcDbCircle
 62
2
  6
CONTINUOUS
 10
17.0054005067
 20
2.419857565
 40
0.0086625048
100
AcDbArc
 50
270.0
 51
90.0
  0
LINE
  5
242
100
AcDbEntity
  8
0
100
AcDbLine
 62
2
  6
CONTINUOUS
 10
17.0054005067
 20
2.4285200698
 11
16.9640374837
 21
2.4285200698
  0
ARC
  5
243
100
AcDbEntity
  8
0
100
AcDbCircle
 62
2
  6
CONTINUOUS
 10
16.9640374819
 20
2.4260450703
 40
0.0024749995
100
AcDbArc
 50
89.9999571957
 51
180.0000428043
  0
LINE
  5
244
100
AcDbEntity
  8
0
100
AcDbLine
 62
2
  6
CONTINUOUS
 10
16.9615624824
 20
2.4260450684
 11
16.9615624824
 21
2.4136700616
  0
ARC
  5
245
100
AcDbEntity
  8
0
100
AcDbCircle
 62
2
  6
CONTINUOUS
 10
16.9640374819
 20
2.4136700597
 40
0.0024749995
100
AcDbArc
 50
179.9999571957
 51
270.0000428043
  0
LINE
  5
246
100
AcDbEntity
  8
0
100
AcDbLine
 62
2
  6
CONTINUOUS
 10
16.9615624824
 20
2.3796900427
 11
16.9615624824
 21
2.3920650496
  0
ARC
  5
247
100
AcDbEntity
  8
0
100
AcDbCircle
 62
2
  6
CONTINUOUS
 10
16.9640374819
 20
2.3920650514
 40
0.0024749995
100
AcDbArc
 50
89.9999571957
 51
180.0000428043
  0
LINE
  5
248
100
AcDbEntity
  8
0
100
AcDbLine
 62
2
  6
CONTINUOUS
 10
16.9640374837
 20
2.394540051
 11
17.0054005067
 21
2.394540051
  0
ARC
  5
249
100
AcDbEntity
  8
0
100
AcDbCircle
 62
2
  6
CONTINUOUS
 10
17.0054005067
 20
2.3858775462
 40
0.0086625048
100
AcDbArc
 50
270.0
 51
90.0
  0
LINE
  5
24A
100
AcDbEntity
  8
0
100
AcDbLine
 62
2
  6
CONTINUOUS
 10
17.0054005067
 20
2.3772150414
 11
16.9640374837
 21
2.3772150414
  0
ARC
  5
24B
100
AcDbEntity
  8
0
100
AcDbCircle
 62
2
  6
CONTINUOUS
 10
16.9640374819
 20
2.3796900409
 40
0.0024749995
100
AcDbArc
 50
179.9999571957
 51
270.0000428043
  0
ARC
  5
24C
100
AcDbEntity
  8
0
100
AcDbCircle
 62
2
  6
CONTINUOUS
 10
18.2498075353
 20
2.3824863625
 40
0.044722495
100
AcDbArc
 50
195.531588407
 51
204.7624440448
  0
LINE
  5
24D
100
AcDbEntity
  8
0
100
AcDbLine
 62
2
  6
CONTINUOUS
 10
18.2067181729
 20
2.3705110376
 11
18.2049141719
 21
2.376580041
  0
ARC
  5
24E
100
AcDbEntity
  8
0
100
AcDbCircle
 62
2
  6
CONTINUOUS
 10
18.1665349746
 20
2.3667829606
 40
0.0396099176
100
AcDbArc
 50
14.3201081283
 51
22.4984722084
  0
ARC
  5
24F
100
AcDbEntity
  8
0
100
AcDbCircle
 62
2
  6
CONTINUOUS
 10
18.189301283
 20
2.3757545872
 40
0.0151491919
100
AcDbArc
 50
24.098260853
 51
63.0369451818
  0
ARC
  5
250
100
AcDbEntity
  8
0
100
AcDbCircle
 62
2
  6
CONTINUOUS
 10
18.1852466282
 20
2.3674749668
 40
0.0243676582
100
AcDbArc
 50
63.3666028271
 51
90.3937697637
  0
LINE
  5
251
100
AcDbEntity
  8
0
100
AcDbLine
 62
2
  6
CONTINUOUS
 10
18.1850791609
 20
2.3918420495
 11
18.1574721456
 21
2.3918420495
  0
ARC
  5
252
100
AcDbEntity
  8
0
100
AcDbCircle
 62
2
  6
CONTINUOUS
 10
18.1574721437
 20
2.3893670499
 40
0.0024749995
100
AcDbArc
 50
89.9999571957
 51
180.0000428043
  0
LINE
  5
253
100
AcDbEntity
  8
0
100
AcDbLine
 62
2
  6
CONTINUOUS
 10
18.1549971442
 20
2.3893670481
 11
18.1549971442
 21
2.3796680427
  0
ARC
  5
254
100
AcDbEntity
  8
0
100
AcDbCircle
 62
2
  6
CONTINUOUS
 10
18.1574721437
 20
2.3796680409
 40
0.0024749995
100
AcDbArc
 50
179.9999571957
 51
270.0000428043
  0
LINE
  5
255
100
AcDbEntity
  8
0
100
AcDbLine
 62
2
  6
CONTINUOUS
 10
18.1574721456
 20
2.3771930413
 11
18.1821311592
 21
2.3771930413
  0
ARC
  5
256
100
AcDbEntity
  8
0
100
AcDbCircle
 62
2
  6
CONTINUOUS
 10
18.1821311611
 20
2.3747180418
 40
0.0024749995
100
AcDbArc
 50
359.9999571957
 51
90.0000428043
  0
LINE
  5
257
100
AcDbEntity
  8
0
100
AcDbLine
 62
2
  6
CONTINUOUS
 10
18.1846061606
 20
2.37471804
 11
18.1846061606
 21
2.354940029
  0
ARC
  5
258
100
AcDbEntity
  8
0
100
AcDbCircle
 62
2
  6
CONTINUOUS
 10
18.1821311611
 20
2.3549400272
 40
0.0024749995
100
AcDbArc
 50
269.9999571957
 51
0.0000428043
  0
LINE
  5
259
100
AcDbEntity
  8
0
100
AcDbLine
 62
2
  6
CONTINUOUS
 10
18.1821311592
 20
2.3524650276
 11
18.0685600963
 21
2.3524650276
  0
ARC
  5
25A
100
AcDbEntity
  8
0
100
AcDbCircle
 62
2
  6
CONTINUOUS
 10
18.0685600944
 20
2.3549400272
 40
0.0024749995
100
AcDbArc
 50
179.9999571957
 51
270.0000428043
  0
LINE
  5
25B
100
AcDbEntity
  8
0
100
AcDbLine
 62
2
  6
CONTINUOUS
 10
18.0660850949
 20
2.354940029
 11
18.0660850949
 21
2.37474004
  0
ARC
  5
25C
100
AcDbEntity
  8
0
100
AcDbCircle
 62
2
  6
CONTINUOUS
 10
18.0685600944
 20
2.3747400418
 40
0.0024749995
100
AcDbArc
 50
89.9999571957
 51
180.0000428043
  0
LINE
  5
25D
100
AcDbEntity
  8
0
100
AcDbLine
 62
2
  6
CONTINUOUS
 10
18.0685600963
 20
2.3772150414
 11
18.0913061089
 21
2.3772150414
  0
ARC
  5
25E
100
AcDbEntity
  8
0
100
AcDbCircle
 62
2
  6
CONTINUOUS
 10
18.0913061107
 20
2.3796900409
 40
0.0024749995
100
AcDbArc
 50
269.9999571957
 51
0.0000428043
  0
LINE
  5
25F
100
AcDbEntity
  8
0
100
AcDbLine
 62
2
  6
CONTINUOUS
 10
18.0937811102
 20
2.3796900427
 11
18.0937811102
 21
2.4260450684
  0
ARC
  5
260
100
AcDbEntity
  8
0
100
AcDbCircle
 62
2
  6
CONTINUOUS
 10
18.0913061107
 20
2.4260450703
 40
0.0024749995
100
AcDbArc
 50
359.9999571957
 51
90.0000428043
  0
LINE
  5
261
100
AcDbEntity
  8
0
100
AcDbLine
 62
2
  6
CONTINUOUS
 10
18.0913061089
 20
2.4285200698
 11
18.0685600963
 21
2.4285200698
  0
ARC
  5
262
100
AcDbEntity
  8
0
100
AcDbCircle
 62
2
  6
CONTINUOUS
 10
18.0685600944
 20
2.4309950693
 40
0.0024749995
100
AcDbArc
 50
179.9999571957
 51
270.0000428043
  0
LINE
  5
263
100
AcDbEntity
  8
0
100
AcDbLine
 62
2
  6
CONTINUOUS
 10
18.0660850949
 20
2.4309950712
 11
18.0660850949
 21
2.4507950822
  0
ARC
  5
264
100
AcDbEntity
  8
0
100
AcDbCircle
 62
2
  6
CONTINUOUS
 10
18.0685600944
 20
2.450795084
 40
0.0024749995
100
AcDbArc
 50
89.9999571957
 51
180.0000428043
  0
LINE
  5
265
100
AcDbEntity
  8
0
100
AcDbLine
 62
2
  6
CONTINUOUS
 10
18.0685600963
 20
2.4532700835
 11
18.2181411792
 21
2.4532700835
  0
ARC
  5
266
100
AcDbEntity
  8
0
100
AcDbCircle
 62
2
  6
CONTINUOUS
 10
18.2154778759
 20
2.270731173
 40
0.1825583387
100
AcDbArc
 50
79.8618509324
 51
89.1640948679
  0
ARC
  5
267
100
AcDbEntity
  8
0
100
AcDbCircle
 62
2
  6
CONTINUOUS
 10
18.2417821663
 20
2.4115546891
 40
0.039319019
100
AcDbArc
 50
59.1202086415
 51
81.4730239328
  0
ARC
  5
268
100
AcDbEntity
  8
0
100
AcDbCircle
 62
2
  6
CONTINUOUS
 10
18.2474415625
 20
2.4178893582
 40
0.0310192946
100
AcDbArc
 50
34.7540871
 51
62.0879016178
  0
ARC
  5
269
100
AcDbEntity
  8
0
100
AcDbCircle
 62
2
  6
CONTINUOUS
 10
18.2591303136
 20
2.4264389594
 40
0.0165459396
100
AcDbArc
 50
1.548452892
 51
33.5033152417
  0
ARC
  5
26A
100
AcDbEntity
  8
0
100
AcDbCircle
 62
2
  6
CONTINUOUS
 10
18.2624269088
 20
2.4266074116
 40
0.0132462337
100
AcDbArc
 50
331.1510006998
 51
1.205404301
  0
ARC
  5
26B
100
AcDbEntity
  8
0
100
AcDbCircle
 62
2
  6
CONTINUOUS
 10
18.2514162524
 20
2.4332859993
 40
0.0261183659
100
AcDbArc
 50
305.6373831893
 51
329.9727629745
  0
ARC
  5
26C
100
AcDbEntity
  8
0
100
AcDbCircle
 62
2
  6
CONTINUOUS
 10
18.2210843148
 20
2.4764928489
 40
0.0789082104
100
AcDbArc
 50
292.906155071
 51
305.2574666259
  0
ARC
  5
26D
100
AcDbEntity
  8
0
100
AcDbCircle
 62
2
  6
CONTINUOUS
 10
18.1973831488
 20
2.2998387438
 40
0.117346916
100
AcDbArc
 50
58.614769177
 51
62.3737227606
  0
ARC
  5
26E
100
AcDbEntity
  8
0
100
AcDbCircle
 62
2
  6
CONTINUOUS
 10
18.2452661015
 20
2.377966004
 40
0.0257145923
100
AcDbArc
 50
39.3804255939
 51
59.0361096173
  0
ARC
  5
26F
100
AcDbEntity
  8
0
100
AcDbCircle
 62
2
  6
CONTINUOUS
 10
18.244145746
 20
2.3778929208
 40
0.0266349791
100
AcDbArc
 50
20.3630922153
 51
37.9727053099
  0
ARC
  5
270
100
AcDbEntity
  8
0
100
AcDbCircle
 62
2
  6
CONTINUOUS
 10
18.2262452042
 20
2.3707115124
 40
0.0459185159
100
AcDbArc
 50
15.6740290068
 51
20.9917271228
  0
ARC
  5
271
100
AcDbEntity
  8
0
100
AcDbCircle
 62
2
  6
CONTINUOUS
 10
18.2848155393
 20
2.3863544954
 40
0.0147197649
100
AcDbArc
 50
192.7054516566
 51
206.0594861022
  0
ARC
  5
272
100
AcDbEntity
  8
0
100
AcDbCircle
 62
2
  6
CONTINUOUS
 10
18.2763212023
 20
2.3821460089
 40
0.0052403997
100
AcDbArc
 50
205.5232099488
 51
227.5054868079
  0
ARC
  5
273
100
AcDbEntity
  8
0
100
AcDbCircle
 62
2
  6
CONTINUOUS
 10
18.274592903
 20
2.3803306362
 40
0.0027347709
100
AcDbArc
 50
228.5117626737
 51
266.1485845754
  0
LINE
  5
274
100
AcDbEntity
  8
0
100
AcDbLine
 62
2
  6
CONTINUOUS
 10
18.2744092104
 20
2.3776020416
 11
18.275518211
 21
2.3776020416
  0
ARC
  5
275
100
AcDbEntity
  8
0
100
AcDbCircle
 62
2
  6
CONTINUOUS
 10
18.2754566564
 20
2.3908507008
 40
0.0132488022
100
AcDbArc
 50
270.266200055
 51
281.2404888597
  0
ARC
  5
276
100
AcDbEntity
  8
0
100
AcDbCircle
 62
2
  6
CONTINUOUS
 10
18.2766508974
 20
2.3851140072
 40
0.0073895522
100
AcDbArc
 50
280.8288201977
 51
305.0837508495
  0
ARC
  5
277
100
AcDbEntity
  8
0
100
AcDbCircle
 62
2
  6
CONTINUOUS
 10
18.2770520791
 20
2.3842631608
 40
0.0064647042
100
AcDbArc
 50
306.5086174083
 51
340.2162360092
  0
ARC
  5
278
100
AcDbEntity
  8
0
100
AcDbCircle
 62
2
  6
CONTINUOUS
 10
18.2718509025
 20
2.3860072224
 40
0.0119498009
100
AcDbArc
 50
340.7883861657
 51
1.1691452593
  0
LINE
  5
279
100
AcDbEntity
  8
0
100
AcDbLine
 62
2
  6
CONTINUOUS
 10
18.2837982156
 20
2.3862510464
 11
18.2837982156
 21
2.3888770478
  0
ARC
  5
27A
100
AcDbEntity
  8
0
100
AcDbCircle
 62
2
  6
CONTINUOUS
 10
18.2862732151
 20
2.3888770497
 40
0.0024749995
100
AcDbArc
 50
89.9999571957
 51
180.0000428043
  0
LINE
  5
27B
100
AcDbEntity
  8
0
100
AcDbLine
 62
2
  6
CONTINUOUS
 10
18.286273217
 20
2.3913520492
 11
18.2983832237
 21
2.3913520492
  0
ARC
  5
27C
100
AcDbEntity
  8
0
100
AcDbCircle
 62
2
  6
CONTINUOUS
 10
18.2983832256
 20
2.3888770497
 40
0.0024749995
100
AcDbArc
 50
359.9999571957
 51
90.0000428043
  0
LINE
  5
27D
100
AcDbEntity
  8
0
100
AcDbLine
 62
2
  6
CONTINUOUS
 10
18.3008582251
 20
2.3888770478
 11
18.3008582251
 21
2.3773250414
  0
ARC
  5
27E
100
AcDbEntity
  8
0
100
AcDbCircle
 62
2
  6
CONTINUOUS
 10
18.2833025285
 20
2.3774293591
 40
0.0175560065
100
AcDbArc
 50
332.2279060967
 51
359.6595469939
  0
ARC
  5
27F
100
AcDbEntity
  8
0
100
AcDbCircle
 62
2
  6
CONTINUOUS
 10
18.2739955177
 20
2.3823238645
 40
0.0280715479
100
AcDbArc
 50
308.5071794988
 51
332.2400656899
  0
ARC
  5
280
100
AcDbEntity
  8
0
100
AcDbCircle
 62
2
  6
CONTINUOUS
 10
18.2670033323
 20
2.3899250823
 40
0.0383802683
100
AcDbArc
 50
288.7656836787
 51
309.6104317088
  0
ARC
  5
281
100
AcDbEntity
  8
0
100
AcDbCircle
 62
2
  6
CONTINUOUS
 10
18.2727412998
 20
2.372338333
 40
0.0198837666
100
AcDbArc
 50
271.8586572978
 51
289.4131338543
  0
LINE
  5
282
100
AcDbEntity
  8
0
100
AcDbLine
 62
2
  6
CONTINUOUS
 10
18.2733862098
 20
2.3524650276
 11
18.2260221836
 21
2.3524650276
  0
ARC
  5
283
100
AcDbEntity
  8
0
100
AcDbCircle
 62
2
  6
CONTINUOUS
 10
18.2268275043
 20
2.3697871793
 40
0.0173408616
100
AcDbArc
 50
232.4713476722
 51
267.338189944
  0
ARC
  5
284
100
AcDbEntity
  8
0
100
AcDbCircle
 62
2
  6
CONTINUOUS
 10
18.2299260692
 20
2.3756374832
 40
0.0238935861
100
AcDbArc
 50
209.8247607259
 51
235.1255079367
  0
ARC
  5
285
100
AcDbEntity
  8
0
100
AcDbCircle
 62
2
  6
CONTINUOUS
 10
18.1986405119
 20
2.4241492153
 40
0.0110815393
100
AcDbArc
 50
306.758405961
 51
320.4502234234
  0
ARC
  5
286
100
AcDbEntity
  8
0
100
AcDbCircle
 62
2
  6
CONTINUOUS
 10
18.1930113209
 20
2.4318900438
 40
0.0206523367
100
AcDbArc
 50
289.6883413472
 51
306.4184925496
  0
ARC
  5
287
100
AcDbEntity
  8
0
100
AcDbCircle
 62
2
  6
CONTINUOUS
 10
18.1910838152
 20
2.4362836911
 40
0.0254407115
100
AcDbArc
 50
270.7327484175
 51
290.441894219
  0
LINE
  5
288
100
AcDbEntity
  8
0
100
AcDbLine
 62
2
  6
CONTINUOUS
 10
18.1914091644
 20
2.41084506
 11
18.1574721456
 21
2.41084506
  0
ARC
  5
289
100
AcDbEntity
  8
0
100
AcDbCircle
 62
2
  6
CONTINUOUS
 10
18.1574721437
 20
2.4133200595
 40
0.0024749995
100
AcDbArc
 50
179.9999571957
 51
270.0000428043
  0
LINE
  5
28A
100
AcDbEntity
  8
0
100
AcDbLine
 62
2
  6
CONTINUOUS
 10
18.1549971442
 20
2.4133200614
 11
18.1549971442
 21
2.4260450684
  0
ARC
  5
28B
100
AcDbEntity
  8
0
100
AcDbCircle
 62
2
  6
CONTINUOUS
 10
18.1574721437
 20
2.4260450703
 40
0.0024749995
100
AcDbArc
 50
89.9999571957
 51
180.0000428043
  0
LINE
  5
28C
100
AcDbEntity
  8
0
100
AcDbLine
 62
2
  6
CONTINUOUS
 10
18.1574721456
 20
2.4285200698
 11
18.194273166
 21
2.4285200698
  0
ARC
  5
28D
100
AcDbEntity
  8
0
100
AcDbCircle
 62
2
  6
CONTINUOUS
 10
18.1927282785
 20
2.4000655908
 40
0.0284963867
100
AcDbArc
 50
70.3834917948
 51
86.8922743861
  0
ARC
  5
28E
100
AcDbEntity
  8
0
100
AcDbCircle
 62
2
  6
CONTINUOUS
 10
18.1975878885
 20
2.4131073238
 40
0.0145814632
100
AcDbArc
 50
54.6746025112
 51
71.1660573124
  0
ARC
  5
28F
100
AcDbEntity
  8
0
100
AcDbCircle
 62
2
  6
CONTINUOUS
 10
18.2027173795
 20
2.419961249
 40
0.0060275915
100
AcDbArc
 50
20.9055592135
 51
56.7851676243
  0
ARC
  5
290
100
AcDbEntity
  8
0
100
AcDbCircle
 62
2
  6
CONTINUOUS
 10
18.2040179384
 20
2.4206215312
 40
0.0045795888
100
AcDbArc
 50
355.6235353944
 51
18.9942678268
  0
ARC
  5
291
100
AcDbEntity
  8
0
100
AcDbCircle
 62
2
  6
CONTINUOUS
 10
18.202811128
 20
2.4209153074
 40
0.0058087709
100
AcDbArc
 50
318.8515287446
 51
353.6422345323
  0
LINE
  5
292
100
AcDbEntity
  8
0
100
AcDbLine
 62
2
  6
CONTINUOUS
 10
17.341467693
 20
2.4532700835
 11
17.4419257488
 21
2.4532700835
  0
ARC
  5
293
100
AcDbEntity
  8
0
100
AcDbCircle
 62
2
  6
CONTINUOUS
 10
17.4419258835
 20
2.4507959157
 40
0.0024741678
100
AcDbArc
 50
46.3477981898
 51
90.0031206038
  0
LINE
  5
294
100
AcDbEntity
  8
0
100
AcDbLine
 62
2
  6
CONTINUOUS
 10
17.4436337497
 20
2.4525860832
 11
17.503666783
 21
2.3953060514
  0
ARC
  5
295
100
AcDbEntity
  8
0
100
AcDbCircle
 62
2
  6
CONTINUOUS
 10
17.5053754839
 20
2.3970969891
 40
0.0024753014
100
AcDbArc
 50
226.3461263059
 51
0.0014637322
  0
LINE
  5
296
100
AcDbEntity
  8
0
100
AcDbLine
 62
2
  6
CONTINUOUS
 10
17.5078507853
 20
2.3970970524
 11
17.5078507853
 21
2.4260450684
  0
ARC
  5
297
100
AcDbEntity
  8
0
100
AcDbCircle
 62
2
  6
CONTINUOUS
 10
17.5053757858
 20
2.4260450703
 40
0.0024749995
100
AcDbArc
 50
359.9999571957
 51
90.0000428043
  0
LINE
  5
298
100
AcDbEntity
  8
0
100
AcDbLine
 62
2
  6
CONTINUOUS
 10
17.5053757839
 20
2.4285200698
 11
17.4865997735
 21
2.4285200698
  0
ARC
  5
299
100
AcDbEntity
  8
0
100
AcDbCircle
 62
2
  6
CONTINUOUS
 10
17.4865997717
 20
2.4309950693
 40
0.0024749995
100
AcDbArc
 50
179.9999571957
 51
270.0000428043
  0
LINE
  5
29A
100
AcDbEntity
  8
0
100
AcDbLine
 62
2
  6
CONTINUOUS
 10
17.4841247722
 20
2.4309950712
 11
17.4841247722
 21
2.4507950822
  0
ARC
  5
29B
100
AcDbEntity
  8
0
100
AcDbCircle
 62
2
  6
CONTINUOUS
 10
17.4865997717
 20
2.450795084
 40
0.0024749995
100
AcDbArc
 50
89.9999571957
 51
180.0000428043
  0
LINE
  5
29C
100
AcDbEntity
  8
0
100
AcDbLine
 62
2
  6
CONTINUOUS
 10
17.4865997735
 20
2.4532700835
 11
17.5606008146
 21
2.4532700835
  0
ARC
  5
29D
100
AcDbEntity
  8
0
100
AcDbCircle
 62
2
  6
CONTINUOUS
 10
17.5606008164
 20
2.450795084
 40
0.0024749995
100
AcDbArc
 50
359.9999571957
 51
90.0000428043
  0
LINE
  5
29E
100
AcDbEntity
  8
0
100
AcDbLine
 62
2
  6
CONTINUOUS
 10
17.5630758159
 20
2.4507950822
 11
17.5630758159
 21
2.4309950712
  0
ARC
  5
29F
100
AcDbEntity
  8
0
100
AcDbCircle
 62
2
  6
CONTINUOUS
 10
17.5606008164
 20
2.4309950693
 40
0.0024749995
100
AcDbArc
 50
269.9999571957
 51
0.0000428043
  0
LINE
  5
2A0
100
AcDbEntity
  8
0
100
AcDbLine
 62
2
  6
CONTINUOUS
 10
17.5606008146
 20
2.4285200698
 11
17.5426678046
 21
2.4285200698
  0
ARC
  5
2A1
100
AcDbEntity
  8
0
100
AcDbCircle
 62
2
  6
CONTINUOUS
 10
17.5426678028
 20
2.4260450703
 40
0.0024749995
100
AcDbArc
 50
89.9999571957
 51
180.0000428043
  0
LINE
  5
2A2
100
AcDbEntity
  8
0
100
AcDbLine
 62
2
  6
CONTINUOUS
 10
17.5401928032
 20
2.4260450684
 11
17.5401928032
 21
2.354940029
  0
ARC
  5
2A3
100
AcDbEntity
  8
0
100
AcDbCircle
 62
2
  6
CONTINUOUS
 10
17.5377178037
 20
2.3549400272
 40
0.0024749995
100
AcDbArc
 50
269.9999571957
 51
0.0000428043
  0
LINE
  5
2A4
100
AcDbEntity
  8
0
100
AcDbLine
 62
2
  6
CONTINUOUS
 10
17.5377178019
 20
2.3524650276
 11
17.4635127607
 21
2.3524650276
  0
ARC
  5
2A5
100
AcDbEntity
  8
0
100
AcDbCircle
 62
2
  6
CONTINUOUS
 10
17.463512126
 20
2.3549404438
 40
0.0024754162
100
AcDbArc
 50
226.3593695813
 51
270.0146919953
  0
LINE
  5
2A6
100
AcDbEntity
  8
0
100
AcDbLine
 62
2
  6
CONTINUOUS
 10
17.4618037598
 20
2.353149028
 11
17.3985237247
 21
2.4135270615
  0
ARC
  5
2A7
100
AcDbEntity
  8
0
100
AcDbCircle
 62
2
  6
CONTINUOUS
 10
17.3968150237
 20
2.4117361237
 40
0.0024753014
100
AcDbArc
 50
46.3461263059
 51
180.0014637321
  0
LINE
  5
2A8
100
AcDbEntity
  8
0
100
AcDbLine
 62
2
  6
CONTINUOUS
 10
17.3943397224
 20
2.4117360605
 11
17.3943397224
 21
2.3796900427
  0
ARC
  5
2A9
100
AcDbEntity
  8
0
100
AcDbCircle
 62
2
  6
CONTINUOUS
 10
17.3968147219
 20
2.3796900409
 40
0.0024749995
100
AcDbArc
 50
179.9999571957
 51
270.0000428043
  0
LINE
  5
2AA
100
AcDbEntity
  8
0
100
AcDbLine
 62
2
  6
CONTINUOUS
 10
17.3968147237
 20
2.3772150414
 11
17.417131735
 21
2.3772150414
  0
ARC
  5
2AB
100
AcDbEntity
  8
0
100
AcDbCircle
 62
2
  6
CONTINUOUS
 10
17.4171317369
 20
2.3747400418
 40
0.0024749995
100
AcDbArc
 50
359.9999571957
 51
90.0000428043
  0
LINE
  5
2AC
100
AcDbEntity
  8
0
100
AcDbLine
 62
2
  6
CONTINUOUS
 10
17.4196067364
 20
2.37474004
 11
17.4196067364
 21
2.354940029
  0
ARC
  5
2AD
100
AcDbEntity
  8
0
100
AcDbCircle
 62
2
  6
CONTINUOUS
 10
17.4171317369
 20
2.3549400272
 40
0.0024749995
100
AcDbArc
 50
269.9999571957
 51
0.0000428043
  0
LINE
  5
2AE
100
AcDbEntity
  8
0
100
AcDbLine
 62
2
  6
CONTINUOUS
 10
17.417131735
 20
2.3524650276
 11
17.341467693
 21
2.3524650276
  0
ARC
  5
2AF
100
AcDbEntity
  8
0
100
AcDbCircle
 62
2
  6
CONTINUOUS
 10
17.3414676912
 20
2.3549400272
 40
0.0024749995
100
AcDbArc
 50
179.9999571957
 51
270.0000428043
  0
LINE
  5
2B0
100
AcDbEntity
  8
0
100
AcDbLine
 62
2
  6
CONTINUOUS
 10
17.3389926917
 20
2.354940029
 11
17.3389926917
 21
2.37474004
  0
ARC
  5
2B1
100
AcDbEntity
  8
0
100
AcDbCircle
 62
2
  6
CONTINUOUS
 10
17.3414676912
 20
2.3747400418
 40
0.0024749995
100
AcDbArc
 50
89.9999571957
 51
180.0000428043
  0
LINE
  5
2B2
100
AcDbEntity
  8
0
100
AcDbLine
 62
2
  6
CONTINUOUS
 10
17.341467693
 20
2.3772150414
 11
17.3601147034
 21
2.3772150414
  0
ARC
  5
2B3
100
AcDbEntity
  8
0
100
AcDbCircle
 62
2
  6
CONTINUOUS
 10
17.3601147052
 20
2.3796900409
 40
0.0024749995
100
AcDbArc
 50
269.9999571957
 51
0.0000428043
  0
LINE
  5
2B4
100
AcDbEntity
  8
0
100
AcDbLine
 62
2
  6
CONTINUOUS
 10
17.3625897048
 20
2.3796900427
 11
17.3625897048
 21
2.4260450684
  0
ARC
  5
2B5
100
AcDbEntity
  8
0
100
AcDbCircle
 62
2
  6
CONTINUOUS
 10
17.3601147052
 20
2.4260450703
 40
0.0024749995
100
AcDbArc
 50
359.9999571957
 51
90.0000428043
  0
LINE
  5
2B6
100
AcDbEntity
  8
0
100
AcDbLine
 62
2
  6
CONTINUOUS
 10
17.3601147034
 20
2.4285200698
 11
17.341467693
 21
2.4285200698
  0
ARC
  5
2B7
100
AcDbEntity
  8
0
100
AcDbCircle
 62
2
  6
CONTINUOUS
 10
17.3414676912
 20
2.4309950693
 40
0.0024749995
100
AcDbArc
 50
179.9999571957
 51
270.0000428043
  0
LINE
  5
2B8
100
AcDbEntity
  8
0
100
AcDbLine
 62
2
  6
CONTINUOUS
 10
17.3389926917
 20
2.4309950712
 11
17.3389926917
 21
2.4507950822
  0
ARC
  5
2B9
100
AcDbEntity
  8
0
100
AcDbCircle
 62
2
  6
CONTINUOUS
 10
17.3414676912
 20
2.450795084
 40
0.0024749995
100
AcDbArc
 50
89.9999571957
 51
180.0000428043
  0
LINE
  5
2BA
100
AcDbEntity
  8
0
100
AcDbLine
 62
2
  6
CONTINUOUS
 10
17.1937676111
 20
2.4268270689
 11
17.1866506072
 21
2.4156100627
  0
ARC
  5
2BB
100
AcDbEntity
  8
0
100
AcDbCircle
 62
2
  6
CONTINUOUS
 10
17.188740499
 20
2.4142841006
 40
0.0024750401
100
AcDbArc
 50
147.6063258012
 51
270.0025305754
  0
LINE
  5
2BC
100
AcDbEntity
  8
0
100
AcDbLine
 62
2
  6
CONTINUOUS
 10
17.1887406083
 20
2.4118090605
 11
17.2092976197
 21
2.4118090605
  0
ARC
  5
2BD
100
AcDbEntity
  8
0
100
AcDbCircle
 62
2
  6
CONTINUOUS
 10
17.2092975986
 20
2.4142842677
 40
0.0024752071
100
AcDbArc
 50
270.0004896793
 51
32.9089806818
  0
LINE
  5
2BE
100
AcDbEntity
  8
0
100
AcDbLine
 62
2
  6
CONTINUOUS
 10
17.2113756209
 20
2.4156290627
 11
17.2041166169
 21
2.4268450689
  0
ARC
  5
2BF
100
AcDbEntity
  8
0
100
AcDbCircle
 62
2
  6
CONTINUOUS
 10
17.2020380761
 20
2.4255006094
 40
0.0024754602
100
AcDbArc
 50
32.8959418573
 51
89.9875097202
  0
LINE
  5
2C0
100
AcDbEntity
  8
0
100
AcDbLine
 62
2
  6
CONTINUOUS
 10
17.2020386157
 20
2.4279760695
 11
17.1958576123
 21
2.4279760695
  0
ARC
  5
2C1
100
AcDbEntity
  8
0
100
AcDbCircle
 62
2
  6
CONTINUOUS
 10
17.195857542
 20
2.4255008692
 40
0.0024752003
100
AcDbArc
 50
89.998372645
 51
147.602165307
  0
LINE
  5
2C2
100
AcDbEntity
  8
0
100
AcDbLine
 62
2
  6
CONTINUOUS
 10
17.2171806241
 20
2.3897280483
 11
17.2228066272
 21
2.3810350435
  0
ARC
  5
2C3
100
AcDbEntity
  8
0
100
AcDbCircle
 62
2
  6
CONTINUOUS
 10
17.2207286049
 20
2.3796902485
 40
0.0024752071
100
AcDbArc
 50
270.0004896793
 51
32.9089806818
  0
LINE
  5
2C4
100
AcDbEntity
  8
0
100
AcDbLine
 62
2
  6
CONTINUOUS
 10
17.2207286261
 20
2.3772150414
 11
17.2062776181
 21
2.3772150414
  0
ARC
  5
2C5
100
AcDbEntity
  8
0
100
AcDbCircle
 62
2
  6
CONTINUOUS
 10
17.2062776162
 20
2.3747400418
 40
0.0024749995
100
AcDbArc
 50
89.9999571957
 51
180.0000428043
  0
LINE
  5
2C6
100
AcDbEntity
  8
0
100
AcDbLine
 62
2
  6
CONTINUOUS
 10
17.2038026167
 20
2.37474004
 11
17.2038026167
 21
2.354940029
  0
ARC
  5
2C7
100
AcDbEntity
  8
0
100
AcDbCircle
 62
2
  6
CONTINUOUS
 10
17.2062776162
 20
2.3549400272
 40
0.0024749995
100
AcDbArc
 50
179.9999571957
 51
270.0000428043
  0
LINE
  5
2C8
100
AcDbEntity
  8
0
100
AcDbLine
 62
2
  6
CONTINUOUS
 10
17.2062776181
 20
2.3524650276
 11
17.3115586765
 21
2.3524650276
  0
ARC
  5
2C9
100
AcDbEntity
  8
0
100
AcDbCircle
 62
2
  6
CONTINUOUS
 10
17.3115586783
 20
2.3549400272
 40
0.0024749995
100
AcDbArc
 50
269.9999571957
 51
0.0000428043
  0
LINE
  5
2CA
100
AcDbEntity
  8
0
100
AcDbLine
 62
2
  6
CONTINUOUS
 10
17.3140336778
 20
2.354940029
 11
17.3140336778
 21
2.37474004
  0
ARC
  5
2CB
100
AcDbEntity
  8
0
100
AcDbCircle
 62
2
  6
CONTINUOUS
 10
17.3115586783
 20
2.3747400418
 40
0.0024749995
100
AcDbArc
 50
359.9999571957
 51
90.0000428043
  0
LINE
  5
2CC
100
AcDbEntity
  8
0
100
AcDbLine
 62
2
  6
CONTINUOUS
 10
17.3115586765
 20
2.3772150414
 11
17.2915426654
 21
2.3772150414
  0
ARC
  5
2CD
100
AcDbEntity
  8
0
100
AcDbCircle
 62
2
  6
CONTINUOUS
 10
17.2915427859
 20
2.3796890824
 40
0.002474041
100
AcDbArc
 50
212.9056413127
 51
269.9972091756
  0
LINE
  5
2CE
100
AcDbEntity
  8
0
100
AcDbLine
 62
2
  6
CONTINUOUS
 10
17.2894656642
 20
2.378345042
 11
17.2417096377
 21
2.4521400829
  0
ARC
  5
2CF
100
AcDbEntity
  8
0
100
AcDbCircle
 62
2
  6
CONTINUOUS
 10
17.2396320161
 20
2.4507951234
 40
0.0024749602
100
AcDbArc
 50
32.9172174468
 51
90.0087853097
  0
LINE
  5
2D0
100
AcDbEntity
  8
0
100
AcDbLine
 62
2
  6
CONTINUOUS
 10
17.2396316366
 20
2.4532700835
 11
17.1824566049
 21
2.4532700835
  0
ARC
  5
2D1
100
AcDbEntity
  8
0
100
AcDbCircle
 62
2
  6
CONTINUOUS
 10
17.1824565346
 20
2.4507948832
 40
0.0024752003
100
AcDbArc
 50
89.998372645
 51
147.602165307
  0
LINE
  5
2D2
100
AcDbEntity
  8
0
100
AcDbLine
 62
2
  6
CONTINUOUS
 10
17.1803666037
 20
2.4521210829
 11
17.1335665777
 21
2.378364042
  0
ARC
  5
2D3
100
AcDbEntity
  8
0
100
AcDbCircle
 62
2
  6
CONTINUOUS
 10
17.1314766469
 20
2.3796902417
 40
0.0024752003
100
AcDbArc
 50
269.998372645
 51
327.602165307
  0
LINE
  5
2D4
100
AcDbEntity
  8
0
100
AcDbLine
 62
2
  6
CONTINUOUS
 10
17.1314765766
 20
2.3772150414
 11
17.1086155639
 21
2.3772150414
  0
ARC
  5
2D5
100
AcDbEntity
  8
0
100
AcDbCircle
 62
2
  6
CONTINUOUS
 10
17.1086155621
 20
2.3747400418
 40
0.0024749995
100
AcDbArc
 50
89.9999571957
 51
180.0000428043
  0
LINE
  5
2D6
100
AcDbEntity
  8
0
100
AcDbLine
 62
2
  6
CONTINUOUS
 10
17.1061405625
 20
2.37474004
 11
17.1061405625
 21
2.354940029
  0
ARC
  5
2D7
100
AcDbEntity
  8
0
100
AcDbCircle
 62
2
  6
CONTINUOUS
 10
17.1086155621
 20
2.3549400272
 40
0.0024749995
100
AcDbArc
 50
179.9999571957
 51
270.0000428043
  0
LINE
  5
2D8
100
AcDbEntity
  8
0
100
AcDbLine
 62
2
  6
CONTINUOUS
 10
17.1086155639
 20
2.3524650276
 11
17.1859916068
 21
2.3524650276
  0
ARC
  5
2D9
100
AcDbEntity
  8
0
100
AcDbCircle
 62
2
  6
CONTINUOUS
 10
17.1859916087
 20
2.3549400272
 40
0.0024749995
100
AcDbArc
 50
269.9999571957
 51
0.0000428043
  0
LINE
  5
2DA
100
AcDbEntity
  8
0
100
AcDbLine
 62
2
  6
CONTINUOUS
 10
17.1884666082
 20
2.354940029
 11
17.1884666082
 21
2.37474004
  0
ARC
  5
2DB
100
AcDbEntity
  8
0
100
AcDbCircle
 62
2
  6
CONTINUOUS
 10
17.1859916087
 20
2.3747400418
 40
0.0024749995
100
AcDbArc
 50
359.9999571957
 51
90.0000428043
  0
LINE
  5
2DC
100
AcDbEntity
  8
0
100
AcDbLine
 62
2
  6
CONTINUOUS
 10
17.1859916068
 20
2.3772150414
 11
17.1747086006
 21
2.3772150414
  0
ARC
  5
2DD
100
AcDbEntity
  8
0
100
AcDbCircle
 62
2
  6
CONTINUOUS
 10
17.1747084912
 20
2.3796900814
 40
0.0024750401
100
AcDbArc
 50
147.6063258011
 51
270.0025305754
  0
LINE
  5
2DE
100
AcDbEntity
  8
0
100
AcDbLine
 62
2
  6
CONTINUOUS
 10
17.1726185994
 20
2.3810160435
 11
17.1781346025
 21
2.3897100483
  0
ARC
  5
2DF
100
AcDbEntity
  8
0
100
AcDbCircle
 62
2
  6
CONTINUOUS
 10
17.1802245333
 20
2.3883838486
 40
0.0024752003
100
AcDbArc
 50
89.998372645
 51
147.602165307
  0
LINE
  5
2E0
100
AcDbEntity
  8
0
100
AcDbLine
 62
2
  6
CONTINUOUS
 10
17.1802246036
 20
2.3908590489
 11
17.215102623
 21
2.3908590489
  0
ARC
  5
2E1
100
AcDbEntity
  8
0
100
AcDbCircle
 62
2
  6
CONTINUOUS
 10
17.2151020833
 20
2.3883835888
 40
0.0024754602
100
AcDbArc
 50
32.8959418573
 51
89.9875097202
  0
LINE
  5
2E2
100
AcDbEntity
  8
0
100
AcDbLine
 62
2
  6
CONTINUOUS
 10
17.5897208307
 20
2.4532700835
 11
17.6901788864
 21
2.4532700835
  0
ARC
  5
2E3
100
AcDbEntity
  8
0
100
AcDbCircle
 62
2
  6
CONTINUOUS
 10
17.6901790212
 20
2.4507959157
 40
0.0024741678
100
AcDbArc
 50
46.3477981899
 51
90.0031206038
  0
LINE
  5
2E4
100
AcDbEntity
  8
0
100
AcDbLine
 62
2
  6
CONTINUOUS
 10
17.6918868874
 20
2.4525860832
 11
17.7519199207
 21
2.3953060514
  0
ARC
  5
2E5
100
AcDbEntity
  8
0
100
AcDbCircle
 62
2
  6
CONTINUOUS
 10
17.7536286216
 20
2.3970969891
 40
0.0024753014
100
AcDbArc
 50
226.3461263059
 51
0.0014637321
  0
LINE
  5
2E6
100
AcDbEntity
  8
0
100
AcDbLine
 62
2
  6
CONTINUOUS
 10
17.756103923
 20
2.3970970524
 11
17.756103923
 21
2.4260450684
  0
ARC
  5
2E7
100
AcDbEntity
  8
0
100
AcDbCircle
 62
2
  6
CONTINUOUS
 10
17.7536289235
 20
2.4260450703
 40
0.0024749995
100
AcDbArc
 50
359.9999571957
 51
90.0000428043
  0
LINE
  5
2E8
100
AcDbEntity
  8
0
100
AcDbLine
 62
2
  6
CONTINUOUS
 10
17.7536289216
 20
2.4285200698
 11
17.7348529112
 21
2.4285200698
  0
ARC
  5
2E9
100
AcDbEntity
  8
0
100
AcDbCircle
 62
2
  6
CONTINUOUS
 10
17.7348529093
 20
2.4309950693
 40
0.0024749995
100
AcDbArc
 50
179.9999571957
 51
270.0000428043
  0
LINE
  5
2EA
100
AcDbEntity
  8
0
100
AcDbLine
 62
2
  6
CONTINUOUS
 10
17.7323779098
 20
2.4309950712
 11
17.7323779098
 21
2.4507950822
  0
ARC
  5
2EB
100
AcDbEntity
  8
0
100
AcDbCircle
 62
2
  6
CONTINUOUS
 10
17.7348529093
 20
2.450795084
 40
0.0024749995
100
AcDbArc
 50
89.9999571957
 51
180.0000428043
  0
LINE
  5
2EC
100
AcDbEntity
  8
0
100
AcDbLine
 62
2
  6
CONTINUOUS
 10
17.7348529112
 20
2.4532700835
 11
17.8088539522
 21
2.4532700835
  0
ARC
  5
2ED
100
AcDbEntity
  8
0
100
AcDbCircle
 62
2
  6
CONTINUOUS
 10
17.8088539541
 20
2.450795084
 40
0.0024749995
100
AcDbArc
 50
359.9999571957
 51
90.0000428043
  0
LINE
  5
2EE
100
AcDbEntity
  8
0
100
AcDbLine
 62
2
  6
CONTINUOUS
 10
17.8113289536
 20
2.4507950822
 11
17.8113289536
 21
2.4309950712
  0
ARC
  5
2EF
100
AcDbEntity
  8
0
100
AcDbCircle
 62
2
  6
CONTINUOUS
 10
17.8088539541
 20
2.4309950693
 40
0.0024749995
100
AcDbArc
 50
269.9999571957
 51
0.0000428043
  0
LINE
  5
2F0
100
AcDbEntity
  8
0
100
AcDbLine
 62
2
  6
CONTINUOUS
 10
17.8088539522
 20
2.4285200698
 11
17.7909209423
 21
2.4285200698
  0
ARC
  5
2F1
100
AcDbEntity
  8
0
100
AcDbCircle
 62
2
  6
CONTINUOUS
 10
17.7909209404
 20
2.4260450703
 40
0.0024749995
100
AcDbArc
 50
89.9999571957
 51
180.0000428043
  0
LINE
  5
2F2
100
AcDbEntity
  8
0
100
AcDbLine
 62
2
  6
CONTINUOUS
 10
17.7884459409
 20
2.4260450684
 11
17.7884459409
 21
2.354940029
  0
ARC
  5
2F3
100
AcDbEntity
  8
0
100
AcDbCircle
 62
2
  6
CONTINUOUS
 10
17.7859709414
 20
2.3549400272
 40
0.0024749995
100
AcDbArc
 50
269.9999571957
 51
0.0000428043
  0
LINE
  5
2F4
100
AcDbEntity
  8
0
100
AcDbLine
 62
2
  6
CONTINUOUS
 10
17.7859709395
 20
2.3524650276
 11
17.7117648984
 21
2.3524650276
  0
ARC
  5
2F5
100
AcDbEntity
  8
0
100
AcDbCircle
 62
2
  6
CONTINUOUS
 10
17.7117647636
 20
2.3549391954
 40
0.0024741678
100
AcDbArc
 50
226.3477981898
 51
270.0031206038
  0
LINE
  5
2F6
100
AcDbEntity
  8
0
100
AcDbLine
 62
2
  6
CONTINUOUS
 10
17.7100568974
 20
2.353149028
 11
17.6467768624
 21
2.4135270615
  0
ARC
  5
2F7
100
AcDbEntity
  8
0
100
AcDbCircle
 62
2
  6
CONTINUOUS
 10
17.6450681614
 20
2.4117361237
 40
0.0024753014
100
AcDbArc
 50
46.3461263059
 51
180.0014637321
  0
LINE
  5
2F8
100
AcDbEntity
  8
0
100
AcDbLine
 62
2
  6
CONTINUOUS
 10
17.64259286
 20
2.4117360605
 11
17.64259286
 21
2.3796900427
  0
ARC
  5
2F9
100
AcDbEntity
  8
0
100
AcDbCircle
 62
2
  6
CONTINUOUS
 10
17.6450678596
 20
2.3796900409
 40
0.0024749995
100
AcDbArc
 50
179.9999571957
 51
270.0000428043
  0
LINE
  5
2FA
100
AcDbEntity
  8
0
100
AcDbLine
 62
2
  6
CONTINUOUS
 10
17.6450678614
 20
2.3772150414
 11
17.6653848727
 21
2.3772150414
  0
ARC
  5
2FB
100
AcDbEntity
  8
0
100
AcDbCircle
 62
2
  6
CONTINUOUS
 10
17.6653848745
 20
2.3747400418
 40
0.0024749995
100
AcDbArc
 50
359.9999571957
 51
90.0000428043
  0
LINE
  5
2FC
100
AcDbEntity
  8
0
100
AcDbLine
 62
2
  6
CONTINUOUS
 10
17.667859874
 20
2.37474004
 11
17.667859874
 21
2.354940029
  0
ARC
  5
2FD
100
AcDbEntity
  8
0
100
AcDbCircle
 62
2
  6
CONTINUOUS
 10
17.6653848745
 20
2.3549400272
 40
0.0024749995
100
AcDbArc
 50
269.9999571957
 51
0.0000428043
  0
LINE
  5
2FE
100
AcDbEntity
  8
0
100
AcDbLine
 62
2
  6
CONTINUOUS
 10
17.6653848727
 20
2.3524650276
 11
17.5897208307
 21
2.3524650276
  0
ARC
  5
2FF
100
AcDbEntity
  8
0
100
AcDbCircle
 62
2
  6
CONTINUOUS
 10
17.5897208289
 20
2.3549400272
 40
0.0024749995
100
AcDbArc
 50
179.9999571957
 51
270.0000428043
  0
LINE
  5
300
100
AcDbEntity
  8
0
100
AcDbLine
 62
2
  6
CONTINUOUS
 10
17.5872458293
 20
2.354940029
 11
17.5872458293
 21
2.37474004
  0
ARC
  5
301
100
AcDbEntity
  8
0
100
AcDbCircle
 62
2
  6
CONTINUOUS
 10
17.5897208289
 20
2.3747400418
 40
0.0024749995
100
AcDbArc
 50
89.9999571957
 51
180.0000428043
  0
LINE
  5
302
100
AcDbEntity
  8
0
100
AcDbLine
 62
2
  6
CONTINUOUS
 10
17.5897208307
 20
2.3772150414
 11
17.6083668411
 21
2.3772150414
  0
ARC
  5
303
100
AcDbEntity
  8
0
100
AcDbCircle
 62
2
  6
CONTINUOUS
 10
17.6083668429
 20
2.3796900409
 40
0.0024749995
100
AcDbArc
 50
269.9999571957
 51
0.0000428043
  0
LINE
  5
304
100
AcDbEntity
  8
0
100
AcDbLine
 62
2
  6
CONTINUOUS
 10
17.6108418424
 20
2.3796900427
 11
17.6108418424
 21
2.4260450684
  0
ARC
  5
305
100
AcDbEntity
  8
0
100
AcDbCircle
 62
2
  6
CONTINUOUS
 10
17.6083668429
 20
2.4260450703
 40
0.0024749995
100
AcDbArc
 50
359.9999571957
 51
90.0000428043
  0
LINE
  5
306
100
AcDbEntity
  8
0
100
AcDbLine
 62
2
  6
CONTINUOUS
 10
17.6083668411
 20
2.4285200698
 11
17.5897208307
 21
2.4285200698
  0
ARC
  5
307
100
AcDbEntity
  8
0
100
AcDbCircle
 62
2
  6
CONTINUOUS
 10
17.5897208289
 20
2.4309950693
 40
0.0024749995
100
AcDbArc
 50
179.9999571957
 51
270.0000428043
  0
LINE
  5
308
100
AcDbEntity
  8
0
100
AcDbLine
 62
2
  6
CONTINUOUS
 10
17.5872458293
 20
2.4309950712
 11
17.5872458293
 21
2.4507950822
  0
ARC
  5
309
100
AcDbEntity
  8
0
100
AcDbCircle
 62
2
  6
CONTINUOUS
 10
17.5897208289
 20
2.450795084
 40
0.0024749995
100
AcDbArc
 50
89.9999571957
 51
180.0000428043
  0
LINE
  5
30A
100
AcDbEntity
  8
0
100
AcDbLine
 62
2
  6
CONTINUOUS
 10
17.9625500375
 20
2.3937150505
 11
17.927383018
 21
2.3937150505
  0
ARC
  5
30B
100
AcDbEntity
  8
0
100
AcDbCircle
 62
2
  6
CONTINUOUS
 10
17.9273830161
 20
2.391240051
 40
0.0024749995
100
AcDbArc
 50
89.9999571957
 51
180.0000428043
  0
LINE
  5
30C
100
AcDbEntity
  8
0
100
AcDbLine
 62
2
  6
CONTINUOUS
 10
17.9249080166
 20
2.3912400491
 11
17.9249080166
 21
2.3796900427
  0
ARC
  5
30D
100
AcDbEntity
  8
0
100
AcDbCircle
 62
2
  6
CONTINUOUS
 10
17.9273830161
 20
2.3796900409
 40
0.0024749995
100
AcDbArc
 50
179.9999571957
 51
270.0000428043
  0
LINE
  5
30E
100
AcDbEntity
  8
0
100
AcDbLine
 62
2
  6
CONTINUOUS
 10
17.927383018
 20
2.3772150414
 11
17.992387054
 21
2.3772150414
  0
ARC
  5
30F
100
AcDbEntity
  8
0
100
AcDbCircle
 62
2
  6
CONTINUOUS
 10
17.9923870559
 20
2.3796900409
 40
0.0024749995
100
AcDbArc
 50
269.9999571957
 51
0.0000428043
  0
LINE
  5
310
100
AcDbEntity
  8
0
100
AcDbLine
 62
2
  6
CONTINUOUS
 10
17.9948620554
 20
2.3796900427
 11
17.9948620554
 21
2.3879400473
  0
ARC
  5
311
100
AcDbEntity
  8
0
100
AcDbCircle
 62
2
  6
CONTINUOUS
 10
17.9973370549
 20
2.3879400492
 40
0.0024749995
100
AcDbArc
 50
89.9999571957
 51
180.0000428043
  0
LINE
  5
312
100
AcDbEntity
  8
0
100
AcDbLine
 62
2
  6
CONTINUOUS
 10
17.9973370568
 20
2.3904150487
 11
18.0396560802
 21
2.3904150487
  0
ARC
  5
313
100
AcDbEntity
  8
0
100
AcDbCircle
 62
2
  6
CONTINUOUS
 10
18.0396560821
 20
2.3879400492
 40
0.0024749995
100
AcDbArc
 50
359.9999571957
 51
90.0000428043
  0
LINE
  5
314
100
AcDbEntity
  8
0
100
AcDbLine
 62
2
  6
CONTINUOUS
 10
18.0421310816
 20
2.3879400473
 11
18.0421310816
 21
2.354940029
  0
ARC
  5
315
100
AcDbEntity
  8
0
100
AcDbCircle
 62
2
  6
CONTINUOUS
 10
18.0396560821
 20
2.3549400272
 40
0.0024749995
100
AcDbArc
 50
269.9999571957
 51
0.0000428043
  0
LINE
  5
316
100
AcDbEntity
  8
0
100
AcDbLine
 62
2
  6
CONTINUOUS
 10
18.0396560802
 20
2.3524650276
 11
17.8364439675
 21
2.3524650276
  0
ARC
  5
317
100
AcDbEntity
  8
0
100
AcDbCircle
 62
2
  6
CONTINUOUS
 10
17.8364439657
 20
2.3549400272
 40
0.0024749995
100
AcDbArc
 50
179.9999571957
 51
270.0000428043
  0
LINE
  5
318
100
AcDbEntity
  8
0
100
AcDbLine
 62
2
  6
CONTINUOUS
 10
17.8339689662
 20
2.354940029
 11
17.8339689662
 21
2.37474004
  0
ARC
  5
319
100
AcDbEntity
  8
0
100
AcDbCircle
 62
2
  6
CONTINUOUS
 10
17.8364439657
 20
2.3747400418
 40
0.0024749995
100
AcDbArc
 50
89.9999571957
 51
180.0000428043
  0
LINE
  5
31A
100
AcDbEntity
  8
0
100
AcDbLine
 62
2
  6
CONTINUOUS
 10
17.8364439675
 20
2.3772150414
 11
17.8603669808
 21
2.3772150414
  0
ARC
  5
31B
100
AcDbEntity
  8
0
100
AcDbCircle
 62
2
  6
CONTINUOUS
 10
17.8603669827
 20
2.3796900409
 40
0.0024749995
100
AcDbArc
 50
269.9999571956
 51
0.0000428042
  0
LINE
  5
31C
100
AcDbEntity
  8
0
100
AcDbLine
 62
2
  6
CONTINUOUS
 10
17.8628419822
 20
2.3796900427
 11
17.8628419822
 21
2.4260450684
  0
ARC
  5
31D
100
AcDbEntity
  8
0
100
AcDbCircle
 62
2
  6
CONTINUOUS
 10
17.8603669827
 20
2.4260450703
 40
0.0024749995
100
AcDbArc
 50
359.9999571957
 51
90.0000428043
  0
LINE
  5
31E
100
AcDbEntity
  8
0
100
AcDbLine
 62
2
  6
CONTINUOUS
 10
17.8603669808
 20
2.4285200698
 11
17.8364439675
 21
2.4285200698
  0
ARC
  5
31F
100
AcDbEntity
  8
0
100
AcDbCircle
 62
2
  6
CONTINUOUS
 10
17.8364439657
 20
2.4309950693
 40
0.0024749995
100
AcDbArc
 50
179.9999571957
 51
270.0000428043
  0
LINE
  5
320
100
AcDbEntity
  8
0
100
AcDbLine
 62
2
  6
CONTINUOUS
 10
17.8339689662
 20
2.4309950712
 11
17.8339689662
 21
2.4507950822
  0
ARC
  5
321
100
AcDbEntity
  8
0
100
AcDbCircle
 62
2
  6
CONTINUOUS
 10
17.8364439657
 20
2.450795084
 40
0.0024749995
100
AcDbArc
 50
89.9999571957
 51
180.0000428043
  0
LINE
  5
322
100
AcDbEntity
  8
0
100
AcDbLine
 62
2
  6
CONTINUOUS
 10
17.8364439675
 20
2.4532700835
 11
18.0382370794
 21
2.4532700835
  0
ARC
  5
323
100
AcDbEntity
  8
0
100
AcDbCircle
 62
2
  6
CONTINUOUS
 10
18.0382370813
 20
2.450795084
 40
0.0024749995
100
AcDbArc
 50
359.9999571957
 51
90.0000428043
  0
LINE
  5
324
100
AcDbEntity
  8
0
100
AcDbLine
 62
2
  6
CONTINUOUS
 10
18.0407120808
 20
2.4507950822
 11
18.0407120808
 21
2.4177950639
  0
ARC
  5
325
100
AcDbEntity
  8
0
100
AcDbCircle
 62
2
  6
CONTINUOUS
 10
18.0382370813
 20
2.417795062
 40
0.0024749995
100
AcDbArc
 50
269.9999571957
 51
0.0000428043
  0
LINE
  5
326
100
AcDbEntity
  8
0
100
AcDbLine
 62
2
  6
CONTINUOUS
 10
18.0382370794
 20
2.4153200625
 11
17.9963730562
 21
2.4153200625
  0
ARC
  5
327
100
AcDbEntity
  8
0
100
AcDbCircle
 62
2
  6
CONTINUOUS
 10
17.9963730544
 20
2.417795062
 40
0.0024749995
100
AcDbArc
 50
179.9999571957
 51
270.0000428043
  0
LINE
  5
328
100
AcDbEntity
  8
0
100
AcDbLine
 62
2
  6
CONTINUOUS
 10
17.9938980549
 20
2.4177950639
 11
17.9938980549
 21
2.4260450684
  0
ARC
  5
329
100
AcDbEntity
  8
0
100
AcDbCircle
 62
2
  6
CONTINUOUS
 10
17.9914230553
 20
2.4260450703
 40
0.0024749995
100
AcDbArc
 50
359.9999571957
 51
90.0000428043
  0
LINE
  5
32A
100
AcDbEntity
  8
0
100
AcDbLine
 62
2
  6
CONTINUOUS
 10
17.9914230535
 20
2.4285200698
 11
17.927383018
 21
2.4285200698
  0
ARC
  5
32B
100
AcDbEntity
  8
0
100
AcDbCircle
 62
2
  6
CONTINUOUS
 10
17.9273830161
 20
2.4260450703
 40
0.0024749995
100
AcDbArc
 50
89.9999571957
 51
180.0000428043
  0
LINE
  5
32C
100
AcDbEntity
  8
0
100
AcDbLine
 62
2
  6
CONTINUOUS
 10
17.9249080166
 20
2.4260450684
 11
17.9249080166
 21
2.414495062
  0
ARC
  5
32D
100
AcDbEntity
  8
0
100
AcDbCircle
 62
2
  6
CONTINUOUS
 10
17.9273830161
 20
2.4144950602
 40
0.0024749995
100
AcDbArc
 50
179.9999571957
 51
270.0000428043
  0
LINE
  5
32E
100
AcDbEntity
  8
0
100
AcDbLine
 62
2
  6
CONTINUOUS
 10
17.927383018
 20
2.4120200607
 11
17.9625500375
 21
2.4120200607
  0
ARC
  5
32F
100
AcDbEntity
  8
0
100
AcDbCircle
 62
2
  6
CONTINUOUS
 10
17.9625500393
 20
2.4095450611
 40
0.0024749995
100
AcDbArc
 50
359.9999571957
 51
90.0000428043
  0
LINE
  5
330
100
AcDbEntity
  8
0
100
AcDbLine
 62
2
  6
CONTINUOUS
 10
17.9650250388
 20
2.4095450593
 11
17.9650250388
 21
2.3961900519
  0
ARC
  5
331
100
AcDbEntity
  8
0
100
AcDbCircle
 62
2
  6
CONTINUOUS
 10
17.9625500393
 20
2.39619005
 40
0.0024749995
100
AcDbArc
 50
269.9999571956
 51
0.0000428042
  0
LINE
  5
332
100
AcDbEntity
  8
0
100
AcDbLine
 62
2
  6
CONTINUOUS
 10
18.39781452
 20
2.3963074516
 11
18.39781452
 21
2.4069246582
  0
LINE
  5
333
100
AcDbEntity
  8
0
100
AcDbLine
 62
2
  6
CONTINUOUS
 10
18.3778145089
 20
2.3616679219
 11
18.3778145089
 21
2.4415641879
  0
LINE
  5
334
100
AcDbEntity
  8
0
100
AcDbLine
 62
2
  6
CONTINUOUS
 10
18.3578144978
 20
2.345629656
 11
18.3578144978
 21
2.4576024538
  0
LINE
  5
335
100
AcDbEntity
  8
0
100
AcDbLine
 62
2
  6
CONTINUOUS
 10
18.3378144867
 20
2.3338395042
 11
18.3378144867
 21
2.4693926055
  0
LINE
  5
336
100
AcDbEntity
  8
0
100
AcDbLine
 62
2
  6
CONTINUOUS
 10
18.3178144756
 20
2.3240439832
 11
18.3178144756
 21
2.4791881266
  0
LINE
  5
337
100
AcDbEntity
  8
0
100
AcDbLine
 62
2
  6
CONTINUOUS
 10
18.2978144645
 20
2.3153630651
 11
18.2978144645
 21
2.36748602
  0
LINE
  5
338
100
AcDbEntity
  8
0
100
AcDbLine
 62
2
  6
CONTINUOUS
 10
18.2978144645
 20
2.3913520492
 11
18.2978144645
 21
2.4878690447
  0
LINE
  5
339
100
AcDbEntity
  8
0
100
AcDbLine
 62
2
  6
CONTINUOUS
 10
18.2778144535
 20
2.3077915047
 11
18.2778144535
 21
2.3531152062
  0
LINE
  5
33A
100
AcDbEntity
  8
0
100
AcDbLine
 62
2
  6
CONTINUOUS
 10
18.2778144535
 20
2.3778158317
 11
18.2778144535
 21
2.4954406051
  0
LINE
  5
33B
100
AcDbEntity
  8
0
100
AcDbLine
 62
2
  6
CONTINUOUS
 10
18.2578144424
 20
2.301041061
 11
18.2578144424
 21
2.3524650276
  0
LINE
  5
33C
100
AcDbEntity
  8
0
100
AcDbLine
 62
2
  6
CONTINUOUS
 10
18.2578144424
 20
2.4004217989
 11
18.2578144424
 21
2.4066675471
  0
LINE
  5
33D
100
AcDbEntity
  8
0
100
AcDbLine
 62
2
  6
CONTINUOUS
 10
18.2578144424
 20
2.4474440616
 11
18.2578144424
 21
2.5021910487
  0
LINE
  5
33E
100
AcDbEntity
  8
0
100
AcDbLine
 62
2
  6
CONTINUOUS
 10
18.2378144313
 20
2.2947079333
 11
18.2378144313
 21
2.3524650276
  0
LINE
  5
33F
100
AcDbEntity
  8
0
100
AcDbLine
 62
2
  6
CONTINUOUS
 10
18.2378144313
 20
2.4518964909
 11
18.2378144313
 21
2.5085241764
  0
LINE
  5
340
100
AcDbEntity
  8
0
100
AcDbLine
 62
2
  6
CONTINUOUS
 10
18.2178144202
 20
2.2891345268
 11
18.2178144202
 21
2.354983815
  0
LINE
  5
341
100
AcDbEntity
  8
0
100
AcDbLine
 62
2
  6
CONTINUOUS
 10
18.2178144202
 20
2.4532700835
 11
18.2178144202
 21
2.514097583
  0
LINE
  5
342
100
AcDbEntity
  8
0
100
AcDbLine
 62
2
  6
CONTINUOUS
 10
18.1978144091
 20
2.2837804818
 11
18.1978144091
 21
2.3882804137
  0
LINE
  5
343
100
AcDbEntity
  8
0
100
AcDbLine
 62
2
  6
CONTINUOUS
 10
18.1978144091
 20
2.4117543403
 11
18.1978144091
 21
2.4281034235
  0
LINE
  5
344
100
AcDbEntity
  8
0
100
AcDbLine
 62
2
  6
CONTINUOUS
 10
18.1978144091
 20
2.4532700835
 11
18.1978144091
 21
2.519451628
  0
LINE
  5
345
100
AcDbEntity
  8
0
100
AcDbLine
 62
2
  6
CONTINUOUS
 10
18.177814398
 20
2.2789683935
 11
18.177814398
 21
2.3524650276
  0
LINE
  5
346
100
AcDbEntity
  8
0
100
AcDbLine
 62
2
  6
CONTINUOUS
 10
18.177814398
 20
2.3771930413
 11
18.177814398
 21
2.3918420495
  0
LINE
  5
347
100
AcDbEntity
  8
0
100
AcDbLine
 62
2
  6
CONTINUOUS
 10
18.177814398
 20
2.41084506
 11
18.177814398
 21
2.4285200698
  0
LINE
  5
348
100
AcDbEntity
  8
0
100
AcDbLine
 62
2
  6
CONTINUOUS
 10
18.177814398
 20
2.4532700835
 11
18.177814398
 21
2.5242637163
  0
LINE
  5
349
100
AcDbEntity
  8
0
100
AcDbLine
 62
2
  6
CONTINUOUS
 10
18.1578143869
 20
2.2744172398
 11
18.1578143869
 21
2.3524650276
  0
LINE
  5
34A
100
AcDbEntity
  8
0
100
AcDbLine
 62
2
  6
CONTINUOUS
 10
18.1578143869
 20
2.3771930413
 11
18.1578143869
 21
2.3918420495
  0
LINE
  5
34B
100
AcDbEntity
  8
0
100
AcDbLine
 62
2
  6
CONTINUOUS
 10
18.1578143869
 20
2.41084506
 11
18.1578143869
 21
2.4285200698
  0
LINE
  5
34C
100
AcDbEntity
  8
0
100
AcDbLine
 62
2
  6
CONTINUOUS
 10
18.1578143869
 20
2.4532700835
 11
18.1578143869
 21
2.5288148699
  0
LINE
  5
34D
100
AcDbEntity
  8
0
100
AcDbLine
 62
2
  6
CONTINUOUS
 10
18.1378143758
 20
2.2701196816
 11
18.1378143758
 21
2.3524650276
  0
LINE
  5
34E
100
AcDbEntity
  8
0
100
AcDbLine
 62
2
  6
CONTINUOUS
 10
18.1378143758
 20
2.4532700835
 11
18.1378143758
 21
2.5331124282
  0
LINE
  5
34F
100
AcDbEntity
  8
0
100
AcDbLine
 62
2
  6
CONTINUOUS
 10
18.1178143647
 20
2.2662469216
 11
18.1178143647
 21
2.3524650276
  0
LINE
  5
350
100
AcDbEntity
  8
0
100
AcDbLine
 62
2
  6
CONTINUOUS
 10
18.1178143647
 20
2.4532700835
 11
18.1178143647
 21
2.5369851882
  0
LINE
  5
351
100
AcDbEntity
  8
0
100
AcDbLine
 62
2
  6
CONTINUOUS
 10
18.0978143536
 20
2.2623741615
 11
18.0978143536
 21
2.3524650276
  0
LINE
  5
352
100
AcDbEntity
  8
0
100
AcDbLine
 62
2
  6
CONTINUOUS
 10
18.0978143536
 20
2.4532700835
 11
18.0978143536
 21
2.5408579483
  0
LINE
  5
353
100
AcDbEntity
  8
0
100
AcDbLine
 62
2
  6
CONTINUOUS
 10
18.0778143425
 20
2.2592603806
 11
18.0778143425
 21
2.3524650276
  0
LINE
  5
354
100
AcDbEntity
  8
0
100
AcDbLine
 62
2
  6
CONTINUOUS
 10
18.0778143425
 20
2.3772150414
 11
18.0778143425
 21
2.4285200698
  0
LINE
  5
355
100
AcDbEntity
  8
0
100
AcDbLine
 62
2
  6
CONTINUOUS
 10
18.0778143425
 20
2.4532700835
 11
18.0778143425
 21
2.5439717292
  0
LINE
  5
356
100
AcDbEntity
  8
0
100
AcDbLine
 62
2
  6
CONTINUOUS
 10
18.0578143315
 20
2.2562429918
 11
18.0578143315
 21
2.546989118
  0
LINE
  5
357
100
AcDbEntity
  8
0
100
AcDbLine
 62
2
  6
CONTINUOUS
 10
18.0378143204
 20
2.2532256029
 11
18.0378143204
 21
2.3524650276
  0
LINE
  5
358
100
AcDbEntity
  8
0
100
AcDbLine
 62
2
  6
CONTINUOUS
 10
18.0378143204
 20
2.3904150487
 11
18.0378143204
 21
2.4153200625
  0
LINE
  5
359
100
AcDbEntity
  8
0
100
AcDbLine
 62
2
  6
CONTINUOUS
 10
18.0378143204
 20
2.4532700835
 11
18.0378143204
 21
2.5500065068
  0
LINE
  5
35A
100
AcDbEntity
  8
0
100
AcDbLine
 62
2
  6
CONTINUOUS
 10
18.0178143093
 20
2.2502082141
 11
18.0178143093
 21
2.3524650276
  0
LINE
  5
35B
100
AcDbEntity
  8
0
100
AcDbLine
 62
2
  6
CONTINUOUS
 10
18.0178143093
 20
2.3904150487
 11
18.0178143093
 21
2.4153200625
  0
LINE
  5
35C
100
AcDbEntity
  8
0
100
AcDbLine
 62
2
  6
CONTINUOUS
 10
18.0178143093
 20
2.4532700835
 11
18.0178143093
 21
2.5530238957
  0
LINE
  5
35D
100
AcDbEntity
  8
0
100
AcDbLine
 62
2
  6
CONTINUOUS
 10
17.9978142982
 20
2.2471908253
 11
17.9978142982
 21
2.3524650276
  0
LINE
  5
35E
100
AcDbEntity
  8
0
100
AcDbLine
 62
2
  6
CONTINUOUS
 10
17.9978142982
 20
2.3904150487
 11
17.9978142982
 21
2.4153200625
  0
LINE
  5
35F
100
AcDbEntity
  8
0
100
AcDbLine
 62
2
  6
CONTINUOUS
 10
17.9978142982
 20
2.4532700835
 11
17.9978142982
 21
2.5560412845
  0
LINE
  5
360
100
AcDbEntity
  8
0
100
AcDbLine
 62
2
  6
CONTINUOUS
 10
17.9778142871
 20
2.2445732581
 11
17.9778142871
 21
2.3524650276
  0
LINE
  5
361
100
AcDbEntity
  8
0
100
AcDbLine
 62
2
  6
CONTINUOUS
 10
17.9778142871
 20
2.3772150414
 11
17.9778142871
 21
2.4285200698
  0
LINE
  5
362
100
AcDbEntity
  8
0
100
AcDbLine
 62
2
  6
CONTINUOUS
 10
17.9778142871
 20
2.4532700835
 11
17.9778142871
 21
2.5586588517
  0
LINE
  5
363
100
AcDbEntity
  8
0
100
AcDbLine
 62
2
  6
CONTINUOUS
 10
17.957814276
 20
2.2424989828
 11
17.957814276
 21
2.3524650276
  0
LINE
  5
364
100
AcDbEntity
  8
0
100
AcDbLine
 62
2
  6
CONTINUOUS
 10
17.957814276
 20
2.3772150414
 11
17.957814276
 21
2.3937150505
  0
LINE
  5
365
100
AcDbEntity
  8
0
100
AcDbLine
 62
2
  6
CONTINUOUS
 10
17.957814276
 20
2.4120200607
 11
17.957814276
 21
2.4285200698
  0
LINE
  5
366
100
AcDbEntity
  8
0
100
AcDbLine
 62
2
  6
CONTINUOUS
 10
17.957814276
 20
2.4532700835
 11
17.957814276
 21
2.5607331269
  0
LINE
  5
367
100
AcDbEntity
  8
0
100
AcDbLine
 62
2
  6
CONTINUOUS
 10
17.9378142649
 20
2.2404247076
 11
17.9378142649
 21
2.3524650276
  0
LINE
  5
368
100
AcDbEntity
  8
0
100
AcDbLine
 62
2
  6
CONTINUOUS
 10
17.9378142649
 20
2.3772150414
 11
17.9378142649
 21
2.3937150505
  0
LINE
  5
369
100
AcDbEntity
  8
0
100
AcDbLine
 62
2
  6
CONTINUOUS
 10
17.9378142649
 20
2.4120200607
 11
17.9378142649
 21
2.4285200698
  0
LINE
  5
36A
100
AcDbEntity
  8
0
100
AcDbLine
 62
2
  6
CONTINUOUS
 10
17.9378142649
 20
2.4532700835
 11
17.9378142649
 21
2.5628074022
  0
LINE
  5
36B
100
AcDbEntity
  8
0
100
AcDbLine
 62
2
  6
CONTINUOUS
 10
17.9178142538
 20
2.2383504324
 11
17.9178142538
 21
2.3524650276
  0
LINE
  5
36C
100
AcDbEntity
  8
0
100
AcDbLine
 62
2
  6
CONTINUOUS
 10
17.9178142538
 20
2.4532700835
 11
17.9178142538
 21
2.5648816774
  0
LINE
  5
36D
100
AcDbEntity
  8
0
100
AcDbLine
 62
2
  6
CONTINUOUS
 10
17.8978142427
 20
2.2362761572
 11
17.8978142427
 21
2.3524650276
  0
LINE
  5
36E
100
AcDbEntity
  8
0
100
AcDbLine
 62
2
  6
CONTINUOUS
 10
17.8978142427
 20
2.4532700835
 11
17.8978142427
 21
2.5669559526
  0
LINE
  5
36F
100
AcDbEntity
  8
0
100
AcDbLine
 62
2
  6
CONTINUOUS
 10
17.8778142316
 20
2.234201882
 11
17.8778142316
 21
2.3524650276
  0
LINE
  5
370
100
AcDbEntity
  8
0
100
AcDbLine
 62
2
  6
CONTINUOUS
 10
17.8778142316
 20
2.4532700835
 11
17.8778142316
 21
2.5690302278
  0
LINE
  5
371
100
AcDbEntity
  8
0
100
AcDbLine
 62
2
  6
CONTINUOUS
 10
17.8578142205
 20
2.23247216
 11
17.8578142205
 21
2.3524650276
  0
LINE
  5
372
100
AcDbEntity
  8
0
100
AcDbLine
 62
2
  6
CONTINUOUS
 10
17.8578142205
 20
2.3772150414
 11
17.8578142205
 21
2.4285200698
  0
LINE
  5
373
100
AcDbEntity
  8
0
100
AcDbLine
 62
2
  6
CONTINUOUS
 10
17.8578142205
 20
2.4532700835
 11
17.8578142205
 21
2.5707599498
  0
LINE
  5
374
100
AcDbEntity
  8
0
100
AcDbLine
 62
2
  6
CONTINUOUS
 10
17.8378142094
 20
2.2312059562
 11
17.8378142094
 21
2.3524650276
  0
LINE
  5
375
100
AcDbEntity
  8
0
100
AcDbLine
 62
2
  6
CONTINUOUS
 10
17.8378142094
 20
2.3772150414
 11
17.8378142094
 21
2.4285200698
  0
LINE
  5
376
100
AcDbEntity
  8
0
100
AcDbLine
 62
2
  6
CONTINUOUS
 10
17.8378142094
 20
2.4532700835
 11
17.8378142094
 21
2.5720261536
  0
LINE
  5
377
100
AcDbEntity
  8
0
100
AcDbLine
 62
2
  6
CONTINUOUS
 10
17.8178141984
 20
2.2299397525
 11
17.8178141984
 21
2.5732923573
  0
LINE
  5
378
100
AcDbEntity
  8
0
100
AcDbLine
 62
2
  6
CONTINUOUS
 10
17.7978141873
 20
2.2286735487
 11
17.7978141873
 21
2.4285200698
  0
LINE
  5
379
100
AcDbEntity
  8
0
100
AcDbLine
 62
2
  6
CONTINUOUS
 10
17.7978141873
 20
2.4532700835
 11
17.7978141873
 21
2.574558561
  0
LINE
  5
37A
100
AcDbEntity
  8
0
100
AcDbLine
 62
2
  6
CONTINUOUS
 10
17.7778141762
 20
2.227407345
 11
17.7778141762
 21
2.3524650276
  0
LINE
  5
37B
100
AcDbEntity
  8
0
100
AcDbLine
 62
2
  6
CONTINUOUS
 10
17.7778141762
 20
2.4532700835
 11
17.7778141762
 21
2.5758247648
  0
LINE
  5
37C
100
AcDbEntity
  8
0
100
AcDbLine
 62
2
  6
CONTINUOUS
 10
17.7578141651
 20
2.2261411413
 11
17.7578141651
 21
2.3524650276
  0
LINE
  5
37D
100
AcDbEntity
  8
0
100
AcDbLine
 62
2
  6
CONTINUOUS
 10
17.7578141651
 20
2.4532700835
 11
17.7578141651
 21
2.5770909685
  0
LINE
  5
37E
100
AcDbEntity
  8
0
100
AcDbLine
 62
2
  6
CONTINUOUS
 10
17.737814154
 20
2.2249117066
 11
17.737814154
 21
2.3524650276
  0
LINE
  5
37F
100
AcDbEntity
  8
0
100
AcDbLine
 62
2
  6
CONTINUOUS
 10
17.737814154
 20
2.4087649542
 11
17.737814154
 21
2.4285200698
  0
LINE
  5
380
100
AcDbEntity
  8
0
100
AcDbLine
 62
2
  6
CONTINUOUS
 10
17.737814154
 20
2.4532700835
 11
17.737814154
 21
2.5783204031
  0
LINE
  5
381
100
AcDbEntity
  8
0
100
AcDbLine
 62
2
  6
CONTINUOUS
 10
17.7178141429
 20
2.2243809174
 11
17.7178141429
 21
2.3524650276
  0
LINE
  5
382
100
AcDbEntity
  8
0
100
AcDbLine
 62
2
  6
CONTINUOUS
 10
17.7178141429
 20
2.4278478026
 11
17.7178141429
 21
2.5788511924
  0
LINE
  5
383
100
AcDbEntity
  8
0
100
AcDbLine
 62
2
  6
CONTINUOUS
 10
17.6978141318
 20
2.2238501282
 11
17.6978141318
 21
2.3648303444
  0
LINE
  5
384
100
AcDbEntity
  8
0
100
AcDbLine
 62
2
  6
CONTINUOUS
 10
17.6978141318
 20
2.446930651
 11
17.6978141318
 21
2.5793819816
  0
LINE
  5
385
100
AcDbEntity
  8
0
100
AcDbLine
 62
2
  6
CONTINUOUS
 10
17.6778141207
 20
2.223319339
 11
17.6778141207
 21
2.3839131616
  0
LINE
  5
386
100
AcDbEntity
  8
0
100
AcDbLine
 62
2
  6
CONTINUOUS
 10
17.6778141207
 20
2.4532700835
 11
17.6778141207
 21
2.5799127708
  0
LINE
  5
387
100
AcDbEntity
  8
0
100
AcDbLine
 62
2
  6
CONTINUOUS
 10
17.6578141096
 20
2.2227885498
 11
17.6578141096
 21
2.3524650276
  0
LINE
  5
388
100
AcDbEntity
  8
0
100
AcDbLine
 62
2
  6
CONTINUOUS
 10
17.6578141096
 20
2.3772150414
 11
17.6578141096
 21
2.4029959788
  0
LINE
  5
389
100
AcDbEntity
  8
0
100
AcDbLine
 62
2
  6
CONTINUOUS
 10
17.6578141096
 20
2.4532700835
 11
17.6578141096
 21
2.58044356
  0
LINE
  5
38A
100
AcDbEntity
  8
0
100
AcDbLine
 62
2
  6
CONTINUOUS
 10
17.6378140985
 20
2.2222577606
 11
17.6378140985
 21
2.3524650276
  0
LINE
  5
38B
100
AcDbEntity
  8
0
100
AcDbLine
 62
2
  6
CONTINUOUS
 10
17.6378140985
 20
2.4532700835
 11
17.6378140985
 21
2.5809743492
  0
LINE
  5
38C
100
AcDbEntity
  8
0
100
AcDbLine
 62
2
  6
CONTINUOUS
 10
17.6178140874
 20
2.2217269714
 11
17.6178140874
 21
2.3524650276
  0
LINE
  5
38D
100
AcDbEntity
  8
0
100
AcDbLine
 62
2
  6
CONTINUOUS
 10
17.6178140874
 20
2.4532700835
 11
17.6178140874
 21
2.5815051384
  0
LINE
  5
38E
100
AcDbEntity
  8
0
100
AcDbLine
 62
2
  6
CONTINUOUS
 10
17.5978140764
 20
2.2215213152
 11
17.5978140764
 21
2.3524650276
  0
LINE
  5
38F
100
AcDbEntity
  8
0
100
AcDbLine
 62
2
  6
CONTINUOUS
 10
17.5978140764
 20
2.3772150414
 11
17.5978140764
 21
2.4285200698
  0
LINE
  5
390
100
AcDbEntity
  8
0
100
AcDbLine
 62
2
  6
CONTINUOUS
 10
17.5978140764
 20
2.4532700835
 11
17.5978140764
 21
2.5817107946
  0
LINE
  5
391
100
AcDbEntity
  8
0
100
AcDbLine
 62
2
  6
CONTINUOUS
 10
17.5778140653
 20
2.2216974783
 11
17.5778140653
 21
2.5815346315
  0
LINE
  5
392
100
AcDbEntity
  8
0
100
AcDbLine
 62
2
  6
CONTINUOUS
 10
17.5578140542
 20
2.2218736414
 11
17.5578140542
 21
2.4285200698
  0
LINE
  5
393
100
AcDbEntity
  8
0
100
AcDbLine
 62
2
  6
CONTINUOUS
 10
17.5578140542
 20
2.4532700835
 11
17.5578140542
 21
2.5813584684
  0
LINE
  5
394
100
AcDbEntity
  8
0
100
AcDbLine
 62
2
  6
CONTINUOUS
 10
17.5378140431
 20
2.2220498045
 11
17.5378140431
 21
2.3524700714
  0
LINE
  5
395
100
AcDbEntity
  8
0
100
AcDbLine
 62
2
  6
CONTINUOUS
 10
17.5378140431
 20
2.4532700835
 11
17.5378140431
 21
2.5811823053
  0
LINE
  5
396
100
AcDbEntity
  8
0
100
AcDbLine
 62
2
  6
CONTINUOUS
 10
17.517814032
 20
2.2222259676
 11
17.517814032
 21
2.3524650276
  0
LINE
  5
397
100
AcDbEntity
  8
0
100
AcDbLine
 62
2
  6
CONTINUOUS
 10
17.517814032
 20
2.4532700835
 11
17.517814032
 21
2.5810061422
  0
LINE
  5
398
100
AcDbEntity
  8
0
100
AcDbLine
 62
2
  6
CONTINUOUS
 10
17.4978140209
 20
2.2224021307
 11
17.4978140209
 21
2.3524650276
  0
LINE
  5
399
100
AcDbEntity
  8
0
100
AcDbLine
 62
2
  6
CONTINUOUS
 10
17.4978140209
 20
2.4008904169
 11
17.4978140209
 21
2.4285200698
  0
LINE
  5
39A
100
AcDbEntity
  8
0
100
AcDbLine
 62
2
  6
CONTINUOUS
 10
17.4978140209
 20
2.4532700835
 11
17.4978140209
 21
2.5808299791
  0
LINE
  5
39B
100
AcDbEntity
  8
0
100
AcDbLine
 62
2
  6
CONTINUOUS
 10
17.4778140098
 20
2.2225782938
 11
17.4778140098
 21
2.3524650276
  0
LINE
  5
39C
100
AcDbEntity
  8
0
100
AcDbLine
 62
2
  6
CONTINUOUS
 10
17.4778140098
 20
2.4199732652
 11
17.4778140098
 21
2.580653816
  0
LINE
  5
39D
100
AcDbEntity
  8
0
100
AcDbLine
 62
2
  6
CONTINUOUS
 10
17.4578139987
 20
2.2233466716
 11
17.4578139987
 21
2.3569558199
  0
LINE
  5
39E
100
AcDbEntity
  8
0
100
AcDbLine
 62
2
  6
CONTINUOUS
 10
17.4578139987
 20
2.4390561136
 11
17.4578139987
 21
2.5798854382
  0
LINE
  5
39F
100
AcDbEntity
  8
0
100
AcDbLine
 62
2
  6
CONTINUOUS
 10
17.4378139876
 20
2.2242391079
 11
17.4378139876
 21
2.3760386371
  0
LINE
  5
3A0
100
AcDbEntity
  8
0
100
AcDbLine
 62
2
  6
CONTINUOUS
 10
17.4378139876
 20
2.4532700835
 11
17.4378139876
 21
2.5789930018
  0
LINE
  5
3A1
100
AcDbEntity
  8
0
100
AcDbLine
 62
2
  6
CONTINUOUS
 10
17.4178139765
 20
2.2251315443
 11
17.4178139765
 21
2.3525640362
  0
LINE
  5
3A2
100
AcDbEntity
  8
0
100
AcDbLine
 62
2
  6
CONTINUOUS
 10
17.4178139765
 20
2.3771160328
 11
17.4178139765
 21
2.3951214543
  0
LINE
  5
3A3
100
AcDbEntity
  8
0
100
AcDbLine
 62
2
  6
CONTINUOUS
 10
17.4178139765
 20
2.4532700835
 11
17.4178139765
 21
2.5781005655
  0
LINE
  5
3A4
100
AcDbEntity
  8
0
100
AcDbLine
 62
2
  6
CONTINUOUS
 10
17.3978139654
 20
2.2260239807
 11
17.3978139654
 21
2.3524650276
  0
LINE
  5
3A5
100
AcDbEntity
  8
0
100
AcDbLine
 62
2
  6
CONTINUOUS
 10
17.3978139654
 20
2.3772150414
 11
17.3978139654
 21
2.4139978698
  0
LINE
  5
3A6
100
AcDbEntity
  8
0
100
AcDbLine
 62
2
  6
CONTINUOUS
 10
17.3978139654
 20
2.4532700835
 11
17.3978139654
 21
2.5772081291
  0
LINE
  5
3A7
100
AcDbEntity
  8
0
100
AcDbLine
 62
2
  6
CONTINUOUS
 10
17.3778139543
 20
2.226916417
 11
17.3778139543
 21
2.3524650276
  0
LINE
  5
3A8
100
AcDbEntity
  8
0
100
AcDbLine
 62
2
  6
CONTINUOUS
 10
17.3778139543
 20
2.4532700835
 11
17.3778139543
 21
2.5763156928
  0
LINE
  5
3A9
100
AcDbEntity
  8
0
100
AcDbLine
 62
2
  6
CONTINUOUS
 10
17.3578139433
 20
2.2278088534
 11
17.3578139433
 21
2.3524650276
  0
LINE
  5
3AA
100
AcDbEntity
  8
0
100
AcDbLine
 62
2
  6
CONTINUOUS
 10
17.3578139433
 20
2.3772150414
 11
17.3578139433
 21
2.4285200698
  0
LINE
  5
3AB
100
AcDbEntity
  8
0
100
AcDbLine
 62
2
  6
CONTINUOUS
 10
17.3578139433
 20
2.4532700835
 11
17.3578139433
 21
2.5754232564
  0
LINE
  5
3AC
100
AcDbEntity
  8
0
100
AcDbLine
 62
2
  6
CONTINUOUS
 10
17.3378139322
 20
2.2289481171
 11
17.3378139322
 21
2.5742839927
  0
LINE
  5
3AD
100
AcDbEntity
  8
0
100
AcDbLine
 62
2
  6
CONTINUOUS
 10
17.3178139211
 20
2.2306059865
 11
17.3178139211
 21
2.5726261233
  0
LINE
  5
3AE
100
AcDbEntity
  8
0
100
AcDbLine
 62
2
  6
CONTINUOUS
 10
17.29781391
 20
2.2322638559
 11
17.29781391
 21
2.3524650276
  0
LINE
  5
3AF
100
AcDbEntity
  8
0
100
AcDbLine
 62
2
  6
CONTINUOUS
 10
17.29781391
 20
2.3772150414
 11
17.29781391
 21
2.5709682538
  0
LINE
  5
3B0
100
AcDbEntity
  8
0
100
AcDbLine
 62
2
  6
CONTINUOUS
 10
17.2778138989
 20
2.2339217254
 11
17.2778138989
 21
2.3524650276
  0
LINE
  5
3B1
100
AcDbEntity
  8
0
100
AcDbLine
 62
2
  6
CONTINUOUS
 10
17.2778138989
 20
2.3963499423
 11
17.2778138989
 21
2.5693103844
  0
LINE
  5
3B2
100
AcDbEntity
  8
0
100
AcDbLine
 62
2
  6
CONTINUOUS
 10
17.2578138878
 20
2.2355795948
 11
17.2578138878
 21
2.3524650276
  0
LINE
  5
3B3
100
AcDbEntity
  8
0
100
AcDbLine
 62
2
  6
CONTINUOUS
 10
17.2578138878
 20
2.4272549766
 11
17.2578138878
 21
2.567652515
  0
LINE
  5
3B4
100
AcDbEntity
  8
0
100
AcDbLine
 62
2
  6
CONTINUOUS
 10
17.2378138767
 20
2.2372374642
 11
17.2378138767
 21
2.3524650276
  0
LINE
  5
3B5
100
AcDbEntity
  8
0
100
AcDbLine
 62
2
  6
CONTINUOUS
 10
17.2378138767
 20
2.4532700835
 11
17.2378138767
 21
2.5659946456
  0
LINE
  5
3B6
100
AcDbEntity
  8
0
100
AcDbLine
 62
2
  6
CONTINUOUS
 10
17.2178138656
 20
2.2389952421
 11
17.2178138656
 21
2.3524650276
  0
LINE
  5
3B7
100
AcDbEntity
  8
0
100
AcDbLine
 62
2
  6
CONTINUOUS
 10
17.2178138656
 20
2.3772150414
 11
17.2178138656
 21
2.3887495968
  0
LINE
  5
3B8
100
AcDbEntity
  8
0
100
AcDbLine
 62
2
  6
CONTINUOUS
 10
17.2178138656
 20
2.4532700835
 11
17.2178138656
 21
2.5642368677
  0
LINE
  5
3B9
100
AcDbEntity
  8
0
100
AcDbLine
 62
2
  6
CONTINUOUS
 10
17.1978138545
 20
2.2415190955
 11
17.1978138545
 21
2.3908590489
  0
LINE
  5
3BA
100
AcDbEntity
  8
0
100
AcDbLine
 62
2
  6
CONTINUOUS
 10
17.1978138545
 20
2.4118090605
 11
17.1978138545
 21
2.4279760695
  0
LINE
  5
3BB
100
AcDbEntity
  8
0
100
AcDbLine
 62
2
  6
CONTINUOUS
 10
17.1978138545
 20
2.4532700835
 11
17.1978138545
 21
2.5617130143
  0
LINE
  5
3BC
100
AcDbEntity
  8
0
100
AcDbLine
 62
2
  6
CONTINUOUS
 10
17.1778138434
 20
2.244042949
 11
17.1778138434
 21
2.3524650276
  0
LINE
  5
3BD
100
AcDbEntity
  8
0
100
AcDbLine
 62
2
  6
CONTINUOUS
 10
17.1778138434
 20
2.3772150414
 11
17.1778138434
 21
2.3892044865
  0
LINE
  5
3BE
100
AcDbEntity
  8
0
100
AcDbLine
 62
2
  6
CONTINUOUS
 10
17.1778138434
 20
2.4480979218
 11
17.1778138434
 21
2.5591891608
  0
LINE
  5
3BF
100
AcDbEntity
  8
0
100
AcDbLine
 62
2
  6
CONTINUOUS
 10
17.1578138323
 20
2.2465668024
 11
17.1578138323
 21
2.3524650276
  0
LINE
  5
3C0
100
AcDbEntity
  8
0
100
AcDbLine
 62
2
  6
CONTINUOUS
 10
17.1578138323
 20
2.4165778189
 11
17.1578138323
 21
2.5566653073
  0
LINE
  5
3C1
100
AcDbEntity
  8
0
100
AcDbLine
 62
2
  6
CONTINUOUS
 10
17.1378138213
 20
2.2490906559
 11
17.1378138213
 21
2.3524650276
  0
LINE
  5
3C2
100
AcDbEntity
  8
0
100
AcDbLine
 62
2
  6
CONTINUOUS
 10
17.1378138213
 20
2.3850577159
 11
17.1378138213
 21
2.5541414539
  0
LINE
  5
3C3
100
AcDbEntity
  8
0
100
AcDbLine
 62
2
  6
CONTINUOUS
 10
17.1178138102
 20
2.2516145094
 11
17.1178138102
 21
2.3524650276
  0
LINE
  5
3C4
100
AcDbEntity
  8
0
100
AcDbLine
 62
2
  6
CONTINUOUS
 10
17.1178138102
 20
2.3772150414
 11
17.1178138102
 21
2.5516176004
  0
LINE
  5
3C5
100
AcDbEntity
  8
0
100
AcDbLine
 62
2
  6
CONTINUOUS
 10
17.0978137991
 20
2.2544171186
 11
17.0978137991
 21
2.5488149912
  0
LINE
  5
3C6
100
AcDbEntity
  8
0
100
AcDbLine
 62
2
  6
CONTINUOUS
 10
17.077813788
 20
2.2577020445
 11
17.077813788
 21
2.362615113
  0
LINE
  5
3C7
100
AcDbEntity
  8
0
100
AcDbLine
 62
2
  6
CONTINUOUS
 10
17.077813788
 20
2.3938117115
 11
17.077813788
 21
2.4149601455
  0
LINE
  5
3C8
100
AcDbEntity
  8
0
100
AcDbLine
 62
2
  6
CONTINUOUS
 10
17.077813788
 20
2.4403850542
 11
17.077813788
 21
2.5455300653
  0
LINE
  5
3C9
100
AcDbEntity
  8
0
100
AcDbLine
 62
2
  6
CONTINUOUS
 10
17.0578137769
 20
2.2609869704
 11
17.0578137769
 21
2.3533399802
  0
LINE
  5
3CA
100
AcDbEntity
  8
0
100
AcDbLine
 62
2
  6
CONTINUOUS
 10
17.0578137769
 20
2.4508307102
 11
17.0578137769
 21
2.5422451394
  0
LINE
  5
3CB
100
AcDbEntity
  8
0
100
AcDbLine
 62
2
  6
CONTINUOUS
 10
17.0378137658
 20
2.2646895914
 11
17.0378137658
 21
2.3524650276
  0
LINE
  5
3CC
100
AcDbEntity
  8
0
100
AcDbLine
 62
2
  6
CONTINUOUS
 10
17.0378137658
 20
2.4532700835
 11
17.0378137658
 21
2.5385425184
  0
LINE
  5
3CD
100
AcDbEntity
  8
0
100
AcDbLine
 62
2
  6
CONTINUOUS
 10
17.0178137547
 20
2.2685623514
 11
17.0178137547
 21
2.3524650276
  0
LINE
  5
3CE
100
AcDbEntity
  8
0
100
AcDbLine
 62
2
  6
CONTINUOUS
 10
17.0178137547
 20
2.4532700835
 11
17.0178137547
 21
2.5346697584
  0
LINE
  5
3CF
100
AcDbEntity
  8
0
100
AcDbLine
 62
2
  6
CONTINUOUS
 10
16.9978137436
 20
2.2725871112
 11
16.9978137436
 21
2.3524650276
  0
LINE
  5
3D0
100
AcDbEntity
  8
0
100
AcDbLine
 62
2
  6
CONTINUOUS
 10
16.9978137436
 20
2.3772150414
 11
16.9978137436
 21
2.394540051
  0
LINE
  5
3D1
100
AcDbEntity
  8
0
100
AcDbLine
 62
2
  6
CONTINUOUS
 10
16.9978137436
 20
2.4111950602
 11
16.9978137436
 21
2.4285200698
  0
LINE
  5
3D2
100
AcDbEntity
  8
0
100
AcDbLine
 62
2
  6
CONTINUOUS
 10
16.9978137436
 20
2.4532700835
 11
16.9978137436
 21
2.5306449986
  0
LINE
  5
3D3
100
AcDbEntity
  8
0
100
AcDbLine
 62
2
  6
CONTINUOUS
 10
16.9778137325
 20
2.2771382649
 11
16.9778137325
 21
2.3524650276
  0
LINE
  5
3D4
100
AcDbEntity
  8
0
100
AcDbLine
 62
2
  6
CONTINUOUS
 10
16.9778137325
 20
2.3772150414
 11
16.9778137325
 21
2.394540051
  0
LINE
  5
3D5
100
AcDbEntity
  8
0
100
AcDbLine
 62
2
  6
CONTINUOUS
 10
16.9778137325
 20
2.4111950602
 11
16.9778137325
 21
2.4285200698
  0
LINE
  5
3D6
100
AcDbEntity
  8
0
100
AcDbLine
 62
2
  6
CONTINUOUS
 10
16.9778137325
 20
2.4532700835
 11
16.9778137325
 21
2.5260938449
  0
LINE
  5
3D7
100
AcDbEntity
  8
0
100
AcDbLine
 62
2
  6
CONTINUOUS
 10
16.9578137214
 20
2.2816894185
 11
16.9578137214
 21
2.3524650276
  0
LINE
  5
3D8
100
AcDbEntity
  8
0
100
AcDbLine
 62
2
  6
CONTINUOUS
 10
16.9578137214
 20
2.4532700835
 11
16.9578137214
 21
2.5215426913
  0
LINE
  5
3D9
100
AcDbEntity
  8
0
100
AcDbLine
 62
2
  6
CONTINUOUS
 10
16.9378137103
 20
2.2869815362
 11
16.9378137103
 21
2.3524650276
  0
LINE
  5
3DA
100
AcDbEntity
  8
0
100
AcDbLine
 62
2
  6
CONTINUOUS
 10
16.9378137103
 20
2.4532700835
 11
16.9378137103
 21
2.5162505736
  0
LINE
  5
3DB
100
AcDbEntity
  8
0
100
AcDbLine
 62
2
  6
CONTINUOUS
 10
16.9178136992
 20
2.2923355811
 11
16.9178136992
 21
2.3524650276
  0
LINE
  5
3DC
100
AcDbEntity
  8
0
100
AcDbLine
 62
2
  6
CONTINUOUS
 10
16.9178136992
 20
2.4532700835
 11
16.9178136992
 21
2.5108965286
  0
LINE
  5
3DD
100
AcDbEntity
  8
0
100
AcDbLine
 62
2
  6
CONTINUOUS
 10
16.8978136882
 20
2.2984943577
 11
16.8978136882
 21
2.3524650276
  0
LINE
  5
3DE
100
AcDbEntity
  8
0
100
AcDbLine
 62
2
  6
CONTINUOUS
 10
16.8978136882
 20
2.3772150414
 11
16.8978136882
 21
2.4285200698
  0
LINE
  5
3DF
100
AcDbEntity
  8
0
100
AcDbLine
 62
2
  6
CONTINUOUS
 10
16.8978136882
 20
2.4532700835
 11
16.8978136882
 21
2.5047377521
  0
LINE
  5
3E0
100
AcDbEntity
  8
0
100
AcDbLine
 62
2
  6
CONTINUOUS
 10
16.8778136771
 20
2.3048274854
 11
16.8778136771
 21
2.3524650276
  0
LINE
  5
3E1
100
AcDbEntity
  8
0
100
AcDbLine
 62
2
  6
CONTINUOUS
 10
16.8778136771
 20
2.3772150414
 11
16.8778136771
 21
2.4285200698
  0
LINE
  5
3E2
100
AcDbEntity
  8
0
100
AcDbLine
 62
2
  6
CONTINUOUS
 10
16.8778136771
 20
2.4532700835
 11
16.8778136771
 21
2.4984046244
  0
LINE
  5
3E3
100
AcDbEntity
  8
0
100
AcDbLine
 62
2
  6
CONTINUOUS
 10
16.857813666
 20
2.312318358
 11
16.857813666
 21
2.4909137517
  0
LINE
  5
3E4
100
AcDbEntity
  8
0
100
AcDbLine
 62
2
  6
CONTINUOUS
 10
16.8378136549
 20
2.3203393667
 11
16.8378136549
 21
2.4828927431
  0
LINE
  5
3E5
100
AcDbEntity
  8
0
100
AcDbLine
 62
2
  6
CONTINUOUS
 10
16.8178136438
 20
2.3295519864
 11
16.8178136438
 21
2.4736801234
  0
LINE
  5
3E6
100
AcDbEntity
  8
0
100
AcDbLine
 62
2
  6
CONTINUOUS
 10
16.7978136327
 20
2.3407309483
 11
16.7978136327
 21
2.4625011614
  0
LINE
  5
3E7
100
AcDbEntity
  8
0
100
AcDbLine
 62
2
  6
CONTINUOUS
 10
16.7778136216
 20
2.3546527809
 11
16.7778136216
 21
2.4485793288
  0
LINE
  5
3E8
100
AcDbEntity
  8
0
100
AcDbLine
 62
2
  6
CONTINUOUS
 10
16.7578136105
 20
2.3756826696
 11
16.7578136105
 21
2.4275494401
  0
ENDBLK
  5
3E9
100
AcDbEntity
  8
0
  6
BYBLOCK
 62
0
100
AcDbBlockEnd
  0
BLOCK
  5
3EA
100
AcDbEntity
  8
DRIVEN_DIMS
100
AcDbBlockBegin
 62
2
  6
CONTINUOUS
  2
*D0
 70
65
 10
0.0
 20
0.0
  3
*D0
  1

  0
TEXT
  5
3EB
100
AcDbEntity
  8
DRIVEN_DIMS
100
AcDbText
 62
2
  6
CONTINUOUS
 10
2.7626412594
 20
6.4398563486
  7
STANDARD
 40
0.1
  1
%%c
 41
1.3333333333
 72
0
100
AcDbText
  0
TEXT
  5
3EC
100
AcDbEntity
  8
DRIVEN_DIMS
100
AcDbText
 62
2
  6
CONTINUOUS
 10
2.8959745928
 20
6.4398563486
  7
STANDARD
 40
0.1
  1
66
 41
1.0
 72
0
100
AcDbText
  0
TEXT
  5
3ED
100
AcDbEntity
  8
DRIVEN_DIMS
100
AcDbText
 62
2
  6
CONTINUOUS
 10
2.9959745928
 20
6.2898563486
  7
STANDARD
 40
0.1
  1
2.60
 41
1.0
 72
0
100
AcDbText
  0
TEXT
  5
3EE
100
AcDbEntity
  8
DRIVEN_DIMS
100
AcDbText
 62
2
  6
CONTINUOUS
 10
2.8959745928
 20
6.2898563486
  7
STANDARD
 40
0.1
  1
[
 41
1.0
 72
0
100
AcDbText
  0
TEXT
  5
3EF
100
AcDbEntity
  8
DRIVEN_DIMS
100
AcDbText
 62
2
  6
CONTINUOUS
 10
3.3959745928
 20
6.2898563486
  7
STANDARD
 40
0.1
  1
]
 41
1.0
 72
0
100
AcDbText
  0
LINE
  5
3F0
100
AcDbEntity
  8
DRIVEN_DIMS
100
AcDbLine
 62
2
  6
CONTINUOUS
 10
5.1291230966
 20
5.3846717373
 11
3.7459745928
 21
6.4898563486
  0
LINE
  5
3F1
100
AcDbEntity
  8
DRIVEN_DIMS
100
AcDbLine
 62
2
  6
CONTINUOUS
 10
3.7459745928
 20
6.4898563486
 11
3.5959745928
 21
6.4898563486
  0
INSERT
  5
3F2
100
AcDbEntity
  8
DRIVEN_DIMS
100
AcDbBlockReference
 62
2
  6
CONTINUOUS
  2
_FILLED
 10
5.1291230966
 20
5.3846717373
 41
0.1875
 42
0.1875
 43
0.1875
 50
321.3739074772
  0
ENDBLK
  5
3F3
100
AcDbEntity
  8
0
  6
BYBLOCK
 62
0
100
AcDbBlockEnd
  0
BLOCK
  5
3F4
100
AcDbEntity
  8
SCHEME_DIMS
100
AcDbBlockBegin
 62
2
  6
CONTINUOUS
  2
*D1
 70
65
 10
0.0
 20
0.0
  3
*D1
  1

  0
TEXT
  5
3F5
100
AcDbEntity
  8
SCHEME_DIMS
100
AcDbText
 62
2
  6
CONTINUOUS
 10
13.5308036624
 20
10.7532760259
  7
STANDARD
 40
0.1
  1
107
 41
1.0
 72
0
100
AcDbText
  0
TEXT
  5
3F6
100
AcDbEntity
  8
SCHEME_DIMS
100
AcDbText
 62
2
  6
CONTINUOUS
 10
13.6308036624
 20
10.6032760259
  7
STANDARD
 40
0.1
  1
4.21
 41
1.0
 72
0
100
AcDbText
  0
TEXT
  5
3F7
100
AcDbEntity
  8
SCHEME_DIMS
100
AcDbText
 62
2
  6
CONTINUOUS
 10
13.5308036624
 20
10.6032760259
  7
STANDARD
 40
0.1
  1
[
 41
1.0
 72
0
100
AcDbText
  0
TEXT
  5
3F8
100
AcDbEntity
  8
SCHEME_DIMS
100
AcDbText
 62
2
  6
CONTINUOUS
 10
14.0308036624
 20
10.6032760259
  7
STANDARD
 40
0.1
  1
]
 41
1.0
 72
0
100
AcDbText
  0
LINE
  5
3F9
100
AcDbEntity
  8
SCHEME_DIMS
100
AcDbLine
 62
2
  6
CONTINUOUS
 10
13.3729224089
 20
8.6219768133
 11
13.9558036624
 21
8.6219768133
  0
LINE
  5
3FA
100
AcDbEntity
  8
SCHEME_DIMS
100
AcDbLine
 62
2
  6
CONTINUOUS
 10
13.4078983086
 20
12.8345752385
 11
13.9558036624
 21
12.8345752385
  0
LINE
  5
3FB
100
AcDbEntity
  8
SCHEME_DIMS
100
AcDbLine
 62
2
  6
CONTINUOUS
 10
13.8308036624
 20
8.6219768133
 11
13.8308036624
 21
10.5032760259
  0
LINE
  5
3FC
100
AcDbEntity
  8
SCHEME_DIMS
100
AcDbLine
 62
2
  6
CONTINUOUS
 10
13.8308036624
 20
12.8345752385
 11
13.8308036624
 21
10.9532760259
  0
INSERT
  5
3FD
100
AcDbEntity
  8
SCHEME_DIMS
100
AcDbBlockReference
 62
2
  6
CONTINUOUS
  2
_FILLED
 10
13.8308036624
 20
8.6219768133
 41
0.1875
 42
0.1875
 43
0.1875
 50
270.0
  0
INSERT
  5
3FE
100
AcDbEntity
  8
SCHEME_DIMS
100
AcDbBlockReference
 62
2
  6
CONTINUOUS
  2
_FILLED
 10
13.8308036624
 20
12.8345752385
 41
0.1875
 42
0.1875
 43
0.1875
 50
90.0
  0
ENDBLK
  5
3FF
100
AcDbEntity
  8
0
  6
BYBLOCK
 62
0
100
AcDbBlockEnd
  0
BLOCK
  5
400
100
AcDbEntity
  8
SCHEME_DIMS
100
AcDbBlockBegin
 62
2
  6
CONTINUOUS
  2
*D2
 70
65
 10
0.0
 20
0.0
  3
*D2
  1

  0
TEXT
  5
401
100
AcDbEntity
  8
SCHEME_DIMS
100
AcDbText
 62
2
  6
CONTINUOUS
 10
12.3615123238
 20
8.0719768133
  7
STANDARD
 40
0.1
  1
34
 41
1.0
 72
0
100
AcDbText
  0
TEXT
  5
402
100
AcDbEntity
  8
SCHEME_DIMS
100
AcDbText
 62
2
  6
CONTINUOUS
 10
12.4615123238
 20
7.9219768133
  7
STANDARD
 40
0.1
  1
1.34
 41
1.0
 72
0
100
AcDbText
  0
TEXT
  5
403
100
AcDbEntity
  8
SCHEME_DIMS
100
AcDbText
 62
2
  6
CONTINUOUS
 10
12.3615123238
 20
7.9219768133
  7
STANDARD
 40
0.1
  1
[
 41
1.0
 72
0
100
AcDbText
  0
TEXT
  5
404
100
AcDbEntity
  8
SCHEME_DIMS
100
AcDbText
 62
2
  6
CONTINUOUS
 10
12.8615123238
 20
7.9219768133
  7
STANDARD
 40
0.1
  1
]
 41
1.0
 72
0
100
AcDbText
  0
LINE
  5
405
100
AcDbEntity
  8
SCHEME_DIMS
100
AcDbLine
 62
2
  6
CONTINUOUS
 10
13.3308036624
 20
8.6018445923
 11
13.3308036624
 21
7.9969768133
  0
LINE
  5
406
100
AcDbEntity
  8
SCHEME_DIMS
100
AcDbLine
 62
2
  6
CONTINUOUS
 10
11.9922209852
 20
8.5553020866
 11
11.9922209852
 21
7.9969768133
  0
LINE
  5
407
100
AcDbEntity
  8
SCHEME_DIMS
100
AcDbLine
 62
2
  6
CONTINUOUS
 10
13.3308036624
 20
8.1219768133
 11
13.0615123238
 21
8.1219768133
  0
LINE
  5
408
100
AcDbEntity
  8
SCHEME_DIMS
100
AcDbLine
 62
2
  6
CONTINUOUS
 10
11.9922209852
 20
8.1219768133
 11
12.2615123238
 21
8.1219768133
  0
INSERT
  5
409
100
AcDbEntity
  8
SCHEME_DIMS
100
AcDbBlockReference
 62
2
  6
CONTINUOUS
  2
_FILLED
 10
13.3308036624
 20
8.1219768133
 41
0.1875
 42
0.1875
 43
0.1875
  0
INSERT
  5
40A
100
AcDbEntity
  8
SCHEME_DIMS
100
AcDbBlockReference
 62
2
  6
CONTINUOUS
  2
_FILLED
 10
11.9922209852
 20
8.1219768133
 41
0.1875
 42
0.1875
 43
0.1875
 50
180.0
  0
ENDBLK
  5
40B
100
AcDbEntity
  8
0
  6
BYBLOCK
 62
0
100
AcDbBlockEnd
  0
BLOCK
  5
40C
100
AcDbEntity
  8
SCHEME_DIMS
100
AcDbBlockBegin
 62
2
  6
CONTINUOUS
  2
*D3
 70
65
 10
0.0
 20
0.0
  3
*D3
  1

  0
TEXT
  5
40D
100
AcDbEntity
  8
SCHEME_DIMS
100
AcDbText
 62
2
  6
CONTINUOUS
 10
11.9333627175
 20
13.2845752385
  7
STANDARD
 40
0.1
  1
12
 41
1.0
 72
0
100
AcDbText
  0
TEXT
  5
40E
100
AcDbEntity
  8
SCHEME_DIMS
100
AcDbText
 62
2
  6
CONTINUOUS
 10
12.0333627175
 20
13.1345752385
  7
STANDARD
 40
0.1
  1
.47
 41
1.0
 72
0
100
AcDbText
  0
TEXT
  5
40F
100
AcDbEntity
  8
SCHEME_DIMS
100
AcDbText
 62
2
  6
CONTINUOUS
 10
11.9333627175
 20
13.1345752385
  7
STANDARD
 40
0.1
  1
[
 41
1.0
 72
0
100
AcDbText
  0
TEXT
  5
410
100
AcDbEntity
  8
SCHEME_DIMS
100
AcDbText
 62
2
  6
CONTINUOUS
 10
12.3333627175
 20
13.1345752385
  7
STANDARD
 40
0.1
  1
]
 41
1.0
 72
0
100
AcDbText
  0
LINE
  5
411
100
AcDbEntity
  8
SCHEME_DIMS
100
AcDbLine
 62
2
  6
CONTINUOUS
 10
13.3308036624
 20
12.8970752385
 11
13.3308036624
 21
13.4595752385
  0
LINE
  5
412
100
AcDbEntity
  8
SCHEME_DIMS
100
AcDbLine
 62
2
  6
CONTINUOUS
 10
12.8583627175
 20
12.808687336
 11
12.8583627175
 21
13.4595752385
  0
LINE
  5
413
100
AcDbEntity
  8
SCHEME_DIMS
100
AcDbLine
 62
2
  6
CONTINUOUS
 10
13.3308036624
 20
13.3345752385
 11
13.0945831899
 21
13.3345752385
  0
LINE
  5
414
100
AcDbEntity
  8
SCHEME_DIMS
100
AcDbLine
 62
2
  6
CONTINUOUS
 10
12.8583627175
 20
13.3345752385
 11
13.0945831899
 21
13.3345752385
  0
LINE
  5
415
100
AcDbEntity
  8
SCHEME_DIMS
100
AcDbLine
 62
2
  6
CONTINUOUS
 10
13.0945831899
 20
13.3345752385
 11
12.5333627175
 21
13.3345752385
  0
INSERT
  5
416
100
AcDbEntity
  8
SCHEME_DIMS
100
AcDbBlockReference
 62
2
  6
CONTINUOUS
  2
_FILLED
 10
13.3308036624
 20
13.3345752385
 41
0.1875
 42
0.1875
 43
0.1875
  0
INSERT
  5
417
100
AcDbEntity
  8
SCHEME_DIMS
100
AcDbBlockReference
 62
2
  6
CONTINUOUS
  2
_FILLED
 10
12.8583627175
 20
13.3345752385
 41
0.1875
 42
0.1875
 43
0.1875
 50
180.0
  0
ENDBLK
  5
418
100
AcDbEntity
  8
0
  6
BYBLOCK
 62
0
100
AcDbBlockEnd
  0
BLOCK
  5
419
100
AcDbEntity
  8
SCHEME_DIMS
100
AcDbBlockBegin
 62
2
  6
CONTINUOUS
  2
*D4
 70
65
 10
0.0
 20
0.0
  3
*D4
  1

  0
TEXT
  5
41A
100
AcDbEntity
  8
SCHEME_DIMS
100
AcDbText
 62
2
  6
CONTINUOUS
 10
5.8441151091
 20
2.5256256974
  7
STANDARD
 40
0.1
  1
110
 41
1.0
 72
0
100
AcDbText
  0
TEXT
  5
41B
100
AcDbEntity
  8
SCHEME_DIMS
100
AcDbText
 62
2
  6
CONTINUOUS
 10
5.9441151091
 20
2.3756256974
  7
STANDARD
 40
0.1
  1
4.33
 41
1.0
 72
0
100
AcDbText
  0
TEXT
  5
41C
100
AcDbEntity
  8
SCHEME_DIMS
100
AcDbText
 62
2
  6
CONTINUOUS
 10
5.8441151091
 20
2.3756256974
  7
STANDARD
 40
0.1
  1
[
 41
1.0
 72
0
100
AcDbText
  0
TEXT
  5
41D
100
AcDbEntity
  8
SCHEME_DIMS
100
AcDbText
 62
2
  6
CONTINUOUS
 10
6.3441151091
 20
2.3756256974
  7
STANDARD
 40
0.1
  1
]
 41
1.0
 72
0
100
AcDbText
  0
LINE
  5
41E
100
AcDbEntity
  8
SCHEME_DIMS
100
AcDbLine
 62
2
  6
CONTINUOUS
 10
8.3094694398
 20
3.8131846061
 11
8.3094694398
 21
3.4263623201
  0
LINE
  5
41F
100
AcDbEntity
  8
SCHEME_DIMS
100
AcDbLine
 62
2
  6
CONTINUOUS
 10
8.3094694398
 20
3.2293060298
 11
8.3094694398
 21
2.4506256974
  0
LINE
  5
420
100
AcDbEntity
  8
SCHEME_DIMS
100
AcDbLine
 62
2
  6
CONTINUOUS
 10
3.9787607784
 20
3.8492373258
 11
3.9787607784
 21
3.3201983383
  0
LINE
  5
421
100
AcDbEntity
  8
SCHEME_DIMS
100
AcDbLine
 62
2
  6
CONTINUOUS
 10
3.9787607784
 20
3.2059610316
 11
3.9787607784
 21
2.4506256974
  0
LINE
  5
422
100
AcDbEntity
  8
SCHEME_DIMS
100
AcDbLine
 62
2
  6
CONTINUOUS
 10
8.3094694398
 20
2.5756256974
 11
6.5441151091
 21
2.5756256974
  0
LINE
  5
423
100
AcDbEntity
  8
SCHEME_DIMS
100
AcDbLine
 62
2
  6
CONTINUOUS
 10
3.9787607784
 20
2.5756256974
 11
5.7441151091
 21
2.5756256974
  0
INSERT
  5
424
100
AcDbEntity
  8
SCHEME_DIMS
100
AcDbBlockReference
 62
2
  6
CONTINUOUS
  2
_FILLED
 10
8.3094694398
 20
2.5756256974
 41
0.1875
 42
0.1875
 43
0.1875
  0
INSERT
  5
425
100
AcDbEntity
  8
SCHEME_DIMS
100
AcDbBlockReference
 62
2
  6
CONTINUOUS
  2
_FILLED
 10
3.9787607784
 20
2.5756256974
 41
0.1875
 42
0.1875
 43
0.1875
 50
180.0
  0
ENDBLK
  5
426
100
AcDbEntity
  8
0
  6
BYBLOCK
 62
0
100
AcDbBlockEnd
  0
BLOCK
  5
427
100
AcDbEntity
  8
SCHEME_DIMS
100
AcDbBlockBegin
 62
2
  6
CONTINUOUS
  2
*D5
 70
65
 10
0.0
 20
0.0
  3
*D5
  1

  0
TEXT
  5
428
100
AcDbEntity
  8
SCHEME_DIMS
100
AcDbText
 62
2
  6
CONTINUOUS
 10
5.8441151091
 20
6.7216614707
  7
STANDARD
 40
0.1
  1
102
 41
1.0
 72
0
100
AcDbText
  0
TEXT
  5
429
100
AcDbEntity
  8
SCHEME_DIMS
100
AcDbText
 62
2
  6
CONTINUOUS
 10
5.9441151091
 20
6.5716614707
  7
STANDARD
 40
0.1
  1
4.02
 41
1.0
 72
0
100
AcDbText
  0
TEXT
  5
42A
100
AcDbEntity
  8
SCHEME_DIMS
100
AcDbText
 62
2
  6
CONTINUOUS
 10
5.8441151091
 20
6.5716614707
  7
STANDARD
 40
0.1
  1
[
 41
1.0
 72
0
100
AcDbText
  0
TEXT
  5
42B
100
AcDbEntity
  8
SCHEME_DIMS
100
AcDbText
 62
2
  6
CONTINUOUS
 10
6.3441151091
 20
6.5716614707
  7
STANDARD
 40
0.1
  1
]
 41
1.0
 72
0
100
AcDbText
  0
LINE
  5
42C
100
AcDbEntity
  8
SCHEME_DIMS
100
AcDbLine
 62
2
  6
CONTINUOUS
 10
8.1519891249
 20
5.0692280596
 11
8.1519891249
 21
5.2844845342
  0
LINE
  5
42D
100
AcDbEntity
  8
SCHEME_DIMS
100
AcDbLine
 62
2
  6
CONTINUOUS
 10
8.1519891249
 20
5.368123627
 11
8.1519891249
 21
6.8966614707
  0
LINE
  5
42E
100
AcDbEntity
  8
SCHEME_DIMS
100
AcDbLine
 62
2
  6
CONTINUOUS
 10
4.1362410934
 20
5.0692280596
 11
4.1362410934
 21
5.6637629812
  0
LINE
  5
42F
100
AcDbEntity
  8
SCHEME_DIMS
100
AcDbLine
 62
2
  6
CONTINUOUS
 10
4.1362410934
 20
5.7898236189
 11
4.1362410934
 21
6.1329496069
  0
LINE
  5
430
100
AcDbEntity
  8
SCHEME_DIMS
100
AcDbLine
 62
2
  6
CONTINUOUS
 10
4.1362410934
 20
6.2487965371
 11
4.1362410934
 21
6.8966614707
  0
LINE
  5
431
100
AcDbEntity
  8
SCHEME_DIMS
100
AcDbLine
 62
2
  6
CONTINUOUS
 10
8.1519891249
 20
6.7716614707
 11
6.5441151091
 21
6.7716614707
  0
LINE
  5
432
100
AcDbEntity
  8
SCHEME_DIMS
100
AcDbLine
 62
2
  6
CONTINUOUS
 10
4.1362410934
 20
6.7716614707
 11
5.7441151091
 21
6.7716614707
  0
INSERT
  5
433
100
AcDbEntity
  8
SCHEME_DIMS
100
AcDbBlockReference
 62
2
  6
CONTINUOUS
  2
_FILLED
 10
8.1519891249
 20
6.7716614707
 41
0.1875
 42
0.1875
 43
0.1875
  0
INSERT
  5
434
100
AcDbEntity
  8
SCHEME_DIMS
100
AcDbBlockReference
 62
2
  6
CONTINUOUS
  2
_FILLED
 10
4.1362410934
 20
6.7716614707
 41
0.1875
 42
0.1875
 43
0.1875
 50
180.0
  0
ENDBLK
  5
435
100
AcDbEntity
  8
0
  6
BYBLOCK
 62
0
100
AcDbBlockEnd
  0
BLOCK
  5
436
100
AcDbEntity
  8
SCHEME_DIMS
100
AcDbBlockBegin
 62
2
  6
CONTINUOUS
  2
*D6
 70
65
 10
0.0
 20
0.0
  3
*D6
  1

  0
TEXT
  5
437
100
AcDbEntity
  8
SCHEME_DIMS
100
AcDbText
 62
2
  6
CONTINUOUS
 10
3.2287607784
 20
4.5986571935
  7
STANDARD
 40
0.1
  1
17,1
 41
1.0
 72
0
100
AcDbText
  0
TEXT
  5
438
100
AcDbEntity
  8
SCHEME_DIMS
100
AcDbText
 62
2
  6
CONTINUOUS
 10
3.3287607784
 20
4.4486571935
  7
STANDARD
 40
0.1
  1
.67
 41
1.0
 72
0
100
AcDbText
  0
TEXT
  5
439
100
AcDbEntity
  8
SCHEME_DIMS
100
AcDbText
 62
2
  6
CONTINUOUS
 10
3.2287607784
 20
4.4486571935
  7
STANDARD
 40
0.1
  1
[
 41
1.0
 72
0
100
AcDbText
  0
TEXT
  5
43A
100
AcDbEntity
  8
SCHEME_DIMS
100
AcDbText
 62
2
  6
CONTINUOUS
 10
3.6287607784
 20
4.4486571935
  7
STANDARD
 40
0.1
  1
]
 41
1.0
 72
0
100
AcDbText
  0
LINE
  5
43B
100
AcDbEntity
  8
SCHEME_DIMS
100
AcDbLine
 62
2
  6
CONTINUOUS
 10
4.6380894293
 20
4.2373962294
 11
3.3537607784
 21
4.2373962294
  0
LINE
  5
43C
100
AcDbEntity
  8
SCHEME_DIMS
100
AcDbLine
 62
2
  6
CONTINUOUS
 10
4.6380894293
 20
4.9099181576
 11
3.3537607784
 21
4.9099181576
  0
LINE
  5
43D
100
AcDbEntity
  8
SCHEME_DIMS
100
AcDbLine
 62
2
  6
CONTINUOUS
 10
3.4787607784
 20
4.2373962294
 11
3.4787607784
 21
3.8373962294
  0
LINE
  5
43E
100
AcDbEntity
  8
SCHEME_DIMS
100
AcDbLine
 62
2
  6
CONTINUOUS
 10
3.4787607784
 20
4.9099181576
 11
3.4787607784
 21
5.3099181576
  0
INSERT
  5
43F
100
AcDbEntity
  8
SCHEME_DIMS
100
AcDbBlockReference
 62
2
  6
CONTINUOUS
  2
_FILLED
 10
3.4787607784
 20
4.2373962294
 41
0.1875
 42
0.1875
 43
0.1875
 50
90.0
  0
INSERT
  5
440
100
AcDbEntity
  8
SCHEME_DIMS
100
AcDbBlockReference
 62
2
  6
CONTINUOUS
  2
_FILLED
 10
3.4787607784
 20
4.9099181576
 41
0.1875
 42
0.1875
 43
0.1875
 50
270.0
  0
ENDBLK
  5
441
100
AcDbEntity
  8
0
  6
BYBLOCK
 62
0
100
AcDbBlockEnd
  0
BLOCK
  5
442
100
AcDbEntity
  8
SCHEME_DIMS
100
AcDbBlockBegin
 62
2
  6
CONTINUOUS
  2
*D7
 70
65
 10
0.0
 20
0.0
  3
*D7
  1

  0
TEXT
  5
443
100
AcDbEntity
  8
SCHEME_DIMS
100
AcDbText
 62
2
  6
CONTINUOUS
 10
8.5594694398
 20
4.2246414455
  7
STANDARD
 40
0.1
  1
19
 41
1.0
 72
0
100
AcDbText
  0
TEXT
  5
444
100
AcDbEntity
  8
SCHEME_DIMS
100
AcDbText
 62
2
  6
CONTINUOUS
 10
8.6594694398
 20
4.0746414455
  7
STANDARD
 40
0.1
  1
.75
 41
1.0
 72
0
100
AcDbText
  0
TEXT
  5
445
100
AcDbEntity
  8
SCHEME_DIMS
100
AcDbText
 62
2
  6
CONTINUOUS
 10
8.5594694398
 20
4.0746414455
  7
STANDARD
 40
0.1
  1
[
 41
1.0
 72
0
100
AcDbText
  0
TEXT
  5
446
100
AcDbEntity
  8
SCHEME_DIMS
100
AcDbText
 62
2
  6
CONTINUOUS
 10
8.9594694398
 20
4.0746414455
  7
STANDARD
 40
0.1
  1
]
 41
1.0
 72
0
100
AcDbText
  0
LINE
  5
447
100
AcDbEntity
  8
SCHEME_DIMS
100
AcDbLine
 62
2
  6
CONTINUOUS
 10
8.3347519521
 20
3.8256256974
 11
8.9344694398
 21
3.8256256974
  0
LINE
  5
448
100
AcDbEntity
  8
SCHEME_DIMS
100
AcDbLine
 62
2
  6
CONTINUOUS
 10
7.497559991
 20
4.5736571935
 11
8.9344694398
 21
4.5736571935
  0
LINE
  5
449
100
AcDbEntity
  8
SCHEME_DIMS
100
AcDbLine
 62
2
  6
CONTINUOUS
 10
8.8094694398
 20
3.8256256974
 11
8.8094694398
 21
3.4256256974
  0
LINE
  5
44A
100
AcDbEntity
  8
SCHEME_DIMS
100
AcDbLine
 62
2
  6
CONTINUOUS
 10
8.8094694398
 20
4.5736571935
 11
8.8094694398
 21
4.9736571935
  0
INSERT
  5
44B
100
AcDbEntity
  8
SCHEME_DIMS
100
AcDbBlockReference
 62
2
  6
CONTINUOUS
  2
_FILLED
 10
8.8094694398
 20
3.8256256974
 41
0.1875
 42
0.1875
 43
0.1875
 50
90.0
  0
INSERT
  5
44C
100
AcDbEntity
  8
SCHEME_DIMS
100
AcDbBlockReference
 62
2
  6
CONTINUOUS
  2
_FILLED
 10
8.8094694398
 20
4.5736571935
 41
0.1875
 42
0.1875
 43
0.1875
 50
270.0
  0
ENDBLK
  5
44D
100
AcDbEntity
  8
0
  6
BYBLOCK
 62
0
100
AcDbBlockEnd
  0
BLOCK
  5
44E
100
AcDbEntity
  8
SCHEME_DIMS
100
AcDbBlockBegin
 62
2
  6
CONTINUOUS
  2
*D8
 70
65
 10
0.0
 20
0.0
  3
*D8
  1

  0
TEXT
  5
44F
100
AcDbEntity
  8
SCHEME_DIMS
100
AcDbText
 62
2
  6
CONTINUOUS
 10
6.848052117
 20
5.9716614707
  7
STANDARD
 40
0.1
  1
51
 41
1.0
 72
0
100
AcDbText
  0
TEXT
  5
450
100
AcDbEntity
  8
SCHEME_DIMS
100
AcDbText
 62
2
  6
CONTINUOUS
 10
6.948052117
 20
5.8216614707
  7
STANDARD
 40
0.1
  1
2.01
 41
1.0
 72
0
100
AcDbText
  0
TEXT
  5
451
100
AcDbEntity
  8
SCHEME_DIMS
100
AcDbText
 62
2
  6
CONTINUOUS
 10
6.848052117
 20
5.8216614707
  7
STANDARD
 40
0.1
  1
[
 41
1.0
 72
0
100
AcDbText
  0
TEXT
  5
452
100
AcDbEntity
  8
SCHEME_DIMS
100
AcDbText
 62
2
  6
CONTINUOUS
 10
7.348052117
 20
5.8216614707
  7
STANDARD
 40
0.1
  1
]
 41
1.0
 72
0
100
AcDbText
  0
LINE
  5
453
100
AcDbEntity
  8
SCHEME_DIMS
100
AcDbLine
 62
2
  6
CONTINUOUS
 10
8.1519891249
 20
5.0692280596
 11
8.1519891249
 21
5.2335050945
  0
LINE
  5
454
100
AcDbEntity
  8
SCHEME_DIMS
100
AcDbLine
 62
2
  6
CONTINUOUS
 10
8.1519891249
 20
5.3414160173
 11
8.1519891249
 21
6.1466614707
  0
LINE
  5
455
100
AcDbEntity
  8
SCHEME_DIMS
100
AcDbLine
 62
2
  6
CONTINUOUS
 10
6.1441151091
 20
5.3267083746
 11
6.1441151091
 21
6.1466614707
  0
LINE
  5
456
100
AcDbEntity
  8
SCHEME_DIMS
100
AcDbLine
 62
2
  6
CONTINUOUS
 10
8.1519891249
 20
6.0216614707
 11
7.548052117
 21
6.0216614707
  0
LINE
  5
457
100
AcDbEntity
  8
SCHEME_DIMS
100
AcDbLine
 62
2
  6
CONTINUOUS
 10
6.1441151091
 20
6.0216614707
 11
6.748052117
 21
6.0216614707
  0
INSERT
  5
458
100
AcDbEntity
  8
SCHEME_DIMS
100
AcDbBlockReference
 62
2
  6
CONTINUOUS
  2
_FILLED
 10
8.1519891249
 20
6.0216614707
 41
0.1875
 42
0.1875
 43
0.1875
  0
INSERT
  5
459
100
AcDbEntity
  8
SCHEME_DIMS
100
AcDbBlockReference
 62
2
  6
CONTINUOUS
  2
_FILLED
 10
6.1441151091
 20
6.0216614707
 41
0.1875
 42
0.1875
 43
0.1875
 50
180.0
  0
ENDBLK
  5
45A
100
AcDbEntity
  8
0
  6
BYBLOCK
 62
0
100
AcDbBlockEnd
  0
BLOCK
  5
45B
100
AcDbEntity
  8
SCHEME_DIMS
100
AcDbBlockBegin
 62
2
  6
CONTINUOUS
  2
*D9
 70
65
 10
0.0
 20
0.0
  3
*D9
  1

  0
TEXT
  5
45C
100
AcDbEntity
  8
SCHEME_DIMS
100
AcDbText
 62
2
  6
CONTINUOUS
 10
5.8441151091
 20
6.3466614707
  7
STANDARD
 40
0.1
  1
63,8
 41
1.0
 72
0
100
AcDbText
  0
TEXT
  5
45D
100
AcDbEntity
  8
SCHEME_DIMS
100
AcDbText
 62
2
  6
CONTINUOUS
 10
5.9441151091
 20
6.1966614707
  7
STANDARD
 40
0.1
  1
2.51
 41
1.0
 72
0
100
AcDbText
  0
TEXT
  5
45E
100
AcDbEntity
  8
SCHEME_DIMS
100
AcDbText
 62
2
  6
CONTINUOUS
 10
5.8441151091
 20
6.1966614707
  7
STANDARD
 40
0.1
  1
[
 41
1.0
 72
0
100
AcDbText
  0
TEXT
  5
45F
100
AcDbEntity
  8
SCHEME_DIMS
100
AcDbText
 62
2
  6
CONTINUOUS
 10
6.3441151091
 20
6.1966614707
  7
STANDARD
 40
0.1
  1
]
 41
1.0
 72
0
100
AcDbText
  0
LINE
  5
460
100
AcDbEntity
  8
SCHEME_DIMS
100
AcDbLine
 62
2
  6
CONTINUOUS
 10
7.3990581118
 20
5.1610008348
 11
7.3990581118
 21
5.7547289191
  0
LINE
  5
461
100
AcDbEntity
  8
SCHEME_DIMS
100
AcDbLine
 62
2
  6
CONTINUOUS
 10
7.3990581118
 20
6.0710166422
 11
7.3990581118
 21
6.5216614707
  0
LINE
  5
462
100
AcDbEntity
  8
SCHEME_DIMS
100
AcDbLine
 62
2
  6
CONTINUOUS
 10
4.8891721065
 20
5.1610008348
 11
4.8891721065
 21
5.2600433803
  0
LINE
  5
463
100
AcDbEntity
  8
SCHEME_DIMS
100
AcDbLine
 62
2
  6
CONTINUOUS
 10
4.8891721065
 20
5.3323593683
 11
4.8891721065
 21
5.5338612774
  0
LINE
  5
464
100
AcDbEntity
  8
SCHEME_DIMS
100
AcDbLine
 62
2
  6
CONTINUOUS
 10
4.8891721065
 20
5.6067398894
 11
4.8891721065
 21
6.5216614707
  0
LINE
  5
465
100
AcDbEntity
  8
SCHEME_DIMS
100
AcDbLine
 62
2
  6
CONTINUOUS
 10
7.3990581118
 20
6.3966614707
 11
6.5441151091
 21
6.3966614707
  0
LINE
  5
466
100
AcDbEntity
  8
SCHEME_DIMS
100
AcDbLine
 62
2
  6
CONTINUOUS
 10
4.8891721065
 20
6.3966614707
 11
5.7441151091
 21
6.3966614707
  0
INSERT
  5
467
100
AcDbEntity
  8
SCHEME_DIMS
100
AcDbBlockReference
 62
2
  6
CONTINUOUS
  2
_FILLED
 10
7.3990581118
 20
6.3966614707
 41
0.1875
 42
0.1875
 43
0.1875
  0
INSERT
  5
468
100
AcDbEntity
  8
SCHEME_DIMS
100
AcDbBlockReference
 62
2
  6
CONTINUOUS
  2
_FILLED
 10
4.8891721065
 20
6.3966614707
 41
0.1875
 42
0.1875
 43
0.1875
 50
180.0
  0
ENDBLK
  5
469
100
AcDbEntity
  8
0
  6
BYBLOCK
 62
0
100
AcDbBlockEnd
  0
BLOCK
  5
46A
100
AcDbEntity
  8
SCHEME_DIMS
100
AcDbBlockBegin
 62
2
  6
CONTINUOUS
  2
*D10
 70
65
 10
0.0
 20
0.0
  3
*D10
  1

  0
TEXT
  5
46B
100
AcDbEntity
  8
SCHEME_DIMS
100
AcDbText
 62
2
  6
CONTINUOUS
 10
5.8441151091
 20
2.9006256974
  7
STANDARD
 40
0.1
  1
56
 41
1.0
 72
0
100
AcDbText
  0
TEXT
  5
46C
100
AcDbEntity
  8
SCHEME_DIMS
100
AcDbText
 62
2
  6
CONTINUOUS
 10
5.9441151091
 20
2.7506256974
  7
STANDARD
 40
0.1
  1
2.20
 41
1.0
 72
0
100
AcDbText
  0
TEXT
  5
46D
100
AcDbEntity
  8
SCHEME_DIMS
100
AcDbText
 62
2
  6
CONTINUOUS
 10
5.8441151091
 20
2.7506256974
  7
STANDARD
 40
0.1
  1
[
 41
1.0
 72
0
100
AcDbText
  0
TEXT
  5
46E
100
AcDbEntity
  8
SCHEME_DIMS
100
AcDbText
 62
2
  6
CONTINUOUS
 10
6.3441151091
 20
2.7506256974
  7
STANDARD
 40
0.1
  1
]
 41
1.0
 72
0
100
AcDbText
  0
LINE
  5
46F
100
AcDbEntity
  8
SCHEME_DIMS
100
AcDbLine
 62
2
  6
CONTINUOUS
 10
7.2464773139
 20
4.3225745163
 11
7.2464773139
 21
2.8256256974
  0
LINE
  5
470
100
AcDbEntity
  8
SCHEME_DIMS
100
AcDbLine
 62
2
  6
CONTINUOUS
 10
5.0417529044
 20
4.3225745163
 11
5.0417529044
 21
2.8256256974
  0
LINE
  5
471
100
AcDbEntity
  8
SCHEME_DIMS
100
AcDbLine
 62
2
  6
CONTINUOUS
 10
7.2464773139
 20
2.9506256974
 11
6.5441151091
 21
2.9506256974
  0
LINE
  5
472
100
AcDbEntity
  8
SCHEME_DIMS
100
AcDbLine
 62
2
  6
CONTINUOUS
 10
5.0417529044
 20
2.9506256974
 11
5.7441151091
 21
2.9506256974
  0
INSERT
  5
473
100
AcDbEntity
  8
SCHEME_DIMS
100
AcDbBlockReference
 62
2
  6
CONTINUOUS
  2
_FILLED
 10
7.2464773139
 20
2.9506256974
 41
0.1875
 42
0.1875
 43
0.1875
  0
INSERT
  5
474
100
AcDbEntity
  8
SCHEME_DIMS
100
AcDbBlockReference
 62
2
  6
CONTINUOUS
  2
_FILLED
 10
5.0417529044
 20
2.9506256974
 41
0.1875
 42
0.1875
 43
0.1875
 50
180.0
  0
ENDBLK
  5
475
100
AcDbEntity
  8
0
  6
BYBLOCK
 62
0
100
AcDbBlockEnd
  0
BLOCK
  5
476
100
AcDbEntity
  8
SCHEME_DIMS
100
AcDbBlockBegin
 62
2
  6
CONTINUOUS
  2
*D11
 70
65
 10
0.0
 20
0.0
  3
*D11
  1

  0
TEXT
  5
477
100
AcDbEntity
  8
SCHEME_DIMS
100
AcDbText
 62
2
  6
CONTINUOUS
 10
7.4492332194
 20
3.2756256974
  7
STANDARD
 40
0.1
  1
23
 41
1.0
 72
0
100
AcDbText
  0
TEXT
  5
478
100
AcDbEntity
  8
SCHEME_DIMS
100
AcDbText
 62
2
  6
CONTINUOUS
 10
7.5492332194
 20
3.1256256974
  7
STANDARD
 40
0.1
  1
.91
 41
1.0
 72
0
100
AcDbText
  0
TEXT
  5
479
100
AcDbEntity
  8
SCHEME_DIMS
100
AcDbText
 62
2
  6
CONTINUOUS
 10
7.4492332194
 20
3.1256256974
  7
STANDARD
 40
0.1
  1
[
 41
1.0
 72
0
100
AcDbText
  0
TEXT
  5
47A
100
AcDbEntity
  8
SCHEME_DIMS
100
AcDbText
 62
2
  6
CONTINUOUS
 10
7.8492332194
 20
3.1256256974
  7
STANDARD
 40
0.1
  1
]
 41
1.0
 72
0
100
AcDbText
  0
LINE
  5
47B
100
AcDbEntity
  8
SCHEME_DIMS
100
AcDbLine
 62
2
  6
CONTINUOUS
 10
8.1519891249
 20
3.7555927318
 11
8.1519891249
 21
3.2006256974
  0
LINE
  5
47C
100
AcDbEntity
  8
SCHEME_DIMS
100
AcDbLine
 62
2
  6
CONTINUOUS
 10
7.2464773139
 20
4.3225745163
 11
7.2464773139
 21
3.2006256974
  0
LINE
  5
47D
100
AcDbEntity
  8
SCHEME_DIMS
100
AcDbLine
 62
2
  6
CONTINUOUS
 10
8.1519891249
 20
3.3256256974
 11
8.5519891249
 21
3.3256256974
  0
LINE
  5
47E
100
AcDbEntity
  8
SCHEME_DIMS
100
AcDbLine
 62
2
  6
CONTINUOUS
 10
7.2464773139
 20
3.3256256974
 11
6.8464773139
 21
3.3256256974
  0
INSERT
  5
47F
100
AcDbEntity
  8
SCHEME_DIMS
100
AcDbBlockReference
 62
2
  6
CONTINUOUS
  2
_FILLED
 10
8.1519891249
 20
3.3256256974
 41
0.1875
 42
0.1875
 43
0.1875
 50
180.0
  0
INSERT
  5
480
100
AcDbEntity
  8
SCHEME_DIMS
100
AcDbBlockReference
 62
2
  6
CONTINUOUS
  2
_FILLED
 10
7.2464773139
 20
3.3256256974
 41
0.1875
 42
0.1875
 43
0.1875
  0
ENDBLK
  5
481
100
AcDbEntity
  8
0
  6
BYBLOCK
 62
0
100
AcDbBlockEnd
  0
BLOCK
  5
482
100
AcDbEntity
  8
SCHEME_DIMS
100
AcDbBlockBegin
 62
2
  6
CONTINUOUS
  2
*D12
 70
65
 10
0.0
 20
0.0
  3
*D12
  1

  0
TEXT
  5
483
100
AcDbEntity
  8
SCHEME_DIMS
100
AcDbText
 62
2
  6
CONTINUOUS
 10
9.0523336395
 20
8.1774930616
  7
STANDARD
 40
0.1
  1
9
 41
1.0
 72
0
100
AcDbText
  0
TEXT
  5
484
100
AcDbEntity
  8
SCHEME_DIMS
100
AcDbText
 62
2
  6
CONTINUOUS
 10
9.1523336395
 20
8.0274930616
  7
STANDARD
 40
0.1
  1
.35
 41
1.0
 72
0
100
AcDbText
  0
TEXT
  5
485
100
AcDbEntity
  8
SCHEME_DIMS
100
AcDbText
 62
2
  6
CONTINUOUS
 10
9.0523336395
 20
8.0274930616
  7
STANDARD
 40
0.1
  1
[
 41
1.0
 72
0
100
AcDbText
  0
TEXT
  5
486
100
AcDbEntity
  8
SCHEME_DIMS
100
AcDbText
 62
2
  6
CONTINUOUS
 10
9.4523336395
 20
8.0274930616
  7
STANDARD
 40
0.1
  1
]
 41
1.0
 72
0
100
AcDbText
  0
LINE
  5
487
100
AcDbEntity
  8
SCHEME_DIMS
100
AcDbLine
 62
2
  6
CONTINUOUS
 10
8.2103355885
 20
8.6219768133
 11
8.2688550443
 21
8.6219768133
  0
LINE
  5
488
100
AcDbEntity
  8
SCHEME_DIMS
100
AcDbLine
 62
2
  6
CONTINUOUS
 10
8.347042909
 20
8.6219768133
 11
8.9273336395
 21
8.6219768133
  0
LINE
  5
489
100
AcDbEntity
  8
SCHEME_DIMS
100
AcDbLine
 62
2
  6
CONTINUOUS
 10
8.166063928
 20
8.9763075219
 11
8.9273336395
 21
8.9763075219
  0
LINE
  5
48A
100
AcDbEntity
  8
SCHEME_DIMS
100
AcDbLine
 62
2
  6
CONTINUOUS
 10
8.8023336395
 20
8.6219768133
 11
8.8023336395
 21
8.2274930616
  0
LINE
  5
48B
100
AcDbEntity
  8
SCHEME_DIMS
100
AcDbLine
 62
2
  6
CONTINUOUS
 10
8.8023336395
 20
8.2274930616
 11
8.9523336395
 21
8.2274930616
  0
LINE
  5
48C
100
AcDbEntity
  8
SCHEME_DIMS
100
AcDbLine
 62
2
  6
CONTINUOUS
 10
8.8023336395
 20
8.9763075219
 11
8.8023336395
 21
9.3763075219
  0
INSERT
  5
48D
100
AcDbEntity
  8
SCHEME_DIMS
100
AcDbBlockReference
 62
2
  6
CONTINUOUS
  2
_FILLED
 10
8.8023336395
 20
8.6219768133
 41
0.1875
 42
0.1875
 43
0.1875
 50
90.0
  0
INSERT
  5
48E
100
AcDbEntity
  8
SCHEME_DIMS
100
AcDbBlockReference
 62
2
  6
CONTINUOUS
  2
_FILLED
 10
8.8023336395
 20
8.9763075219
 41
0.1875
 42
0.1875
 43
0.1875
 50
270.0
  0
ENDBLK
  5
48F
100
AcDbEntity
  8
0
  6
BYBLOCK
 62
0
100
AcDbBlockEnd
  0
BLOCK
  5
490
100
AcDbEntity
  8
SCHEME_DIMS
100
AcDbBlockBegin
 62
2
  6
CONTINUOUS
  2
*D13
 70
65
 10
0.0
 20
0.0
  3
*D13
  1

  0
TEXT
  5
491
100
AcDbEntity
  8
SCHEME_DIMS
100
AcDbText
 62
2
  6
CONTINUOUS
 10
9.5753143032
 20
10.737331144
  7
STANDARD
 40
0.1
  1
92
 41
1.0
 72
0
100
AcDbText
  0
TEXT
  5
492
100
AcDbEntity
  8
SCHEME_DIMS
100
AcDbText
 62
2
  6
CONTINUOUS
 10
9.6753143032
 20
10.587331144
  7
STANDARD
 40
0.1
  1
3.62
 41
1.0
 72
0
100
AcDbText
  0
TEXT
  5
493
100
AcDbEntity
  8
SCHEME_DIMS
100
AcDbText
 62
2
  6
CONTINUOUS
 10
9.5753143032
 20
10.587331144
  7
STANDARD
 40
0.1
  1
[
 41
1.0
 72
0
100
AcDbText
  0
TEXT
  5
494
100
AcDbEntity
  8
SCHEME_DIMS
100
AcDbText
 62
2
  6
CONTINUOUS
 10
10.0753143032
 20
10.587331144
  7
STANDARD
 40
0.1
  1
]
 41
1.0
 72
0
100
AcDbText
  0
LINE
  5
495
100
AcDbEntity
  8
SCHEME_DIMS
100
AcDbLine
 62
2
  6
CONTINUOUS
 10
8.166063928
 20
8.9763075219
 11
10.0003143032
 21
8.9763075219
  0
LINE
  5
496
100
AcDbEntity
  8
SCHEME_DIMS
100
AcDbLine
 62
2
  6
CONTINUOUS
 10
8.166063928
 20
12.598354766
 11
10.0003143032
 21
12.598354766
  0
LINE
  5
497
100
AcDbEntity
  8
SCHEME_DIMS
100
AcDbLine
 62
2
  6
CONTINUOUS
 10
9.8753143032
 20
8.9763075219
 11
9.8753143032
 21
10.487331144
  0
LINE
  5
498
100
AcDbEntity
  8
SCHEME_DIMS
100
AcDbLine
 62
2
  6
CONTINUOUS
 10
9.8753143032
 20
12.598354766
 11
9.8753143032
 21
10.937331144
  0
INSERT
  5
499
100
AcDbEntity
  8
SCHEME_DIMS
100
AcDbBlockReference
 62
2
  6
CONTINUOUS
  2
_FILLED
 10
9.8753143032
 20
8.9763075219
 41
0.1875
 42
0.1875
 43
0.1875
 50
270.0
  0
INSERT
  5
49A
100
AcDbEntity
  8
SCHEME_DIMS
100
AcDbBlockReference
 62
2
  6
CONTINUOUS
  2
_FILLED
 10
9.8753143032
 20
12.598354766
 41
0.1875
 42
0.1875
 43
0.1875
 50
90.0
  0
ENDBLK
  5
49B
100
AcDbEntity
  8
0
  6
BYBLOCK
 62
0
100
AcDbBlockEnd
  0
BLOCK
  5
49C
100
AcDbEntity
  8
SCHEME_DIMS
100
AcDbBlockBegin
 62
2
  6
CONTINUOUS
  2
*D14
 70
65
 10
0.0
 20
0.0
  3
*D14
  1

  0
TEXT
  5
49D
100
AcDbEntity
  8
SCHEME_DIMS
100
AcDbText
 62
2
  6
CONTINUOUS
 10
2.607514578
 20
9.6940240574
  7
STANDARD
 40
0.1
  1
57
 41
1.0
 72
0
100
AcDbText
  0
TEXT
  5
49E
100
AcDbEntity
  8
SCHEME_DIMS
100
AcDbText
 62
2
  6
CONTINUOUS
 10
2.707514578
 20
9.5440240574
  7
STANDARD
 40
0.1
  1
2.24
 41
1.0
 72
0
100
AcDbText
  0
TEXT
  5
49F
100
AcDbEntity
  8
SCHEME_DIMS
100
AcDbText
 62
2
  6
CONTINUOUS
 10
2.607514578
 20
9.5440240574
  7
STANDARD
 40
0.1
  1
[
 41
1.0
 72
0
100
AcDbText
  0
TEXT
  5
4A0
100
AcDbEntity
  8
SCHEME_DIMS
100
AcDbText
 62
2
  6
CONTINUOUS
 10
3.107514578
 20
9.5440240574
  7
STANDARD
 40
0.1
  1
]
 41
1.0
 72
0
100
AcDbText
  0
LINE
  5
4A1
100
AcDbEntity
  8
SCHEME_DIMS
100
AcDbLine
 62
2
  6
CONTINUOUS
 10
4.0938658863
 20
8.6219768133
 11
2.782514578
 21
8.6219768133
  0
LINE
  5
4A2
100
AcDbEntity
  8
SCHEME_DIMS
100
AcDbLine
 62
2
  6
CONTINUOUS
 10
5.8485904399
 20
10.8660713015
 11
2.782514578
 21
10.8660713015
  0
LINE
  5
4A3
100
AcDbEntity
  8
SCHEME_DIMS
100
AcDbLine
 62
2
  6
CONTINUOUS
 10
2.907514578
 20
8.6219768133
 11
2.907514578
 21
9.4440240574
  0
LINE
  5
4A4
100
AcDbEntity
  8
SCHEME_DIMS
100
AcDbLine
 62
2
  6
CONTINUOUS
 10
2.907514578
 20
10.8660713015
 11
2.907514578
 21
9.8940240574
  0
INSERT
  5
4A5
100
AcDbEntity
  8
SCHEME_DIMS
100
AcDbBlockReference
 62
2
  6
CONTINUOUS
  2
_FILLED
 10
2.907514578
 20
8.6219768133
 41
0.1875
 42
0.1875
 43
0.1875
 50
270.0
  0
INSERT
  5
4A6
100
AcDbEntity
  8
SCHEME_DIMS
100
AcDbBlockReference
 62
2
  6
CONTINUOUS
  2
_FILLED
 10
2.907514578
 20
10.8660713015
 41
0.1875
 42
0.1875
 43
0.1875
 50
90.0
  0
ENDBLK
  5
4A7
100
AcDbEntity
  8
0
  6
BYBLOCK
 62
0
100
AcDbBlockEnd
  0
BLOCK
  5
4A8
100
AcDbEntity
  8
SCHEME_DIMS
100
AcDbBlockBegin
 62
2
  6
CONTINUOUS
  2
*D15
 70
65
 10
0.0
 20
0.0
  3
*D15
  1

  0
TEXT
  5
4A9
100
AcDbEntity
  8
SCHEME_DIMS
100
AcDbText
 62
2
  6
CONTINUOUS
 10
5.8441151091
 20
14.0345752385
  7
STANDARD
 40
0.1
  1
92
 41
1.0
 72
0
100
AcDbText
  0
TEXT
  5
4AA
100
AcDbEntity
  8
SCHEME_DIMS
100
AcDbText
 62
2
  6
CONTINUOUS
 10
5.9441151091
 20
13.8845752385
  7
STANDARD
 40
0.1
  1
3.62
 41
1.0
 72
0
100
AcDbText
  0
TEXT
  5
4AB
100
AcDbEntity
  8
SCHEME_DIMS
100
AcDbText
 62
2
  6
CONTINUOUS
 10
5.8441151091
 20
13.8845752385
  7
STANDARD
 40
0.1
  1
[
 41
1.0
 72
0
100
AcDbText
  0
TEXT
  5
4AC
100
AcDbEntity
  8
SCHEME_DIMS
100
AcDbText
 62
2
  6
CONTINUOUS
 10
6.3441151091
 20
13.8845752385
  7
STANDARD
 40
0.1
  1
]
 41
1.0
 72
0
100
AcDbText
  0
LINE
  5
4AD
100
AcDbEntity
  8
SCHEME_DIMS
100
AcDbLine
 62
2
  6
CONTINUOUS
 10
7.9551387312
 20
12.8092799629
 11
7.9551387312
 21
14.2095752385
  0
LINE
  5
4AE
100
AcDbEntity
  8
SCHEME_DIMS
100
AcDbLine
 62
2
  6
CONTINUOUS
 10
4.3330914871
 20
12.8092799629
 11
4.3330914871
 21
14.2095752385
  0
LINE
  5
4AF
100
AcDbEntity
  8
SCHEME_DIMS
100
AcDbLine
 62
2
  6
CONTINUOUS
 10
7.9551387312
 20
14.0845752385
 11
6.5441151091
 21
14.0845752385
  0
LINE
  5
4B0
100
AcDbEntity
  8
SCHEME_DIMS
100
AcDbLine
 62
2
  6
CONTINUOUS
 10
4.3330914871
 20
14.0845752385
 11
5.7441151091
 21
14.0845752385
  0
INSERT
  5
4B1
100
AcDbEntity
  8
SCHEME_DIMS
100
AcDbBlockReference
 62
2
  6
CONTINUOUS
  2
_FILLED
 10
7.9551387312
 20
14.0845752385
 41
0.1875
 42
0.1875
 43
0.1875
  0
INSERT
  5
4B2
100
AcDbEntity
  8
SCHEME_DIMS
100
AcDbBlockReference
 62
2
  6
CONTINUOUS
  2
_FILLED
 10
4.3330914871
 20
14.0845752385
 41
0.1875
 42
0.1875
 43
0.1875
 50
180.0
  0
ENDBLK
  5
4B3
100
AcDbEntity
  8
0
  6
BYBLOCK
 62
0
100
AcDbBlockEnd
  0
BLOCK
  5
4B4
100
AcDbEntity
  8
SCHEME_DIMS
100
AcDbBlockBegin
 62
2
  6
CONTINUOUS
  2
*D16
 70
65
 10
0.0
 20
0.0
  3
*D16
  1

  0
TEXT
  5
4B5
100
AcDbEntity
  8
SCHEME_DIMS
100
AcDbText
 62
2
  6
CONTINUOUS
 10
2.189480941
 20
3.0756084728
  7
STANDARD
 40
0.1
  1
4X FULL 
 41
1.0
 72
0
100
AcDbText
  0
TEXT
  5
4B6
100
AcDbEntity
  8
SCHEME_DIMS
100
AcDbText
 62
2
  6
CONTINUOUS
 10
2.989480941
 20
3.0756084728
  7
STANDARD
 40
0.1
  1
R
 41
1.0
 72
0
100
AcDbText
  0
TEXT
  5
4B7
100
AcDbEntity
  8
SCHEME_DIMS
100
AcDbText
 62
2
  6
CONTINUOUS
 10
3.089480941
 20
3.0756084728
  7
STANDARD
 40
0.1
  1
2,3
 41
1.0
 72
0
100
AcDbText
  0
TEXT
  5
4B8
100
AcDbEntity
  8
SCHEME_DIMS
100
AcDbText
 62
2
  6
CONTINUOUS
 10
3.189480941
 20
2.9256084728
  7
STANDARD
 40
0.1
  1
.09
 41
1.0
 72
0
100
AcDbText
  0
TEXT
  5
4B9
100
AcDbEntity
  8
SCHEME_DIMS
100
AcDbText
 62
2
  6
CONTINUOUS
 10
3.089480941
 20
2.9256084728
  7
STANDARD
 40
0.1
  1
[
 41
1.0
 72
0
100
AcDbText
  0
TEXT
  5
4BA
100
AcDbEntity
  8
SCHEME_DIMS
100
AcDbText
 62
2
  6
CONTINUOUS
 10
3.489480941
 20
2.9256084728
  7
STANDARD
 40
0.1
  1
]
 41
1.0
 72
0
100
AcDbText
  0
LINE
  5
4BB
100
AcDbEntity
  8
SCHEME_DIMS
100
AcDbLine
 62
2
  6
CONTINUOUS
 10
4.8283592799
 20
4.1729858978
 11
3.839480941
 21
3.1256084728
  0
LINE
  5
4BC
100
AcDbEntity
  8
SCHEME_DIMS
100
AcDbLine
 62
2
  6
CONTINUOUS
 10
3.839480941
 20
3.1256084728
 11
3.689480941
 21
3.1256084728
  0
INSERT
  5
4BD
100
AcDbEntity
  8
SCHEME_DIMS
100
AcDbBlockReference
 62
2
  6
CONTINUOUS
  2
_FILLED
 10
4.8283592799
 20
4.1729858978
 41
0.1875
 42
0.1875
 43
0.1875
 50
46.6455835972
  0
ENDBLK
  5
4BE
100
AcDbEntity
  8
0
  6
BYBLOCK
 62
0
100
AcDbBlockEnd
  0
BLOCK
  5
4BF
100
AcDbEntity
  8
SCHEME_DIMS
100
AcDbBlockBegin
 62
2
  6
CONTINUOUS
  2
*D17
 70
65
 10
0.0
 20
0.0
  3
*D17
  1

  0
TEXT
  5
4C0
100
AcDbEntity
  8
SCHEME_DIMS
100
AcDbText
 62
2
  6
CONTINUOUS
 10
8.6905313675
 20
5.3232031655
  7
STANDARD
 40
0.1
  1
2X FULL 
 41
1.0
 72
0
100
AcDbText
  0
TEXT
  5
4C1
100
AcDbEntity
  8
SCHEME_DIMS
100
AcDbText
 62
2
  6
CONTINUOUS
 10
9.4905313675
 20
5.3232031655
  7
STANDARD
 40
0.1
  1
R
 41
1.0
 72
0
100
AcDbText
  0
TEXT
  5
4C2
100
AcDbEntity
  8
SCHEME_DIMS
100
AcDbText
 62
2
  6
CONTINUOUS
 10
9.5905313675
 20
5.3232031655
  7
STANDARD
 40
0.1
  1
2,3
 41
1.0
 72
0
100
AcDbText
  0
TEXT
  5
4C3
100
AcDbEntity
  8
SCHEME_DIMS
100
AcDbText
 62
2
  6
CONTINUOUS
 10
9.6905313675
 20
5.1732031655
  7
STANDARD
 40
0.1
  1
.09
 41
1.0
 72
0
100
AcDbText
  0
TEXT
  5
4C4
100
AcDbEntity
  8
SCHEME_DIMS
100
AcDbText
 62
2
  6
CONTINUOUS
 10
9.5905313675
 20
5.1732031655
  7
STANDARD
 40
0.1
  1
[
 41
1.0
 72
0
100
AcDbText
  0
TEXT
  5
4C5
100
AcDbEntity
  8
SCHEME_DIMS
100
AcDbText
 62
2
  6
CONTINUOUS
 10
9.9905313675
 20
5.1732031655
  7
STANDARD
 40
0.1
  1
]
 41
1.0
 72
0
100
AcDbText
  0
LINE
  5
4C6
100
AcDbEntity
  8
SCHEME_DIMS
100
AcDbLine
 62
2
  6
CONTINUOUS
 10
5.1279817455
 20
4.5939421057
 11
8.4405313675
 21
5.3732031655
  0
LINE
  5
4C7
100
AcDbEntity
  8
SCHEME_DIMS
100
AcDbLine
 62
2
  6
CONTINUOUS
 10
8.4405313675
 20
5.3732031655
 11
8.5905313675
 21
5.3732031655
  0
INSERT
  5
4C8
100
AcDbEntity
  8
SCHEME_DIMS
100
AcDbBlockReference
 62
2
  6
CONTINUOUS
  2
_FILLED
 10
5.1279817455
 20
4.5939421057
 41
0.1875
 42
0.1875
 43
0.1875
 50
193.2378585943
  0
ENDBLK
  5
4C9
100
AcDbEntity
  8
0
  6
BYBLOCK
 62
0
100
AcDbBlockEnd
  0
BLOCK
  5
4CA
100
AcDbEntity
  8
SCHEME_DIMS
100
AcDbBlockBegin
 62
2
  6
CONTINUOUS
  2
*D18
 70
65
 10
0.0
 20
0.0
  3
*D18
  1

  0
TEXT
  5
4CB
100
AcDbEntity
  8
SCHEME_DIMS
100
AcDbText
 62
2
  6
CONTINUOUS
 10
2.4580516364
 20
13.1791770836
  7
STANDARD
 40
0.1
  1
8X 
 41
1.0
 72
0
100
AcDbText
  0
TEXT
  5
4CC
100
AcDbEntity
  8
SCHEME_DIMS
100
AcDbText
 62
2
  6
CONTINUOUS
 10
2.7580516364
 20
13.1791770836
  7
STANDARD
 40
0.1
  1
%%c
 41
1.3333333333
 72
0
100
AcDbText
  0
TEXT
  5
4CD
100
AcDbEntity
  8
SCHEME_DIMS
100
AcDbText
 62
2
  6
CONTINUOUS
 10
2.8913849697
 20
13.1791770836
  7
STANDARD
 40
0.1
  1
2,5
 41
1.0
 72
0
100
AcDbText
  0
TEXT
  5
4CE
100
AcDbEntity
  8
SCHEME_DIMS
100
AcDbText
 62
2
  6
CONTINUOUS
 10
2.9913849697
 20
13.0291770836
  7
STANDARD
 40
0.1
  1
.10
 41
1.0
 72
0
100
AcDbText
  0
TEXT
  5
4CF
100
AcDbEntity
  8
SCHEME_DIMS
100
AcDbText
 62
2
  6
CONTINUOUS
 10
2.8913849697
 20
13.0291770836
  7
STANDARD
 40
0.1
  1
[
 41
1.0
 72
0
100
AcDbText
  0
TEXT
  5
4D0
100
AcDbEntity
  8
SCHEME_DIMS
100
AcDbText
 62
2
  6
CONTINUOUS
 10
3.2913849697
 20
13.0291770836
  7
STANDARD
 40
0.1
  1
]
 41
1.0
 72
0
100
AcDbText
  0
LINE
  5
4D1
100
AcDbEntity
  8
SCHEME_DIMS
100
AcDbLine
 62
2
  6
CONTINUOUS
 10
4.2973112355
 20
12.63098563
 11
3.6413849697
 21
13.2291770836
  0
LINE
  5
4D2
100
AcDbEntity
  8
SCHEME_DIMS
100
AcDbLine
 62
2
  6
CONTINUOUS
 10
3.6413849697
 20
13.2291770836
 11
3.4913849697
 21
13.2291770836
  0
INSERT
  5
4D3
100
AcDbEntity
  8
SCHEME_DIMS
100
AcDbBlockReference
 62
2
  6
CONTINUOUS
  2
_FILLED
 10
4.2973112355
 20
12.63098563
 41
0.1875
 42
0.1875
 43
0.1875
 50
317.6358188629
  0
ENDBLK
  5
4D4
100
AcDbEntity
  8
0
  6
BYBLOCK
 62
0
100
AcDbBlockEnd
  0
BLOCK
  5
4D5
100
AcDbEntity
  8
SCHEME_DIMS
100
AcDbBlockBegin
 62
2
  6
CONTINUOUS
  2
*D19
 70
65
 10
0.0
 20
0.0
  3
*D19
  1

  0
TEXT
  5
4D6
100
AcDbEntity
  8
SCHEME_DIMS
100
AcDbText
 62
2
  6
CONTINUOUS
 10
2.8434541757
 20
12.17237566
  7
STANDARD
 40
0.1
  1
%%c
 41
1.3333333333
 72
0
100
AcDbText
  0
TEXT
  5
4D7
100
AcDbEntity
  8
SCHEME_DIMS
100
AcDbText
 62
2
  6
CONTINUOUS
 10
2.9767875091
 20
12.17237566
  7
STANDARD
 40
0.1
  1
4,8
 41
1.0
 72
0
100
AcDbText
  0
TEXT
  5
4D8
100
AcDbEntity
  8
SCHEME_DIMS
100
AcDbText
 62
2
  6
CONTINUOUS
 10
3.0767875091
 20
12.02237566
  7
STANDARD
 40
0.1
  1
.19
 41
1.0
 72
0
100
AcDbText
  0
TEXT
  5
4D9
100
AcDbEntity
  8
SCHEME_DIMS
100
AcDbText
 62
2
  6
CONTINUOUS
 10
2.9767875091
 20
12.02237566
  7
STANDARD
 40
0.1
  1
[
 41
1.0
 72
0
100
AcDbText
  0
TEXT
  5
4DA
100
AcDbEntity
  8
SCHEME_DIMS
100
AcDbText
 62
2
  6
CONTINUOUS
 10
3.3767875091
 20
12.02237566
  7
STANDARD
 40
0.1
  1
]
 41
1.0
 72
0
100
AcDbText
  0
LINE
  5
4DB
100
AcDbEntity
  8
SCHEME_DIMS
100
AcDbLine
 62
2
  6
CONTINUOUS
 10
6.0617114207
 20
10.9123060285
 11
3.7267875091
 21
12.22237566
  0
LINE
  5
4DC
100
AcDbEntity
  8
SCHEME_DIMS
100
AcDbLine
 62
2
  6
CONTINUOUS
 10
3.7267875091
 20
12.22237566
 11
3.5767875091
 21
12.22237566
  0
INSERT
  5
4DD
100
AcDbEntity
  8
SCHEME_DIMS
100
AcDbBlockReference
 62
2
  6
CONTINUOUS
  2
_FILLED
 10
6.0617114207
 20
10.9123060285
 41
0.1875
 42
0.1875
 43
0.1875
 50
330.7042654596
  0
ENDBLK
  5
4DE
100
AcDbEntity
  8
0
  6
BYBLOCK
 62
0
100
AcDbBlockEnd
  0
BLOCK
  5
4DF
100
AcDbEntity
  8
SCHEME_DIMS
100
AcDbBlockBegin
 62
2
  6
CONTINUOUS
  2
*D20
 70
65
 10
0.0
 20
0.0
  3
*D20
  1

  0
TEXT
  5
4E0
100
AcDbEntity
  8
SCHEME_DIMS
100
AcDbText
 62
2
  6
CONTINUOUS
 10
8.8339621309
 20
13.2845752385
  7
STANDARD
 40
0.1
  1
9
 41
1.0
 72
0
100
AcDbText
  0
TEXT
  5
4E1
100
AcDbEntity
  8
SCHEME_DIMS
100
AcDbText
 62
2
  6
CONTINUOUS
 10
8.9339621309
 20
13.1345752385
  7
STANDARD
 40
0.1
  1
.35
 41
1.0
 72
0
100
AcDbText
  0
TEXT
  5
4E2
100
AcDbEntity
  8
SCHEME_DIMS
100
AcDbText
 62
2
  6
CONTINUOUS
 10
8.8339621309
 20
13.1345752385
  7
STANDARD
 40
0.1
  1
[
 41
1.0
 72
0
100
AcDbText
  0
TEXT
  5
4E3
100
AcDbEntity
  8
SCHEME_DIMS
100
AcDbText
 62
2
  6
CONTINUOUS
 10
9.2339621309
 20
13.1345752385
  7
STANDARD
 40
0.1
  1
]
 41
1.0
 72
0
100
AcDbText
  0
LINE
  5
4E4
100
AcDbEntity
  8
SCHEME_DIMS
100
AcDbLine
 62
2
  6
CONTINUOUS
 10
8.3094694398
 20
12.8970752385
 11
8.3094694398
 21
13.4595752385
  0
LINE
  5
4E5
100
AcDbEntity
  8
SCHEME_DIMS
100
AcDbLine
 62
2
  6
CONTINUOUS
 10
7.9551387312
 20
12.8092799629
 11
7.9551387312
 21
13.4595752385
  0
LINE
  5
4E6
100
AcDbEntity
  8
SCHEME_DIMS
100
AcDbLine
 62
2
  6
CONTINUOUS
 10
8.3094694398
 20
13.3345752385
 11
8.7339621309
 21
13.3345752385
  0
LINE
  5
4E7
100
AcDbEntity
  8
SCHEME_DIMS
100
AcDbLine
 62
2
  6
CONTINUOUS
 10
7.9551387312
 20
13.3345752385
 11
7.5551387312
 21
13.3345752385
  0
INSERT
  5
4E8
100
AcDbEntity
  8
SCHEME_DIMS
100
AcDbBlockReference
 62
2
  6
CONTINUOUS
  2
_FILLED
 10
8.3094694398
 20
13.3345752385
 41
0.1875
 42
0.1875
 43
0.1875
 50
180.0
  0
INSERT
  5
4E9
100
AcDbEntity
  8
SCHEME_DIMS
100
AcDbBlockReference
 62
2
  6
CONTINUOUS
  2
_FILLED
 10
7.9551387312
 20
13.3345752385
 41
0.1875
 42
0.1875
 43
0.1875
  0
ENDBLK
  5
4EA
100
AcDbEntity
  8
0
  6
BYBLOCK
 62
0
100
AcDbBlockEnd
  0
BLOCK
  5
4EB
100
AcDbEntity
  8
SCHEME_DIMS
100
AcDbBlockBegin
 62
2
  6
CONTINUOUS
  2
*D21
 70
65
 10
0.0
 20
0.0
  3
*D21
  1

  0
TEXT
  5
4EC
100
AcDbEntity
  8
SCHEME_DIMS
100
AcDbText
 62
2
  6
CONTINUOUS
 10
6.9267922745
 20
7.6969768133
  7
STANDARD
 40
0.1
  1
55
 41
1.0
 72
0
100
AcDbText
  0
TEXT
  5
4ED
100
AcDbEntity
  8
SCHEME_DIMS
100
AcDbText
 62
2
  6
CONTINUOUS
 10
7.0267922745
 20
7.5469768133
  7
STANDARD
 40
0.1
  1
2.17
 41
1.0
 72
0
100
AcDbText
  0
TEXT
  5
4EE
100
AcDbEntity
  8
SCHEME_DIMS
100
AcDbText
 62
2
  6
CONTINUOUS
 10
6.9267922745
 20
7.5469768133
  7
STANDARD
 40
0.1
  1
[
 41
1.0
 72
0
100
AcDbText
  0
TEXT
  5
4EF
100
AcDbEntity
  8
SCHEME_DIMS
100
AcDbText
 62
2
  6
CONTINUOUS
 10
7.4267922745
 20
7.5469768133
  7
STANDARD
 40
0.1
  1
]
 41
1.0
 72
0
100
AcDbText
  0
LINE
  5
4F0
100
AcDbEntity
  8
SCHEME_DIMS
100
AcDbLine
 62
2
  6
CONTINUOUS
 10
8.3094694398
 20
8.7382625948
 11
8.3094694398
 21
7.6219768133
  0
LINE
  5
4F1
100
AcDbEntity
  8
SCHEME_DIMS
100
AcDbLine
 62
2
  6
CONTINUOUS
 10
6.1441151091
 20
10.6090831125
 11
6.1441151091
 21
7.6219768133
  0
LINE
  5
4F2
100
AcDbEntity
  8
SCHEME_DIMS
100
AcDbLine
 62
2
  6
CONTINUOUS
 10
8.3094694398
 20
7.7469768133
 11
7.6267922745
 21
7.7469768133
  0
LINE
  5
4F3
100
AcDbEntity
  8
SCHEME_DIMS
100
AcDbLine
 62
2
  6
CONTINUOUS
 10
6.1441151091
 20
7.7469768133
 11
6.8267922745
 21
7.7469768133
  0
INSERT
  5
4F4
100
AcDbEntity
  8
SCHEME_DIMS
100
AcDbBlockReference
 62
2
  6
CONTINUOUS
  2
_FILLED
 10
8.3094694398
 20
7.7469768133
 41
0.1875
 42
0.1875
 43
0.1875
  0
INSERT
  5
4F5
100
AcDbEntity
  8
SCHEME_DIMS
100
AcDbBlockReference
 62
2
  6
CONTINUOUS
  2
_FILLED
 10
6.1441151091
 20
7.7469768133
 41
0.1875
 42
0.1875
 43
0.1875
 50
180.0
  0
ENDBLK
  5
4F6
100
AcDbEntity
  8
0
  6
BYBLOCK
 62
0
100
AcDbBlockEnd
  0
BLOCK
  5
4F7
100
AcDbEntity
  8
SCHEME_DIMS
100
AcDbBlockBegin
 62
2
  6
CONTINUOUS
  2
*D22
 70
65
 10
0.0
 20
0.0
  3
*D22
  1

  0
TEXT
  5
4F8
100
AcDbEntity
  8
SCHEME_DIMS
100
AcDbText
 62
2
  6
CONTINUOUS
 10
3.1082008507
 20
8.8967799629
  7
STANDARD
 40
0.1
  1
16,5
 41
1.0
 72
0
100
AcDbText
  0
TEXT
  5
4F9
100
AcDbEntity
  8
SCHEME_DIMS
100
AcDbText
 62
2
  6
CONTINUOUS
 10
3.2082008507
 20
8.7467799629
  7
STANDARD
 40
0.1
  1
.65
 41
1.0
 72
0
100
AcDbText
  0
TEXT
  5
4FA
100
AcDbEntity
  8
SCHEME_DIMS
100
AcDbText
 62
2
  6
CONTINUOUS
 10
3.1082008507
 20
8.7467799629
  7
STANDARD
 40
0.1
  1
[
 41
1.0
 72
0
100
AcDbText
  0
TEXT
  5
4FB
100
AcDbEntity
  8
SCHEME_DIMS
100
AcDbText
 62
2
  6
CONTINUOUS
 10
3.5082008507
 20
8.7467799629
  7
STANDARD
 40
0.1
  1
]
 41
1.0
 72
0
100
AcDbText
  0
LINE
  5
4FC
100
AcDbEntity
  8
SCHEME_DIMS
100
AcDbLine
 62
2
  6
CONTINUOUS
 10
4.2312214084
 20
8.6219768133
 11
3.2332008507
 21
8.6219768133
  0
LINE
  5
4FD
100
AcDbEntity
  8
SCHEME_DIMS
100
AcDbLine
 62
2
  6
CONTINUOUS
 10
4.4174418808
 20
9.2715831125
 11
3.2332008507
 21
9.2715831125
  0
LINE
  5
4FE
100
AcDbEntity
  8
SCHEME_DIMS
100
AcDbLine
 62
2
  6
CONTINUOUS
 10
3.3582008507
 20
8.6219768133
 11
3.3582008507
 21
8.2219768133
  0
LINE
  5
4FF
100
AcDbEntity
  8
SCHEME_DIMS
100
AcDbLine
 62
2
  6
CONTINUOUS
 10
3.3582008507
 20
9.2715831125
 11
3.3582008507
 21
9.6715831125
  0
INSERT
  5
500
100
AcDbEntity
  8
SCHEME_DIMS
100
AcDbBlockReference
 62
2
  6
CONTINUOUS
  2
_FILLED
 10
3.3582008507
 20
8.6219768133
 41
0.1875
 42
0.1875
 43
0.1875
 50
90.0
  0
INSERT
  5
501
100
AcDbEntity
  8
SCHEME_DIMS
100
AcDbBlockReference
 62
2
  6
CONTINUOUS
  2
_FILLED
 10
3.3582008507
 20
9.2715831125
 41
0.1875
 42
0.1875
 43
0.1875
 50
270.0
  0
ENDBLK
  5
502
100
AcDbEntity
  8
0
  6
BYBLOCK
 62
0
100
AcDbBlockEnd
  0
BLOCK
  5
503
100
AcDbEntity
  8
SCHEME_DIMS
100
AcDbBlockBegin
 62
2
  6
CONTINUOUS
  2
*D23
 70
65
 10
0.0
 20
0.0
  3
*D23
  1

  0
TEXT
  5
504
100
AcDbEntity
  8
SCHEME_DIMS
100
AcDbText
 62
2
  6
CONTINUOUS
 10
8.8844694398
 20
10.812331144
  7
STANDARD
 40
0.1
  1
77
 41
1.0
 72
0
100
AcDbText
  0
TEXT
  5
505
100
AcDbEntity
  8
SCHEME_DIMS
100
AcDbText
 62
2
  6
CONTINUOUS
 10
8.9844694398
 20
10.662331144
  7
STANDARD
 40
0.1
  1
3.03
 41
1.0
 72
0
100
AcDbText
  0
TEXT
  5
506
100
AcDbEntity
  8
SCHEME_DIMS
100
AcDbText
 62
2
  6
CONTINUOUS
 10
8.8844694398
 20
10.662331144
  7
STANDARD
 40
0.1
  1
[
 41
1.0
 72
0
100
AcDbText
  0
TEXT
  5
507
100
AcDbEntity
  8
SCHEME_DIMS
100
AcDbText
 62
2
  6
CONTINUOUS
 10
9.3844694398
 20
10.662331144
  7
STANDARD
 40
0.1
  1
]
 41
1.0
 72
0
100
AcDbText
  0
LINE
  5
508
100
AcDbEntity
  8
SCHEME_DIMS
100
AcDbLine
 62
2
  6
CONTINUOUS
 10
7.8707883375
 20
9.2715831125
 11
8.7515917652
 21
9.2715831125
  0
LINE
  5
509
100
AcDbEntity
  8
SCHEME_DIMS
100
AcDbLine
 62
2
  6
CONTINUOUS
 10
8.8547398905
 20
9.2715831125
 11
9.3094694398
 21
9.2715831125
  0
LINE
  5
50A
100
AcDbEntity
  8
SCHEME_DIMS
100
AcDbLine
 62
2
  6
CONTINUOUS
 10
7.8707883375
 20
12.3030791755
 11
9.3094694398
 21
12.3030791755
  0
LINE
  5
50B
100
AcDbEntity
  8
SCHEME_DIMS
100
AcDbLine
 62
2
  6
CONTINUOUS
 10
9.1844694398
 20
9.2715831125
 11
9.1844694398
 21
10.562331144
  0
LINE
  5
50C
100
AcDbEntity
  8
SCHEME_DIMS
100
AcDbLine
 62
2
  6
CONTINUOUS
 10
9.1844694398
 20
12.3030791755
 11
9.1844694398
 21
11.012331144
  0
INSERT
  5
50D
100
AcDbEntity
  8
SCHEME_DIMS
100
AcDbBlockReference
 62
2
  6
CONTINUOUS
  2
_FILLED
 10
9.1844694398
 20
9.2715831125
 41
0.1875
 42
0.1875
 43
0.1875
 50
270.0
  0
INSERT
  5
50E
100
AcDbEntity
  8
SCHEME_DIMS
100
AcDbBlockReference
 62
2
  6
CONTINUOUS
  2
_FILLED
 10
9.1844694398
 20
12.3030791755
 41
0.1875
 42
0.1875
 43
0.1875
 50
90.0
  0
ENDBLK
  5
50F
100
AcDbEntity
  8
0
  6
BYBLOCK
 62
0
100
AcDbBlockEnd
  0
BLOCK
  5
510
100
AcDbEntity
  8
SCHEME_DIMS
100
AcDbBlockBegin
 62
2
  6
CONTINUOUS
  2
*D24
 70
65
 10
0.0
 20
0.0
  3
*D24
  1

  0
TEXT
  5
511
100
AcDbEntity
  8
SCHEME_DIMS
100
AcDbText
 62
2
  6
CONTINUOUS
 10
6.7348631406
 20
8.0719768133
  7
STANDARD
 40
0.1
  1
16,5
 41
1.0
 72
0
100
AcDbText
  0
TEXT
  5
512
100
AcDbEntity
  8
SCHEME_DIMS
100
AcDbText
 62
2
  6
CONTINUOUS
 10
6.8348631406
 20
7.9219768133
  7
STANDARD
 40
0.1
  1
.65
 41
1.0
 72
0
100
AcDbText
  0
TEXT
  5
513
100
AcDbEntity
  8
SCHEME_DIMS
100
AcDbText
 62
2
  6
CONTINUOUS
 10
6.7348631406
 20
7.9219768133
  7
STANDARD
 40
0.1
  1
[
 41
1.0
 72
0
100
AcDbText
  0
TEXT
  5
514
100
AcDbEntity
  8
SCHEME_DIMS
100
AcDbText
 62
2
  6
CONTINUOUS
 10
7.1348631406
 20
7.9219768133
  7
STANDARD
 40
0.1
  1
]
 41
1.0
 72
0
100
AcDbText
  0
LINE
  5
515
100
AcDbEntity
  8
SCHEME_DIMS
100
AcDbLine
 62
2
  6
CONTINUOUS
 10
8.3094694398
 20
8.7169571282
 11
8.3094694398
 21
7.9969768133
  0
LINE
  5
516
100
AcDbEntity
  8
SCHEME_DIMS
100
AcDbLine
 62
2
  6
CONTINUOUS
 10
7.6598631406
 20
9.0606579156
 11
7.6598631406
 21
7.9969768133
  0
LINE
  5
517
100
AcDbEntity
  8
SCHEME_DIMS
100
AcDbLine
 62
2
  6
CONTINUOUS
 10
8.3094694398
 20
8.1219768133
 11
7.9846662902
 21
8.1219768133
  0
LINE
  5
518
100
AcDbEntity
  8
SCHEME_DIMS
100
AcDbLine
 62
2
  6
CONTINUOUS
 10
7.6598631406
 20
8.1219768133
 11
7.9846662902
 21
8.1219768133
  0
LINE
  5
519
100
AcDbEntity
  8
SCHEME_DIMS
100
AcDbLine
 62
2
  6
CONTINUOUS
 10
7.9846662902
 20
8.1219768133
 11
7.3348631406
 21
8.1219768133
  0
INSERT
  5
51A
100
AcDbEntity
  8
SCHEME_DIMS
100
AcDbBlockReference
 62
2
  6
CONTINUOUS
  2
_FILLED
 10
8.3094694398
 20
8.1219768133
 41
0.1875
 42
0.1875
 43
0.1875
  0
INSERT
  5
51B
100
AcDbEntity
  8
SCHEME_DIMS
100
AcDbBlockReference
 62
2
  6
CONTINUOUS
  2
_FILLED
 10
7.6598631406
 20
8.1219768133
 41
0.1875
 42
0.1875
 43
0.1875
 50
180.0
  0
ENDBLK
  5
51C
100
AcDbEntity
  8
0
  6
BYBLOCK
 62
0
100
AcDbBlockEnd
  0
BLOCK
  5
51D
100
AcDbEntity
  8
SCHEME_DIMS
100
AcDbBlockBegin
 62
2
  6
CONTINUOUS
  2
*D25
 70
65
 10
0.0
 20
0.0
  3
*D25
  1

  0
TEXT
  5
51E
100
AcDbEntity
  8
SCHEME_DIMS
100
AcDbText
 62
2
  6
CONTINUOUS
 10
5.8441151091
 20
13.6595752385
  7
STANDARD
 40
0.1
  1
77
 41
1.0
 72
0
100
AcDbText
  0
TEXT
  5
51F
100
AcDbEntity
  8
SCHEME_DIMS
100
AcDbText
 62
2
  6
CONTINUOUS
 10
5.9441151091
 20
13.5095752385
  7
STANDARD
 40
0.1
  1
3.03
 41
1.0
 72
0
100
AcDbText
  0
TEXT
  5
520
100
AcDbEntity
  8
SCHEME_DIMS
100
AcDbText
 62
2
  6
CONTINUOUS
 10
5.8441151091
 20
13.5095752385
  7
STANDARD
 40
0.1
  1
[
 41
1.0
 72
0
100
AcDbText
  0
TEXT
  5
521
100
AcDbEntity
  8
SCHEME_DIMS
100
AcDbText
 62
2
  6
CONTINUOUS
 10
6.3441151091
 20
13.5095752385
  7
STANDARD
 40
0.1
  1
]
 41
1.0
 72
0
100
AcDbText
  0
LINE
  5
522
100
AcDbEntity
  8
SCHEME_DIMS
100
AcDbLine
 62
2
  6
CONTINUOUS
 10
7.6598631406
 20
12.5140043723
 11
7.6598631406
 21
13.2874866697
  0
LINE
  5
523
100
AcDbEntity
  8
SCHEME_DIMS
100
AcDbLine
 62
2
  6
CONTINUOUS
 10
7.6598631406
 20
13.3837215784
 11
7.6598631406
 21
13.8345752385
  0
LINE
  5
524
100
AcDbEntity
  8
SCHEME_DIMS
100
AcDbLine
 62
2
  6
CONTINUOUS
 10
4.6283670776
 20
12.5140043723
 11
4.6283670776
 21
13.8345752385
  0
LINE
  5
525
100
AcDbEntity
  8
SCHEME_DIMS
100
AcDbLine
 62
2
  6
CONTINUOUS
 10
7.6598631406
 20
13.7095752385
 11
6.5441151091
 21
13.7095752385
  0
LINE
  5
526
100
AcDbEntity
  8
SCHEME_DIMS
100
AcDbLine
 62
2
  6
CONTINUOUS
 10
4.6283670776
 20
13.7095752385
 11
5.7441151091
 21
13.7095752385
  0
INSERT
  5
527
100
AcDbEntity
  8
SCHEME_DIMS
100
AcDbBlockReference
 62
2
  6
CONTINUOUS
  2
_FILLED
 10
7.6598631406
 20
13.7095752385
 41
0.1875
 42
0.1875
 43
0.1875
  0
INSERT
  5
528
100
AcDbEntity
  8
SCHEME_DIMS
100
AcDbBlockReference
 62
2
  6
CONTINUOUS
  2
_FILLED
 10
4.6283670776
 20
13.7095752385
 41
0.1875
 42
0.1875
 43
0.1875
 50
180.0
  0
ENDBLK
  5
529
100
AcDbEntity
  8
0
  6
BYBLOCK
 62
0
100
AcDbBlockEnd
  0
BLOCK
  5
52A
100
AcDbEntity
  8
SCHEME_DIMS
100
AcDbBlockBegin
 62
2
  6
CONTINUOUS
  2
*D26
 70
65
 10
0.0
 20
0.0
  3
*D26
  1

  0
TEXT
  5
52B
100
AcDbEntity
  8
SCHEME_DIMS
100
AcDbText
 62
2
  6
CONTINUOUS
 10
2.9950393673
 20
5.8372017312
  7
STANDARD
 40
0.1
  1
%%c
 41
1.3333333333
 72
0
100
AcDbText
  0
TEXT
  5
52C
100
AcDbEntity
  8
SCHEME_DIMS
100
AcDbText
 62
2
  6
CONTINUOUS
 10
3.1283727007
 20
5.8372017312
  7
STANDARD
 40
0.1
  1
4,5
 41
1.0
 72
0
100
AcDbText
  0
TEXT
  5
52D
100
AcDbEntity
  8
SCHEME_DIMS
100
AcDbText
 62
2
  6
CONTINUOUS
 10
3.2283727007
 20
5.6872017312
  7
STANDARD
 40
0.1
  1
.18
 41
1.0
 72
0
100
AcDbText
  0
TEXT
  5
52E
100
AcDbEntity
  8
SCHEME_DIMS
100
AcDbText
 62
2
  6
CONTINUOUS
 10
3.1283727007
 20
5.6872017312
  7
STANDARD
 40
0.1
  1
[
 41
1.0
 72
0
100
AcDbText
  0
TEXT
  5
52F
100
AcDbEntity
  8
SCHEME_DIMS
100
AcDbText
 62
2
  6
CONTINUOUS
 10
3.5283727007
 20
5.6872017312
  7
STANDARD
 40
0.1
  1
]
 41
1.0
 72
0
100
AcDbText
  0
LINE
  5
530
100
AcDbEntity
  8
SCHEME_DIMS
100
AcDbLine
 62
2
  6
CONTINUOUS
 10
6.067479729
 20
4.6180858914
 11
3.8783727007
 21
5.8872017312
  0
LINE
  5
531
100
AcDbEntity
  8
SCHEME_DIMS
100
AcDbLine
 62
2
  6
CONTINUOUS
 10
3.8783727007
 20
5.8872017312
 11
3.7283727007
 21
5.8872017312
  0
INSERT
  5
532
100
AcDbEntity
  8
SCHEME_DIMS
100
AcDbBlockReference
 62
2
  6
CONTINUOUS
  2
_FILLED
 10
6.067479729
 20
4.6180858914
 41
0.1875
 42
0.1875
 43
0.1875
 50
329.8973577261
  0
ENDBLK
  5
533
100
AcDbEntity
  8
0
  6
BYBLOCK
 62
0
100
AcDbBlockEnd
  0
BLOCK
  5
534
100
AcDbEntity
  8
0
100
AcDbBlockBegin
  2
_FILLED
 70
64
 10
0.0
 20
0.0
  3
_FILLED
  1

  0
SOLID
  5
535
100
AcDbEntity
  8
0
  6
BYBLOCK
 62
0
100
AcDbTrace
 10
0.0
 20
0.0
 11
-1.0
 21
0.1666666667
 12
-1.0
 22
-0.1666666667
 13
-1.0
 23
-0.1666666667
  0
ENDBLK
  5
536
100
AcDbEntity
  8
0
  6
BYBLOCK
 62
0
100
AcDbBlockEnd
  0
ENDSEC
  0
SECTION
  2
ENTITIES
  0
TEXT
  5
537
100
AcDbEntity
  8
0
100
AcDbText
 62
2
  6
CONTINUOUS
 10
14.8374677477
 20
1.5655662523
  7
STANDARD
 40
0.1
  1
%%uTHIRD ANGLE PROJECTION
 41
0.8
 72
1
 11
15.7174677477
 21
1.5655662523
100
AcDbText
  0
TEXT
  5
538
100
AcDbEntity
  8
0
100
AcDbText
 62
2
  6
CONTINUOUS
 10
17.55
 20
1.24
  7
STANDARD
 40
0.08
  1
DRAWING NO.
 41
1.0
 72
0
100
AcDbText
  0
TEXT
  5
539
100
AcDbEntity
  8
0
100
AcDbText
 62
2
  6
CONTINUOUS
 10
14.714
 20
2.299432
  7
STANDARD
 40
0.08
  1
and is proprietary in general
 41
0.85
 72
1
 11
15.7
 21
2.299432
100
AcDbText
  0
TEXT
  5
53A
100
AcDbEntity
  8
0
100
AcDbText
 62
2
  6
CONTINUOUS
 10
14.748
 20
2.179432
  7
STANDARD
 40
0.08
  1
and in detail.  Its contents
 41
0.85
 72
1
 11
15.7
 21
2.179432
100
AcDbText
  0
TEXT
  5
53B
100
AcDbEntity
  8
0
100
AcDbText
 62
2
  6
CONTINUOUS
 10
14.884
 20
2.059432
  7
STANDARD
 40
0.08
  1
shall not be revealed to
 41
0.85
 72
1
 11
15.7
 21
2.059432
100
AcDbText
  0
TEXT
  5
53C
100
AcDbEntity
  8
0
100
AcDbText
 62
2
  6
CONTINUOUS
 10
14.918
 20
1.939432
  7
STANDARD
 40
0.08
  1
outside parties without
 41
0.85
 72
1
 11
15.7
 21
1.939432
100
AcDbText
  0
TEXT
  5
53D
100
AcDbEntity
  8
0
100
AcDbText
 62
2
  6
CONTINUOUS
 10
14.816
 20
1.819432
  7
STANDARD
 40
0.08
  1
written consent of BANNER.
 41
0.85
 72
1
 11
15.7
 21
1.819432
100
AcDbText
  0
TEXT
  5
53E
100
AcDbEntity
  8
0
100
AcDbText
 62
2
  6
CONTINUOUS
 10
16.75
 20
1.98
  7
STANDARD
 40
0.1
  1
TITLE
 41
0.8
 72
0
100
AcDbText
  0
TEXT
  5
53F
100
AcDbEntity
  8
0
100
AcDbText
 62
2
  6
CONTINUOUS
 10
16.75
 20
1.24
  7
STANDARD
 40
0.08
  1
SIZE
 41
1.0
 72
0
100
AcDbText
  0
TEXT
  5
540
100
AcDbEntity
  8
0
100
AcDbText
 62
2
  6
CONTINUOUS
 10
16.75
 20
0.87
  7
STANDARD
 40
0.08
  1
SCALE
 41
1.0
 72
0
100
AcDbText
  0
TEXT
  5
541
100
AcDbEntity
  8
0
100
AcDbText
 62
2
  6
CONTINUOUS
 10
17.13
 20
1.1
  7
STANDARD
 40
0.1
  1
C
 41
0.8
 72
1
 11
17.17
 21
1.1
100
AcDbText
  0
TEXT
  5
542
100
AcDbEntity
  8
0
100
AcDbText
 62
2
  6
CONTINUOUS
 10
14.782
 20
2.419432
  7
STANDARD
 40
0.08
  1
of BANNER ENGINEERING CORP.
 41
0.85
 72
1
 11
15.7
 21
2.419432
100
AcDbText
  0
TEXT
  5
543
100
AcDbEntity
  8
0
100
AcDbText
 62
2
  6
CONTINUOUS
 10
14.748
 20
2.539432
  7
STANDARD
 40
0.08
  1
This drawing is the property
 41
0.85
 72
1
 11
15.7
 21
2.539432
100
AcDbText
  0
TEXT
  5
544
100
AcDbEntity
  8
0
100
AcDbText
 62
2
  6
CONTINUOUS
 10
18.86
 20
2.1764
  7
STANDARD
 40
0.1
  1
MINNEAPOLIS, MN 55440
 41
0.8
 72
1
 11
19.7
 21
2.1764
100
AcDbText
  0
TEXT
  5
545
100
AcDbEntity
  8
0
100
AcDbText
 62
2
  6
CONTINUOUS
 10
18.925
 20
0.87
  7
STANDARD
 40
0.08
  1
SHEET
 41
1.0
 72
0
100
AcDbText
  0
TEXT
  5
546
100
AcDbEntity
  8
0
100
AcDbText
 62
2
  6
CONTINUOUS
 10
20.3
 20
1.24
  7
STANDARD
 40
0.08
  1
REV.
 41
1.0
 72
0
100
AcDbText
  0
TEXT
  5
547
100
AcDbEntity
  8
0
100
AcDbText
 62
2
  6
CONTINUOUS
 10
20.7
 20
0.628443
  7
STANDARD
 40
0.07
  1
PRO/E
 41
1.0
 72
2
 11
21.05
 21
0.628443
100
AcDbText
  0
TEXT
  5
548
100
AcDbEntity
  8
0
100
AcDbText
 62
2
  6
CONTINUOUS
 10
18.3752
 20
2.494049
  7
STANDARD
 40
0.12
  1
BANNER ENGINEERING CORP.
 41
0.92
 72
1
 11
19.7
 21
2.494049
100
AcDbText
  0
TEXT
  5
549
100
AcDbEntity
  8
0
100
AcDbText
 62
2
  6
CONTINUOUS
 10
19.18
 20
2.3354
  7
STANDARD
 40
0.1
  1
P.O. BOX 9414
 41
0.8
 72
1
 11
19.7
 21
2.3354
100
AcDbText
  0
TEXT
  5
54A
100
AcDbEntity
  8
0
100
AcDbText
 62
2
  6
CONTINUOUS
 10
12.217
 20
15.85
  7
STANDARD
 40
0.1
  1
4
 41
0.8
 72
1
 11
12.257
 21
15.85
100
AcDbText
  0
TEXT
  5
54B
100
AcDbEntity
  8
0
100
AcDbText
 62
2
  6
CONTINUOUS
 10
12.217
 20
0.55
  7
STANDARD
 40
0.1
  1
4
 41
0.8
 72
1
 11
12.257
 21
0.55
100
AcDbText
  0
TEXT
  5
54C
100
AcDbEntity
  8
0
100
AcDbText
 62
2
  6
CONTINUOUS
 10
0.784
 20
6.275
  7
STANDARD
 40
0.1
  1
B
 41
0.8
 72
2
 11
0.864
 21
6.275
100
AcDbText
  0
TEXT
  5
54D
100
AcDbEntity
  8
0
100
AcDbText
 62
2
  6
CONTINUOUS
 10
21.15
 20
6.275
  7
STANDARD
 40
0.1
  1
B
 41
0.8
 72
0
100
AcDbText
  0
TEXT
  5
54E
100
AcDbEntity
  8
0
100
AcDbText
 62
2
  6
CONTINUOUS
 10
0.784
 20
2.425
  7
STANDARD
 40
0.1
  1
A
 41
0.8
 72
2
 11
0.864
 21
2.425
100
AcDbText
  0
TEXT
  5
54F
100
AcDbEntity
  8
0
100
AcDbText
 62
2
  6
CONTINUOUS
 10
21.15
 20
2.425
  7
STANDARD
 40
0.1
  1
A
 41
0.8
 72
0
100
AcDbText
  0
TEXT
  5
550
100
AcDbEntity
  8
0
100
AcDbText
 62
2
  6
CONTINUOUS
 10
0.784
 20
13.975
  7
STANDARD
 40
0.1
  1
D
 41
0.8
 72
2
 11
0.864
 21
13.975
100
AcDbText
  0
TEXT
  5
551
100
AcDbEntity
  8
0
100
AcDbText
 62
2
  6
CONTINUOUS
 10
21.15
 20
13.975
  7
STANDARD
 40
0.1
  1
D
 41
0.8
 72
0
100
AcDbText
  0
TEXT
  5
552
100
AcDbEntity
  8
0
100
AcDbText
 62
2
  6
CONTINUOUS
 10
0.784
 20
10.125
  7
STANDARD
 40
0.1
  1
C
 41
0.8
 72
2
 11
0.864
 21
10.125
100
AcDbText
  0
TEXT
  5
553
100
AcDbEntity
  8
0
100
AcDbText
 62
2
  6
CONTINUOUS
 10
21.15
 20
10.125
  7
STANDARD
 40
0.1
  1
C
 41
0.8
 72
0
100
AcDbText
  0
TEXT
  5
554
100
AcDbEntity
  8
0
100
AcDbText
 62
2
  6
CONTINUOUS
 10
14.717
 20
0.55
  7
STANDARD
 40
0.1
  1
3
 41
0.8
 72
1
 11
14.757
 21
0.55
100
AcDbText
  0
TEXT
  5
555
100
AcDbEntity
  8
0
100
AcDbText
 62
2
  6
CONTINUOUS
 10
14.717
 20
15.85
  7
STANDARD
 40
0.1
  1
3
 41
0.8
 72
1
 11
14.757
 21
15.85
100
AcDbText
  0
TEXT
  5
556
100
AcDbEntity
  8
0
100
AcDbText
 62
2
  6
CONTINUOUS
 10
17.217
 20
15.85
  7
STANDARD
 40
0.1
  1
2
 41
0.8
 72
1
 11
17.257
 21
15.85
100
AcDbText
  0
TEXT
  5
557
100
AcDbEntity
  8
0
100
AcDbText
 62
2
  6
CONTINUOUS
 10
17.217
 20
0.55
  7
STANDARD
 40
0.1
  1
2
 41
0.8
 72
1
 11
17.257
 21
0.55
100
AcDbText
  0
TEXT
  5
558
100
AcDbEntity
  8
0
100
AcDbText
 62
2
  6
CONTINUOUS
 10
19.717
 20
0.55
  7
STANDARD
 40
0.1
  1
1
 41
0.8
 72
1
 11
19.757
 21
0.55
100
AcDbText
  0
TEXT
  5
559
100
AcDbEntity
  8
0
100
AcDbText
 62
2
  6
CONTINUOUS
 10
19.717
 20
15.85
  7
STANDARD
 40
0.1
  1
1
 41
0.8
 72
1
 11
19.757
 21
15.85
100
AcDbText
  0
TEXT
  5
55A
100
AcDbEntity
  8
0
100
AcDbText
 62
2
  6
CONTINUOUS
 10
2.217
 20
0.55
  7
STANDARD
 40
0.1
  1
8
 41
0.8
 72
1
 11
2.257
 21
0.55
100
AcDbText
  0
TEXT
  5
55B
100
AcDbEntity
  8
0
100
AcDbText
 62
2
  6
CONTINUOUS
 10
4.717
 20
0.55
  7
STANDARD
 40
0.1
  1
7
 41
0.8
 72
1
 11
4.757
 21
0.55
100
AcDbText
  0
TEXT
  5
55C
100
AcDbEntity
  8
0
100
AcDbText
 62
2
  6
CONTINUOUS
 10
7.217
 20
0.55
  7
STANDARD
 40
0.1
  1
6
 41
0.8
 72
1
 11
7.257
 21
0.55
100
AcDbText
  0
TEXT
  5
55D
100
AcDbEntity
  8
0
100
AcDbText
 62
2
  6
CONTINUOUS
 10
9.717
 20
0.55
  7
STANDARD
 40
0.1
  1
5
 41
0.8
 72
1
 11
9.757
 21
0.55
100
AcDbText
  0
TEXT
  5
55E
100
AcDbEntity
  8
0
100
AcDbText
 62
2
  6
CONTINUOUS
 10
9.717
 20
15.85
  7
STANDARD
 40
0.1
  1
5
 41
0.8
 72
1
 11
9.757
 21
15.85
100
AcDbText
  0
TEXT
  5
55F
100
AcDbEntity
  8
0
100
AcDbText
 62
2
  6
CONTINUOUS
 10
7.217
 20
15.85
  7
STANDARD
 40
0.1
  1
6
 41
0.8
 72
1
 11
7.257
 21
15.85
100
AcDbText
  0
TEXT
  5
560
100
AcDbEntity
  8
0
100
AcDbText
 62
2
  6
CONTINUOUS
 10
4.717
 20
15.85
  7
STANDARD
 40
0.1
  1
7
 41
0.8
 72
1
 11
4.757
 21
15.85
100
AcDbText
  0
TEXT
  5
561
100
AcDbEntity
  8
0
100
AcDbText
 62
2
  6
CONTINUOUS
 10
2.217
 20
15.85
  7
STANDARD
 40
0.1
  1
8
 41
0.8
 72
1
 11
2.257
 21
15.85
100
AcDbText
  0
TEXT
  5
562
100
AcDbEntity
  8
0
100
AcDbText
 62
2
  6
CONTINUOUS
 10
17.2749123633
 20
0.8184107931
  7
STANDARD
 40
0.1
  1
1:1
 41
1.0
 72
0
100
AcDbText
  0
MTEXT
  5
563
100
AcDbEntity
  8
0
100
AcDbMText
 62
2
  6
CONTINUOUS
  7
STANDARD
 71
1
 72
1
 10
19.4499123633
 20
0.9184107931
 30
0.0
 11
1.0
 21
0.0
 31
0.0
  1
1 OF 1
 40
0.1
 41
0.6
  0
TEXT
  5
564
100
AcDbEntity
  8
0
100
AcDbText
 62
7
  6
CONTINUOUS
 10
18.5204017884
 20
1.1200373234
  7
STANDARD
 40
0.12
  1
141610
 41
1.0
 72
0
100
AcDbText
  0
MTEXT
  5
565
100
AcDbEntity
  8
0
100
AcDbMText
 62
2
  6
CONTINUOUS
  7
STANDARD
 71
1
 72
1
 10
1.7464424763
 20
1.7731130192
 30
0.0
 11
1.0
 21
0.0
 31
0.0
  1
NOTES:\P1. ALL DIMENSIONS ARE MILLIMETERS [INCHES] UNLESS OTHERWISE NOTED.
 40
0.1
 41
6.6
  0
INSERT
  5
566
100
AcDbEntity
  8
0
100
AcDbBlockReference
 62
2
  6
CONTINUOUS
  2
BANNER_LOGO_TITLEBLOCK_BL0
 10
17.5737928667
 20
2.4016160592
  0
DIMENSION
  5
567
100
AcDbEntity
  8
DRIVEN_DIMS
100
AcDbDimension
 62
2
  6
CONTINUOUS
  2
*D0
 10
5.1291230966
 20
5.3846717373
 11
3.1293079261
 21
6.4148563486
 70
163
 42
66.0
  1
<>
  3
DIMSTYLE_1
100
AcDbDiametricDimension
 15
7.1591071217
 25
3.7626426497
  0
DIMENSION
  5
568
100
AcDbEntity
  8
SCHEME_DIMS
100
AcDbDimension
 62
2
  6
CONTINUOUS
  2
*D1
 10
13.8308036624
 20
12.8345752385
 11
13.8308036624
 21
10.7282760259
 70
160
 42
107.0
  3
DIMSTYLE_2
100
AcDbAlignedDimension
 13
13.3729224089
 23
8.6219768133
 14
13.4078983086
 24
12.8345752385
 50
90.0
100
AcDbRotatedDimension
  0
DIMENSION
  5
569
100
AcDbEntity
  8
SCHEME_DIMS
100
AcDbDimension
 62
2
  6
CONTINUOUS
  2
*D2
 10
11.9922209852
 20
8.1219768133
 11
12.6615123238
 21
8.0469768133
 70
160
 42
34.0
  3
DIMSTYLE_2
100
AcDbAlignedDimension
 13
13.3308036624
 23
8.6018445923
 14
11.9922209852
 24
8.5553020866
 50
180.0
100
AcDbRotatedDimension
  0
DIMENSION
  5
56A
100
AcDbEntity
  8
SCHEME_DIMS
100
AcDbDimension
 62
2
  6
CONTINUOUS
  2
*D3
 10
12.8583627175
 20
13.3345752385
 11
12.1833627175
 21
13.2595752385
 70
160
 42
12.0
  3
DIMSTYLE_2
100
AcDbAlignedDimension
 13
13.3308036624
 23
12.8970752385
 14
12.8583627175
 24
12.808687336
 50
180.0
100
AcDbRotatedDimension
  0
DIMENSION
  5
56B
100
AcDbEntity
  8
SCHEME_DIMS
100
AcDbDimension
 62
2
  6
CONTINUOUS
  2
*D4
 10
3.9787607784
 20
2.5756256974
 11
6.1441151091
 21
2.5006256974
 70
160
 42
110.0
  3
DIMSTYLE_2
100
AcDbAlignedDimension
 13
8.3094694398
 23
3.8131846061
 14
3.9787607784
 24
3.8492373258
 50
180.0
100
AcDbRotatedDimension
  0
DIMENSION
  5
56C
100
AcDbEntity
  8
SCHEME_DIMS
100
AcDbDimension
 62
2
  6
CONTINUOUS
  2
*D5
 10
4.1362410934
 20
6.7716614707
 11
6.1441151091
 21
6.6966614707
 70
160
 42
102.0
  3
DIMSTYLE_2
100
AcDbAlignedDimension
 13
8.1519891249
 23
5.0692280596
 14
4.1362410934
 24
5.0692280596
 50
180.0
100
AcDbRotatedDimension
  0
DIMENSION
  5
56D
100
AcDbEntity
  8
SCHEME_DIMS
100
AcDbDimension
 62
2
  6
CONTINUOUS
  2
*D6
 10
3.4787607784
 20
4.9099181576
 11
3.4787607784
 21
4.5736571935
 70
160
 42
17.0820569768
  3
DIMSTYLE_2
100
AcDbAlignedDimension
 13
4.6380894293
 23
4.2373962294
 14
4.6380894293
 24
4.9099181576
 50
90.0
100
AcDbRotatedDimension
  0
DIMENSION
  5
56E
100
AcDbEntity
  8
SCHEME_DIMS
100
AcDbDimension
 62
2
  6
CONTINUOUS
  2
*D7
 10
8.8094694398
 20
4.5736571935
 11
8.8094694398
 21
4.1996414455
 70
160
 42
19.0
  3
DIMSTYLE_2
100
AcDbAlignedDimension
 13
8.3347519521
 23
3.8256256974
 14
7.497559991
 24
4.5736571935
 50
90.0
100
AcDbRotatedDimension
  0
DIMENSION
  5
56F
100
AcDbEntity
  8
SCHEME_DIMS
100
AcDbDimension
 62
2
  6
CONTINUOUS
  2
*D8
 10
6.1441151091
 20
6.0216614707
 11
7.148052117
 21
5.9466614707
 70
160
 42
51.0
  3
DIMSTYLE_2
100
AcDbAlignedDimension
 13
8.1519891249
 23
5.0692280596
 14
6.1441151091
 24
5.3267083746
 50
180.0
100
AcDbRotatedDimension
  0
DIMENSION
  5
570
100
AcDbEntity
  8
SCHEME_DIMS
100
AcDbDimension
 62
2
  6
CONTINUOUS
  2
*D9
 10
4.8891721065
 20
6.3966614707
 11
6.1441151091
 21
6.3216614707
 70
160
 42
63.7511045351
  3
DIMSTYLE_2
100
AcDbAlignedDimension
 13
7.3990581118
 23
5.1610008348
 14
4.8891721065
 24
5.1610008348
 50
180.0
100
AcDbRotatedDimension
  0
DIMENSION
  5
571
100
AcDbEntity
  8
SCHEME_DIMS
100
AcDbDimension
 62
2
  6
CONTINUOUS
  2
*D10
 10
5.0417529044
 20
2.9506256974
 11
6.1441151091
 21
2.8756256974
 70
160
 42
56.0
  3
DIMSTYLE_2
100
AcDbAlignedDimension
 13
7.2464773139
 23
4.3225745163
 14
5.0417529044
 24
4.3225745163
 50
180.0
100
AcDbRotatedDimension
  0
DIMENSION
  5
572
100
AcDbEntity
  8
SCHEME_DIMS
100
AcDbDimension
 62
2
  6
CONTINUOUS
  2
*D11
 10
7.2464773139
 20
3.3256256974
 11
7.6992332194
 21
3.2506256974
 70
160
 42
23.0
  3
DIMSTYLE_2
100
AcDbAlignedDimension
 13
8.1519891249
 23
3.7555927318
 14
7.2464773139
 24
4.3225745163
 50
180.0
100
AcDbRotatedDimension
  0
DIMENSION
  5
573
100
AcDbEntity
  8
SCHEME_DIMS
100
AcDbDimension
 62
2
  6
CONTINUOUS
  2
*D12
 10
8.8023336395
 20
8.9763075219
 11
9.3023336395
 21
8.1524930616
 70
160
 42
9.0
  3
DIMSTYLE_2
100
AcDbAlignedDimension
 13
8.2103355885
 23
8.6219768133
 14
8.166063928
 24
8.9763075219
 50
90.0
100
AcDbRotatedDimension
  0
DIMENSION
  5
574
100
AcDbEntity
  8
SCHEME_DIMS
100
AcDbDimension
 62
2
  6
CONTINUOUS
  2
*D13
 10
9.8753143032
 20
12.598354766
 11
9.8753143032
 21
10.712331144
 70
160
 42
92.0
  3
DIMSTYLE_2
100
AcDbAlignedDimension
 13
8.166063928
 23
8.9763075219
 14
8.166063928
 24
12.598354766
 50
90.0
100
AcDbRotatedDimension
  0
DIMENSION
  5
575
100
AcDbEntity
  8
SCHEME_DIMS
100
AcDbDimension
 62
2
  6
CONTINUOUS
  2
*D14
 10
2.907514578
 20
10.8660713015
 11
2.907514578
 21
9.6690240574
 70
160
 42
57.0
  3
DIMSTYLE_2
100
AcDbAlignedDimension
 13
4.0938658863
 23
8.6219768133
 14
5.8485904399
 24
10.8660713015
 50
90.0
100
AcDbRotatedDimension
  0
DIMENSION
  5
576
100
AcDbEntity
  8
SCHEME_DIMS
100
AcDbDimension
 62
2
  6
CONTINUOUS
  2
*D15
 10
4.3330914871
 20
14.0845752385
 11
6.1441151091
 21
14.0095752385
 70
160
 42
92.0
  3
DIMSTYLE_2
100
AcDbAlignedDimension
 13
7.9551387312
 23
12.8092799629
 14
4.3330914871
 24
12.8092799629
 50
180.0
100
AcDbRotatedDimension
  0
DIMENSION
  5
577
100
AcDbEntity
  8
SCHEME_DIMS
100
AcDbDimension
 62
2
  6
CONTINUOUS
  2
*D16
 10
4.8891721065
 20
4.2373962294
 11
2.889480941
 21
3.0506084728
 70
164
 42
2.25
  1
4X FULL <>
  3
DIMSTYLE_3
100
AcDbRadialDimension
 15
4.8283592799
 25
4.1729858978
  0
DIMENSION
  5
578
100
AcDbEntity
  8
SCHEME_DIMS
100
AcDbDimension
 62
2
  6
CONTINUOUS
  2
*D17
 10
5.0417529044
 20
4.5736571935
 11
9.3905313675
 21
5.2982031655
 70
164
 42
2.25
  1
2X FULL <>
  3
DIMSTYLE_3
100
AcDbRadialDimension
 15
5.1279817455
 25
4.5939421057
  0
DIMENSION
  5
579
100
AcDbEntity
  8
SCHEME_DIMS
100
AcDbDimension
 62
2
  6
CONTINUOUS
  2
*D18
 10
4.2973112355
 20
12.63098563
 11
2.924718303
 21
13.1541770836
 70
163
 42
2.46
  1
8X <>
  3
DIMSTYLE_4
100
AcDbDiametricDimension
 15
4.3688717387
 25
12.5657239021
  0
DIMENSION
  5
57A
100
AcDbEntity
  8
SCHEME_DIMS
100
AcDbDimension
 62
2
  6
CONTINUOUS
  2
*D19
 10
6.0617114207
 20
10.9123060285
 11
3.1601208424
 21
12.14737566
 70
163
 42
4.8
  1
<>
  3
DIMSTYLE_4
100
AcDbDiametricDimension
 15
6.2265187976
 25
10.8198365744
  0
DIMENSION
  5
57B
100
AcDbEntity
  8
SCHEME_DIMS
100
AcDbDimension
 62
2
  6
CONTINUOUS
  2
*D20
 10
7.9551387312
 20
13.3345752385
 11
9.0839621309
 21
13.2595752385
 70
160
 42
9.0
  3
DIMSTYLE_2
100
AcDbAlignedDimension
 13
8.3094694398
 23
12.8970752385
 14
7.9551387312
 24
12.8092799629
 50
180.0
100
AcDbRotatedDimension
  0
DIMENSION
  5
57C
100
AcDbEntity
  8
SCHEME_DIMS
100
AcDbDimension
 62
2
  6
CONTINUOUS
  2
*D21
 10
6.1441151091
 20
7.7469768133
 11
7.2267922745
 21
7.6719768133
 70
160
 42
55.0
  3
DIMSTYLE_2
100
AcDbAlignedDimension
 13
8.3094694398
 23
8.7382625948
 14
6.1441151091
 24
10.6090831125
 50
180.0
100
AcDbRotatedDimension
  0
DIMENSION
  5
57D
100
AcDbEntity
  8
SCHEME_DIMS
100
AcDbDimension
 62
2
  6
CONTINUOUS
  2
*D22
 10
3.3582008507
 20
9.2715831125
 11
3.3582008507
 21
8.8717799629
 70
160
 42
16.5
  3
DIMSTYLE_2
100
AcDbAlignedDimension
 13
4.2312214084
 23
8.6219768133
 14
4.4174418808
 24
9.2715831125
 50
90.0
100
AcDbRotatedDimension
  0
DIMENSION
  5
57E
100
AcDbEntity
  8
SCHEME_DIMS
100
AcDbDimension
 62
2
  6
CONTINUOUS
  2
*D23
 10
9.1844694398
 20
12.3030791755
 11
9.1844694398
 21
10.787331144
 70
160
 42
77.0
  3
DIMSTYLE_2
100
AcDbAlignedDimension
 13
7.8707883375
 23
9.2715831125
 14
7.8707883375
 24
12.3030791755
 50
90.0
100
AcDbRotatedDimension
  0
DIMENSION
  5
57F
100
AcDbEntity
  8
SCHEME_DIMS
100
AcDbDimension
 62
2
  6
CONTINUOUS
  2
*D24
 10
7.6598631406
 20
8.1219768133
 11
6.9848631406
 21
8.0469768133
 70
160
 42
16.5
  3
DIMSTYLE_2
100
AcDbAlignedDimension
 13
8.3094694398
 23
8.7169571282
 14
7.6598631406
 24
9.0606579156
 50
180.0
100
AcDbRotatedDimension
  0
DIMENSION
  5
580
100
AcDbEntity
  8
SCHEME_DIMS
100
AcDbDimension
 62
2
  6
CONTINUOUS
  2
*D25
 10
4.6283670776
 20
13.7095752385
 11
6.1441151091
 21
13.6345752385
 70
160
 42
77.0
  3
DIMSTYLE_2
100
AcDbAlignedDimension
 13
7.6598631406
 23
12.5140043723
 14
4.6283670776
 24
12.5140043723
 50
180.0
100
AcDbRotatedDimension
  0
DIMENSION
  5
581
100
AcDbEntity
  8
SCHEME_DIMS
100
AcDbDimension
 62
2
  6
CONTINUOUS
  2
*D26
 10
6.067479729
 20
4.6180858914
 11
3.311706034
 21
5.8122017312
 70
163
 42
4.5
  1
<>
  3
DIMSTYLE_4
100
AcDbDiametricDimension
 15
6.2207504893
 25
4.5292284956
  0
LINE
  5
582
100
AcDbEntity
  8
0
100
AcDbLine
 62
2
  6
CONTINUOUS
 10
21.05
 20
0.75
 11
16.7
 21
0.75
  0
LINE
  5
583
100
AcDbEntity
  8
0
100
AcDbLine
 62
2
  6
CONTINUOUS
 10
21.05
 20
0.75
 11
21.05
 21
2.67
  0
LINE
  5
584
100
AcDbEntity
  8
0
100
AcDbLine
 62
2
  6
CONTINUOUS
 10
21.05
 20
2.67
 11
16.7
 21
2.67
  0
LINE
  5
585
100
AcDbEntity
  8
0
100
AcDbLine
 62
2
  6
CONTINUOUS
 10
16.7
 20
0.75
 11
16.7
 21
2.67
  0
TEXT
  5
586
100
AcDbEntity
  8
0
100
AcDbText
 62
7
  6
CONTINUOUS
 10
20.775
 20
1.13
  7
STANDARD
 40
0.1
  1
-
 41
1.0
 72
1
 11
20.825
 21
1.13
100
AcDbText
  0
MTEXT
  5
587
100
AcDbEntity
  8
0
100
AcDbMText
 62
7
  6
CONTINUOUS
  7
STANDARD
 71
2
 72
1
 10
18.875
 20
1.83
 30
0.0
 11
1.0
 21
0.0
 31
0.0
  1
RMB100\PWEB CAD DRAWINGS 2D/3D
 40
0.1
 41
2.2
  0
MTEXT
  5
588
100
AcDbEntity
  8
NOTES
100
AcDbMText
 62
2
  6
CONTINUOUS
  7
STANDARD
 71
2
 72
1
 10
17.9780543362
 20
8.8038774223
 30
0.0
 11
1.0
 21
0.0
 31
0.0
  1
ISOMETRIC VIEW\P\H0.1;SCALE  1:1
 40
0.125
 41
1.75
  0
LINE
  5
589
100
AcDbEntity
  8
0
100
AcDbLine
 62
2
  6
CONTINUOUS
 10
0.814
 20
8.336603
 11
0.814
 21
8.163397
  0
LINE
  5
58A
100
AcDbEntity
  8
0
100
AcDbLine
 62
2
  6
CONTINUOUS
 10
0.964
 20
15.75
 11
0.964
 21
0.75
  0
LINE
  5
58B
100
AcDbEntity
  8
0
100
AcDbLine
 62
7
  6
CONTINUOUS
 10
15.8276527477
 20
1.2966912523
 11
16.4340437477
 21
1.3660842523
  0
LINE
  5
58C
100
AcDbEntity
  8
0
100
AcDbLine
 62
2
  6
CONTINUOUS
 10
10.920397
 20
0.6
 11
11.093603
 21
0.6
  0
LINE
  5
58D
100
AcDbEntity
  8
0
100
AcDbLine
 62
2
  6
CONTINUOUS
 10
0.964
 20
0.75
 11
21.05
 21
0.75
  0
LINE
  5
58E
100
AcDbEntity
  8
0
100
AcDbLine
 62
2
  6
CONTINUOUS
 10
3.507
 20
0.75
 11
3.507
 21
0.5
  0
LINE
  5
58F
100
AcDbEntity
  8
0
100
AcDbLine
 62
2
  6
CONTINUOUS
 10
3.507
 20
15.75
 11
3.507
 21
16.0
  0
LINE
  5
590
100
AcDbEntity
  8
0
100
AcDbLine
 62
2
  6
CONTINUOUS
 10
16.7
 20
1.0
 11
21.05
 21
1.0
  0
LINE
  5
591
100
AcDbEntity
  8
0
100
AcDbLine
 62
7
  6
CONTINUOUS
 10
14.9008917477
 20
1.1139932523
 11
15.1229827477
 21
1.1139932523
  0
LINE
  5
592
100
AcDbEntity
  8
0
100
AcDbLine
 62
7
  6
CONTINUOUS
 10
15.1729827477
 20
1.1139932523
 11
15.2729827477
 21
1.1139932523
  0
LINE
  5
593
100
AcDbEntity
  8
0
100
AcDbLine
 62
7
  6
CONTINUOUS
 10
15.3229827477
 20
1.1139932523
 11
15.5450737477
 21
1.1139932523
  0
LINE
  5
594
100
AcDbEntity
  8
0
100
AcDbLine
 62
7
  6
CONTINUOUS
 10
15.7276527477
 20
1.1139932523
 11
16.0058047477
 21
1.1139932523
  0
LINE
  5
595
100
AcDbEntity
  8
0
100
AcDbLine
 62
7
  6
CONTINUOUS
 10
16.0558047477
 20
1.1139932523
 11
16.2058907477
 21
1.1139932523
  0
LINE
  5
596
100
AcDbEntity
  8
0
100
AcDbLine
 62
7
  6
CONTINUOUS
 10
16.2558907477
 20
1.1139932523
 11
16.5340437477
 21
1.1139932523
  0
LINE
  5
597
100
AcDbEntity
  8
0
100
AcDbLine
 62
2
  6
CONTINUOUS
 10
16.7
 20
1.37
 11
21.05
 21
1.37
  0
LINE
  5
598
100
AcDbEntity
  8
0
100
AcDbLine
 62
7
  6
CONTINUOUS
 10
16.4340437477
 20
0.8619022523
 11
15.8276527477
 21
0.9312952523
  0
LINE
  5
599
100
AcDbEntity
  8
0
100
AcDbLine
 62
2
  6
CONTINUOUS
 10
14.7
 20
1.77
 11
16.7
 21
1.77
  0
LINE
  5
59A
100
AcDbEntity
  8
0
100
AcDbLine
 62
2
  6
CONTINUOUS
 10
16.7
 20
2.13
 11
21.05
 21
2.13
  0
LINE
  5
59B
100
AcDbEntity
  8
0
100
AcDbLine
 62
2
  6
CONTINUOUS
 10
21.05
 20
2.67
 11
14.7
 21
2.67
  0
LINE
  5
59C
100
AcDbEntity
  8
0
100
AcDbLine
 62
2
  6
CONTINUOUS
 10
6.007
 20
0.75
 11
6.007
 21
0.5
  0
LINE
  5
59D
100
AcDbEntity
  8
0
100
AcDbLine
 62
2
  6
CONTINUOUS
 10
6.007
 20
15.75
 11
6.007
 21
16.0
  0
LINE
  5
59E
100
AcDbEntity
  8
0
100
AcDbLine
 62
2
  6
CONTINUOUS
 10
0.814
 20
8.163397
 11
0.964
 21
8.25
  0
LINE
  5
59F
100
AcDbEntity
  8
0
100
AcDbLine
 62
2
  6
CONTINUOUS
 10
0.964
 20
8.25
 11
0.814
 21
8.336603
  0
LINE
  5
5A0
100
AcDbEntity
  8
0
100
AcDbLine
 62
2
  6
CONTINUOUS
 10
0.964
 20
4.4
 11
0.714
 21
4.4
  0
LINE
  5
5A1
100
AcDbEntity
  8
0
100
AcDbLine
 62
2
  6
CONTINUOUS
 10
21.05
 20
4.4
 11
21.3
 21
4.4
  0
LINE
  5
5A2
100
AcDbEntity
  8
0
100
AcDbLine
 62
2
  6
CONTINUOUS
 10
11.093603
 20
0.6
 11
11.007
 21
0.75
  0
LINE
  5
5A3
100
AcDbEntity
  8
0
100
AcDbLine
 62
2
  6
CONTINUOUS
 10
11.007
 20
15.75
 11
11.093603
 21
15.9
  0
LINE
  5
5A4
100
AcDbEntity
  8
0
100
AcDbLine
 62
2
  6
CONTINUOUS
 10
8.507
 20
0.75
 11
8.507
 21
0.5
  0
LINE
  5
5A5
100
AcDbEntity
  8
0
100
AcDbLine
 62
2
  6
CONTINUOUS
 10
8.507
 20
15.75
 11
8.507
 21
16.0
  0
LINE
  5
5A6
100
AcDbEntity
  8
0
100
AcDbLine
 62
2
  6
CONTINUOUS
 10
11.007
 20
0.75
 11
11.007
 21
0.5
  0
LINE
  5
5A7
100
AcDbEntity
  8
0
100
AcDbLine
 62
2
  6
CONTINUOUS
 10
11.007
 20
15.75
 11
11.007
 21
16.0
  0
LINE
  5
5A8
100
AcDbEntity
  8
0
100
AcDbLine
 62
2
  6
CONTINUOUS
 10
0.964
 20
8.25
 11
0.714
 21
8.25
  0
LINE
  5
5A9
100
AcDbEntity
  8
0
100
AcDbLine
 62
2
  6
CONTINUOUS
 10
21.05
 20
8.25
 11
21.3
 21
8.25
  0
LINE
  5
5AA
100
AcDbEntity
  8
0
100
AcDbLine
 62
2
  6
CONTINUOUS
 10
13.507
 20
0.75
 11
13.507
 21
0.5
  0
LINE
  5
5AB
100
AcDbEntity
  8
0
100
AcDbLine
 62
2
  6
CONTINUOUS
 10
13.507
 20
15.75
 11
13.507
 21
16.0
  0
LINE
  5
5AC
100
AcDbEntity
  8
0
100
AcDbLine
 62
2
  6
CONTINUOUS
 10
14.7
 20
2.67
 11
14.7
 21
0.75
  0
LINE
  5
5AD
100
AcDbEntity
  8
0
100
AcDbLine
 62
2
  6
CONTINUOUS
 10
11.007
 20
0.75
 11
10.920397
 21
0.6
  0
LINE
  5
5AE
100
AcDbEntity
  8
0
100
AcDbLine
 62
2
  6
CONTINUOUS
 10
0.964
 20
12.1
 11
0.714
 21
12.1
  0
LINE
  5
5AF
100
AcDbEntity
  8
0
100
AcDbLine
 62
2
  6
CONTINUOUS
 10
21.05
 20
12.1
 11
21.3
 21
12.1
  0
LINE
  5
5B0
100
AcDbEntity
  8
0
100
AcDbLine
 62
2
  6
CONTINUOUS
 10
10.920397
 20
15.9
 11
11.007
 21
15.75
  0
LINE
  5
5B1
100
AcDbEntity
  8
0
100
AcDbLine
 62
7
  6
CONTINUOUS
 10
15.2229827477
 20
1.0139932523
 11
15.2229827477
 21
0.7919022523
  0
LINE
  5
5B2
100
AcDbEntity
  8
0
100
AcDbLine
 62
7
  6
CONTINUOUS
 10
15.2229827477
 20
1.0639932523
 11
15.2229827477
 21
1.1639932523
  0
LINE
  5
5B3
100
AcDbEntity
  8
0
100
AcDbLine
 62
7
  6
CONTINUOUS
 10
15.2229827477
 20
1.2139932523
 11
15.2229827477
 21
1.4360842523
  0
LINE
  5
5B4
100
AcDbEntity
  8
0
100
AcDbLine
 62
7
  6
CONTINUOUS
 10
15.8276527477
 20
0.9312952523
 11
15.8276527477
 21
1.2966912523
  0
LINE
  5
5B5
100
AcDbEntity
  8
0
100
AcDbLine
 62
2
  6
CONTINUOUS
 10
16.007
 20
0.75
 11
16.007
 21
0.5
  0
LINE
  5
5B6
100
AcDbEntity
  8
0
100
AcDbLine
 62
2
  6
CONTINUOUS
 10
16.007
 20
15.75
 11
16.007
 21
16.0
  0
LINE
  5
5B7
100
AcDbEntity
  8
0
100
AcDbLine
 62
7
  6
CONTINUOUS
 10
16.4340437477
 20
1.3660842523
 11
16.4340437477
 21
0.8619022523
  0
LINE
  5
5B8
100
AcDbEntity
  8
0
100
AcDbLine
 62
2
  6
CONTINUOUS
 10
21.2
 20
8.336603
 11
21.05
 21
8.25
  0
LINE
  5
5B9
100
AcDbEntity
  8
0
100
AcDbLine
 62
2
  6
CONTINUOUS
 10
21.05
 20
8.25
 11
21.2
 21
8.163397
  0
LINE
  5
5BA
100
AcDbEntity
  8
0
100
AcDbLine
 62
7
  6
CONTINUOUS
 10
16.7
 20
2.67
 11
16.7
 21
0.75
  0
LINE
  5
5BB
100
AcDbEntity
  8
0
100
AcDbLine
 62
2
  6
CONTINUOUS
 10
17.5
 20
1.37
 11
17.5
 21
1.0
  0
LINE
  5
5BC
100
AcDbEntity
  8
0
100
AcDbLine
 62
2
  6
CONTINUOUS
 10
18.507
 20
0.75
 11
18.507
 21
0.5
  0
LINE
  5
5BD
100
AcDbEntity
  8
0
100
AcDbLine
 62
2
  6
CONTINUOUS
 10
18.507
 20
15.75
 11
18.507
 21
16.0
  0
LINE
  5
5BE
100
AcDbEntity
  8
0
100
AcDbLine
 62
2
  6
CONTINUOUS
 10
21.05
 20
15.75
 11
0.964
 21
15.75
  0
LINE
  5
5BF
100
AcDbEntity
  8
0
100
AcDbLine
 62
2
  6
CONTINUOUS
 10
11.093603
 20
15.9
 11
10.920397
 21
15.9
  0
LINE
  5
5C0
100
AcDbEntity
  8
0
100
AcDbLine
 62
2
  6
CONTINUOUS
 10
18.875
 20
1.0
 11
18.875
 21
0.75
  0
LINE
  5
5C1
100
AcDbEntity
  8
0
100
AcDbLine
 62
2
  6
CONTINUOUS
 10
20.25
 20
1.37
 11
20.25
 21
1.0
  0
LINE
  5
5C2
100
AcDbEntity
  8
0
100
AcDbLine
 62
2
  6
CONTINUOUS
 10
21.05
 20
0.75
 11
21.05
 21
15.75
  0
LINE
  5
5C3
100
AcDbEntity
  8
0
100
AcDbLine
 62
2
  6
CONTINUOUS
 10
21.2
 20
8.163397
 11
21.2
 21
8.336603
  0
LWPOLYLINE
  5
5C4
100
AcDbEntity
  8
0
100
AcDbPolyline
 62
7
  6
CONTINUOUS
 90
7
 70
0
 10
16.529277397
 20
14.6919894556
 10
16.5004571233
 20
14.6709689568
 10
16.4736017112
 20
14.6426195999
 10
16.4505375673
 20
14.6088681594
 10
16.4328401658
 20
14.5720181403
 10
16.4217166543
 20
14.5345857067
 10
16.417922462
 20
14.4991159799
  0
LINE
  5
5C5
100
AcDbEntity
  8
0
100
AcDbLine
 62
7
  6
CONTINUOUS
 10
16.5933060558
 20
14.7884248349
 11
16.4777753107
 21
14.7217235263
  0
LINE
  5
5C6
100
AcDbEntity
  8
0
100
AcDbLine
 62
7
  6
CONTINUOUS
 10
16.644808142
 20
14.7586907642
 11
16.529277397
 21
14.6919894556
  0
LWPOLYLINE
  5
5C7
100
AcDbEntity
  8
0
100
AcDbPolyline
 62
7
  6
CONTINUOUS
 90
6
 70
0
 10
16.644808142
 20
14.7586907642
 10
16.6646668411
 20
14.7670297886
 10
16.688323942
 20
14.7714602672
 10
16.7126475565
 20
14.7714603257
 10
16.7363047213
 20
14.7670299608
 10
16.7561635406
 20
14.7586910319
  0
LWPOLYLINE
  5
5C8
100
AcDbEntity
  8
0
100
AcDbPolyline
 62
7
  6
CONTINUOUS
 90
4
 70
0
 10
16.8753101978
 20
14.52496326
 10
16.8733033749
 20
14.5236026262
 10
16.8673573265
 20
14.515143369
 10
16.8652922856
 20
14.5028123602
  0
LWPOLYLINE
  5
5C9
100
AcDbEntity
  8
0
100
AcDbPolyline
 62
7
  6
CONTINUOUS
 90
4
 70
0
 10
16.9237582288
 20
14.4411231826
 10
16.9257650517
 20
14.4424838164
 10
16.9317111
 20
14.4509430736
 10
16.9337761409
 20
14.4632740824
  0
LWPOLYLINE
  5
5CA
100
AcDbEntity
  8
0
100
AcDbPolyline
 62
7
  6
CONTINUOUS
 90
4
 70
0
 10
17.0841024394
 20
14.1633264968
 10
17.0820956166
 20
14.1619658629
 10
17.0761495682
 20
14.1535066057
 10
17.0740845273
 20
14.1411755969
  0
LWPOLYLINE
  5
5CB
100
AcDbEntity
  8
0
100
AcDbPolyline
 62
7
  6
CONTINUOUS
 90
4
 70
0
 10
17.1325504705
 20
14.0794864193
 10
17.1345572933
 20
14.0808470531
 10
17.1405033417
 20
14.0893063104
 10
17.1425683826
 20
14.1016373191
  0
LWPOLYLINE
  5
5CC
100
AcDbEntity
  8
0
100
AcDbPolyline
 62
7
  6
CONTINUOUS
 90
7
 70
0
 10
18.59354272
 20
9.2859239593
 10
18.626157426
 20
9.2714753693
 10
18.6641365732
 20
9.2623927356
 10
18.7048983107
 20
9.2592943748
 10
18.7456600035
 20
9.2623929315
 10
18.7836390197
 20
9.2714757478
 10
18.8162535173
 20
9.2859244946
  0
LINE
  5
5CD
100
AcDbEntity
  8
0
100
AcDbLine
 62
7
  6
CONTINUOUS
 10
15.9766799577
 20
10.735659248
 11
18.59354272
 21
9.2248470068
  0
LWPOLYLINE
  5
5CE
100
AcDbEntity
  8
0
100
AcDbPolyline
 62
7
  6
CONTINUOUS
 90
4
 70
0
 10
15.9766799577
 20
10.735659248
 10
15.9516536363
 20
10.7544889677
 10
15.9359215121
 20
10.7764158495
 10
15.9305545777
 20
10.7999496616
  0
LWPOLYLINE
  5
5CF
100
AcDbEntity
  8
0
100
AcDbPolyline
 62
7
  6
CONTINUOUS
 90
4
 70
0
 10
15.9305545777
 20
10.8610266141
 10
15.9359215121
 20
10.837492802
 10
15.9516536363
 20
10.8155659202
 10
15.9766799577
 20
10.7967362004
  0
LINE
  5
5D0
100
AcDbEntity
  8
0
100
AcDbLine
 62
7
  6
CONTINUOUS
 10
15.9305545777
 20
10.8610266184
 11
15.9305545777
 21
10.7999496659
  0
LINE
  5
5D1
100
AcDbEntity
  8
0
100
AcDbLine
 62
9
  6
CONTINUOUS
 10
15.9766799577
 20
10.7967362004
 11
15.9766799577
 21
10.735659248
  0
LWPOLYLINE
  5
5D2
100
AcDbEntity
  8
0
100
AcDbPolyline
 62
7
  6
CONTINUOUS
 90
4
 70
0
 10
19.461322689
 20
9.6349383558
 10
19.4843858362
 20
9.6278195112
 10
19.5112412483
 20
9.630479928
 10
19.540061522
 20
9.642738016
  0
LINE
  5
5D3
100
AcDbEntity
  8
0
100
AcDbLine
 62
7
  6
CONTINUOUS
 10
18.59354272
 20
9.2859239593
 11
15.9766799577
 21
10.7967362004
  0
LWPOLYLINE
  5
5D4
100
AcDbEntity
  8
0
100
AcDbPolyline
 62
7
  6
CONTINUOUS
 90
7
 70
0
 10
16.3664203757
 20
14.5288500506
 10
16.370214568
 20
14.5643197774
 10
16.3813380795
 20
14.601752211
 10
16.399035481
 20
14.6386022301
 10
16.4220996249
 20
14.6723536706
 10
16.448955037
 20
14.7007030275
 10
16.4777753107
 20
14.7217235263
  0
LWPOLYLINE
  5
5D5
100
AcDbEntity
  8
0
100
AcDbPolyline
 62
7
  6
CONTINUOUS
 90
6
 70
0
 10
18.5448205316
 20
9.8074763765
 10
18.5246362153
 20
9.8161998174
 10
18.5010126227
 20
9.8212867966
 10
18.475863597
 20
9.8223251974
 10
18.4512265625
 20
9.8192308946
 10
18.4290974654
 20
9.8122545704
  0
LWPOLYLINE
  5
5D6
100
AcDbEntity
  8
0
100
AcDbPolyline
 62
7
  6
CONTINUOUS
 90
10
 70
0
 10
18.5448205316
 20
9.868553329
 10
18.5246362153
 20
9.8772767699
 10
18.5010126227
 20
9.8823637491
 10
18.475863597
 20
9.8834021499
 10
18.4512265625
 20
9.8803078471
 10
18.4290974654
 20
9.8733315228
 10
18.4112690734
 20
9.8630383573
 10
18.3991857368
 20
9.8502622417
 10
18.3938263757
 20
9.8360382208
 10
18.3936084128
 20
9.8324086783
  0
LWPOLYLINE
  5
5D7
100
AcDbEntity
  8
0
100
AcDbPolyline
 62
7
  6
CONTINUOUS
 90
10
 70
0
 10
16.8605641586
 20
10.6962849652
 10
16.8807484749
 20
10.6875615244
 10
16.9043720675
 20
10.6824745451
 10
16.9295210932
 20
10.6814361444
 10
16.9541581277
 20
10.6845304471
 10
16.9762872248
 20
10.6915067714
 10
16.9941156168
 20
10.7017999369
 10
17.0061989534
 20
10.7145760526
 10
17.0115583145
 20
10.7288000734
 10
17.0117762774
 20
10.7324296159
  0
LINE
  5
5D8
100
AcDbEntity
  8
0
100
AcDbLine
 62
7
  6
CONTINUOUS
 10
16.786301701
 20
10.7391594452
 11
16.8605641586
 21
10.6962849652
  0
LINE
  5
5D9
100
AcDbEntity
  8
0
100
AcDbLine
 62
7
  6
CONTINUOUS
 10
18.4195462298
 20
9.7962266088
 11
18.4938086873
 21
9.7533521289
  0
LWPOLYLINE
  5
5DA
100
AcDbEntity
  8
0
100
AcDbPolyline
 62
7
  6
CONTINUOUS
 90
11
 70
0
 10
16.4889600761
 20
10.6574430175
 10
16.4890561999
 20
10.6550277818
 10
16.4938279436
 20
10.6407341777
 10
16.5053814207
 20
10.6277957179
 10
16.5227806374
 20
10.6172605995
 10
16.5446160124
 20
10.6099823152
 10
16.5691185737
 20
10.6065505082
 10
16.5943032694
 20
10.6072432032
 10
16.6181297852
 20
10.6120042821
 10
16.6386678386
 20
10.6204480305
 10
16.6542535585
 20
10.6318903863
  0
LINE
  5
5DB
100
AcDbEntity
  8
0
100
AcDbLine
 62
7
  6
CONTINUOUS
 10
16.3664203757
 20
14.5288500506
 11
16.3664203757
 21
11.4750024274
  0
LINE
  5
5DC
100
AcDbEntity
  8
0
100
AcDbLine
 62
7
  6
CONTINUOUS
 10
16.417922462
 20
11.4452683567
 11
16.417922462
 21
14.4991159799
  0
LWPOLYLINE
  5
5DD
100
AcDbEntity
  8
0
100
AcDbPolyline
 62
7
  6
CONTINUOUS
 90
7
 70
0
 10
17.7736062104
 20
10.251990924
 10
17.7557776699
 20
10.2622840038
 10
17.7336484721
 20
10.2692602217
 10
17.7090113931
 20
10.272354406
 10
17.6838623823
 20
10.2713158843
 10
17.6602388631
 20
10.2662287915
 10
17.6400546726
 20
10.2575052536
  0
LINE
  5
5DE
100
AcDbEntity
  8
0
100
AcDbLine
 62
7
  6
CONTINUOUS
 10
18.6190829892
 20
9.7646018966
 11
18.5448205316
 21
9.8074763765
  0
LINE
  5
5DF
100
AcDbEntity
  8
0
100
AcDbLine
 62
7
  6
CONTINUOUS
 10
16.9858384604
 20
10.707534733
 11
16.9115760029
 21
10.7504092129
  0
LINE
  5
5E0
100
AcDbEntity
  8
0
100
AcDbLine
 62
7
  6
CONTINUOUS
 10
18.6190829892
 20
9.8256788491
 11
18.5448205316
 21
9.868553329
  0
LINE
  5
5E1
100
AcDbEntity
  8
0
100
AcDbLine
 62
7
  6
CONTINUOUS
 10
16.9858384604
 20
10.7686116854
 11
16.9115760029
 21
10.8114861653
  0
LINE
  5
5E2
100
AcDbEntity
  8
0
100
AcDbLine
 62
7
  6
CONTINUOUS
 10
16.9936345093
 20
10.701522171
 11
16.9858384604
 21
10.707534733
  0
LWPOLYLINE
  5
5E3
100
AcDbEntity
  8
0
100
AcDbPolyline
 62
7
  6
CONTINUOUS
 90
4
 70
0
 10
16.3990364777
 20
11.4029101273
 10
16.3813380795
 20
11.4193256448
 10
16.370214568
 20
11.4439138304
 10
16.3664203757
 20
11.4750024274
  0
LWPOLYLINE
  5
5E4
100
AcDbEntity
  8
0
100
AcDbPolyline
 62
7
  6
CONTINUOUS
 90
4
 70
0
 10
16.417922462
 20
11.4452683567
 10
16.4217166543
 20
11.4141797597
 10
16.4328401658
 20
11.3895915741
 10
16.450538564
 20
11.3731760566
  0
LINE
  5
5E5
100
AcDbEntity
  8
0
100
AcDbLine
 62
9
  6
CONTINUOUS
 10
16.5008234922
 20
10.6830325189
 11
16.5008234922
 21
10.6329000318
  0
LINE
  5
5E6
100
AcDbEntity
  8
0
100
AcDbLine
 62
9
  6
CONTINUOUS
 10
16.644808142
 20
11.4476770255
 11
16.644808142
 21
14.7586907642
  0
LINE
  5
5E7
100
AcDbEntity
  8
0
100
AcDbLine
 62
7
  6
CONTINUOUS
 10
16.3990364892
 20
11.4029101207
 11
16.4505385755
 21
11.37317605
  0
LINE
  5
5E8
100
AcDbEntity
  8
0
100
AcDbLine
 62
7
  6
CONTINUOUS
 10
19.4098206142
 20
9.6646724199
 11
19.4613227005
 21
9.6349383492
  0
LINE
  5
5E9
100
AcDbEntity
  8
0
100
AcDbLine
 62
9
  6
CONTINUOUS
 10
16.3664203757
 20
11.4750024274
 11
16.417922462
 21
11.4452683567
  0
LINE
  5
5EA
100
AcDbEntity
  8
0
100
AcDbLine
 62
9
  6
CONTINUOUS
 10
19.3772045007
 20
9.7367647266
 11
19.428706587
 21
9.7070306559
  0
LINE
  5
5EB
100
AcDbEntity
  8
0
100
AcDbLine
 62
9
  6
CONTINUOUS
 10
19.3772045007
 20
9.802656835
 11
16.704661918
 21
11.3456151082
  0
LWPOLYLINE
  5
5EC
100
AcDbEntity
  8
0
100
AcDbPolyline
 62
7
  6
CONTINUOUS
 90
8
 70
0
 10
18.898709121
 20
9.8767492228
 10
18.8826040528
 20
9.8865007422
 10
18.8607686777
 20
9.8937790266
 10
18.8362661165
 20
9.8972108335
 10
18.8110814208
 20
9.8965181386
 10
18.787254905
 20
9.8917570597
 10
18.7667168516
 20
9.8833133112
 10
18.7511311316
 20
9.8718709554
  0
LWPOLYLINE
  5
5ED
100
AcDbEntity
  8
0
100
AcDbPolyline
 62
7
  6
CONTINUOUS
 90
7
 70
0
 10
17.1234597151
 20
10.9018041336
 10
17.122711821
 20
10.9025520099
 10
17.104464055
 20
10.912597221
 10
17.0820535687
 20
10.919267421
 10
17.0572959265
 20
10.9220222301
 10
17.0321968454
 20
10.92063847
 10
17.0087897035
 20
10.9152282447
  0
LINE
  5
5EE
100
AcDbEntity
  8
0
100
AcDbLine
 62
9
  6
CONTINUOUS
 10
16.7561635406
 20
11.4476772931
 11
16.7561635406
 21
14.7586910319
  0
LINE
  5
5EF
100
AcDbEntity
  8
0
100
AcDbLine
 62
7
  6
CONTINUOUS
 10
16.7603393855
 20
11.4452664225
 11
16.7603393855
 21
11.4420518461
  0
LINE
  5
5F0
100
AcDbEntity
  8
0
100
AcDbLine
 62
7
  6
CONTINUOUS
 10
16.9115760029
 20
10.8114861653
 11
16.9115760029
 21
10.7504092129
  0
LINE
  5
5F1
100
AcDbEntity
  8
0
100
AcDbLine
 62
7
  6
CONTINUOUS
 10
18.0039929655
 20
13.3919649812
 11
18.0076816302
 21
13.3941853148
  0
LINE
  5
5F2
100
AcDbEntity
  8
0
100
AcDbLine
 62
7
  6
CONTINUOUS
 10
18.19211477
 20
13.2833552639
 11
18.19580344
 21
13.2855755944
  0
LINE
  5
5F3
100
AcDbEntity
  8
0
100
AcDbLine
 62
7
  6
CONTINUOUS
 10
18.2013364344
 20
13.2258320049
 11
18.1939591156
 21
13.2235662996
  0
LWPOLYLINE
  5
5F4
100
AcDbEntity
  8
0
100
AcDbPolyline
 62
7
  6
CONTINUOUS
 90
4
 70
0
 10
16.450538564
 20
11.3731760566
 10
16.4736017112
 20
11.366057212
 10
16.5004571233
 20
11.3687176288
 10
16.529277397
 20
11.3809757169
  0
LWPOLYLINE
  5
5F5
100
AcDbEntity
  8
0
100
AcDbPolyline
 62
7
  6
CONTINUOUS
 90
6
 70
0
 10
16.7561635406
 20
11.4476772931
 10
16.7363047213
 20
11.456016222
 10
16.7126475565
 20
11.460446587
 10
16.688323942
 20
11.4604465285
 10
16.6646668411
 20
11.4560160498
 10
16.644808142
 20
11.4476770255
  0
LINE
  5
5F6
100
AcDbEntity
  8
0
100
AcDbLine
 62
9
  6
CONTINUOUS
 10
19.3772045007
 20
9.9312382466
 11
16.7603393855
 21
11.4420518461
  0
LINE
  5
5F7
100
AcDbEntity
  8
0
100
AcDbLine
 62
7
  6
CONTINUOUS
 10
16.7561635406
 20
11.4476772931
 11
16.7603393855
 21
11.4452664225
  0
LWPOLYLINE
  5
5F8
100
AcDbEntity
  8
0
100
AcDbPolyline
 62
7
  6
CONTINUOUS
 90
4
 70
0
 10
17.0117762774
 20
10.7324296159
 10
17.0097595165
 20
10.743319654
 10
17.0009482873
 20
10.7569585042
 10
16.9858384604
 20
10.7686116854
  0
LWPOLYLINE
  5
5F9
100
AcDbEntity
  8
0
100
AcDbPolyline
 62
7
  6
CONTINUOUS
 90
8
 70
0
 10
16.8652922856
 20
11.5454020304
 10
16.8673573265
 20
11.5306865718
 10
16.8733033749
 20
11.5153615647
 10
16.8824132494
 20
11.5012754312
 10
16.8935881649
 20
11.4901271669
 10
16.9054802616
 20
11.483261417
 10
16.9166551771
 20
11.4815062923
 10
16.9237582288
 20
11.4837128528
  0
LWPOLYLINE
  5
5FA
100
AcDbEntity
  8
0
100
AcDbPolyline
 62
7
  6
CONTINUOUS
 90
8
 70
0
 10
16.9337761409
 20
11.5058637526
 10
16.9317111
 20
11.5205792113
 10
16.9257650517
 20
11.5359042184
 10
16.9166551771
 20
11.5499903519
 10
16.9054802616
 20
11.5611386162
 10
16.8935881649
 20
11.5680043661
 10
16.8824132494
 20
11.5697594908
 10
16.8753101978
 20
11.5675529303
  0
LWPOLYLINE
  5
5FB
100
AcDbEntity
  8
0
100
AcDbPolyline
 62
7
  6
CONTINUOUS
 90
9
 70
0
 10
17.1416532026
 20
10.9320294045
 10
17.1412628943
 20
10.936876214
 10
17.1353185413
 20
10.9510225435
 10
17.122711821
 20
10.9636289624
 10
17.104464055
 20
10.9736741734
 10
17.0820535687
 20
10.9803443735
 10
17.0572959265
 20
10.9830991826
 10
17.0321968454
 20
10.9817154224
 10
17.0087897035
 20
10.9763051971
  0
LINE
  5
5FC
100
AcDbEntity
  8
0
100
AcDbLine
 62
9
  6
CONTINUOUS
 10
16.9858384604
 20
10.7686116854
 11
16.9858384604
 21
10.707534733
  0
LINE
  5
5FD
100
AcDbEntity
  8
0
100
AcDbLine
 62
9
  6
CONTINUOUS
 10
17.0087897035
 20
10.9763051971
 11
17.0087897035
 21
10.9152282447
  0
LINE
  5
5FE
100
AcDbEntity
  8
0
100
AcDbLine
 62
7
  6
CONTINUOUS
 10
18.0132146246
 20
13.3801160689
 11
18.0187476191
 21
13.3856215393
  0
LINE
  5
5FF
100
AcDbEntity
  8
0
100
AcDbLine
 62
7
  6
CONTINUOUS
 10
18.223468412
 20
13.2913532676
 11
18.2345344008
 21
13.3001892399
  0
LINE
  5
600
100
AcDbEntity
  8
0
100
AcDbLine
 62
7
  6
CONTINUOUS
 10
18.2345344008
 20
13.2827894921
 11
18.223468412
 21
13.2739535137
  0
LINE
  5
601
100
AcDbEntity
  8
0
100
AcDbLine
 62
7
  6
CONTINUOUS
 10
18.19580344
 20
13.2399012532
 11
18.19211477
 21
13.2376809211
  0
LINE
  5
602
100
AcDbEntity
  8
0
100
AcDbLine
 62
7
  6
CONTINUOUS
 10
18.2732653617
 20
13.2691285412
 11
18.2677323673
 21
13.2657980393
  0
LINE
  5
603
100
AcDbEntity
  8
0
100
AcDbLine
 62
7
  6
CONTINUOUS
 10
18.3544159322
 20
13.2222772974
 11
18.3488829378
 21
13.2189467955
  0
LINE
  5
604
100
AcDbEntity
  8
0
100
AcDbLine
 62
7
  6
CONTINUOUS
 10
18.313840668
 20
13.1608791248
 11
18.3193736624
 21
13.1642096275
  0
LINE
  5
605
100
AcDbEntity
  8
0
100
AcDbLine
 62
7
  6
CONTINUOUS
 10
18.3949912386
 20
13.114027881
 11
18.400524233
 21
13.1173583836
  0
LWPOLYLINE
  5
606
100
AcDbEntity
  8
0
100
AcDbPolyline
 62
7
  6
CONTINUOUS
 90
8
 70
0
 10
17.0740845273
 20
11.665951734
 10
17.0761495682
 20
11.6512362753
 10
17.0820956166
 20
11.6359112682
 10
17.0912054911
 20
11.6218251347
 10
17.1023804066
 20
11.6106768704
 10
17.1142725033
 20
11.6038111205
 10
17.1254474188
 20
11.6020559958
 10
17.1325504705
 20
11.6042625563
  0
LWPOLYLINE
  5
607
100
AcDbEntity
  8
0
100
AcDbPolyline
 62
7
  6
CONTINUOUS
 90
8
 70
0
 10
17.1425683826
 20
11.6264134562
 10
17.1405033417
 20
11.6411289149
 10
17.1345572933
 20
11.656453922
 10
17.1254474188
 20
11.6705400555
 10
17.1142725033
 20
11.6816883197
 10
17.1023804066
 20
11.6885540696
 10
17.0912054911
 20
11.6903091944
 10
17.0841024394
 20
11.6881026338
  0
LINE
  5
608
100
AcDbEntity
  8
0
100
AcDbLine
 62
7
  6
CONTINUOUS
 10
18.2787983561
 20
13.2572342637
 11
18.2714210372
 21
13.2484436474
  0
LINE
  5
609
100
AcDbEntity
  8
0
100
AcDbLine
 62
7
  6
CONTINUOUS
 10
18.2068694288
 20
13.2770118188
 11
18.2013364344
 21
13.2715063484
  0
LINE
  5
60A
100
AcDbEntity
  8
0
100
AcDbLine
 62
7
  6
CONTINUOUS
 10
18.2068694288
 20
13.2313374761
 11
18.2013364344
 21
13.2258320049
  0
LWPOLYLINE
  5
60B
100
AcDbEntity
  8
0
100
AcDbPolyline
 62
7
  6
CONTINUOUS
 90
4
 70
0
 10
19.4098206027
 20
9.6646724265
 10
19.3921222045
 20
9.681087944
 10
19.380998693
 20
9.7056761295
 10
19.3772045007
 20
9.7367647266
  0
LWPOLYLINE
  5
60C
100
AcDbEntity
  8
0
100
AcDbPolyline
 62
7
  6
CONTINUOUS
 90
8
 70
0
 10
16.8652922856
 20
14.5028123602
 10
16.8673573265
 20
14.4880969015
 10
16.8733033749
 20
14.4727718944
 10
16.8824132494
 20
14.4586857609
 10
16.8935881649
 20
14.4475374966
 10
16.9054802616
 20
14.4406717468
 10
16.9166551771
 20
14.438916622
 10
16.9237582288
 20
14.4411231826
  0
LWPOLYLINE
  5
60D
100
AcDbEntity
  8
0
100
AcDbPolyline
 62
7
  6
CONTINUOUS
 90
8
 70
0
 10
16.9337761409
 20
14.4632740824
 10
16.9317111
 20
14.4779895411
 10
16.9257650517
 20
14.4933145482
 10
16.9166551771
 20
14.5074006817
 10
16.9054802616
 20
14.518548946
 10
16.8935881649
 20
14.5254146959
 10
16.8824132494
 20
14.5271698206
 10
16.8753101978
 20
14.52496326
  0
LWPOLYLINE
  5
60E
100
AcDbEntity
  8
0
100
AcDbPolyline
 62
7
  6
CONTINUOUS
 90
8
 70
0
 10
17.0740845273
 20
14.1411755969
 10
17.0761495682
 20
14.1264601382
 10
17.0820956166
 20
14.1111351311
 10
17.0912054911
 20
14.0970489976
 10
17.1023804066
 20
14.0859007334
 10
17.1142725033
 20
14.0790349835
 10
17.1254474188
 20
14.0772798587
 10
17.1325504705
 20
14.0794864193
  0
LWPOLYLINE
  5
60F
100
AcDbEntity
  8
0
100
AcDbPolyline
 62
7
  6
CONTINUOUS
 90
10
 70
0
 10
17.6141173785
 20
10.2824004384
 10
17.6143353928
 20
10.2787704705
 10
17.619694959
 20
10.2645464753
 10
17.6317784798
 20
10.2517704178
 10
17.6496070203
 20
10.241477338
 10
17.671736218
 20
10.2345011201
 10
17.6963732971
 20
10.2314069358
 10
17.7215223079
 20
10.2324454575
 10
17.7451458271
 20
10.2375325502
 10
17.7653300176
 20
10.2462560882
  0
LINE
  5
610
100
AcDbEntity
  8
0
100
AcDbLine
 62
7
  6
CONTINUOUS
 10
18.0076816302
 20
13.3941853148
 11
18.00952596
 21
13.3996454201
  0
LINE
  5
611
100
AcDbEntity
  8
0
100
AcDbLine
 62
7
  6
CONTINUOUS
 10
18.0187476191
 20
13.3856215393
 11
18.0205919488
 21
13.3910816445
  0
LINE
  5
612
100
AcDbEntity
  8
0
100
AcDbLine
 62
7
  6
CONTINUOUS
 10
18.1146528589
 20
13.3476516298
 11
18.0888322113
 21
13.2820850043
  0
LINE
  5
613
100
AcDbEntity
  8
0
100
AcDbLine
 62
7
  6
CONTINUOUS
 10
18.2677323673
 20
13.2657980393
 11
18.2640436973
 21
13.2592277718
  0
LWPOLYLINE
  5
614
100
AcDbEntity
  8
0
100
AcDbPolyline
 62
7
  6
CONTINUOUS
 90
3
 70
0
 10
16.5008234922
 20
10.6830325189
 10
16.491452768
 20
10.6695185474
 10
16.4889600761
 20
10.6574430175
  0
LINE
  5
615
100
AcDbEntity
  8
0
100
AcDbLine
 62
7
  6
CONTINUOUS
 10
18.3083076736
 20
13.172773403
 11
18.3156849714
 21
13.181564027
  0
LINE
  5
616
100
AcDbEntity
  8
0
100
AcDbLine
 62
7
  6
CONTINUOUS
 10
18.3599489266
 20
13.2103830199
 11
18.3525716289
 21
13.2015923914
  0
LINE
  5
617
100
AcDbEntity
  8
0
100
AcDbLine
 62
7
  6
CONTINUOUS
 10
18.3894582442
 20
13.1259221592
 11
18.3968355841
 21
13.1347127588
  0
LWPOLYLINE
  5
618
100
AcDbEntity
  8
0
100
AcDbPolyline
 62
7
  6
CONTINUOUS
 90
4
 70
0
 10
15.9766790305
 20
10.925316501
 10
15.9516529807
 20
10.9064866609
 10
15.9359211727
 20
10.8845597035
 10
15.9305545777
 20
10.8610266141
  0
LWPOLYLINE
  5
619
100
AcDbEntity
  8
0
100
AcDbPolyline
 62
7
  6
CONTINUOUS
 90
8
 70
0
 10
17.1425683826
 20
14.1016373191
 10
17.1405033417
 20
14.1163527778
 10
17.1345572933
 20
14.1316777849
 10
17.1254474188
 20
14.1457639184
 10
17.1142725033
 20
14.1569121827
 10
17.1023804066
 20
14.1637779326
 10
17.0912054911
 20
14.1655330573
 10
17.0841024394
 20
14.1633264968
  0
LWPOLYLINE
  5
61A
100
AcDbEntity
  8
0
100
AcDbPolyline
 62
7
  6
CONTINUOUS
 90
10
 70
0
 10
17.7912673117
 20
10.2824378558
 10
17.7910492974
 20
10.2860678238
 10
17.7856897312
 20
10.3002918189
 10
17.7736062104
 20
10.3130678765
 10
17.7557776699
 20
10.3233609562
 10
17.7336484721
 20
10.3303371741
 10
17.7090113931
 20
10.3334313584
 10
17.6838623823
 20
10.3323928368
 10
17.6602388631
 20
10.327305744
 10
17.6400546726
 20
10.3185822061
  0
LINE
  5
61B
100
AcDbEntity
  8
0
100
AcDbLine
 62
7
  6
CONTINUOUS
 10
18.19580344
 20
13.2855755944
 11
18.1976477644
 21
13.2910357027
  0
LINE
  5
61C
100
AcDbEntity
  8
0
100
AcDbLine
 62
7
  6
CONTINUOUS
 10
18.2087137532
 20
13.2824719272
 11
18.2068694288
 21
13.2770118188
  0
LINE
  5
61D
100
AcDbEntity
  8
0
100
AcDbLine
 62
7
  6
CONTINUOUS
 10
18.1976477644
 20
13.2453613615
 11
18.19580344
 21
13.2399012532
  0
LINE
  5
61E
100
AcDbEntity
  8
0
100
AcDbLine
 62
7
  6
CONTINUOUS
 10
18.2087137532
 20
13.2367975859
 11
18.2068694288
 21
13.2313374761
  0
LINE
  5
61F
100
AcDbEntity
  8
0
100
AcDbLine
 62
7
  6
CONTINUOUS
 10
18.2640436973
 20
13.2592277718
 11
18.2621993728
 21
13.2537676574
  0
LINE
  5
620
100
AcDbEntity
  8
0
100
AcDbLine
 62
7
  6
CONTINUOUS
 10
18.0814548925
 20
13.2972190489
 11
18.1091198645
 21
13.3725957182
  0
LINE
  5
621
100
AcDbEntity
  8
0
100
AcDbLine
 62
7
  6
CONTINUOUS
 10
18.3488829378
 20
13.2189467955
 11
18.3451942889
 21
13.2123765158
  0
LINE
  5
622
100
AcDbEntity
  8
0
100
AcDbLine
 62
7
  6
CONTINUOUS
 10
18.3193736624
 20
13.1642096275
 11
18.3230623113
 21
13.1707799087
  0
LINE
  5
623
100
AcDbEntity
  8
0
100
AcDbLine
 62
7
  6
CONTINUOUS
 10
18.400524233
 20
13.1173583836
 11
18.4042128818
 21
13.1239286649
  0
LWPOLYLINE
  5
624
100
AcDbEntity
  8
0
100
AcDbPolyline
 62
7
  6
CONTINUOUS
 90
4
 70
0
 10
18.132904141
 20
12.4111280873
 10
18.1239195214
 20
12.4034567396
 10
18.1160195285
 20
12.38804297
 10
18.1133131116
 20
12.367869865
  0
LWPOLYLINE
  5
625
100
AcDbEntity
  8
0
100
AcDbPolyline
 62
7
  6
CONTINUOUS
 90
6
 70
0
 10
16.704661918
 20
11.3456151082
 10
16.721813095
 20
11.3586436722
 10
16.7374785089
 20
11.376916082
 10
16.7496402655
 20
11.3979809794
 10
16.757631886
 20
11.4206839825
 10
16.7603393855
 20
11.4420518461
  0
LWPOLYLINE
  5
626
100
AcDbEntity
  8
0
100
AcDbPolyline
 62
7
  6
CONTINUOUS
 90
4
 70
0
 10
16.8753101978
 20
11.5675529303
 10
16.8733033749
 20
11.5661922964
 10
16.8673573265
 20
11.5577330392
 10
16.8652922856
 20
11.5454020304
  0
LWPOLYLINE
  5
627
100
AcDbEntity
  8
0
100
AcDbPolyline
 62
7
  6
CONTINUOUS
 90
4
 70
0
 10
17.0841024394
 20
11.6881026338
 10
17.0820956166
 20
11.686742
 10
17.0761495682
 20
11.6782827427
 10
17.0740845273
 20
11.665951734
  0
LWPOLYLINE
  5
628
100
AcDbEntity
  8
0
100
AcDbPolyline
 62
7
  6
CONTINUOUS
 90
4
 70
0
 10
16.9237582288
 20
11.4837128528
 10
16.9257650517
 20
11.4850734867
 10
16.9317111
 20
11.4935327439
 10
16.9337761409
 20
11.5058637526
  0
LWPOLYLINE
  5
629
100
AcDbEntity
  8
0
100
AcDbPolyline
 62
7
  6
CONTINUOUS
 90
4
 70
0
 10
17.1325504705
 20
11.6042625563
 10
17.1345572933
 20
11.6056231902
 10
17.1405033417
 20
11.6140824474
 10
17.1425683826
 20
11.6264134562
  0
LINE
  5
62A
100
AcDbEntity
  8
0
100
AcDbLine
 62
7
  6
CONTINUOUS
 10
16.644808142
 20
11.4476770255
 11
16.529277397
 21
11.3809757169
  0
LINE
  5
62B
100
AcDbEntity
  8
0
100
AcDbLine
 62
7
  6
CONTINUOUS
 10
19.6040901807
 20
13.0501871341
 11
19.4885594357
 21
12.9834858255
  0
LINE
  5
62C
100
AcDbEntity
  8
0
100
AcDbLine
 62
7
  6
CONTINUOUS
 10
16.704661918
 20
11.3456151082
 11
15.9766790305
 21
10.925316501
  0
LINE
  5
62D
100
AcDbEntity
  8
0
100
AcDbLine
 62
7
  6
CONTINUOUS
 10
17.9523516862
 20
13.4631038206
 11
17.9523516862
 21
13.3608802896
  0
LINE
  5
62E
100
AcDbEntity
  8
0
100
AcDbLine
 62
7
  6
CONTINUOUS
 10
17.963417675
 20
13.4458401711
 11
17.963417675
 21
13.4132156377
  0
LINE
  5
62F
100
AcDbEntity
  8
0
100
AcDbLine
 62
7
  6
CONTINUOUS
 10
17.963417675
 20
13.3544914825
 11
17.963417675
 21
13.4001658268
  0
LINE
  5
630
100
AcDbEntity
  8
0
100
AcDbLine
 62
7
  6
CONTINUOUS
 10
18.00952596
 20
13.3996454201
 11
18.00952596
 21
13.4061703317
  0
LINE
  5
631
100
AcDbEntity
  8
0
100
AcDbLine
 62
7
  6
CONTINUOUS
 10
18.0205919488
 20
13.3910816445
 11
18.0205919488
 21
13.3997815246
  0
LINE
  5
632
100
AcDbEntity
  8
0
100
AcDbLine
 62
7
  6
CONTINUOUS
 10
18.037190932
 20
13.3118994363
 11
18.037190932
 21
13.4141229673
  0
LINE
  5
633
100
AcDbEntity
  8
0
100
AcDbLine
 62
7
  6
CONTINUOUS
 10
18.0482569261
 20
13.3859844723
 11
18.0482569261
 21
13.3055106262
  0
LINE
  5
634
100
AcDbEntity
  8
0
100
AcDbLine
 62
7
  6
CONTINUOUS
 10
18.2621993728
 20
13.2537676574
 11
18.2603550484
 21
13.2439576121
  0
LINE
  5
635
100
AcDbEntity
  8
0
100
AcDbLine
 62
7
  6
CONTINUOUS
 10
18.3230623113
 20
13.1707799087
 11
18.3249066568
 21
13.1762400048
  0
LINE
  5
636
100
AcDbEntity
  8
0
100
AcDbLine
 62
7
  6
CONTINUOUS
 10
18.3451942889
 20
13.2123765158
 11
18.3433499434
 21
13.2069164135
  0
LINE
  5
637
100
AcDbEntity
  8
0
100
AcDbLine
 62
7
  6
CONTINUOUS
 10
18.4042128818
 20
13.1239286649
 11
18.4060572274
 21
13.129388761
  0
LWPOLYLINE
  5
638
100
AcDbEntity
  8
0
100
AcDbPolyline
 62
7
  6
CONTINUOUS
 90
4
 70
0
 10
18.2273491167
 20
12.2474637835
 10
18.2363337364
 20
12.2551351312
 10
18.2442337293
 20
12.2705489009
 10
18.2469401462
 20
12.2907220059
  0
LWPOLYLINE
  5
639
100
AcDbEntity
  8
0
100
AcDbPolyline
 62
7
  6
CONTINUOUS
 90
7
 70
0
 10
19.540061522
 20
12.9537517548
 10
19.5112412483
 20
12.9327312559
 10
19.4843858362
 20
12.904381899
 10
19.4613216923
 20
12.8706304586
 10
19.4436242908
 20
12.8337804395
 10
19.4325007793
 20
12.7963480058
 10
19.428706587
 20
12.760878279
  0
LWPOLYLINE
  5
63A
100
AcDbEntity
  8
0
100
AcDbPolyline
 62
7
  6
CONTINUOUS
 90
4
 70
0
 10
19.2277027873
 20
12.9257462567
 10
19.2256959644
 20
12.9243856228
 10
19.2197499161
 20
12.9159263656
 10
19.2176848752
 20
12.9035953568
  0
LWPOLYLINE
  5
63B
100
AcDbEntity
  8
0
100
AcDbPolyline
 62
7
  6
CONTINUOUS
 90
4
 70
0
 10
19.436495029
 20
13.0462959602
 10
19.4344882061
 20
13.0449353264
 10
19.4285421578
 20
13.0364760691
 10
19.4264771169
 20
13.0241450604
  0
LWPOLYLINE
  5
63C
100
AcDbEntity
  8
0
100
AcDbPolyline
 62
7
  6
CONTINUOUS
 90
4
 70
0
 10
19.2761508183
 20
12.8419061792
 10
19.2781576412
 20
12.8432668131
 10
19.2841036896
 20
12.8517260703
 10
19.2861687305
 20
12.864057079
  0
LINE
  5
63D
100
AcDbEntity
  8
0
100
AcDbLine
 62
7
  6
CONTINUOUS
 10
19.655592267
 20
13.0204530634
 11
19.540061522
 21
12.9537517548
  0
LWPOLYLINE
  5
63E
100
AcDbEntity
  8
0
100
AcDbPolyline
 62
7
  6
CONTINUOUS
 90
4
 70
0
 10
18.3936084128
 20
9.8324086783
 10
18.3956251737
 20
9.8215186402
 10
18.4044364029
 20
9.8078797901
 10
18.4195462298
 20
9.7962266088
  0
LWPOLYLINE
  5
63F
100
AcDbEntity
  8
0
100
AcDbPolyline
 62
7
  6
CONTINUOUS
 90
9
 70
0
 10
18.2637314876
 20
9.6328088897
 10
18.2641217959
 20
9.6279620803
 10
18.2700661489
 20
9.6138157507
 10
18.2826728692
 20
9.6012093319
 10
18.3009206352
 20
9.5911641208
 10
18.3233311215
 20
9.5844939208
 10
18.3480887637
 20
9.5817391117
 10
18.3731878448
 20
9.5831228718
 10
18.3965949867
 20
9.5885330971
  0
LINE
  5
640
100
AcDbEntity
  8
0
100
AcDbLine
 62
7
  6
CONTINUOUS
 10
18.1146528589
 20
13.2671777837
 11
18.1146528589
 21
13.3476516298
  0
LINE
  5
641
100
AcDbEntity
  8
0
100
AcDbLine
 62
7
  6
CONTINUOUS
 10
18.1257188477
 20
13.3630125076
 11
18.1257188477
 21
13.2607889766
  0
LINE
  5
642
100
AcDbEntity
  8
0
100
AcDbLine
 62
7
  6
CONTINUOUS
 10
18.1404734959
 20
13.2522705692
 11
18.1404734959
 21
13.3544941002
  0
LINE
  5
643
100
AcDbEntity
  8
0
100
AcDbLine
 62
7
  6
CONTINUOUS
 10
18.1515394848
 20
13.3350554822
 11
18.1515394848
 21
13.3046059173
  0
LINE
  5
644
100
AcDbEntity
  8
0
100
AcDbLine
 62
7
  6
CONTINUOUS
 10
18.1515394848
 20
13.2589315745
 11
18.1515394848
 21
13.2915561064
  0
LINE
  5
645
100
AcDbEntity
  8
0
100
AcDbLine
 62
7
  6
CONTINUOUS
 10
18.1976477644
 20
13.251886267
 11
18.1976477644
 21
13.2453613615
  0
LINE
  5
646
100
AcDbEntity
  8
0
100
AcDbLine
 62
7
  6
CONTINUOUS
 10
18.1976477644
 20
13.2910357027
 11
18.1976477644
 21
13.2953856397
  0
LINE
  5
647
100
AcDbEntity
  8
0
100
AcDbLine
 62
7
  6
CONTINUOUS
 10
18.2087137532
 20
13.2911718072
 11
18.2087137532
 21
13.2824719272
  0
LINE
  5
648
100
AcDbEntity
  8
0
100
AcDbLine
 62
7
  6
CONTINUOUS
 10
18.2087137532
 20
13.2476724284
 11
18.2087137532
 21
13.2367975859
  0
LINE
  5
649
100
AcDbEntity
  8
0
100
AcDbLine
 62
7
  6
CONTINUOUS
 10
18.223468412
 20
13.2739535137
 11
18.223468412
 21
13.2913532676
  0
LINE
  5
64A
100
AcDbEntity
  8
0
100
AcDbLine
 62
7
  6
CONTINUOUS
 10
18.2345344008
 20
13.197965709
 11
18.2345344008
 21
13.2827894921
  0
LINE
  5
64B
100
AcDbEntity
  8
0
100
AcDbLine
 62
7
  6
CONTINUOUS
 10
18.2456003896
 20
13.2938004329
 11
18.2456003896
 21
13.1915769019
  0
LINE
  5
64C
100
AcDbEntity
  8
0
100
AcDbLine
 62
7
  6
CONTINUOUS
 10
18.2603550484
 20
13.2439576121
 11
18.2603550484
 21
13.2243828957
  0
LINE
  5
64D
100
AcDbEntity
  8
0
100
AcDbLine
 62
7
  6
CONTINUOUS
 10
18.2695766917
 20
13.2364586458
 11
18.2695766917
 21
13.2212338664
  0
LINE
  5
64E
100
AcDbEntity
  8
0
100
AcDbLine
 62
7
  6
CONTINUOUS
 10
18.1667555675
 20
12.412070518
 11
18.164814769
 21
12.3976041833
  0
LINE
  5
64F
100
AcDbEntity
  8
0
100
AcDbLine
 62
7
  6
CONTINUOUS
 10
18.2714210372
 20
13.2484436474
 11
18.2695766917
 21
13.2364586458
  0
LINE
  5
650
100
AcDbEntity
  8
0
100
AcDbLine
 62
7
  6
CONTINUOUS
 10
18.3156849714
 20
13.181564027
 11
18.3175293169
 21
13.1935490316
  0
LINE
  5
651
100
AcDbEntity
  8
0
100
AcDbLine
 62
7
  6
CONTINUOUS
 10
18.3525716289
 20
13.2015923914
 11
18.3507272833
 21
13.1896073898
  0
LINE
  5
652
100
AcDbEntity
  8
0
100
AcDbLine
 62
7
  6
CONTINUOUS
 10
18.3968355841
 20
13.1347127588
 11
18.3986798874
 21
13.1466977878
  0
LINE
  5
653
100
AcDbEntity
  8
0
100
AcDbLine
 62
7
  6
CONTINUOUS
 10
18.3249066568
 20
13.1762400048
 11
18.3267509602
 21
13.1860500654
  0
LINE
  5
654
100
AcDbEntity
  8
0
100
AcDbLine
 62
7
  6
CONTINUOUS
 10
18.3433499434
 20
13.2069164135
 11
18.34150564
 21
13.197106356
  0
LINE
  5
655
100
AcDbEntity
  8
0
100
AcDbLine
 62
7
  6
CONTINUOUS
 10
18.4060572274
 20
13.129388761
 11
18.4079015729
 21
13.1391987972
  0
LWPOLYLINE
  5
656
100
AcDbEntity
  8
0
100
AcDbPolyline
 62
7
  6
CONTINUOUS
 90
4
 70
0
 10
19.655592267
 20
13.0204530634
 10
19.6796798399
 20
13.0385767844
 10
19.6948217051
 20
13.059681481
 10
19.6999870528
 20
13.0823320795
  0
LWPOLYLINE
  5
657
100
AcDbEntity
  8
0
100
AcDbPolyline
 62
7
  6
CONTINUOUS
 90
4
 70
0
 10
16.786301701
 20
10.7391594452
 10
16.7384193558
 20
10.7050249875
 10
16.6943452867
 20
10.6692215008
 10
16.6542535585
 20
10.6318903863
  0
LINE
  5
658
100
AcDbEntity
  8
0
100
AcDbLine
 62
7
  6
CONTINUOUS
 10
18.2411368412
 20
12.2771760506
 11
18.2449993477
 21
12.2762556712
  0
LINE
  5
659
100
AcDbEntity
  8
0
100
AcDbLine
 62
7
  6
CONTINUOUS
 10
18.2221197314
 20
12.2881553356
 11
18.2411368412
 21
12.2771760506
  0
LWPOLYLINE
  5
65A
100
AcDbEntity
  8
0
100
AcDbPolyline
 62
7
  6
CONTINUOUS
 90
10
 70
0
 10
18.1133131116
 20
12.367869865
 10
18.1160195285
 20
12.3445717296
 10
18.1239195214
 20
12.3200360402
 10
18.1363730799
 20
12.2962505325
 10
18.1523712907
 20
12.2751421668
 10
18.170618074
 20
12.2584210174
 10
18.1896351838
 20
12.2474417323
 10
18.2078819671
 20
12.2430937879
 10
18.2238801779
 20
12.2457294289
 10
18.2273491167
 20
12.2474637835
  0
LWPOLYLINE
  5
65B
100
AcDbEntity
  8
0
100
AcDbPolyline
 62
7
  6
CONTINUOUS
 90
6
 70
0
 10
18.164814769
 20
12.3976041833
 10
18.1675211859
 20
12.3743060479
 10
18.1754211788
 20
12.3497703585
 10
18.1878747373
 20
12.3259848508
 10
18.2038729481
 20
12.3048764851
 10
18.2221197314
 20
12.2881553356
  0
LWPOLYLINE
  5
65C
100
AcDbEntity
  8
0
100
AcDbPolyline
 62
7
  6
CONTINUOUS
 90
10
 70
0
 10
18.2469401462
 20
12.2907220059
 10
18.2442337293
 20
12.3140201412
 10
18.2363337364
 20
12.3385558306
 10
18.2238801779
 20
12.3623413383
 10
18.2078819671
 20
12.383449704
 10
18.1896351838
 20
12.4001708535
 10
18.170618074
 20
12.4111501386
 10
18.1523712907
 20
12.4154980829
 10
18.1363730799
 20
12.412862442
 10
18.132904141
 20
12.4111280873
  0
LINE
  5
65D
100
AcDbEntity
  8
0
100
AcDbLine
 62
9
  6
CONTINUOUS
 10
18.3080116708
 20
9.677114295
 11
18.3080116708
 21
9.6160373425
  0
LINE
  5
65E
100
AcDbEntity
  8
0
100
AcDbLine
 62
7
  6
CONTINUOUS
 10
18.3175293169
 20
13.1935490316
 11
18.3175293169
 21
13.208773811
  0
LINE
  5
65F
100
AcDbEntity
  8
0
100
AcDbLine
 62
7
  6
CONTINUOUS
 10
18.3267509602
 20
13.1860500654
 11
18.3267509602
 21
13.2056247817
  0
LINE
  5
660
100
AcDbEntity
  8
0
100
AcDbLine
 62
7
  6
CONTINUOUS
 10
18.34150564
 20
13.197106356
 11
18.34150564
 21
13.1775316397
  0
LINE
  5
661
100
AcDbEntity
  8
0
100
AcDbLine
 62
7
  6
CONTINUOUS
 10
18.3507272833
 20
13.1896073898
 11
18.3507272833
 21
13.1743826104
  0
LINE
  5
662
100
AcDbEntity
  8
0
100
AcDbLine
 62
7
  6
CONTINUOUS
 10
18.3986798874
 20
13.1466977878
 11
18.3986798874
 21
13.1619225672
  0
LINE
  5
663
100
AcDbEntity
  8
0
100
AcDbLine
 62
7
  6
CONTINUOUS
 10
18.4079015729
 20
13.1391987972
 11
18.4079015729
 21
13.1587735135
  0
LINE
  5
664
100
AcDbEntity
  8
0
100
AcDbLine
 62
7
  6
CONTINUOUS
 10
18.4938086873
 20
9.7533521289
 11
18.4938086873
 21
9.6922751764
  0
LWPOLYLINE
  5
665
100
AcDbEntity
  8
0
100
AcDbPolyline
 62
7
  6
CONTINUOUS
 90
5
 70
0
 10
17.0087897035
 20
10.9763051971
 10
16.857851526
 20
10.9180776136
 10
16.7213688092
 20
10.8489737375
 10
16.6016768102
 20
10.7701759553
 10
16.5008234922
 20
10.6830325189
  0
LINE
  5
666
100
AcDbEntity
  8
0
100
AcDbLine
 62
7
  6
CONTINUOUS
 10
18.0224362837
 20
13.3204178437
 11
18.0058373005
 21
13.3800253356
  0
LINE
  5
667
100
AcDbEntity
  8
0
100
AcDbLine
 62
7
  6
CONTINUOUS
 10
17.9947713091
 20
13.3820642072
 11
18.00952596
 21
13.327871454
  0
LINE
  5
668
100
AcDbEntity
  8
0
100
AcDbLine
 62
7
  6
CONTINUOUS
 10
18.0740775631
 20
13.2906034117
 11
18.0482569261
 21
13.3859844723
  0
LINE
  5
669
100
AcDbEntity
  8
0
100
AcDbLine
 62
7
  6
CONTINUOUS
 10
18.0537899205
 20
13.4045397536
 11
18.0814548925
 21
13.2972190489
  0
LINE
  5
66A
100
AcDbEntity
  8
0
100
AcDbLine
 62
7
  6
CONTINUOUS
 10
18.00952596
 20
13.4061703317
 11
18.0076816302
 21
13.4137600373
  0
LINE
  5
66B
100
AcDbEntity
  8
0
100
AcDbLine
 62
7
  6
CONTINUOUS
 10
18.0205919488
 20
13.3997815246
 11
18.0187476191
 21
13.4073712302
  0
LINE
  5
66C
100
AcDbEntity
  8
0
100
AcDbLine
 62
7
  6
CONTINUOUS
 10
18.19580344
 20
13.2594759726
 11
18.1976477644
 21
13.251886267
  0
LINE
  5
66D
100
AcDbEntity
  8
0
100
AcDbLine
 62
7
  6
CONTINUOUS
 10
18.2068694288
 20
13.255262134
 11
18.2087137532
 21
13.2476724284
  0
LINE
  5
66E
100
AcDbEntity
  8
0
100
AcDbLine
 62
7
  6
CONTINUOUS
 10
18.1976477644
 20
13.2953856397
 11
18.19580344
 21
13.3029753484
  0
LINE
  5
66F
100
AcDbEntity
  8
0
100
AcDbLine
 62
7
  6
CONTINUOUS
 10
18.2068694288
 20
13.2987615098
 11
18.2087137532
 21
13.2911718072
  0
LINE
  5
670
100
AcDbEntity
  8
0
100
AcDbLine
 62
7
  6
CONTINUOUS
 10
18.2603550484
 20
13.2243828957
 11
18.2621993728
 21
13.2124432531
  0
LINE
  5
671
100
AcDbEntity
  8
0
100
AcDbLine
 62
7
  6
CONTINUOUS
 10
18.3267509602
 20
13.2056247817
 11
18.3249066568
 21
13.2175644091
  0
LINE
  5
672
100
AcDbEntity
  8
0
100
AcDbLine
 62
7
  6
CONTINUOUS
 10
18.34150564
 20
13.1775316397
 11
18.3433499434
 21
13.1655920093
  0
LINE
  5
673
100
AcDbEntity
  8
0
100
AcDbLine
 62
7
  6
CONTINUOUS
 10
18.2695766917
 20
13.2212338664
 11
18.2714210372
 21
13.2071192431
  0
LINE
  5
674
100
AcDbEntity
  8
0
100
AcDbLine
 62
7
  6
CONTINUOUS
 10
18.3175293169
 20
13.208773811
 11
18.3156849714
 21
13.2228884312
  0
LINE
  5
675
100
AcDbEntity
  8
0
100
AcDbLine
 62
7
  6
CONTINUOUS
 10
18.3507272833
 20
13.1743826104
 11
18.3525716289
 21
13.1602679871
  0
LINE
  5
676
100
AcDbEntity
  8
0
100
AcDbLine
 62
9
  6
CONTINUOUS
 10
18.5448205316
 20
9.868553329
 11
18.5448205316
 21
9.8074763765
  0
LINE
  5
677
100
AcDbEntity
  8
0
100
AcDbLine
 62
9
  6
CONTINUOUS
 10
18.59354272
 20
9.2248470068
 11
18.59354272
 21
9.2859239593
  0
LINE
  5
678
100
AcDbEntity
  8
0
100
AcDbLine
 62
7
  6
CONTINUOUS
 10
18.6190829892
 20
9.8256788491
 11
18.6190829892
 21
9.7646018966
  0
LWPOLYLINE
  5
679
100
AcDbEntity
  8
0
100
AcDbPolyline
 62
7
  6
CONTINUOUS
 90
5
 70
0
 10
17.0973730194
 20
10.8877239992
 10
17.1171919146
 20
10.8967223855
 10
17.131816954
 20
10.9085799369
 10
17.140063304
 20
10.9223360252
 10
17.1416532026
 20
10.9320294045
  0
LWPOLYLINE
  5
67A
100
AcDbEntity
  8
0
100
AcDbPolyline
 62
7
  6
CONTINUOUS
 90
5
 70
0
 10
17.0087897035
 20
10.9152282447
 10
16.857851526
 20
10.8570006612
 10
16.7213688092
 20
10.7878967851
 10
16.6016768102
 20
10.7090990029
 10
16.5066755692
 20
10.627012119
  0
LWPOLYLINE
  5
67B
100
AcDbEntity
  8
0
100
AcDbPolyline
 62
7
  6
CONTINUOUS
 90
4
 70
0
 10
17.0973730194
 20
10.8877239992
 10
17.032713042
 20
10.8645770493
 10
16.9706990643
 20
10.8391309392
 10
16.9115760029
 20
10.8114861653
  0
LINE
  5
67C
100
AcDbEntity
  8
0
100
AcDbLine
 62
7
  6
CONTINUOUS
 10
18.0076816302
 20
13.4137600373
 11
18.0039929655
 21
13.4202395776
  0
LINE
  5
67D
100
AcDbEntity
  8
0
100
AcDbLine
 62
7
  6
CONTINUOUS
 10
18.0187476191
 20
13.4073712302
 11
18.0132146246
 21
13.4192655077
  0
LINE
  5
67E
100
AcDbEntity
  8
0
100
AcDbLine
 62
7
  6
CONTINUOUS
 10
18.2013364344
 20
13.2671564115
 11
18.2068694288
 21
13.255262134
  0
LINE
  5
67F
100
AcDbEntity
  8
0
100
AcDbLine
 62
7
  6
CONTINUOUS
 10
18.2013364344
 20
13.3106557873
 11
18.2068694288
 21
13.2987615098
  0
LINE
  5
680
100
AcDbEntity
  8
0
100
AcDbLine
 62
7
  6
CONTINUOUS
 10
18.2714210372
 20
13.2071192431
 11
18.2787983561
 21
13.18981023
  0
LINE
  5
681
100
AcDbEntity
  8
0
100
AcDbLine
 62
7
  6
CONTINUOUS
 10
18.2640436973
 20
13.2048535505
 11
18.2677323673
 21
13.1940240686
  0
LINE
  5
682
100
AcDbEntity
  8
0
100
AcDbLine
 62
7
  6
CONTINUOUS
 10
18.3451942889
 20
13.1580022945
 11
18.3488829378
 21
13.1471728248
  0
LINE
  5
683
100
AcDbEntity
  8
0
100
AcDbLine
 62
7
  6
CONTINUOUS
 10
18.3230623113
 20
13.2251541299
 11
18.3193736624
 21
13.2359835981
  0
LINE
  5
684
100
AcDbEntity
  8
0
100
AcDbLine
 62
7
  6
CONTINUOUS
 10
18.2621993728
 20
13.2124432531
 11
18.2640436973
 21
13.2048535505
  0
LINE
  5
685
100
AcDbEntity
  8
0
100
AcDbLine
 62
7
  6
CONTINUOUS
 10
18.3249066568
 20
13.2175644091
 11
18.3230623113
 21
13.2251541299
  0
LINE
  5
686
100
AcDbEntity
  8
0
100
AcDbLine
 62
7
  6
CONTINUOUS
 10
18.3433499434
 20
13.1655920093
 11
18.3451942889
 21
13.1580022945
  0
LINE
  5
687
100
AcDbEntity
  8
0
100
AcDbLine
 62
7
  6
CONTINUOUS
 10
18.4060572274
 20
13.1707131653
 11
18.4042128818
 21
13.1783028861
  0
LINE
  5
688
100
AcDbEntity
  8
0
100
AcDbLine
 62
7
  6
CONTINUOUS
 10
18.4079015729
 20
13.1587735135
 11
18.4060572274
 21
13.1707131653
  0
LINE
  5
689
100
AcDbEntity
  8
0
100
AcDbLine
 62
7
  6
CONTINUOUS
 10
18.3986798874
 20
13.1619225672
 11
18.3968355841
 21
13.176037163
  0
LWPOLYLINE
  5
68A
100
AcDbEntity
  8
0
100
AcDbPolyline
 62
7
  6
CONTINUOUS
 90
11
 70
0
 10
18.9164246141
 20
9.9073952768
 10
18.9163284903
 20
9.9098105125
 10
18.9115567466
 20
9.9241041166
 10
18.9000032695
 20
9.9370425763
 10
18.8826040528
 20
9.9475776947
 10
18.8607686777
 20
9.954855979
 10
18.8362661165
 20
9.958287786
 10
18.8110814208
 20
9.9575950911
 10
18.787254905
 20
9.9528340122
 10
18.7667168516
 20
9.9443902637
 10
18.7511311316
 20
9.9329479079
  0
LINE
  5
68B
100
AcDbEntity
  8
0
100
AcDbLine
 62
9
  6
CONTINUOUS
 10
18.7511311316
 20
9.9329479079
 11
18.7511311316
 21
9.8718709554
  0
LINE
  5
68C
100
AcDbEntity
  8
0
100
AcDbLine
 62
9
  6
CONTINUOUS
 10
18.8162535173
 20
9.2248475422
 11
18.8162535173
 21
9.2859244946
  0
LINE
  5
68D
100
AcDbEntity
  8
0
100
AcDbLine
 62
7
  6
CONTINUOUS
 10
18.3839252497
 20
13.1247666258
 11
18.3894582442
 21
13.1259221592
  0
LINE
  5
68E
100
AcDbEntity
  8
0
100
AcDbLine
 62
7
  6
CONTINUOUS
 10
18.3027746581
 20
13.1716178818
 11
18.3083076736
 21
13.172773403
  0
LINE
  5
68F
100
AcDbEntity
  8
0
100
AcDbLine
 62
7
  6
CONTINUOUS
 10
18.365481921
 20
13.2115385533
 11
18.3599489266
 21
13.2103830199
  0
LINE
  5
690
100
AcDbEntity
  8
0
100
AcDbLine
 62
7
  6
CONTINUOUS
 10
18.2843313505
 20
13.2583897972
 11
18.2787983561
 21
13.2572342637
  0
LINE
  5
691
100
AcDbEntity
  8
0
100
AcDbLine
 62
7
  6
CONTINUOUS
 10
18.3857695953
 20
13.1128269727
 11
18.3949912386
 21
13.114027881
  0
LINE
  5
692
100
AcDbEntity
  8
0
100
AcDbLine
 62
7
  6
CONTINUOUS
 10
18.3046190037
 20
13.1596782287
 11
18.313840668
 21
13.1608791248
  0
LINE
  5
693
100
AcDbEntity
  8
0
100
AcDbLine
 62
7
  6
CONTINUOUS
 10
18.3636376177
 20
13.2234781807
 11
18.3544159322
 21
13.2222772974
  0
LINE
  5
694
100
AcDbEntity
  8
0
100
AcDbLine
 62
7
  6
CONTINUOUS
 10
18.0039929655
 20
13.4202395776
 11
17.9984599711
 21
13.4256089497
  0
LINE
  5
695
100
AcDbEntity
  8
0
100
AcDbLine
 62
7
  6
CONTINUOUS
 10
18.1976477644
 20
13.2714609864
 11
18.2013364344
 21
13.2671564115
  0
LINE
  5
696
100
AcDbEntity
  8
0
100
AcDbLine
 62
7
  6
CONTINUOUS
 10
18.2732653617
 20
13.1843047589
 11
18.282487026
 21
13.1724558429
  0
LINE
  5
697
100
AcDbEntity
  8
0
100
AcDbLine
 62
7
  6
CONTINUOUS
 10
18.3544159322
 20
13.1374535151
 11
18.3636376177
 21
13.1256045869
  0
LINE
  5
698
100
AcDbEntity
  8
0
100
AcDbLine
 62
7
  6
CONTINUOUS
 10
18.313840668
 20
13.2457029071
 11
18.3046190037
 21
13.2575518225
  0
LINE
  5
699
100
AcDbEntity
  8
0
100
AcDbLine
 62
7
  6
CONTINUOUS
 10
18.2787983561
 20
13.18981023
 11
18.2843313505
 21
13.1822658895
  0
LINE
  5
69A
100
AcDbEntity
  8
0
100
AcDbLine
 62
7
  6
CONTINUOUS
 10
18.3599489266
 20
13.1429589862
 11
18.365481921
 21
13.1354146457
  0
LINE
  5
69B
100
AcDbEntity
  8
0
100
AcDbLine
 62
7
  6
CONTINUOUS
 10
18.3083076736
 20
13.2401974367
 11
18.3027746581
 21
13.2477417894
  0
LINE
  5
69C
100
AcDbEntity
  8
0
100
AcDbLine
 62
7
  6
CONTINUOUS
 10
18.0132146246
 20
13.4192655077
 11
18.0058373005
 21
13.4300496168
  0
LINE
  5
69D
100
AcDbEntity
  8
0
100
AcDbLine
 62
7
  6
CONTINUOUS
 10
18.1939591156
 20
13.3214398934
 11
18.2013364344
 21
13.3106557873
  0
LINE
  5
69E
100
AcDbEntity
  8
0
100
AcDbLine
 62
7
  6
CONTINUOUS
 10
18.19211477
 20
13.265955516
 11
18.19580344
 21
13.2594759726
  0
LINE
  5
69F
100
AcDbEntity
  8
0
100
AcDbLine
 62
7
  6
CONTINUOUS
 10
18.19580344
 20
13.3029753484
 11
18.19211477
 21
13.3094548918
  0
LINE
  5
6A0
100
AcDbEntity
  8
0
100
AcDbLine
 62
7
  6
CONTINUOUS
 10
18.2677323673
 20
13.1940240686
 11
18.2732653617
 21
13.1843047589
  0
LINE
  5
6A1
100
AcDbEntity
  8
0
100
AcDbLine
 62
7
  6
CONTINUOUS
 10
18.3488829378
 20
13.1471728248
 11
18.3544159322
 21
13.1374535151
  0
LINE
  5
6A2
100
AcDbEntity
  8
0
100
AcDbLine
 62
7
  6
CONTINUOUS
 10
18.3193736624
 20
13.2359835981
 11
18.313840668
 21
13.2457029071
  0
LINE
  5
6A3
100
AcDbEntity
  8
0
100
AcDbLine
 62
7
  6
CONTINUOUS
 10
18.400524233
 20
13.1891323543
 11
18.3949912386
 21
13.1988516633
  0
LINE
  5
6A4
100
AcDbEntity
  8
0
100
AcDbLine
 62
7
  6
CONTINUOUS
 10
18.3156849714
 20
13.2228884312
 11
18.3083076736
 21
13.2401974367
  0
LINE
  5
6A5
100
AcDbEntity
  8
0
100
AcDbLine
 62
7
  6
CONTINUOUS
 10
18.3525716289
 20
13.1602679871
 11
18.3599489266
 21
13.1429589862
  0
LINE
  5
6A6
100
AcDbEntity
  8
0
100
AcDbLine
 62
7
  6
CONTINUOUS
 10
18.3968355841
 20
13.176037163
 11
18.3894582442
 21
13.1933461929
  0
LINE
  5
6A7
100
AcDbEntity
  8
0
100
AcDbLine
 62
7
  6
CONTINUOUS
 10
18.4042128818
 20
13.1783028861
 11
18.400524233
 21
13.1891323543
  0
LWPOLYLINE
  5
6A8
100
AcDbEntity
  8
0
100
AcDbPolyline
 62
7
  6
CONTINUOUS
 90
4
 70
0
 10
17.6400546726
 20
10.3185822061
 10
17.6249450138
 20
10.3069289522
 10
17.6161339813
 20
10.2932900597
 10
17.6141173785
 20
10.2824004384
  0
LINE
  5
6A9
100
AcDbEntity
  8
0
100
AcDbLine
 62
7
  6
CONTINUOUS
 10
17.6400546726
 20
10.2575052536
 11
17.6322590876
 21
10.251492945
  0
LWPOLYLINE
  5
6AA
100
AcDbEntity
  8
0
100
AcDbPolyline
 62
7
  6
CONTINUOUS
 90
4
 70
0
 10
17.7653300176
 20
10.2462560882
 10
17.7804396764
 20
10.257909342
 10
17.7892507089
 20
10.2715482346
 10
17.7912673117
 20
10.2824378558
  0
LINE
  5
6AB
100
AcDbEntity
  8
0
100
AcDbLine
 62
7
  6
CONTINUOUS
 10
18.282487026
 20
13.2703294367
 11
18.2732653617
 21
13.2691285412
  0
LINE
  5
6AC
100
AcDbEntity
  8
0
100
AcDbLine
 62
7
  6
CONTINUOUS
 10
18.2013364344
 20
13.2715063484
 11
18.1976477644
 21
13.2714609864
  0
LINE
  5
6AD
100
AcDbEntity
  8
0
100
AcDbLine
 62
7
  6
CONTINUOUS
 10
18.0058373005
 20
13.3800253356
 11
18.0132146246
 21
13.3801160689
  0
LINE
  5
6AE
100
AcDbEntity
  8
0
100
AcDbLine
 62
7
  6
CONTINUOUS
 10
18.19211477
 20
13.2376809211
 11
18.1865817756
 21
13.2387003562
  0
LINE
  5
6AF
100
AcDbEntity
  8
0
100
AcDbLine
 62
7
  6
CONTINUOUS
 10
18.1865817756
 20
13.2843746989
 11
18.19211477
 21
13.2833552639
  0
LINE
  5
6B0
100
AcDbEntity
  8
0
100
AcDbLine
 62
7
  6
CONTINUOUS
 10
18.3747036065
 20
13.1279156551
 11
18.3839252497
 21
13.1247666258
  0
LINE
  5
6B1
100
AcDbEntity
  8
0
100
AcDbLine
 62
7
  6
CONTINUOUS
 10
18.2935530148
 20
13.1747669111
 11
18.3027746581
 21
13.1716178818
  0
LINE
  5
6B2
100
AcDbEntity
  8
0
100
AcDbLine
 62
7
  6
CONTINUOUS
 10
18.1939591156
 20
13.2235662996
 11
18.1847374512
 21
13.2267153409
  0
LINE
  5
6B3
100
AcDbEntity
  8
0
100
AcDbLine
 62
7
  6
CONTINUOUS
 10
18.3747036065
 20
13.2083894997
 11
18.365481921
 21
13.2115385533
  0
LINE
  5
6B4
100
AcDbEntity
  8
0
100
AcDbLine
 62
7
  6
CONTINUOUS
 10
18.2935530148
 20
13.2552407557
 11
18.2843313505
 21
13.2583897972
  0
LINE
  5
6B5
100
AcDbEntity
  8
0
100
AcDbLine
 62
7
  6
CONTINUOUS
 10
18.3747036065
 20
13.1170408111
 11
18.3857695953
 21
13.1128269727
  0
LINE
  5
6B6
100
AcDbEntity
  8
0
100
AcDbLine
 62
7
  6
CONTINUOUS
 10
18.2935530148
 20
13.1638920671
 11
18.3046190037
 21
13.1596782287
  0
LINE
  5
6B7
100
AcDbEntity
  8
0
100
AcDbLine
 62
7
  6
CONTINUOUS
 10
18.3747036065
 20
13.2192643421
 11
18.3636376177
 21
13.2234781807
  0
LINE
  5
6B8
100
AcDbEntity
  8
0
100
AcDbLine
 62
7
  6
CONTINUOUS
 10
18.2935530148
 20
13.2661155981
 11
18.282487026
 21
13.2703294367
  0
LINE
  5
6B9
100
AcDbEntity
  8
0
100
AcDbLine
 62
7
  6
CONTINUOUS
 10
18.2456003896
 20
13.1915769019
 11
18.2345344008
 21
13.197965709
  0
LINE
  5
6BA
100
AcDbEntity
  8
0
100
AcDbLine
 62
7
  6
CONTINUOUS
 10
18.1847374512
 20
13.2267153409
 11
18.1404734959
 21
13.2522705692
  0
LINE
  5
6BB
100
AcDbEntity
  8
0
100
AcDbLine
 62
7
  6
CONTINUOUS
 10
18.1257188477
 20
13.2607889766
 11
18.1146528589
 21
13.2671777837
  0
LINE
  5
6BC
100
AcDbEntity
  8
0
100
AcDbLine
 62
7
  6
CONTINUOUS
 10
18.0888322113
 20
13.2820850043
 11
18.0740775631
 21
13.2906034117
  0
LINE
  5
6BD
100
AcDbEntity
  8
0
100
AcDbLine
 62
7
  6
CONTINUOUS
 10
18.0482569261
 20
13.3055106262
 11
18.037190932
 21
13.3118994363
  0
LINE
  5
6BE
100
AcDbEntity
  8
0
100
AcDbLine
 62
7
  6
CONTINUOUS
 10
17.9523516862
 20
13.3608802896
 11
17.963417675
 21
13.3544914825
  0
LINE
  5
6BF
100
AcDbEntity
  8
0
100
AcDbLine
 62
7
  6
CONTINUOUS
 10
18.00952596
 20
13.327871454
 11
18.0224362837
 21
13.3204178437
  0
LINE
  5
6C0
100
AcDbEntity
  8
0
100
AcDbLine
 62
7
  6
CONTINUOUS
 10
18.1865817756
 20
13.2387003562
 11
18.1515394848
 21
13.2589315745
  0
LINE
  5
6C1
100
AcDbEntity
  8
0
100
AcDbLine
 62
7
  6
CONTINUOUS
 10
17.963417675
 20
13.4001658268
 11
17.9947713091
 21
13.3820642072
  0
LINE
  5
6C2
100
AcDbEntity
  8
0
100
AcDbLine
 62
7
  6
CONTINUOUS
 10
18.1515394848
 20
13.2915561064
 11
18.1865817756
 21
13.271324888
  0
LINE
  5
6C3
100
AcDbEntity
  8
0
100
AcDbLine
 62
7
  6
CONTINUOUS
 10
17.963417675
 20
13.4132156377
 11
17.9984599711
 21
13.3929844163
  0
LINE
  5
6C4
100
AcDbEntity
  8
0
100
AcDbLine
 62
7
  6
CONTINUOUS
 10
18.1515394848
 20
13.3046059173
 11
18.1865817756
 21
13.2843746989
  0
LINE
  5
6C5
100
AcDbEntity
  8
0
100
AcDbLine
 62
7
  6
CONTINUOUS
 10
18.1865817756
 20
13.3148242638
 11
18.1515394848
 21
13.3350554822
  0
LINE
  5
6C6
100
AcDbEntity
  8
0
100
AcDbLine
 62
7
  6
CONTINUOUS
 10
17.9984599711
 20
13.4256089497
 11
17.963417675
 21
13.4458401711
  0
LINE
  5
6C7
100
AcDbEntity
  8
0
100
AcDbLine
 62
7
  6
CONTINUOUS
 10
17.9966156414
 20
13.4375485922
 11
17.9523516862
 21
13.4631038206
  0
LINE
  5
6C8
100
AcDbEntity
  8
0
100
AcDbLine
 62
7
  6
CONTINUOUS
 10
18.037190932
 20
13.4141229673
 11
18.0537899205
 21
13.4045397536
  0
LINE
  5
6C9
100
AcDbEntity
  8
0
100
AcDbLine
 62
7
  6
CONTINUOUS
 10
18.1091198645
 20
13.3725957182
 11
18.1257188477
 21
13.3630125076
  0
LINE
  5
6CA
100
AcDbEntity
  8
0
100
AcDbLine
 62
7
  6
CONTINUOUS
 10
18.1404734959
 20
13.3544941002
 11
18.1847374512
 21
13.3289388718
  0
LINE
  5
6CB
100
AcDbEntity
  8
0
100
AcDbLine
 62
7
  6
CONTINUOUS
 10
18.2345344008
 20
13.3001892399
 11
18.2456003896
 21
13.2938004329
  0
LINE
  5
6CC
100
AcDbEntity
  8
0
100
AcDbLine
 62
7
  6
CONTINUOUS
 10
18.282487026
 20
13.1724558429
 11
18.2935530148
 21
13.1638920671
  0
LINE
  5
6CD
100
AcDbEntity
  8
0
100
AcDbLine
 62
7
  6
CONTINUOUS
 10
18.3636376177
 20
13.1256045869
 11
18.3747036065
 21
13.1170408111
  0
LINE
  5
6CE
100
AcDbEntity
  8
0
100
AcDbLine
 62
7
  6
CONTINUOUS
 10
18.3046190037
 20
13.2575518225
 11
18.2935530148
 21
13.2661155981
  0
LINE
  5
6CF
100
AcDbEntity
  8
0
100
AcDbLine
 62
7
  6
CONTINUOUS
 10
18.3857695953
 20
13.2107005665
 11
18.3747036065
 21
13.2192643421
  0
LINE
  5
6D0
100
AcDbEntity
  8
0
100
AcDbLine
 62
7
  6
CONTINUOUS
 10
18.2843313505
 20
13.1822658895
 11
18.2935530148
 21
13.1747669111
  0
LINE
  5
6D1
100
AcDbEntity
  8
0
100
AcDbLine
 62
7
  6
CONTINUOUS
 10
18.365481921
 20
13.1354146457
 11
18.3747036065
 21
13.1279156551
  0
LINE
  5
6D2
100
AcDbEntity
  8
0
100
AcDbLine
 62
7
  6
CONTINUOUS
 10
18.0058373005
 20
13.4300496168
 11
17.9966156414
 21
13.4375485922
  0
LINE
  5
6D3
100
AcDbEntity
  8
0
100
AcDbLine
 62
7
  6
CONTINUOUS
 10
18.1847374512
 20
13.3289388718
 11
18.1939591156
 21
13.3214398934
  0
LINE
  5
6D4
100
AcDbEntity
  8
0
100
AcDbLine
 62
7
  6
CONTINUOUS
 10
18.3027746581
 20
13.2477417894
 11
18.2935530148
 21
13.2552407557
  0
LINE
  5
6D5
100
AcDbEntity
  8
0
100
AcDbLine
 62
7
  6
CONTINUOUS
 10
18.3839252497
 20
13.2008905334
 11
18.3747036065
 21
13.2083894997
  0
LINE
  5
6D6
100
AcDbEntity
  8
0
100
AcDbLine
 62
7
  6
CONTINUOUS
 10
18.1865817756
 20
13.271324888
 11
18.19211477
 21
13.265955516
  0
LINE
  5
6D7
100
AcDbEntity
  8
0
100
AcDbLine
 62
7
  6
CONTINUOUS
 10
18.19211477
 20
13.3094548918
 11
18.1865817756
 21
13.3148242638
  0
LINE
  5
6D8
100
AcDbEntity
  8
0
100
AcDbLine
 62
7
  6
CONTINUOUS
 10
18.3949912386
 20
13.1988516633
 11
18.3857695953
 21
13.2107005665
  0
LINE
  5
6D9
100
AcDbEntity
  8
0
100
AcDbLine
 62
7
  6
CONTINUOUS
 10
18.3894582442
 20
13.1933461929
 11
18.3839252497
 21
13.2008905334
  0
LWPOLYLINE
  5
6DA
100
AcDbEntity
  8
0
100
AcDbPolyline
 62
7
  6
CONTINUOUS
 90
8
 70
0
 10
19.2176848752
 20
10.4283714939
 10
19.2197499161
 20
10.4136560352
 10
19.2256959644
 20
10.3983310281
 10
19.234805839
 20
10.3842448946
 10
19.2459807545
 20
10.3730966303
 10
19.2578728512
 20
10.3662308804
 10
19.2690477666
 20
10.3644757557
 10
19.2761508183
 20
10.3666823163
  0
LWPOLYLINE
  5
6DB
100
AcDbEntity
  8
0
100
AcDbPolyline
 62
7
  6
CONTINUOUS
 90
8
 70
0
 10
19.2861687305
 20
10.3888332161
 10
19.2841036896
 20
10.4035486748
 10
19.2781576412
 20
10.4188736819
 10
19.2690477666
 20
10.4329598154
 10
19.2578728512
 20
10.4441080797
 10
19.2459807545
 20
10.4509738296
 10
19.234805839
 20
10.4527289543
 10
19.2277027873
 20
10.4505223937
  0
LWPOLYLINE
  5
6DC
100
AcDbEntity
  8
0
100
AcDbPolyline
 62
7
  6
CONTINUOUS
 90
4
 70
0
 10
19.428706587
 20
9.7070306559
 10
19.4325007793
 20
9.6759420588
 10
19.4436242908
 20
9.6513538733
 10
19.461322689
 20
9.6349383558
  0
LINE
  5
6DD
100
AcDbEntity
  8
0
100
AcDbLine
 62
7
  6
CONTINUOUS
 10
19.3772045007
 20
12.7906123497
 11
19.3772045007
 21
9.7367647266
  0
LWPOLYLINE
  5
6DE
100
AcDbEntity
  8
0
100
AcDbPolyline
 62
7
  6
CONTINUOUS
 90
7
 70
0
 10
19.3772045007
 20
12.7906123497
 10
19.380998693
 20
12.8260820765
 10
19.3921222045
 20
12.8635145102
 10
19.409819606
 20
12.9003645293
 10
19.4328837499
 20
12.9341159697
 10
19.459739162
 20
12.9624653266
 10
19.4885594357
 20
12.9834858255
  0
LINE
  5
6DF
100
AcDbEntity
  8
0
100
AcDbLine
 62
7
  6
CONTINUOUS
 10
17.9984599711
 20
13.3929844163
 11
18.0039929655
 21
13.3919649812
  0
LINE
  5
6E0
100
AcDbEntity
  8
0
100
AcDbLine
 62
9
  6
CONTINUOUS
 10
19.428706587
 20
12.760878279
 11
19.3772045007
 21
12.7906123497
  0
LINE
  5
6E1
100
AcDbEntity
  8
0
100
AcDbLine
 62
9
  6
CONTINUOUS
 10
16.417922462
 20
14.4991159799
 11
16.3664203757
 21
14.5288500506
  0
LWPOLYLINE
  5
6E2
100
AcDbEntity
  8
0
100
AcDbPolyline
 62
7
  6
CONTINUOUS
 90
8
 70
0
 10
19.2176848752
 20
12.9035953568
 10
19.2197499161
 20
12.8888798982
 10
19.2256959644
 20
12.8735548911
 10
19.234805839
 20
12.8594687576
 10
19.2459807545
 20
12.8483204933
 10
19.2578728512
 20
12.8414547434
 10
19.2690477666
 20
12.8396996187
 10
19.2761508183
 20
12.8419061792
  0
LWPOLYLINE
  5
6E3
100
AcDbEntity
  8
0
100
AcDbPolyline
 62
7
  6
CONTINUOUS
 90
8
 70
0
 10
19.2861687305
 20
12.864057079
 10
19.2841036896
 20
12.8787725377
 10
19.2781576412
 20
12.8940975448
 10
19.2690477666
 20
12.9081836783
 10
19.2578728512
 20
12.9193319426
 10
19.2459807545
 20
12.9261976925
 10
19.234805839
 20
12.9279528172
 10
19.2277027873
 20
12.9257462567
  0
LINE
  5
6E4
100
AcDbEntity
  8
0
100
AcDbLine
 62
7
  6
CONTINUOUS
 10
19.428706587
 20
9.7070306559
 11
19.428706587
 21
12.760878279
  0
LINE
  5
6E5
100
AcDbEntity
  8
0
100
AcDbLine
 62
9
  6
CONTINUOUS
 10
19.6040897171
 20
13.1144772843
 11
19.6040897171
 21
13.0501871341
  0
LWPOLYLINE
  5
6E6
100
AcDbEntity
  8
0
100
AcDbPolyline
 62
7
  6
CONTINUOUS
 90
4
 70
0
 10
19.6271667401
 20
13.0823320749
 10
19.6262075626
 20
13.0753107401
 10
19.6185338358
 20
13.0616524648
 10
19.6040901807
 20
13.0501871341
  0
LINE
  5
6E7
100
AcDbEntity
  8
0
100
AcDbLine
 62
9
  6
CONTINUOUS
 10
19.540061522
 20
12.9537517548
 11
19.4885594357
 21
12.9834858255
  0
LINE
  5
6E8
100
AcDbEntity
  8
0
100
AcDbLine
 62
9
  6
CONTINUOUS
 10
16.529277397
 20
14.6919894556
 11
16.4777753107
 21
14.7217235263
  0
LWPOLYLINE
  5
6E9
100
AcDbEntity
  8
0
100
AcDbPolyline
 62
7
  6
CONTINUOUS
 90
6
 70
0
 10
19.4264771169
 20
13.0241450604
 10
19.4285421578
 20
13.0094296017
 10
19.4344882061
 20
12.9941045946
 10
19.4435980807
 20
12.9800184611
 10
19.4547729962
 20
12.9688701968
 10
19.4624465255
 20
12.9644399828
  0
LWPOLYLINE
  5
6EA
100
AcDbEntity
  8
0
100
AcDbPolyline
 62
7
  6
CONTINUOUS
 90
8
 70
0
 10
19.4946267079
 20
12.9869887458
 10
19.4928959312
 20
12.9993222413
 10
19.4869498829
 20
13.0146472484
 10
19.4778400083
 20
13.0287333819
 10
19.4666650928
 20
13.0398816461
 10
19.4547729962
 20
13.046747396
 10
19.4435980807
 20
13.0485025208
 10
19.436495029
 20
13.0462959602
  0
LINE
  5
6EB
100
AcDbEntity
  8
0
100
AcDbLine
 62
9
  6
CONTINUOUS
 10
19.655592267
 20
13.0204530634
 11
19.655592267
 21
9.7094393246
  0
LINE
  5
6EC
100
AcDbEntity
  8
0
100
AcDbLine
 62
7
  6
CONTINUOUS
 10
19.6999870528
 20
13.0823320754
 11
19.6999870528
 21
9.7713183366
  0
LINE
  5
6ED
100
AcDbEntity
  8
0
100
AcDbLine
 62
7
  6
CONTINUOUS
 10
19.6040897171
 20
13.1144772843
 11
16.7561635406
 21
14.7586910319
  0
LINE
  5
6EE
100
AcDbEntity
  8
0
100
AcDbLine
 62
7
  6
CONTINUOUS
 10
19.6555913746
 20
13.1442116026
 11
16.8076651981
 21
14.7884253502
  0
LWPOLYLINE
  5
6EF
100
AcDbEntity
  8
0
100
AcDbPolyline
 62
7
  6
CONTINUOUS
 90
4
 70
0
 10
19.6040897171
 20
13.1144772843
 10
19.6185335375
 20
13.103012023
 10
19.6262074613
 20
13.0893537847
 10
19.6271667401
 20
13.0823320749
  0
LWPOLYLINE
  5
6F0
100
AcDbEntity
  8
0
100
AcDbPolyline
 62
7
  6
CONTINUOUS
 90
3
 70
0
 10
18.904561198
 20
9.8818057753
 10
18.9139319222
 20
9.8953197469
 10
18.9164246141
 20
9.9073952768
  0
LWPOLYLINE
  5
6F1
100
AcDbEntity
  8
0
100
AcDbPolyline
 62
7
  6
CONTINUOUS
 90
4
 70
0
 10
18.6190829892
 20
9.8256788491
 10
18.6669653344
 20
9.8598133067
 10
18.7110394035
 20
9.8956167935
 10
18.7511311316
 20
9.9329479079
  0
LWPOLYLINE
  5
6F2
100
AcDbEntity
  8
0
100
AcDbPolyline
 62
7
  6
CONTINUOUS
 90
4
 70
0
 10
19.2277027873
 20
10.4505223937
 10
19.2256959644
 20
10.4491617599
 10
19.2197499161
 20
10.4407025027
 10
19.2176848752
 20
10.4283714939
  0
LWPOLYLINE
  5
6F3
100
AcDbEntity
  8
0
100
AcDbPolyline
 62
7
  6
CONTINUOUS
 90
4
 70
0
 10
19.2761508183
 20
10.3666823163
 10
19.2781576412
 20
10.3680429501
 10
19.2841036896
 20
10.3765022073
 10
19.2861687305
 20
10.3888332161
  0
LINE
  5
6F4
100
AcDbEntity
  8
0
100
AcDbLine
 62
7
  6
CONTINUOUS
 10
18.4290974654
 20
9.8122545704
 11
18.4112690734
 21
9.8019614049
  0
LWPOLYLINE
  5
6F5
100
AcDbEntity
  8
0
100
AcDbPolyline
 62
7
  6
CONTINUOUS
 90
7
 70
0
 10
16.8076651981
 20
14.7884253502
 10
16.7762735436
 20
14.8023321181
 10
16.7397186144
 20
14.811074153
 10
16.7004854421
 20
14.8140563253
 10
16.6612523128
 20
14.8110739644
 10
16.6246975096
 20
14.8023317537
 10
16.5933060558
 20
14.7884248349
  0
LWPOLYLINE
  5
6F6
100
AcDbEntity
  8
0
100
AcDbPolyline
 62
7
  6
CONTINUOUS
 90
4
 70
0
 10
19.6999870528
 20
13.0823320795
 10
19.6948213784
 20
13.1049833737
 10
19.6796792089
 20
13.1260879974
 10
19.6555913746
 20
13.1442116026
  0
LWPOLYLINE
  5
6F7
100
AcDbEntity
  8
0
100
AcDbPolyline
 62
7
  6
CONTINUOUS
 90
4
 70
0
 10
19.6999870528
 20
9.7713183408
 10
19.6948217051
 20
9.7486677422
 10
19.6796798399
 20
9.7275630457
 10
19.655592267
 20
9.7094393246
  0
LWPOLYLINE
  5
6F8
100
AcDbEntity
  8
0
100
AcDbPolyline
 62
7
  6
CONTINUOUS
 90
4
 70
0
 10
18.6190829892
 20
9.7646018966
 10
18.6669653344
 20
9.7987363543
 10
18.7110394035
 20
9.834539841
 10
18.7511311316
 20
9.8718709554
  0
LWPOLYLINE
  5
6F9
100
AcDbEntity
  8
0
100
AcDbPolyline
 62
7
  6
CONTINUOUS
 90
5
 70
0
 10
18.3080116708
 20
9.677114295
 10
18.2881927756
 20
9.6681159088
 10
18.2735677362
 20
9.6562583573
 10
18.2653213862
 20
9.642502269
 10
18.2637314876
 20
9.6328088897
  0
LWPOLYLINE
  5
6FA
100
AcDbEntity
  8
0
100
AcDbPolyline
 62
7
  6
CONTINUOUS
 90
3
 70
0
 10
18.3080116708
 20
9.6160373425
 10
18.2881927756
 20
9.6070389563
 10
18.2819249751
 20
9.6019572081
  0
LWPOLYLINE
  5
6FB
100
AcDbEntity
  8
0
100
AcDbPolyline
 62
7
  6
CONTINUOUS
 90
5
 70
0
 10
18.3965949867
 20
9.5885330971
 10
18.5475331642
 20
9.6467606806
 10
18.684015881
 20
9.7158645567
 10
18.80370788
 20
9.7946623389
 10
18.904561198
 20
9.8818057753
  0
LWPOLYLINE
  5
6FC
100
AcDbEntity
  8
0
100
AcDbPolyline
 62
7
  6
CONTINUOUS
 90
4
 70
0
 10
18.3080116708
 20
9.677114295
 10
18.3726716482
 20
9.700261245
 10
18.4346856259
 20
9.725707355
 10
18.4938086873
 20
9.7533521289
  0
LWPOLYLINE
  5
6FD
100
AcDbEntity
  8
0
100
AcDbPolyline
 62
7
  6
CONTINUOUS
 90
4
 70
0
 10
18.3080116708
 20
9.6160373425
 10
18.3726716482
 20
9.6391842925
 10
18.4346856259
 20
9.6646304026
 10
18.4938086873
 20
9.6922751764
  0
LINE
  5
6FE
100
AcDbEntity
  8
0
100
AcDbLine
 62
7
  6
CONTINUOUS
 10
19.4410446085
 20
9.6466456461
 11
18.8162535173
 21
9.2859244946
  0
LINE
  5
6FF
100
AcDbEntity
  8
0
100
AcDbLine
 62
7
  6
CONTINUOUS
 10
19.655592267
 20
9.7094393246
 11
18.8162535173
 21
9.2248475422
  0
LWPOLYLINE
  5
700
100
AcDbEntity
  8
0
100
AcDbPolyline
 62
7
  6
CONTINUOUS
 90
7
 70
0
 10
18.8162535173
 20
9.2248475422
 10
18.7836390197
 20
9.2103987954
 10
18.7456600035
 20
9.2013159791
 10
18.7048983107
 20
9.1982174223
 10
18.6641365732
 20
9.2013157831
 10
18.626157426
 20
9.2103984168
 10
18.59354272
 20
9.2248470068
  0
LINE
  5
701
100
AcDbEntity
  8
0
100
AcDbLine
 62
7
  6
CONTINUOUS
 10
3.9787607784
 20
8.7794571282
 11
3.9787607784
 21
12.8345752385
  0
LINE
  5
702
100
AcDbEntity
  8
0
100
AcDbLine
 62
7
  6
CONTINUOUS
 10
4.0515954241
 20
8.7794571282
 11
4.0515954241
 21
12.8345752385
  0
LINE
  5
703
100
AcDbEntity
  8
0
100
AcDbLine
 62
9
  6
CONTINUOUS
 10
4.1303355816
 20
8.7794571282
 11
4.1303355816
 21
12.8345752385
  0
LINE
  5
704
100
AcDbEntity
  8
0
100
AcDbLine
 62
7
  6
CONTINUOUS
 10
4.1362410934
 20
8.6219768133
 11
4.1362410934
 21
8.7794571282
  0
LINE
  5
705
100
AcDbEntity
  8
0
100
AcDbLine
 62
7
  6
CONTINUOUS
 10
4.1362410934
 20
8.6219768133
 11
8.1519891249
 21
8.6219768133
  0
LINE
  5
706
100
AcDbEntity
  8
0
100
AcDbLine
 62
7
  6
CONTINUOUS
 10
4.1362410934
 20
8.6967799629
 11
8.1519891249
 21
8.6967799629
  0
LINE
  5
707
100
AcDbEntity
  8
0
100
AcDbLine
 62
9
  6
CONTINUOUS
 10
4.2937214084
 20
8.6967799629
 11
4.2937214084
 21
8.6219768133
  0
LINE
  5
708
100
AcDbEntity
  8
DEFAULT_1
100
AcDbLine
 62
7
  6
CENTER
 10
4.3330914871
 20
12.598354766
 11
4.3330914871
 21
9.1677433711
  0
LINE
  5
709
100
AcDbEntity
  8
DEFAULT_1
100
AcDbLine
 62
7
  6
CENTER
 10
4.3330914871
 20
8.9763075219
 11
4.3330914871
 21
8.8278823251
  0
LINE
  5
70A
100
AcDbEntity
  8
DEFAULT_1
100
AcDbLine
 62
7
  6
CENTER
 10
4.3330914871
 20
8.9763075219
 11
4.3330914871
 21
9.1247327188
  0
LINE
  5
70B
100
AcDbEntity
  8
DEFAULT_1
100
AcDbLine
 62
7
  6
CENTER
 10
4.3330914871
 20
12.598354766
 11
4.3330914871
 21
12.7467799629
  0
LINE
  5
70C
100
AcDbEntity
  8
0
100
AcDbLine
 62
9
  6
CONTINUOUS
 10
8.1519891249
 20
8.7755201204
 11
4.1362410934
 21
8.7755201204
  0
LINE
  5
70D
100
AcDbEntity
  8
0
100
AcDbLine
 62
7
  6
CONTINUOUS
 10
3.9787607784
 20
8.7794571282
 11
4.1362410934
 21
8.7794571282
  0
LINE
  5
70E
100
AcDbEntity
  8
0
100
AcDbLine
 62
7
  6
CONTINUOUS
 10
8.1519891249
 20
8.7794571282
 11
8.3094694398
 21
8.7794571282
  0
LINE
  5
70F
100
AcDbEntity
  8
0
100
AcDbLine
 62
9
  6
CONTINUOUS
 10
3.9787607784
 20
8.9369374432
 11
4.0515954241
 21
8.9369374432
  0
LINE
  5
710
100
AcDbEntity
  8
0
100
AcDbLine
 62
9
  6
CONTINUOUS
 10
8.2366347942
 20
8.9369374432
 11
8.3094694398
 21
8.9369374432
  0
LINE
  5
711
100
AcDbEntity
  8
DEFAULT_1
100
AcDbLine
 62
7
  6
CENTER
 10
7.9551387312
 20
8.9763075219
 11
4.4987605337
 21
8.9763075219
  0
LINE
  5
712
100
AcDbEntity
  8
DEFAULT_1
100
AcDbLine
 62
7
  6
CENTER
 10
4.3330914871
 20
8.9763075219
 11
4.1846662902
 21
8.9763075219
  0
LINE
  5
713
100
AcDbEntity
  8
DEFAULT_1
100
AcDbLine
 62
7
  6
CENTER
 10
4.3330914871
 20
8.9763075219
 11
4.4815166839
 21
8.9763075219
  0
LINE
  5
714
100
AcDbEntity
  8
DEFAULT_1
100
AcDbLine
 62
7
  6
CENTER
 10
7.9551387312
 20
8.9763075219
 11
8.103563928
 21
8.9763075219
  0
LINE
  5
715
100
AcDbEntity
  8
DEFAULT_1
100
AcDbLine
 62
7
  6
CENTER
 10
4.6283670776
 20
12.3030791755
 11
4.6283670776
 21
9.4547090275
  0
LINE
  5
716
100
AcDbEntity
  8
DEFAULT_1
100
AcDbLine
 62
7
  6
CENTER
 10
4.6283670776
 20
9.2715831125
 11
4.6283670776
 21
9.1231579156
  0
LINE
  5
717
100
AcDbEntity
  8
DEFAULT_1
100
AcDbLine
 62
7
  6
CENTER
 10
4.6283670776
 20
9.2715831125
 11
4.6283670776
 21
9.4200083093
  0
LINE
  5
718
100
AcDbEntity
  8
DEFAULT_1
100
AcDbLine
 62
7
  6
CENTER
 10
4.6283670776
 20
12.3030791755
 11
4.6283670776
 21
12.4515043723
  0
LINE
  5
719
100
AcDbEntity
  8
DEFAULT_1
100
AcDbLine
 62
7
  6
CENTER
 10
7.6598631406
 20
9.2715831125
 11
4.7863496848
 21
9.2715831125
  0
LINE
  5
71A
100
AcDbEntity
  8
DEFAULT_1
100
AcDbLine
 62
7
  6
CENTER
 10
4.6283670776
 20
9.2715831125
 11
4.4799418808
 21
9.2715831125
  0
LINE
  5
71B
100
AcDbEntity
  8
DEFAULT_1
100
AcDbLine
 62
7
  6
CENTER
 10
4.6283670776
 20
9.2715831125
 11
4.7767922745
 21
9.2715831125
  0
LINE
  5
71C
100
AcDbEntity
  8
DEFAULT_1
100
AcDbLine
 62
7
  6
CENTER
 10
7.6598631406
 20
9.2715831125
 11
7.8082883375
 21
9.2715831125
  0
LINE
  5
71D
100
AcDbEntity
  8
0
100
AcDbLine
 62
7
  6
CONTINUOUS
 10
5.8976338034
 20
12.0297000501
 11
5.9080668718
 21
12.0350275751
  0
LINE
  5
71E
100
AcDbEntity
  8
0
100
AcDbLine
 62
7
  6
CONTINUOUS
 10
5.8872007276
 20
12.0403551
 11
5.8950255307
 21
12.0430188624
  0
LINE
  5
71F
100
AcDbEntity
  8
0
100
AcDbLine
 62
7
  6
CONTINUOUS
 10
6.1532440272
 20
12.0403551
 11
6.1610688303
 21
12.0430188624
  0
LINE
  5
720
100
AcDbEntity
  8
0
100
AcDbLine
 62
7
  6
CONTINUOUS
 10
6.1610688303
 20
11.9870798452
 11
6.1532440272
 21
11.9844160828
  0
LINE
  5
721
100
AcDbEntity
  8
0
100
AcDbLine
 62
7
  6
CONTINUOUS
 10
5.8950255307
 20
12.0430188624
 11
5.9002420686
 21
12.0483463873
  0
LINE
  5
722
100
AcDbEntity
  8
0
100
AcDbLine
 62
7
  6
CONTINUOUS
 10
6.2914822261
 20
12.0776477818
 11
6.283657423
 21
12.0723202569
  0
LINE
  5
723
100
AcDbEntity
  8
0
100
AcDbLine
 62
7
  6
CONTINUOUS
 10
6.2888739683
 20
12.0909665941
 11
6.2758326198
 21
12.0829753067
  0
LINE
  5
724
100
AcDbEntity
  8
0
100
AcDbLine
 62
7
  6
CONTINUOUS
 10
6.4036377578
 20
12.0909665941
 11
6.3905963794
 21
12.0829753067
  0
LINE
  5
725
100
AcDbEntity
  8
0
100
AcDbLine
 62
7
  6
CONTINUOUS
 10
6.1741101789
 20
12.0350275751
 11
6.1688936335
 21
12.0323638126
  0
LINE
  5
726
100
AcDbEntity
  8
0
100
AcDbLine
 62
7
  6
CONTINUOUS
 10
5.9080668718
 20
12.0350275751
 11
5.9158916749
 21
12.0456826249
  0
LINE
  5
727
100
AcDbEntity
  8
0
100
AcDbLine
 62
7
  6
CONTINUOUS
 10
6.2054093915
 20
12.0749840194
 11
6.2210589978
 21
12.0936303566
  0
LINE
  5
728
100
AcDbEntity
  8
0
100
AcDbLine
 62
7
  6
CONTINUOUS
 10
6.2210589978
 20
12.0723202569
 11
6.2054093915
 21
12.0536739123
  0
LINE
  5
729
100
AcDbEntity
  8
0
100
AcDbLine
 62
7
  6
CONTINUOUS
 10
6.1610688303
 20
12.0430188624
 11
6.1662853757
 21
12.0483463873
  0
LINE
  5
72A
100
AcDbEntity
  8
0
100
AcDbLine
 62
7
  6
CONTINUOUS
 10
6.1662853757
 20
11.992407372
 11
6.1610688303
 21
11.9870798452
  0
LINE
  5
72B
100
AcDbEntity
  8
0
100
AcDbLine
 62
7
  6
CONTINUOUS
 10
6.2758326198
 20
12.0829753067
 11
6.2680078167
 21
12.0749840194
  0
LINE
  5
72C
100
AcDbEntity
  8
0
100
AcDbLine
 62
7
  6
CONTINUOUS
 10
6.1741101789
 20
11.9790885569
 11
6.163677118
 21
11.9710972689
  0
LINE
  5
72D
100
AcDbEntity
  8
0
100
AcDbLine
 62
7
  6
CONTINUOUS
 10
6.4062459857
 20
12.0776477818
 11
6.3984211826
 21
12.0723202569
  0
LINE
  5
72E
100
AcDbEntity
  8
0
100
AcDbLine
 62
7
  6
CONTINUOUS
 10
6.3175648933
 20
11.9844160828
 11
6.3253897263
 21
11.9897436077
  0
LINE
  5
72F
100
AcDbEntity
  8
0
100
AcDbLine
 62
7
  6
CONTINUOUS
 10
6.4323286828
 20
11.9844160828
 11
6.440153486
 21
11.9897436077
  0
LINE
  5
730
100
AcDbEntity
  8
0
100
AcDbLine
 62
7
  6
CONTINUOUS
 10
6.3201731809
 20
11.9710972689
 11
6.3332145295
 21
11.9790885569
  0
LINE
  5
731
100
AcDbEntity
  8
0
100
AcDbLine
 62
7
  6
CONTINUOUS
 10
6.4349369704
 20
11.9710972689
 11
6.4479782891
 21
11.9790885569
  0
LINE
  5
732
100
AcDbEntity
  8
0
100
AcDbLine
 62
7
  6
CONTINUOUS
 10
5.9002420686
 20
12.0483463873
 11
5.9028503339
 21
12.0563376747
  0
LINE
  5
733
100
AcDbEntity
  8
0
100
AcDbLine
 62
7
  6
CONTINUOUS
 10
5.9158916749
 20
12.0456826249
 11
5.9184999402
 21
12.0536739123
  0
LINE
  5
734
100
AcDbEntity
  8
0
100
AcDbLine
 62
7
  6
CONTINUOUS
 10
6.283657423
 20
12.0723202569
 11
6.273224362
 21
12.0563376747
  0
LINE
  5
735
100
AcDbEntity
  8
0
100
AcDbLine
 62
7
  6
CONTINUOUS
 10
6.181934982
 20
12.0456826249
 11
6.1741101789
 21
12.0350275751
  0
LINE
  5
736
100
AcDbEntity
  8
0
100
AcDbLine
 62
7
  6
CONTINUOUS
 10
6.181934982
 20
11.9897436077
 11
6.1741101789
 21
11.9790885569
  0
LINE
  5
737
100
AcDbEntity
  8
0
100
AcDbLine
 62
7
  6
CONTINUOUS
 10
6.3905963794
 20
12.0829753067
 11
6.3827715763
 21
12.0749840194
  0
LINE
  5
738
100
AcDbEntity
  8
0
100
AcDbLine
 62
7
  6
CONTINUOUS
 10
6.3332145295
 20
11.9790885569
 11
6.3410393326
 21
11.9870798452
  0
LINE
  5
739
100
AcDbEntity
  8
0
100
AcDbLine
 62
7
  6
CONTINUOUS
 10
6.4479782891
 20
11.9790885569
 11
6.4558030923
 21
11.9870798452
  0
LINE
  5
73A
100
AcDbEntity
  8
0
100
AcDbLine
 62
7
  6
CONTINUOUS
 10
6.1662853757
 20
12.0483463873
 11
6.1688936335
 21
12.0563376747
  0
LINE
  5
73B
100
AcDbEntity
  8
0
100
AcDbLine
 62
7
  6
CONTINUOUS
 10
6.0045727823
 20
11.9817523203
 11
6.043696798
 21
12.0936303566
  0
LINE
  5
73C
100
AcDbEntity
  8
0
100
AcDbLine
 62
7
  6
CONTINUOUS
 10
6.0515216012
 20
12.066992732
 11
6.0150058432
 21
11.9684335062
  0
LINE
  5
73D
100
AcDbEntity
  8
0
100
AcDbLine
 62
7
  6
CONTINUOUS
 10
6.2680078167
 20
12.0749840194
 11
6.2627912713
 21
12.0643289695
  0
LINE
  5
73E
100
AcDbEntity
  8
0
100
AcDbLine
 62
7
  6
CONTINUOUS
 10
6.3827715763
 20
12.0749840194
 11
6.3775550608
 21
12.0643289695
  0
LINE
  5
73F
100
AcDbEntity
  8
0
100
AcDbLine
 62
7
  6
CONTINUOUS
 10
6.3410393326
 20
11.9870798452
 11
6.3462558482
 21
11.9977348969
  0
LINE
  5
740
100
AcDbEntity
  8
0
100
AcDbLine
 62
7
  6
CONTINUOUS
 10
6.3253897263
 20
11.9897436077
 11
6.3358227574
 21
12.0057261843
  0
LINE
  5
741
100
AcDbEntity
  8
0
100
AcDbLine
 62
7
  6
CONTINUOUS
 10
6.3984211826
 20
12.0723202569
 11
6.3879881515
 21
12.0563376747
  0
LINE
  5
742
100
AcDbEntity
  8
0
100
AcDbLine
 62
7
  6
CONTINUOUS
 10
6.440153486
 20
11.9897436077
 11
6.4505865767
 21
12.0057261843
  0
LINE
  5
743
100
AcDbEntity
  8
0
100
AcDbLine
 62
7
  6
CONTINUOUS
 10
5.8219940371
 20
12.0936303566
 11
5.8219940371
 21
11.9684335062
  0
LINE
  5
744
100
AcDbEntity
  8
0
100
AcDbLine
 62
7
  6
CONTINUOUS
 10
5.8376436434
 20
12.0803115443
 11
5.8376436434
 21
12.0403551
  0
LINE
  5
745
100
AcDbEntity
  8
0
100
AcDbLine
 62
7
  6
CONTINUOUS
 10
5.8376436434
 20
11.9684335062
 11
5.8376436434
 21
12.0243725252
  0
LINE
  5
746
100
AcDbEntity
  8
0
100
AcDbLine
 62
7
  6
CONTINUOUS
 10
5.9028503339
 20
12.0563376747
 11
5.9028503339
 21
12.0643289695
  0
LINE
  5
747
100
AcDbEntity
  8
0
100
AcDbLine
 62
7
  6
CONTINUOUS
 10
5.9184999402
 20
12.0536739123
 11
5.9184999402
 21
12.0643289695
  0
LINE
  5
748
100
AcDbEntity
  8
0
100
AcDbLine
 62
7
  6
CONTINUOUS
 10
5.9419743496
 20
11.9684335062
 11
5.9419743496
 21
12.0936303566
  0
LINE
  5
749
100
AcDbEntity
  8
0
100
AcDbLine
 62
7
  6
CONTINUOUS
 10
5.9576239634
 20
12.066992732
 11
5.9576239634
 21
11.9684335062
  0
LINE
  5
74A
100
AcDbEntity
  8
0
100
AcDbLine
 62
7
  6
CONTINUOUS
 10
6.1845432398
 20
12.0536739123
 11
6.181934982
 21
12.0456826249
  0
LINE
  5
74B
100
AcDbEntity
  8
0
100
AcDbLine
 62
7
  6
CONTINUOUS
 10
6.1688936335
 20
12.0003986594
 11
6.1662853757
 21
11.992407372
  0
LINE
  5
74C
100
AcDbEntity
  8
0
100
AcDbLine
 62
7
  6
CONTINUOUS
 10
6.1845432398
 20
11.9977348969
 11
6.181934982
 21
11.9897436077
  0
LINE
  5
74D
100
AcDbEntity
  8
0
100
AcDbLine
 62
7
  6
CONTINUOUS
 10
6.2627912713
 20
12.0643289695
 11
6.2601830135
 21
12.0563376747
  0
LINE
  5
74E
100
AcDbEntity
  8
0
100
AcDbLine
 62
7
  6
CONTINUOUS
 10
6.3462558482
 20
11.9977348969
 11
6.3488641358
 21
12.0057261843
  0
LINE
  5
74F
100
AcDbEntity
  8
0
100
AcDbLine
 62
7
  6
CONTINUOUS
 10
6.3775550608
 20
12.0643289695
 11
6.3749467731
 21
12.0563376747
  0
LINE
  5
750
100
AcDbEntity
  8
0
100
AcDbLine
 62
7
  6
CONTINUOUS
 10
6.4558030923
 20
11.9870798452
 11
6.4610196078
 21
11.9977348969
  0
LINE
  5
751
100
AcDbEntity
  8
0
100
AcDbLine
 62
7
  6
CONTINUOUS
 10
6.0515216012
 20
11.9684335062
 11
6.0515216012
 21
12.066992732
  0
LINE
  5
752
100
AcDbEntity
  8
0
100
AcDbLine
 62
7
  6
CONTINUOUS
 10
6.0671712075
 20
12.0936303566
 11
6.0671712075
 21
11.9684335062
  0
LINE
  5
753
100
AcDbEntity
  8
0
100
AcDbLine
 62
7
  6
CONTINUOUS
 10
6.0880373442
 20
11.9684335062
 11
6.0880373442
 21
12.0936303566
  0
LINE
  5
754
100
AcDbEntity
  8
0
100
AcDbLine
 62
7
  6
CONTINUOUS
 10
6.1036869505
 20
12.0776477818
 11
6.1036869505
 21
12.0403551
  0
LINE
  5
755
100
AcDbEntity
  8
0
100
AcDbLine
 62
7
  6
CONTINUOUS
 10
6.1036869505
 20
11.9844160828
 11
6.1036869505
 21
12.0243725252
  0
LINE
  5
756
100
AcDbEntity
  8
DEFAULT_1
100
AcDbLine
 62
7
  6
CENTER
 10
6.1441151091
 20
10.8660713015
 11
6.1441151091
 21
10.6715831125
  0
LINE
  5
757
100
AcDbEntity
  8
DEFAULT_1
100
AcDbLine
 62
7
  6
CENTER
 10
6.1441151091
 20
10.8660713015
 11
6.1441151091
 21
11.0605594904
  0
LINE
  5
758
100
AcDbEntity
  8
0
100
AcDbLine
 62
7
  6
CONTINUOUS
 10
6.1688936335
 20
12.0083899468
 11
6.1688936335
 21
12.0003986594
  0
LINE
  5
759
100
AcDbEntity
  8
0
100
AcDbLine
 62
7
  6
CONTINUOUS
 10
6.1688936335
 20
12.0563376747
 11
6.1688936335
 21
12.0616651996
  0
LINE
  5
75A
100
AcDbEntity
  8
0
100
AcDbLine
 62
7
  6
CONTINUOUS
 10
6.273224362
 20
12.0563376747
 11
6.2706160744
 21
12.0403551
  0
LINE
  5
75B
100
AcDbEntity
  8
0
100
AcDbLine
 62
7
  6
CONTINUOUS
 10
6.3358227574
 20
12.0057261843
 11
6.338431045
 21
12.0217087628
  0
LINE
  5
75C
100
AcDbEntity
  8
0
100
AcDbLine
 62
7
  6
CONTINUOUS
 10
6.3879881515
 20
12.0563376747
 11
6.3853798639
 21
12.0403551
  0
LINE
  5
75D
100
AcDbEntity
  8
0
100
AcDbLine
 62
7
  6
CONTINUOUS
 10
6.2601830135
 20
12.0563376747
 11
6.2575747557
 21
12.0430188624
  0
LINE
  5
75E
100
AcDbEntity
  8
0
100
AcDbLine
 62
7
  6
CONTINUOUS
 10
6.3488641358
 20
12.0057261843
 11
6.3514723637
 21
12.0190450003
  0
LINE
  5
75F
100
AcDbEntity
  8
0
100
AcDbLine
 62
7
  6
CONTINUOUS
 10
6.3749467731
 20
12.0563376747
 11
6.3723385452
 21
12.0430188624
  0
LINE
  5
760
100
AcDbEntity
  8
0
100
AcDbLine
 62
7
  6
CONTINUOUS
 10
6.4610196078
 20
11.9977348969
 11
6.4636278954
 21
12.0057261843
  0
LINE
  5
761
100
AcDbEntity
  8
0
100
AcDbLine
 62
7
  6
CONTINUOUS
 10
6.1845432398
 20
12.0643289695
 11
6.1845432398
 21
12.0536739123
  0
LINE
  5
762
100
AcDbEntity
  8
0
100
AcDbLine
 62
7
  6
CONTINUOUS
 10
6.1845432398
 20
12.0110537092
 11
6.1845432398
 21
11.9977348969
  0
LINE
  5
763
100
AcDbEntity
  8
0
100
AcDbLine
 62
7
  6
CONTINUOUS
 10
6.2054093915
 20
12.0536739123
 11
6.2054093915
 21
12.0749840194
  0
LINE
  5
764
100
AcDbEntity
  8
0
100
AcDbLine
 62
7
  6
CONTINUOUS
 10
6.2210589978
 20
11.9684335062
 11
6.2210589978
 21
12.0723202569
  0
LINE
  5
765
100
AcDbEntity
  8
0
100
AcDbLine
 62
7
  6
CONTINUOUS
 10
6.2367086041
 20
12.0936303566
 11
6.2367086041
 21
11.9684335062
  0
LINE
  5
766
100
AcDbEntity
  8
0
100
AcDbLine
 62
7
  6
CONTINUOUS
 10
6.2575747557
 20
12.0430188624
 11
6.2575747557
 21
12.0190450003
  0
LINE
  5
767
100
AcDbEntity
  8
0
100
AcDbLine
 62
7
  6
CONTINUOUS
 10
6.2706160744
 20
12.0403551
 11
6.2706160744
 21
12.0217087628
  0
LINE
  5
768
100
AcDbEntity
  8
0
100
AcDbLine
 62
7
  6
CONTINUOUS
 10
6.338431045
 20
12.0217087628
 11
6.338431045
 21
12.0403551
  0
LINE
  5
769
100
AcDbEntity
  8
0
100
AcDbLine
 62
7
  6
CONTINUOUS
 10
6.3514723637
 20
12.0190450003
 11
6.3514723637
 21
12.0430188624
  0
LINE
  5
76A
100
AcDbEntity
  8
0
100
AcDbLine
 62
7
  6
CONTINUOUS
 10
6.3723385452
 20
12.0430188624
 11
6.3723385452
 21
12.0190450003
  0
LINE
  5
76B
100
AcDbEntity
  8
0
100
AcDbLine
 62
7
  6
CONTINUOUS
 10
6.4505865767
 20
12.0057261843
 11
6.4531948046
 21
12.0217087628
  0
LINE
  5
76C
100
AcDbEntity
  8
0
100
AcDbLine
 62
7
  6
CONTINUOUS
 10
6.4636278954
 20
12.0057261843
 11
6.466236183
 21
12.0190450003
  0
LINE
  5
76D
100
AcDbEntity
  8
DEFAULT_1
100
AcDbLine
 62
7
  6
CENTER
 10
6.1441151091
 20
10.8660713015
 11
5.9496269202
 21
10.8660713015
  0
LINE
  5
76E
100
AcDbEntity
  8
DEFAULT_1
100
AcDbLine
 62
7
  6
CENTER
 10
6.1441151091
 20
10.8660713015
 11
6.3386032981
 21
10.8660713015
  0
LINE
  5
76F
100
AcDbEntity
  8
0
100
AcDbLine
 62
7
  6
CONTINUOUS
 10
5.8819841934
 20
12.0243725252
 11
5.9028503339
 21
11.9684335062
  0
LINE
  5
770
100
AcDbEntity
  8
0
100
AcDbLine
 62
7
  6
CONTINUOUS
 10
5.9028503339
 20
12.0643289695
 11
5.9002420686
 21
12.0723202569
  0
LINE
  5
771
100
AcDbEntity
  8
0
100
AcDbLine
 62
7
  6
CONTINUOUS
 10
5.9184999402
 20
12.0643289695
 11
5.9158916749
 21
12.0723202569
  0
LINE
  5
772
100
AcDbEntity
  8
0
100
AcDbLine
 62
7
  6
CONTINUOUS
 10
6.3853798639
 20
12.0403551
 11
6.3853798639
 21
12.0217087628
  0
LINE
  5
773
100
AcDbEntity
  8
0
100
AcDbLine
 62
7
  6
CONTINUOUS
 10
6.4531948046
 20
12.0217087628
 11
6.4531948046
 21
12.0403551
  0
LINE
  5
774
100
AcDbEntity
  8
0
100
AcDbLine
 62
7
  6
CONTINUOUS
 10
6.466236183
 20
12.0190450003
 11
6.466236183
 21
12.0430188624
  0
LINE
  5
775
100
AcDbEntity
  8
0
100
AcDbLine
 62
7
  6
CONTINUOUS
 10
5.9211082129
 20
11.9684335062
 11
5.8976338034
 21
12.0297000501
  0
LINE
  5
776
100
AcDbEntity
  8
0
100
AcDbLine
 62
7
  6
CONTINUOUS
 10
5.9941397064
 20
11.9684335062
 11
5.9576239634
 21
12.066992732
  0
LINE
  5
777
100
AcDbEntity
  8
0
100
AcDbLine
 62
7
  6
CONTINUOUS
 10
5.9654487665
 20
12.0936303566
 11
6.0045727823
 21
11.9817523203
  0
LINE
  5
778
100
AcDbEntity
  8
0
100
AcDbLine
 62
7
  6
CONTINUOUS
 10
6.1662853757
 20
12.0163812379
 11
6.1688936335
 21
12.0083899468
  0
LINE
  5
779
100
AcDbEntity
  8
0
100
AcDbLine
 62
7
  6
CONTINUOUS
 10
6.2575747557
 20
12.0190450003
 11
6.2601830135
 21
12.0057261843
  0
LINE
  5
77A
100
AcDbEntity
  8
0
100
AcDbLine
 62
7
  6
CONTINUOUS
 10
6.2706160744
 20
12.0217087628
 11
6.273224362
 21
12.0057261843
  0
LINE
  5
77B
100
AcDbEntity
  8
0
100
AcDbLine
 62
7
  6
CONTINUOUS
 10
6.338431045
 20
12.0403551
 11
6.3358227574
 21
12.0563376747
  0
LINE
  5
77C
100
AcDbEntity
  8
0
100
AcDbLine
 62
7
  6
CONTINUOUS
 10
5.9158916749
 20
12.0723202569
 11
5.9080668718
 21
12.0829753067
  0
LINE
  5
77D
100
AcDbEntity
  8
0
100
AcDbLine
 62
7
  6
CONTINUOUS
 10
6.181934982
 20
12.0190450003
 11
6.1845432398
 21
12.0110537092
  0
LINE
  5
77E
100
AcDbEntity
  8
0
100
AcDbLine
 62
7
  6
CONTINUOUS
 10
6.1688936335
 20
12.0616651996
 11
6.1662853757
 21
12.0696564945
  0
LINE
  5
77F
100
AcDbEntity
  8
0
100
AcDbLine
 62
7
  6
CONTINUOUS
 10
6.181934982
 20
12.0723202569
 11
6.1845432398
 21
12.0643289695
  0
LINE
  5
780
100
AcDbEntity
  8
0
100
AcDbLine
 62
7
  6
CONTINUOUS
 10
6.2601830135
 20
12.0057261843
 11
6.2627912713
 21
11.9977348969
  0
LINE
  5
781
100
AcDbEntity
  8
0
100
AcDbLine
 62
7
  6
CONTINUOUS
 10
6.3488641358
 20
12.0563376747
 11
6.3462558482
 21
12.0643289695
  0
LINE
  5
782
100
AcDbEntity
  8
0
100
AcDbLine
 62
7
  6
CONTINUOUS
 10
6.3749467731
 20
12.0057261843
 11
6.3775550608
 21
11.9977348969
  0
LINE
  5
783
100
AcDbEntity
  8
0
100
AcDbLine
 62
7
  6
CONTINUOUS
 10
6.3514723637
 20
12.0430188624
 11
6.3488641358
 21
12.0563376747
  0
LINE
  5
784
100
AcDbEntity
  8
0
100
AcDbLine
 62
7
  6
CONTINUOUS
 10
6.3723385452
 20
12.0190450003
 11
6.3749467731
 21
12.0057261843
  0
LINE
  5
785
100
AcDbEntity
  8
0
100
AcDbLine
 62
7
  6
CONTINUOUS
 10
6.466236183
 20
12.0430188624
 11
6.4636278954
 21
12.0563376747
  0
LINE
  5
786
100
AcDbEntity
  8
0
100
AcDbLine
 62
7
  6
CONTINUOUS
 10
6.3853798639
 20
12.0217087628
 11
6.3879881515
 21
12.0057261843
  0
LINE
  5
787
100
AcDbEntity
  8
0
100
AcDbLine
 62
7
  6
CONTINUOUS
 10
6.4531948046
 20
12.0403551
 11
6.4505865767
 21
12.0563376747
  0
LINE
  5
788
100
AcDbEntity
  8
0
100
AcDbLine
 62
7
  6
CONTINUOUS
 10
5.9002420686
 20
12.0723202569
 11
5.8950255307
 21
12.0776477818
  0
LINE
  5
789
100
AcDbEntity
  8
0
100
AcDbLine
 62
7
  6
CONTINUOUS
 10
6.1741101789
 20
12.0297000501
 11
6.181934982
 21
12.0190450003
  0
LINE
  5
78A
100
AcDbEntity
  8
0
100
AcDbLine
 62
7
  6
CONTINUOUS
 10
6.1741101789
 20
12.0829753067
 11
6.181934982
 21
12.0723202569
  0
LINE
  5
78B
100
AcDbEntity
  8
0
100
AcDbLine
 62
7
  6
CONTINUOUS
 10
6.273224362
 20
12.0057261843
 11
6.283657423
 21
11.9897436077
  0
LINE
  5
78C
100
AcDbEntity
  8
0
100
AcDbLine
 62
7
  6
CONTINUOUS
 10
6.2627912713
 20
11.9977348969
 11
6.2680078167
 21
11.9870798452
  0
LINE
  5
78D
100
AcDbEntity
  8
0
100
AcDbLine
 62
7
  6
CONTINUOUS
 10
6.3775550608
 20
11.9977348969
 11
6.3827715763
 21
11.9870798452
  0
LINE
  5
78E
100
AcDbEntity
  8
0
100
AcDbLine
 62
7
  6
CONTINUOUS
 10
6.3462558482
 20
12.0643289695
 11
6.3410393326
 21
12.0749840194
  0
LINE
  5
78F
100
AcDbEntity
  8
0
100
AcDbLine
 62
7
  6
CONTINUOUS
 10
6.4636278954
 20
12.0563376747
 11
6.4610196078
 21
12.0643289695
  0
LINE
  5
790
100
AcDbEntity
  8
0
100
AcDbLine
 62
7
  6
CONTINUOUS
 10
5.9080668718
 20
12.0829753067
 11
5.8976338034
 21
12.0909665941
  0
LINE
  5
791
100
AcDbEntity
  8
0
100
AcDbLine
 62
7
  6
CONTINUOUS
 10
6.1610688303
 20
12.0217087628
 11
6.1662853757
 21
12.0163812379
  0
LINE
  5
792
100
AcDbEntity
  8
0
100
AcDbLine
 62
7
  6
CONTINUOUS
 10
6.1662853757
 20
12.0696564945
 11
6.1610688303
 21
12.0749840194
  0
LINE
  5
793
100
AcDbEntity
  8
0
100
AcDbLine
 62
7
  6
CONTINUOUS
 10
6.2680078167
 20
11.9870798452
 11
6.2758326198
 21
11.9790885569
  0
LINE
  5
794
100
AcDbEntity
  8
0
100
AcDbLine
 62
7
  6
CONTINUOUS
 10
6.3358227574
 20
12.0563376747
 11
6.3253897263
 21
12.0723202569
  0
LINE
  5
795
100
AcDbEntity
  8
0
100
AcDbLine
 62
7
  6
CONTINUOUS
 10
6.3879881515
 20
12.0057261843
 11
6.3984211826
 21
11.9897436077
  0
LINE
  5
796
100
AcDbEntity
  8
0
100
AcDbLine
 62
7
  6
CONTINUOUS
 10
6.4505865767
 20
12.0563376747
 11
6.440153486
 21
12.0723202569
  0
LINE
  5
797
100
AcDbEntity
  8
0
100
AcDbLine
 62
7
  6
CONTINUOUS
 10
6.4610196078
 20
12.0643289695
 11
6.4558030923
 21
12.0749840194
  0
LINE
  5
798
100
AcDbEntity
  8
0
100
AcDbLine
 62
7
  6
CONTINUOUS
 10
6.4192873641
 20
11.9817523203
 11
6.4323286828
 21
11.9844160828
  0
LINE
  5
799
100
AcDbEntity
  8
0
100
AcDbLine
 62
7
  6
CONTINUOUS
 10
6.3045235746
 20
11.9817523203
 11
6.3175648933
 21
11.9844160828
  0
LINE
  5
79A
100
AcDbEntity
  8
0
100
AcDbLine
 62
7
  6
CONTINUOUS
 10
6.163677118
 20
11.9710972689
 11
6.1506357694
 21
11.9684335062
  0
LINE
  5
79B
100
AcDbEntity
  8
0
100
AcDbLine
 62
7
  6
CONTINUOUS
 10
6.4192873641
 20
11.9684335062
 11
6.4349369704
 21
11.9710972689
  0
LINE
  5
79C
100
AcDbEntity
  8
0
100
AcDbLine
 62
7
  6
CONTINUOUS
 10
6.3045235746
 20
11.9684335062
 11
6.3201731809
 21
11.9710972689
  0
LINE
  5
79D
100
AcDbEntity
  8
0
100
AcDbLine
 62
7
  6
CONTINUOUS
 10
5.8950255307
 20
12.0776477818
 11
5.8872007276
 21
12.0803115443
  0
LINE
  5
79E
100
AcDbEntity
  8
0
100
AcDbLine
 62
7
  6
CONTINUOUS
 10
6.1532440272
 20
12.0243725252
 11
6.1610688303
 21
12.0217087628
  0
LINE
  5
79F
100
AcDbEntity
  8
0
100
AcDbLine
 62
7
  6
CONTINUOUS
 10
6.1688936335
 20
12.0323638126
 11
6.1741101789
 21
12.0297000501
  0
LINE
  5
7A0
100
AcDbEntity
  8
0
100
AcDbLine
 62
7
  6
CONTINUOUS
 10
6.2758326198
 20
11.9790885569
 11
6.2888739683
 21
11.9710972689
  0
LINE
  5
7A1
100
AcDbEntity
  8
0
100
AcDbLine
 62
7
  6
CONTINUOUS
 10
6.3905963794
 20
11.9790885569
 11
6.4036377578
 21
11.9710972689
  0
LINE
  5
7A2
100
AcDbEntity
  8
0
100
AcDbLine
 62
7
  6
CONTINUOUS
 10
6.283657423
 20
11.9897436077
 11
6.2914822261
 21
11.9844160828
  0
LINE
  5
7A3
100
AcDbEntity
  8
0
100
AcDbLine
 62
7
  6
CONTINUOUS
 10
6.3984211826
 20
11.9897436077
 11
6.4062459857
 21
11.9844160828
  0
LINE
  5
7A4
100
AcDbEntity
  8
0
100
AcDbLine
 62
7
  6
CONTINUOUS
 10
6.3253897263
 20
12.0723202569
 11
6.3175648933
 21
12.0776477818
  0
LINE
  5
7A5
100
AcDbEntity
  8
0
100
AcDbLine
 62
7
  6
CONTINUOUS
 10
6.163677118
 20
12.0909665941
 11
6.1741101789
 21
12.0829753067
  0
LINE
  5
7A6
100
AcDbEntity
  8
0
100
AcDbLine
 62
7
  6
CONTINUOUS
 10
6.3827715763
 20
11.9870798452
 11
6.3905963794
 21
11.9790885569
  0
LINE
  5
7A7
100
AcDbEntity
  8
0
100
AcDbLine
 62
7
  6
CONTINUOUS
 10
6.3410393326
 20
12.0749840194
 11
6.3332145295
 21
12.0829753067
  0
LINE
  5
7A8
100
AcDbEntity
  8
0
100
AcDbLine
 62
7
  6
CONTINUOUS
 10
6.4558030923
 20
12.0749840194
 11
6.4479782891
 21
12.0829753067
  0
LINE
  5
7A9
100
AcDbEntity
  8
0
100
AcDbLine
 62
7
  6
CONTINUOUS
 10
6.4192873641
 20
12.0803115443
 11
6.4062459857
 21
12.0776477818
  0
LINE
  5
7AA
100
AcDbEntity
  8
0
100
AcDbLine
 62
7
  6
CONTINUOUS
 10
6.3045235746
 20
12.0803115443
 11
6.2914822261
 21
12.0776477818
  0
LINE
  5
7AB
100
AcDbEntity
  8
0
100
AcDbLine
 62
7
  6
CONTINUOUS
 10
6.4192873641
 20
12.0936303566
 11
6.4036377578
 21
12.0909665941
  0
LINE
  5
7AC
100
AcDbEntity
  8
0
100
AcDbLine
 62
7
  6
CONTINUOUS
 10
6.3045235746
 20
12.0936303566
 11
6.2888739683
 21
12.0909665941
  0
LINE
  5
7AD
100
AcDbEntity
  8
0
100
AcDbLine
 62
7
  6
CONTINUOUS
 10
6.2367086041
 20
11.9684335062
 11
6.2210589978
 21
11.9684335062
  0
LINE
  5
7AE
100
AcDbEntity
  8
0
100
AcDbLine
 62
7
  6
CONTINUOUS
 10
6.1506357694
 20
11.9684335062
 11
6.0880373442
 21
11.9684335062
  0
LINE
  5
7AF
100
AcDbEntity
  8
0
100
AcDbLine
 62
7
  6
CONTINUOUS
 10
6.0671712075
 20
11.9684335062
 11
6.0515216012
 21
11.9684335062
  0
LINE
  5
7B0
100
AcDbEntity
  8
0
100
AcDbLine
 62
7
  6
CONTINUOUS
 10
6.0150058432
 20
11.9684335062
 11
5.9941397064
 21
11.9684335062
  0
LINE
  5
7B1
100
AcDbEntity
  8
0
100
AcDbLine
 62
7
  6
CONTINUOUS
 10
5.9576239634
 20
11.9684335062
 11
5.9419743496
 21
11.9684335062
  0
LINE
  5
7B2
100
AcDbEntity
  8
0
100
AcDbLine
 62
7
  6
CONTINUOUS
 10
5.8219940371
 20
11.9684335062
 11
5.8376436434
 21
11.9684335062
  0
LINE
  5
7B3
100
AcDbEntity
  8
0
100
AcDbLine
 62
7
  6
CONTINUOUS
 10
5.9028503339
 20
11.9684335062
 11
5.9211082129
 21
11.9684335062
  0
LINE
  5
7B4
100
AcDbEntity
  8
0
100
AcDbLine
 62
7
  6
CONTINUOUS
 10
6.1532440272
 20
11.9844160828
 11
6.1036869505
 21
11.9844160828
  0
LINE
  5
7B5
100
AcDbEntity
  8
0
100
AcDbLine
 62
7
  6
CONTINUOUS
 10
5.8376436434
 20
12.0243725252
 11
5.8819841934
 21
12.0243725252
  0
LINE
  5
7B6
100
AcDbEntity
  8
0
100
AcDbLine
 62
7
  6
CONTINUOUS
 10
6.1036869505
 20
12.0243725252
 11
6.1532440272
 21
12.0243725252
  0
LINE
  5
7B7
100
AcDbEntity
  8
0
100
AcDbLine
 62
7
  6
CONTINUOUS
 10
5.8376436434
 20
12.0403551
 11
5.8872007276
 21
12.0403551
  0
LINE
  5
7B8
100
AcDbEntity
  8
0
100
AcDbLine
 62
7
  6
CONTINUOUS
 10
6.1036869505
 20
12.0403551
 11
6.1532440272
 21
12.0403551
  0
LINE
  5
7B9
100
AcDbEntity
  8
0
100
AcDbLine
 62
7
  6
CONTINUOUS
 10
6.1532440272
 20
12.0776477818
 11
6.1036869505
 21
12.0776477818
  0
LINE
  5
7BA
100
AcDbEntity
  8
0
100
AcDbLine
 62
7
  6
CONTINUOUS
 10
5.8872007276
 20
12.0803115443
 11
5.8376436434
 21
12.0803115443
  0
LINE
  5
7BB
100
AcDbEntity
  8
0
100
AcDbLine
 62
7
  6
CONTINUOUS
 10
5.8845924623
 20
12.0936303566
 11
5.8219940371
 21
12.0936303566
  0
LINE
  5
7BC
100
AcDbEntity
  8
0
100
AcDbLine
 62
7
  6
CONTINUOUS
 10
5.9419743496
 20
12.0936303566
 11
5.9654487665
 21
12.0936303566
  0
LINE
  5
7BD
100
AcDbEntity
  8
0
100
AcDbLine
 62
7
  6
CONTINUOUS
 10
6.043696798
 20
12.0936303566
 11
6.0671712075
 21
12.0936303566
  0
LINE
  5
7BE
100
AcDbEntity
  8
0
100
AcDbLine
 62
7
  6
CONTINUOUS
 10
6.0880373442
 20
12.0936303566
 11
6.1506357694
 21
12.0936303566
  0
LINE
  5
7BF
100
AcDbEntity
  8
0
100
AcDbLine
 62
7
  6
CONTINUOUS
 10
6.2210589978
 20
12.0936303566
 11
6.2367086041
 21
12.0936303566
  0
LINE
  5
7C0
100
AcDbEntity
  8
0
100
AcDbLine
 62
7
  6
CONTINUOUS
 10
6.2888739683
 20
11.9710972689
 11
6.3045235746
 21
11.9684335062
  0
LINE
  5
7C1
100
AcDbEntity
  8
0
100
AcDbLine
 62
7
  6
CONTINUOUS
 10
6.4036377578
 20
11.9710972689
 11
6.4192873641
 21
11.9684335062
  0
LINE
  5
7C2
100
AcDbEntity
  8
0
100
AcDbLine
 62
7
  6
CONTINUOUS
 10
6.3201731809
 20
12.0909665941
 11
6.3045235746
 21
12.0936303566
  0
LINE
  5
7C3
100
AcDbEntity
  8
0
100
AcDbLine
 62
7
  6
CONTINUOUS
 10
6.4349369704
 20
12.0909665941
 11
6.4192873641
 21
12.0936303566
  0
LINE
  5
7C4
100
AcDbEntity
  8
0
100
AcDbLine
 62
7
  6
CONTINUOUS
 10
6.2914822261
 20
11.9844160828
 11
6.3045235746
 21
11.9817523203
  0
LINE
  5
7C5
100
AcDbEntity
  8
0
100
AcDbLine
 62
7
  6
CONTINUOUS
 10
6.4062459857
 20
11.9844160828
 11
6.4192873641
 21
11.9817523203
  0
LINE
  5
7C6
100
AcDbEntity
  8
0
100
AcDbLine
 62
7
  6
CONTINUOUS
 10
5.8976338034
 20
12.0909665941
 11
5.8845924623
 21
12.0936303566
  0
LINE
  5
7C7
100
AcDbEntity
  8
0
100
AcDbLine
 62
7
  6
CONTINUOUS
 10
6.1506357694
 20
12.0936303566
 11
6.163677118
 21
12.0909665941
  0
LINE
  5
7C8
100
AcDbEntity
  8
0
100
AcDbLine
 62
7
  6
CONTINUOUS
 10
6.3175648933
 20
12.0776477818
 11
6.3045235746
 21
12.0803115443
  0
LINE
  5
7C9
100
AcDbEntity
  8
0
100
AcDbLine
 62
7
  6
CONTINUOUS
 10
6.4323286828
 20
12.0776477818
 11
6.4192873641
 21
12.0803115443
  0
LINE
  5
7CA
100
AcDbEntity
  8
0
100
AcDbLine
 62
7
  6
CONTINUOUS
 10
6.1610688303
 20
12.0749840194
 11
6.1532440272
 21
12.0776477818
  0
LINE
  5
7CB
100
AcDbEntity
  8
0
100
AcDbLine
 62
7
  6
CONTINUOUS
 10
6.3332145295
 20
12.0829753067
 11
6.3201731809
 21
12.0909665941
  0
LINE
  5
7CC
100
AcDbEntity
  8
0
100
AcDbLine
 62
7
  6
CONTINUOUS
 10
6.4479782891
 20
12.0829753067
 11
6.4349369704
 21
12.0909665941
  0
LINE
  5
7CD
100
AcDbEntity
  8
0
100
AcDbLine
 62
7
  6
CONTINUOUS
 10
6.440153486
 20
12.0723202569
 11
6.4323286828
 21
12.0776477818
  0
LINE
  5
7CE
100
AcDbEntity
  8
DEFAULT_1
100
AcDbLine
 62
7
  6
CENTER
 10
7.6598631406
 20
12.3030791755
 11
7.6598631406
 21
12.1546539786
  0
LINE
  5
7CF
100
AcDbEntity
  8
DEFAULT_1
100
AcDbLine
 62
7
  6
CENTER
 10
7.6598631406
 20
9.2715831125
 11
7.6598631406
 21
9.1231579156
  0
LINE
  5
7D0
100
AcDbEntity
  8
DEFAULT_1
100
AcDbLine
 62
7
  6
CENTER
 10
7.6598631406
 20
9.2715831125
 11
7.6598631406
 21
12.1436692091
  0
LINE
  5
7D1
100
AcDbEntity
  8
DEFAULT_1
100
AcDbLine
 62
7
  6
CENTER
 10
7.6598631406
 20
12.3030791755
 11
7.6598631406
 21
12.4515043723
  0
LINE
  5
7D2
100
AcDbEntity
  8
DEFAULT_1
100
AcDbLine
 62
7
  6
CENTER
 10
7.6598631406
 20
12.3030791755
 11
7.5114379438
 21
12.3030791755
  0
LINE
  5
7D3
100
AcDbEntity
  8
DEFAULT_1
100
AcDbLine
 62
7
  6
CENTER
 10
4.6283670776
 20
12.3030791755
 11
4.4799418808
 21
12.3030791755
  0
LINE
  5
7D4
100
AcDbEntity
  8
DEFAULT_1
100
AcDbLine
 62
7
  6
CENTER
 10
4.6283670776
 20
12.3030791755
 11
7.4973397393
 21
12.3030791755
  0
LINE
  5
7D5
100
AcDbEntity
  8
DEFAULT_1
100
AcDbLine
 62
7
  6
CENTER
 10
7.6598631406
 20
12.3030791755
 11
7.8082883375
 21
12.3030791755
  0
LINE
  5
7D6
100
AcDbEntity
  8
DEFAULT_1
100
AcDbLine
 62
7
  6
CENTER
 10
7.9551387312
 20
12.598354766
 11
7.9551387312
 21
12.4499295692
  0
LINE
  5
7D7
100
AcDbEntity
  8
DEFAULT_1
100
AcDbLine
 62
7
  6
CENTER
 10
7.9551387312
 20
8.9763075219
 11
7.9551387312
 21
8.8278823251
  0
LINE
  5
7D8
100
AcDbEntity
  8
DEFAULT_1
100
AcDbLine
 62
7
  6
CENTER
 10
7.9551387312
 20
8.9763075219
 11
7.9551387312
 21
12.4213231496
  0
LINE
  5
7D9
100
AcDbEntity
  8
DEFAULT_1
100
AcDbLine
 62
7
  6
CENTER
 10
7.9551387312
 20
12.598354766
 11
7.9551387312
 21
12.7467799629
  0
LINE
  5
7DA
100
AcDbEntity
  8
0
100
AcDbLine
 62
9
  6
CONTINUOUS
 10
7.9945088099
 20
8.6219768133
 11
7.9945088099
 21
8.6967799629
  0
LINE
  5
7DB
100
AcDbEntity
  8
0
100
AcDbLine
 62
7
  6
CONTINUOUS
 10
8.1519891249
 20
8.6219768133
 11
8.1519891249
 21
8.7794571282
  0
LINE
  5
7DC
100
AcDbEntity
  8
0
100
AcDbLine
 62
9
  6
CONTINUOUS
 10
8.1578946367
 20
12.8345752385
 11
8.1578946367
 21
8.7794571282
  0
LINE
  5
7DD
100
AcDbEntity
  8
DEFAULT_1
100
AcDbLine
 62
7
  6
CENTER
 10
7.9551387312
 20
12.598354766
 11
7.8067135343
 21
12.598354766
  0
LINE
  5
7DE
100
AcDbEntity
  8
DEFAULT_1
100
AcDbLine
 62
7
  6
CENTER
 10
4.3330914871
 20
12.598354766
 11
4.1846662902
 21
12.598354766
  0
LINE
  5
7DF
100
AcDbEntity
  8
DEFAULT_1
100
AcDbLine
 62
7
  6
CENTER
 10
4.3330914871
 20
12.598354766
 11
7.7656469433
 21
12.598354766
  0
LINE
  5
7E0
100
AcDbEntity
  8
DEFAULT_1
100
AcDbLine
 62
7
  6
CENTER
 10
7.9551387312
 20
12.598354766
 11
8.103563928
 21
12.598354766
  0
LINE
  5
7E1
100
AcDbEntity
  8
0
100
AcDbLine
 62
9
  6
CONTINUOUS
 10
8.3094694398
 20
12.6770949235
 11
8.2366347942
 21
12.6770949235
  0
LINE
  5
7E2
100
AcDbEntity
  8
0
100
AcDbLine
 62
9
  6
CONTINUOUS
 10
4.0515954241
 20
12.6770949235
 11
3.9787607784
 21
12.6770949235
  0
LINE
  5
7E3
100
AcDbEntity
  8
0
100
AcDbLine
 62
7
  6
CONTINUOUS
 10
8.2366347942
 20
8.7794571282
 11
8.2366347942
 21
12.8345752385
  0
LINE
  5
7E4
100
AcDbEntity
  8
0
100
AcDbLine
 62
7
  6
CONTINUOUS
 10
8.3094694398
 20
8.7794571282
 11
8.3094694398
 21
12.8345752385
  0
LINE
  5
7E5
100
AcDbEntity
  8
0
100
AcDbLine
 62
7
  6
CONTINUOUS
 10
3.9787607784
 20
12.8345752385
 11
8.3094694398
 21
12.8345752385
  0
LINE
  5
7E6
100
AcDbEntity
  8
0
100
AcDbLine
 62
7
  6
CONTINUOUS
 10
13.1792288592
 20
8.6219768133
 11
11.9922209852
 21
8.6219768133
  0
LINE
  5
7E7
100
AcDbEntity
  8
0
100
AcDbLine
 62
7
  6
CONTINUOUS
 10
11.9922209852
 20
8.6967799629
 11
13.1792288592
 21
8.6967799629
  0
LINE
  5
7E8
100
AcDbEntity
  8
0
100
AcDbLine
 62
7
  6
CONTINUOUS
 10
13.3308036624
 20
8.7794571282
 11
13.0158430324
 21
8.7794571282
  0
LINE
  5
7E9
100
AcDbEntity
  8
0
100
AcDbLine
 62
7
  6
CONTINUOUS
 10
11.9922209852
 20
8.6219768133
 11
11.9922209852
 21
8.6967799629
  0
LINE
  5
7EA
100
AcDbEntity
  8
0
100
AcDbLine
 62
9
  6
CONTINUOUS
 10
12.1497013002
 20
8.6219768133
 11
12.1497013002
 21
8.6967799629
  0
LINE
  5
7EB
100
AcDbEntity
  8
0
100
AcDbLine
 62
7
  6
CONTINUOUS
 10
12.8583627175
 20
8.9369374432
 11
12.8583627175
 21
12.6770949235
  0
LINE
  5
7EC
100
AcDbEntity
  8
0
100
AcDbLine
 62
9
  6
CONTINUOUS
 10
13.1792288592
 20
12.8345752385
 11
13.1792288592
 21
8.7794571282
  0
LINE
  5
7ED
100
AcDbEntity
  8
0
100
AcDbLine
 62
7
  6
CONTINUOUS
 10
13.2579690167
 20
8.7755201204
 11
13.2579690167
 21
8.7794571282
  0
LINE
  5
7EE
100
AcDbEntity
  8
0
100
AcDbLine
 62
7
  6
CONTINUOUS
 10
13.3308036624
 20
8.7735516164
 11
13.3308036624
 21
12.8345752385
  0
LINE
  5
7EF
100
AcDbEntity
  8
0
100
AcDbLine
 62
7
  6
CONTINUOUS
 10
13.0158430324
 20
12.8345752385
 11
13.3308036624
 21
12.8345752385
  0
LINE
  5
7F0
100
AcDbEntity
  8
0
100
AcDbLine
 62
7
  6
CONTINUOUS
 10
3.9787607784
 20
3.9772005006
 11
3.9787607784
 21
4.2980666423
  0
LINE
  5
7F1
100
AcDbEntity
  8
0
100
AcDbLine
 62
7
  6
CONTINUOUS
 10
4.0515954241
 20
3.9772005006
 11
4.0515954241
 21
4.2980666423
  0
LINE
  5
7F2
100
AcDbEntity
  8
0
100
AcDbLine
 62
7
  6
CONTINUOUS
 10
4.1362410934
 20
3.8256256974
 11
4.1362410934
 21
5.0067280596
  0
LINE
  5
7F3
100
AcDbEntity
  8
DEFAULT_1
100
AcDbLine
 62
7
  6
CENTER
 10
4.8891721065
 20
4.9099181576
 11
4.8891721065
 21
4.7213354804
  0
LINE
  5
7F4
100
AcDbEntity
  8
DEFAULT_1
100
AcDbLine
 62
7
  6
CENTER
 10
4.8891721065
 20
4.2373962294
 11
4.8891721065
 21
4.0488135522
  0
LINE
  5
7F5
100
AcDbEntity
  8
DEFAULT_1
100
AcDbLine
 62
7
  6
CENTER
 10
4.8891721065
 20
4.2373962294
 11
4.8891721065
 21
4.4259789066
  0
LINE
  5
7F6
100
AcDbEntity
  8
DEFAULT_1
100
AcDbLine
 62
7
  6
CENTER
 10
4.8891721065
 20
4.9099181576
 11
4.8891721065
 21
5.0985008348
  0
LINE
  5
7F7
100
AcDbEntity
  8
DEFAULT_1
100
AcDbLine
 62
7
  6
CENTER
 10
5.0417529044
 20
4.5736571935
 11
5.0417529044
 21
4.3850745163
  0
LINE
  5
7F8
100
AcDbEntity
  8
DEFAULT_1
100
AcDbLine
 62
7
  6
CENTER
 10
5.0417529044
 20
4.5736571935
 11
5.0417529044
 21
4.7622398707
  0
LINE
  5
7F9
100
AcDbEntity
  8
0
100
AcDbLine
 62
7
  6
CONTINUOUS
 10
4.1303355816
 20
3.8256256974
 11
8.1578946367
 21
3.8256256974
  0
LINE
  5
7FA
100
AcDbEntity
  8
0
100
AcDbLine
 62
7
  6
CONTINUOUS
 10
4.1303355816
 20
3.8984603431
 11
4.1362410934
 21
3.8984603431
  0
LINE
  5
7FB
100
AcDbEntity
  8
0
100
AcDbLine
 62
7
  6
CONTINUOUS
 10
8.1519891249
 20
3.8984603431
 11
8.1578946367
 21
3.8984603431
  0
LINE
  5
7FC
100
AcDbEntity
  8
0
100
AcDbLine
 62
9
  6
CONTINUOUS
 10
8.1519891249
 20
3.9772005006
 11
4.1362410934
 21
3.9772005006
  0
LINE
  5
7FD
100
AcDbEntity
  8
0
100
AcDbLine
 62
7
  6
CONTINUOUS
 10
6.3941151091
 20
4.1405863274
 11
5.8941151091
 21
4.1405863274
  0
LINE
  5
7FE
100
AcDbEntity
  8
0
100
AcDbLine
 62
9
  6
CONTINUOUS
 10
3.9787607784
 20
4.1405863274
 11
4.0515954241
 21
4.1405863274
  0
LINE
  5
7FF
100
AcDbEntity
  8
0
100
AcDbLine
 62
9
  6
CONTINUOUS
 10
8.2366347942
 20
4.1405863274
 11
8.3094694398
 21
4.1405863274
  0
LINE
  5
800
100
AcDbEntity
  8
0
100
AcDbLine
 62
7
  6
CONTINUOUS
 10
5.8941151091
 20
4.1405863274
 11
5.8941151091
 21
4.2193264848
  0
LINE
  5
801
100
AcDbEntity
  8
0
100
AcDbLine
 62
7
  6
CONTINUOUS
 10
5.8941151091
 20
4.2193264848
 11
6.3941151091
 21
4.2193264848
  0
LINE
  5
802
100
AcDbEntity
  8
DEFAULT_1
100
AcDbLine
 62
7
  6
CENTER
 10
7.3990581118
 20
4.2373962294
 11
7.2104754346
 21
4.2373962294
  0
LINE
  5
803
100
AcDbEntity
  8
DEFAULT_1
100
AcDbLine
 62
7
  6
CENTER
 10
4.8891721065
 20
4.2373962294
 11
4.7005894293
 21
4.2373962294
  0
LINE
  5
804
100
AcDbEntity
  8
DEFAULT_1
100
AcDbLine
 62
7
  6
CENTER
 10
4.8891721065
 20
4.2373962294
 11
5.0777547836
 21
4.2373962294
  0
LINE
  5
805
100
AcDbEntity
  8
DEFAULT_1
100
AcDbLine
 62
7
  6
CENTER
 10
7.3990581118
 20
4.2373962294
 11
7.587640789
 21
4.2373962294
  0
LINE
  5
806
100
AcDbEntity
  8
0
100
AcDbLine
 62
7
  6
CONTINUOUS
 10
3.9787607784
 20
4.2980666423
 11
4.0515954241
 21
4.2980666423
  0
LINE
  5
807
100
AcDbEntity
  8
0
100
AcDbLine
 62
7
  6
CONTINUOUS
 10
8.2366347942
 20
4.2980666423
 11
8.3094694398
 21
4.2980666423
  0
LINE
  5
808
100
AcDbEntity
  8
DEFAULT_1
100
AcDbLine
 62
7
  6
CENTER
 10
6.1441151091
 20
4.5736571935
 11
6.1441151091
 21
3.730957139
  0
LINE
  5
809
100
AcDbEntity
  8
DEFAULT_1
100
AcDbLine
 62
7
  6
CENTER
 10
6.1441151091
 20
4.5736571935
 11
6.1441151091
 21
5.2642083746
  0
LINE
  5
80A
100
AcDbEntity
  8
0
100
AcDbLine
 62
7
  6
CONTINUOUS
 10
7.3514998513
 20
4.4850745163
 11
7.2464773139
 21
4.4850745163
  0
LINE
  5
80B
100
AcDbEntity
  8
0
100
AcDbLine
 62
7
  6
CONTINUOUS
 10
5.0417529044
 20
4.4850745163
 11
4.936730367
 21
4.4850745163
  0
LINE
  5
80C
100
AcDbEntity
  8
DEFAULT_1
100
AcDbLine
 62
7
  6
CENTER
 10
7.2464773139
 20
4.5736571935
 11
7.0578946367
 21
4.5736571935
  0
LINE
  5
80D
100
AcDbEntity
  8
DEFAULT_1
100
AcDbLine
 62
7
  6
CENTER
 10
6.1441151091
 20
4.5736571935
 11
5.3075213512
 21
4.5736571935
  0
LINE
  5
80E
100
AcDbEntity
  8
DEFAULT_1
100
AcDbLine
 62
7
  6
CENTER
 10
5.0417529044
 20
4.5736571935
 11
4.8531702272
 21
4.5736571935
  0
LINE
  5
80F
100
AcDbEntity
  8
DEFAULT_1
100
AcDbLine
 62
7
  6
CENTER
 10
5.0417529044
 20
4.5736571935
 11
5.2303355816
 21
4.5736571935
  0
LINE
  5
810
100
AcDbEntity
  8
DEFAULT_1
100
AcDbLine
 62
7
  6
CENTER
 10
6.1441151091
 20
4.5736571935
 11
7.0023533195
 21
4.5736571935
  0
LINE
  5
811
100
AcDbEntity
  8
DEFAULT_1
100
AcDbLine
 62
7
  6
CENTER
 10
7.2464773139
 20
4.5736571935
 11
7.435059991
 21
4.5736571935
  0
LINE
  5
812
100
AcDbEntity
  8
0
100
AcDbLine
 62
7
  6
CONTINUOUS
 10
4.936730367
 20
4.6622398707
 11
5.0417529044
 21
4.6622398707
  0
LINE
  5
813
100
AcDbEntity
  8
0
100
AcDbLine
 62
7
  6
CONTINUOUS
 10
7.2464773139
 20
4.6622398707
 11
7.3514998513
 21
4.6622398707
  0
LINE
  5
814
100
AcDbEntity
  8
0
100
AcDbLine
 62
7
  6
CONTINUOUS
 10
6.3941151091
 20
4.2193264848
 11
6.3941151091
 21
4.1405863274
  0
LINE
  5
815
100
AcDbEntity
  8
DEFAULT_1
100
AcDbLine
 62
7
  6
CENTER
 10
7.3990581118
 20
4.9099181576
 11
7.2104754346
 21
4.9099181576
  0
LINE
  5
816
100
AcDbEntity
  8
DEFAULT_1
100
AcDbLine
 62
7
  6
CENTER
 10
4.8891721065
 20
4.9099181576
 11
4.7005894293
 21
4.9099181576
  0
LINE
  5
817
100
AcDbEntity
  8
DEFAULT_1
100
AcDbLine
 62
7
  6
CENTER
 10
4.8891721065
 20
4.9099181576
 11
5.0777547836
 21
4.9099181576
  0
LINE
  5
818
100
AcDbEntity
  8
DEFAULT_1
100
AcDbLine
 62
7
  6
CENTER
 10
7.3990581118
 20
4.9099181576
 11
7.587640789
 21
4.9099181576
  0
LINE
  5
819
100
AcDbEntity
  8
0
100
AcDbLine
 62
7
  6
CONTINUOUS
 10
4.2937214084
 20
5.1642083746
 11
7.9945088099
 21
5.1642083746
  0
LINE
  5
81A
100
AcDbEntity
  8
DEFAULT_1
100
AcDbLine
 62
7
  6
CENTER
 10
7.2464773139
 20
4.5736571935
 11
7.2464773139
 21
4.3850745163
  0
LINE
  5
81B
100
AcDbEntity
  8
DEFAULT_1
100
AcDbLine
 62
7
  6
CENTER
 10
7.2464773139
 20
4.5736571935
 11
7.2464773139
 21
4.7622398707
  0
LINE
  5
81C
100
AcDbEntity
  8
DEFAULT_1
100
AcDbLine
 62
7
  6
CENTER
 10
7.3990581118
 20
4.9099181576
 11
7.3990581118
 21
4.7213354804
  0
LINE
  5
81D
100
AcDbEntity
  8
DEFAULT_1
100
AcDbLine
 62
7
  6
CENTER
 10
7.3990581118
 20
4.2373962294
 11
7.3990581118
 21
4.0488135522
  0
LINE
  5
81E
100
AcDbEntity
  8
DEFAULT_1
100
AcDbLine
 62
7
  6
CENTER
 10
7.3990581118
 20
4.2373962294
 11
7.3990581118
 21
4.4259789066
  0
LINE
  5
81F
100
AcDbEntity
  8
DEFAULT_1
100
AcDbLine
 62
7
  6
CENTER
 10
7.3990581118
 20
4.9099181576
 11
7.3990581118
 21
5.0985008348
  0
LINE
  5
820
100
AcDbEntity
  8
0
100
AcDbLine
 62
7
  6
CONTINUOUS
 10
8.1519891249
 20
3.8256256974
 11
8.1519891249
 21
5.0067280596
  0
LINE
  5
821
100
AcDbEntity
  8
0
100
AcDbLine
 62
7
  6
CONTINUOUS
 10
8.2366347942
 20
3.9772005006
 11
8.2366347942
 21
4.2980666423
  0
LINE
  5
822
100
AcDbEntity
  8
0
100
AcDbLine
 62
7
  6
CONTINUOUS
 10
8.3094694398
 20
3.9772005006
 11
8.3094694398
 21
4.2980666423
  0
CIRCLE
  5
823
100
AcDbEntity
  8
SKETCHED_ENT
100
AcDbCircle
 62
2
  6
CENTER
 10
6.1441151091
 20
4.5736571935
 40
1.2992125984
  0
CIRCLE
  5
824
100
AcDbEntity
  8
0
100
AcDbCircle
 62
7
  6
CONTINUOUS
 10
15.2229827477
 20
1.1139932523
 40
0.252091
  0
CIRCLE
  5
825
100
AcDbEntity
  8
0
100
AcDbCircle
 62
7
  6
CONTINUOUS
 10
15.2229827477
 20
1.1139932523
 40
0.182698
  0
CIRCLE
  5
826
100
AcDbEntity
  8
0
100
AcDbCircle
 62
7
  6
CONTINUOUS
 10
6.1441151091
 20
10.8660713015
 40
0.094488189
  0
CIRCLE
  5
827
100
AcDbEntity
  8
0
100
AcDbCircle
 62
7
  6
CONTINUOUS
 10
4.3330914871
 20
12.598354766
 40
0.0484251969
  0
CIRCLE
  5
828
100
AcDbEntity
  8
0
100
AcDbCircle
 62
7
  6
CONTINUOUS
 10
7.9551387312
 20
8.9763075219
 40
0.0484251969
  0
CIRCLE
  5
829
100
AcDbEntity
  8
0
100
AcDbCircle
 62
7
  6
CONTINUOUS
 10
7.9551387312
 20
12.598354766
 40
0.0484251969
  0
CIRCLE
  5
82A
100
AcDbEntity
  8
0
100
AcDbCircle
 62
7
  6
CONTINUOUS
 10
4.3330914871
 20
8.9763075219
 40
0.0484251969
  0
CIRCLE
  5
82B
100
AcDbEntity
  8
0
100
AcDbCircle
 62
7
  6
CONTINUOUS
 10
4.6283670776
 20
12.3030791755
 40
0.0484251969
  0
CIRCLE
  5
82C
100
AcDbEntity
  8
0
100
AcDbCircle
 62
7
  6
CONTINUOUS
 10
7.6598631406
 20
12.3030791755
 40
0.0484251969
  0
CIRCLE
  5
82D
100
AcDbEntity
  8
0
100
AcDbCircle
 62
7
  6
CONTINUOUS
 10
7.6598631406
 20
9.2715831125
 40
0.0484251969
  0
CIRCLE
  5
82E
100
AcDbEntity
  8
0
100
AcDbCircle
 62
7
  6
CONTINUOUS
 10
4.6283670776
 20
9.2715831125
 40
0.0484251969
  0
ARC
  5
82F
100
AcDbEntity
  8
0
100
AcDbCircle
 62
7
  6
CONTINUOUS
 10
13.0158430324
 20
8.9369374432
 40
0.157480315
100
AcDbArc
 50
180.0
 51
270.0
  0
ARC
  5
830
100
AcDbEntity
  8
0
100
AcDbCircle
 62
7
  6
CONTINUOUS
 10
13.0158430324
 20
12.6770949235
 40
0.157480315
100
AcDbArc
 50
90.0
 51
180.0
  0
ARC
  5
831
100
AcDbEntity
  8
0
100
AcDbCircle
 62
7
  6
CONTINUOUS
 10
13.1792288592
 20
8.7735516164
 40
0.1515748031
100
AcDbArc
 50
270.0
 51
360.0
  0
ARC
  5
832
100
AcDbEntity
  8
0
100
AcDbCircle
 62
7
  6
CONTINUOUS
 10
13.1792288592
 20
8.7755201204
 40
0.0787401575
100
AcDbArc
 50
270.0
 51
360.0
  0
ARC
  5
833
100
AcDbEntity
  8
0
100
AcDbCircle
 62
7
  6
CONTINUOUS
 10
6.1441151091
 20
4.5736571935
 40
1.3877952756
100
AcDbArc
 50
345.0
 51
15.0
  0
ARC
  5
834
100
AcDbEntity
  8
0
100
AcDbCircle
 62
7
  6
CONTINUOUS
 10
6.1441151091
 20
4.5736571935
 40
1.3877952756
100
AcDbArc
 50
165.0
 51
195.0
  0
ARC
  5
835
100
AcDbEntity
  8
0
100
AcDbCircle
 62
7
  6
CONTINUOUS
 10
6.1441151091
 20
4.5736571935
 40
1.2106299213
100
AcDbArc
 50
4.196124117
 51
15.0
  0
ARC
  5
836
100
AcDbEntity
  8
0
100
AcDbCircle
 62
7
  6
CONTINUOUS
 10
6.1441151091
 20
4.5736571935
 40
1.2106299213
100
AcDbArc
 50
345.0
 51
355.803875883
  0
ARC
  5
837
100
AcDbEntity
  8
0
100
AcDbCircle
 62
7
  6
CONTINUOUS
 10
6.1441151091
 20
4.5736571935
 40
1.2106299213
100
AcDbArc
 50
184.196124117
 51
195.0
  0
ARC
  5
838
100
AcDbEntity
  8
0
100
AcDbCircle
 62
7
  6
CONTINUOUS
 10
6.1441151091
 20
4.5736571935
 40
1.2106299213
100
AcDbArc
 50
165.0
 51
175.803875883
  0
ARC
  5
839
100
AcDbEntity
  8
0
100
AcDbCircle
 62
7
  6
CONTINUOUS
 10
4.2937214084
 20
5.0067280596
 40
0.157480315
100
AcDbArc
 50
90.0
 51
180.0
  0
ARC
  5
83A
100
AcDbEntity
  8
0
100
AcDbCircle
 62
7
  6
CONTINUOUS
 10
7.9945088099
 20
5.0067280596
 40
0.157480315
100
AcDbArc
 50
0.0
 51
90.0
  0
ARC
  5
83B
100
AcDbEntity
  8
0
100
AcDbCircle
 62
7
  6
CONTINUOUS
 10
4.1303355816
 20
3.9772005006
 40
0.1515748031
100
AcDbArc
 50
180.0
 51
270.0
  0
ARC
  5
83C
100
AcDbEntity
  8
0
100
AcDbCircle
 62
7
  6
CONTINUOUS
 10
8.1578946367
 20
3.9772005006
 40
0.1515748031
100
AcDbArc
 50
270.0
 51
360.0
  0
ARC
  5
83D
100
AcDbEntity
  8
0
100
AcDbCircle
 62
7
  6
CONTINUOUS
 10
7.3990581118
 20
4.2373962294
 40
0.0885826772
100
AcDbArc
 50
165.0
 51
345.0
  0
ARC
  5
83E
100
AcDbEntity
  8
0
100
AcDbCircle
 62
7
  6
CONTINUOUS
 10
7.3990581118
 20
4.9099181576
 40
0.0885826772
100
AcDbArc
 50
15.0
 51
195.0
  0
ARC
  5
83F
100
AcDbEntity
  8
0
100
AcDbCircle
 62
7
  6
CONTINUOUS
 10
7.2464773139
 20
4.5736571935
 40
0.0885826772
100
AcDbArc
 50
90.0
 51
270.0
  0
ARC
  5
840
100
AcDbEntity
  8
0
100
AcDbCircle
 62
7
  6
CONTINUOUS
 10
4.8891721065
 20
4.2373962294
 40
0.0885826772
100
AcDbArc
 50
195.0
 51
15.0
  0
ARC
  5
841
100
AcDbEntity
  8
0
100
AcDbCircle
 62
7
  6
CONTINUOUS
 10
5.0417529044
 20
4.5736571935
 40
0.0885826772
100
AcDbArc
 50
270.0
 51
90.0
  0
ARC
  5
842
100
AcDbEntity
  8
0
100
AcDbCircle
 62
7
  6
CONTINUOUS
 10
4.8891721065
 20
4.9099181576
 40
0.0885826772
100
AcDbArc
 50
345.0
 51
165.0
  0
CIRCLE
  5
843
100
AcDbEntity
  8
0
100
AcDbCircle
 62
7
  6
CONTINUOUS
 10
6.1441151091
 20
4.5736571935
 40
0.0885826772
  0
ARC
  5
844
100
AcDbEntity
  8
0
100
AcDbCircle
 62
7
  6
CONTINUOUS
 10
8.1578946367
 20
3.9772005006
 40
0.0787401575
100
AcDbArc
 50
270.0
 51
360.0
  0
ARC
  5
845
100
AcDbEntity
  8
0
100
AcDbCircle
 62
7
  6
CONTINUOUS
 10
4.1303355816
 20
3.9772005006
 40
0.0787401575
100
AcDbArc
 50
180.0
 51
270.0
  0
ENDSEC
  0
SECTION
  2
OBJECTS
  0
DICTIONARY
  5
C
100
AcDbDictionary
280
0
281
1
  3
ACAD_GROUP
350
D
  3
ACAD_MLINESTYLE
350
17
  3
ACAD_LAYOUT
350
1A
  3
ACAD_PLOTSETTINGS
350
19
  3
ACAD_PLOTSTYLENAME
350
E
  0
DICTIONARY
  5
D
102
{ACAD_REACTORS
330
C
102
}
100
AcDbDictionary
280
0
281
1
  0
ACDBDICTIONARYWDFLT
  5
E
102
{ACAD_REACTORS
330
C
102
}
100
AcDbDictionary
281
1
  3
Normal
350
F
100
AcDbDictionaryWithDefault
340
F
  0
DICTIONARY
  5
17
102
{ACAD_REACTORS
330
C
102
}
100
AcDbDictionary
280
0
281
1
  3
Standard
350
18
  0
DICTIONARY
  5
19
102
{ACAD_REACTORS
330
C
102
}
100
AcDbDictionary
281
1
  0
DICTIONARY
  5
1A
102
{ACAD_REACTORS
330
C
102
}
100
AcDbDictionary
281
1
  3
Layout1
350
1E
  3
Model
350
22
  0
ACDBPLACEHOLDER
  5
F
102
{ACAD_REACTORS
330
E
102
}
  0
MLINESTYLE
  5
18
102
{ACAD_REACTORS
330
17
102
}
100
AcDbMlineStyle
  2
STANDARD
 70
0
  3

 62
256
 51
90.0
 52
90.0
 71
2
 49
0.5
 62
256
  6
BYLAYER
 49
-0.5
 62
256
  6
BYLAYER
  0
LAYOUT
  5
1E
102
{ACAD_REACTORS
330
1A
102
}
100
AcDbPlotSettings
  1

  2

  4

  6

 40
0.0
 41
0.0
 42
0.0
 43
0.0
 44
0.0
 45
0.0
 46
0.0
 47
0.0
 48
0.0
 49
0.0
140
0.0
141
0.0
142
1.0
143
1.0
 70
0
 72
0
 73
0
 74
0
  7

 75
0
147
1.0
148
0.0
149
0.0
100
AcDbLayout
  1
Layout1
 70
0
 71
0
 10
0.0
 20
0.0
 11
0.0
 21
0.0
 12
0.0
 22
0.0
 32
0.0
 14
0.0
 24
0.0
 34
0.0
 15
0.0
 25
0.0
 35
0.0
146
0.0
 13
0.0
 23
0.0
 33
0.0
 16
0.0
 26
0.0
 36
0.0
 17
0.0
 27
0.0
 37
0.0
 76
0
330
1B
331
0
345
0
346
0
  0
LAYOUT
  5
22
102
{ACAD_REACTORS
330
1A
102
}
100
AcDbPlotSettings
  1

  2

  4

  6

 40
0.0
 41
0.0
 42
0.0
 43
0.0
 44
0.0
 45
0.0
 46
0.0
 47
0.0
 48
0.0
 49
0.0
140
0.0
141
0.0
142
1.0
143
1.0
 70
0
 72
0
 73
0
 74
0
  7

 75
0
147
1.0
148
0.0
149
0.0
100
AcDbLayout
  1
Model
 70
0
 71
0
 10
0.0
 20
0.0
 11
0.0
 21
0.0
 12
0.0
 22
0.0
 32
0.0
 14
0.0
 24
0.0
 34
0.0
 15
0.0
 25
0.0
 35
0.0
146
0.0
 13
0.0
 23
0.0
 33
0.0
 16
0.0
 26
0.0
 36
0.0
 17
0.0
 27
0.0
 37
0.0
 76
0
330
1F
331
0
345
0
346
0
  0
ENDSEC
  0
EOF
